  0
SECTION
  2
HEADER
  9
$ACADVER
  1
AC1015
  9
$ACADMAINTVER
 70
     6
  9
$DWGCODEPAGE
  3
ANSI_949
  9
$INSBASE
 10
0.0
 20
0.0
 30
0.0
  9
$EXTMIN
 10
-61.89000000000009
 20
-49.97073246008785
 30
0.0
  9
$EXTMAX
 10
101.1634838153456
 20
49.94746856623912
 30
0.0
  9
$LIMMIN
 10
0.0
 20
0.0
  9
$LIMMAX
 10
420.0
 20
297.0
  9
$ORTHOMODE
 70
     0
  9
$REGENMODE
 70
     1
  9
$FILLMODE
 70
     1
  9
$QTEXTMODE
 70
     0
  9
$MIRRTEXT
 70
     1
  9
$LTSCALE
 40
1.0
  9
$ATTMODE
 70
     1
  9
$TEXTSIZE
 40
3.5
  9
$TRACEWID
 40
1.0
  9
$TEXTSTYLE
  7
Standard
  9
$CLAYER
  8
0
  9
$CELTYPE
  6
ByLayer
  9
$CECOLOR
 62
   256
  9
$CELTSCALE
 40
1.0
  9
$DISPSILH
 70
     0
  9
$DIMSCALE
 40
1.0
  9
$DIMASZ
 40
3.302
  9
$DIMEXO
 40
1.0
  9
$DIMDLI
 40
3.75
  9
$DIMRND
 40
0.0
  9
$DIMDLE
 40
0.0
  9
$DIMEXE
 40
1.0
  9
$DIMTP
 40
0.0
  9
$DIMTM
 40
0.0
  9
$DIMTXT
 40
3.5
  9
$DIMCEN
 40
2.5
  9
$DIMTSZ
 40
0.0
  9
$DIMTOL
 70
     0
  9
$DIMLIM
 70
     0
  9
$DIMTIH
 70
     1
  9
$DIMTOH
 70
     1
  9
$DIMSE1
 70
     0
  9
$DIMSE2
 70
     0
  9
$DIMTAD
 70
     1
  9
$DIMZIN
 70
     0
  9
$DIMBLK
  1

  9
$DIMASO
 70
     1
  9
$DIMSHO
 70
     1
  9
$DIMPOST
  1

  9
$DIMAPOST
  1

  9
$DIMALT
 70
     0
  9
$DIMALTD
 70
     3
  9
$DIMALTF
 40
0.0393700787401575
  9
$DIMLFAC
 40
1.0
  9
$DIMTOFL
 70
     1
  9
$DIMTVP
 40
0.0
  9
$DIMTIX
 70
     0
  9
$DIMSOXD
 70
     0
  9
$DIMSAH
 70
     0
  9
$DIMBLK1
  1

  9
$DIMBLK2
  1

  9
$DIMSTYLE
  2
ISO-25
  9
$DIMCLRD
 70
     0
  9
$DIMCLRE
 70
     0
  9
$DIMCLRT
 70
     0
  9
$DIMTFAC
 40
1.0
  9
$DIMGAP
 40
1.524
  9
$DIMJUST
 70
     0
  9
$DIMSD1
 70
     0
  9
$DIMSD2
 70
     0
  9
$DIMTOLJ
 70
     0
  9
$DIMTZIN
 70
     0
  9
$DIMALTZ
 70
     0
  9
$DIMALTTZ
 70
     0
  9
$DIMUPT
 70
     0
  9
$DIMDEC
 70
     2
  9
$DIMTDEC
 70
     2
  9
$DIMALTU
 70
     2
  9
$DIMALTTD
 70
     3
  9
$DIMTXSTY
  7
Standard
  9
$DIMAUNIT
 70
     0
  9
$DIMADEC
 70
     2
  9
$DIMALTRND
 40
0.0
  9
$DIMAZIN
 70
     0
  9
$DIMDSEP
 70
    44
  9
$DIMATFIT
 70
     3
  9
$DIMFRAC
 70
     0
  9
$DIMLDRBLK
  1

  9
$DIMLUNIT
 70
     2
  9
$DIMLWD
 70
    -2
  9
$DIMLWE
 70
    -2
  9
$DIMTMOVE
 70
     0
  9
$LUNITS
 70
     2
  9
$LUPREC
 70
     2
  9
$SKETCHINC
 40
1.0
  9
$FILLETRAD
 40
10.0
  9
$AUNITS
 70
     0
  9
$AUPREC
 70
     2
  9
$MENU
  1
.
  9
$ELEVATION
 40
0.0
  9
$PELEVATION
 40
0.0
  9
$THICKNESS
 40
0.0
  9
$LIMCHECK
 70
     0
  9
$CHAMFERA
 40
0.0
  9
$CHAMFERB
 40
0.0
  9
$CHAMFERC
 40
0.0
  9
$CHAMFERD
 40
0.0
  9
$SKPOLY
 70
     0
  9
$TDCREATE
 40
2458323.443650984
  9
$TDUCREATE
 40
2458323.068650984
  9
$TDUPDATE
 40
2458330.514654271
  9
$TDUUPDATE
 40
2458330.139654271
  9
$TDINDWG
 40
0.0005956829
  9
$TDUSRTIMER
 40
2458330.139611667
  9
$USRTIMER
 70
     1
  9
$ANGBASE
 50
0.0
  9
$ANGDIR
 70
     0
  9
$PDMODE
 70
     0
  9
$PDSIZE
 40
-1.0
  9
$PLINEWID
 40
0.0
  9
$SPLFRAME
 70
     0
  9
$SPLINETYPE
 70
     6
  9
$SPLINESEGS
 70
     8
  9
$HANDSEED
  5
2C5
  9
$SURFTAB1
 70
     6
  9
$SURFTAB2
 70
     6
  9
$SURFTYPE
 70
     6
  9
$SURFU
 70
     6
  9
$SURFV
 70
     6
  9
$UCSBASE
  2

  9
$UCSNAME
  2

  9
$UCSORG
 10
0.0
 20
0.0
 30
0.0
  9
$UCSXDIR
 10
1.0
 20
0.0
 30
0.0
  9
$UCSYDIR
 10
0.0
 20
1.0
 30
0.0
  9
$UCSORTHOREF
  2

  9
$UCSORTHOVIEW
 70
     0
  9
$UCSORGTOP
 10
0.0
 20
0.0
 30
0.0
  9
$UCSORGBOTTOM
 10
0.0
 20
0.0
 30
0.0
  9
$UCSORGLEFT
 10
0.0
 20
0.0
 30
0.0
  9
$UCSORGRIGHT
 10
0.0
 20
0.0
 30
0.0
  9
$UCSORGFRONT
 10
0.0
 20
0.0
 30
0.0
  9
$UCSORGBACK
 10
0.0
 20
0.0
 30
0.0
  9
$PUCSBASE
  2

  9
$PUCSNAME
  2

  9
$PUCSORG
 10
0.0
 20
0.0
 30
0.0
  9
$PUCSXDIR
 10
1.0
 20
0.0
 30
0.0
  9
$PUCSYDIR
 10
0.0
 20
1.0
 30
0.0
  9
$PUCSORTHOREF
  2

  9
$PUCSORTHOVIEW
 70
     0
  9
$PUCSORGTOP
 10
0.0
 20
0.0
 30
0.0
  9
$PUCSORGBOTTOM
 10
0.0
 20
0.0
 30
0.0
  9
$PUCSORGLEFT
 10
0.0
 20
0.0
 30
0.0
  9
$PUCSORGRIGHT
 10
0.0
 20
0.0
 30
0.0
  9
$PUCSORGFRONT
 10
0.0
 20
0.0
 30
0.0
  9
$PUCSORGBACK
 10
0.0
 20
0.0
 30
0.0
  9
$USERI1
 70
     0
  9
$USERI2
 70
     0
  9
$USERI3
 70
     0
  9
$USERI4
 70
     0
  9
$USERI5
 70
     0
  9
$USERR1
 40
0.0
  9
$USERR2
 40
0.0
  9
$USERR3
 40
0.0
  9
$USERR4
 40
0.0
  9
$USERR5
 40
0.0
  9
$WORLDVIEW
 70
     1
  9
$SHADEDGE
 70
     3
  9
$SHADEDIF
 70
    70
  9
$TILEMODE
 70
     1
  9
$MAXACTVP
 70
    64
  9
$PINSBASE
 10
0.0
 20
0.0
 30
0.0
  9
$PLIMCHECK
 70
     0
  9
$PEXTMIN
 10
1.000000000000000E+20
 20
1.000000000000000E+20
 30
1.000000000000000E+20
  9
$PEXTMAX
 10
-1.000000000000000E+20
 20
-1.000000000000000E+20
 30
-1.000000000000000E+20
  9
$PLIMMIN
 10
0.0
 20
0.0
  9
$PLIMMAX
 10
0.0
 20
0.0
  9
$UNITMODE
 70
     0
  9
$VISRETAIN
 70
     1
  9
$PLINEGEN
 70
     0
  9
$PSLTSCALE
 70
     1
  9
$TREEDEPTH
 70
  3020
  9
$CMLSTYLE
  2
Standard
  9
$CMLJUST
 70
     0
  9
$CMLSCALE
 40
20.0
  9
$PROXYGRAPHICS
 70
     1
  9
$MEASUREMENT
 70
     1
  9
$CELWEIGHT
370
    -1
  9
$ENDCAPS
280
     0
  9
$JOINSTYLE
280
     0
  9
$LWDISPLAY
290
     1
  9
$INSUNITS
 70
     4
  9
$HYPERLINKBASE
  1

  9
$STYLESHEET
  1

  9
$XEDIT
290
     1
  9
$CEPSNTYPE
380
     0
  9
$PSTYLEMODE
290
     1
  9
$FINGERPRINTGUID
  2
{0C2E502A-9942-4149-A1BC-5A4ED6B50CF5}
  9
$VERSIONGUID
  2
{FAEB1C32-E019-11D5-929B-00C0DF256EC4}
  9
$EXTNAMES
290
     1
  9
$PSVPSCALE
 40
0.0
  9
$OLESTARTUP
290
     0
  0
ENDSEC
  0
SECTION
  2
CLASSES
  0
CLASS
  1
ACDBDICTIONARYWDFLT
  2
AcDbDictionaryWithDefault
  3
ObjectDBX Classes
 90
        0
280
     0
281
     0
  0
CLASS
  1
VISUALSTYLE
  2
AcDbVisualStyle
  3
ObjectDBX Classes
 90
     4095
280
     0
281
     0
  0
CLASS
  1
MATERIAL
  2
AcDbMaterial
  3
ObjectDBX Classes
 90
     1153
280
     0
281
     0
  0
CLASS
  1
SCALE
  2
AcDbScale
  3
ObjectDBX Classes
 90
     1153
280
     0
281
     0
  0
CLASS
  1
SUN
  2
AcDbSun
  3
SCENEOE
 90
     1153
280
     0
281
     0
  0
CLASS
  1
ACDBPLACEHOLDER
  2
AcDbPlaceHolder
  3
ObjectDBX Classes
 90
        0
280
     0
281
     0
  0
CLASS
  1
LAYOUT
  2
AcDbLayout
  3
ObjectDBX Classes
 90
        0
280
     0
281
     0
  0
CLASS
  1
TABLESTYLE
  2
AcDbTableStyle
  3
ObjectDBX Classes
 90
     4095
280
     0
281
     0
  0
CLASS
  1
MLEADERSTYLE
  2
AcDbMLeaderStyle
  3
ACDB_MLEADERSTYLE_CLASS
 90
     4095
280
     0
281
     0
  0
CLASS
  1
RASTERVARIABLES
  2
AcDbRasterVariables
  3
ISM
 90
        0
280
     0
281
     0
  0
ENDSEC
  0
SECTION
  2
TABLES
  0
TABLE
  2
VPORT
  5
8
330
0
100
AcDbSymbolTable
 70
     1
  0
VPORT
  5
29
330
8
100
AcDbSymbolTableRecord
100
AcDbViewportTableRecord
  2
*Active
 70
     0
 10
0.0
 20
0.0
 11
1.0
 21
1.0
 12
27.41337192850281
 22
-26.44164162028204
 13
0.0
 23
0.0
 14
10.0
 24
10.0
 15
10.0
 25
10.0
 16
0.0
 26
0.0
 36
1.0
 17
0.0
 27
0.0
 37
0.0
 40
133.388126811541
 41
1.516441005802708
 42
50.0
 43
0.0
 44
0.0
 50
0.0
 51
0.0
 71
    16
 72
  2000
 73
     1
 74
     3
 75
     0
 76
     0
 77
     0
 78
     0
281
     0
 65
     1
110
0.0
120
0.0
130
0.0
111
1.0
121
0.0
131
0.0
112
0.0
122
1.0
132
0.0
 79
     0
146
0.0
  0
ENDTAB
  0
TABLE
  2
LTYPE
  5
5
330
0
100
AcDbSymbolTable
 70
     6
  0
LTYPE
  5
14
330
5
100
AcDbSymbolTableRecord
100
AcDbLinetypeTableRecord
  2
ByBlock
 70
     0
  3

 72
    65
 73
     0
 40
0.0
  0
LTYPE
  5
15
330
5
100
AcDbSymbolTableRecord
100
AcDbLinetypeTableRecord
  2
ByLayer
 70
     0
  3

 72
    65
 73
     0
 40
0.0
  0
LTYPE
  5
16
330
5
100
AcDbSymbolTableRecord
100
AcDbLinetypeTableRecord
  2
Continuous
 70
     0
  3
Solid line
 72
    65
 73
     0
 40
0.0
  0
LTYPE
  5
6A
330
5
100
AcDbSymbolTableRecord
100
AcDbLinetypeTableRecord
  2
HIDDEN
 70
     0
  3
Hidden __ __ __ __ __ __ __ __ __ __ __ __ __ __
 72
    65
 73
     2
 40
1.905
 49
1.27
 74
     0
 49
-0.635
 74
     0
  0
LTYPE
  5
6B
330
5
100
AcDbSymbolTableRecord
100
AcDbLinetypeTableRecord
  2
PHANTOM
 70
     0
  3
Phantom ______  __  __  ______  __  __  ______
 72
    65
 73
     6
 40
12.7
 49
6.35
 74
     0
 49
-1.27
 74
     0
 49
1.27
 74
     0
 49
-1.27
 74
     0
 49
1.27
 74
     0
 49
-1.27
 74
     0
  0
LTYPE
  5
6C
330
5
100
AcDbSymbolTableRecord
100
AcDbLinetypeTableRecord
  2
CENTER
 70
     0
  3
Center ____ _ ____ _ ____ _ ____ _ ____ _ ____
 72
    65
 73
     4
 40
10.16
 49
6.35
 74
     0
 49
-1.27
 74
     0
 49
1.27
 74
     0
 49
-1.27
 74
     0
  0
LTYPE
  5
6D
330
5
100
AcDbSymbolTableRecord
100
AcDbLinetypeTableRecord
  2
CENTERX2
 70
     0
  3
Center (2x) ________  __  ________  __  _____
 72
    65
 73
     4
 40
20.32
 49
12.7
 74
     0
 49
-2.54
 74
     0
 49
2.54
 74
     0
 49
-2.54
 74
     0
  0
LTYPE
  5
6E
330
5
100
AcDbSymbolTableRecord
100
AcDbLinetypeTableRecord
  2
DOT2
 70
     0
  3
Dot (.5x) ........................................
 72
    65
 73
     2
 40
0.635
 49
0.0
 74
     0
 49
-0.635
 74
     0
  0
ENDTAB
  0
TABLE
  2
LAYER
  5
2
102
{ACAD_XDICTIONARY
360
1FA
102
}
330
0
100
AcDbSymbolTable
 70
    18
  0
LAYER
  5
10
330
2
100
AcDbSymbolTableRecord
100
AcDbLayerTableRecord
  2
0
 70
     0
 62
     7
  6
Continuous
370
    -3
390
F
  0
LAYER
  5
6F
330
2
100
AcDbSymbolTableRecord
100
AcDbLayerTableRecord
  2
FORMAT
 70
     0
 62
     2
  6
Continuous
370
    -3
390
F
  0
LAYER
  5
70
330
2
100
AcDbSymbolTableRecord
100
AcDbLayerTableRecord
  2
외형선
 70
     0
 62
     4
  6
Continuous
370
    30
390
F
  0
LAYER
  5
71
330
2
100
AcDbSymbolTableRecord
100
AcDbLayerTableRecord
  2
숨은선
 70
     0
 62
     2
  6
HIDDEN
370
    15
390
F
  0
LAYER
  5
72
330
2
100
AcDbSymbolTableRecord
100
AcDbLayerTableRecord
  2
중심선
 70
     0
 62
     1
  6
CENTERX2
370
    -3
390
F
  0
LAYER
  5
73
330
2
100
AcDbSymbolTableRecord
100
AcDbLayerTableRecord
  2
파단선
 70
     0
 62
     4
  6
Continuous
370
    -3
390
F
  0
LAYER
  5
74
330
2
100
AcDbSymbolTableRecord
100
AcDbLayerTableRecord
  2
해칭선
 70
     0
 62
   100
  6
Continuous
370
    -3
390
F
  0
LAYER
  5
75
330
2
100
AcDbSymbolTableRecord
100
AcDbLayerTableRecord
  2
가는실선
 70
     0
 62
     4
  6
Continuous
370
    -3
390
F
  0
LAYER
  5
76
330
2
100
AcDbSymbolTableRecord
100
AcDbLayerTableRecord
  2
치수_보조선
 70
     0
 62
     4
  6
Continuous
370
    -3
390
F
  0
LAYER
  5
77
330
2
100
AcDbSymbolTableRecord
100
AcDbLayerTableRecord
  2
치수문자_일반주서
 70
     0
 62
     7
  6
Continuous
370
    15
390
F
  0
LAYER
  5
78
330
2
100
AcDbSymbolTableRecord
100
AcDbLayerTableRecord
  2
개별주서
 70
     0
 62
   100
  6
Continuous
370
    30
390
F
  0
LAYER
  5
79
330
2
100
AcDbSymbolTableRecord
100
AcDbLayerTableRecord
  2
중간선
 70
     0
 62
     2
  6
Continuous
370
    15
390
F
  0
LAYER
  5
7A
330
2
100
AcDbSymbolTableRecord
100
AcDbLayerTableRecord
  2
윤곽선
 70
     0
 62
     3
  6
Continuous
370
    40
390
F
  0
LAYER
  5
7B
330
2
100
AcDbSymbolTableRecord
100
AcDbLayerTableRecord
  2
중심마크
 70
     0
 62
   100
  6
Continuous
370
    30
390
F
  0
LAYER
  5
7C
330
2
100
AcDbSymbolTableRecord
100
AcDbLayerTableRecord
  2
가상선
 70
     0
 62
     4
  6
PHANTOM
370
    -3
390
F
  0
LAYER
  5
7D
330
2
100
AcDbSymbolTableRecord
100
AcDbLayerTableRecord
  2
특수지정선
 70
     0
 62
     5
  6
CENTERX2
370
    60
390
F
  0
LAYER
  5
7E
330
2
100
AcDbSymbolTableRecord
100
AcDbLayerTableRecord
  2
참조1
 70
     0
 62
    -4
  6
Continuous
370
    -3
390
F
  0
LAYER
  5
164
330
2
100
AcDbSymbolTableRecord
100
AcDbLayerTableRecord
  2
Defpoints
 70
     0
 62
     7
  6
Continuous
290
     0
370
    -3
390
F
  0
ENDTAB
  0
TABLE
  2
STYLE
  5
3
330
0
100
AcDbSymbolTable
 70
     2
  0
STYLE
  5
11
330
3
100
AcDbSymbolTableRecord
100
AcDbTextStyleTableRecord
  2
Standard
 70
     0
 40
0.0
 41
1.0
 50
0.0
 71
     0
 42
3.5
  3
txt
  4

  0
STYLE
  5
94
330
3
100
AcDbSymbolTableRecord
100
AcDbTextStyleTableRecord
  2
SLDTEXTSTYLE0
 70
     0
 40
0.0
 41
0.75
 50
0.0
 71
     0
 42
3.5
  3
TXT
  4

  0
ENDTAB
  0
TABLE
  2
VIEW
  5
6
330
0
100
AcDbSymbolTable
 70
     0
  0
ENDTAB
  0
TABLE
  2
UCS
  5
7
330
0
100
AcDbSymbolTable
 70
     0
  0
ENDTAB
  0
TABLE
  2
APPID
  5
9
330
0
100
AcDbSymbolTable
 70
     1
  0
APPID
  5
12
330
9
100
AcDbSymbolTableRecord
100
AcDbRegAppTableRecord
  2
ACAD
 70
     0
  0
ENDTAB
  0
TABLE
  2
DIMSTYLE
  5
A
330
0
100
AcDbSymbolTable
 70
     3
100
AcDbDimStyleTable
  0
DIMSTYLE
105
27
330
A
100
AcDbSymbolTableRecord
100
AcDbDimStyleTableRecord
  2
ISO-25
 70
     0
 41
2.5
 42
0.625
 43
3.75
 44
1.25
 73
     0
 74
     0
 77
     1
 78
     8
140
2.5
141
2.5
143
0.03937007874016
147
0.625
171
     3
172
     1
178
     0
271
     2
272
     2
274
     3
278
    44
283
     0
284
     8
340
11
  0
DIMSTYLE
105
E3
102
{ACAD_REACTORS
330
E2
330
F7
330
10B
330
11E
102
}
330
A
100
AcDbSymbolTableRecord
100
AcDbDimStyleTableRecord
  2
SLDDIMSTYLE0
 70
     0
 41
3.302
 44
0.0
 45
0.000000001
 73
     0
 74
     0
 77
     1
 78
    12
 79
     3
140
3.5
143
0.0393700787401575
147
0.875
148
0.000000001
170
     1
172
     1
173
     1
178
     0
271
     2
272
     2
276
     2
284
    12
289
     0
340
94
  0
DIMSTYLE
105
F8
330
A
100
AcDbSymbolTableRecord
100
AcDbDimStyleTableRecord
  2
SLDDIMSTYLE1
 70
     0
 41
3.302
 44
0.0
 45
0.000000001
 73
     0
 74
     0
 77
     1
 78
    12
 79
     3
140
3.5
143
0.0393700787401575
147
0.875
148
0.000000001
170
     1
173
     1
178
     0
271
     2
272
     2
276
     2
284
    12
340
94
  0
ENDTAB
  0
TABLE
  2
BLOCK_RECORD
  5
1
330
0
100
AcDbSymbolTable
 70
    15
  0
BLOCK_RECORD
  5
1F
330
1
100
AcDbSymbolTableRecord
100
AcDbBlockTableRecord
  2
*Model_Space
340
22
  0
BLOCK_RECORD
  5
1B
330
1
100
AcDbSymbolTableRecord
100
AcDbBlockTableRecord
  2
*Paper_Space
340
1E
  0
BLOCK_RECORD
  5
23
330
1
100
AcDbSymbolTableRecord
100
AcDbBlockTableRecord
  2
*Paper_Space0
340
26
  0
BLOCK_RECORD
  5
7F
330
1
100
AcDbSymbolTableRecord
100
AcDbBlockTableRecord
  2
블럭10
340
0
102
{BLKREFS
331
DB
102
}
  0
BLOCK_RECORD
  5
E4
330
1
100
AcDbSymbolTableRecord
100
AcDbBlockTableRecord
  2
_D
340
0
  0
BLOCK_RECORD
  5
F9
330
1
100
AcDbSymbolTableRecord
100
AcDbBlockTableRecord
  2
_D_1
340
0
  0
BLOCK_RECORD
  5
10C
330
1
100
AcDbSymbolTableRecord
100
AcDbBlockTableRecord
  2
_D_2
340
0
  0
BLOCK_RECORD
  5
11F
330
1
100
AcDbSymbolTableRecord
100
AcDbBlockTableRecord
  2
_D_3
340
0
  0
BLOCK_RECORD
  5
138
330
1
100
AcDbSymbolTableRecord
100
AcDbBlockTableRecord
  2
SW_DOWELSYMBOL_0
340
0
102
{BLKREFS
331
13E
102
}
  0
BLOCK_RECORD
  5
1AE
330
1
100
AcDbSymbolTableRecord
100
AcDbBlockTableRecord
  2
*D7
340
0
  0
BLOCK_RECORD
  5
1BB
330
1
100
AcDbSymbolTableRecord
100
AcDbBlockTableRecord
  2
*D8
340
0
  0
BLOCK_RECORD
  5
1C8
330
1
100
AcDbSymbolTableRecord
100
AcDbBlockTableRecord
  2
*D9
340
0
  0
BLOCK_RECORD
  5
1D5
330
1
100
AcDbSymbolTableRecord
100
AcDbBlockTableRecord
  2
*D10
340
0
  0
BLOCK_RECORD
  5
233
330
1
100
AcDbSymbolTableRecord
100
AcDbBlockTableRecord
  2
*D11
340
0
  0
BLOCK_RECORD
  5
23F
330
1
100
AcDbSymbolTableRecord
100
AcDbBlockTableRecord
  2
*D12
340
0
  0
BLOCK_RECORD
  5
24B
330
1
100
AcDbSymbolTableRecord
100
AcDbBlockTableRecord
  2
*D13
340
0
  0
BLOCK_RECORD
  5
257
330
1
100
AcDbSymbolTableRecord
100
AcDbBlockTableRecord
  2
*D14
340
0
  0
ENDTAB
  0
ENDSEC
  0
SECTION
  2
BLOCKS
  0
BLOCK
  5
20
330
1F
100
AcDbEntity
  8
0
100
AcDbBlockBegin
  2
*Model_Space
 70
     0
 10
0.0
 20
0.0
 30
0.0
  3
*Model_Space
  1
*Model_Space
  0
ENDBLK
  5
21
330
1F
100
AcDbEntity
  8
0
100
AcDbBlockEnd
  0
BLOCK
  5
1C
330
1B
100
AcDbEntity
 67
     1
  8
0
100
AcDbBlockBegin
  2
*Paper_Space
 70
     0
 10
0.0
 20
0.0
 30
0.0
  3
*Paper_Space
  1
*Paper_Space
  0
ENDBLK
  5
1D
330
1B
100
AcDbEntity
 67
     1
  8
0
100
AcDbBlockEnd
  0
BLOCK
  5
24
330
23
100
AcDbEntity
  8
0
100
AcDbBlockBegin
  2
*Paper_Space0
 70
     0
 10
0.0
 20
0.0
 30
0.0
  3
*Paper_Space0
  1
*Paper_Space0
  0
ENDBLK
  5
25
330
23
100
AcDbEntity
  8
0
100
AcDbBlockEnd
  0
BLOCK
  5
80
330
7F
100
AcDbEntity
  8
0
100
AcDbBlockBegin
  2
블럭10
 70
     2
 10
0.0
 20
0.0
 30
0.0
  3
블럭10
  1
블럭10
  0
ELLIPSE
  5
82
330
7F
100
AcDbEntity
  8
중심선
100
AcDbEllipse
 10
20.54032771741204
 20
12.0471743016438
 30
0.0
 11
6.600054785286829
 21
-1.261213355974178E-13
 31
0.0
210
0.0
220
0.0
230
1.0
 40
0.636358354079598
 41
0.9219305317359503
 42
6.513795318482858
  0
ELLIPSE
  5
83
330
7F
100
AcDbEntity
  8
중심선
100
AcDbEllipse
 10
20.54032771746488
 20
12.04717430159265
 30
0.0
 11
3.960054785062283
 21
1.540847449632565E-10
 31
0.0
210
0.0
220
0.0
230
1.0
 40
0.3939339440162632
 41
1.131841032648279
 42
5.62031148352944
  0
LINE
  5
84
330
7F
100
AcDbEntity
  8
중심선
100
AcDbLine
 10
2.268634060543552
 20
16.24717430164393
 30
0.0
 11
5.714909304380834
 21
16.24717430164393
 31
0.0
  0
LINE
  5
85
330
7F
100
AcDbEntity
  8
중심선
100
AcDbLine
 10
5.245725140726316
 20
7.84717430164391
 30
0.0
 11
8.692000384563599
 21
7.84717430164391
 31
0.0
  0
LINE
  5
86
330
7F
100
AcDbEntity
  8
중심선
100
AcDbLine
 10
15.74043728645272
 20
16.24717430164393
 30
0.0
 11
8.692000384563599
 21
7.84717430164391
 31
0.0
  0
LINE
  5
87
330
7F
100
AcDbEntity
  8
중심선
100
AcDbLine
 10
0.1404042013395286
 20
13.71084872107135
 30
0.0
 11
3.58671253028996
 21
13.71088815037384
 31
0.0
  0
LINE
  5
88
330
7F
100
AcDbEntity
  8
중심선
100
AcDbLine
 10
2.750260043222114
 20
10.84717430164391
 30
0.0
 11
6.196535287059397
 21
10.84717430164391
 31
0.0
  0
LINE
  5
89
330
7F
100
AcDbEntity
  8
중심선
100
AcDbLine
 10
12.29416204261559
 20
16.24717430164393
 30
0.0
 11
5.245725140726316
 21
7.84717430164391
 31
0.0
  0
LINE
  5
8A
330
7F
100
AcDbEntity
  8
중심선
100
AcDbLine
 10
10.72767329541681
 20
16.24717430164393
 30
0.0
 11
6.196535287059397
 21
10.84717430164391
 31
0.0
  0
LINE
  5
8B
330
7F
100
AcDbEntity
  8
중심선
100
AcDbLine
 10
7.28139805157953
 20
16.24717430164393
 30
0.0
 11
2.750260043222114
 21
10.84717430164391
 31
0.0
  0
LINE
  5
8C
330
7F
100
AcDbEntity
  8
중심선
100
AcDbLine
 10
5.714909304380834
 20
16.24717430164393
 30
0.0
 11
3.58671253028996
 21
13.71088815037384
 31
0.0
  0
LINE
  5
8D
330
7F
100
AcDbEntity
  8
중심선
100
AcDbLine
 10
2.268634060543552
 20
16.24717430164393
 30
0.0
 11
0.1404042013395286
 21
13.71084872107135
 31
0.0
  0
LINE
  5
8E
330
7F
100
AcDbEntity
  8
중심선
100
AcDbLine
 10
7.28139805157953
 20
16.24717430164393
 30
0.0
 11
10.72767329541681
 21
16.24717430164393
 31
0.0
  0
LINE
  5
8F
330
7F
100
AcDbEntity
  8
중심선
100
AcDbLine
 10
12.29416204261559
 20
16.24717430164393
 30
0.0
 11
15.74043728645272
 21
16.24717430164393
 31
0.0
  0
LINE
  5
90
330
7F
100
AcDbEntity
  8
중심선
100
AcDbLine
 10
19.22036997980202
 20
11.08717430171403
 30
0.0
 11
23.66174974927406
 21
11.08717430171406
 31
0.0
  0
LINE
  5
91
330
7F
100
AcDbEntity
  8
중심선
100
AcDbLine
 10
19.22039502424796
 20
13.00717430171391
 30
0.0
 11
19.22036997980202
 21
11.08717430171403
 31
0.0
  0
LINE
  5
92
330
7F
100
AcDbEntity
  8
중심선
100
AcDbLine
 10
19.22039502424796
 20
13.00717430171391
 30
0.0
 11
26.96566020931264
 21
13.00717430171391
 31
0.0
  0
LINE
  5
93
330
7F
100
AcDbEntity
  8
중심선
100
AcDbLine
 10
22.22332737316547
 20
13.45928029700563
 30
0.0
 11
24.52862924686651
 21
15.39360700705356
 31
0.0
  0
ATTDEF
  5
95
330
7F
100
AcDbEntity
  8
FORMAT
 62
     2
100
AcDbText
 10
4.408487351596664
 20
2.075366912832191
 30
0.0
 40
4.233333333333333
  1
E2032056
 41
0.75
  7
SLDTEXTSTYLE0
 11
4.408487351596664
 21
-0.0412997538344756
 31
0.0
100
AcDbAttributeDefinition
  3

  2
AUTOATTR0
 70
     0
 74
     1
  0
ENDBLK
  5
81
330
7F
100
AcDbEntity
  8
0
100
AcDbBlockEnd
  0
BLOCK
  5
E5
330
E4
100
AcDbEntity
  8
0
100
AcDbBlockBegin
  2
_D
 70
     0
 10
0.0
 20
0.0
 30
0.0
  3
_D
  1
_D
  0
LINE
  5
E7
330
E4
100
AcDbEntity
  8
치수문자_일반주서
 62
     0
370
    -2
100
AcDbLine
 10
-45.21250000000003
 20
11.11357492872389
 30
0.0
 11
-57.51500000000008
 21
11.11357492872384
 31
0.0
  0
LINE
  5
E8
330
E4
100
AcDbEntity
  8
치수문자_일반주서
 62
     0
370
    -2
100
AcDbLine
 10
-42.99000000000004
 20
-11.1114250712761
 30
0.0
 11
-57.515
 21
-11.11142507127615
 31
0.0
  0
LINE
  5
E9
330
E4
100
AcDbEntity
  8
치수문자_일반주서
 62
     0
370
    -2
100
AcDbLine
 10
-57.51500000000006
 20
7.811574928723841
 30
0.0
 11
-57.51500000000001
 21
-7.809425071276154
 31
0.0
  0
SOLID
  5
EA
330
E4
100
AcDbEntity
  8
치수문자_일반주서
 62
     0
100
AcDbTrace
 10
-56.96466666666673
 20
7.811574928723843
 30
0.0
 11
-58.0653333333334
 21
7.811574928723839
 31
0.0
 12
-57.51500000000008
 22
11.11357492872384
 32
0.0
 13
-57.51500000000008
 23
11.11357492872384
 33
0.0
  0
SOLID
  5
EB
330
E4
100
AcDbEntity
  8
치수문자_일반주서
 62
     0
100
AcDbTrace
 10
-58.06533333333335
 20
-7.809425071276156
 30
0.0
 11
-56.96466666666668
 21
-7.809425071276152
 31
0.0
 12
-57.515
 22
-11.11142507127615
 32
0.0
 13
-57.515
 23
-11.11142507127615
 33
0.0
  0
MTEXT
  5
EC
330
E4
100
AcDbEntity
  8
치수문자_일반주서
 62
     0
100
AcDbMText
 10
-61.89000000000004
 20
0.0010749287238752
 30
0.0
 40
3.5
 41
0.0
 71
     2
 72
     1
  1
\A1;%%c22.23 [7/8]
  7
SLDTEXTSTYLE0
 11
-3.516746948643916E-15
 21
1.0
 31
0.0
 73
     1
 44
1.0
  0
POINT
  5
ED
330
E4
100
AcDbEntity
  8
Defpoints
 62
     0
100
AcDbPoint
 10
-45.15000000000003
 20
11.11357492872389
 30
0.0
  0
POINT
  5
EE
330
E4
100
AcDbEntity
  8
Defpoints
 62
     0
100
AcDbPoint
 10
-42.92750000000004
 20
-11.1114250712761
 30
0.0
  0
POINT
  5
EF
330
E4
100
AcDbEntity
  8
Defpoints
 62
     0
100
AcDbPoint
 10
-57.515
 20
-11.11142507127616
 30
0.0
  0
ENDBLK
  5
E6
330
E4
100
AcDbEntity
  8
0
100
AcDbBlockEnd
  0
BLOCK
  5
FA
330
F9
100
AcDbEntity
  8
0
100
AcDbBlockBegin
  2
_D_1
 70
     0
 10
0.0
 20
0.0
 30
0.0
  3
_D_1
  1
_D_1
  0
LINE
  5
FC
330
F9
100
AcDbEntity
  8
치수문자_일반주서
 62
     0
370
    -2
100
AcDbLine
 10
59.62499999999999
 20
11.1760749287239
 30
0.0
 11
59.62499999999999
 21
33.57246856623912
 31
0.0
  0
LINE
  5
FD
330
F9
100
AcDbEntity
  8
치수문자_일반주서
 62
     0
370
    -2
100
AcDbLine
 10
12.0
 20
11.17288941477789
 30
0.0
 11
12.0
 21
33.57246856623912
 31
0.0
  0
LINE
  5
FE
330
F9
100
AcDbEntity
  8
치수문자_일반주서
 62
     0
370
    -2
100
AcDbLine
 10
56.32299999999999
 20
33.57246856623912
 30
0.0
 11
15.302
 21
33.57246856623912
 31
0.0
  0
SOLID
  5
FF
330
F9
100
AcDbEntity
  8
치수문자_일반주서
 62
     0
100
AcDbTrace
 10
56.32299999999999
 20
33.02213523290579
 30
0.0
 11
56.32299999999999
 21
34.12280189957246
 31
0.0
 12
59.62499999999999
 22
33.57246856623912
 32
0.0
 13
59.62499999999999
 23
33.57246856623912
 33
0.0
  0
SOLID
  5
100
330
F9
100
AcDbEntity
  8
치수문자_일반주서
 62
     0
100
AcDbTrace
 10
15.302
 20
34.12280189957246
 30
0.0
 11
15.302
 21
33.02213523290579
 31
0.0
 12
12.0
 22
33.57246856623912
 32
0.0
 13
12.0
 23
33.57246856623912
 33
0.0
  0
MTEXT
  5
101
330
F9
100
AcDbEntity
  8
치수문자_일반주서
 62
     0
100
AcDbMText
 10
35.81249999999999
 20
37.94746856623912
 30
0.0
 40
3.5
 41
0.0
 71
     2
 72
     1
  1
\A1;47.63 [1 7/8]
  7
SLDTEXTSTYLE0
 73
     1
 44
1.0
  0
POINT
  5
102
330
F9
100
AcDbEntity
  8
Defpoints
 62
     0
100
AcDbPoint
 10
59.62499999999999
 20
11.1135749287239
 30
0.0
  0
POINT
  5
103
330
F9
100
AcDbEntity
  8
Defpoints
 62
     0
100
AcDbPoint
 10
12.0
 20
11.11038941477789
 30
0.0
  0
POINT
  5
104
330
F9
100
AcDbEntity
  8
Defpoints
 62
     0
100
AcDbPoint
 10
12.0
 20
33.57246856623912
 30
0.0
  0
ENDBLK
  5
FB
330
F9
100
AcDbEntity
  8
0
100
AcDbBlockEnd
  0
BLOCK
  5
10D
330
10C
100
AcDbEntity
  8
0
100
AcDbBlockBegin
  2
_D_2
 70
     0
 10
0.0
 20
0.0
 30
0.0
  3
_D_2
  1
_D_2
  0
LINE
  5
10F
330
10C
100
AcDbEntity
  8
치수문자_일반주서
 62
     0
370
    -2
100
AcDbLine
 10
59.62499999999999
 20
11.1760749287239
 30
0.0
 11
59.62499999999998
 21
45.57246856623912
 31
0.0
  0
LINE
  5
110
330
10C
100
AcDbEntity
  8
치수문자_일반주서
 62
     0
370
    -2
100
AcDbLine
 10
-45.15000000000003
 20
8.953574928723906
 30
0.0
 11
-45.15000000000003
 21
45.57246856623912
 31
0.0
  0
LINE
  5
111
330
10C
100
AcDbEntity
  8
치수문자_일반주서
 62
     0
370
    -2
100
AcDbLine
 10
56.32299999999998
 20
45.57246856623912
 30
0.0
 11
-41.84800000000003
 21
45.57246856623912
 31
0.0
  0
SOLID
  5
112
330
10C
100
AcDbEntity
  8
치수문자_일반주서
 62
     0
100
AcDbTrace
 10
56.32299999999998
 20
45.02213523290578
 30
0.0
 11
56.32299999999998
 21
46.12280189957245
 31
0.0
 12
59.62499999999998
 22
45.57246856623912
 32
0.0
 13
59.62499999999998
 23
45.57246856623912
 33
0.0
  0
SOLID
  5
113
330
10C
100
AcDbEntity
  8
치수문자_일반주서
 62
     0
100
AcDbTrace
 10
-41.84800000000003
 20
46.12280189957245
 30
0.0
 11
-41.84800000000003
 21
45.02213523290578
 31
0.0
 12
-45.15000000000003
 22
45.57246856623912
 32
0.0
 13
-45.15000000000003
 23
45.57246856623912
 33
0.0
  0
MTEXT
  5
114
330
10C
100
AcDbEntity
  8
치수문자_일반주서
 62
     0
100
AcDbMText
 10
7.237499999999978
 20
49.94746856623912
 30
0.0
 40
3.5
 41
0.0
 71
     2
 72
     1
  1
\A1;104.78 [4 1/8]
  7
SLDTEXTSTYLE0
 73
     1
 44
1.0
  0
POINT
  5
115
330
10C
100
AcDbEntity
  8
Defpoints
 62
     0
100
AcDbPoint
 10
59.62499999999999
 20
11.1135749287239
 30
0.0
  0
POINT
  5
116
330
10C
100
AcDbEntity
  8
Defpoints
 62
     0
100
AcDbPoint
 10
-45.15000000000003
 20
8.891074928723906
 30
0.0
  0
POINT
  5
117
330
10C
100
AcDbEntity
  8
Defpoints
 62
     0
100
AcDbPoint
 10
-45.15000000000003
 20
45.57246856623912
 30
0.0
  0
ENDBLK
  5
10E
330
10C
100
AcDbEntity
  8
0
100
AcDbBlockEnd
  0
BLOCK
  5
120
330
11F
100
AcDbEntity
  8
0
100
AcDbBlockBegin
  2
_D_3
 70
     0
 10
0.0
 20
0.0
 30
0.0
  3
_D_3
  1
_D_3
  0
LINE
  5
122
330
11F
100
AcDbEntity
  8
치수문자_일반주서
 62
     0
370
    -2
100
AcDbLine
 10
59.68749999999999
 20
11.1135749287239
 30
0.0
 11
69.05285760777659
 21
11.11357492872393
 31
0.0
  0
LINE
  5
123
330
11F
100
AcDbEntity
  8
치수문자_일반주서
 62
     0
370
    -2
100
AcDbLine
 10
59.68749999999999
 20
-11.11142507127611
 30
0.0
 11
69.05285760777666
 21
-11.11142507127607
 31
0.0
  0
LINE
  5
124
330
11F
100
AcDbEntity
  8
치수문자_일반주서
 62
     0
370
    -2
100
AcDbLine
 10
69.05285760777659
 20
11.11357492872393
 30
0.0
 11
69.05285760777647
 21
46.59257492872393
 31
0.0
  0
LINE
  5
125
330
11F
100
AcDbEntity
  8
치수문자_일반주서
 62
     0
370
    -2
100
AcDbLine
 10
69.05285760777659
 20
11.11357492872393
 30
0.0
 11
69.05285760777666
 21
-11.11142507127607
 31
0.0
  0
LINE
  5
126
330
11F
100
AcDbEntity
  8
치수문자_일반주서
 62
     0
370
    -2
100
AcDbLine
 10
69.05285760777657
 20
14.41557492872393
 30
0.0
 11
69.05285760777656
 21
17.71757492872393
 31
0.0
  0
LINE
  5
127
330
11F
100
AcDbEntity
  8
치수문자_일반주서
 62
     0
370
    -2
100
AcDbLine
 10
69.05285760777667
 20
-14.41342507127607
 30
0.0
 11
69.05285760777669
 21
-17.71542507127607
 31
0.0
  0
SOLID
  5
128
330
11F
100
AcDbEntity
  8
치수문자_일반주서
 62
     0
100
AcDbTrace
 10
68.50252427444325
 20
14.41557492872393
 30
0.0
 11
69.6031909411099
 21
14.41557492872394
 31
0.0
 12
69.05285760777659
 22
11.11357492872393
 32
0.0
 13
69.05285760777659
 23
11.11357492872393
 33
0.0
  0
SOLID
  5
129
330
11F
100
AcDbEntity
  8
치수문자_일반주서
 62
     0
100
AcDbTrace
 10
69.60319094111
 20
-14.41342507127607
 30
0.0
 11
68.50252427444335
 21
-14.41342507127607
 31
0.0
 12
69.05285760777666
 22
-11.11142507127607
 32
0.0
 13
69.05285760777666
 23
-11.11142507127607
 33
0.0
  0
MTEXT
  5
12A
330
11F
100
AcDbEntity
  8
치수문자_일반주서
 62
     0
100
AcDbMText
 10
64.67785760777652
 20
32.15507492872392
 30
0.0
 40
3.5
 41
0.0
 71
     2
 72
     1
  1
\A1;%%c22.23 [7/8]
  7
SLDTEXTSTYLE0
 11
-3.197042680585376E-15
 21
1.0
 31
0.0
 73
     1
 44
1.0
  0
POINT
  5
12B
330
11F
100
AcDbEntity
  8
Defpoints
 62
     0
100
AcDbPoint
 10
59.62499999999999
 20
11.1135749287239
 30
0.0
  0
POINT
  5
266
330
11F
100
AcDbEntity
  8
Defpoints
 62
     0
100
AcDbPoint
 10
59.62499999999999
 20
-11.11142507127611
 30
0.0
  0
POINT
  5
267
330
11F
100
AcDbEntity
  8
Defpoints
 62
     0
100
AcDbPoint
 10
69.05285760777666
 20
-11.11142507127607
 30
0.0
  0
ENDBLK
  5
121
330
11F
100
AcDbEntity
  8
0
100
AcDbBlockEnd
  0
BLOCK
  5
139
330
138
100
AcDbEntity
  8
0
100
AcDbBlockBegin
  2
SW_DOWELSYMBOL_0
 70
     0
 10
0.0
 20
0.0
 30
0.0
  3
SW_DOWELSYMBOL_0
  1
SW_DOWELSYMBOL_0
  0
CIRCLE
  5
13B
330
138
100
AcDbEntity
  8
해칭선
 62
     0
100
AcDbCircle
 10
0.0
 20
0.0
 30
0.0
 40
3.000000000000002
  0
HATCH
  5
13C
330
138
100
AcDbEntity
  8
0
  6
Continuous
 62
     0
370
     0
100
AcDbHatch
 10
0.0
 20
0.0
 30
0.0
210
0.0
220
0.0
230
1.0
  2
SOLID
 70
     1
 71
     0
 91
        1
 92
        0
 93
        3
 72
     2
 10
0.0
 20
0.0
 40
3.000000000000002
 50
0.0
 51
90.0
 73
     1
 72
     1
 10
0.0
 20
3.000000000000002
 11
0.0
 21
0.0
 72
     1
 10
0.0
 20
0.0
 11
3.000000000000003
 21
0.0
 97
        0
 75
     0
 76
     1
 98
        1
 10
0.0
 20
0.0
  0
HATCH
  5
13D
330
138
100
AcDbEntity
  8
0
  6
Continuous
 62
     0
370
     0
100
AcDbHatch
 10
0.0
 20
0.0
 30
0.0
210
0.0
220
0.0
230
1.0
  2
SOLID
 70
     1
 71
     0
 91
        1
 92
        0
 93
        3
 72
     2
 10
0.0
 20
0.0
 40
3.000000000000002
 50
180.0
 51
270.0000000000007
 73
     1
 72
     1
 10
0.0
 20
-3.000000000000002
 11
0.0
 21
0.0
 72
     1
 10
0.0
 20
0.0
 11
-3.000000000000002
 21
0.0
 97
        0
 75
     0
 76
     1
 98
        1
 10
0.0
 20
0.0
  0
ENDBLK
  5
13A
330
138
100
AcDbEntity
  8
0
100
AcDbBlockEnd
  0
BLOCK
  5
1AF
330
1AE
100
AcDbEntity
  8
0
100
AcDbBlockBegin
  2
*D7
 70
     1
 10
0.0
 20
0.0
 30
0.0
  3
*D7
  1
*D8
  0
LINE
  5
1B0
330
1AE
100
AcDbEntity
  8
치수문자_일반주서
 62
     0
370
    -2
100
AcDbLine
 10
18.90000000000006
 20
41.52899987848502
 30
0.0
 11
4.375000000000024
 21
41.52899987848497
 31
0.0
  0
LINE
  5
1B1
330
1AE
100
AcDbEntity
  8
치수문자_일반주서
 62
     0
370
    -2
100
AcDbLine
 10
18.90000000000006
 20
22.47899987848502
 30
0.0
 11
4.375000000000091
 21
22.47899987848496
 31
0.0
  0
LINE
  5
1B2
330
1AE
100
AcDbEntity
  8
치수문자_일반주서
 62
     0
370
    -2
100
AcDbLine
 10
4.375000000000036
 20
38.22699987848497
 30
0.0
 11
4.375000000000079
 21
25.78099987848496
 31
0.0
  0
SOLID
  5
1B3
330
1AE
100
AcDbEntity
  8
치수문자_일반주서
 62
     0
100
AcDbTrace
 10
4.925333333333369
 20
38.22699987848497
 30
0.0
 11
3.824666666666702
 21
38.22699987848497
 31
0.0
 12
4.375000000000024
 22
41.52899987848497
 32
0.0
 13
4.375000000000024
 23
41.52899987848497
 33
0.0
  0
SOLID
  5
1B4
330
1AE
100
AcDbEntity
  8
치수문자_일반주서
 62
     0
100
AcDbTrace
 10
3.824666666666746
 20
25.78099987848496
 30
0.0
 11
4.925333333333413
 21
25.78099987848496
 31
0.0
 12
4.375000000000091
 22
22.47899987848496
 32
0.0
 13
4.375000000000091
 23
22.47899987848496
 33
0.0
  0
MTEXT
  5
1B5
330
1AE
100
AcDbEntity
  8
치수문자_일반주서
 62
     0
100
AcDbMText
 10
0.0000000000000568
 20
32.00399987848502
 30
0.0
 40
3.5
 41
0.0
 71
     2
 72
     1
  1
\A1;%%c19.05 [3/4]
  7
SLDTEXTSTYLE0
 11
-3.496765431890256E-15
 21
1.0
 31
0.0
 73
     1
 44
1.0
  0
POINT
  5
1B6
330
1AE
100
AcDbEntity
  8
Defpoints
 62
     0
100
AcDbPoint
 10
18.96250000000006
 20
41.52899987848502
 30
0.0
  0
POINT
  5
1B7
330
1AE
100
AcDbEntity
  8
Defpoints
 62
     0
100
AcDbPoint
 10
18.96250000000006
 20
22.47899987848502
 30
0.0
  0
POINT
  5
1B8
330
1AE
100
AcDbEntity
  8
Defpoints
 62
     0
100
AcDbPoint
 10
4.375000000000099
 20
22.47899987848496
 30
0.0
  0
ENDBLK
  5
1B9
330
1AE
100
AcDbEntity
  8
0
100
AcDbBlockEnd
  0
BLOCK
  5
1BC
330
1BB
100
AcDbEntity
  8
0
100
AcDbBlockBegin
  2
*D8
 70
     1
 10
0.0
 20
0.0
 30
0.0
  3
*D8
  1
*D9
  0
LINE
  5
1BD
330
1BB
100
AcDbEntity
  8
치수문자_일반주서
 62
     0
370
    -2
100
AcDbLine
 10
131.3575000000001
 20
57.46649975696975
 30
0.0
 11
131.3575000000001
 21
84.48381237893926
 31
0.0
  0
LINE
  5
1BE
330
1BB
100
AcDbEntity
  8
치수문자_일반주서
 62
     0
370
    -2
100
AcDbLine
 10
80.55750000000005
 20
57.40752930982789
 30
0.0
 11
80.55750000000005
 21
84.48381237893926
 31
0.0
  0
LINE
  5
1BF
330
1BB
100
AcDbEntity
  8
치수문자_일반주서
 62
     0
370
    -2
100
AcDbLine
 10
128.0555000000001
 20
84.48381237893926
 30
0.0
 11
83.85950000000005
 21
84.48381237893926
 31
0.0
  0
SOLID
  5
1C0
330
1BB
100
AcDbEntity
  8
치수문자_일반주서
 62
     0
100
AcDbTrace
 10
128.0555000000001
 20
83.93347904560594
 30
0.0
 11
128.0555000000001
 21
85.03414571227259
 31
0.0
 12
131.3575000000001
 22
84.48381237893926
 32
0.0
 13
131.3575000000001
 23
84.48381237893926
 33
0.0
  0
SOLID
  5
1C1
330
1BB
100
AcDbEntity
  8
치수문자_일반주서
 62
     0
100
AcDbTrace
 10
83.85950000000005
 20
85.03414571227259
 30
0.0
 11
83.85950000000005
 21
83.93347904560594
 31
0.0
 12
80.55750000000005
 22
84.48381237893926
 32
0.0
 13
80.55750000000005
 23
84.48381237893926
 33
0.0
  0
MTEXT
  5
1C2
330
1BB
100
AcDbEntity
  8
치수문자_일반주서
 62
     0
100
AcDbMText
 10
104.0376363033692
 20
88.85881237893926
 30
0.0
 40
3.5
 41
0.0
 71
     2
 72
     1
  1
\A1;50.8 [2]
  7
SLDTEXTSTYLE0
 73
     1
 44
1.0
  0
POINT
  5
1C3
330
1BB
100
AcDbEntity
  8
Defpoints
 62
     0
100
AcDbPoint
 10
131.3575000000001
 20
57.40399975696975
 30
0.0
  0
POINT
  5
1C4
330
1BB
100
AcDbEntity
  8
Defpoints
 62
     0
100
AcDbPoint
 10
80.55750000000005
 20
57.34502930982789
 30
0.0
  0
POINT
  5
1C5
330
1BB
100
AcDbEntity
  8
Defpoints
 62
     0
100
AcDbPoint
 10
80.55750000000005
 20
84.48381237893926
 30
0.0
  0
ENDBLK
  5
1C6
330
1BB
100
AcDbEntity
  8
0
100
AcDbBlockEnd
  0
BLOCK
  5
1C9
330
1C8
100
AcDbEntity
  8
0
100
AcDbBlockBegin
  2
*D9
 70
     1
 10
0.0
 20
0.0
 30
0.0
  3
*D9
  1
*D10
  0
LINE
  5
1CA
330
1C8
100
AcDbEntity
  8
치수문자_일반주서
 62
     0
370
    -2
100
AcDbLine
 10
131.3575000000001
 20
57.46649975696975
 30
0.0
 11
131.3575000000001
 21
113.0717309391964
 31
0.0
  0
LINE
  5
1CB
330
1C8
100
AcDbEntity
  8
치수문자_일반주서
 62
     0
370
    -2
100
AcDbLine
 10
17.05750000000006
 20
39.68649987848502
 30
0.0
 11
17.05750000000006
 21
113.0717309391964
 31
0.0
  0
LINE
  5
1CC
330
1C8
100
AcDbEntity
  8
치수문자_일반주서
 62
     0
370
    -2
100
AcDbLine
 10
128.0555000000001
 20
113.0717309391964
 30
0.0
 11
20.35950000000006
 21
113.0717309391964
 31
0.0
  0
SOLID
  5
1CD
330
1C8
100
AcDbEntity
  8
치수문자_일반주서
 62
     0
100
AcDbTrace
 10
128.0555000000001
 20
112.5213976058631
 30
0.0
 11
128.0555000000001
 21
113.6220642725298
 31
0.0
 12
131.3575000000001
 22
113.0717309391964
 32
0.0
 13
131.3575000000001
 23
113.0717309391964
 33
0.0
  0
SOLID
  5
1CE
330
1C8
100
AcDbEntity
  8
치수문자_일반주서
 62
     0
100
AcDbTrace
 10
20.35950000000006
 20
113.6220642725298
 30
0.0
 11
20.35950000000006
 21
112.5213976058631
 31
0.0
 12
17.05750000000006
 22
113.0717309391964
 32
0.0
 13
17.05750000000006
 23
113.0717309391964
 33
0.0
  0
MTEXT
  5
1CF
330
1C8
100
AcDbEntity
  8
치수문자_일반주서
 62
     0
100
AcDbMText
 10
62.8859278671522
 20
117.4467309391964
 30
0.0
 40
3.5
 41
0.0
 71
     2
 72
     1
  1
\A1;114.3 [4 1/2]
  7
SLDTEXTSTYLE0
 73
     1
 44
1.0
  0
POINT
  5
1D0
330
1C8
100
AcDbEntity
  8
Defpoints
 62
     0
100
AcDbPoint
 10
131.3575000000001
 20
57.40399975696975
 30
0.0
  0
POINT
  5
1D1
330
1C8
100
AcDbEntity
  8
Defpoints
 62
     0
100
AcDbPoint
 10
17.05750000000006
 20
39.62399987848502
 30
0.0
  0
POINT
  5
1D2
330
1C8
100
AcDbEntity
  8
Defpoints
 62
     0
100
AcDbPoint
 10
17.05750000000006
 20
113.0717309391964
 30
0.0
  0
ENDBLK
  5
1D3
330
1C8
100
AcDbEntity
  8
0
100
AcDbBlockEnd
  0
BLOCK
  5
1D6
330
1D5
100
AcDbEntity
  8
0
100
AcDbBlockBegin
  2
*D10
 70
     1
 10
0.0
 20
0.0
 30
0.0
  3
*D10
  1
*D11
  0
LINE
  5
1D7
330
1D5
100
AcDbEntity
  8
치수문자_일반주서
 62
     0
370
    -2
100
AcDbLine
 10
131.4200000000001
 20
57.40399975696975
 30
0.0
 11
177.8714131293938
 21
57.40399975696991
 31
0.0
  0
LINE
  5
1D8
330
1D5
100
AcDbEntity
  8
치수문자_일반주서
 62
     0
370
    -2
100
AcDbLine
 10
131.4200000000001
 20
6.603999999999829
 30
0.0
 11
177.871413129394
 21
6.603999999999985
 31
0.0
  0
LINE
  5
1D9
330
1D5
100
AcDbEntity
  8
치수문자_일반주서
 62
     0
370
    -2
100
AcDbLine
 10
177.8714131293938
 20
57.40399975696991
 30
0.0
 11
177.8714131293936
 21
122.6292494941147
 31
0.0
  0
LINE
  5
1DA
330
1D5
100
AcDbEntity
  8
치수문자_일반주서
 62
     0
370
    -2
100
AcDbLine
 10
177.8714131293938
 20
57.40399975696991
 30
0.0
 11
177.871413129394
 21
6.603999999999985
 31
0.0
  0
LINE
  5
1DB
330
1D5
100
AcDbEntity
  8
치수문자_일반주서
 62
     0
370
    -2
100
AcDbLine
 10
177.8714131293938
 20
60.70599975696991
 30
0.0
 11
177.8714131293938
 21
64.00799975696991
 31
0.0
  0
LINE
  5
1DC
330
1D5
100
AcDbEntity
  8
치수문자_일반주서
 62
     0
370
    -2
100
AcDbLine
 10
177.871413129394
 20
3.301999999999985
 30
0.0
 11
177.871413129394
 21
-0.0000000000000142
 31
0.0
  0
SOLID
  5
1DD
330
1D5
100
AcDbEntity
  8
치수문자_일반주서
 62
     0
100
AcDbTrace
 10
177.3210797960605
 20
60.70599975696991
 30
0.0
 11
178.4217464627272
 21
60.70599975696991
 31
0.0
 12
177.8714131293938
 22
57.40399975696991
 32
0.0
 13
177.8714131293938
 23
57.40399975696991
 33
0.0
  0
SOLID
  5
1DE
330
1D5
100
AcDbEntity
  8
치수문자_일반주서
 62
     0
100
AcDbTrace
 10
178.4217464627273
 20
3.301999999999987
 30
0.0
 11
177.3210797960607
 21
3.301999999999984
 31
0.0
 12
177.871413129394
 22
6.603999999999985
 32
0.0
 13
177.871413129394
 23
6.603999999999985
 33
0.0
  0
MTEXT
  5
1DF
330
1D5
100
AcDbEntity
  8
치수문자_일반주서
 62
     0
100
AcDbMText
 10
173.4964131293937
 20
112.3479994941147
 30
0.0
 40
3.5
 41
0.0
 71
     2
 72
     1
  1
\A1;%%c50.8 [2]
  7
SLDTEXTSTYLE0
 11
-3.356894830674222E-15
 21
1.0
 31
0.0
 73
     1
 44
1.0
  0
POINT
  5
1E0
330
1D5
100
AcDbEntity
  8
Defpoints
 62
     0
100
AcDbPoint
 10
131.3575000000001
 20
57.40399975696975
 30
0.0
  0
POINT
  5
1E1
330
1D5
100
AcDbEntity
  8
Defpoints
 62
     0
100
AcDbPoint
 10
131.3575000000001
 20
6.603999999999829
 30
0.0
  0
POINT
  5
1E2
330
1D5
100
AcDbEntity
  8
Defpoints
 62
     0
100
AcDbPoint
 10
177.871413129394
 20
6.604000000000003
 30
0.0
  0
ENDBLK
  5
1E3
330
1D5
100
AcDbEntity
  8
0
100
AcDbBlockEnd
  0
BLOCK
  5
234
330
233
100
AcDbEntity
  8
0
100
AcDbBlockBegin
  2
*D11
 70
     1
 10
0.0
 20
0.0
 30
0.0
  3
*D11
  1
*D12
  0
LINE
  5
236
330
233
100
AcDbEntity
  8
치수문자_일반주서
 62
     0
370
    -2
100
AcDbLine
 10
108.3170962650598
 20
-81.2002924885293
 30
0.0
 11
93.79209626505977
 21
-81.20029248852936
 31
0.0
  0
LINE
  5
237
330
233
100
AcDbEntity
  8
치수문자_일반주서
 62
     0
370
    -2
100
AcDbLine
 10
108.3170962650598
 20
-100.2502924885293
 30
0.0
 11
93.79209626505984
 21
-100.2502924885294
 31
0.0
  0
LINE
  5
238
330
233
100
AcDbEntity
  8
치수문자_일반주서
 62
     0
370
    -2
100
AcDbLine
 10
93.79209626505978
 20
-84.50229248852935
 30
0.0
 11
93.79209626505983
 21
-96.94829248852938
 31
0.0
  0
SOLID
  5
239
330
233
100
AcDbEntity
  8
치수문자_일반주서
 62
     0
100
AcDbTrace
 10
94.34242959839311
 20
-84.50229248852935
 30
0.0
 11
93.24176293172646
 21
-84.50229248852935
 31
0.0
 12
93.79209626505977
 22
-81.20029248852936
 32
0.0
 13
93.79209626505977
 23
-81.20029248852936
 33
0.0
  0
SOLID
  5
23A
330
233
100
AcDbEntity
  8
치수문자_일반주서
 62
     0
100
AcDbTrace
 10
93.2417629317265
 20
-96.94829248852938
 30
0.0
 11
94.34242959839315
 21
-96.94829248852938
 31
0.0
 12
93.79209626505984
 22
-100.2502924885294
 32
0.0
 13
93.79209626505984
 23
-100.2502924885294
 33
0.0
  0
MTEXT
  5
23B
330
233
100
AcDbEntity
  8
치수문자_일반주서
 62
     0
100
AcDbMText
 10
89.4170962650598
 20
-90.7252924885293
 30
0.0
 40
3.5
 41
0.0
 71
     2
 72
     1
  1
\A1;%%c19.05 [3/4]
  7
SLDTEXTSTYLE0
 11
-3.729883127349605E-15
 21
1.0
 31
0.0
 73
     1
 44
1.0
  0
POINT
  5
23C
330
233
100
AcDbEntity
  8
Defpoints
 62
     0
100
AcDbPoint
 10
108.3795962650598
 20
-81.2002924885293
 30
0.0
  0
POINT
  5
23D
330
233
100
AcDbEntity
  8
Defpoints
 62
     0
100
AcDbPoint
 10
108.3795962650598
 20
-100.2502924885293
 30
0.0
  0
POINT
  5
23E
330
233
100
AcDbEntity
  8
Defpoints
 62
     0
100
AcDbPoint
 10
93.79209626505983
 20
-100.2502924885294
 30
0.0
  0
ENDBLK
  5
235
330
233
100
AcDbEntity
  8
0
100
AcDbBlockEnd
  0
BLOCK
  5
240
330
23F
100
AcDbEntity
  8
0
100
AcDbBlockBegin
  2
*D12
 70
     1
 10
0.0
 20
0.0
 30
0.0
  3
*D12
  1
*D13
  0
LINE
  5
242
330
23F
100
AcDbEntity
  8
치수문자_일반주서
 62
     0
370
    -2
100
AcDbLine
 10
220.7745962650598
 20
-65.26279261004458
 30
0.0
 11
220.7745962650598
 21
-38.24547998807506
 31
0.0
  0
LINE
  5
243
330
23F
100
AcDbEntity
  8
치수문자_일반주서
 62
     0
370
    -2
100
AcDbLine
 10
169.9745962650598
 20
-65.32176305718643
 30
0.0
 11
169.9745962650598
 21
-38.24547998807506
 31
0.0
  0
LINE
  5
244
330
23F
100
AcDbEntity
  8
치수문자_일반주서
 62
     0
370
    -2
100
AcDbLine
 10
217.4725962650598
 20
-38.24547998807506
 30
0.0
 11
173.2765962650598
 21
-38.24547998807506
 31
0.0
  0
SOLID
  5
245
330
23F
100
AcDbEntity
  8
치수문자_일반주서
 62
     0
100
AcDbTrace
 10
217.4725962650598
 20
-38.7958133214084
 30
0.0
 11
217.4725962650598
 21
-37.69514665474173
 31
0.0
 12
220.7745962650598
 22
-38.24547998807506
 32
0.0
 13
220.7745962650598
 23
-38.24547998807506
 33
0.0
  0
SOLID
  5
246
330
23F
100
AcDbEntity
  8
치수문자_일반주서
 62
     0
100
AcDbTrace
 10
173.2765962650598
 20
-37.69514665474173
 30
0.0
 11
173.2765962650598
 21
-38.7958133214084
 31
0.0
 12
169.9745962650598
 22
-38.24547998807506
 32
0.0
 13
169.9745962650598
 23
-38.24547998807506
 33
0.0
  0
MTEXT
  5
247
330
23F
100
AcDbEntity
  8
치수문자_일반주서
 62
     0
100
AcDbMText
 10
193.4547325684289
 20
-33.87047998807506
 30
0.0
 40
3.5
 41
0.0
 71
     2
 72
     1
  1
\A1;50.8 [2]
  7
SLDTEXTSTYLE0
 73
     1
 44
1.0
  0
POINT
  5
248
330
23F
100
AcDbEntity
  8
Defpoints
 62
     0
100
AcDbPoint
 10
220.7745962650598
 20
-65.32529261004458
 30
0.0
  0
POINT
  5
249
330
23F
100
AcDbEntity
  8
Defpoints
 62
     0
100
AcDbPoint
 10
169.9745962650598
 20
-65.38426305718643
 30
0.0
  0
POINT
  5
24A
330
23F
100
AcDbEntity
  8
Defpoints
 62
     0
100
AcDbPoint
 10
169.9745962650598
 20
-38.24547998807506
 30
0.0
  0
ENDBLK
  5
241
330
23F
100
AcDbEntity
  8
0
100
AcDbBlockEnd
  0
BLOCK
  5
24C
330
24B
100
AcDbEntity
  8
0
100
AcDbBlockBegin
  2
*D13
 70
     1
 10
0.0
 20
0.0
 30
0.0
  3
*D13
  1
*D14
  0
LINE
  5
24E
330
24B
100
AcDbEntity
  8
치수문자_일반주서
 62
     0
370
    -2
100
AcDbLine
 10
220.7745962650598
 20
-65.26279261004458
 30
0.0
 11
220.7745962650598
 21
-9.657561427817896
 31
0.0
  0
LINE
  5
24F
330
24B
100
AcDbEntity
  8
치수문자_일반주서
 62
     0
370
    -2
100
AcDbLine
 10
106.4745962650598
 20
-83.0427924885293
 30
0.0
 11
106.4745962650598
 21
-9.657561427817896
 31
0.0
  0
LINE
  5
250
330
24B
100
AcDbEntity
  8
치수문자_일반주서
 62
     0
370
    -2
100
AcDbLine
 10
217.4725962650598
 20
-9.657561427817896
 30
0.0
 11
109.7765962650598
 21
-9.657561427817896
 31
0.0
  0
SOLID
  5
251
330
24B
100
AcDbEntity
  8
치수문자_일반주서
 62
     0
100
AcDbTrace
 10
217.4725962650598
 20
-10.20789476115123
 30
0.0
 11
217.4725962650598
 21
-9.107228094484563
 31
0.0
 12
220.7745962650598
 22
-9.657561427817896
 32
0.0
 13
220.7745962650598
 23
-9.657561427817896
 33
0.0
  0
SOLID
  5
252
330
24B
100
AcDbEntity
  8
치수문자_일반주서
 62
     0
100
AcDbTrace
 10
109.7765962650598
 20
-9.107228094484563
 30
0.0
 11
109.7765962650598
 21
-10.20789476115123
 31
0.0
 12
106.4745962650598
 22
-9.657561427817896
 32
0.0
 13
106.4745962650598
 23
-9.657561427817896
 33
0.0
  0
MTEXT
  5
253
330
24B
100
AcDbEntity
  8
치수문자_일반주서
 62
     0
100
AcDbMText
 10
152.3030241322119
 20
-5.282561427817896
 30
0.0
 40
3.5
 41
0.0
 71
     2
 72
     1
  1
\A1;114.3 [4 1/2]
  7
SLDTEXTSTYLE0
 73
     1
 44
1.0
  0
POINT
  5
254
330
24B
100
AcDbEntity
  8
Defpoints
 62
     0
100
AcDbPoint
 10
220.7745962650598
 20
-65.32529261004458
 30
0.0
  0
POINT
  5
255
330
24B
100
AcDbEntity
  8
Defpoints
 62
     0
100
AcDbPoint
 10
106.4745962650598
 20
-83.1052924885293
 30
0.0
  0
POINT
  5
256
330
24B
100
AcDbEntity
  8
Defpoints
 62
     0
100
AcDbPoint
 10
106.4745962650598
 20
-9.657561427817896
 30
0.0
  0
ENDBLK
  5
24D
330
24B
100
AcDbEntity
  8
0
100
AcDbBlockEnd
  0
BLOCK
  5
258
330
257
100
AcDbEntity
  8
0
100
AcDbBlockBegin
  2
*D14
 70
     1
 10
0.0
 20
0.0
 30
0.0
  3
*D14
  1
*D15
  0
LINE
  5
25A
330
257
100
AcDbEntity
  8
치수문자_일반주서
 62
     0
370
    -2
100
AcDbLine
 10
220.8370962650598
 20
-65.32529261004458
 30
0.0
 11
267.2885093944536
 21
-65.32529261004441
 31
0.0
  0
LINE
  5
25B
330
257
100
AcDbEntity
  8
치수문자_일반주서
 62
     0
370
    -2
100
AcDbLine
 10
220.8370962650598
 20
-116.1252923670145
 30
0.0
 11
267.2885093944537
 21
-116.1252923670143
 31
0.0
  0
LINE
  5
25C
330
257
100
AcDbEntity
  8
치수문자_일반주서
 62
     0
370
    -2
100
AcDbLine
 10
267.2885093944536
 20
-65.32529261004441
 30
0.0
 11
267.2885093944533
 21
-0.1000428728996496
 31
0.0
  0
LINE
  5
25D
330
257
100
AcDbEntity
  8
치수문자_일반주서
 62
     0
370
    -2
100
AcDbLine
 10
267.2885093944536
 20
-65.32529261004441
 30
0.0
 11
267.2885093944537
 21
-116.1252923670143
 31
0.0
  0
LINE
  5
25E
330
257
100
AcDbEntity
  8
치수문자_일반주서
 62
     0
370
    -2
100
AcDbLine
 10
267.2885093944536
 20
-62.02329261004441
 30
0.0
 11
267.2885093944536
 21
-58.72129261004442
 31
0.0
  0
LINE
  5
25F
330
257
100
AcDbEntity
  8
치수문자_일반주서
 62
     0
370
    -2
100
AcDbLine
 10
267.2885093944537
 20
-119.4272923670143
 30
0.0
 11
267.2885093944537
 21
-122.7292923670143
 31
0.0
  0
SOLID
  5
260
330
257
100
AcDbEntity
  8
치수문자_일반주서
 62
     0
100
AcDbTrace
 10
266.7381760611202
 20
-62.02329261004441
 30
0.0
 11
267.8388427277869
 21
-62.02329261004441
 31
0.0
 12
267.2885093944536
 22
-65.32529261004441
 32
0.0
 13
267.2885093944536
 23
-65.32529261004441
 33
0.0
  0
SOLID
  5
261
330
257
100
AcDbEntity
  8
치수문자_일반주서
 62
     0
100
AcDbTrace
 10
267.8388427277871
 20
-119.4272923670143
 30
0.0
 11
266.7381760611204
 21
-119.4272923670143
 31
0.0
 12
267.2885093944537
 22
-116.1252923670143
 32
0.0
 13
267.2885093944537
 23
-116.1252923670143
 33
0.0
  0
MTEXT
  5
262
330
257
100
AcDbEntity
  8
치수문자_일반주서
 62
     0
100
AcDbMText
 10
262.9135093944534
 20
-10.38129287289966
 30
0.0
 40
3.5
 41
0.0
 71
     2
 72
     1
  1
\A1;%%c50.8 [2]
  7
SLDTEXTSTYLE0
 11
-3.356894830674222E-15
 21
1.0
 31
0.0
 73
     1
 44
1.0
  0
POINT
  5
263
330
257
100
AcDbEntity
  8
Defpoints
 62
     0
100
AcDbPoint
 10
220.7745962650598
 20
-65.32529261004458
 30
0.0
  0
POINT
  5
264
330
257
100
AcDbEntity
  8
Defpoints
 62
     0
100
AcDbPoint
 10
220.7745962650598
 20
-116.1252923670145
 30
0.0
  0
POINT
  5
265
330
257
100
AcDbEntity
  8
Defpoints
 62
     0
100
AcDbPoint
 10
267.2885093944537
 20
-116.1252923670143
 30
0.0
  0
ENDBLK
  5
259
330
257
100
AcDbEntity
  8
0
100
AcDbBlockEnd
  0
ENDSEC
  0
SECTION
  2
ENTITIES
  0
LINE
  5
96
330
1F
100
AcDbEntity
  8
0
  6
Continuous
 62
     1
370
    15
100
AcDbLine
 10
34.05912548472753
 20
-2.169154661977331
 30
0.0
 11
34.11299721329607
 21
-2.221271959916845
 31
0.0
  0
LINE
  5
97
330
1F
100
AcDbEntity
  8
0
  6
Continuous
 62
     1
370
    15
100
AcDbLine
 10
38.69581998722969
 20
2.118579971580456
 30
0.0
 11
38.5890012806619
 21
2.223490948107475
 31
0.0
  0
LINE
  5
98
330
1F
100
AcDbEntity
  8
0
  6
Continuous
 62
     1
370
    15
100
AcDbLine
 10
22.41364612209279
 20
-2.160779825945661
 30
0.0
 11
22.47606558565416
 21
-2.221322229465041
 31
0.0
  0
LINE
  5
99
330
1F
100
AcDbEntity
  8
0
  6
Continuous
 62
     1
370
    15
100
AcDbLine
 10
37.69355758224106
 20
11.1135749287239
 30
0.0
 11
35.0083851124414
 21
11.1135749287239
 31
0.0
  0
LINE
  5
9A
330
1F
100
AcDbEntity
  8
0
  6
Continuous
 62
     1
370
    15
100
AcDbLine
 10
35.00838511244132
 20
-11.11142507127611
 30
0.0
 11
37.69355758224099
 21
-11.11142507127611
 31
0.0
  0
LINE
  5
9B
330
1F
100
AcDbEntity
  8
0
  6
Continuous
 62
     1
370
    15
100
AcDbLine
 10
58.28073477152935
 20
-11.11142507127611
 30
0.0
 11
59.62499999999999
 21
-11.11142507127611
 31
0.0
  0
LINE
  5
9C
330
1F
100
AcDbEntity
  8
0
  6
Continuous
 62
     1
370
    15
100
AcDbLine
 10
26.05799792319238
 20
11.1135749287239
 30
0.0
 11
23.36982927664754
 21
11.1135749287239
 31
0.0
  0
LINE
  5
9D
330
1F
100
AcDbEntity
  8
0
  6
Continuous
 62
     1
370
    15
100
AcDbLine
 10
46.64506666516419
 20
-11.11142507127611
 30
0.0
 11
49.33116104367502
 21
-11.11142507127611
 31
0.0
  0
LINE
  5
9E
330
1F
100
AcDbEntity
  8
0
  6
Continuous
 62
     1
370
    15
100
AcDbLine
 10
14.42031597941766
 20
11.1135749287239
 30
0.0
 11
11.99999999999998
 21
11.1135749287239
 31
0.0
  0
LINE
  5
9F
330
1F
100
AcDbEntity
  8
0
  6
Continuous
 62
     1
370
    15
100
AcDbLine
 10
23.3698292766475
 20
-11.11142507127611
 30
0.0
 11
26.0579979231923
 21
-11.11142507127611
 31
0.0
  0
LINE
  5
A0
330
1F
100
AcDbEntity
  8
0
  6
Continuous
 62
     1
370
    15
100
AcDbLine
 10
59.62499999999999
 20
11.1135749287239
 30
0.0
 11
58.28073477152937
 21
11.1135749287239
 31
0.0
  0
LINE
  5
A1
330
1F
100
AcDbEntity
  8
0
  6
Continuous
 62
     1
370
    15
100
AcDbLine
 10
11.99999999999998
 20
-11.11142507127611
 30
0.0
 11
14.42031597941766
 21
-11.11142507127611
 31
0.0
  0
LINE
  5
A2
330
1F
100
AcDbEntity
  8
0
  6
Continuous
 62
     1
370
    15
100
AcDbLine
 10
49.33116104367505
 20
11.1135749287239
 30
0.0
 11
46.64506666516426
 21
11.1135749287239
 31
0.0
  0
LINE
  5
A3
330
1F
100
AcDbEntity
  8
외형선
  6
Continuous
370
    15
100
AcDbLine
 10
11.73376337303758
 20
-11.11142507127611
 30
0.0
 11
11.99999999999998
 21
-11.11142507127611
 31
0.0
  0
LINE
  5
A4
330
1F
100
AcDbEntity
  8
외형선
  6
Continuous
370
    15
100
AcDbLine
 10
-42.92750000000002
 20
-11.11142507127611
 30
0.0
 11
10.99972247116716
 21
-11.11142507127611
 31
0.0
  0
LINE
  5
A5
330
1F
100
AcDbEntity
  8
외형선
  6
Continuous
370
    15
100
AcDbLine
 10
10.99972247116716
 20
11.1135749287239
 30
0.0
 11
-11.91092499999988
 21
11.1135749287239
 31
0.0
  0
LINE
  5
A6
330
1F
100
AcDbEntity
  8
외형선
  6
Continuous
370
    15
100
AcDbLine
 10
11.99999999999998
 20
11.1135749287239
 30
0.0
 11
11.73376337303749
 21
11.1135749287239
 31
0.0
  0
LINE
  5
A7
330
1F
100
AcDbEntity
  8
외형선
  6
Continuous
370
    15
100
AcDbLine
 10
-44.57850000000003
 20
9.462574928723896
 30
0.0
 11
-45.15000000000003
 21
8.891074928723906
 31
0.0
  0
LINE
  5
A8
330
1F
100
AcDbEntity
  8
외형선
  6
Continuous
370
    15
100
AcDbLine
 10
-45.15000000000003
 20
-8.888925071276116
 30
0.0
 11
-42.92750000000002
 21
-11.11142507127611
 31
0.0
  0
SPLINE
  5
A9
330
1F
100
AcDbEntity
  8
0
  6
Continuous
 62
     1
370
    15
100
AcDbSpline
210
0.0
220
0.0
230
1.0
 70
     8
 71
     3
 72
    31
 73
    27
 74
     0
 42
0.000000001
 43
0.00000001
 40
0.0
 40
0.0
 40
0.0
 40
0.0
 40
0.0194930232858984
 40
0.0599579676172119
 40
0.100399277224769
 40
0.1408962685696539
 40
0.1813735240055878
 40
0.2218131034004933
 40
0.2659069979157352
 40
0.3100310132646122
 40
0.3541087234649072
 40
0.3981748204587303
 40
0.4422717960285216
 40
0.4863940958868558
 40
0.5304698900675524
 40
0.5745366512215635
 40
0.6186368631687713
 40
0.662756988771512
 40
0.7068310231910554
 40
0.7508986051632537
 40
0.7950022086679592
 40
0.83911970136849
 40
0.8831921323631368
 40
0.9272606917752011
 40
0.971367841867901
 40
1.0
 40
1.0
 40
1.0
 40
1.0
 10
14.42031597941767
 20
11.08502663056638
 30
0.0
 10
14.67634650161422
 20
11.09088302777625
 30
0.0
 10
15.46386260590077
 20
11.10889653287051
 30
0.0
 10
16.78173816393655
 20
10.89339270278947
 30
0.0
 10
18.37443685297231
 20
10.45483416212674
 30
0.0
 10
19.96936126568414
 20
9.789899138364627
 30
0.0
 10
21.56347010312394
 20
8.927040581650763
 30
0.0
 10
23.2035458084302
 20
7.848194716350931
 30
0.0
 10
24.8928223031539
 20
6.559489683279228
 30
0.0
 10
26.63078364521709
 20
5.075340761838998
 30
0.0
 10
28.36681586179674
 20
3.466482679559596
 30
0.0
 10
30.10236460244757
 20
1.773342331542381
 30
0.0
 10
31.8392013222013
 20
0.0371221625820843
 30
0.0
 10
33.57713660018938
 20
-1.699146686715238
 30
0.0
 10
35.31307690220299
 20
-3.395156992856296
 30
0.0
 10
37.04865563647456
 20
-5.008159201231287
 30
0.0
 10
38.78563094668036
 20
-6.498849878329236
 30
0.0
 10
40.52347165536234
 20
-7.830651671357169
 30
0.0
 10
42.25934024163101
 20
-8.972409097989736
 30
0.0
 10
43.99495163043664
 20
-9.895214763917732
 30
0.0
 10
45.73207399893018
 20
-10.57683187948006
 30
0.0
 10
47.46979835121752
 20
-10.99988671342384
 30
0.0
 10
49.20560819826505
 20
-11.15772311553532
 30
0.0
 10
50.94123713700927
 20
-11.03340707771492
 30
0.0
 10
52.47526621358306
 20
-10.71943094224379
 30
0.0
 10
53.43050198352778
 20
-10.34240142330295
 30
0.0
 10
53.8065086061639
 20
-10.19399241213362
 30
0.0
  0
SPLINE
  5
AA
330
1F
100
AcDbEntity
  8
0
  6
Continuous
 62
     1
370
    15
100
AcDbSpline
210
0.0
220
0.0
230
1.0
 70
     8
 71
     3
 72
    31
 73
    27
 74
     0
 42
0.000000001
 43
0.00000001
 40
0.0
 40
0.0
 40
0.0
 40
0.0
 40
0.009988896286648
 40
0.0540597004088634
 40
0.0981317951101614
 40
0.1422473082238954
 40
0.1863555699524723
 40
0.2304252400278093
 40
0.274498781783305
 40
0.3186173863803782
 40
0.3627221014315752
 40
0.4067907940424116
 40
0.4508659392632145
 40
0.4949871768288546
 40
0.5390885002370769
 40
0.5831563720090388
 40
0.6272332770353466
 40
0.6713566889113777
 40
0.7154547758606162
 40
0.7595219834556519
 40
0.8036008045498475
 40
0.8477259319596578
 40
0.8918209377766951
 40
0.9322615363734086
 40
0.9727398119607025
 40
1.0
 40
1.0
 40
1.0
 40
1.0
 10
58.28073477152937
 20
-11.08766863204751
 30
0.0
 10
58.1495592523642
 20
-11.09493971943747
 30
0.0
 10
57.43964005172892
 20
-11.13429069422667
 30
0.0
 10
56.15190621368569
 20
-10.93833791321237
 30
0.0
 10
54.41611061912245
 20
-10.49180274598765
 30
0.0
 10
52.67853262478668
 20
-9.76725454995235
 30
0.0
 10
50.94125339567481
 20
-8.810677964167786
 30
0.0
 10
49.20560384309911
 20
-7.637392960069933
 30
0.0
 10
47.46979951956687
 20
-6.278209931017777
 30
0.0
 10
45.73207368583832
 20
-4.766709216420528
 30
0.0
 10
43.99495171424048
 20
-3.13866781125071
 30
0.0
 10
42.2593402191839
 20
-1.433733949435387
 30
0.0
 10
40.52347166137249
 20
0.3063506404086512
 30
0.0
 10
38.78563094511522
 20
2.037897212349738
 30
0.0
 10
37.04865563672507
 20
3.720475269738222
 30
0.0
 10
35.31307690276402
 20
5.312616568214382
 30
0.0
 10
33.57713659769276
 20
6.775434419322652
 30
0.0
 10
31.83920133163526
 20
8.072238295733436
 30
0.0
 10
30.10236456724506
 20
9.173001985991306
 30
0.0
 10
28.36681599309648
 20
10.05021019080786
 30
0.0
 10
26.63078315482449
 20
10.68267960096069
 30
0.0
 10
24.8928241349236
 20
11.05385766363832
 30
0.0
 10
23.20353921686146
 20
11.1555195264144
 30
0.0
 10
21.5634924541541
 20
10.99939597338319
 30
0.0
 10
20.14309135843116
 20
10.69006519767648
 30
0.0
 10
19.25354356386975
 20
10.34164931197289
 30
0.0
 10
18.89556024314725
 20
10.20143528803938
 30
0.0
  0
SPLINE
  5
AB
330
1F
100
AcDbEntity
  8
0
  6
Continuous
 62
     1
370
    15
100
AcDbSpline
210
0.0
220
0.0
230
1.0
 70
     8
 71
     3
 72
    25
 73
    21
 74
     0
 42
0.000000001
 43
0.00000001
 40
0.0
 40
0.0
 40
0.0
 40
0.0
 40
0.0528006211748853
 40
0.1056800658732591
 40
0.1585061096350256
 40
0.2113012988145828
 40
0.2641691792072733
 40
0.3170112948298116
 40
0.3698042252569906
 40
0.4273677790881116
 40
0.4849706549670454
 40
0.5425130805513897
 40
0.6000403453647645
 40
0.6576079214409459
 40
0.7152085577868722
 40
0.7727484820521903
 40
0.8302766139112444
 40
0.8878484150028771
 40
0.9454462129086911
 40
1.0
 40
1.0
 40
1.0
 40
1.0
 10
11.99999999999999
 20
7.50574424737118
 30
0.0
 10
12.53067781536558
 20
7.099056888907631
 30
0.0
 10
13.59282566964097
 20
6.285075047862688
 30
0.0
 10
15.18807618170372
 20
4.8956393365905
 30
0.0
 10
16.78172874657183
 20
3.415530299083498
 30
0.0
 10
18.37443937960048
 20
1.861583836489566
 30
0.0
 10
19.9693605887702
 20
0.2720807141768636
 30
0.0
 10
21.56347028375077
 20
-1.323982428155807
 30
0.0
 10
23.20354575517614
 20
-2.940376577934046
 30
0.0
 10
24.89282231789165
 20
-4.53721205181868
 30
0.0
 10
26.6307836414988
 20
-6.067693533948129
 30
0.0
 10
28.36681586194543
 20
-7.451320214944616
 30
0.0
 10
30.10236460556841
 20
-8.653083614223432
 30
0.0
 10
31.83920130955546
 20
-9.643786323639626
 30
0.0
 10
33.57713664765682
 20
-10.3992131899512
 30
0.0
 10
35.31307672520843
 20
-10.90125547120317
 30
0.0
 10
37.04865629712945
 20
-11.13888898178759
 30
0.0
 10
38.78562847850021
 20
-11.09951445000908
 30
0.0
 10
40.49345622174093
 20
-10.81515349258209
 30
0.0
 10
41.62096089947874
 20
-10.41227279915512
 30
0.0
 10
42.16941191009389
 20
-10.2162999328512
 30
0.0
  0
SPLINE
  5
AC
330
1F
100
AcDbEntity
  8
외형선
  6
Continuous
370
    15
100
AcDbSpline
210
0.0
220
0.0
230
1.0
 70
    24
 71
     3
 72
    13
 73
     9
 74
     0
 42
0.000000001
 43
0.00000001
 40
0.0
 40
0.0
 40
0.0
 40
0.0
 40
0.0102134713333102
 40
0.2098128400478221
 40
0.4152006039768754
 40
0.6147999726913643
 40
0.8201877366203945
 40
0.9999999999999999
 40
0.9999999999999999
 40
0.9999999999999999
 40
0.9999999999999999
 10
11.99999999999997
 20
11.11038941478847
 30
0.0
 10
11.99999999999997
 20
11.09810875765515
 30
0.0
 10
11.99999999999999
 20
10.84583022602683
 30
0.0
 10
11.99999999999995
 20
10.33578462653248
 30
0.0
 10
12.00000000000001
 20
9.587038203050568
 30
0.0
 10
11.99999999999993
 20
8.848051120936361
 30
0.0
 10
12.00000000000003
 20
8.168278768894156
 30
0.0
 10
11.99999999999997
 20
7.768730894672192
 30
0.0
 10
11.99999999999993
 20
7.582221023179381
 30
0.0
  0
SPLINE
  5
AD
330
1F
100
AcDbEntity
  8
0
  6
Continuous
 62
     1
370
    15
100
AcDbSpline
210
0.0
220
0.0
230
1.0
 70
     8
 71
     3
 72
    28
 73
    24
 74
     0
 42
0.000000001
 43
0.00000001
 40
0.0
 40
0.0
 40
0.0
 40
0.0
 40
0.0263467972665538
 40
0.0764852619423743
 40
0.1265827761245466
 40
0.1766876256665892
 40
0.2268448732209705
 40
0.2769794822597852
 40
0.3270760633081449
 40
0.3771829134060473
 40
0.4273426327275538
 40
0.477473562543314
 40
0.5275693885519616
 40
0.5776784168455963
 40
0.6278400863946396
 40
0.6779675135636226
 40
0.7239405919942773
 40
0.7699565018196955
 40
0.8159948480923696
 40
0.8619698934871503
 40
0.9079718076334168
 40
0.95402022432135
 40
1.0
 40
1.0
 40
1.0
 40
1.0
 10
46.64506666516419
 20
-11.07758622464858
 30
0.0
 10
46.34070183496255
 20
-11.08345622946867
 30
0.0
 10
45.45712484727417
 20
-11.10049696697179
 30
0.0
 10
43.99493649079586
 20
-10.83281928693464
 30
0.0
 10
42.25934429740926
 20
-10.30133819745434
 30
0.0
 10
40.52347056726893
 20
-9.505015912296315
 30
0.0
 10
38.78563123822391
 20
-8.481265248531953
 30
0.0
 10
37.04865555843595
 20
-7.249467682604591
 30
0.0
 10
35.31307692311576
 20
-5.84101861968508
 30
0.0
 10
33.57713659455971
 20
-4.289876668424676
 30
0.0
 10
31.83920132378034
 20
-2.635289895136197
 30
0.0
 10
30.10236460176086
 20
-0.9156658221921525
 30
0.0
 10
28.36681586296563
 20
0.8264246267907341
 30
0.0
 10
26.63078364122506
 20
2.548618471812655
 30
0.0
 10
24.89282231796519
 20
4.207548816830339
 30
0.0
 10
23.20354575515828
 20
5.722143996818438
 30
0.0
 10
21.56347028375557
 20
7.067173852371315
 30
0.0
 10
19.96936058876926
 20
8.227545993028018
 30
0.0
 10
18.3744393796013
 20
9.218270292900392
 30
0.0
 10
16.78172874657237
 20
10.02194860632444
 30
0.0
 10
15.18807618170448
 20
10.61490808316966
 30
0.0
 10
13.59282566964189
 20
11.00604232156551
 30
0.0
 10
12.53067781536659
 20
11.07562435007486
 30
0.0
 10
12.00000000000106
 20
11.11038941477787
 30
0.0
  0
SPLINE
  5
AE
330
1F
100
AcDbEntity
  8
0
  6
Continuous
 62
     1
370
    15
100
AcDbSpline
210
0.0
220
0.0
230
1.0
 70
     8
 71
     3
 72
    19
 73
    15
 74
     0
 42
0.000000001
 43
0.00000001
 40
0.0
 40
0.0
 40
0.0
 40
0.0
 40
0.0859512672091072
 40
0.1720308469565709
 40
0.2580234982158949
 40
0.3439659229744487
 40
0.4300266778159588
 40
0.5160454915856665
 40
0.6019842394437427
 40
0.6956888263738275
 40
0.7894574235326476
 40
0.8831276169358391
 40
0.9767731309423168
 40
1.0
 40
1.0
 40
1.0
 40
1.0
 10
11.99999999999999
 20
-3.344174226238568
 30
0.0
 10
12.53067781528696
 20
-3.844132816110198
 30
0.0
 10
13.59282566940498
 20
-4.844796360134318
 30
0.0
 10
15.18807618264903
 20
-6.225804728058436
 30
0.0
 10
16.78172874303196
 20
-7.485214287250802
 30
0.0
 10
18.37443939281552
 20
-8.589910795408983
 30
0.0
 10
19.96936053938322
 20
-9.517364163681222
 30
0.0
 10
21.56347046788506
 20
-10.24973042873469
 30
0.0
 10
23.20354504246417
 20
-10.78776094102931
 30
0.0
 10
24.8928252476686
 20
-11.09472188101062
 30
0.0
 10
26.63077273536619
 20
-11.14528220549585
 30
0.0
 10
28.36685650279383
 20
-10.9043579326273
 30
0.0
 10
29.66696865745474
 20
-10.58007569539219
 30
0.0
 10
30.38908057091323
 20
-10.26232022145151
 30
0.0
 10
30.53259094025077
 20
-10.19917044566974
 30
0.0
  0
SPLINE
  5
AF
330
1F
100
AcDbEntity
  8
외형선
  6
Continuous
370
    15
100
AcDbSpline
210
0.0
220
0.0
230
1.0
 70
    24
 71
     3
 72
    28
 73
    24
 74
     0
 42
0.000000001
 43
0.00000001
 40
0.0
 40
0.0
 40
0.0
 40
0.0
 40
0.1250000000000007
 40
0.1250000000000007
 40
0.1875000000000008
 40
0.1875000000000008
 40
0.2500000000000009
 40
0.2500000000000009
 40
0.3750000000000007
 40
0.3750000000000007
 40
0.5000000000000004
 40
0.5000000000000004
 40
0.6250000000000002
 40
0.6250000000000002
 40
0.6875000000000001
 40
0.6875000000000001
 40
0.75
 40
0.75
 40
0.8125
 40
0.8125
 40
0.875
 40
0.875
 40
1.0
 40
1.0
 40
1.0
 40
1.0
 10
11.99999999999998
 20
5.325317491311901
 30
0.0
 10
11.99999999999998
 20
5.201351738378342
 30
0.0
 10
11.99999999999999
 20
5.034101217008912
 30
0.0
 10
12.0
 20
4.764291011602035
 30
0.0
 10
12.00000000000001
 20
4.674535288052142
 30
0.0
 10
12.00000000000001
 20
4.467493231741226
 30
0.0
 10
12.00000000000001
 20
4.350933535553529
 30
0.0
 10
11.99999999999998
 20
3.95522676039475
 30
0.0
 10
12.00000000000001
 20
3.629064045300218
 30
0.0
 10
12.0
 20
2.827056626329576
 30
0.0
 10
11.99999999999998
 20
2.349415375017923
 30
0.0
 10
11.99999999999999
 20
1.271082623299923
 30
0.0
 10
11.99999999999997
 20
0.6700210178132823
 30
0.0
 10
11.99999999999997
 20
-0.2305490812104153
 30
0.0
 10
12.0
 20
-0.5297324012147988
 30
0.0
 10
11.99999999999999
 20
-1.104674261159089
 30
0.0
 10
11.99999999999999
 20
-1.380266419530101
 30
0.0
 10
12.0
 20
-1.887889253781165
 30
0.0
 10
11.99999999999999
 20
-2.11979212748717
 30
0.0
 10
11.99999999999999
 20
-2.526144031635688
 30
0.0
 10
12.00000000000001
 20
-2.700559775790706
 30
0.0
 10
11.99999999999998
 20
-3.130033039444489
 30
0.0
 10
11.99999999999997
 20
-3.288642469593863
 30
0.0
 10
11.99999999999999
 20
-3.344174226238533
 30
0.0
  0
SPLINE
  5
B0
330
1F
100
AcDbEntity
  8
0
  6
Continuous
 62
     1
370
    15
100
AcDbSpline
210
0.0
220
0.0
230
1.0
 70
     8
 71
     3
 72
    21
 73
    17
 74
     0
 42
0.000000001
 43
0.00000001
 40
0.0
 40
0.0
 40
0.0
 40
0.0
 40
0.0621988818449511
 40
0.1377264193492649
 40
0.2132106073192432
 40
0.2886419380534932
 40
0.3640931480073242
 40
0.4396236220488717
 40
0.5151025359405775
 40
0.5843260773065929
 40
0.6536141116525959
 40
0.7229359294733565
 40
0.7921624325775716
 40
0.8614293930580038
 40
0.9307663743142157
 40
1.0
 40
1.0
 40
1.0
 40
1.0
 10
35.00838511244132
 20
-11.09181063783155
 30
0.0
 10
34.5314843729112
 20
-11.08192999940522
 30
0.0
 10
33.47548739527696
 20
-11.06005139144673
 30
0.0
 10
31.83919295973679
 20
-10.70160911677623
 30
0.0
 10
30.10236684058644
 20
-10.08888214766571
 30
0.0
 10
28.36681526308693
 20
-9.222392696089178
 30
0.0
 10
26.63078380220486
 20
-8.13296876783846
 30
0.0
 10
24.89282227472031
 20
-6.845622387030573
 30
0.0
 10
23.20354576567823
 20
-5.430818635963117
 30
0.0
 10
21.56347028103766
 20
-3.936191409008545
 30
0.0
 10
19.96936058949824
 20
-2.404682912540403
 30
0.0
 10
18.37443937940622
 20
-0.8247263579427079
 30
0.0
 10
16.7817287466246
 20
0.7746284060535977
 30
0.0
 10
15.18807618169051
 20
2.355269234268378
 30
0.0
 10
13.59282566964537
 20
3.894024477372029
 30
0.0
 10
12.53067781536775
 20
4.848457114016993
 30
0.0
 10
12.00000000000106
 20
5.325317491307779
 30
0.0
  0
LINE
  5
B1
330
1F
100
AcDbEntity
  8
0
  6
Continuous
 62
     1
370
    15
100
AcDbLine
 10
59.62499999999999
 20
-11.03033216820055
 30
0.0
 11
59.62499999999999
 21
-6.674234334024104
 31
0.0
  0
SPLINE
  5
B2
330
1F
100
AcDbEntity
  8
0
  6
Continuous
 62
     1
370
    15
100
AcDbSpline
210
0.0
220
0.0
230
1.0
 70
     8
 71
     3
 72
    27
 73
    23
 74
     0
 42
0.000000001
 43
0.00000001
 40
0.0
 40
0.0
 40
0.0
 40
0.0
 40
0.0170677602132429
 40
0.0687870627386185
 40
0.1204927387181484
 40
0.1722346465800697
 40
0.2240062691103446
 40
0.2757233234427717
 40
0.3274297787255261
 40
0.3791754840438473
 40
0.4309445553757434
 40
0.4826595448636256
 40
0.5343669632668315
 40
0.5861166481246399
 40
0.6378826300976448
 40
0.6895957381806871
 40
0.7413043034789542
 40
0.79305814978382
 40
0.8448205044056828
 40
0.8965319146067957
 40
0.948241810523988
 40
1.0
 40
1.0
 40
1.0
 40
1.0
 10
26.05799792319238
 20
11.0835873349691
 30
0.0
 10
26.24905470934299
 20
11.09190742466137
 30
0.0
 10
27.01905821134816
 20
11.12543933069374
 30
0.0
 10
28.36679381381103
 20
10.90703451502404
 30
0.0
 10
30.102370514042
 20
10.43067198151033
 30
0.0
 10
31.83919973664808
 20
9.68114921048737
 30
0.0
 10
33.57713702467384
 20
8.701303841121945
 30
0.0
 10
35.31307678842997
 20
7.507356912336188
 30
0.0
 10
37.0486556674019
 20
6.130908251621071
 30
0.0
 10
38.78563093682008
 20
4.605145398005002
 30
0.0
 10
40.52347166384764
 20
2.967850856507773
 30
0.0
 10
42.25934021757185
 20
1.257195141303863
 30
0.0
 10
43.99495171821621
 20
-0.4839184138681769
 30
0.0
 10
45.73207367153309
 20
-2.212838282018903
 30
0.0
 10
47.46979957280222
 20
-3.887372912777303
 30
0.0
 10
49.20560364469707
 20
-5.468051191153663
 30
0.0
 10
50.94125413633684
 20
-6.915375464894308
 30
0.0
 10
52.67852985769929
 20
-8.19334718158584
 30
0.0
 10
54.41612094332839
 20
-9.272911574333625
 30
0.0
 10
56.15186772620513
 20
-10.12177634685792
 30
0.0
 10
57.88756346859433
 20
-10.74307310719591
 30
0.0
 10
59.04567430742118
 20
-10.93454935745729
 30
0.0
 10
59.62499999999999
 20
-11.03033216820055
 30
0.0
  0
SPLINE
  5
B3
330
1F
100
AcDbEntity
  8
0
  6
Continuous
 62
     1
370
    15
100
AcDbSpline
210
0.0
220
0.0
230
1.0
 70
     8
 71
     3
 72
    24
 73
    20
 74
     0
 42
0.000000001
 43
0.00000001
 40
0.0
 40
0.0
 40
0.0
 40
0.0
 40
0.0597198818120232
 40
0.1193840413189556
 40
0.1790499480442057
 40
0.2387746357047421
 40
0.2984895062582554
 40
0.3581521304640925
 40
0.4178199962475941
 40
0.4775488692357807
 40
0.5372589382085394
 40
0.5969202390984298
 40
0.6565902756934644
 40
0.7163227132605073
 40
0.7760281905419758
 40
0.8356883801596191
 40
0.8953607992234657
 40
0.9550961804264274
 40
1.0
 40
1.0
 40
1.0
 40
1.0
 10
59.62499999999999
 20
-6.675139405532001
 30
0.0
 10
59.04567430742123
 20
-6.196622773334604
 30
0.0
 10
57.88756346859453
 20
-5.240035994246901
 30
0.0
 10
56.15186772620452
 20
-3.633016779403548
 30
0.0
 10
54.4161209433305
 20
-1.949015060843488
 30
0.0
 10
52.67852985769124
 20
-0.215201724579982
 30
0.0
 10
50.94125413636717
 20
1.523289045450984
 30
0.0
 10
49.2056036445839
 20
3.225421237394563
 30
0.0
 10
47.46979957322499
 20
4.848981894136467
 30
0.0
 10
45.7320736699536
 20
6.353530532848271
 30
0.0
 10
43.99495172410666
 20
7.703703401571389
 30
0.0
 10
42.25934019560687
 20
8.866414904433991
 30
0.0
 10
40.52347174587406
 20
9.813024143115797
 30
0.0
 10
38.78563063039635
 20
10.52017393679236
 30
0.0
 10
37.04865681000984
 20
10.97068935259453
 30
0.0
 10
35.31307252733728
 20
11.15608656454744
 30
0.0
 10
33.57715293842758
 20
11.06120485647004
 30
0.0
 10
31.98272809456942
 20
10.75549898847775
 30
0.0
 10
30.96802882950844
 20
10.36772552644842
 30
0.0
 10
30.53259094025086
 20
10.20132030311753
 30
0.0
  0
LINE
  5
B4
330
1F
100
AcDbEntity
  8
0
  6
Continuous
 62
     1
370
    15
100
AcDbLine
 10
59.62499999999999
 20
-4.354117833944491
 30
0.0
 11
59.62499999999999
 21
4.35626769139249
 31
0.0
  0
SPLINE
  5
B5
330
1F
100
AcDbEntity
  8
0
  6
Continuous
 62
     1
370
    15
100
AcDbSpline
210
0.0
220
0.0
230
1.0
 70
     8
 71
     3
 72
    20
 73
    16
 74
     0
 42
0.000000001
 43
0.00000001
 40
0.0
 40
0.0
 40
0.0
 40
0.0
 40
0.0497840717311039
 40
0.1290203050095117
 40
0.2081737621921125
 40
0.2873156312929465
 40
0.3665221921985701
 40
0.4457536969942083
 40
0.5249042745533399
 40
0.6040478990583616
 40
0.6832608293536874
 40
0.7624867822312812
 40
0.8416347610617668
 40
0.9207804221733734
 40
1.0
 40
1.0
 40
1.0
 40
1.0
 10
37.69355758224108
 20
11.08190824826397
 30
0.0
 10
38.0575105638606
 20
11.08401514687624
 30
0.0
 10
39.00073041440439
 20
11.08947538128709
 30
0.0
 10
40.52349237271886
 20
10.79252151210051
 30
0.0
 10
42.2593346721562
 20
10.23256050215208
 30
0.0
 10
43.99495320535411
 20
9.411897006885123
 30
0.0
 10
45.73207327276477
 20
8.365082665106735
 30
0.0
 10
47.46979967954462
 20
7.114006768882208
 30
0.0
 10
49.20560361611152
 20
5.689062686061638
 30
0.0
 10
50.94125414400345
 20
4.12542761754159
 30
0.0
 10
52.6785298556439
 20
2.461918468419044
 30
0.0
 10
54.41612094387832
 20
0.7381505037959042
 30
0.0
 10
56.15186772605857
 20
-1.002389191551617
 30
0.0
 10
57.88756346863099
 20
-2.726032036668312
 30
0.0
 10
59.04567430743342
 20
-3.811253726372353
 30
0.0
 10
59.62499999999999
 20
-4.354117833944492
 30
0.0
  0
SPLINE
  5
B6
330
1F
100
AcDbEntity
  8
0
  6
Continuous
 62
     1
370
    15
100
AcDbSpline
210
0.0
220
0.0
230
1.0
 70
     8
 71
     3
 72
    18
 73
    14
 74
     0
 42
0.000000001
 43
0.00000001
 40
0.0
 40
0.0
 40
0.0
 40
0.0
 40
0.0995307039173172
 40
0.1989685395957615
 40
0.2984092872335697
 40
0.3979480007026631
 40
0.4974703527265762
 40
0.5969056296323957
 40
0.6963496422874959
 40
0.7958953311322013
 40
0.8954096807170955
 40
0.9948427521502368
 40
0.9999999999999999
 40
0.9999999999999999
 40
0.9999999999999999
 40
0.9999999999999999
 10
59.62499999999999
 20
4.356267691392492
 30
0.0
 10
59.04567430709707
 20
4.878624991184194
 30
0.0
 10
57.88756346762236
 20
5.92285219943422
 30
0.0
 10
56.15186773008905
 20
7.317276241070373
 30
0.0
 10
54.41612092875678
 20
8.540938115697095
 30
0.0
 10
52.67852991215562
 20
9.55393364828496
 30
0.0
 10
50.94125393321733
 20
10.3347439022448
 30
0.0
 10
49.20560440204294
 20
10.86427588431872
 30
0.0
 10
47.46979674476749
 20
11.12701690251139
 30
0.0
 10
45.73208423650171
 20
11.12593170217812
 30
0.0
 10
43.99491231798452
 20
10.82624170002093
 30
0.0
 10
42.80786722511595
 20
10.51100440728209
 30
0.0
 10
42.19941414510106
 20
10.23219749066989
 30
0.0
 10
42.16941191009399
 20
10.218449790299
 30
0.0
  0
LINE
  5
B7
330
1F
100
AcDbEntity
  8
0
  6
Continuous
 62
     1
370
    15
100
AcDbLine
 10
59.62499999999999
 20
-6.675139405532001
 30
0.0
 11
59.62499999999999
 21
-4.354117833944491
 31
0.0
  0
LINE
  5
B8
330
1F
100
AcDbEntity
  8
외형선
  6
Continuous
370
    15
100
AcDbLine
 10
11.99999999999997
 20
5.325317491311917
 30
0.0
 11
11.99999999999999
 21
7.50574424737118
 31
0.0
  0
LINE
  5
B9
330
1F
100
AcDbEntity
  8
0
  6
Continuous
 62
     1
370
    15
100
AcDbLine
 10
59.62499999999999
 20
-11.11142507127611
 30
0.0
 11
59.62499999999999
 21
-11.03033216820055
 31
0.0
  0
LINE
  5
BA
330
1F
100
AcDbEntity
  8
외형선
  6
Continuous
370
    15
100
AcDbLine
 10
11.99999999999997
 20
11.11038941478847
 30
0.0
 11
11.99999999999998
 21
11.1135749287239
 31
0.0
  0
LINE
  5
BB
330
1F
100
AcDbEntity
  8
0
  6
Continuous
 62
     1
370
    15
100
AcDbLine
 10
59.62499999999999
 20
11.03248202564835
 30
0.0
 11
59.62499999999999
 21
11.1135749287239
 31
0.0
  0
SPLINE
  5
BC
330
1F
100
AcDbEntity
  8
0
  6
Continuous
 62
     1
370
    15
100
AcDbSpline
210
0.0
220
0.0
230
1.0
 70
     8
 71
     3
 72
    11
 73
     7
 74
     0
 42
0.000000001
 43
0.00000001
 40
0.0
 40
0.0
 40
0.0
 40
0.0
 40
0.2985833971494618
 40
0.596888197713562
 40
0.8952017339007923
 40
1.0
 40
1.0
 40
1.0
 40
1.0
 10
59.62499999999999
 20
11.03248202564835
 30
0.0
 10
59.04567654903561
 20
11.07719760792422
 30
0.0
 10
57.8875701913461
 20
11.16658705010074
 30
0.0
 10
56.15184086414062
 20
10.94088353481516
 30
0.0
 10
54.79196927340896
 20
10.61923779576651
 30
0.0
 10
54.00984099838149
 20
10.28344055386127
 30
0.0
 10
53.8065086061639
 20
10.19614226958142
 30
0.0
  0
SPLINE
  5
BD
330
1F
100
AcDbEntity
  8
0
  6
Continuous
 62
     1
370
    15
100
AcDbSpline
210
0.0
220
0.0
230
1.0
 70
     8
 71
     3
 72
    15
 73
    11
 74
     0
 42
0.000000001
 43
0.00000001
 40
0.0
 40
0.0
 40
0.0
 40
0.0
 40
0.0188208739771878
 40
0.158893154927264
 40
0.2990959359736062
 40
0.4393670771222249
 40
0.5794453510830173
 40
0.7196054896357703
 40
0.8599073136554005
 40
1.0
 40
1.0
 40
1.0
 40
1.0
 10
23.36982927664751
 20
-11.0967835801588
 30
0.0
 10
23.29848575200594
 20
-11.10154799352336
 30
0.0
 10
22.69617590562635
 20
-11.14177102842552
 30
0.0
 10
21.5635413623247
 20
-10.98700194721688
 30
0.0
 10
19.96934152467642
 20
-10.63525449832649
 30
0.0
 10
18.37444448080567
 20
-10.04082449717801
 30
0.0
 10
16.78172738012536
 20
-9.24653918247753
 30
0.0
 10
15.1880765466098
 20
-8.258485432198363
 30
0.0
 10
13.59282557853586
 20
-7.110962511590885
 30
0.0
 10
12.53067778501301
 20
-6.226098836125574
 30
0.0
 10
12.00000000000106
 20
-5.783996994746208
 30
0.0
  0
LINE
  5
BE
330
1F
100
AcDbEntity
  8
외형선
  6
Continuous
370
    15
100
AcDbLine
 10
11.99999999999997
 20
-5.783996994752679
 30
0.0
 11
11.99999999999999
 21
-3.344174226238567
 31
0.0
  0
SPLINE
  5
BF
330
1F
100
AcDbEntity
  8
0
  6
Continuous
 62
     1
370
    15
100
AcDbSpline
210
0.0
220
0.0
230
1.0
 70
     8
 71
     3
 72
    12
 73
     8
 74
     0
 42
0.000000001
 43
0.00000001
 40
0.0
 40
0.0
 40
0.0
 40
0.0
 40
0.2309914940388669
 40
0.4623278242378181
 40
0.6934305366903198
 40
0.9243982669042827
 40
1.0
 40
1.0
 40
1.0
 40
1.0
 10
11.99999999999999
 20
-10.84884354488583
 30
0.0
 10
12.53067863433624
 20
-10.94191191910694
 30
0.0
 10
13.5928281277756
 20
-11.12818760487636
 30
0.0
 10
15.1880663361831
 20
-11.12280784918894
 30
0.0
 10
16.78176561471597
 20
-10.89053750140387
 30
0.0
 10
18.01671871443985
 20
-10.57567950050002
 30
0.0
 10
18.72170637003568
 20
-10.27374432304523
 30
0.0
 10
18.89556024314728
 20
-10.19928543059159
 30
0.0
  0
SPLINE
  5
C0
330
1F
100
AcDbEntity
  8
0
  6
Continuous
 62
     1
370
    15
100
AcDbSpline
210
0.0
220
0.0
230
1.0
 70
     8
 71
     3
 72
    13
 73
     9
 74
     0
 42
0.000000001
 43
0.00000001
 40
0.0
 40
0.0
 40
0.0
 40
0.0
 40
0.156420476256524
 40
0.3251843389912878
 40
0.4939759464550771
 40
0.6626014295079401
 40
0.8312219746398188
 40
1.0
 40
1.0
 40
1.0
 40
1.0
 10
49.33116104367505
 20
11.10448984797314
 30
0.0
 10
49.867696399948
 20
11.08568841515086
 30
0.0
 10
50.9831059636483
 20
11.04660189878983
 30
0.0
 10
52.67853157096522
 20
10.65246528237354
 30
0.0
 10
54.41612048488943
 20
10.01317396590269
 30
0.0
 10
56.15186784839693
 20
9.120185694229827
 30
0.0
 10
57.88756343801346
 20
8.018185171150305
 30
0.0
 10
59.04567429722436
 20
7.124393624281886
 30
0.0
 10
59.62499999999999
 20
6.677289262979849
 30
0.0
  0
LINE
  5
C1
330
1F
100
AcDbEntity
  8
0
  6
Continuous
 62
     1
370
    15
100
AcDbLine
 10
59.62499999999999
 20
4.35626769139249
 30
0.0
 11
59.62499999999999
 21
6.677289262979849
 31
0.0
  0
LINE
  5
C2
330
1F
100
AcDbEntity
  8
외형선
  6
Continuous
370
    15
100
AcDbLine
 10
11.99999999999998
 20
-11.11142507127611
 30
0.0
 11
11.99999999999999
 21
-10.84884354488583
 31
0.0
  0
LINE
  5
C3
330
1F
100
AcDbEntity
  8
0
  6
Continuous
 62
     1
370
    15
100
AcDbLine
 10
59.62499999999999
 20
6.652857819435416
 30
0.0
 11
59.62499999999999
 21
11.03248202564835
 31
0.0
  0
SPLINE
  5
C4
330
1F
100
AcDbEntity
  8
외형선
  6
Continuous
370
    15
100
AcDbSpline
210
0.0
220
0.0
230
1.0
 70
    24
 71
     3
 72
    16
 73
    12
 74
     0
 42
0.000000001
 43
0.00000001
 40
0.0
 40
0.0
 40
0.0
 40
0.0
 40
0.0036188997373751
 40
0.1422646364749551
 40
0.2809103732125368
 40
0.4195561099501183
 40
0.5582018466876971
 40
0.696847583425276
 40
0.8354933201628537
 40
0.974139056900431
 40
1.0
 40
1.0
 40
1.0
 40
1.0
 10
11.99999999999999
 20
-5.860483770560879
 30
0.0
 10
12.0
 20
-5.864642103561696
 30
0.0
 10
12.00000000000013
 20
-6.028112709445954
 30
0.0
 10
11.99999999999996
 20
-6.435612450010249
 30
0.0
 10
12.00000000000001
 20
-7.072819701138303
 30
0.0
 10
12.00000000000001
 20
-7.77587028749572
 30
0.0
 10
11.99999999999999
 20
-8.512515789892834
 30
0.0
 10
11.99999999999999
 20
-9.264739067940528
 30
0.0
 10
11.99999999999999
 20
-10.00977696570254
 30
0.0
 10
11.99999999999999
 20
-10.53440194212347
 30
0.0
 10
11.99999999999999
 20
-10.80612747651386
 30
0.0
 10
11.99999999999999
 20
-10.84884354488583
 30
0.0
  0
LINE
  5
C5
330
1F
100
AcDbEntity
  8
외형선
  6
Continuous
370
    15
100
AcDbLine
 10
10.99972247116716
 20
-11.11142507127611
 30
0.0
 11
10.99972247116716
 21
-11.08723052117501
 31
0.0
  0
SPLINE
  5
C6
330
1F
100
AcDbEntity
  8
외형선
  6
Continuous
370
    15
100
AcDbSpline
210
0.0
220
0.0
230
1.0
 70
     8
 71
     3
 72
     8
 73
     4
 74
     0
 42
0.000000001
 43
0.00000001
 40
0.0
 40
0.0
 40
0.0
 40
0.0
 40
1.0
 40
1.0
 40
1.0
 40
1.0
 10
11.99999999999999
 20
11.11038941477788
 30
0.0
 10
11.66607435586753
 20
11.1183700343528
 30
0.0
 10
11.3319754785347
 20
11.11132864100983
 30
0.0
 10
10.99972247116715
 20
11.0893828221335
 30
0.0
  0
LINE
  5
C7
330
1F
100
AcDbEntity
  8
외형선
  6
Continuous
370
    15
100
AcDbLine
 10
10.99972247116716
 20
8.211512270632664
 30
0.0
 11
10.99972247116716
 21
11.1135749287239
 31
0.0
  0
SPLINE
  5
C8
330
1F
100
AcDbEntity
  8
외형선
  6
Continuous
370
    15
100
AcDbSpline
210
0.0
220
0.0
230
1.0
 70
     8
 71
     3
 72
     8
 73
     4
 74
     0
 42
0.000000001
 43
0.00000001
 40
0.0
 40
0.0
 40
0.0
 40
0.0
 40
1.0
 40
1.0
 40
1.0
 40
1.0
 10
11.99999999999999
 20
7.505744247371174
 30
0.0
 10
11.66607435586753
 20
7.751575442736915
 30
0.0
 10
11.33197547853471
 20
7.987299207335484
 30
0.0
 10
10.99972247116716
 20
8.211542069473303
 30
0.0
  0
SPLINE
  5
C9
330
1F
100
AcDbEntity
  8
외형선
  6
Continuous
370
    15
100
AcDbSpline
210
0.0
220
0.0
230
1.0
 70
     8
 71
     3
 72
     8
 73
     4
 74
     0
 42
0.000000001
 43
0.00000001
 40
0.0
 40
0.0
 40
0.0
 40
0.0
 40
1.0
 40
1.0
 40
1.0
 40
1.0
 10
11.99999999999999
 20
5.325317491308706
 30
0.0
 10
11.66607435586753
 20
5.61789362106601
 30
0.0
 10
11.3319754785347
 20
5.903318806526782
 30
0.0
 10
10.99972247116715
 20
6.179904566796054
 30
0.0
  0
SPLINE
  5
CA
330
1F
100
AcDbEntity
  8
외형선
  6
Continuous
370
    15
100
AcDbSpline
210
0.0
220
0.0
230
1.0
 70
     8
 71
     3
 72
     8
 73
     4
 74
     0
 42
0.000000001
 43
0.00000001
 40
0.0
 40
0.0
 40
0.0
 40
0.0
 40
1.0
 40
1.0
 40
1.0
 40
1.0
 10
11.99999999999999
 20
-3.344174226238567
 30
0.0
 10
11.66607435586753
 20
-3.026310402754446
 30
0.0
 10
11.33197547853471
 20
-2.703869345515587
 30
0.0
 10
10.99972247116716
 20
-2.378821737489258
 30
0.0
  0
SPLINE
  5
CB
330
1F
100
AcDbEntity
  8
외형선
  6
Continuous
370
    15
100
AcDbSpline
210
0.0
220
0.0
230
1.0
 70
     8
 71
     3
 72
     8
 73
     4
 74
     0
 42
0.000000001
 43
0.00000001
 40
0.0
 40
0.0
 40
0.0
 40
0.0
 40
1.0
 40
1.0
 40
1.0
 40
1.0
 10
11.99999999999999
 20
-5.783996994745306
 30
0.0
 10
11.66607435586753
 20
-5.499401484562921
 30
0.0
 10
11.3319754785347
 20
-5.206934905759172
 30
0.0
 10
10.99972247116715
 20
-4.908403326613579
 30
0.0
  0
LINE
  5
CC
330
1F
100
AcDbEntity
  8
외형선
  6
Continuous
370
    15
100
AcDbLine
 10
10.99972247116716
 20
-10.58930227371164
 30
0.0
 11
10.99972247116716
 21
-4.908370088058563
 31
0.0
  0
SPLINE
  5
CD
330
1F
100
AcDbEntity
  8
외형선
  6
Continuous
370
    15
100
AcDbSpline
210
0.0
220
0.0
230
1.0
 70
     8
 71
     3
 72
     8
 73
     4
 74
     0
 42
0.000000001
 43
0.00000001
 40
0.0
 40
0.0
 40
0.0
 40
0.0
 40
1.0
 40
1.0
 40
1.0
 40
1.0
 10
11.99999999999999
 20
-10.84884354488583
 30
0.0
 10
11.66607435586753
 20
-10.77681091676745
 30
0.0
 10
11.33197547853471
 20
-10.69009362412716
 30
0.0
 10
10.99972247116716
 20
-10.58928887823865
 30
0.0
  0
LINE
  5
CE
330
1F
100
AcDbEntity
  8
외형선
  6
Continuous
370
    15
100
AcDbLine
 10
11.73376337303758
 20
-11.1026483846721
 30
0.0
 11
10.99972247116715
 21
-11.08723296468571
 31
0.0
  0
LINE
  5
CF
330
1F
100
AcDbEntity
  8
외형선
  6
Continuous
370
    15
100
AcDbLine
 10
-42.92750000000002
 20
0.0010749287238949
 30
0.0
 11
-42.92750000000002
 21
9.462574928723896
 31
0.0
  0
LINE
  5
D0
330
1F
100
AcDbEntity
  8
외형선
  6
Continuous
370
    15
100
AcDbLine
 10
-42.92750000000002
 20
-11.11142507127611
 30
0.0
 11
-42.92750000000002
 21
0.0010749287238949
 31
0.0
  0
LINE
  5
D1
330
1F
100
AcDbEntity
  8
외형선
  6
Continuous
370
    15
100
AcDbLine
 10
10.99972247116716
 20
-2.378864931802885
 30
0.0
 11
10.99972247116716
 21
6.179935361840371
 31
0.0
  0
LINE
  5
D2
330
1F
100
AcDbEntity
  8
외형선
  6
Continuous
370
    15
100
AcDbLine
 10
-45.15000000000003
 20
0.0010749287238949
 30
0.0
 11
-45.15000000000003
 21
8.891074928723906
 31
0.0
  0
LINE
  5
D3
330
1F
100
AcDbEntity
  8
외형선
  6
Continuous
370
    15
100
AcDbLine
 10
-45.15000000000003
 20
-8.888925071276116
 30
0.0
 11
-45.15000000000003
 21
0.0010749287238949
 31
0.0
  0
SPLINE
  5
D4
330
1F
100
AcDbEntity
  8
외형선
  6
Continuous
370
    15
100
AcDbSpline
210
0.0
220
0.0
230
1.0
 70
    24
 71
     3
 72
    28
 73
    24
 74
     0
 42
0.000000001
 43
0.00000001
 40
0.0
 40
0.0
 40
0.0
 40
0.0
 40
0.1250000000000004
 40
0.1250000000000004
 40
0.1875000000000004
 40
0.1875000000000004
 40
0.2500000000000004
 40
0.2500000000000004
 40
0.3125000000000005
 40
0.3125000000000005
 40
0.3750000000000006
 40
0.3750000000000006
 40
0.5000000000000006
 40
0.5000000000000006
 40
0.6250000000000007
 40
0.6250000000000007
 40
0.7500000000000007
 40
0.7500000000000007
 40
0.8125000000000006
 40
0.8125000000000006
 40
0.8750000000000004
 40
0.8750000000000004
 40
1.0
 40
1.0
 40
1.0
 40
1.0
 10
11.99999999999999
 20
-3.344174226238525
 30
0.0
 10
12.00000000000001
 20
-3.288642469593916
 30
0.0
 10
11.99999999999999
 20
-3.130033039444828
 30
0.0
 10
11.99999999999998
 20
-2.700559775791898
 30
0.0
 10
12.0
 20
-2.526144031637237
 30
0.0
 10
11.99999999999999
 20
-2.119792127489519
 30
0.0
 10
11.99999999999998
 20
-1.887889253783962
 30
0.0
 10
11.99999999999999
 20
-1.380266419533812
 30
0.0
 10
11.99999999999999
 20
-1.104674261163266
 30
0.0
 10
11.99999999999997
 20
-0.5297324012198436
 30
0.0
 10
11.99999999999997
 20
-0.230549081215858
 30
0.0
 10
12.0
 20
0.6700210178068343
 30
0.0
 10
11.99999999999998
 20
1.271082623293087
 30
0.0
 10
11.99999999999998
 20
2.349415375010923
 30
0.0
 10
11.99999999999997
 20
2.827056626322788
 30
0.0
 10
11.99999999999999
 20
3.629064045294143
 30
0.0
 10
11.99999999999999
 20
3.955226760389169
 30
0.0
 10
11.99999999999999
 20
4.350933535548703
 30
0.0
 10
11.99999999999997
 20
4.467493231736657
 30
0.0
 10
11.99999999999998
 20
4.674535288048077
 30
0.0
 10
11.99999999999997
 20
4.764291011597986
 30
0.0
 10
11.99999999999999
 20
5.03410121700489
 30
0.0
 10
11.99999999999999
 20
5.20135173837453
 30
0.0
 10
11.99999999999998
 20
5.325317491308722
 30
0.0
  0
SPLINE
  5
D5
330
1F
100
AcDbEntity
  8
외형선
  6
Continuous
370
    15
100
AcDbSpline
210
0.0
220
0.0
230
1.0
 70
    24
 71
     3
 72
    14
 73
    10
 74
     0
 42
0.000000001
 43
0.00000001
 40
0.0
 40
0.0
 40
0.0
 40
0.0
 40
0.1947434323930078
 40
0.3332347103080587
 40
0.4717259882231096
 40
0.6102172661381221
 40
0.7487085440531344
 40
0.887199821968222
 40
1.0
 40
1.0
 40
1.0
 40
1.0
 10
11.99999999999999
 20
-10.84884354488583
 30
0.0
 10
11.99999999999999
 20
-10.51772061639227
 30
0.0
 10
11.99999999999999
 20
-9.951120491309602
 30
0.0
 10
11.99999999999997
 20
-9.097178440963122
 30
0.0
 10
11.99999999999997
 20
-8.34753331417825
 30
0.0
 10
12.0
 20
-7.616197143115582
 30
0.0
 10
12.00000000000002
 20
-6.927348253654439
 30
0.0
 10
11.99999999999997
 20
-6.329221666613936
 30
0.0
 10
11.99999999999997
 20
-6.005697777904888
 30
0.0
 10
11.99999999999997
 20
-5.860473770560881
 30
0.0
  0
SPLINE
  5
D6
330
1F
100
AcDbEntity
  8
외형선
  6
Continuous
370
    15
100
AcDbSpline
210
0.0
220
0.0
230
1.0
 70
    24
 71
     3
 72
    13
 73
     9
 74
     0
 42
0.000000001
 43
0.00000001
 40
0.0
 40
0.0
 40
0.0
 40
0.0
 40
0.0224365700187576
 40
0.2248606546327113
 40
0.4272847392466644
 40
0.6297088238607454
 40
0.8321329084748275
 40
0.9999999999999999
 40
0.9999999999999999
 40
0.9999999999999999
 40
0.9999999999999999
 10
11.99999999999999
 20
7.582221023179381
 30
0.0
 10
11.99999999999999
 20
7.603712153774182
 30
0.0
 10
12.0
 20
7.819097557617283
 30
0.0
 10
11.99999999999999
 20
8.299108917928992
 30
0.0
 10
12.0
 20
9.002904418588555
 30
0.0
 10
11.99999999999998
 20
9.746278268430613
 30
0.0
 10
11.99999999999995
 20
10.45689000309934
 30
0.0
 10
11.99999999999998
 20
10.9065440924195
 30
0.0
 10
12.0
 20
11.11038941477789
 30
0.0
  0
LINE
  5
D7
330
1F
100
AcDbEntity
  8
중심선
100
AcDbLine
 10
-48.15000000000002
 20
0.0010749287238888
 30
0.0
 11
62.62499999999999
 21
0.0010749287239032
 31
0.0
  0
LINE
  5
D8
330
1F
100
AcDbEntity
  8
참조1
100
AcDbLine
 10
10.41250000000005
 20
0.0010749287238892
 30
0.0
 11
10.41250000000005
 21
-39.99892507127611
 31
0.0
  0
LINE
  5
D9
330
1F
100
AcDbEntity
  8
참조1
100
AcDbLine
 10
10.41250000000005
 20
-39.99892507127611
 30
0.0
 11
-9.508856814308633
 21
-39.9989250712761
 31
0.0
  0
CIRCLE
  5
DA
330
1F
100
AcDbEntity
  8
해칭선
100
AcDbCircle
 10
0.0
 20
0.0
 30
0.0
 40
3.000000000000001
  0
INSERT
  5
DB
330
1F
100
AcDbEntity
  8
0
  6
Continuous
 62
     7
100
AcDbBlockReference
 66
     1
  2
블럭10
 10
-6.702772932125224
 20
-52.04609937292004
 30
0.0
  0
ATTRIB
  5
DC
330
DB
100
AcDbEntity
  8
FORMAT
 62
     2
100
AcDbText
 10
-15.8840682208665
 20
-49.97073246008785
 30
0.0
 40
4.233333333333333
  1
E1032056 [ 6 FLUTE ]
 41
0.75
  7
SLDTEXTSTYLE0
 11
-15.8840682208665
 21
-52.08739912675452
 31
0.0
100
AcDbAttribute
  2
AUTOATTR0
 70
     0
 74
     1
  0
SEQEND
  5
DD
330
DB
100
AcDbEntity
  8
0
  6
Continuous
 62
     7
  0
HATCH
  5
DE
330
1F
100
AcDbEntity
  8
중심선
100
AcDbHatch
 10
0.0
 20
0.0
 30
0.0
210
0.0
220
0.0
230
1.0
  2
SOLID
 70
     1
 71
     0
 91
        1
 92
        0
 93
        4
 72
     1
 10
-0.9878636277443866
 20
-35.7989250712761
 11
-4.434138871581668
 21
-35.7989250712761
 72
     1
 10
-4.434138871581669
 20
-35.7989250712761
 11
-6.562368730785692
 21
-38.3352506518487
 72
     1
 10
-6.562368730785691
 20
-38.3352506518487
 11
-3.116060401835259
 21
-38.33521122254621
 72
     1
 10
-3.11606040183526
 20
-38.33521122254621
 11
-0.9878636277443871
 21
-35.7989250712761
 97
        0
 75
     0
 76
     1
 98
        1
 10
-3.175000000000063
 20
0.0
  0
HATCH
  5
DF
330
1F
100
AcDbEntity
  8
중심선
100
AcDbHatch
 10
0.0
 20
0.0
 30
0.0
210
0.0
220
0.0
230
1.0
  2
SOLID
 70
     1
 71
     0
 91
        1
 92
        0
 93
        4
 72
     1
 10
4.024900363291593
 20
-35.7989250712761
 11
0.5786251194543106
 21
-35.7989250712761
 72
     1
 10
0.5786251194543102
 20
-35.7989250712761
 11
-3.952512888903106
 21
-41.19892507127612
 72
     1
 10
-3.952512888903106
 20
-41.19892507127612
 11
-0.5062376450658235
 21
-41.19892507127612
 72
     1
 10
-0.5062376450658235
 20
-41.19892507127612
 11
4.024900363291593
 21
-35.7989250712761
 97
        0
 75
     0
 76
     1
 98
        1
 10
-3.175000000000063
 20
0.0
  0
HATCH
  5
E0
330
1F
100
AcDbEntity
  8
중심선
100
AcDbHatch
 10
0.0
 20
0.0
 30
0.0
210
0.0
220
0.0
230
1.0
  2
SOLID
 70
     1
 71
     0
 91
        1
 92
        0
 93
        4
 72
     1
 10
9.037664354327488
 20
-35.7989250712761
 11
5.591389110490374
 21
-35.7989250712761
 72
     1
 10
5.591389110490374
 20
-35.7989250712761
 11
-1.457047791398904
 21
-44.19892507127612
 72
     1
 10
-1.457047791398904
 20
-44.19892507127612
 11
1.989227452438378
 21
-44.19892507127612
 72
     1
 10
1.989227452438378
 20
-44.19892507127612
 11
9.037664354327488
 21
-35.7989250712761
 97
        0
 75
     0
 76
     1
 98
        1
 10
-3.175000000000063
 20
0.0
  0
HATCH
  5
E1
330
1F
100
AcDbEntity
  8
중심선
100
AcDbHatch
 10
0.0
 20
0.0
 30
0.0
210
0.0
220
0.0
230
1.0
  2
SOLID
 70
     1
 71
     0
 91
        1
 92
        0
 93
        6
 72
     3
 10
13.83755478533966
 20
-39.99892507132738
 11
3.960054785062281
 21
1.540882976769353E-10
 40
0.393933944016263
 50
17.09539180608438
 51
320.0019657685075
 73
     0
 72
     1
 10
15.52055444104026
 20
-38.58681907591438
 11
17.82585631474132
 21
-36.65249236586649
 72
     3
 10
13.83755478528681
 20
-39.99892507127625
 11
6.600054785286828
 21
-1.278976924368180E-13
 40
0.6363583540795982
 50
39.99873849337386
 51
368.4976242363724
 73
     1
 72
     1
 10
20.26288727718742
 20
-39.03892507120613
 11
12.51762209212273
 21
-39.03892507120613
 72
     1
 10
12.51762209212274
 20
-39.03892507120613
 11
12.5175970476768
 21
-40.95892507120602
 72
     1
 10
12.5175970476768
 20
-40.95892507120602
 11
16.95897681714884
 21
-40.95892507120599
 97
        0
 75
     0
 76
     1
 98
        1
 10
-3.175000000000063
 20
0.0
  0
DIMENSION
  5
E2
330
1F
100
AcDbEntity
  8
치수문자_일반주서
100
AcDbDimension
  2
_D
 10
-57.515
 20
-11.11142507127615
 30
0.0
 11
-57.51500000000004
 21
0.0010749287238905
 31
0.0
 70
   160
  1
%%c<>
 71
     2
 42
22.22499999999999
 52
-270.0
  3
SLDDIMSTYLE0
100
AcDbAlignedDimension
 13
-45.15000000000003
 23
11.11357492872389
 33
0.0
 14
-42.92750000000004
 24
-11.1114250712761
 34
0.0
 50
90.0000000000002
100
AcDbRotatedDimension
1001
ACAD
1000
DSTYLE
1002
{
1070
   171
1070
     6
1070
   273
1070
     7
1002
}
  0
DIMENSION
  5
F7
330
1F
100
AcDbEntity
  8
치수문자_일반주서
100
AcDbDimension
  2
_D_1
 10
12.0
 20
33.57246856623912
 30
0.0
 11
35.81249999999999
 21
33.57246856623912
 31
0.0
 70
   160
  1
<>
 71
     2
 42
47.62499999999999
  3
SLDDIMSTYLE0
100
AcDbAlignedDimension
 13
59.62499999999999
 23
11.1135749287239
 33
0.0
 14
12.0
 24
11.11038941477789
 34
0.0
 50
-0.0000000000000513
100
AcDbRotatedDimension
1001
ACAD
1000
DSTYLE
1002
{
1070
   171
1070
     6
1070
   273
1070
     7
1002
}
  0
DIMENSION
  5
10B
330
1F
100
AcDbEntity
  8
치수문자_일반주서
100
AcDbDimension
  2
_D_2
 10
-45.15000000000003
 20
45.57246856623912
 30
0.0
 11
7.237499999999978
 21
45.57246856623912
 31
0.0
 70
   160
  1
<>
 71
     2
 42
104.775
  3
SLDDIMSTYLE0
100
AcDbAlignedDimension
 13
59.62499999999999
 23
11.1135749287239
 33
0.0
 14
-45.15000000000003
 24
8.891074928723906
 34
0.0
 50
-0.0000000000000039
100
AcDbRotatedDimension
1001
ACAD
1000
DSTYLE
1002
{
1070
   171
1070
     6
1070
   273
1070
     7
1002
}
  0
DIMENSION
  5
11E
330
1F
100
AcDbEntity
  8
치수문자_일반주서
100
AcDbDimension
  2
_D_3
 10
69.05285760777666
 20
-11.11142507127607
 30
0.0
 11
69.05285760777652
 21
32.15507492872393
 31
0.0
 70
   160
  1
%%c<>
 71
     2
 42
22.22500000000001
 52
-270.0
  3
SLDDIMSTYLE0
100
AcDbAlignedDimension
 13
59.62499999999999
 23
11.1135749287239
 33
0.0
 14
59.62499999999999
 24
-11.11142507127611
 34
0.0
 50
90.0000000000002
100
AcDbRotatedDimension
1001
ACAD
1000
DSTYLE
1002
{
1070
   171
1070
     6
1070
   273
1070
     7
1002
}
  0
LINE
  5
131
330
1F
100
AcDbEntity
  8
참조1
100
AcDbLine
 10
88.46348381534564
 20
7.441074928723896
 30
0.0
 11
88.46348381534564
 21
-7.438925071276109
 31
0.0
  0
LINE
  5
132
330
1F
100
AcDbEntity
  8
참조1
100
AcDbLine
 10
101.1634838153456
 20
5.441074928723896
 30
0.0
 11
88.46348381534564
 21
5.441074928723896
 31
0.0
  0
SOLID
  5
133
330
1F
100
AcDbEntity
  8
참조1
100
AcDbTrace
 10
88.46348381534564
 20
5.441074928723896
 30
0.0
 11
94.81348381534563
 21
4.425074928723896
 31
0.0
 12
94.81348381534563
 22
6.457074928723896
 32
0.0
 13
94.81348381534563
 23
6.457074928723896
 33
0.0
  0
LINE
  5
134
330
1F
100
AcDbEntity
  8
참조1
100
AcDbLine
 10
101.1634838153456
 20
-5.438925071276109
 30
0.0
 11
88.46348381534564
 21
-5.438925071276109
 31
0.0
  0
SOLID
  5
135
330
1F
100
AcDbEntity
  8
참조1
100
AcDbTrace
 10
88.46348381534564
 20
-5.438925071276109
 30
0.0
 11
94.81348381534563
 21
-6.454925071276109
 31
0.0
 12
94.81348381534563
 22
-4.422925071276109
 32
0.0
 13
94.81348381534563
 23
-4.422925071276109
 33
0.0
  0
MTEXT
  5
136
330
1F
100
AcDbEntity
  8
참조1
100
AcDbMText
 10
97.8609739078159
 20
10.98929157337383
 30
0.0
 40
3.5
 41
0.0
 71
     1
 72
     1
  1
A
  7
SLDTEXTSTYLE0
 73
     1
 44
1.0
  0
MTEXT
  5
137
330
1F
100
AcDbEntity
  8
참조1
100
AcDbMText
 10
97.8609739078159
 20
0.1092915733738251
 30
0.0
 40
3.5
 41
0.0
 71
     1
 72
     1
  1
A
  7
SLDTEXTSTYLE0
 73
     1
 44
1.0
  0
INSERT
  5
13E
330
1F
100
AcDbEntity
  8
해칭선
100
AcDbBlockReference
  2
SW_DOWELSYMBOL_0
 10
0.0
 20
0.0
 30
0.0
  0
LINE
  5
29B
330
1F
100
AcDbEntity
  8
외형선
  6
Continuous
370
    15
100
AcDbLine
 10
-25.14432500000003
 20
9.462574928723896
 30
0.0
 11
-13.56192500000003
 21
9.462574928723896
 31
0.0
  0
LINE
  5
29C
330
1F
100
AcDbEntity
  8
외형선
  6
Continuous
370
    15
100
AcDbLine
 10
-25.14432500000003
 20
9.462574928723896
 30
0.0
 11
-26.79532500000004
 21
11.11357492872388
 31
0.0
  0
LINE
  5
29D
330
1F
100
AcDbEntity
  8
외형선
  6
Continuous
370
    15
100
AcDbLine
 10
-13.56192500000003
 20
9.462574928723896
 30
0.0
 11
-11.9109249999999
 21
11.11357492872388
 31
0.0
  0
LINE
  5
29E
330
1F
100
AcDbEntity
  8
외형선
  6
Continuous
370
    15
100
AcDbLine
 10
-44.57850000000003
 20
9.462574928723896
 30
0.0
 11
-32.45000000000004
 21
9.462574928723896
 31
0.0
  0
LINE
  5
29F
330
1F
100
AcDbEntity
  8
외형선
  6
Continuous
370
    15
100
AcDbLine
 10
-32.45000000000004
 20
9.462574928723896
 30
0.0
 11
-30.79900000000003
 21
11.11357492872387
 31
0.0
  0
LINE
  5
2A0
330
1F
100
AcDbEntity
  8
외형선
  6
Continuous
370
    15
100
AcDbLine
 10
-26.79532500000006
 20
11.1135749287239
 30
0.0
 11
-30.799
 21
11.1135749287239
 31
0.0
  0
ENDSEC
  0
SECTION
  2
OBJECTS
  0
DICTIONARY
  5
C
330
0
100
AcDbDictionary
281
     1
  3
ACAD_GROUP
350
D
  3
ACAD_IMAGE_VARS
350
162
  3
ACAD_LAYOUT
350
1A
  3
ACAD_MLINESTYLE
350
17
  3
ACAD_PLOTSETTINGS
350
19
  3
ACAD_PLOTSTYLENAME
350
E
  3
ACAD_SCALELIST
350
47
  3
APPDATA
350
160
  3
DWGPROPS
350
2C4
  0
DICTIONARY
  5
1FA
330
2
100
AcDbDictionary
280
     1
281
     1
  3
ACAD_LAYERSTATES
360
1FB
  0
DICTIONARY
  5
D
102
{ACAD_REACTORS
330
C
102
}
330
C
100
AcDbDictionary
281
     1
  0
RASTERVARIABLES
  5
162
102
{ACAD_REACTORS
330
C
102
}
330
C
100
AcDbRasterVariables
 90
        0
 70
     1
 71
     1
 72
     1
  0
DICTIONARY
  5
1A
102
{ACAD_REACTORS
330
C
102
}
330
C
100
AcDbDictionary
281
     1
  3
Layout1
350
1E
  3
Layout2
350
26
  3
Model
350
22
  0
DICTIONARY
  5
17
102
{ACAD_REACTORS
330
C
102
}
330
C
100
AcDbDictionary
281
     1
  3
Standard
350
18
  0
DICTIONARY
  5
19
102
{ACAD_REACTORS
330
C
102
}
330
C
100
AcDbDictionary
281
     1
  0
ACDBDICTIONARYWDFLT
  5
E
102
{ACAD_REACTORS
330
C
102
}
330
C
100
AcDbDictionary
281
     1
  3
Normal
350
F
100
AcDbDictionaryWithDefault
340
F
  0
DICTIONARY
  5
47
102
{ACAD_REACTORS
330
C
102
}
330
C
100
AcDbDictionary
281
     1
  3
A0
350
48
  3
A1
350
49
  3
A2
350
4A
  3
A3
350
4B
  3
A4
350
4C
  3
A5
350
4D
  3
A6
350
4E
  3
A7
350
4F
  3
A8
350
50
  3
A9
350
51
  3
B0
350
52
  3
B1
350
53
  3
B2
350
54
  3
B3
350
55
  3
B4
350
56
  3
B5
350
57
  3
B6
350
58
  3
B7
350
59
  3
B8
350
5A
  3
B9
350
5B
  3
C0
350
5C
  3
C1
350
5D
  3
C2
350
5E
  3
C3
350
5F
  3
C4
350
60
  3
C5
350
61
  3
C6
350
62
  3
C7
350
63
  3
C8
350
64
  3
C9
350
65
  3
D0
350
66
  3
D1
350
67
  3
D2
350
68
  0
DICTIONARY
  5
160
102
{ACAD_REACTORS
330
C
102
}
330
C
100
AcDbDictionary
281
     1
  0
XRECORD
  5
2C4
102
{ACAD_REACTORS
330
C
102
}
330
C
100
AcDbXrecord
280
     1
  1
DWGPROPS COOKIE
  2

  3

  4

  6

  7

  8
12016016
  9

300
=
301
=
302
=
303
=
304
=
305
=
306
=
307
=
308
=
309
=
 40
0.0
 41
2458323.068650984
 42
2458330.139654271
  1

 90
        0
  0
DICTIONARY
  5
1FB
102
{ACAD_REACTORS
330
1FA
102
}
330
1FA
100
AcDbDictionary
281
     1
  0
LAYOUT
  5
1E
102
{ACAD_REACTORS
330
1A
102
}
330
1A
100
AcDbPlotSettings
  1

  2
none_device
  4

  6

 40
0.0
 41
0.0
 42
0.0
 43
0.0
 44
0.0
 45
0.0
 46
0.0
 47
0.0
 48
0.0
 49
0.0
140
0.0
141
0.0
142
1.0
143
1.0
 70
   688
 72
     1
 73
     0
 74
     5
  7

 75
    16
147
1.0
148
0.0
149
0.0
100
AcDbLayout
  1
Layout1
 70
     1
 71
     1
 10
0.0
 20
0.0
 11
420.0
 21
297.0
 12
0.0
 22
0.0
 32
0.0
 14
1.000000000000000E+20
 24
1.000000000000000E+20
 34
1.000000000000000E+20
 15
-1.000000000000000E+20
 25
-1.000000000000000E+20
 35
-1.000000000000000E+20
146
0.0
 13
0.0
 23
0.0
 33
0.0
 16
1.0
 26
0.0
 36
0.0
 17
0.0
 27
1.0
 37
0.0
 76
     0
330
1B
  0
LAYOUT
  5
26
102
{ACAD_REACTORS
330
1A
102
}
330
1A
100
AcDbPlotSettings
  1

  2
none_device
  4

  6

 40
0.0
 41
0.0
 42
0.0
 43
0.0
 44
0.0
 45
0.0
 46
0.0
 47
0.0
 48
0.0
 49
0.0
140
0.0
141
0.0
142
1.0
143
1.0
 70
   688
 72
     1
 73
     0
 74
     5
  7

 75
    16
147
1.0
148
0.0
149
0.0
100
AcDbLayout
  1
Layout2
 70
     1
 71
     2
 10
0.0
 20
0.0
 11
0.0
 21
0.0
 12
0.0
 22
0.0
 32
0.0
 14
0.0
 24
0.0
 34
0.0
 15
0.0
 25
0.0
 35
0.0
146
0.0
 13
0.0
 23
0.0
 33
0.0
 16
1.0
 26
0.0
 36
0.0
 17
0.0
 27
1.0
 37
0.0
 76
     0
330
23
  0
LAYOUT
  5
22
102
{ACAD_REACTORS
330
1A
102
}
330
1A
100
AcDbPlotSettings
  1

  2
none_device
  4
ANSI_A_(11.00_x_8.50_Inches)
  6

 40
6.35
 41
19.05
 42
6.35000508
 43
19.05000254
 44
279.4
 45
215.9
 46
53.19025261998306
 47
86.37786783925223
 48
0.0
 49
0.0
140
0.0
141
0.0
142
0.0351451444116555
143
1.0
 70
  1696
 72
     0
 73
     0
 74
     0
  7

 75
     0
147
0.0235690232323232
148
0.0
149
0.0
100
AcDbLayout
  1
Model
 70
     1
 71
     0
 10
0.0
 20
0.0
 11
420.0
 21
297.0
 12
0.0
 22
0.0
 32
0.0
 14
-61.89000000000009
 24
-49.97073246008785
 34
0.0
 15
101.1634838153456
 25
49.94746856623912
 35
0.0
146
0.0
 13
0.0
 23
0.0
 33
0.0
 16
1.0
 26
0.0
 36
0.0
 17
0.0
 27
1.0
 37
0.0
 76
     0
330
1F
331
29
  0
MLINESTYLE
  5
18
102
{ACAD_REACTORS
330
17
102
}
330
17
100
AcDbMlineStyle
  2
Standard
 70
     0
  3

 62
   256
 51
90.0
 52
90.0
 71
     2
 49
0.5
 62
   256
  6
BYLAYER
 49
-0.5
 62
   256
  6
BYLAYER
  0
ACDBPLACEHOLDER
  5
F
102
{ACAD_REACTORS
330
E
102
}
330
E
  0
SCALE
  5
48
102
{ACAD_REACTORS
330
47
102
}
330
47
100
AcDbScale
 70
     0
300
1:1
140
1.0
141
1.0
290
     1
  0
SCALE
  5
49
102
{ACAD_REACTORS
330
47
102
}
330
47
100
AcDbScale
 70
     0
300
1:2
140
1.0
141
2.0
290
     0
  0
SCALE
  5
4A
102
{ACAD_REACTORS
330
47
102
}
330
47
100
AcDbScale
 70
     0
300
1:4
140
1.0
141
4.0
290
     0
  0
SCALE
  5
4B
102
{ACAD_REACTORS
330
47
102
}
330
47
100
AcDbScale
 70
     0
300
1:5
140
1.0
141
5.0
290
     0
  0
SCALE
  5
4C
102
{ACAD_REACTORS
330
47
102
}
330
47
100
AcDbScale
 70
     0
300
1:8
140
1.0
141
8.0
290
     0
  0
SCALE
  5
4D
102
{ACAD_REACTORS
330
47
102
}
330
47
100
AcDbScale
 70
     0
300
1:10
140
1.0
141
10.0
290
     0
  0
SCALE
  5
4E
102
{ACAD_REACTORS
330
47
102
}
330
47
100
AcDbScale
 70
     0
300
1:16
140
1.0
141
16.0
290
     0
  0
SCALE
  5
4F
102
{ACAD_REACTORS
330
47
102
}
330
47
100
AcDbScale
 70
     0
300
1:20
140
1.0
141
20.0
290
     0
  0
SCALE
  5
50
102
{ACAD_REACTORS
330
47
102
}
330
47
100
AcDbScale
 70
     0
300
1:30
140
1.0
141
30.0
290
     0
  0
SCALE
  5
51
102
{ACAD_REACTORS
330
47
102
}
330
47
100
AcDbScale
 70
     0
300
1:40
140
1.0
141
40.0
290
     0
  0
SCALE
  5
52
102
{ACAD_REACTORS
330
47
102
}
330
47
100
AcDbScale
 70
     0
300
1:50
140
1.0
141
50.0
290
     0
  0
SCALE
  5
53
102
{ACAD_REACTORS
330
47
102
}
330
47
100
AcDbScale
 70
     0
300
1:100
140
1.0
141
100.0
290
     0
  0
SCALE
  5
54
102
{ACAD_REACTORS
330
47
102
}
330
47
100
AcDbScale
 70
     0
300
2:1
140
2.0
141
1.0
290
     0
  0
SCALE
  5
55
102
{ACAD_REACTORS
330
47
102
}
330
47
100
AcDbScale
 70
     0
300
4:1
140
4.0
141
1.0
290
     0
  0
SCALE
  5
56
102
{ACAD_REACTORS
330
47
102
}
330
47
100
AcDbScale
 70
     0
300
8:1
140
8.0
141
1.0
290
     0
  0
SCALE
  5
57
102
{ACAD_REACTORS
330
47
102
}
330
47
100
AcDbScale
 70
     0
300
10:1
140
10.0
141
1.0
290
     0
  0
SCALE
  5
58
102
{ACAD_REACTORS
330
47
102
}
330
47
100
AcDbScale
 70
     0
300
100:1
140
100.0
141
1.0
290
     0
  0
SCALE
  5
59
102
{ACAD_REACTORS
330
47
102
}
330
47
100
AcDbScale
 70
     0
300
1/128" = 1'-0"
140
0.0078125
141
12.0
290
     0
  0
SCALE
  5
5A
102
{ACAD_REACTORS
330
47
102
}
330
47
100
AcDbScale
 70
     0
300
1/64" = 1'-0"
140
0.015625
141
12.0
290
     0
  0
SCALE
  5
5B
102
{ACAD_REACTORS
330
47
102
}
330
47
100
AcDbScale
 70
     0
300
1/32" = 1'-0"
140
0.03125
141
12.0
290
     0
  0
SCALE
  5
5C
102
{ACAD_REACTORS
330
47
102
}
330
47
100
AcDbScale
 70
     0
300
1/16" = 1'-0"
140
0.0625
141
12.0
290
     0
  0
SCALE
  5
5D
102
{ACAD_REACTORS
330
47
102
}
330
47
100
AcDbScale
 70
     0
300
3/32" = 1'-0"
140
0.09375
141
12.0
290
     0
  0
SCALE
  5
5E
102
{ACAD_REACTORS
330
47
102
}
330
47
100
AcDbScale
 70
     0
300
1/8" = 1'-0"
140
0.125
141
12.0
290
     0
  0
SCALE
  5
5F
102
{ACAD_REACTORS
330
47
102
}
330
47
100
AcDbScale
 70
     0
300
3/16" = 1'-0"
140
0.1875
141
12.0
290
     0
  0
SCALE
  5
60
102
{ACAD_REACTORS
330
47
102
}
330
47
100
AcDbScale
 70
     0
300
1/4" = 1'-0"
140
0.25
141
12.0
290
     0
  0
SCALE
  5
61
102
{ACAD_REACTORS
330
47
102
}
330
47
100
AcDbScale
 70
     0
300
3/8" = 1'-0"
140
0.375
141
12.0
290
     0
  0
SCALE
  5
62
102
{ACAD_REACTORS
330
47
102
}
330
47
100
AcDbScale
 70
     0
300
1/2" = 1'-0"
140
0.5
141
12.0
290
     0
  0
SCALE
  5
63
102
{ACAD_REACTORS
330
47
102
}
330
47
100
AcDbScale
 70
     0
300
3/4" = 1'-0"
140
0.75
141
12.0
290
     0
  0
SCALE
  5
64
102
{ACAD_REACTORS
330
47
102
}
330
47
100
AcDbScale
 70
     0
300
1" = 1'-0"
140
1.0
141
12.0
290
     0
  0
SCALE
  5
65
102
{ACAD_REACTORS
330
47
102
}
330
47
100
AcDbScale
 70
     0
300
1-1/2" = 1'-0"
140
1.5
141
12.0
290
     0
  0
SCALE
  5
66
102
{ACAD_REACTORS
330
47
102
}
330
47
100
AcDbScale
 70
     0
300
3" = 1'-0"
140
3.0
141
12.0
290
     0
  0
SCALE
  5
67
102
{ACAD_REACTORS
330
47
102
}
330
47
100
AcDbScale
 70
     0
300
6" = 1'-0"
140
6.0
141
12.0
290
     0
  0
SCALE
  5
68
102
{ACAD_REACTORS
330
47
102
}
330
47
100
AcDbScale
 70
     0
300
1'-0" = 1'-0"
140
12.0
141
12.0
290
     0
  0
ENDSEC
  0
EOF
