  0
SECTION
  2
HEADER
  9
$ACADVER
  1
AC1015
  9
$ACADMAINTVER
 70
     6
  9
$DWGCODEPAGE
  3
ANSI_949
  9
$INSBASE
 10
0.0
 20
0.0
 30
0.0
  9
$EXTMIN
 10
-62.2075000000001
 20
-49.97073246008785
 30
0.0
  9
$EXTMAX
 10
101.1634838153456
 20
48.37155326667848
 30
0.0
  9
$LIMMIN
 10
0.0
 20
0.0
  9
$LIMMAX
 10
420.0
 20
297.0
  9
$ORTHOMODE
 70
     0
  9
$REGENMODE
 70
     1
  9
$FILLMODE
 70
     1
  9
$QTEXTMODE
 70
     0
  9
$MIRRTEXT
 70
     1
  9
$LTSCALE
 40
1.0
  9
$ATTMODE
 70
     1
  9
$TEXTSIZE
 40
3.5
  9
$TRACEWID
 40
1.0
  9
$TEXTSTYLE
  7
Standard
  9
$CLAYER
  8
0
  9
$CELTYPE
  6
ByLayer
  9
$CECOLOR
 62
   256
  9
$CELTSCALE
 40
1.0
  9
$DISPSILH
 70
     0
  9
$DIMSCALE
 40
1.0
  9
$DIMASZ
 40
3.302
  9
$DIMEXO
 40
1.0
  9
$DIMDLI
 40
3.75
  9
$DIMRND
 40
0.0
  9
$DIMDLE
 40
0.0
  9
$DIMEXE
 40
1.0
  9
$DIMTP
 40
0.0
  9
$DIMTM
 40
0.0
  9
$DIMTXT
 40
3.5
  9
$DIMCEN
 40
2.5
  9
$DIMTSZ
 40
0.0
  9
$DIMTOL
 70
     0
  9
$DIMLIM
 70
     0
  9
$DIMTIH
 70
     1
  9
$DIMTOH
 70
     1
  9
$DIMSE1
 70
     0
  9
$DIMSE2
 70
     0
  9
$DIMTAD
 70
     1
  9
$DIMZIN
 70
     0
  9
$DIMBLK
  1

  9
$DIMASO
 70
     1
  9
$DIMSHO
 70
     1
  9
$DIMPOST
  1

  9
$DIMAPOST
  1

  9
$DIMALT
 70
     0
  9
$DIMALTD
 70
     3
  9
$DIMALTF
 40
0.0393700787401575
  9
$DIMLFAC
 40
1.0
  9
$DIMTOFL
 70
     1
  9
$DIMTVP
 40
0.0
  9
$DIMTIX
 70
     0
  9
$DIMSOXD
 70
     0
  9
$DIMSAH
 70
     0
  9
$DIMBLK1
  1

  9
$DIMBLK2
  1

  9
$DIMSTYLE
  2
ISO-25
  9
$DIMCLRD
 70
     0
  9
$DIMCLRE
 70
     0
  9
$DIMCLRT
 70
     0
  9
$DIMTFAC
 40
1.0
  9
$DIMGAP
 40
1.524
  9
$DIMJUST
 70
     0
  9
$DIMSD1
 70
     0
  9
$DIMSD2
 70
     0
  9
$DIMTOLJ
 70
     0
  9
$DIMTZIN
 70
     0
  9
$DIMALTZ
 70
     0
  9
$DIMALTTZ
 70
     0
  9
$DIMUPT
 70
     0
  9
$DIMDEC
 70
     2
  9
$DIMTDEC
 70
     2
  9
$DIMALTU
 70
     2
  9
$DIMALTTD
 70
     3
  9
$DIMTXSTY
  7
Standard
  9
$DIMAUNIT
 70
     0
  9
$DIMADEC
 70
     2
  9
$DIMALTRND
 40
0.0
  9
$DIMAZIN
 70
     0
  9
$DIMDSEP
 70
    44
  9
$DIMATFIT
 70
     3
  9
$DIMFRAC
 70
     0
  9
$DIMLDRBLK
  1

  9
$DIMLUNIT
 70
     2
  9
$DIMLWD
 70
    -2
  9
$DIMLWE
 70
    -2
  9
$DIMTMOVE
 70
     0
  9
$LUNITS
 70
     2
  9
$LUPREC
 70
     2
  9
$SKETCHINC
 40
1.0
  9
$FILLETRAD
 40
10.0
  9
$AUNITS
 70
     0
  9
$AUPREC
 70
     2
  9
$MENU
  1
.
  9
$ELEVATION
 40
0.0
  9
$PELEVATION
 40
0.0
  9
$THICKNESS
 40
0.0
  9
$LIMCHECK
 70
     0
  9
$CHAMFERA
 40
0.0
  9
$CHAMFERB
 40
0.0
  9
$CHAMFERC
 40
0.0
  9
$CHAMFERD
 40
0.0
  9
$SKPOLY
 70
     0
  9
$TDCREATE
 40
2458323.443438831
  9
$TDUCREATE
 40
2458323.068438831
  9
$TDUPDATE
 40
2458330.513159352
  9
$TDUUPDATE
 40
2458330.138159352
  9
$TDINDWG
 40
0.0004701273
  9
$TDUSRTIMER
 40
2458330.138108704
  9
$USRTIMER
 70
     1
  9
$ANGBASE
 50
0.0
  9
$ANGDIR
 70
     0
  9
$PDMODE
 70
     0
  9
$PDSIZE
 40
-1.0
  9
$PLINEWID
 40
0.0
  9
$SPLFRAME
 70
     0
  9
$SPLINETYPE
 70
     6
  9
$SPLINESEGS
 70
     8
  9
$HANDSEED
  5
1EA
  9
$SURFTAB1
 70
     6
  9
$SURFTAB2
 70
     6
  9
$SURFTYPE
 70
     6
  9
$SURFU
 70
     6
  9
$SURFV
 70
     6
  9
$UCSBASE
  2

  9
$UCSNAME
  2

  9
$UCSORG
 10
0.0
 20
0.0
 30
0.0
  9
$UCSXDIR
 10
1.0
 20
0.0
 30
0.0
  9
$UCSYDIR
 10
0.0
 20
1.0
 30
0.0
  9
$UCSORTHOREF
  2

  9
$UCSORTHOVIEW
 70
     0
  9
$UCSORGTOP
 10
0.0
 20
0.0
 30
0.0
  9
$UCSORGBOTTOM
 10
0.0
 20
0.0
 30
0.0
  9
$UCSORGLEFT
 10
0.0
 20
0.0
 30
0.0
  9
$UCSORGRIGHT
 10
0.0
 20
0.0
 30
0.0
  9
$UCSORGFRONT
 10
0.0
 20
0.0
 30
0.0
  9
$UCSORGBACK
 10
0.0
 20
0.0
 30
0.0
  9
$PUCSBASE
  2

  9
$PUCSNAME
  2

  9
$PUCSORG
 10
0.0
 20
0.0
 30
0.0
  9
$PUCSXDIR
 10
1.0
 20
0.0
 30
0.0
  9
$PUCSYDIR
 10
0.0
 20
1.0
 30
0.0
  9
$PUCSORTHOREF
  2

  9
$PUCSORTHOVIEW
 70
     0
  9
$PUCSORGTOP
 10
0.0
 20
0.0
 30
0.0
  9
$PUCSORGBOTTOM
 10
0.0
 20
0.0
 30
0.0
  9
$PUCSORGLEFT
 10
0.0
 20
0.0
 30
0.0
  9
$PUCSORGRIGHT
 10
0.0
 20
0.0
 30
0.0
  9
$PUCSORGFRONT
 10
0.0
 20
0.0
 30
0.0
  9
$PUCSORGBACK
 10
0.0
 20
0.0
 30
0.0
  9
$USERI1
 70
     0
  9
$USERI2
 70
     0
  9
$USERI3
 70
     0
  9
$USERI4
 70
     0
  9
$USERI5
 70
     0
  9
$USERR1
 40
0.0
  9
$USERR2
 40
0.0
  9
$USERR3
 40
0.0
  9
$USERR4
 40
0.0
  9
$USERR5
 40
0.0
  9
$WORLDVIEW
 70
     1
  9
$SHADEDGE
 70
     3
  9
$SHADEDIF
 70
    70
  9
$TILEMODE
 70
     1
  9
$MAXACTVP
 70
    64
  9
$PINSBASE
 10
0.0
 20
0.0
 30
0.0
  9
$PLIMCHECK
 70
     0
  9
$PEXTMIN
 10
1.000000000000000E+20
 20
1.000000000000000E+20
 30
1.000000000000000E+20
  9
$PEXTMAX
 10
-1.000000000000000E+20
 20
-1.000000000000000E+20
 30
-1.000000000000000E+20
  9
$PLIMMIN
 10
0.0
 20
0.0
  9
$PLIMMAX
 10
0.0
 20
0.0
  9
$UNITMODE
 70
     0
  9
$VISRETAIN
 70
     1
  9
$PLINEGEN
 70
     0
  9
$PSLTSCALE
 70
     1
  9
$TREEDEPTH
 70
  3020
  9
$CMLSTYLE
  2
Standard
  9
$CMLJUST
 70
     0
  9
$CMLSCALE
 40
20.0
  9
$PROXYGRAPHICS
 70
     1
  9
$MEASUREMENT
 70
     1
  9
$CELWEIGHT
370
    -1
  9
$ENDCAPS
280
     0
  9
$JOINSTYLE
280
     0
  9
$LWDISPLAY
290
     1
  9
$INSUNITS
 70
     4
  9
$HYPERLINKBASE
  1

  9
$STYLESHEET
  1

  9
$XEDIT
290
     1
  9
$CEPSNTYPE
380
     0
  9
$PSTYLEMODE
290
     1
  9
$FINGERPRINTGUID
  2
{E41DA140-9CDB-4515-A71E-C3CC2B47EF70}
  9
$VERSIONGUID
  2
{FAEB1C32-E019-11D5-929B-00C0DF256EC4}
  9
$EXTNAMES
290
     1
  9
$PSVPSCALE
 40
0.0
  9
$OLESTARTUP
290
     0
  0
ENDSEC
  0
SECTION
  2
CLASSES
  0
CLASS
  1
ACDBDICTIONARYWDFLT
  2
AcDbDictionaryWithDefault
  3
ObjectDBX Classes
 90
        0
280
     0
281
     0
  0
CLASS
  1
VISUALSTYLE
  2
AcDbVisualStyle
  3
ObjectDBX Classes
 90
     4095
280
     0
281
     0
  0
CLASS
  1
MATERIAL
  2
AcDbMaterial
  3
ObjectDBX Classes
 90
     1153
280
     0
281
     0
  0
CLASS
  1
SCALE
  2
AcDbScale
  3
ObjectDBX Classes
 90
     1153
280
     0
281
     0
  0
CLASS
  1
SUN
  2
AcDbSun
  3
SCENEOE
 90
     1153
280
     0
281
     0
  0
CLASS
  1
ACDBPLACEHOLDER
  2
AcDbPlaceHolder
  3
ObjectDBX Classes
 90
        0
280
     0
281
     0
  0
CLASS
  1
LAYOUT
  2
AcDbLayout
  3
ObjectDBX Classes
 90
        0
280
     0
281
     0
  0
CLASS
  1
TABLESTYLE
  2
AcDbTableStyle
  3
ObjectDBX Classes
 90
     4095
280
     0
281
     0
  0
CLASS
  1
MLEADERSTYLE
  2
AcDbMLeaderStyle
  3
ACDB_MLEADERSTYLE_CLASS
 90
     4095
280
     0
281
     0
  0
CLASS
  1
RASTERVARIABLES
  2
AcDbRasterVariables
  3
ISM
 90
        0
280
     0
281
     0
  0
ENDSEC
  0
SECTION
  2
TABLES
  0
TABLE
  2
VPORT
  5
8
330
0
100
AcDbSymbolTable
 70
     1
  0
VPORT
  5
29
330
8
100
AcDbSymbolTableRecord
100
AcDbViewportTableRecord
  2
*Active
 70
     0
 10
0.0
 20
0.0
 11
1.0
 21
1.0
 12
7.717814312358655
 22
0.383515737615248
 13
0.0
 23
0.0
 14
10.0
 24
10.0
 15
10.0
 25
10.0
 16
0.0
 26
0.0
 36
1.0
 17
0.0
 27
0.0
 37
0.0
 40
193.8484561846952
 41
1.632093933463797
 42
50.0
 43
0.0
 44
0.0
 50
0.0
 51
0.0
 71
    16
 72
  2000
 73
     1
 74
     3
 75
     0
 76
     0
 77
     0
 78
     0
281
     0
 65
     1
110
0.0
120
0.0
130
0.0
111
1.0
121
0.0
131
0.0
112
0.0
122
1.0
132
0.0
 79
     0
146
0.0
  0
ENDTAB
  0
TABLE
  2
LTYPE
  5
5
330
0
100
AcDbSymbolTable
 70
     6
  0
LTYPE
  5
14
330
5
100
AcDbSymbolTableRecord
100
AcDbLinetypeTableRecord
  2
ByBlock
 70
     0
  3

 72
    65
 73
     0
 40
0.0
  0
LTYPE
  5
15
330
5
100
AcDbSymbolTableRecord
100
AcDbLinetypeTableRecord
  2
ByLayer
 70
     0
  3

 72
    65
 73
     0
 40
0.0
  0
LTYPE
  5
16
330
5
100
AcDbSymbolTableRecord
100
AcDbLinetypeTableRecord
  2
Continuous
 70
     0
  3
Solid line
 72
    65
 73
     0
 40
0.0
  0
LTYPE
  5
6A
330
5
100
AcDbSymbolTableRecord
100
AcDbLinetypeTableRecord
  2
HIDDEN
 70
     0
  3
Hidden __ __ __ __ __ __ __ __ __ __ __ __ __ __
 72
    65
 73
     2
 40
1.905
 49
1.27
 74
     0
 49
-0.635
 74
     0
  0
LTYPE
  5
6B
330
5
100
AcDbSymbolTableRecord
100
AcDbLinetypeTableRecord
  2
PHANTOM
 70
     0
  3
Phantom ______  __  __  ______  __  __  ______
 72
    65
 73
     6
 40
12.7
 49
6.35
 74
     0
 49
-1.27
 74
     0
 49
1.27
 74
     0
 49
-1.27
 74
     0
 49
1.27
 74
     0
 49
-1.27
 74
     0
  0
LTYPE
  5
6C
330
5
100
AcDbSymbolTableRecord
100
AcDbLinetypeTableRecord
  2
CENTER
 70
     0
  3
Center ____ _ ____ _ ____ _ ____ _ ____ _ ____
 72
    65
 73
     4
 40
10.16
 49
6.35
 74
     0
 49
-1.27
 74
     0
 49
1.27
 74
     0
 49
-1.27
 74
     0
  0
LTYPE
  5
6D
330
5
100
AcDbSymbolTableRecord
100
AcDbLinetypeTableRecord
  2
CENTERX2
 70
     0
  3
Center (2x) ________  __  ________  __  _____
 72
    65
 73
     4
 40
20.32
 49
12.7
 74
     0
 49
-2.54
 74
     0
 49
2.54
 74
     0
 49
-2.54
 74
     0
  0
LTYPE
  5
6E
330
5
100
AcDbSymbolTableRecord
100
AcDbLinetypeTableRecord
  2
DOT2
 70
     0
  3
Dot (.5x) ........................................
 72
    65
 73
     2
 40
0.635
 49
0.0
 74
     0
 49
-0.635
 74
     0
  0
ENDTAB
  0
TABLE
  2
LAYER
  5
2
102
{ACAD_XDICTIONARY
360
18A
102
}
330
0
100
AcDbSymbolTable
 70
    18
  0
LAYER
  5
10
330
2
100
AcDbSymbolTableRecord
100
AcDbLayerTableRecord
  2
0
 70
     0
 62
     7
  6
Continuous
370
    -3
390
F
  0
LAYER
  5
6F
330
2
100
AcDbSymbolTableRecord
100
AcDbLayerTableRecord
  2
FORMAT
 70
     0
 62
     2
  6
Continuous
370
    -3
390
F
  0
LAYER
  5
70
330
2
100
AcDbSymbolTableRecord
100
AcDbLayerTableRecord
  2
외형선
 70
     0
 62
     4
  6
Continuous
370
    30
390
F
  0
LAYER
  5
71
330
2
100
AcDbSymbolTableRecord
100
AcDbLayerTableRecord
  2
숨은선
 70
     0
 62
     2
  6
HIDDEN
370
    15
390
F
  0
LAYER
  5
72
330
2
100
AcDbSymbolTableRecord
100
AcDbLayerTableRecord
  2
중심선
 70
     0
 62
     1
  6
CENTERX2
370
    -3
390
F
  0
LAYER
  5
73
330
2
100
AcDbSymbolTableRecord
100
AcDbLayerTableRecord
  2
파단선
 70
     0
 62
     4
  6
Continuous
370
    -3
390
F
  0
LAYER
  5
74
330
2
100
AcDbSymbolTableRecord
100
AcDbLayerTableRecord
  2
해칭선
 70
     0
 62
   100
  6
Continuous
370
    -3
390
F
  0
LAYER
  5
75
330
2
100
AcDbSymbolTableRecord
100
AcDbLayerTableRecord
  2
가는실선
 70
     0
 62
     4
  6
Continuous
370
    -3
390
F
  0
LAYER
  5
76
330
2
100
AcDbSymbolTableRecord
100
AcDbLayerTableRecord
  2
치수_보조선
 70
     0
 62
     4
  6
Continuous
370
    -3
390
F
  0
LAYER
  5
77
330
2
100
AcDbSymbolTableRecord
100
AcDbLayerTableRecord
  2
치수문자_일반주서
 70
     0
 62
     7
  6
Continuous
370
    15
390
F
  0
LAYER
  5
78
330
2
100
AcDbSymbolTableRecord
100
AcDbLayerTableRecord
  2
개별주서
 70
     0
 62
   100
  6
Continuous
370
    30
390
F
  0
LAYER
  5
79
330
2
100
AcDbSymbolTableRecord
100
AcDbLayerTableRecord
  2
중간선
 70
     0
 62
     2
  6
Continuous
370
    15
390
F
  0
LAYER
  5
7A
330
2
100
AcDbSymbolTableRecord
100
AcDbLayerTableRecord
  2
윤곽선
 70
     0
 62
     3
  6
Continuous
370
    40
390
F
  0
LAYER
  5
7B
330
2
100
AcDbSymbolTableRecord
100
AcDbLayerTableRecord
  2
중심마크
 70
     0
 62
   100
  6
Continuous
370
    30
390
F
  0
LAYER
  5
7C
330
2
100
AcDbSymbolTableRecord
100
AcDbLayerTableRecord
  2
가상선
 70
     0
 62
     4
  6
PHANTOM
370
    -3
390
F
  0
LAYER
  5
7D
330
2
100
AcDbSymbolTableRecord
100
AcDbLayerTableRecord
  2
특수지정선
 70
     0
 62
     5
  6
CENTERX2
370
    60
390
F
  0
LAYER
  5
7E
330
2
100
AcDbSymbolTableRecord
100
AcDbLayerTableRecord
  2
참조1
 70
     0
 62
    -4
  6
Continuous
370
    -3
390
F
  0
LAYER
  5
1C3
330
2
100
AcDbSymbolTableRecord
100
AcDbLayerTableRecord
  2
Defpoints
 70
     0
 62
     7
  6
Continuous
290
     0
370
    -3
390
F
  0
ENDTAB
  0
TABLE
  2
STYLE
  5
3
330
0
100
AcDbSymbolTable
 70
     2
  0
STYLE
  5
11
330
3
100
AcDbSymbolTableRecord
100
AcDbTextStyleTableRecord
  2
Standard
 70
     0
 40
0.0
 41
1.0
 50
0.0
 71
     0
 42
3.5
  3
txt
  4

  0
STYLE
  5
94
330
3
100
AcDbSymbolTableRecord
100
AcDbTextStyleTableRecord
  2
SLDTEXTSTYLE0
 70
     0
 40
0.0
 41
0.75
 50
0.0
 71
     0
 42
3.5
  3
TXT
  4

  0
ENDTAB
  0
TABLE
  2
VIEW
  5
6
330
0
100
AcDbSymbolTable
 70
     0
  0
ENDTAB
  0
TABLE
  2
UCS
  5
7
330
0
100
AcDbSymbolTable
 70
     0
  0
ENDTAB
  0
TABLE
  2
APPID
  5
9
330
0
100
AcDbSymbolTable
 70
     1
  0
APPID
  5
12
330
9
100
AcDbSymbolTableRecord
100
AcDbRegAppTableRecord
  2
ACAD
 70
     0
  0
ENDTAB
  0
TABLE
  2
DIMSTYLE
  5
A
330
0
100
AcDbSymbolTable
 70
     3
100
AcDbDimStyleTable
  0
DIMSTYLE
105
27
330
A
100
AcDbSymbolTableRecord
100
AcDbDimStyleTableRecord
  2
ISO-25
 70
     0
 41
2.5
 42
0.625
 43
3.75
 44
1.25
 73
     0
 74
     0
 77
     1
 78
     8
140
2.5
141
2.5
143
0.03937007874016
147
0.625
171
     3
172
     1
178
     0
271
     2
272
     2
274
     3
278
    44
283
     0
284
     8
340
11
  0
DIMSTYLE
105
DF
102
{ACAD_REACTORS
330
DE
330
F3
330
107
330
11A
102
}
330
A
100
AcDbSymbolTableRecord
100
AcDbDimStyleTableRecord
  2
SLDDIMSTYLE0
 70
     0
 41
3.302
 44
0.0
 45
0.000000001
 73
     0
 74
     0
 77
     1
 78
    12
 79
     3
140
3.5
143
0.0393700787401575
147
0.875
148
0.000000001
170
     1
172
     1
173
     1
178
     0
271
     2
272
     2
276
     2
284
    12
289
     0
340
94
  0
DIMSTYLE
105
F4
330
A
100
AcDbSymbolTableRecord
100
AcDbDimStyleTableRecord
  2
SLDDIMSTYLE1
 70
     0
 41
3.302
 44
0.0
 45
0.000000001
 73
     0
 74
     0
 77
     1
 78
    12
 79
     3
140
3.5
143
0.0393700787401575
147
0.875
148
0.000000001
170
     1
173
     1
178
     0
271
     2
272
     2
276
     2
284
    12
340
94
  0
ENDTAB
  0
TABLE
  2
BLOCK_RECORD
  5
1
330
0
100
AcDbSymbolTable
 70
     7
  0
BLOCK_RECORD
  5
1F
330
1
100
AcDbSymbolTableRecord
100
AcDbBlockTableRecord
  2
*Model_Space
340
22
  0
BLOCK_RECORD
  5
1B
330
1
100
AcDbSymbolTableRecord
100
AcDbBlockTableRecord
  2
*Paper_Space
340
1E
  0
BLOCK_RECORD
  5
23
330
1
100
AcDbSymbolTableRecord
100
AcDbBlockTableRecord
  2
*Paper_Space0
340
26
  0
BLOCK_RECORD
  5
7F
330
1
100
AcDbSymbolTableRecord
100
AcDbBlockTableRecord
  2
블럭10
340
0
102
{BLKREFS
331
D7
102
}
  0
BLOCK_RECORD
  5
E0
330
1
100
AcDbSymbolTableRecord
100
AcDbBlockTableRecord
  2
_D
340
0
  0
BLOCK_RECORD
  5
F5
330
1
100
AcDbSymbolTableRecord
100
AcDbBlockTableRecord
  2
_D_1
340
0
  0
BLOCK_RECORD
  5
108
330
1
100
AcDbSymbolTableRecord
100
AcDbBlockTableRecord
  2
_D_2
340
0
  0
BLOCK_RECORD
  5
11B
330
1
100
AcDbSymbolTableRecord
100
AcDbBlockTableRecord
  2
_D_3
340
0
  0
BLOCK_RECORD
  5
134
330
1
100
AcDbSymbolTableRecord
100
AcDbBlockTableRecord
  2
SW_DOWELSYMBOL_0
340
0
102
{BLKREFS
331
13A
102
}
  0
ENDTAB
  0
ENDSEC
  0
SECTION
  2
BLOCKS
  0
BLOCK
  5
20
330
1F
100
AcDbEntity
  8
0
100
AcDbBlockBegin
  2
*Model_Space
 70
     0
 10
0.0
 20
0.0
 30
0.0
  3
*Model_Space
  1
*Model_Space
  0
ENDBLK
  5
21
330
1F
100
AcDbEntity
  8
0
100
AcDbBlockEnd
  0
BLOCK
  5
1C
330
1B
100
AcDbEntity
 67
     1
  8
0
100
AcDbBlockBegin
  2
*Paper_Space
 70
     0
 10
0.0
 20
0.0
 30
0.0
  3
*Paper_Space
  1
*Paper_Space
  0
ENDBLK
  5
1D
330
1B
100
AcDbEntity
 67
     1
  8
0
100
AcDbBlockEnd
  0
BLOCK
  5
24
330
23
100
AcDbEntity
  8
0
100
AcDbBlockBegin
  2
*Paper_Space0
 70
     0
 10
0.0
 20
0.0
 30
0.0
  3
*Paper_Space0
  1
*Paper_Space0
  0
ENDBLK
  5
25
330
23
100
AcDbEntity
  8
0
100
AcDbBlockEnd
  0
BLOCK
  5
80
330
7F
100
AcDbEntity
  8
0
100
AcDbBlockBegin
  2
블럭10
 70
     2
 10
0.0
 20
0.0
 30
0.0
  3
블럭10
  1
블럭10
  0
ELLIPSE
  5
82
330
7F
100
AcDbEntity
  8
중심선
100
AcDbEllipse
 10
20.54032771741204
 20
12.0471743016438
 30
0.0
 11
6.600054785286829
 21
-1.261213355974178E-13
 31
0.0
210
0.0
220
0.0
230
1.0
 40
0.636358354079598
 41
0.9219305317359503
 42
6.513795318482858
  0
ELLIPSE
  5
83
330
7F
100
AcDbEntity
  8
중심선
100
AcDbEllipse
 10
20.54032771746488
 20
12.04717430159265
 30
0.0
 11
3.960054785062283
 21
1.540847449632565E-10
 31
0.0
210
0.0
220
0.0
230
1.0
 40
0.3939339440162632
 41
1.131841032648279
 42
5.62031148352944
  0
LINE
  5
84
330
7F
100
AcDbEntity
  8
중심선
100
AcDbLine
 10
2.268634060543552
 20
16.24717430164393
 30
0.0
 11
5.714909304380834
 21
16.24717430164393
 31
0.0
  0
LINE
  5
85
330
7F
100
AcDbEntity
  8
중심선
100
AcDbLine
 10
5.245725140726316
 20
7.84717430164391
 30
0.0
 11
8.692000384563599
 21
7.84717430164391
 31
0.0
  0
LINE
  5
86
330
7F
100
AcDbEntity
  8
중심선
100
AcDbLine
 10
15.74043728645272
 20
16.24717430164393
 30
0.0
 11
8.692000384563599
 21
7.84717430164391
 31
0.0
  0
LINE
  5
87
330
7F
100
AcDbEntity
  8
중심선
100
AcDbLine
 10
0.1404042013395286
 20
13.71084872107135
 30
0.0
 11
3.58671253028996
 21
13.71088815037384
 31
0.0
  0
LINE
  5
88
330
7F
100
AcDbEntity
  8
중심선
100
AcDbLine
 10
2.750260043222114
 20
10.84717430164391
 30
0.0
 11
6.196535287059397
 21
10.84717430164391
 31
0.0
  0
LINE
  5
89
330
7F
100
AcDbEntity
  8
중심선
100
AcDbLine
 10
12.29416204261559
 20
16.24717430164393
 30
0.0
 11
5.245725140726316
 21
7.84717430164391
 31
0.0
  0
LINE
  5
8A
330
7F
100
AcDbEntity
  8
중심선
100
AcDbLine
 10
10.72767329541681
 20
16.24717430164393
 30
0.0
 11
6.196535287059397
 21
10.84717430164391
 31
0.0
  0
LINE
  5
8B
330
7F
100
AcDbEntity
  8
중심선
100
AcDbLine
 10
7.28139805157953
 20
16.24717430164393
 30
0.0
 11
2.750260043222114
 21
10.84717430164391
 31
0.0
  0
LINE
  5
8C
330
7F
100
AcDbEntity
  8
중심선
100
AcDbLine
 10
5.714909304380834
 20
16.24717430164393
 30
0.0
 11
3.58671253028996
 21
13.71088815037384
 31
0.0
  0
LINE
  5
8D
330
7F
100
AcDbEntity
  8
중심선
100
AcDbLine
 10
2.268634060543552
 20
16.24717430164393
 30
0.0
 11
0.1404042013395286
 21
13.71084872107135
 31
0.0
  0
LINE
  5
8E
330
7F
100
AcDbEntity
  8
중심선
100
AcDbLine
 10
7.28139805157953
 20
16.24717430164393
 30
0.0
 11
10.72767329541681
 21
16.24717430164393
 31
0.0
  0
LINE
  5
8F
330
7F
100
AcDbEntity
  8
중심선
100
AcDbLine
 10
12.29416204261559
 20
16.24717430164393
 30
0.0
 11
15.74043728645272
 21
16.24717430164393
 31
0.0
  0
LINE
  5
90
330
7F
100
AcDbEntity
  8
중심선
100
AcDbLine
 10
19.22036997980202
 20
11.08717430171403
 30
0.0
 11
23.66174974927406
 21
11.08717430171406
 31
0.0
  0
LINE
  5
91
330
7F
100
AcDbEntity
  8
중심선
100
AcDbLine
 10
19.22039502424796
 20
13.00717430171391
 30
0.0
 11
19.22036997980202
 21
11.08717430171403
 31
0.0
  0
LINE
  5
92
330
7F
100
AcDbEntity
  8
중심선
100
AcDbLine
 10
19.22039502424796
 20
13.00717430171391
 30
0.0
 11
26.96566020931264
 21
13.00717430171391
 31
0.0
  0
LINE
  5
93
330
7F
100
AcDbEntity
  8
중심선
100
AcDbLine
 10
22.22332737316547
 20
13.45928029700563
 30
0.0
 11
24.52862924686651
 21
15.39360700705356
 31
0.0
  0
ATTDEF
  5
95
330
7F
100
AcDbEntity
  8
FORMAT
 62
     2
100
AcDbText
 10
4.408487351596664
 20
2.075366912832191
 30
0.0
 40
4.233333333333333
  1
E2032048
 41
0.75
  7
SLDTEXTSTYLE0
 11
4.408487351596664
 21
-0.0412997538344756
 31
0.0
100
AcDbAttributeDefinition
  3

  2
AUTOATTR0
 70
     0
 74
     1
  0
ENDBLK
  5
81
330
7F
100
AcDbEntity
  8
0
100
AcDbBlockEnd
  0
BLOCK
  5
E1
330
E0
100
AcDbEntity
  8
0
100
AcDbBlockBegin
  2
_D
 70
     0
 10
0.0
 20
0.0
 30
0.0
  3
_D
  1
_D
  0
LINE
  5
E3
330
E0
100
AcDbEntity
  8
치수문자_일반주서
 62
     0
370
    -2
100
AcDbLine
 10
-43.30750000000003
 20
9.5260749287239
 30
0.0
 11
-57.83250000000007
 21
9.52607492872385
 31
0.0
  0
LINE
  5
E4
330
E0
100
AcDbEntity
  8
치수문자_일반주서
 62
     0
370
    -2
100
AcDbLine
 10
-43.30750000000003
 20
-9.52392507127611
 30
0.0
 11
-57.83250000000001
 21
-9.523925071276162
 31
0.0
  0
LINE
  5
E5
330
E0
100
AcDbEntity
  8
치수문자_일반주서
 62
     0
370
    -2
100
AcDbLine
 10
-57.83250000000006
 20
6.22407492872385
 30
0.0
 11
-57.83250000000002
 21
-6.221925071276162
 31
0.0
  0
SOLID
  5
E6
330
E0
100
AcDbEntity
  8
치수문자_일반주서
 62
     0
100
AcDbTrace
 10
-57.28216666666673
 20
6.224074928723851
 30
0.0
 11
-58.38283333333339
 21
6.224074928723848
 31
0.0
 12
-57.83250000000007
 22
9.52607492872385
 32
0.0
 13
-57.83250000000007
 23
9.52607492872385
 33
0.0
  0
SOLID
  5
E7
330
E0
100
AcDbEntity
  8
치수문자_일반주서
 62
     0
100
AcDbTrace
 10
-58.38283333333336
 20
-6.221925071276164
 30
0.0
 11
-57.28216666666669
 21
-6.221925071276161
 31
0.0
 12
-57.83250000000001
 22
-9.523925071276162
 32
0.0
 13
-57.83250000000001
 23
-9.523925071276162
 33
0.0
  0
MTEXT
  5
E8
330
E0
100
AcDbEntity
  8
치수문자_일반주서
 62
     0
100
AcDbMText
 10
-62.20750000000005
 20
0.0010749287238864
 30
0.0
 40
3.5
 41
0.0
 71
     2
 72
     1
  1
\A1;%%c19.05 [3/4]
  7
SLDTEXTSTYLE0
 11
-3.356894814614644E-15
 21
1.0
 31
0.0
 73
     1
 44
1.0
  0
POINT
  5
E9
330
E0
100
AcDbEntity
  8
Defpoints
 62
     0
100
AcDbPoint
 10
-43.24500000000003
 20
9.5260749287239
 30
0.0
  0
POINT
  5
EA
330
E0
100
AcDbEntity
  8
Defpoints
 62
     0
100
AcDbPoint
 10
-43.24500000000003
 20
-9.52392507127611
 30
0.0
  0
POINT
  5
EB
330
E0
100
AcDbEntity
  8
Defpoints
 62
     0
100
AcDbPoint
 10
-57.83250000000001
 20
-9.523925071276166
 30
0.0
  0
ENDBLK
  5
E2
330
E0
100
AcDbEntity
  8
0
100
AcDbBlockEnd
  0
BLOCK
  5
F6
330
F5
100
AcDbEntity
  8
0
100
AcDbBlockBegin
  2
_D_1
 70
     0
 10
0.0
 20
0.0
 30
0.0
  3
_D_1
  1
_D_1
  0
LINE
  5
F8
330
F5
100
AcDbEntity
  8
치수문자_일반주서
 62
     0
370
    -2
100
AcDbLine
 10
53.27499999999998
 20
9.588574928723897
 30
0.0
 11
53.27499999999998
 21
31.99655326667847
 31
0.0
  0
LINE
  5
F9
330
F5
100
AcDbEntity
  8
치수문자_일반주서
 62
     0
370
    -2
100
AcDbLine
 10
11.99999999999997
 20
9.585891752799165
 30
0.0
 11
11.99999999999996
 21
31.99655326667847
 31
0.0
  0
LINE
  5
FA
330
F5
100
AcDbEntity
  8
치수문자_일반주서
 62
     0
370
    -2
100
AcDbLine
 10
49.97299999999998
 20
31.99655326667847
 30
0.0
 11
15.30199999999996
 21
31.99655326667847
 31
0.0
  0
SOLID
  5
FB
330
F5
100
AcDbEntity
  8
치수문자_일반주서
 62
     0
100
AcDbTrace
 10
49.97299999999998
 20
31.44621993334513
 30
0.0
 11
49.97299999999998
 21
32.5468866000118
 31
0.0
 12
53.27499999999998
 22
31.99655326667847
 32
0.0
 13
53.27499999999998
 23
31.99655326667847
 33
0.0
  0
SOLID
  5
FC
330
F5
100
AcDbEntity
  8
치수문자_일반주서
 62
     0
100
AcDbTrace
 10
15.30199999999996
 20
32.5468866000118
 30
0.0
 11
15.30199999999996
 21
31.44621993334513
 31
0.0
 12
11.99999999999996
 22
31.99655326667847
 32
0.0
 13
11.99999999999996
 23
31.99655326667847
 33
0.0
  0
MTEXT
  5
FD
330
F5
100
AcDbEntity
  8
치수문자_일반주서
 62
     0
100
AcDbMText
 10
32.63749999999998
 20
36.37155326667847
 30
0.0
 40
3.5
 41
0.0
 71
     2
 72
     1
  1
\A1;41.28 [1 5/8]
  7
SLDTEXTSTYLE0
 73
     1
 44
1.0
  0
POINT
  5
FE
330
F5
100
AcDbEntity
  8
Defpoints
 62
     0
100
AcDbPoint
 10
53.27499999999998
 20
9.526074928723897
 30
0.0
  0
POINT
  5
FF
330
F5
100
AcDbEntity
  8
Defpoints
 62
     0
100
AcDbPoint
 10
11.99999999999997
 20
9.523391752799165
 30
0.0
  0
POINT
  5
100
330
F5
100
AcDbEntity
  8
Defpoints
 62
     0
100
AcDbPoint
 10
11.99999999999997
 20
31.99655326667847
 30
0.0
  0
ENDBLK
  5
F7
330
F5
100
AcDbEntity
  8
0
100
AcDbBlockEnd
  0
BLOCK
  5
109
330
108
100
AcDbEntity
  8
0
100
AcDbBlockBegin
  2
_D_2
 70
     0
 10
0.0
 20
0.0
 30
0.0
  3
_D_2
  1
_D_2
  0
LINE
  5
10B
330
108
100
AcDbEntity
  8
치수문자_일반주서
 62
     0
370
    -2
100
AcDbLine
 10
53.27499999999998
 20
9.588574928723897
 30
0.0
 11
53.27499999999998
 21
43.99655326667848
 31
0.0
  0
LINE
  5
10C
330
108
100
AcDbEntity
  8
치수문자_일반주서
 62
     0
370
    -2
100
AcDbLine
 10
-45.15000000000003
 20
7.6835749287239
 30
0.0
 11
-45.15000000000003
 21
43.99655326667848
 31
0.0
  0
LINE
  5
10D
330
108
100
AcDbEntity
  8
치수문자_일반주서
 62
     0
370
    -2
100
AcDbLine
 10
49.97299999999998
 20
43.99655326667848
 30
0.0
 11
-41.84800000000003
 21
43.99655326667848
 31
0.0
  0
SOLID
  5
10E
330
108
100
AcDbEntity
  8
치수문자_일반주서
 62
     0
100
AcDbTrace
 10
49.97299999999998
 20
43.44621993334514
 30
0.0
 11
49.97299999999998
 21
44.54688660001181
 31
0.0
 12
53.27499999999998
 22
43.99655326667848
 32
0.0
 13
53.27499999999998
 23
43.99655326667848
 33
0.0
  0
SOLID
  5
10F
330
108
100
AcDbEntity
  8
치수문자_일반주서
 62
     0
100
AcDbTrace
 10
-41.84800000000003
 20
44.54688660001181
 30
0.0
 11
-41.84800000000003
 21
43.44621993334514
 31
0.0
 12
-45.15000000000003
 22
43.99655326667848
 32
0.0
 13
-45.15000000000003
 23
43.99655326667848
 33
0.0
  0
MTEXT
  5
110
330
108
100
AcDbEntity
  8
치수문자_일반주서
 62
     0
100
AcDbMText
 10
4.062499999999979
 20
48.37155326667848
 30
0.0
 40
3.5
 41
0.0
 71
     2
 72
     1
  1
\A1;98.43 [3 7/8]
  7
SLDTEXTSTYLE0
 73
     1
 44
1.0
  0
POINT
  5
111
330
108
100
AcDbEntity
  8
Defpoints
 62
     0
100
AcDbPoint
 10
53.27499999999998
 20
9.526074928723897
 30
0.0
  0
POINT
  5
112
330
108
100
AcDbEntity
  8
Defpoints
 62
     0
100
AcDbPoint
 10
-45.15000000000003
 20
7.6210749287239
 30
0.0
  0
POINT
  5
113
330
108
100
AcDbEntity
  8
Defpoints
 62
     0
100
AcDbPoint
 10
-45.15000000000003
 20
43.99655326667848
 30
0.0
  0
ENDBLK
  5
10A
330
108
100
AcDbEntity
  8
0
100
AcDbBlockEnd
  0
BLOCK
  5
11C
330
11B
100
AcDbEntity
  8
0
100
AcDbBlockBegin
  2
_D_3
 70
     0
 10
0.0
 20
0.0
 30
0.0
  3
_D_3
  1
_D_3
  0
LINE
  5
11E
330
11B
100
AcDbEntity
  8
치수문자_일반주서
 62
     0
370
    -2
100
AcDbLine
 10
53.33749999999998
 20
9.526074928723897
 30
0.0
 11
70.71771750696965
 21
9.526074928723961
 31
0.0
  0
LINE
  5
11F
330
11B
100
AcDbEntity
  8
치수문자_일반주서
 62
     0
370
    -2
100
AcDbLine
 10
53.33749999999998
 20
-9.523925071276107
 30
0.0
 11
70.71771750696972
 21
-9.523925071276047
 31
0.0
  0
LINE
  5
120
330
11B
100
AcDbEntity
  8
치수문자_일반주서
 62
     0
370
    -2
100
AcDbLine
 10
70.71771750696965
 20
9.526074928723961
 30
0.0
 11
70.71771750696952
 21
43.91132492872396
 31
0.0
  0
LINE
  5
121
330
11B
100
AcDbEntity
  8
치수문자_일반주서
 62
     0
370
    -2
100
AcDbLine
 10
70.71771750696965
 20
9.526074928723961
 30
0.0
 11
70.71771750696972
 21
-9.523925071276047
 31
0.0
  0
LINE
  5
122
330
11B
100
AcDbEntity
  8
치수문자_일반주서
 62
     0
370
    -2
100
AcDbLine
 10
70.71771750696963
 20
12.82807492872396
 30
0.0
 11
70.71771750696962
 21
16.13007492872396
 31
0.0
  0
LINE
  5
123
330
11B
100
AcDbEntity
  8
치수문자_일반주서
 62
     0
370
    -2
100
AcDbLine
 10
70.71771750696973
 20
-12.82592507127605
 30
0.0
 11
70.71771750696975
 21
-16.12792507127605
 31
0.0
  0
SOLID
  5
124
330
11B
100
AcDbEntity
  8
치수문자_일반주서
 62
     0
100
AcDbTrace
 10
70.16738417363631
 20
12.82807492872396
 30
0.0
 11
71.26805084030296
 21
12.82807492872396
 31
0.0
 12
70.71771750696965
 22
9.526074928723961
 32
0.0
 13
70.71771750696965
 23
9.526074928723961
 33
0.0
  0
SOLID
  5
125
330
11B
100
AcDbEntity
  8
치수문자_일반주서
 62
     0
100
AcDbTrace
 10
71.26805084030306
 20
-12.82592507127604
 30
0.0
 11
70.1673841736364
 21
-12.82592507127605
 31
0.0
 12
70.71771750696972
 22
-9.523925071276047
 32
0.0
 13
70.71771750696972
 23
-9.523925071276047
 33
0.0
  0
MTEXT
  5
126
330
11B
100
AcDbEntity
  8
치수문자_일반주서
 62
     0
100
AcDbMText
 10
66.34271750696958
 20
30.13007492872394
 30
0.0
 40
3.5
 41
0.0
 71
     2
 72
     1
  1
\A1;%%c19.05 [3/4]
  7
SLDTEXTSTYLE0
 11
-3.729883127349606E-15
 21
1.0
 31
0.0
 73
     1
 44
1.0
  0
POINT
  5
127
330
11B
100
AcDbEntity
  8
Defpoints
 62
     0
100
AcDbPoint
 10
53.27499999999998
 20
9.526074928723897
 30
0.0
  0
POINT
  5
1C4
330
11B
100
AcDbEntity
  8
Defpoints
 62
     0
100
AcDbPoint
 10
53.27499999999998
 20
-9.523925071276107
 30
0.0
  0
POINT
  5
1C5
330
11B
100
AcDbEntity
  8
Defpoints
 62
     0
100
AcDbPoint
 10
70.71771750696972
 20
-9.523925071276041
 30
0.0
  0
ENDBLK
  5
11D
330
11B
100
AcDbEntity
  8
0
100
AcDbBlockEnd
  0
BLOCK
  5
135
330
134
100
AcDbEntity
  8
0
100
AcDbBlockBegin
  2
SW_DOWELSYMBOL_0
 70
     0
 10
0.0
 20
0.0
 30
0.0
  3
SW_DOWELSYMBOL_0
  1
SW_DOWELSYMBOL_0
  0
CIRCLE
  5
137
330
134
100
AcDbEntity
  8
해칭선
 62
     0
100
AcDbCircle
 10
0.0
 20
0.0
 30
0.0
 40
3.000000000000002
  0
HATCH
  5
138
330
134
100
AcDbEntity
  8
0
  6
Continuous
 62
     0
370
     0
100
AcDbHatch
 10
0.0
 20
0.0
 30
0.0
210
0.0
220
0.0
230
1.0
  2
SOLID
 70
     1
 71
     0
 91
        1
 92
        0
 93
        3
 72
     2
 10
0.0
 20
0.0
 40
3.000000000000002
 50
0.0
 51
90.0
 73
     1
 72
     1
 10
0.0
 20
3.000000000000002
 11
0.0
 21
0.0
 72
     1
 10
0.0
 20
0.0
 11
3.000000000000003
 21
0.0
 97
        0
 75
     0
 76
     1
 98
        1
 10
0.0
 20
0.0
  0
HATCH
  5
139
330
134
100
AcDbEntity
  8
0
  6
Continuous
 62
     0
370
     0
100
AcDbHatch
 10
0.0
 20
0.0
 30
0.0
210
0.0
220
0.0
230
1.0
  2
SOLID
 70
     1
 71
     0
 91
        1
 92
        0
 93
        3
 72
     2
 10
0.0
 20
0.0
 40
3.000000000000002
 50
180.0
 51
270.0000000000007
 73
     1
 72
     1
 10
0.0
 20
-3.000000000000002
 11
0.0
 21
0.0
 72
     1
 10
0.0
 20
0.0
 11
-3.000000000000002
 21
0.0
 97
        0
 75
     0
 76
     1
 98
        1
 10
0.0
 20
0.0
  0
ENDBLK
  5
136
330
134
100
AcDbEntity
  8
0
100
AcDbBlockEnd
  0
ENDSEC
  0
SECTION
  2
ENTITIES
  0
LINE
  5
96
330
1F
100
AcDbEntity
  8
0
  6
Continuous
 62
     1
370
    15
100
AcDbLine
 10
31.35315197860888
 20
-1.849982139798459
 30
0.0
 11
31.40891005927669
 21
-1.904022164061725
 31
0.0
  0
LINE
  5
97
330
1F
100
AcDbEntity
  8
0
  6
Continuous
 62
     1
370
    15
100
AcDbLine
 10
34.47781536875025
 20
9.526074928723897
 30
0.0
 11
32.17375414101753
 21
9.526074928723897
 31
0.0
  0
LINE
  5
98
330
1F
100
AcDbEntity
  8
0
  6
Continuous
 62
     1
370
    15
100
AcDbLine
 10
32.17375414101745
 20
-9.523925071276107
 30
0.0
 11
34.47781536875018
 21
-9.523925071276107
 31
0.0
  0
LINE
  5
99
330
1F
100
AcDbEntity
  8
0
  6
Continuous
 62
     1
370
    15
100
AcDbLine
 10
52.12270245238489
 20
-9.523925071276107
 30
0.0
 11
53.27499999999998
 21
-9.523925071276107
 31
0.0
  0
LINE
  5
9A
330
1F
100
AcDbEntity
  8
0
  6
Continuous
 62
     1
370
    15
100
AcDbLine
 10
24.5032602464839
 20
9.526074928723897
 30
0.0
 11
22.19961958482073
 21
9.526074928723897
 31
0.0
  0
LINE
  5
9B
330
1F
100
AcDbEntity
  8
0
  6
Continuous
 62
     1
370
    15
100
AcDbLine
 10
42.14873544909189
 20
-9.523925071276107
 30
0.0
 11
44.4522656323138
 21
-9.523925071276107
 31
0.0
  0
LINE
  5
9C
330
1F
100
AcDbEntity
  8
0
  6
Continuous
 62
     1
370
    15
100
AcDbLine
 10
14.52772191537368
 20
9.526074928723897
 30
0.0
 11
12.22562195957532
 21
9.526074928723897
 31
0.0
  0
LINE
  5
9D
330
1F
100
AcDbEntity
  8
0
  6
Continuous
 62
     1
370
    15
100
AcDbLine
 10
22.19961958482072
 20
-9.523925071276107
 30
0.0
 11
24.50326024648384
 21
-9.523925071276107
 31
0.0
  0
LINE
  5
9E
330
1F
100
AcDbEntity
  8
0
  6
Continuous
 62
     1
370
    15
100
AcDbLine
 10
53.27499999999998
 20
9.526074928723897
 30
0.0
 11
52.1227024523849
 21
9.526074928723897
 31
0.0
  0
LINE
  5
9F
330
1F
100
AcDbEntity
  8
0
  6
Continuous
 62
     1
370
    15
100
AcDbLine
 10
12.22562195957536
 20
-9.523925071276107
 30
0.0
 11
14.52772191537368
 21
-9.523925071276107
 31
0.0
  0
LINE
  5
A0
330
1F
100
AcDbEntity
  8
0
  6
Continuous
 62
     1
370
    15
100
AcDbLine
 10
44.45226563231382
 20
9.526074928723897
 30
0.0
 11
42.14873544909198
 21
9.526074928723897
 31
0.0
  0
LINE
  5
A1
330
1F
100
AcDbEntity
  8
외형선
  6
Continuous
370
    15
100
AcDbLine
 10
-43.24500000000003
 20
-9.523925071276103
 30
0.0
 11
10.99962757077963
 21
-9.523925071276103
 31
0.0
  0
LINE
  5
A2
330
1F
100
AcDbEntity
  8
외형선
  6
Continuous
370
    15
100
AcDbLine
 10
10.99962757077963
 20
9.526074928723894
 30
0.0
 11
-11.65692500000003
 21
9.526074928723894
 31
0.0
  0
LINE
  5
A3
330
1F
100
AcDbEntity
  8
외형선
  6
Continuous
370
    15
100
AcDbLine
 10
-43.24500000000003
 20
9.526074928723894
 30
0.0
 11
-45.15000000000003
 21
7.6210749287239
 31
0.0
  0
LINE
  5
A4
330
1F
100
AcDbEntity
  8
외형선
  6
Continuous
370
    15
100
AcDbLine
 10
-45.15000000000003
 20
-7.61892507127611
 30
0.0
 11
-43.24500000000003
 21
-9.523925071276103
 31
0.0
  0
SPLINE
  5
A5
330
1F
100
AcDbEntity
  8
0
  6
Continuous
 62
     1
370
    15
100
AcDbSpline
210
0.0
220
0.0
230
1.0
 70
     8
 71
     3
 72
    30
 73
    26
 74
     0
 42
0.000000001
 43
0.00000001
 40
0.0
 40
0.0
 40
0.0
 40
0.0
 40
0.019555376671398
 40
0.0668424078868687
 40
0.1140940714806121
 40
0.1613099867400801
 40
0.20854236066931
 40
0.2533117096778193
 40
0.2980226941958862
 40
0.3427118862373791
 40
0.3874600340574971
 40
0.4322028643988451
 40
0.4768911379608354
 40
0.5216057265870412
 40
0.5663740504368616
 40
0.6110747261259085
 40
0.6557688905593577
 40
0.7005308795059416
 40
0.7452572408265887
 40
0.7899442840468545
 40
0.8346729033408139
 40
0.8794332791421704
 40
0.9241265254382078
 40
0.9688285459219412
 40
1.0
 40
1.0
 40
1.0
 40
1.0
 10
14.52772191537368
 20
9.49370381334586
 30
0.0
 10
14.74772817244687
 20
9.50155610104593
 30
0.0
 10
15.49973352729431
 20
9.528396075857607
 30
0.0
 10
16.78478087034991
 20
9.293498447244474
 30
0.0
 10
18.37998755409977
 20
8.80189839403726
 30
0.0
 10
19.97400056181888
 20
8.047844346402247
 30
0.0
 10
21.54015911370373
 20
7.089960214616443
 30
0.0
 10
23.0799846874381
 20
5.96402203932681
 30
0.0
 10
24.5893796190479
 20
4.708493381715291
 30
0.0
 10
26.09801219436616
 20
3.334507855085289
 30
0.0
 10
27.60867264730314
 20
1.878181816965387
 30
0.0
 10
29.1191432275417
 20
0.3746625561521048
 30
0.0
 10
30.62774691244576
 20
-1.139329845982462
 30
0.0
 10
32.13724374028791
 20
-2.624384596722344
 30
0.0
 10
33.64861510561783
 20
-4.042142720752476
 30
0.0
 10
35.15764824775222
 20
-5.360273032933985
 30
0.0
 10
36.66645992569723
 20
-6.543879823962844
 30
0.0
 10
38.17760866905317
 20
-7.562184852127338
 30
0.0
 10
39.68750461890041
 20
-8.391630549693513
 30
0.0
 10
41.19606309909902
 20
-9.010969902518614
 30
0.0
 10
42.7060362830228
 20
-9.40343827405397
 30
0.0
 10
44.21713067338304
 20
-9.562306710957072
 30
0.0
 10
45.72590101504161
 20
-9.473378575999668
 30
0.0
 10
47.08206770312892
 20
-9.207027202041557
 30
0.0
 10
47.93643489717419
 20
-8.875033298111676
 30
0.0
 10
48.28743856359115
 20
-8.738638691296645
 30
0.0
  0
SPLINE
  5
A6
330
1F
100
AcDbEntity
  8
0
  6
Continuous
 62
     1
370
    15
100
AcDbSpline
210
0.0
220
0.0
230
1.0
 70
     8
 71
     3
 72
    31
 73
    27
 74
     0
 42
0.000000001
 43
0.00000001
 40
0.0
 40
0.0
 40
0.0
 40
0.0
 40
0.010621130384621
 40
0.0553103356962516
 40
0.1000235952205715
 40
0.144793012593145
 40
0.189495537381884
 40
0.2341892878839403
 40
0.2789501686486359
 40
0.323679292547674
 40
0.3683668399039782
 40
0.4130937058042314
 40
0.457856199732353
 40
0.5025508683821793
 40
0.5472520483610601
 40
0.5920208772638855
 40
0.636735970336883
 40
0.6814247480487925
 40
0.7261680831555413
 40
0.7709167358010489
 40
0.8156064320028231
 40
0.8603179209270223
 40
0.9050877750001022
 40
0.952320681780472
 40
0.9995371297054019
 40
1.0
 40
1.0
 40
1.0
 40
1.0
 10
52.12270245238489
 20
-9.502274155073948
 30
0.0
 10
52.0031459207507
 20
-9.508848109767449
 30
0.0
 10
51.38054628588119
 20
-9.543082473510498
 30
0.0
 10
50.25586359559346
 20
-9.368285493587631
 30
0.0
 10
48.74636579647311
 20
-8.97174166202424
 30
0.0
 10
47.23499057041809
 20
-8.331399068345306
 30
0.0
 10
45.72590770126754
 20
-7.486598506409066
 30
0.0
 10
44.217128878921
 20
-6.452367103938363
 30
0.0
 10
42.70603676378639
 20
-5.258011818666881
 30
0.0
 10
41.19606297045419
 20
-3.930995256406638
 30
0.0
 10
39.68750465339218
 20
-2.504775586033941
 30
0.0
 10
38.17760865979146
 20
-1.016252991713073
 30
0.0
 10
36.66645992820375
 20
0.4966802058455936
 30
0.0
 10
35.15764824697592
 20
1.998934580204932
 30
0.0
 10
33.64861510621855
 20
3.450958978222586
 30
0.0
 10
32.13724373866081
 20
4.814798191882572
 30
0.0
 10
30.62774691834349
 20
6.059402347915714
 30
0.0
 10
29.1191432055776
 20
7.152212415987916
 30
0.0
 10
27.6086727293799
 20
8.065001347430261
 30
0.0
 10
26.09801188819678
 20
8.775546320343201
 30
0.0
 10
24.58938076023836
 20
9.267123275622343
 30
0.0
 10
23.07998042360903
 20
9.524150391587467
 30
0.0
 10
21.54017542004093
 20
9.550108968024414
 30
0.0
 10
19.9739359792986
 20
9.292473043876303
 30
0.0
 10
18.90646454925892
 20
9.015429916281576
 30
0.0
 10
18.36987495382983
 20
8.76531377084167
 30
0.0
 10
18.36466574796467
 20
8.762885646064582
 30
0.0
  0
LINE
  5
A7
330
1F
100
AcDbEntity
  8
0
  6
Continuous
 62
     1
370
    15
100
AcDbLine
 10
53.27499999999998
 20
-9.454416868639912
 30
0.0
 11
53.27499999999998
 21
-5.709864417409745
 31
0.0
  0
SPLINE
  5
A8
330
1F
100
AcDbEntity
  8
0
  6
Continuous
 62
     1
370
    15
100
AcDbSpline
210
0.0
220
0.0
230
1.0
 70
     8
 71
     3
 72
    27
 73
    23
 74
     0
 42
0.000000001
 43
0.00000001
 40
0.0
 40
0.0
 40
0.0
 40
0.0
 40
0.0029990537496655
 40
0.0554340628778992
 40
0.1079382463780368
 40
0.1604361907399152
 40
0.2128701221918942
 40
0.2653349298036183
 40
0.3178627863721936
 40
0.3703112695673505
 40
0.4227521129343723
 40
0.4752725365936945
 40
0.5277511574186876
 40
0.5801836452782315
 40
0.6326649154429382
 40
0.685183446356367
 40
0.7376232124485183
 40
0.7900732735267929
 40
0.8426018205546745
 40
0.8950644768395852
 40
0.9474989099999485
 40
0.9999999999999999
 40
0.9999999999999999
 40
0.9999999999999999
 40
0.9999999999999999
 10
24.50326024648391
 20
9.519638470517128
 30
0.0
 10
24.53201968673637
 20
9.521764562071212
 30
0.0
 10
25.06360489739365
 20
9.561062921730962
 30
0.0
 10
26.09794507834373
 20
9.415297914072806
 30
0.0
 10
27.60869063933041
 20
9.066513966891826
 30
0.0
 10
29.1191384134815
 20
8.46385912914269
 30
0.0
 10
30.62774820251589
 20
7.655630725491831
 30
0.0
 10
32.13724339399815
 20
6.653588880021769
 30
0.0
 10
33.64861519848537
 20
5.486524261199683
 30
0.0
 10
35.15764822218787
 20
4.180341011778981
 30
0.0
 10
36.66645993517862
 20
2.769210816687165
 30
0.0
 10
38.17760865671944
 20
1.290361263150054
 30
0.0
 10
39.68750465869944
 20
-0.2218563138344413
 30
0.0
 10
41.19606295230303
 20
-1.729068438750661
 30
0.0
 10
42.70603683117788
 20
-3.192245403585228
 30
0.0
 10
44.21712862749907
 20
-4.574487027329731
 30
0.0
 10
45.72590863804245
 20
-5.84362301809528
 30
0.0
 10
47.23498707119101
 20
-6.965630154483184
 30
0.0
 10
48.74637887054439
 20
-7.91301760185277
 30
0.0
 10
50.25581488414048
 20
-8.658489991682083
 30
0.0
 10
51.76443422153334
 20
-9.20375437924866
 30
0.0
 10
52.77126488848916
 20
-9.370827329643962
 30
0.0
 10
53.27499999999998
 20
-9.454416868639912
 30
0.0
  0
SPLINE
  5
A9
330
1F
100
AcDbEntity
  8
0
  6
Continuous
 62
     1
370
    15
100
AcDbSpline
210
0.0
220
0.0
230
1.0
 70
     8
 71
     3
 72
    24
 73
    20
 74
     0
 42
0.000000001
 43
0.00000001
 40
0.0
 40
0.0
 40
0.0
 40
0.0
 40
0.0605770353720136
 40
0.1210771604601533
 40
0.1816098500762692
 40
0.2422185660352196
 40
0.3027367229953863
 40
0.3632430013500115
 40
0.4238401604723424
 40
0.4843943272359753
 40
0.5448922077886856
 40
0.6054433176796805
 40
0.6660426606982873
 40
0.7265501820388764
 40
0.7870665183991001
 40
0.8476744376892998
 40
0.9082096095586483
 40
0.9687091557634441
 40
1.0
 40
1.0
 40
1.0
 40
1.0
 10
53.27499999999998
 20
-5.721394500638302
 30
0.0
 10
52.77126488848909
 20
-5.305191091833946
 30
0.0
 10
51.76443422153312
 20
-4.473312697614127
 30
0.0
 10
50.25581488414149
 20
-3.073565704665745
 30
0.0
 10
48.74637887054056
 20
-1.607216420147293
 30
0.0
 10
47.23498707120508
 20
-0.0994321166789702
 30
0.0
 10
45.72590863799006
 20
1.411988773725696
 30
0.0
 10
44.21712862769447
 20
2.888295779256006
 30
0.0
 10
42.70603683044756
 20
4.29056131086765
 30
0.0
 10
41.19606295502538
 20
5.586244932242945
 30
0.0
 10
39.6875046485462
 20
6.742344286981025
 30
0.0
 10
38.17760869466318
 20
7.728926800188217
 30
0.0
 10
36.66645979353973
 20
8.521212753222189
 30
0.0
 10
35.15764874991748
 20
9.100960562087893
 30
0.0
 10
33.64861322729673
 20
9.451446830080235
 30
0.0
 10
32.13725075922043
 20
9.567832935906933
 30
0.0
 10
30.62772076007043
 20
9.433353587114198
 30
0.0
 10
29.36246868762046
 20
9.156940470946981
 30
0.0
 10
28.59924089569811
 20
8.843452549524146
 30
0.0
 10
28.33906069775775
 20
8.736586224279009
 30
0.0
  0
SPLINE
  5
AA
330
1F
100
AcDbEntity
  8
0
  6
Continuous
 62
     1
370
    15
100
AcDbSpline
210
0.0
220
0.0
230
1.0
 70
     8
 71
     3
 72
    25
 73
    21
 74
     0
 42
0.000000001
 43
0.00000001
 40
0.0
 40
0.0
 40
0.0
 40
0.0
 40
0.060576164268589
 40
0.1211695081340862
 40
0.1818360657668251
 40
0.2424572487628677
 40
0.3030325686897802
 40
0.3636290041490491
 40
0.4210655194470607
 40
0.4784271564405538
 40
0.5357608349324862
 40
0.5931701503178713
 40
0.6505726436819969
 40
0.7079051438172372
 40
0.7652714046754244
 40
0.8227066047534467
 40
0.8800550161086664
 40
0.9373950738952053
 40
0.994822146654544
 40
1.0
 40
1.0
 40
1.0
 40
1.0
 10
11.99999999999999
 20
6.761161286862985
 30
0.0
 10
12.53119467109793
 20
6.368443765394701
 30
0.0
 10
13.59373466182757
 20
5.582897346493689
 30
0.0
 10
15.18816124774223
 20
4.197059188509037
 30
0.0
 10
16.78474658007225
 20
2.7086353722764
 30
0.0
 10
18.37999673257194
 20
1.139890585145583
 30
0.0
 10
19.97399809793057
 20
-0.4597572347223342
 30
0.0
 10
21.54015973567079
 20
-2.018950077666744
 30
0.0
 10
23.07998452528006
 20
-3.494170165725664
 30
0.0
 10
24.58937966066787
 20
-4.856121882520162
 30
0.0
 10
26.09801218984585
 20
-6.096395434313249
 30
0.0
 10
27.60867262367218
 20
-7.182780780959236
 30
0.0
 10
29.11914332651316
 20
-8.089337635710732
 30
0.0
 10
30.62774654058969
 20
-8.793491769267508
 30
0.0
 10
32.13724513052413
 20
-9.27725841900445
 30
0.0
 10
33.64860991344014
 20
-9.526546386518296
 30
0.0
 10
35.15766759069786
 20
-9.543355009954864
 30
0.0
 10
36.66638769881509
 20
-9.297788468879952
 30
0.0
 10
37.7195235425116
 20
-9.023857249307238
 30
0.0
 10
38.26865120569087
 20
-8.773599448522308
 30
0.0
 10
38.3140677996361
 20
-8.752901425672608
 30
0.0
  0
SPLINE
  5
AB
330
1F
100
AcDbEntity
  8
외형선
  6
Continuous
370
    15
100
AcDbSpline
210
0.0
220
0.0
230
1.0
 70
    24
 71
     3
 72
    13
 73
     9
 74
     0
 42
0.000000001
 43
0.00000001
 40
0.0
 40
0.0
 40
0.0
 40
0.0
 40
0.0003507726836289
 40
0.2256889105158204
 40
0.4575618696106359
 40
0.6829000074427783
 40
0.9147729665375414
 40
1.0
 40
1.0
 40
1.0
 40
1.0
 10
11.99999999999998
 20
9.523391752799146
 30
0.0
 10
11.99999999999999
 20
9.523068589686487
 30
0.0
 10
12.00000000000326
 20
9.315143816125678
 30
0.0
 10
11.99999999999845
 20
8.886636795186106
 30
0.0
 10
12.00000000000036
 20
8.245718586812803
 30
0.0
 10
11.99999999999983
 20
7.61975475534893
 30
0.0
 10
11.99999999999997
 20
7.14337027130082
 30
0.0
 10
11.99999999999998
 20
6.898167627446139
 30
0.0
 10
11.99999999999997
 20
6.832264459917317
 30
0.0
  0
SPLINE
  5
AC
330
1F
100
AcDbEntity
  8
0
  6
Continuous
 62
     1
370
    15
100
AcDbSpline
210
0.0
220
0.0
230
1.0
 70
     8
 71
     3
 72
    27
 73
    23
 74
     0
 42
0.000000001
 43
0.00000001
 40
0.0
 40
0.0
 40
0.0
 40
0.0
 40
0.0316067779912803
 40
0.0816447707909824
 40
0.1317267897486503
 40
0.1818487024822671
 40
0.231894669208825
 40
0.2819479268666514
 40
0.3320769330622588
 40
0.3821457696306413
 40
0.432185140096574
 40
0.4822856001208207
 40
0.5323920143533841
 40
0.5824324132800839
 40
0.6324972141744971
 40
0.6826273682841173
 40
0.7355154766992175
 40
0.7883851556381275
 40
0.8412948635152743
 40
0.8942441740305421
 40
0.9471295841260905
 40
1.0
 40
1.0
 40
1.0
 40
1.0
 10
42.14873544909189
 20
-9.49608037472619
 30
0.0
 10
41.83104315896264
 20
-9.497854380743785
 30
0.0
 10
41.01039911176431
 20
-9.502436888797233
 30
0.0
 10
39.68753164983468
 20
-9.239852835220912
 30
0.0
 10
38.17760141665654
 20
-8.7457572495737
 30
0.0
 10
36.66646186633136
 20
-8.023048899165365
 30
0.0
 10
35.1576477280305
 20
-7.100935964987936
 30
0.0
 10
33.64861524514079
 20
-5.999882189663548
 30
0.0
 10
32.13724370287237
 20
-4.750095534170669
 30
0.0
 10
30.62774692266757
 20
-3.379852133358697
 30
0.0
 10
29.11914322402217
 20
-1.924477009247672
 30
0.0
 10
27.60867265115356
 20
-0.4218976585978657
 30
0.0
 10
26.09801218249289
 20
1.091111741638077
 30
0.0
 10
24.58937966263774
 20
2.578079674452793
 30
0.0
 10
23.07998452475229
 20
4.000118476442614
 30
0.0
 10
21.54015973582099
 20
5.345299020581342
 30
0.0
 10
19.97399809788942
 20
6.574785705522586
 30
0.0
 10
18.37999673258296
 20
7.641817368873171
 30
0.0
 10
16.78474658006932
 20
8.496400997946655
 30
0.0
 10
15.18816124774302
 20
9.10781662833419
 30
0.0
 10
13.59373466182737
 20
9.484029475375124
 30
0.0
 10
12.53119467109786
 20
9.510272233903862
 30
0.0
 10
11.99999999999997
 20
9.523391752799148
 30
0.0
  0
LINE
  5
AD
330
1F
100
AcDbEntity
  8
0
  6
Continuous
 62
     1
370
    15
100
AcDbLine
 10
53.27499999999998
 20
-3.73194743927758
 30
0.0
 11
53.27499999999998
 21
3.734097296725548
 31
0.0
  0
SPLINE
  5
AE
330
1F
100
AcDbEntity
  8
0
  6
Continuous
 62
     1
370
    15
100
AcDbSpline
210
0.0
220
0.0
230
1.0
 70
     8
 71
     3
 72
    20
 73
    16
 74
     0
 42
0.000000001
 43
0.00000001
 40
0.0
 40
0.0
 40
0.0
 40
0.0
 40
0.0361778070629655
 40
0.1164454793440665
 40
0.1968349598267959
 40
0.2771604555222694
 40
0.3574153385899841
 40
0.4377448894515885
 40
0.5181314728354661
 40
0.5983974962043699
 40
0.6786792774161922
 40
0.7590811917928767
 40
0.8393822516404659
 40
0.9196401122493226
 40
1.0
 40
1.0
 40
1.0
 40
1.0
 10
34.47781536875025
 20
9.496482709549202
 30
0.0
 10
34.70445382116874
 20
9.503101542103742
 30
0.0
 10
35.43393483099716
 20
9.524405573278717
 30
0.0
 10
36.66642136610766
 20
9.305651422490769
 30
0.0
 10
38.17761898901023
 20
8.855895337772758
 30
0.0
 10
39.68750189390033
 20
8.170265060030538
 30
0.0
 10
41.19606369360555
 20
7.283041741913427
 30
0.0
 10
42.70603663230155
 20
6.212591361455496
 30
0.0
 10
44.2171286807143
 20
4.987534755786819
 30
0.0
 10
45.72590862379008
 20
3.635937991672902
 30
0.0
 10
47.23498707501668
 20
2.193343471393701
 30
0.0
 10
48.74637886952042
 20
0.6971368737411849
 30
0.0
 10
50.25581488441319
 20
-0.8163443506522483
 30
0.0
 10
51.76443422146509
 20
-2.316311064842025
 30
0.0
 10
52.77126488846638
 20
-3.259868859780731
 30
0.0
 10
53.27499999999998
 20
-3.73194743927758
 30
0.0
  0
SPLINE
  5
AF
330
1F
100
AcDbEntity
  8
0
  6
Continuous
 62
     1
370
    15
100
AcDbSpline
210
0.0
220
0.0
230
1.0
 70
     8
 71
     3
 72
    17
 73
    13
 74
     0
 42
0.000000001
 43
0.00000001
 40
0.0
 40
0.0
 40
0.0
 40
0.0
 40
0.1009651853894501
 40
0.2018021825798246
 40
0.3026934558433685
 40
0.4037114440204375
 40
0.5045784953607212
 40
0.6054257483466731
 40
0.7064244744693241
 40
0.8073515442053657
 40
0.9081848003751646
 40
1.0
 40
1.0
 40
1.0
 40
1.0
 10
53.27499999999998
 20
3.734097296725549
 30
0.0
 10
52.77126488900871
 20
4.188096664889929
 30
0.0
 10
51.76443422309134
 20
5.095518991031729
 30
0.0
 10
50.25581487791639
 20
6.305161564421782
 30
0.0
 10
48.746378893912
 20
7.363090323410154
 30
0.0
 10
47.23498698388619
 20
8.233697947823138
 30
0.0
 10
45.72590896329363
 20
8.89954498963866
 30
0.0
 10
44.2171274130808
 20
9.341551165059442
 30
0.0
 10
42.70604136971169
 20
9.550513340202421
 30
0.0
 10
41.19604603512398
 20
9.515044999082685
 30
0.0
 10
39.73295320419663
 20
9.268064583240594
 30
0.0
 10
38.77203578318183
 20
8.920634540114241
 30
0.0
 10
38.31406779963616
 20
8.755051283120393
 30
0.0
  0
LINE
  5
B0
330
1F
100
AcDbEntity
  8
외형선
  6
Continuous
370
    15
100
AcDbLine
 10
12.22562195957536
 20
-9.507726968354481
 30
0.0
 11
11.99999999999997
 21
-9.521241895351354
 31
0.0
  0
SPLINE
  5
B1
330
1F
100
AcDbEntity
  8
0
  6
Continuous
 62
     1
370
    15
100
AcDbSpline
210
0.0
220
0.0
230
1.0
 70
     8
 71
     3
 72
    18
 73
    14
 74
     0
 42
0.000000001
 43
0.00000001
 40
0.0
 40
0.0
 40
0.0
 40
0.0
 40
0.0975587543589443
 40
0.1951451766974477
 40
0.2928495108255184
 40
0.3904807684706351
 40
0.4880381630055759
 40
0.5856295643988113
 40
0.6781318704601089
 40
0.7705135839714236
 40
0.862850269927446
 40
0.9553087701514716
 40
0.9999999999999999
 40
0.9999999999999999
 40
0.9999999999999999
 40
0.9999999999999999
 10
11.99999999999998
 20
-2.430090292606309
 30
0.0
 10
12.53119467085069
 20
-2.937435678518193
 30
0.0
 10
13.59373466108581
 20
-3.952270335141015
 30
0.0
 10
15.18816125071159
 20
-5.346407626973305
 30
0.0
 10
16.7847465689258
 20
-6.594722840522263
 30
0.0
 10
18.37999677413566
 20
-7.658016294110241
 30
0.0
 10
19.97399794291315
 20
-8.507271174039525
 30
0.0
 10
21.54016030168823
 20
-9.107788108336377
 30
0.0
 10
23.07998253622983
 20
-9.456637893066842
 30
0.0
 10
24.58938708483546
 20
-9.565509427944543
 30
0.0
 10
26.09798447731811
 20
-9.422430127154394
 30
0.0
 10
27.34853562985199
 20
-9.145235524183017
 30
0.0
 10
28.09561838696195
 20
-8.835398875887256
 30
0.0
 10
28.33906069775768
 20
-8.734436366831218
 30
0.0
  0
SPLINE
  5
B2
330
1F
100
AcDbEntity
  8
외형선
  6
Continuous
370
    15
100
AcDbSpline
210
0.0
220
0.0
230
1.0
 70
    24
 71
     3
 72
    24
 73
    20
 74
     0
 42
0.000000001
 43
0.00000001
 40
0.0
 40
0.0
 40
0.0
 40
0.0
 40
0.1250000000000001
 40
0.1250000000000001
 40
0.1875000000000001
 40
0.1875000000000001
 40
0.2499999999999999
 40
0.2499999999999999
 40
0.3749999999999999
 40
0.3749999999999999
 40
0.4999999999999999
 40
0.4999999999999999
 40
0.625
 40
0.625
 40
0.75
 40
0.75
 40
0.8750000000000001
 40
0.8750000000000001
 40
1.0
 40
1.0
 40
1.0
 40
1.0
 10
11.99999999999997
 20
4.95801504687856
 30
0.0
 10
11.99999999999996
 20
4.835407900018061
 30
0.0
 10
11.99999999999995
 20
4.678200880765565
 30
0.0
 10
11.99999999999997
 20
4.42942248706394
 30
0.0
 10
11.99999999999999
 20
4.347349889257354
 30
0.0
 10
11.99999999999998
 20
4.159327905192992
 30
0.0
 10
11.99999999999997
 20
4.054098559435993
 30
0.0
 10
11.99999999999998
 20
3.699147474524234
 30
0.0
 10
11.99999999999995
 20
3.409259455136933
 30
0.0
 10
11.99999999999997
 20
2.704482602772601
 30
0.0
 10
11.99999999999997
 20
2.288090561350971
 30
0.0
 10
11.99999999999997
 20
1.357483682146081
 30
0.0
 10
11.99999999999997
 20
0.8430854536018242
 30
0.0
 10
11.99999999999997
 20
-0.1735579435958959
 30
0.0
 10
11.99999999999995
 20
-0.6722995990932048
 30
0.0
 10
11.99999999999996
 20
-1.509605873540071
 30
0.0
 10
11.99999999999997
 20
-1.845030809123251
 30
0.0
 10
11.99999999999999
 20
-2.291522147025908
 30
0.0
 10
11.99999999999996
 20
-2.40419348459309
 30
0.0
 10
11.99999999999995
 20
-2.430090292606296
 30
0.0
  0
SPLINE
  5
B3
330
1F
100
AcDbEntity
  8
0
  6
Continuous
 62
     1
370
    15
100
AcDbSpline
210
0.0
220
0.0
230
1.0
 70
     8
 71
     3
 72
    21
 73
    17
 74
     0
 42
0.000000001
 43
0.00000001
 40
0.0
 40
0.0
 40
0.0
 40
0.0
 40
0.0018245045924714
 40
0.0766497175848269
 40
0.1514308950544305
 40
0.2263033676194617
 40
0.3011847384321064
 40
0.3759674528816205
 40
0.4507866347738944
 40
0.5257034835700299
 40
0.6047419483747355
 40
0.6837528713075749
 40
0.7628236153593917
 40
0.8419535434473387
 40
0.920987975757003
 40
1.0
 40
1.0
 40
1.0
 40
1.0
 10
32.17375414101748
 20
-9.521084524126051
 30
0.0
 10
32.16147871273658
 20
-9.522028586062252
 30
0.0
 10
31.64577263293556
 20
-9.561689807574682
 30
0.0
 10
30.62777891697608
 20
-9.420511094529498
 30
0.0
 10
29.11913464166493
 20
-9.080359750684021
 30
0.0
 10
27.60867495237576
 20
-8.484530203482322
 30
0.0
 10
26.09801156677325
 20
-7.68378608068011
 30
0.0
 10
24.5893798275886
 20
-6.687555402443806
 30
0.0
 10
23.07998448055938
 20
-5.524185174372346
 30
0.0
 10
21.54015974839683
 20
-4.199124388959572
 30
0.0
 10
19.97399809444523
 20
-2.73484756720149
 30
0.0
 10
18.37999673350644
 20
-1.168040388609385
 30
0.0
 10
16.78474657982163
 20
0.4321848703635903
 30
0.0
 10
15.18816124780902
 20
2.016683783642283
 30
0.0
 10
13.5937346618109
 20
3.556072538784857
 30
0.0
 10
12.53119467109235
 20
4.490745050610125
 30
0.0
 10
11.99999999999997
 20
4.958015046878558
 30
0.0
  0
LINE
  5
B4
330
1F
100
AcDbEntity
  8
0
  6
Continuous
 62
     1
370
    15
100
AcDbLine
 10
53.27499999999998
 20
-5.721394500638302
 30
0.0
 11
53.27499999999998
 21
-3.73194743927758
 31
0.0
  0
LINE
  5
B5
330
1F
100
AcDbEntity
  8
외형선
  6
Continuous
370
    15
100
AcDbLine
 10
11.99999999999998
 20
4.958015046878557
 30
0.0
 11
11.99999999999997
 21
6.761161286862975
 31
0.0
  0
LINE
  5
B6
330
1F
100
AcDbEntity
  8
0
  6
Continuous
 62
     1
370
    15
100
AcDbLine
 10
53.27499999999998
 20
-9.523925071276107
 30
0.0
 11
53.27499999999998
 21
-9.454416868639912
 31
0.0
  0
LINE
  5
B7
330
1F
100
AcDbEntity
  8
0
  6
Continuous
 62
     1
370
    15
100
AcDbLine
 10
53.27499999999998
 20
9.456566726087713
 30
0.0
 11
53.27499999999998
 21
9.526074928723897
 31
0.0
  0
SPLINE
  5
B8
330
1F
100
AcDbEntity
  8
0
  6
Continuous
 62
     1
370
    15
100
AcDbSpline
210
0.0
220
0.0
230
1.0
 70
     8
 71
     3
 72
    11
 73
     7
 74
     0
 42
0.000000001
 43
0.00000001
 40
0.0
 40
0.0
 40
0.0
 40
0.0
 40
0.3028575261632664
 40
0.605330536013255
 40
0.9079663536388797
 40
1.0
 40
1.0
 40
1.0
 40
1.0
 10
53.27499999999998
 20
9.456566726087713
 30
0.0
 10
52.7712655547915
 20
9.495197453462685
 30
0.0
 10
51.76443621959439
 20
9.572409861569948
 30
0.0
 10
50.25580690194383
 20
9.369801808730582
 30
0.0
 10
49.0970833798781
 20
9.092768233970483
 30
0.0
 10
48.44053921800655
 20
8.807346524618557
 30
0.0
 10
48.28743856359116
 20
8.740788548744437
 30
0.0
  0
SPLINE
  5
B9
330
1F
100
AcDbEntity
  8
0
  6
Continuous
 62
     1
370
    15
100
AcDbSpline
210
0.0
220
0.0
230
1.0
 70
     8
 71
     3
 72
    14
 73
    10
 74
     0
 42
0.000000001
 43
0.00000001
 40
0.0
 40
0.0
 40
0.0
 40
0.0
 40
0.0618752683822969
 40
0.2182077228993599
 40
0.3744857015553156
 40
0.5308820021243396
 40
0.6873953645019318
 40
0.8437198430309846
 40
1.0
 40
1.0
 40
1.0
 40
1.0
 10
22.19961958482074
 20
-9.494810125465818
 30
0.0
 10
21.9891266916096
 20
-9.501761363130909
 30
0.0
 10
21.24680789259751
 20
-9.526275418292013
 30
0.0
 10
19.97400303070447
 20
-9.298881643681826
 30
0.0
 10
18.37999540998157
 20
-8.811377375092853
 30
0.0
 10
16.78474693476072
 20
-8.062445400944654
 30
0.0
 10
15.18816115325537
 20
-7.090243272344617
 30
0.0
 10
13.59373468542958
 20
-5.926835707410459
 30
0.0
 10
12.53119467896451
 20
-5.018436822543407
 30
0.0
 10
11.99999999999997
 20
-4.564301777196714
 30
0.0
  0
LINE
  5
BA
330
1F
100
AcDbEntity
  8
외형선
  6
Continuous
370
    15
100
AcDbLine
 10
11.99999999999998
 20
-4.564301777196711
 30
0.0
 11
11.99999999999997
 21
-2.430090292606316
 31
0.0
  0
SPLINE
  5
BB
330
1F
100
AcDbEntity
  8
0
  6
Continuous
 62
     1
370
    15
100
AcDbSpline
210
0.0
220
0.0
230
1.0
 70
     8
 71
     3
 72
    11
 73
     7
 74
     0
 42
0.000000001
 43
0.00000001
 40
0.0
 40
0.0
 40
0.0
 40
0.0
 40
0.2504560815138255
 40
0.5009831931857266
 40
0.751813011928596
 40
0.9999999999999999
 40
0.9999999999999999
 40
0.9999999999999999
 40
0.9999999999999999
 10
11.99999999999998
 20
-9.190176650745387
 30
0.0
 10
12.53119532584597
 20
-9.305054090011016
 30
0.0
 10
13.5937366262574
 20
-9.534841548157113
 30
0.0
 10
15.18815338346551
 20
-9.539394206263037
 30
0.0
 10
16.77956323622644
 20
-9.31427350416885
 30
0.0
 10
17.83816705929981
 20
-8.944595746699328
 30
0.0
 10
18.36466574796467
 20
-8.760735788616792
 30
0.0
  0
SPLINE
  5
BC
330
1F
100
AcDbEntity
  8
0
  6
Continuous
 62
     1
370
    15
100
AcDbSpline
210
0.0
220
0.0
230
1.0
 70
     8
 71
     3
 72
    13
 73
     9
 74
     0
 42
0.000000001
 43
0.00000001
 40
0.0
 40
0.0
 40
0.0
 40
0.0
 40
0.14439379469308
 40
0.3154325445233918
 40
0.4867272356895962
 40
0.6578070582727822
 40
0.828794845730752
 40
1.0
 40
1.0
 40
1.0
 40
1.0
 10
44.45226563231382
 20
9.51038219863253
 30
0.0
 10
44.87680617024617
 20
9.50030223999884
 30
0.0
 10
45.80422761808589
 20
9.478282270184534
 30
0.0
 10
47.2349616091694
 20
9.155949853890789
 30
0.0
 10
48.74638568560896
 20
8.612326446437425
 30
0.0
 10
50.2558130689212
 20
7.842928368267464
 30
0.0
 10
51.76443467590938
 20
6.888591385452181
 30
0.0
 10
52.77126504001193
 20
6.112057789683484
 30
0.0
 10
53.27499999999998
 20
5.723544358086137
 30
0.0
  0
LINE
  5
BD
330
1F
100
AcDbEntity
  8
0
  6
Continuous
 62
     1
370
    15
100
AcDbLine
 10
53.27499999999998
 20
3.734097296725548
 30
0.0
 11
53.27499999999998
 21
5.723544358086136
 31
0.0
  0
LINE
  5
BE
330
1F
100
AcDbEntity
  8
외형선
  6
Continuous
370
    15
100
AcDbLine
 10
11.99999999999998
 20
-9.52124189535135
 30
0.0
 11
11.99999999999997
 21
-9.190176650745387
 31
0.0
  0
LINE
  5
BF
330
1F
100
AcDbEntity
  8
0
  6
Continuous
 62
     1
370
    15
100
AcDbLine
 10
53.27499999999998
 20
5.711052182732908
 30
0.0
 11
53.27499999999998
 21
9.456566726087713
 31
0.0
  0
SPLINE
  5
C0
330
1F
100
AcDbEntity
  8
외형선
  6
Continuous
370
    15
100
AcDbSpline
210
0.0
220
0.0
230
1.0
 70
    24
 71
     3
 72
    16
 73
    12
 74
     0
 42
0.000000001
 43
0.00000001
 40
0.0
 40
0.0
 40
0.0
 40
0.0
 40
0.0697567896657073
 40
0.1983246771167234
 40
0.32689256456774
 40
0.4554604520187567
 40
0.5840283394697736
 40
0.7125962269207903
 40
0.841164114371808
 40
0.9697320018228263
 40
1.0
 40
1.0
 40
1.0
 40
1.0
 10
12.0
 20
-4.635414950251054
 30
0.0
 10
12.00000000000001
 20
-4.711039586584955
 30
0.0
 10
11.99999999999999
 20
-4.926047066930109
 30
0.0
 10
11.99999999999999
 20
-5.364001845911314
 30
0.0
 10
11.99999999999998
 20
-5.927243415994152
 30
0.0
 10
11.99999999999998
 20
-6.537467145679784
 30
0.0
 10
11.99999999999999
 20
-7.173776218306948
 30
0.0
 10
12.00000000000001
 20
-7.81887667518869
 30
0.0
 10
12.0
 20
-8.45348439848409
 30
0.0
 10
12.00000000000002
 20
-8.907400853109664
 30
0.0
 10
11.99999999999998
 20
-9.144915510914986
 30
0.0
 10
11.99999999999997
 20
-9.19017665074539
 30
0.0
  0
LINE
  5
C1
330
1F
100
AcDbEntity
  8
외형선
  6
Continuous
370
    15
100
AcDbLine
 10
10.99962757077963
 20
-9.523925071276103
 30
0.0
 11
10.99962757077963
 21
-9.445277229977862
 31
0.0
  0
SPLINE
  5
C2
330
1F
100
AcDbEntity
  8
외형선
  6
Continuous
370
    15
100
AcDbSpline
210
0.0
220
0.0
230
1.0
 70
     8
 71
     3
 72
     8
 73
     4
 74
     0
 42
0.000000001
 43
0.00000001
 40
0.0
 40
0.0
 40
0.0
 40
0.0
 40
1.0
 40
1.0
 40
1.0
 40
1.0
 10
11.99999999999997
 20
9.523391752799142
 30
0.0
 10
11.66673730662078
 20
9.515491486462617
 30
0.0
 10
11.3323635289745
 20
9.4900910623198
 30
0.0
 10
10.99962757077963
 20
9.447426736430337
 30
0.0
  0
LINE
  5
C3
330
1F
100
AcDbEntity
  8
외형선
  6
Continuous
370
    15
100
AcDbLine
 10
10.99962757077963
 20
7.426369234175398
 30
0.0
 11
10.99962757077963
 21
9.526074928723894
 31
0.0
  0
SPLINE
  5
C4
330
1F
100
AcDbEntity
  8
외형선
  6
Continuous
370
    15
100
AcDbSpline
210
0.0
220
0.0
230
1.0
 70
     8
 71
     3
 72
     8
 73
     4
 74
     0
 42
0.000000001
 43
0.00000001
 40
0.0
 40
0.0
 40
0.0
 40
0.0
 40
1.0
 40
1.0
 40
1.0
 40
1.0
 10
11.99999999999997
 20
6.761161286862987
 30
0.0
 10
11.66673730662077
 20
6.995657629809179
 30
0.0
 10
11.3323635289745
 20
7.217995567933764
 30
0.0
 10
10.99962757077962
 20
7.426367568896521
 30
0.0
  0
SPLINE
  5
C5
330
1F
100
AcDbEntity
  8
외형선
  6
Continuous
370
    15
100
AcDbSpline
210
0.0
220
0.0
230
1.0
 70
     8
 71
     3
 72
     8
 73
     4
 74
     0
 42
0.000000001
 43
0.00000001
 40
0.0
 40
0.0
 40
0.0
 40
0.0
 40
1.0
 40
1.0
 40
1.0
 40
1.0
 10
11.99999999999997
 20
4.958015046878556
 30
0.0
 10
11.66673730662078
 20
5.242251335247044
 30
0.0
 10
11.3323635289745
 20
5.517696358272249
 30
0.0
 10
10.99962757077963
 20
5.782100960799876
 30
0.0
  0
SPLINE
  5
C6
330
1F
100
AcDbEntity
  8
외형선
  6
Continuous
370
    15
100
AcDbSpline
210
0.0
220
0.0
230
1.0
 70
     8
 71
     3
 72
     8
 73
     4
 74
     0
 42
0.000000001
 43
0.00000001
 40
0.0
 40
0.0
 40
0.0
 40
0.0
 40
1.0
 40
1.0
 40
1.0
 40
1.0
 10
11.99999999999997
 20
-2.430090292606303
 30
0.0
 10
11.66673730662077
 20
-2.108252719958701
 30
0.0
 10
11.3323635289745
 20
-1.781593742724945
 30
0.0
 10
10.99962757077962
 20
-1.452804726721986
 30
0.0
  0
SPLINE
  5
C7
330
1F
100
AcDbEntity
  8
외형선
  6
Continuous
370
    15
100
AcDbSpline
210
0.0
220
0.0
230
1.0
 70
     8
 71
     3
 72
     8
 73
     4
 74
     0
 42
0.000000001
 43
0.00000001
 40
0.0
 40
0.0
 40
0.0
 40
0.0
 40
1.0
 40
1.0
 40
1.0
 40
1.0
 10
11.99999999999997
 20
-4.564301777196711
 30
0.0
 10
11.66673730662078
 20
-4.272165222491698
 30
0.0
 10
11.3323635289745
 20
-3.971319775323678
 30
0.0
 10
10.99962757077963
 20
-3.664250846906588
 30
0.0
  0
LINE
  5
C8
330
1F
100
AcDbEntity
  8
외형선
  6
Continuous
370
    15
100
AcDbLine
 10
10.99962757077963
 20
-8.878096404538736
 30
0.0
 11
10.99962757077963
 21
-3.664253373135922
 31
0.0
  0
SPLINE
  5
C9
330
1F
100
AcDbEntity
  8
외형선
  6
Continuous
370
    15
100
AcDbSpline
210
0.0
220
0.0
230
1.0
 70
     8
 71
     3
 72
     8
 73
     4
 74
     0
 42
0.000000001
 43
0.00000001
 40
0.0
 40
0.0
 40
0.0
 40
0.0
 40
1.0
 40
1.0
 40
1.0
 40
1.0
 10
11.99999999999997
 20
-9.190176650745382
 30
0.0
 10
11.66673730662077
 20
-9.102835421043974
 30
0.0
 10
11.3323635289745
 20
-8.998514381934804
 30
0.0
 10
10.99962757077962
 20
-8.878097366894604
 30
0.0
  0
SPLINE
  5
CA
330
1F
100
AcDbEntity
  8
외형선
  6
Continuous
370
    15
100
AcDbSpline
210
0.0
220
0.0
230
1.0
 70
     8
 71
     3
 72
     8
 73
     4
 74
     0
 42
0.000000001
 43
0.00000001
 40
0.0
 40
0.0
 40
0.0
 40
0.0
 40
1.0
 40
1.0
 40
1.0
 40
1.0
 10
11.99999999999997
 20
-9.52124189535135
 30
0.0
 10
11.66673730662078
 20
-9.513341629014821
 30
0.0
 10
11.3323635289745
 20
-9.487941204872003
 30
0.0
 10
10.99962757077963
 20
-9.445276878982536
 30
0.0
  0
LINE
  5
CB
330
1F
100
AcDbEntity
  8
외형선
  6
Continuous
370
    15
100
AcDbLine
 10
-43.24500000000003
 20
0.0010749287238949
 30
0.0
 11
-43.24500000000003
 21
9.526074928723897
 31
0.0
  0
LINE
  5
CC
330
1F
100
AcDbEntity
  8
외형선
  6
Continuous
370
    15
100
AcDbLine
 10
-43.24500000000003
 20
-9.52392507127612
 30
0.0
 11
-43.24500000000003
 21
0.0010749287238949
 31
0.0
  0
LINE
  5
CD
330
1F
100
AcDbEntity
  8
외형선
  6
Continuous
370
    15
100
AcDbLine
 10
10.99962757077963
 20
-1.45280209908724
 30
0.0
 11
10.99962757077963
 21
5.782098785565866
 31
0.0
  0
LINE
  5
CE
330
1F
100
AcDbEntity
  8
외형선
  6
Continuous
370
    15
100
AcDbLine
 10
-45.15000000000003
 20
0.0010749287238949
 30
0.0
 11
-45.15000000000003
 21
7.6210749287239
 31
0.0
  0
LINE
  5
CF
330
1F
100
AcDbEntity
  8
외형선
  6
Continuous
370
    15
100
AcDbLine
 10
-45.15000000000003
 20
-7.61892507127611
 30
0.0
 11
-45.15000000000003
 21
0.0010749287238949
 31
0.0
  0
SPLINE
  5
D0
330
1F
100
AcDbEntity
  8
외형선
  6
Continuous
370
    15
100
AcDbSpline
210
0.0
220
0.0
230
1.0
 70
    24
 71
     3
 72
    24
 73
    20
 74
     0
 42
0.000000001
 43
0.00000001
 40
0.0
 40
0.0
 40
0.0
 40
0.0
 40
0.125
 40
0.125
 40
0.2499999999999999
 40
0.2499999999999999
 40
0.3749999999999999
 40
0.3749999999999999
 40
0.4999999999999999
 40
0.4999999999999999
 40
0.6249999999999999
 40
0.6249999999999999
 40
0.7499999999999998
 40
0.7499999999999998
 40
0.8124999999999998
 40
0.8124999999999998
 40
0.8749999999999998
 40
0.8749999999999998
 40
1.0
 40
1.0
 40
1.0
 40
1.0
 10
11.99999999999997
 20
-2.430090292606297
 30
0.0
 10
11.99999999999997
 20
-2.404193484593091
 30
0.0
 10
11.99999999999996
 20
-2.291522147025907
 30
0.0
 10
11.99999999999997
 20
-1.845030809123248
 30
0.0
 10
11.99999999999998
 20
-1.509605873540069
 30
0.0
 10
11.99999999999997
 20
-0.6722995990931987
 30
0.0
 10
11.99999999999996
 20
-0.1735579435958846
 30
0.0
 10
11.99999999999996
 20
0.8430854536018384
 30
0.0
 10
11.99999999999999
 20
1.357483682146095
 30
0.0
 10
11.99999999999999
 20
2.288090561350986
 30
0.0
 10
11.99999999999998
 20
2.704482602772616
 30
0.0
 10
11.99999999999998
 20
3.409259455136947
 30
0.0
 10
11.99999999999998
 20
3.699147474524247
 30
0.0
 10
11.99999999999996
 20
4.054098559436005
 30
0.0
 10
11.99999999999998
 20
4.159327905193003
 30
0.0
 10
11.99999999999999
 20
4.347349889257363
 30
0.0
 10
11.99999999999997
 20
4.429422487063951
 30
0.0
 10
11.99999999999997
 20
4.678200880765577
 30
0.0
 10
11.99999999999997
 20
4.835407900018072
 30
0.0
 10
11.99999999999997
 20
4.958015046878567
 30
0.0
  0
SPLINE
  5
D1
330
1F
100
AcDbEntity
  8
외형선
  6
Continuous
370
    15
100
AcDbSpline
210
0.0
220
0.0
230
1.0
 70
    24
 71
     3
 72
    15
 73
    11
 74
     0
 42
0.000000001
 43
0.00000001
 40
0.0
 40
0.0
 40
0.0
 40
0.0
 40
0.1528066956371142
 40
0.2813962787283935
 40
0.4099858618196724
 40
0.5385754449109516
 40
0.6671650280022304
 40
0.7957546110935112
 40
0.9243441941847917
 40
1.0
 40
1.0
 40
1.0
 40
1.0
 10
11.99999999999997
 20
-9.190176650745387
 30
0.0
 10
11.99999999999996
 20
-8.956141777443587
 30
0.0
 10
11.99999999999995
 20
-8.525162348399498
 30
0.0
 10
11.99999999999998
 20
-7.8478611615784
 30
0.0
 10
11.99999999999993
 20
-7.203685551774369
 30
0.0
 10
11.99999999999999
 20
-6.566689053081346
 30
0.0
 10
11.99999999999999
 20
-5.95424708974878
 30
0.0
 10
11.99999999999997
 20
-5.389398733013486
 30
0.0
 10
11.99999999999993
 20
-4.940538244368126
 30
0.0
 10
11.99999999999995
 20
-4.717880858474417
 30
0.0
 10
11.99999999999995
 20
-4.635404950251054
 30
0.0
  0
SPLINE
  5
D2
330
1F
100
AcDbEntity
  8
외형선
  6
Continuous
370
    15
100
AcDbSpline
210
0.0
220
0.0
230
1.0
 70
    24
 71
     3
 72
    13
 73
     9
 74
     0
 42
0.000000001
 43
0.00000001
 40
0.0
 40
0.0
 40
0.0
 40
0.0
 40
0.071165962259181
 40
0.303039914261123
 40
0.5283790170176681
 40
0.7602529690197102
 40
0.8796577514716799
 40
0.9999999999999999
 40
0.9999999999999999
 40
0.9999999999999999
 40
0.9999999999999999
 10
11.99999999999999
 20
6.832264459917318
 30
0.0
 10
12.0
 20
6.886989071725656
 30
0.0
 10
12.00000000000001
 20
7.120018193287661
 30
0.0
 10
11.99999999999999
 20
7.583052771718469
 30
0.0
 10
12.00000000000001
 20
8.206962849623824
 30
0.0
 10
11.99999999999992
 20
8.748269551963151
 30
0.0
 10
11.99999999999995
 20
9.189979518803673
 30
0.0
 10
11.99999999999997
 20
9.411965003353524
 30
0.0
 10
11.99999999999997
 20
9.523391752799165
 30
0.0
  0
LINE
  5
D3
330
1F
100
AcDbEntity
  8
중심선
100
AcDbLine
 10
-48.15000000000002
 20
0.0010749287238888
 30
0.0
 11
56.275
 21
0.0010749287239016
 31
0.0
  0
LINE
  5
D4
330
1F
100
AcDbEntity
  8
참조1
100
AcDbLine
 10
7.23750000000005
 20
0.0010749287238892
 30
0.0
 11
7.237500000000055
 21
-39.99892507127611
 31
0.0
  0
LINE
  5
D5
330
1F
100
AcDbEntity
  8
참조1
100
AcDbLine
 10
7.237500000000055
 20
-39.99892507127611
 30
0.0
 11
-9.508856814308633
 21
-39.9989250712761
 31
0.0
  0
CIRCLE
  5
D6
330
1F
100
AcDbEntity
  8
해칭선
100
AcDbCircle
 10
0.0
 20
0.0
 30
0.0
 40
3.000000000000001
  0
INSERT
  5
D7
330
1F
100
AcDbEntity
  8
0
  6
Continuous
 62
     7
100
AcDbBlockReference
 66
     1
  2
블럭10
 10
-9.87777293212522
 20
-52.04609937292004
 30
0.0
  0
ATTRIB
  5
D8
330
D7
100
AcDbEntity
  8
FORMAT
 62
     2
100
AcDbText
 10
-19.0590682208665
 20
-49.97073246008785
 30
0.0
 40
4.233333333333333
  1
E1032048 [ 6 FLUTE ]
 41
0.75
  7
SLDTEXTSTYLE0
 11
-19.0590682208665
 21
-52.08739912675452
 31
0.0
100
AcDbAttribute
  2
AUTOATTR0
 70
     0
 74
     1
  0
SEQEND
  5
D9
330
D7
100
AcDbEntity
  8
0
  6
Continuous
 62
     7
  0
HATCH
  5
DA
330
1F
100
AcDbEntity
  8
중심선
100
AcDbHatch
 10
0.0
 20
0.0
 30
0.0
210
0.0
220
0.0
230
1.0
  2
SOLID
 70
     1
 71
     0
 91
        1
 92
        0
 93
        4
 72
     1
 10
-4.16286362774437
 20
-35.7989250712761
 11
-7.609138871581653
 21
-35.7989250712761
 72
     1
 10
-7.609138871581653
 20
-35.7989250712761
 11
-9.737368730785676
 21
-38.3352506518487
 72
     1
 10
-9.737368730785676
 20
-38.3352506518487
 11
-6.291060401835244
 21
-38.33521122254621
 72
     1
 10
-6.291060401835244
 20
-38.33521122254621
 11
-4.16286362774437
 21
-35.7989250712761
 97
        0
 75
     0
 76
     1
 98
        1
 10
-3.175000000000063
 20
0.0
  0
HATCH
  5
DB
330
1F
100
AcDbEntity
  8
중심선
100
AcDbHatch
 10
0.0
 20
0.0
 30
0.0
210
0.0
220
0.0
230
1.0
  2
SOLID
 70
     1
 71
     0
 91
        1
 92
        0
 93
        4
 72
     1
 10
0.8499003632916096
 20
-35.7989250712761
 11
-2.596374880545673
 21
-35.7989250712761
 72
     1
 10
-2.596374880545673
 20
-35.7989250712761
 11
-7.127512888903089
 21
-41.19892507127612
 72
     1
 10
-7.127512888903089
 20
-41.19892507127612
 11
-3.681237645065807
 21
-41.19892507127612
 72
     1
 10
-3.681237645065807
 20
-41.19892507127612
 11
0.8499003632916096
 21
-35.7989250712761
 97
        0
 75
     0
 76
     1
 98
        1
 10
-3.175000000000063
 20
0.0
  0
HATCH
  5
DC
330
1F
100
AcDbEntity
  8
중심선
100
AcDbHatch
 10
0.0
 20
0.0
 30
0.0
210
0.0
220
0.0
230
1.0
  2
SOLID
 70
     1
 71
     0
 91
        1
 92
        0
 93
        4
 72
     1
 10
5.86266435432745
 20
-35.79892507127613
 11
2.416389110490361
 21
-35.79892507127608
 72
     1
 10
2.416389110490361
 20
-35.79892507127608
 11
-4.632047791398888
 21
-44.19892507127612
 72
     1
 10
-4.632047791398888
 20
-44.19892507127612
 11
-1.185772547561605
 21
-44.19892507127612
 72
     1
 10
-1.185772547561605
 20
-44.19892507127612
 11
5.86266435432745
 21
-35.79892507127613
 97
        0
 75
     0
 76
     1
 98
        1
 10
-3.175000000000063
 20
0.0
  0
HATCH
  5
DD
330
1F
100
AcDbEntity
  8
중심선
100
AcDbHatch
 10
0.0
 20
0.0
 30
0.0
210
0.0
220
0.0
230
1.0
  2
SOLID
 70
     1
 71
     0
 91
        1
 92
        0
 93
        6
 72
     3
 10
10.66255478533968
 20
-39.99892507132738
 11
3.960054785062285
 21
1.540882976769353E-10
 40
0.3939339440162626
 50
17.09539180608436
 51
320.0019657685081
 73
     0
 72
     1
 10
12.34555444104027
 20
-38.58681907591441
 11
14.65085631474134
 21
-36.65249236586646
 72
     3
 10
10.66255478528683
 20
-39.99892507127625
 11
6.600054785286826
 21
-1.278976924368180E-13
 40
0.6363583540795983
 50
39.99873849337411
 51
368.4976242363724
 73
     1
 72
     1
 10
17.08788727718744
 20
-39.03892507120613
 11
9.34262209212278
 21
-39.03892507120613
 72
     1
 10
9.342622092122781
 20
-39.03892507120613
 11
9.342597047676819
 21
-40.95892507120602
 72
     1
 10
9.342597047676819
 20
-40.95892507120602
 11
13.78397681714886
 21
-40.95892507120599
 97
        0
 75
     0
 76
     1
 98
        1
 10
-3.175000000000063
 20
0.0
  0
DIMENSION
  5
DE
330
1F
100
AcDbEntity
  8
치수문자_일반주서
100
AcDbDimension
  2
_D
 10
-57.83250000000001
 20
-9.523925071276162
 30
0.0
 11
-57.83250000000005
 21
0.0010749287239009
 31
0.0
 70
   160
  1
%%c<>
 71
     2
 42
19.05000000000001
 52
-270.0
  3
SLDDIMSTYLE0
100
AcDbAlignedDimension
 13
-43.24500000000003
 23
9.5260749287239
 33
0.0
 14
-43.24500000000003
 24
-9.52392507127611
 34
0.0
 50
90.0000000000002
100
AcDbRotatedDimension
1001
ACAD
1000
DSTYLE
1002
{
1070
   171
1070
     6
1070
   273
1070
     7
1002
}
  0
DIMENSION
  5
F3
330
1F
100
AcDbEntity
  8
치수문자_일반주서
100
AcDbDimension
  2
_D_1
 10
11.99999999999996
 20
31.99655326667847
 30
0.0
 11
32.63749999999998
 21
31.99655326667847
 31
0.0
 70
   160
  1
<>
 71
     2
 42
41.27500000000002
  3
SLDDIMSTYLE0
100
AcDbAlignedDimension
 13
53.27499999999998
 23
9.526074928723897
 33
0.0
 14
11.99999999999997
 24
9.523391752799165
 34
0.0
100
AcDbRotatedDimension
1001
ACAD
1000
DSTYLE
1002
{
1070
   171
1070
     6
1070
   273
1070
     7
1002
}
  0
DIMENSION
  5
107
330
1F
100
AcDbEntity
  8
치수문자_일반주서
100
AcDbDimension
  2
_D_2
 10
-45.15000000000003
 20
43.99655326667848
 30
0.0
 11
4.062499999999979
 21
43.99655326667848
 31
0.0
 70
   160
  1
<>
 71
     2
 42
98.42500000000001
  3
SLDDIMSTYLE0
100
AcDbAlignedDimension
 13
53.27499999999998
 23
9.526074928723897
 33
0.0
 14
-45.15000000000003
 24
7.6210749287239
 34
0.0
100
AcDbRotatedDimension
1001
ACAD
1000
DSTYLE
1002
{
1070
   171
1070
     6
1070
   273
1070
     7
1002
}
  0
DIMENSION
  5
11A
330
1F
100
AcDbEntity
  8
치수문자_일반주서
100
AcDbDimension
  2
_D_3
 10
70.71771750696972
 20
-9.523925071276047
 30
0.0
 11
70.71771750696958
 21
30.13007492872396
 31
0.0
 70
   160
  1
%%c<>
 71
     2
 42
19.05
 52
-270.0
  3
SLDDIMSTYLE0
100
AcDbAlignedDimension
 13
53.27499999999998
 23
9.526074928723897
 33
0.0
 14
53.27499999999998
 24
-9.523925071276107
 34
0.0
 50
90.0000000000002
100
AcDbRotatedDimension
1001
ACAD
1000
DSTYLE
1002
{
1070
   171
1070
     6
1070
   273
1070
     7
1002
}
  0
LINE
  5
12D
330
1F
100
AcDbEntity
  8
참조1
100
AcDbLine
 10
88.46348381534564
 20
7.441074928723896
 30
0.0
 11
88.46348381534564
 21
-7.438925071276109
 31
0.0
  0
LINE
  5
12E
330
1F
100
AcDbEntity
  8
참조1
100
AcDbLine
 10
101.1634838153456
 20
5.441074928723896
 30
0.0
 11
88.46348381534564
 21
5.441074928723896
 31
0.0
  0
SOLID
  5
12F
330
1F
100
AcDbEntity
  8
참조1
100
AcDbTrace
 10
88.46348381534564
 20
5.441074928723896
 30
0.0
 11
94.81348381534563
 21
4.425074928723896
 31
0.0
 12
94.81348381534563
 22
6.457074928723896
 32
0.0
 13
94.81348381534563
 23
6.457074928723896
 33
0.0
  0
LINE
  5
130
330
1F
100
AcDbEntity
  8
참조1
100
AcDbLine
 10
101.1634838153456
 20
-5.438925071276109
 30
0.0
 11
88.46348381534564
 21
-5.438925071276109
 31
0.0
  0
SOLID
  5
131
330
1F
100
AcDbEntity
  8
참조1
100
AcDbTrace
 10
88.46348381534564
 20
-5.438925071276109
 30
0.0
 11
94.81348381534563
 21
-6.454925071276109
 31
0.0
 12
94.81348381534563
 22
-4.422925071276109
 32
0.0
 13
94.81348381534563
 23
-4.422925071276109
 33
0.0
  0
MTEXT
  5
132
330
1F
100
AcDbEntity
  8
참조1
100
AcDbMText
 10
97.8609739078159
 20
10.98929157337383
 30
0.0
 40
3.5
 41
0.0
 71
     1
 72
     1
  1
A
  7
SLDTEXTSTYLE0
 73
     1
 44
1.0
  0
MTEXT
  5
133
330
1F
100
AcDbEntity
  8
참조1
100
AcDbMText
 10
97.8609739078159
 20
0.1092915733738251
 30
0.0
 40
3.5
 41
0.0
 71
     1
 72
     1
  1
A
  7
SLDTEXTSTYLE0
 73
     1
 44
1.0
  0
INSERT
  5
13A
330
1F
100
AcDbEntity
  8
해칭선
100
AcDbBlockReference
  2
SW_DOWELSYMBOL_0
 10
0.0
 20
0.0
 30
0.0
  0
LINE
  5
193
330
1F
100
AcDbEntity
  8
외형선
  6
Continuous
370
    15
100
AcDbLine
 10
-25.14432500000001
 20
7.621074928723893
 30
0.0
 11
-13.561925
 21
7.621074928723893
 31
0.0
  0
LINE
  5
194
330
1F
100
AcDbEntity
  8
외형선
  6
Continuous
370
    15
100
AcDbLine
 10
-25.14432500000001
 20
7.621074928723878
 30
0.0
 11
-27.04932500000015
 21
9.526074928723908
 31
0.0
  0
LINE
  5
195
330
1F
100
AcDbEntity
  8
외형선
  6
Continuous
370
    15
100
AcDbLine
 10
-13.561925
 20
7.621074928723878
 30
0.0
 11
-11.65692500000002
 21
9.526074928723908
 31
0.0
  0
LINE
  5
197
330
1F
100
AcDbEntity
  8
외형선
  6
Continuous
370
    15
100
AcDbLine
 10
-27.04932500000013
 20
9.526074928723894
 30
0.0
 11
-43.24500000000003
 21
9.526074928723894
 31
0.0
  0
ENDSEC
  0
SECTION
  2
OBJECTS
  0
DICTIONARY
  5
C
330
0
100
AcDbDictionary
281
     1
  3
ACAD_GROUP
350
D
  3
ACAD_IMAGE_VARS
350
15E
  3
ACAD_LAYOUT
350
1A
  3
ACAD_MLINESTYLE
350
17
  3
ACAD_PLOTSETTINGS
350
19
  3
ACAD_PLOTSTYLENAME
350
E
  3
ACAD_SCALELIST
350
47
  3
APPDATA
350
15C
  3
DWGPROPS
350
1E9
  0
DICTIONARY
  5
18A
330
2
100
AcDbDictionary
280
     1
281
     1
  3
ACAD_LAYERSTATES
360
18B
  0
DICTIONARY
  5
D
102
{ACAD_REACTORS
330
C
102
}
330
C
100
AcDbDictionary
281
     1
  0
RASTERVARIABLES
  5
15E
102
{ACAD_REACTORS
330
C
102
}
330
C
100
AcDbRasterVariables
 90
        0
 70
     1
 71
     1
 72
     1
  0
DICTIONARY
  5
1A
102
{ACAD_REACTORS
330
C
102
}
330
C
100
AcDbDictionary
281
     1
  3
Layout1
350
1E
  3
Layout2
350
26
  3
Model
350
22
  0
DICTIONARY
  5
17
102
{ACAD_REACTORS
330
C
102
}
330
C
100
AcDbDictionary
281
     1
  3
Standard
350
18
  0
DICTIONARY
  5
19
102
{ACAD_REACTORS
330
C
102
}
330
C
100
AcDbDictionary
281
     1
  0
ACDBDICTIONARYWDFLT
  5
E
102
{ACAD_REACTORS
330
C
102
}
330
C
100
AcDbDictionary
281
     1
  3
Normal
350
F
100
AcDbDictionaryWithDefault
340
F
  0
DICTIONARY
  5
47
102
{ACAD_REACTORS
330
C
102
}
330
C
100
AcDbDictionary
281
     1
  3
A0
350
48
  3
A1
350
49
  3
A2
350
4A
  3
A3
350
4B
  3
A4
350
4C
  3
A5
350
4D
  3
A6
350
4E
  3
A7
350
4F
  3
A8
350
50
  3
A9
350
51
  3
B0
350
52
  3
B1
350
53
  3
B2
350
54
  3
B3
350
55
  3
B4
350
56
  3
B5
350
57
  3
B6
350
58
  3
B7
350
59
  3
B8
350
5A
  3
B9
350
5B
  3
C0
350
5C
  3
C1
350
5D
  3
C2
350
5E
  3
C3
350
5F
  3
C4
350
60
  3
C5
350
61
  3
C6
350
62
  3
C7
350
63
  3
C8
350
64
  3
C9
350
65
  3
D0
350
66
  3
D1
350
67
  3
D2
350
68
  0
DICTIONARY
  5
15C
102
{ACAD_REACTORS
330
C
102
}
330
C
100
AcDbDictionary
281
     1
  0
XRECORD
  5
1E9
102
{ACAD_REACTORS
330
C
102
}
330
C
100
AcDbXrecord
280
     1
  1
DWGPROPS COOKIE
  2

  3

  4

  6

  7

  8
12016016
  9

300
=
301
=
302
=
303
=
304
=
305
=
306
=
307
=
308
=
309
=
 40
0.0
 41
2458323.068438831
 42
2458330.138159352
  1

 90
        0
  0
DICTIONARY
  5
18B
102
{ACAD_REACTORS
330
18A
102
}
330
18A
100
AcDbDictionary
281
     1
  0
LAYOUT
  5
1E
102
{ACAD_REACTORS
330
1A
102
}
330
1A
100
AcDbPlotSettings
  1

  2
none_device
  4

  6

 40
0.0
 41
0.0
 42
0.0
 43
0.0
 44
0.0
 45
0.0
 46
0.0
 47
0.0
 48
0.0
 49
0.0
140
0.0
141
0.0
142
1.0
143
1.0
 70
   688
 72
     1
 73
     0
 74
     5
  7

 75
    16
147
1.0
148
0.0
149
0.0
100
AcDbLayout
  1
Layout1
 70
     1
 71
     1
 10
0.0
 20
0.0
 11
420.0
 21
297.0
 12
0.0
 22
0.0
 32
0.0
 14
1.000000000000000E+20
 24
1.000000000000000E+20
 34
1.000000000000000E+20
 15
-1.000000000000000E+20
 25
-1.000000000000000E+20
 35
-1.000000000000000E+20
146
0.0
 13
0.0
 23
0.0
 33
0.0
 16
1.0
 26
0.0
 36
0.0
 17
0.0
 27
1.0
 37
0.0
 76
     0
330
1B
  0
LAYOUT
  5
26
102
{ACAD_REACTORS
330
1A
102
}
330
1A
100
AcDbPlotSettings
  1

  2
none_device
  4

  6

 40
0.0
 41
0.0
 42
0.0
 43
0.0
 44
0.0
 45
0.0
 46
0.0
 47
0.0
 48
0.0
 49
0.0
140
0.0
141
0.0
142
1.0
143
1.0
 70
   688
 72
     1
 73
     0
 74
     5
  7

 75
    16
147
1.0
148
0.0
149
0.0
100
AcDbLayout
  1
Layout2
 70
     1
 71
     2
 10
0.0
 20
0.0
 11
0.0
 21
0.0
 12
0.0
 22
0.0
 32
0.0
 14
0.0
 24
0.0
 34
0.0
 15
0.0
 25
0.0
 35
0.0
146
0.0
 13
0.0
 23
0.0
 33
0.0
 16
1.0
 26
0.0
 36
0.0
 17
0.0
 27
1.0
 37
0.0
 76
     0
330
23
  0
LAYOUT
  5
22
102
{ACAD_REACTORS
330
1A
102
}
330
1A
100
AcDbPlotSettings
  1

  2
none_device
  4
ANSI_A_(11.00_x_8.50_Inches)
  6

 40
6.35
 41
19.05
 42
6.35000508
 43
19.05000254
 44
279.4
 45
215.9
 46
53.41387424044488
 47
87.083128808136
 48
0.0
 49
0.0
140
0.0
141
0.0
142
0.035109169334301
143
1.0
 70
  1696
 72
     0
 73
     0
 74
     0
  7

 75
     0
147
0.0235690232323232
148
0.0
149
0.0
100
AcDbLayout
  1
Model
 70
     1
 71
     0
 10
0.0
 20
0.0
 11
420.0
 21
297.0
 12
0.0
 22
0.0
 32
0.0
 14
-62.2075000000001
 24
-49.97073246008785
 34
0.0
 15
101.1634838153456
 25
48.37155326667848
 35
0.0
146
0.0
 13
0.0
 23
0.0
 33
0.0
 16
1.0
 26
0.0
 36
0.0
 17
0.0
 27
1.0
 37
0.0
 76
     0
330
1F
331
29
  0
MLINESTYLE
  5
18
102
{ACAD_REACTORS
330
17
102
}
330
17
100
AcDbMlineStyle
  2
Standard
 70
     0
  3

 62
   256
 51
90.0
 52
90.0
 71
     2
 49
0.5
 62
   256
  6
BYLAYER
 49
-0.5
 62
   256
  6
BYLAYER
  0
ACDBPLACEHOLDER
  5
F
102
{ACAD_REACTORS
330
E
102
}
330
E
  0
SCALE
  5
48
102
{ACAD_REACTORS
330
47
102
}
330
47
100
AcDbScale
 70
     0
300
1:1
140
1.0
141
1.0
290
     1
  0
SCALE
  5
49
102
{ACAD_REACTORS
330
47
102
}
330
47
100
AcDbScale
 70
     0
300
1:2
140
1.0
141
2.0
290
     0
  0
SCALE
  5
4A
102
{ACAD_REACTORS
330
47
102
}
330
47
100
AcDbScale
 70
     0
300
1:4
140
1.0
141
4.0
290
     0
  0
SCALE
  5
4B
102
{ACAD_REACTORS
330
47
102
}
330
47
100
AcDbScale
 70
     0
300
1:5
140
1.0
141
5.0
290
     0
  0
SCALE
  5
4C
102
{ACAD_REACTORS
330
47
102
}
330
47
100
AcDbScale
 70
     0
300
1:8
140
1.0
141
8.0
290
     0
  0
SCALE
  5
4D
102
{ACAD_REACTORS
330
47
102
}
330
47
100
AcDbScale
 70
     0
300
1:10
140
1.0
141
10.0
290
     0
  0
SCALE
  5
4E
102
{ACAD_REACTORS
330
47
102
}
330
47
100
AcDbScale
 70
     0
300
1:16
140
1.0
141
16.0
290
     0
  0
SCALE
  5
4F
102
{ACAD_REACTORS
330
47
102
}
330
47
100
AcDbScale
 70
     0
300
1:20
140
1.0
141
20.0
290
     0
  0
SCALE
  5
50
102
{ACAD_REACTORS
330
47
102
}
330
47
100
AcDbScale
 70
     0
300
1:30
140
1.0
141
30.0
290
     0
  0
SCALE
  5
51
102
{ACAD_REACTORS
330
47
102
}
330
47
100
AcDbScale
 70
     0
300
1:40
140
1.0
141
40.0
290
     0
  0
SCALE
  5
52
102
{ACAD_REACTORS
330
47
102
}
330
47
100
AcDbScale
 70
     0
300
1:50
140
1.0
141
50.0
290
     0
  0
SCALE
  5
53
102
{ACAD_REACTORS
330
47
102
}
330
47
100
AcDbScale
 70
     0
300
1:100
140
1.0
141
100.0
290
     0
  0
SCALE
  5
54
102
{ACAD_REACTORS
330
47
102
}
330
47
100
AcDbScale
 70
     0
300
2:1
140
2.0
141
1.0
290
     0
  0
SCALE
  5
55
102
{ACAD_REACTORS
330
47
102
}
330
47
100
AcDbScale
 70
     0
300
4:1
140
4.0
141
1.0
290
     0
  0
SCALE
  5
56
102
{ACAD_REACTORS
330
47
102
}
330
47
100
AcDbScale
 70
     0
300
8:1
140
8.0
141
1.0
290
     0
  0
SCALE
  5
57
102
{ACAD_REACTORS
330
47
102
}
330
47
100
AcDbScale
 70
     0
300
10:1
140
10.0
141
1.0
290
     0
  0
SCALE
  5
58
102
{ACAD_REACTORS
330
47
102
}
330
47
100
AcDbScale
 70
     0
300
100:1
140
100.0
141
1.0
290
     0
  0
SCALE
  5
59
102
{ACAD_REACTORS
330
47
102
}
330
47
100
AcDbScale
 70
     0
300
1/128" = 1'-0"
140
0.0078125
141
12.0
290
     0
  0
SCALE
  5
5A
102
{ACAD_REACTORS
330
47
102
}
330
47
100
AcDbScale
 70
     0
300
1/64" = 1'-0"
140
0.015625
141
12.0
290
     0
  0
SCALE
  5
5B
102
{ACAD_REACTORS
330
47
102
}
330
47
100
AcDbScale
 70
     0
300
1/32" = 1'-0"
140
0.03125
141
12.0
290
     0
  0
SCALE
  5
5C
102
{ACAD_REACTORS
330
47
102
}
330
47
100
AcDbScale
 70
     0
300
1/16" = 1'-0"
140
0.0625
141
12.0
290
     0
  0
SCALE
  5
5D
102
{ACAD_REACTORS
330
47
102
}
330
47
100
AcDbScale
 70
     0
300
3/32" = 1'-0"
140
0.09375
141
12.0
290
     0
  0
SCALE
  5
5E
102
{ACAD_REACTORS
330
47
102
}
330
47
100
AcDbScale
 70
     0
300
1/8" = 1'-0"
140
0.125
141
12.0
290
     0
  0
SCALE
  5
5F
102
{ACAD_REACTORS
330
47
102
}
330
47
100
AcDbScale
 70
     0
300
3/16" = 1'-0"
140
0.1875
141
12.0
290
     0
  0
SCALE
  5
60
102
{ACAD_REACTORS
330
47
102
}
330
47
100
AcDbScale
 70
     0
300
1/4" = 1'-0"
140
0.25
141
12.0
290
     0
  0
SCALE
  5
61
102
{ACAD_REACTORS
330
47
102
}
330
47
100
AcDbScale
 70
     0
300
3/8" = 1'-0"
140
0.375
141
12.0
290
     0
  0
SCALE
  5
62
102
{ACAD_REACTORS
330
47
102
}
330
47
100
AcDbScale
 70
     0
300
1/2" = 1'-0"
140
0.5
141
12.0
290
     0
  0
SCALE
  5
63
102
{ACAD_REACTORS
330
47
102
}
330
47
100
AcDbScale
 70
     0
300
3/4" = 1'-0"
140
0.75
141
12.0
290
     0
  0
SCALE
  5
64
102
{ACAD_REACTORS
330
47
102
}
330
47
100
AcDbScale
 70
     0
300
1" = 1'-0"
140
1.0
141
12.0
290
     0
  0
SCALE
  5
65
102
{ACAD_REACTORS
330
47
102
}
330
47
100
AcDbScale
 70
     0
300
1-1/2" = 1'-0"
140
1.5
141
12.0
290
     0
  0
SCALE
  5
66
102
{ACAD_REACTORS
330
47
102
}
330
47
100
AcDbScale
 70
     0
300
3" = 1'-0"
140
3.0
141
12.0
290
     0
  0
SCALE
  5
67
102
{ACAD_REACTORS
330
47
102
}
330
47
100
AcDbScale
 70
     0
300
6" = 1'-0"
140
6.0
141
12.0
290
     0
  0
SCALE
  5
68
102
{ACAD_REACTORS
330
47
102
}
330
47
100
AcDbScale
 70
     0
300
1'-0" = 1'-0"
140
12.0
141
12.0
290
     0
  0
ENDSEC
  0
EOF
