  0
SECTION
  2
HEADER
  9
$ACADVER
  1
AC1015
  9
$ACADMAINTVER
 70
     6
  9
$DWGCODEPAGE
  3
ANSI_949
  9
$INSBASE
 10
0.0
 20
0.0
 30
0.0
  9
$EXTMIN
 10
-59.35000000000002
 20
-49.97073246008785
 30
0.0
  9
$EXTMAX
 10
101.1634838153456
 20
46.79563796711784
 30
0.0
  9
$LIMMIN
 10
0.0
 20
0.0
  9
$LIMMAX
 10
420.0
 20
297.0
  9
$ORTHOMODE
 70
     0
  9
$REGENMODE
 70
     1
  9
$FILLMODE
 70
     1
  9
$QTEXTMODE
 70
     0
  9
$MIRRTEXT
 70
     1
  9
$LTSCALE
 40
1.0
  9
$ATTMODE
 70
     1
  9
$TEXTSIZE
 40
3.5
  9
$TRACEWID
 40
1.0
  9
$TEXTSTYLE
  7
Standard
  9
$CLAYER
  8
0
  9
$CELTYPE
  6
ByLayer
  9
$CECOLOR
 62
   256
  9
$CELTSCALE
 40
1.0
  9
$DISPSILH
 70
     0
  9
$DIMSCALE
 40
1.0
  9
$DIMASZ
 40
3.302
  9
$DIMEXO
 40
1.0
  9
$DIMDLI
 40
3.75
  9
$DIMRND
 40
0.0
  9
$DIMDLE
 40
0.0
  9
$DIMEXE
 40
1.0
  9
$DIMTP
 40
0.0
  9
$DIMTM
 40
0.0
  9
$DIMTXT
 40
3.5
  9
$DIMCEN
 40
2.5
  9
$DIMTSZ
 40
0.0
  9
$DIMTOL
 70
     0
  9
$DIMLIM
 70
     0
  9
$DIMTIH
 70
     1
  9
$DIMTOH
 70
     1
  9
$DIMSE1
 70
     0
  9
$DIMSE2
 70
     0
  9
$DIMTAD
 70
     1
  9
$DIMZIN
 70
     0
  9
$DIMBLK
  1

  9
$DIMASO
 70
     1
  9
$DIMSHO
 70
     1
  9
$DIMPOST
  1

  9
$DIMAPOST
  1

  9
$DIMALT
 70
     0
  9
$DIMALTD
 70
     3
  9
$DIMALTF
 40
0.0393700787401575
  9
$DIMLFAC
 40
1.0
  9
$DIMTOFL
 70
     1
  9
$DIMTVP
 40
0.0
  9
$DIMTIX
 70
     0
  9
$DIMSOXD
 70
     0
  9
$DIMSAH
 70
     0
  9
$DIMBLK1
  1

  9
$DIMBLK2
  1

  9
$DIMSTYLE
  2
ISO-25
  9
$DIMCLRD
 70
     0
  9
$DIMCLRE
 70
     0
  9
$DIMCLRT
 70
     0
  9
$DIMTFAC
 40
1.0
  9
$DIMGAP
 40
1.524
  9
$DIMJUST
 70
     0
  9
$DIMSD1
 70
     0
  9
$DIMSD2
 70
     0
  9
$DIMTOLJ
 70
     0
  9
$DIMTZIN
 70
     0
  9
$DIMALTZ
 70
     0
  9
$DIMALTTZ
 70
     0
  9
$DIMUPT
 70
     0
  9
$DIMDEC
 70
     2
  9
$DIMTDEC
 70
     2
  9
$DIMALTU
 70
     2
  9
$DIMALTTD
 70
     3
  9
$DIMTXSTY
  7
Standard
  9
$DIMAUNIT
 70
     0
  9
$DIMADEC
 70
     2
  9
$DIMALTRND
 40
0.0
  9
$DIMAZIN
 70
     0
  9
$DIMDSEP
 70
    44
  9
$DIMATFIT
 70
     3
  9
$DIMFRAC
 70
     0
  9
$DIMLDRBLK
  1

  9
$DIMLUNIT
 70
     2
  9
$DIMLWD
 70
    -2
  9
$DIMLWE
 70
    -2
  9
$DIMTMOVE
 70
     0
  9
$LUNITS
 70
     2
  9
$LUPREC
 70
     2
  9
$SKETCHINC
 40
1.0
  9
$FILLETRAD
 40
10.0
  9
$AUNITS
 70
     0
  9
$AUPREC
 70
     2
  9
$MENU
  1
.
  9
$ELEVATION
 40
0.0
  9
$PELEVATION
 40
0.0
  9
$THICKNESS
 40
0.0
  9
$LIMCHECK
 70
     0
  9
$CHAMFERA
 40
0.0
  9
$CHAMFERB
 40
0.0
  9
$CHAMFERC
 40
0.0
  9
$CHAMFERD
 40
0.0
  9
$SKPOLY
 70
     0
  9
$TDCREATE
 40
2458323.443227419
  9
$TDUCREATE
 40
2458323.068227419
  9
$TDUPDATE
 40
2458330.513202894
  9
$TDUUPDATE
 40
2458330.138202894
  9
$TDINDWG
 40
0.0005264931
  9
$TDUSRTIMER
 40
2458330.138164213
  9
$USRTIMER
 70
     1
  9
$ANGBASE
 50
0.0
  9
$ANGDIR
 70
     0
  9
$PDMODE
 70
     0
  9
$PDSIZE
 40
-1.0
  9
$PLINEWID
 40
0.0
  9
$SPLFRAME
 70
     0
  9
$SPLINETYPE
 70
     6
  9
$SPLINESEGS
 70
     8
  9
$HANDSEED
  5
324
  9
$SURFTAB1
 70
     6
  9
$SURFTAB2
 70
     6
  9
$SURFTYPE
 70
     6
  9
$SURFU
 70
     6
  9
$SURFV
 70
     6
  9
$UCSBASE
  2

  9
$UCSNAME
  2

  9
$UCSORG
 10
0.0
 20
0.0
 30
0.0
  9
$UCSXDIR
 10
1.0
 20
0.0
 30
0.0
  9
$UCSYDIR
 10
0.0
 20
1.0
 30
0.0
  9
$UCSORTHOREF
  2

  9
$UCSORTHOVIEW
 70
     0
  9
$UCSORGTOP
 10
0.0
 20
0.0
 30
0.0
  9
$UCSORGBOTTOM
 10
0.0
 20
0.0
 30
0.0
  9
$UCSORGLEFT
 10
0.0
 20
0.0
 30
0.0
  9
$UCSORGRIGHT
 10
0.0
 20
0.0
 30
0.0
  9
$UCSORGFRONT
 10
0.0
 20
0.0
 30
0.0
  9
$UCSORGBACK
 10
0.0
 20
0.0
 30
0.0
  9
$PUCSBASE
  2

  9
$PUCSNAME
  2

  9
$PUCSORG
 10
0.0
 20
0.0
 30
0.0
  9
$PUCSXDIR
 10
1.0
 20
0.0
 30
0.0
  9
$PUCSYDIR
 10
0.0
 20
1.0
 30
0.0
  9
$PUCSORTHOREF
  2

  9
$PUCSORTHOVIEW
 70
     0
  9
$PUCSORGTOP
 10
0.0
 20
0.0
 30
0.0
  9
$PUCSORGBOTTOM
 10
0.0
 20
0.0
 30
0.0
  9
$PUCSORGLEFT
 10
0.0
 20
0.0
 30
0.0
  9
$PUCSORGRIGHT
 10
0.0
 20
0.0
 30
0.0
  9
$PUCSORGFRONT
 10
0.0
 20
0.0
 30
0.0
  9
$PUCSORGBACK
 10
0.0
 20
0.0
 30
0.0
  9
$USERI1
 70
     0
  9
$USERI2
 70
     0
  9
$USERI3
 70
     0
  9
$USERI4
 70
     0
  9
$USERI5
 70
     0
  9
$USERR1
 40
0.0
  9
$USERR2
 40
0.0
  9
$USERR3
 40
0.0
  9
$USERR4
 40
0.0
  9
$USERR5
 40
0.0
  9
$WORLDVIEW
 70
     1
  9
$SHADEDGE
 70
     3
  9
$SHADEDIF
 70
    70
  9
$TILEMODE
 70
     1
  9
$MAXACTVP
 70
    64
  9
$PINSBASE
 10
0.0
 20
0.0
 30
0.0
  9
$PLIMCHECK
 70
     0
  9
$PEXTMIN
 10
1.000000000000000E+20
 20
1.000000000000000E+20
 30
1.000000000000000E+20
  9
$PEXTMAX
 10
-1.000000000000000E+20
 20
-1.000000000000000E+20
 30
-1.000000000000000E+20
  9
$PLIMMIN
 10
0.0
 20
0.0
  9
$PLIMMAX
 10
0.0
 20
0.0
  9
$UNITMODE
 70
     0
  9
$VISRETAIN
 70
     1
  9
$PLINEGEN
 70
     0
  9
$PSLTSCALE
 70
     1
  9
$TREEDEPTH
 70
  3020
  9
$CMLSTYLE
  2
Standard
  9
$CMLJUST
 70
     0
  9
$CMLSCALE
 40
20.0
  9
$PROXYGRAPHICS
 70
     1
  9
$MEASUREMENT
 70
     1
  9
$CELWEIGHT
370
    -1
  9
$ENDCAPS
280
     0
  9
$JOINSTYLE
280
     0
  9
$LWDISPLAY
290
     1
  9
$INSUNITS
 70
     4
  9
$HYPERLINKBASE
  1

  9
$STYLESHEET
  1

  9
$XEDIT
290
     1
  9
$CEPSNTYPE
380
     0
  9
$PSTYLEMODE
290
     1
  9
$FINGERPRINTGUID
  2
{17808B66-53D8-4107-869E-605969E786A7}
  9
$VERSIONGUID
  2
{FAEB1C32-E019-11D5-929B-00C0DF256EC4}
  9
$EXTNAMES
290
     1
  9
$PSVPSCALE
 40
0.0
  9
$OLESTARTUP
290
     0
  0
ENDSEC
  0
SECTION
  2
CLASSES
  0
CLASS
  1
ACDBDICTIONARYWDFLT
  2
AcDbDictionaryWithDefault
  3
ObjectDBX Classes
 90
        0
280
     0
281
     0
  0
CLASS
  1
VISUALSTYLE
  2
AcDbVisualStyle
  3
ObjectDBX Classes
 90
     4095
280
     0
281
     0
  0
CLASS
  1
MATERIAL
  2
AcDbMaterial
  3
ObjectDBX Classes
 90
     1153
280
     0
281
     0
  0
CLASS
  1
SCALE
  2
AcDbScale
  3
ObjectDBX Classes
 90
     1153
280
     0
281
     0
  0
CLASS
  1
SUN
  2
AcDbSun
  3
SCENEOE
 90
     1153
280
     0
281
     0
  0
CLASS
  1
ACDBPLACEHOLDER
  2
AcDbPlaceHolder
  3
ObjectDBX Classes
 90
        0
280
     0
281
     0
  0
CLASS
  1
LAYOUT
  2
AcDbLayout
  3
ObjectDBX Classes
 90
        0
280
     0
281
     0
  0
CLASS
  1
TABLESTYLE
  2
AcDbTableStyle
  3
ObjectDBX Classes
 90
     4095
280
     0
281
     0
  0
CLASS
  1
MLEADERSTYLE
  2
AcDbMLeaderStyle
  3
ACDB_MLEADERSTYLE_CLASS
 90
     4095
280
     0
281
     0
  0
CLASS
  1
RASTERVARIABLES
  2
AcDbRasterVariables
  3
ISM
 90
        0
280
     0
281
     0
  0
ENDSEC
  0
SECTION
  2
TABLES
  0
TABLE
  2
VPORT
  5
8
330
0
100
AcDbSymbolTable
 70
     1
  0
VPORT
  5
29
330
8
100
AcDbSymbolTableRecord
100
AcDbViewportTableRecord
  2
*Active
 70
     0
 10
0.0
 20
0.0
 11
1.0
 21
1.0
 12
-4.195694765430119
 22
24.22558029268491
 13
0.0
 23
0.0
 14
10.0
 24
10.0
 15
10.0
 25
10.0
 16
0.0
 26
0.0
 36
1.0
 17
0.0
 27
0.0
 37
0.0
 40
155.2375058110656
 41
1.632093933463797
 42
50.0
 43
0.0
 44
0.0
 50
0.0
 51
0.0
 71
    16
 72
  2000
 73
     1
 74
     3
 75
     0
 76
     0
 77
     0
 78
     0
281
     0
 65
     1
110
0.0
120
0.0
130
0.0
111
1.0
121
0.0
131
0.0
112
0.0
122
1.0
132
0.0
 79
     0
146
0.0
  0
ENDTAB
  0
TABLE
  2
LTYPE
  5
5
330
0
100
AcDbSymbolTable
 70
     6
  0
LTYPE
  5
14
330
5
100
AcDbSymbolTableRecord
100
AcDbLinetypeTableRecord
  2
ByBlock
 70
     0
  3

 72
    65
 73
     0
 40
0.0
  0
LTYPE
  5
15
330
5
100
AcDbSymbolTableRecord
100
AcDbLinetypeTableRecord
  2
ByLayer
 70
     0
  3

 72
    65
 73
     0
 40
0.0
  0
LTYPE
  5
16
330
5
100
AcDbSymbolTableRecord
100
AcDbLinetypeTableRecord
  2
Continuous
 70
     0
  3
Solid line
 72
    65
 73
     0
 40
0.0
  0
LTYPE
  5
6A
330
5
100
AcDbSymbolTableRecord
100
AcDbLinetypeTableRecord
  2
HIDDEN
 70
     0
  3
Hidden __ __ __ __ __ __ __ __ __ __ __ __ __ __
 72
    65
 73
     2
 40
1.905
 49
1.27
 74
     0
 49
-0.635
 74
     0
  0
LTYPE
  5
6B
330
5
100
AcDbSymbolTableRecord
100
AcDbLinetypeTableRecord
  2
PHANTOM
 70
     0
  3
Phantom ______  __  __  ______  __  __  ______
 72
    65
 73
     6
 40
12.7
 49
6.35
 74
     0
 49
-1.27
 74
     0
 49
1.27
 74
     0
 49
-1.27
 74
     0
 49
1.27
 74
     0
 49
-1.27
 74
     0
  0
LTYPE
  5
6C
330
5
100
AcDbSymbolTableRecord
100
AcDbLinetypeTableRecord
  2
CENTER
 70
     0
  3
Center ____ _ ____ _ ____ _ ____ _ ____ _ ____
 72
    65
 73
     4
 40
10.16
 49
6.35
 74
     0
 49
-1.27
 74
     0
 49
1.27
 74
     0
 49
-1.27
 74
     0
  0
LTYPE
  5
6D
330
5
100
AcDbSymbolTableRecord
100
AcDbLinetypeTableRecord
  2
CENTERX2
 70
     0
  3
Center (2x) ________  __  ________  __  _____
 72
    65
 73
     4
 40
20.32
 49
12.7
 74
     0
 49
-2.54
 74
     0
 49
2.54
 74
     0
 49
-2.54
 74
     0
  0
LTYPE
  5
6E
330
5
100
AcDbSymbolTableRecord
100
AcDbLinetypeTableRecord
  2
DOT2
 70
     0
  3
Dot (.5x) ........................................
 72
    65
 73
     2
 40
0.635
 49
0.0
 74
     0
 49
-0.635
 74
     0
  0
ENDTAB
  0
TABLE
  2
LAYER
  5
2
102
{ACAD_XDICTIONARY
360
211
102
}
330
0
100
AcDbSymbolTable
 70
    18
  0
LAYER
  5
10
330
2
100
AcDbSymbolTableRecord
100
AcDbLayerTableRecord
  2
0
 70
     0
 62
     7
  6
Continuous
370
    -3
390
F
  0
LAYER
  5
6F
330
2
100
AcDbSymbolTableRecord
100
AcDbLayerTableRecord
  2
FORMAT
 70
     0
 62
     2
  6
Continuous
370
    -3
390
F
  0
LAYER
  5
70
330
2
100
AcDbSymbolTableRecord
100
AcDbLayerTableRecord
  2
외형선
 70
     0
 62
     4
  6
Continuous
370
    30
390
F
  0
LAYER
  5
71
330
2
100
AcDbSymbolTableRecord
100
AcDbLayerTableRecord
  2
숨은선
 70
     0
 62
     2
  6
HIDDEN
370
    15
390
F
  0
LAYER
  5
72
330
2
100
AcDbSymbolTableRecord
100
AcDbLayerTableRecord
  2
중심선
 70
     0
 62
     1
  6
CENTERX2
370
    -3
390
F
  0
LAYER
  5
73
330
2
100
AcDbSymbolTableRecord
100
AcDbLayerTableRecord
  2
파단선
 70
     0
 62
     4
  6
Continuous
370
    -3
390
F
  0
LAYER
  5
74
330
2
100
AcDbSymbolTableRecord
100
AcDbLayerTableRecord
  2
해칭선
 70
     0
 62
   100
  6
Continuous
370
    -3
390
F
  0
LAYER
  5
75
330
2
100
AcDbSymbolTableRecord
100
AcDbLayerTableRecord
  2
가는실선
 70
     0
 62
     4
  6
Continuous
370
    -3
390
F
  0
LAYER
  5
76
330
2
100
AcDbSymbolTableRecord
100
AcDbLayerTableRecord
  2
치수_보조선
 70
     0
 62
     4
  6
Continuous
370
    -3
390
F
  0
LAYER
  5
77
330
2
100
AcDbSymbolTableRecord
100
AcDbLayerTableRecord
  2
치수문자_일반주서
 70
     0
 62
     7
  6
Continuous
370
    15
390
F
  0
LAYER
  5
78
330
2
100
AcDbSymbolTableRecord
100
AcDbLayerTableRecord
  2
개별주서
 70
     0
 62
   100
  6
Continuous
370
    30
390
F
  0
LAYER
  5
79
330
2
100
AcDbSymbolTableRecord
100
AcDbLayerTableRecord
  2
중간선
 70
     0
 62
     2
  6
Continuous
370
    15
390
F
  0
LAYER
  5
7A
330
2
100
AcDbSymbolTableRecord
100
AcDbLayerTableRecord
  2
윤곽선
 70
     0
 62
     3
  6
Continuous
370
    40
390
F
  0
LAYER
  5
7B
330
2
100
AcDbSymbolTableRecord
100
AcDbLayerTableRecord
  2
중심마크
 70
     0
 62
   100
  6
Continuous
370
    30
390
F
  0
LAYER
  5
7C
330
2
100
AcDbSymbolTableRecord
100
AcDbLayerTableRecord
  2
가상선
 70
     0
 62
     4
  6
PHANTOM
370
    -3
390
F
  0
LAYER
  5
7D
330
2
100
AcDbSymbolTableRecord
100
AcDbLayerTableRecord
  2
특수지정선
 70
     0
 62
     5
  6
CENTERX2
370
    60
390
F
  0
LAYER
  5
7E
330
2
100
AcDbSymbolTableRecord
100
AcDbLayerTableRecord
  2
참조1
 70
     0
 62
    -4
  6
Continuous
370
    -3
390
F
  0
LAYER
  5
162
330
2
100
AcDbSymbolTableRecord
100
AcDbLayerTableRecord
  2
Defpoints
 70
     0
 62
     7
  6
Continuous
290
     0
370
    -3
390
F
  0
ENDTAB
  0
TABLE
  2
STYLE
  5
3
330
0
100
AcDbSymbolTable
 70
     2
  0
STYLE
  5
11
330
3
100
AcDbSymbolTableRecord
100
AcDbTextStyleTableRecord
  2
Standard
 70
     0
 40
0.0
 41
1.0
 50
0.0
 71
     0
 42
3.5
  3
txt
  4

  0
STYLE
  5
94
330
3
100
AcDbSymbolTableRecord
100
AcDbTextStyleTableRecord
  2
SLDTEXTSTYLE0
 70
     0
 40
0.0
 41
0.75
 50
0.0
 71
     0
 42
3.5
  3
TXT
  4

  0
ENDTAB
  0
TABLE
  2
VIEW
  5
6
330
0
100
AcDbSymbolTable
 70
     0
  0
ENDTAB
  0
TABLE
  2
UCS
  5
7
330
0
100
AcDbSymbolTable
 70
     0
  0
ENDTAB
  0
TABLE
  2
APPID
  5
9
330
0
100
AcDbSymbolTable
 70
     1
  0
APPID
  5
12
330
9
100
AcDbSymbolTableRecord
100
AcDbRegAppTableRecord
  2
ACAD
 70
     0
  0
ENDTAB
  0
TABLE
  2
DIMSTYLE
  5
A
330
0
100
AcDbSymbolTable
 70
     3
100
AcDbDimStyleTable
  0
DIMSTYLE
105
27
330
A
100
AcDbSymbolTableRecord
100
AcDbDimStyleTableRecord
  2
ISO-25
 70
     0
 41
2.5
 42
0.625
 43
3.75
 44
1.25
 73
     0
 74
     0
 77
     1
 78
     8
140
2.5
141
2.5
143
0.03937007874016
147
0.625
171
     3
172
     1
178
     0
271
     2
272
     2
274
     3
278
    44
283
     0
284
     8
340
11
  0
DIMSTYLE
105
E1
102
{ACAD_REACTORS
330
E0
330
F5
330
109
330
11C
102
}
330
A
100
AcDbSymbolTableRecord
100
AcDbDimStyleTableRecord
  2
SLDDIMSTYLE0
 70
     0
 41
3.302
 44
0.0
 45
0.000000001
 73
     0
 74
     0
 77
     1
 78
    12
 79
     3
140
3.5
143
0.0393700787401575
147
0.875
148
0.000000001
170
     1
172
     1
173
     1
178
     0
271
     2
272
     2
276
     2
284
    12
289
     0
340
94
  0
DIMSTYLE
105
F6
330
A
100
AcDbSymbolTableRecord
100
AcDbDimStyleTableRecord
  2
SLDDIMSTYLE1
 70
     0
 41
3.302
 44
0.0
 45
0.000000001
 73
     0
 74
     0
 77
     1
 78
    12
 79
     3
140
3.5
143
0.0393700787401575
147
0.875
148
0.000000001
170
     1
173
     1
178
     0
271
     2
272
     2
276
     2
284
    12
340
94
  0
ENDTAB
  0
TABLE
  2
BLOCK_RECORD
  5
1
330
0
100
AcDbSymbolTable
 70
    15
  0
BLOCK_RECORD
  5
1F
330
1
100
AcDbSymbolTableRecord
100
AcDbBlockTableRecord
  2
*Model_Space
340
22
  0
BLOCK_RECORD
  5
1B
330
1
100
AcDbSymbolTableRecord
100
AcDbBlockTableRecord
  2
*Paper_Space
340
1E
  0
BLOCK_RECORD
  5
23
330
1
100
AcDbSymbolTableRecord
100
AcDbBlockTableRecord
  2
*Paper_Space0
340
26
  0
BLOCK_RECORD
  5
7F
330
1
100
AcDbSymbolTableRecord
100
AcDbBlockTableRecord
  2
블럭10
340
0
102
{BLKREFS
331
D9
102
}
  0
BLOCK_RECORD
  5
E2
330
1
100
AcDbSymbolTableRecord
100
AcDbBlockTableRecord
  2
_D
340
0
  0
BLOCK_RECORD
  5
F7
330
1
100
AcDbSymbolTableRecord
100
AcDbBlockTableRecord
  2
_D_1
340
0
  0
BLOCK_RECORD
  5
10A
330
1
100
AcDbSymbolTableRecord
100
AcDbBlockTableRecord
  2
_D_2
340
0
  0
BLOCK_RECORD
  5
11D
330
1
100
AcDbSymbolTableRecord
100
AcDbBlockTableRecord
  2
_D_3
340
0
  0
BLOCK_RECORD
  5
136
330
1
100
AcDbSymbolTableRecord
100
AcDbBlockTableRecord
  2
SW_DOWELSYMBOL_0
340
0
102
{BLKREFS
331
13C
102
}
  0
BLOCK_RECORD
  5
215
330
1
100
AcDbSymbolTableRecord
100
AcDbBlockTableRecord
  2
*D7
340
0
  0
BLOCK_RECORD
  5
221
330
1
100
AcDbSymbolTableRecord
100
AcDbBlockTableRecord
  2
*D8
340
0
  0
BLOCK_RECORD
  5
22D
330
1
100
AcDbSymbolTableRecord
100
AcDbBlockTableRecord
  2
*D9
340
0
  0
BLOCK_RECORD
  5
239
330
1
100
AcDbSymbolTableRecord
100
AcDbBlockTableRecord
  2
*D10
340
0
  0
BLOCK_RECORD
  5
296
330
1
100
AcDbSymbolTableRecord
100
AcDbBlockTableRecord
  2
*D11
340
0
  0
BLOCK_RECORD
  5
2A2
330
1
100
AcDbSymbolTableRecord
100
AcDbBlockTableRecord
  2
*D12
340
0
  0
BLOCK_RECORD
  5
2AE
330
1
100
AcDbSymbolTableRecord
100
AcDbBlockTableRecord
  2
*D13
340
0
  0
BLOCK_RECORD
  5
2BA
330
1
100
AcDbSymbolTableRecord
100
AcDbBlockTableRecord
  2
*D14
340
0
  0
ENDTAB
  0
ENDSEC
  0
SECTION
  2
BLOCKS
  0
BLOCK
  5
20
330
1F
100
AcDbEntity
  8
0
100
AcDbBlockBegin
  2
*Model_Space
 70
     0
 10
0.0
 20
0.0
 30
0.0
  3
*Model_Space
  1
*Model_Space
  0
ENDBLK
  5
21
330
1F
100
AcDbEntity
  8
0
100
AcDbBlockEnd
  0
BLOCK
  5
1C
330
1B
100
AcDbEntity
 67
     1
  8
0
100
AcDbBlockBegin
  2
*Paper_Space
 70
     0
 10
0.0
 20
0.0
 30
0.0
  3
*Paper_Space
  1
*Paper_Space
  0
ENDBLK
  5
1D
330
1B
100
AcDbEntity
 67
     1
  8
0
100
AcDbBlockEnd
  0
BLOCK
  5
24
330
23
100
AcDbEntity
  8
0
100
AcDbBlockBegin
  2
*Paper_Space0
 70
     0
 10
0.0
 20
0.0
 30
0.0
  3
*Paper_Space0
  1
*Paper_Space0
  0
ENDBLK
  5
25
330
23
100
AcDbEntity
  8
0
100
AcDbBlockEnd
  0
BLOCK
  5
80
330
7F
100
AcDbEntity
  8
0
100
AcDbBlockBegin
  2
블럭10
 70
     2
 10
0.0
 20
0.0
 30
0.0
  3
블럭10
  1
블럭10
  0
ELLIPSE
  5
82
330
7F
100
AcDbEntity
  8
중심선
100
AcDbEllipse
 10
20.54032771741204
 20
12.0471743016438
 30
0.0
 11
6.600054785286829
 21
-1.261213355974178E-13
 31
0.0
210
0.0
220
0.0
230
1.0
 40
0.636358354079598
 41
0.9219305317359503
 42
6.513795318482858
  0
ELLIPSE
  5
83
330
7F
100
AcDbEntity
  8
중심선
100
AcDbEllipse
 10
20.54032771746488
 20
12.04717430159265
 30
0.0
 11
3.960054785062283
 21
1.540847449632565E-10
 31
0.0
210
0.0
220
0.0
230
1.0
 40
0.3939339440162632
 41
1.131841032648279
 42
5.62031148352944
  0
LINE
  5
84
330
7F
100
AcDbEntity
  8
중심선
100
AcDbLine
 10
2.268634060543552
 20
16.24717430164393
 30
0.0
 11
5.714909304380834
 21
16.24717430164393
 31
0.0
  0
LINE
  5
85
330
7F
100
AcDbEntity
  8
중심선
100
AcDbLine
 10
5.245725140726316
 20
7.84717430164391
 30
0.0
 11
8.692000384563599
 21
7.84717430164391
 31
0.0
  0
LINE
  5
86
330
7F
100
AcDbEntity
  8
중심선
100
AcDbLine
 10
15.74043728645272
 20
16.24717430164393
 30
0.0
 11
8.692000384563599
 21
7.84717430164391
 31
0.0
  0
LINE
  5
87
330
7F
100
AcDbEntity
  8
중심선
100
AcDbLine
 10
0.1404042013395286
 20
13.71084872107135
 30
0.0
 11
3.58671253028996
 21
13.71088815037384
 31
0.0
  0
LINE
  5
88
330
7F
100
AcDbEntity
  8
중심선
100
AcDbLine
 10
2.750260043222114
 20
10.84717430164391
 30
0.0
 11
6.196535287059397
 21
10.84717430164391
 31
0.0
  0
LINE
  5
89
330
7F
100
AcDbEntity
  8
중심선
100
AcDbLine
 10
12.29416204261559
 20
16.24717430164393
 30
0.0
 11
5.245725140726316
 21
7.84717430164391
 31
0.0
  0
LINE
  5
8A
330
7F
100
AcDbEntity
  8
중심선
100
AcDbLine
 10
10.72767329541681
 20
16.24717430164393
 30
0.0
 11
6.196535287059397
 21
10.84717430164391
 31
0.0
  0
LINE
  5
8B
330
7F
100
AcDbEntity
  8
중심선
100
AcDbLine
 10
7.28139805157953
 20
16.24717430164393
 30
0.0
 11
2.750260043222114
 21
10.84717430164391
 31
0.0
  0
LINE
  5
8C
330
7F
100
AcDbEntity
  8
중심선
100
AcDbLine
 10
5.714909304380834
 20
16.24717430164393
 30
0.0
 11
3.58671253028996
 21
13.71088815037384
 31
0.0
  0
LINE
  5
8D
330
7F
100
AcDbEntity
  8
중심선
100
AcDbLine
 10
2.268634060543552
 20
16.24717430164393
 30
0.0
 11
0.1404042013395286
 21
13.71084872107135
 31
0.0
  0
LINE
  5
8E
330
7F
100
AcDbEntity
  8
중심선
100
AcDbLine
 10
7.28139805157953
 20
16.24717430164393
 30
0.0
 11
10.72767329541681
 21
16.24717430164393
 31
0.0
  0
LINE
  5
8F
330
7F
100
AcDbEntity
  8
중심선
100
AcDbLine
 10
12.29416204261559
 20
16.24717430164393
 30
0.0
 11
15.74043728645272
 21
16.24717430164393
 31
0.0
  0
LINE
  5
90
330
7F
100
AcDbEntity
  8
중심선
100
AcDbLine
 10
19.22036997980202
 20
11.08717430171403
 30
0.0
 11
23.66174974927406
 21
11.08717430171406
 31
0.0
  0
LINE
  5
91
330
7F
100
AcDbEntity
  8
중심선
100
AcDbLine
 10
19.22039502424796
 20
13.00717430171391
 30
0.0
 11
19.22036997980202
 21
11.08717430171403
 31
0.0
  0
LINE
  5
92
330
7F
100
AcDbEntity
  8
중심선
100
AcDbLine
 10
19.22039502424796
 20
13.00717430171391
 30
0.0
 11
26.96566020931264
 21
13.00717430171391
 31
0.0
  0
LINE
  5
93
330
7F
100
AcDbEntity
  8
중심선
100
AcDbLine
 10
22.22332737316547
 20
13.45928029700563
 30
0.0
 11
24.52862924686651
 21
15.39360700705356
 31
0.0
  0
ATTDEF
  5
95
330
7F
100
AcDbEntity
  8
FORMAT
 62
     2
100
AcDbText
 10
4.408487351596664
 20
2.075366912832191
 30
0.0
 40
4.233333333333333
  1
E2032040
 41
0.75
  7
SLDTEXTSTYLE0
 11
4.408487351596664
 21
-0.0412997538344756
 31
0.0
100
AcDbAttributeDefinition
  3

  2
AUTOATTR0
 70
     0
 74
     1
  0
ENDBLK
  5
81
330
7F
100
AcDbEntity
  8
0
100
AcDbBlockEnd
  0
BLOCK
  5
E3
330
E2
100
AcDbEntity
  8
0
100
AcDbBlockBegin
  2
_D
 70
     0
 10
0.0
 20
0.0
 30
0.0
  3
_D
  1
_D
  0
LINE
  5
E5
330
E2
100
AcDbEntity
  8
치수문자_일반주서
 62
     0
370
    -2
100
AcDbLine
 10
-40.44999999999997
 20
7.938574928723908
 30
0.0
 11
-54.97500000000001
 21
7.938574928723857
 31
0.0
  0
LINE
  5
E6
330
E2
100
AcDbEntity
  8
치수문자_일반주서
 62
     0
370
    -2
100
AcDbLine
 10
-40.44999999999997
 20
-7.936425071276119
 30
0.0
 11
-54.97499999999995
 21
-7.936425071276171
 31
0.0
  0
LINE
  5
E7
330
E2
100
AcDbEntity
  8
치수문자_일반주서
 62
     0
370
    -2
100
AcDbLine
 10
-54.97499999999999
 20
4.636574928723857
 30
0.0
 11
-54.97499999999997
 21
-4.634425071276171
 31
0.0
  0
SOLID
  5
E8
330
E2
100
AcDbEntity
  8
치수문자_일반주서
 62
     0
100
AcDbTrace
 10
-54.42466666666666
 20
4.636574928723859
 30
0.0
 11
-55.52533333333333
 21
4.636574928723856
 31
0.0
 12
-54.97500000000001
 22
7.938574928723857
 32
0.0
 13
-54.97500000000001
 23
7.938574928723857
 33
0.0
  0
SOLID
  5
E9
330
E2
100
AcDbEntity
  8
치수문자_일반주서
 62
     0
100
AcDbTrace
 10
-55.5253333333333
 20
-4.634425071276173
 30
0.0
 11
-54.42466666666663
 21
-4.634425071276169
 31
0.0
 12
-54.97499999999995
 22
-7.936425071276171
 32
0.0
 13
-54.97499999999995
 23
-7.936425071276171
 33
0.0
  0
MTEXT
  5
EA
330
E2
100
AcDbEntity
  8
치수문자_일반주서
 62
     0
100
AcDbMText
 10
-59.34999999999998
 20
0.0010749287238924
 30
0.0
 40
3.5
 41
0.0
 71
     2
 72
     1
  1
\A1;%%c15.88 [5/8]
  7
SLDTEXTSTYLE0
 11
-3.580687802255617E-15
 21
1.0
 31
0.0
 73
     1
 44
1.0
  0
POINT
  5
EB
330
E2
100
AcDbEntity
  8
Defpoints
 62
     0
100
AcDbPoint
 10
-40.38749999999997
 20
7.938574928723908
 30
0.0
  0
POINT
  5
EC
330
E2
100
AcDbEntity
  8
Defpoints
 62
     0
100
AcDbPoint
 10
-40.38749999999997
 20
-7.936425071276119
 30
0.0
  0
POINT
  5
ED
330
E2
100
AcDbEntity
  8
Defpoints
 62
     0
100
AcDbPoint
 10
-54.97499999999998
 20
-7.93642507127617
 30
0.0
  0
ENDBLK
  5
E4
330
E2
100
AcDbEntity
  8
0
100
AcDbBlockEnd
  0
BLOCK
  5
F8
330
F7
100
AcDbEntity
  8
0
100
AcDbBlockBegin
  2
_D_1
 70
     0
 10
0.0
 20
0.0
 30
0.0
  3
_D_1
  1
_D_1
  0
LINE
  5
FA
330
F7
100
AcDbEntity
  8
치수문자_일반주서
 62
     0
370
    -2
100
AcDbLine
 10
53.27500000000003
 20
8.001074928723899
 30
0.0
 11
53.27500000000003
 21
30.42063796711783
 31
0.0
  0
LINE
  5
FB
330
F7
100
AcDbEntity
  8
치수문자_일반주서
 62
     0
370
    -2
100
AcDbLine
 10
12.0
 20
7.903597487898357
 30
0.0
 11
12.0
 21
30.42063796711783
 31
0.0
  0
LINE
  5
FC
330
F7
100
AcDbEntity
  8
치수문자_일반주서
 62
     0
370
    -2
100
AcDbLine
 10
49.97300000000003
 20
30.42063796711783
 30
0.0
 11
15.302
 21
30.42063796711783
 31
0.0
  0
SOLID
  5
FD
330
F7
100
AcDbEntity
  8
치수문자_일반주서
 62
     0
100
AcDbTrace
 10
49.97300000000003
 20
29.8703046337845
 30
0.0
 11
49.97300000000003
 21
30.97097130045116
 31
0.0
 12
53.27500000000003
 22
30.42063796711783
 32
0.0
 13
53.27500000000003
 23
30.42063796711783
 33
0.0
  0
SOLID
  5
FE
330
F7
100
AcDbEntity
  8
치수문자_일반주서
 62
     0
100
AcDbTrace
 10
15.302
 20
30.97097130045116
 30
0.0
 11
15.302
 21
29.8703046337845
 31
0.0
 12
12.0
 22
30.42063796711783
 32
0.0
 13
12.0
 23
30.42063796711783
 33
0.0
  0
MTEXT
  5
FF
330
F7
100
AcDbEntity
  8
치수문자_일반주서
 62
     0
100
AcDbMText
 10
32.63750000000002
 20
34.79563796711783
 30
0.0
 40
3.5
 41
0.0
 71
     2
 72
     1
  1
\A1;41.28 [1 5/8]
  7
SLDTEXTSTYLE0
 73
     1
 44
1.0
  0
POINT
  5
100
330
F7
100
AcDbEntity
  8
Defpoints
 62
     0
100
AcDbPoint
 10
53.27500000000003
 20
7.938574928723899
 30
0.0
  0
POINT
  5
101
330
F7
100
AcDbEntity
  8
Defpoints
 62
     0
100
AcDbPoint
 10
12.0
 20
7.841097487898357
 30
0.0
  0
POINT
  5
102
330
F7
100
AcDbEntity
  8
Defpoints
 62
     0
100
AcDbPoint
 10
12.0
 20
30.42063796711783
 30
0.0
  0
ENDBLK
  5
F9
330
F7
100
AcDbEntity
  8
0
100
AcDbBlockEnd
  0
BLOCK
  5
10B
330
10A
100
AcDbEntity
  8
0
100
AcDbBlockBegin
  2
_D_2
 70
     0
 10
0.0
 20
0.0
 30
0.0
  3
_D_2
  1
_D_2
  0
LINE
  5
10D
330
10A
100
AcDbEntity
  8
치수문자_일반주서
 62
     0
370
    -2
100
AcDbLine
 10
53.27500000000003
 20
8.001074928723899
 30
0.0
 11
53.27500000000003
 21
42.42063796711784
 31
0.0
  0
LINE
  5
10E
330
10A
100
AcDbEntity
  8
치수문자_일반주서
 62
     0
370
    -2
100
AcDbLine
 10
-41.97499999999997
 20
6.413574928723902
 30
0.0
 11
-41.97499999999997
 21
42.42063796711784
 31
0.0
  0
LINE
  5
10F
330
10A
100
AcDbEntity
  8
치수문자_일반주서
 62
     0
370
    -2
100
AcDbLine
 10
49.97300000000003
 20
42.42063796711784
 30
0.0
 11
-38.67299999999997
 21
42.42063796711784
 31
0.0
  0
SOLID
  5
110
330
10A
100
AcDbEntity
  8
치수문자_일반주서
 62
     0
100
AcDbTrace
 10
49.97300000000003
 20
41.87030463378451
 30
0.0
 11
49.97300000000003
 21
42.97097130045118
 31
0.0
 12
53.27500000000003
 22
42.42063796711784
 32
0.0
 13
53.27500000000003
 23
42.42063796711784
 33
0.0
  0
SOLID
  5
111
330
10A
100
AcDbEntity
  8
치수문자_일반주서
 62
     0
100
AcDbTrace
 10
-38.67299999999997
 20
42.97097130045118
 30
0.0
 11
-38.67299999999997
 21
41.87030463378451
 31
0.0
 12
-41.97499999999997
 22
42.42063796711784
 32
0.0
 13
-41.97499999999997
 23
42.42063796711784
 33
0.0
  0
MTEXT
  5
112
330
10A
100
AcDbEntity
  8
치수문자_일반주서
 62
     0
100
AcDbMText
 10
5.650000000000037
 20
46.79563796711784
 30
0.0
 40
3.5
 41
0.0
 71
     2
 72
     1
  1
\A1;95.25 [3 3/4]
  7
SLDTEXTSTYLE0
 73
     1
 44
1.0
  0
POINT
  5
113
330
10A
100
AcDbEntity
  8
Defpoints
 62
     0
100
AcDbPoint
 10
53.27500000000003
 20
7.938574928723899
 30
0.0
  0
POINT
  5
114
330
10A
100
AcDbEntity
  8
Defpoints
 62
     0
100
AcDbPoint
 10
-41.97499999999997
 20
6.351074928723902
 30
0.0
  0
POINT
  5
115
330
10A
100
AcDbEntity
  8
Defpoints
 62
     0
100
AcDbPoint
 10
-41.97499999999997
 20
42.42063796711784
 30
0.0
  0
ENDBLK
  5
10C
330
10A
100
AcDbEntity
  8
0
100
AcDbBlockEnd
  0
BLOCK
  5
11E
330
11D
100
AcDbEntity
  8
0
100
AcDbBlockBegin
  2
_D_3
 70
     0
 10
0.0
 20
0.0
 30
0.0
  3
_D_3
  1
_D_3
  0
LINE
  5
120
330
11D
100
AcDbEntity
  8
치수문자_일반주서
 62
     0
370
    -2
100
AcDbLine
 10
53.33750000000003
 20
7.938574928723899
 30
0.0
 11
73.9172599195447
 21
7.938574928723973
 31
0.0
  0
LINE
  5
121
330
11D
100
AcDbEntity
  8
치수문자_일반주서
 62
     0
370
    -2
100
AcDbLine
 10
53.33750000000003
 20
-7.936425071276108
 30
0.0
 11
73.91725991954476
 21
-7.936425071276037
 31
0.0
  0
LINE
  5
122
330
11D
100
AcDbEntity
  8
치수문자_일반주서
 62
     0
370
    -2
100
AcDbLine
 10
73.9172599195447
 20
7.938574928723973
 30
0.0
 11
73.91725991954458
 21
42.54257492872397
 31
0.0
  0
LINE
  5
123
330
11D
100
AcDbEntity
  8
치수문자_일반주서
 62
     0
370
    -2
100
AcDbLine
 10
73.9172599195447
 20
7.938574928723973
 30
0.0
 11
73.91725991954476
 21
-7.936425071276037
 31
0.0
  0
LINE
  5
124
330
11D
100
AcDbEntity
  8
치수문자_일반주서
 62
     0
370
    -2
100
AcDbLine
 10
73.91725991954469
 20
11.24057492872397
 30
0.0
 11
73.91725991954468
 21
14.54257492872397
 31
0.0
  0
LINE
  5
125
330
11D
100
AcDbEntity
  8
치수문자_일반주서
 62
     0
370
    -2
100
AcDbLine
 10
73.91725991954478
 20
-11.23842507127604
 30
0.0
 11
73.91725991954479
 21
-14.54042507127604
 31
0.0
  0
SOLID
  5
126
330
11D
100
AcDbEntity
  8
치수문자_일반주서
 62
     0
100
AcDbTrace
 10
73.36692658621136
 20
11.24057492872397
 30
0.0
 11
74.46759325287802
 21
11.24057492872397
 31
0.0
 12
73.9172599195447
 22
7.938574928723973
 32
0.0
 13
73.9172599195447
 23
7.938574928723973
 33
0.0
  0
SOLID
  5
127
330
11D
100
AcDbEntity
  8
치수문자_일반주서
 62
     0
100
AcDbTrace
 10
74.4675932528781
 20
-11.23842507127604
 30
0.0
 11
73.36692658621145
 21
-11.23842507127604
 31
0.0
 12
73.91725991954476
 22
-7.936425071276037
 32
0.0
 13
73.91725991954476
 23
-7.936425071276037
 33
0.0
  0
MTEXT
  5
128
330
11D
100
AcDbEntity
  8
치수문자_일반주서
 62
     0
100
AcDbMText
 10
69.54225991954463
 20
28.54257492872395
 30
0.0
 40
3.5
 41
0.0
 71
     2
 72
     1
  1
\A1;%%c15.88 [5/8]
  7
SLDTEXTSTYLE0
 11
-3.580687802255621E-15
 21
1.0
 31
0.0
 73
     1
 44
1.0
  0
POINT
  5
129
330
11D
100
AcDbEntity
  8
Defpoints
 62
     0
100
AcDbPoint
 10
53.27500000000003
 20
7.938574928723899
 30
0.0
  0
POINT
  5
2C9
330
11D
100
AcDbEntity
  8
Defpoints
 62
     0
100
AcDbPoint
 10
53.27500000000003
 20
-7.936425071276108
 30
0.0
  0
POINT
  5
2CA
330
11D
100
AcDbEntity
  8
Defpoints
 62
     0
100
AcDbPoint
 10
73.91725991954476
 20
-7.936425071276036
 30
0.0
  0
ENDBLK
  5
11F
330
11D
100
AcDbEntity
  8
0
100
AcDbBlockEnd
  0
BLOCK
  5
137
330
136
100
AcDbEntity
  8
0
100
AcDbBlockBegin
  2
SW_DOWELSYMBOL_0
 70
     0
 10
0.0
 20
0.0
 30
0.0
  3
SW_DOWELSYMBOL_0
  1
SW_DOWELSYMBOL_0
  0
CIRCLE
  5
139
330
136
100
AcDbEntity
  8
해칭선
 62
     0
100
AcDbCircle
 10
0.0
 20
0.0
 30
0.0
 40
3.000000000000002
  0
HATCH
  5
13A
330
136
100
AcDbEntity
  8
0
  6
Continuous
 62
     0
370
     0
100
AcDbHatch
 10
0.0
 20
0.0
 30
0.0
210
0.0
220
0.0
230
1.0
  2
SOLID
 70
     1
 71
     0
 91
        1
 92
        0
 93
        3
 72
     2
 10
0.0000000000000104
 20
0.0
 40
3.000000000000002
 50
0.0
 51
90.0
 73
     1
 72
     1
 10
0.0000000000000104
 20
3.000000000000002
 11
0.0000000000000104
 21
0.0
 72
     1
 10
0.0000000000000104
 20
0.0
 11
3.000000000000012
 21
0.0
 97
        0
 75
     0
 76
     1
 98
        1
 10
0.0
 20
0.0
  0
HATCH
  5
13B
330
136
100
AcDbEntity
  8
0
  6
Continuous
 62
     0
370
     0
100
AcDbHatch
 10
0.0
 20
0.0
 30
0.0
210
0.0
220
0.0
230
1.0
  2
SOLID
 70
     1
 71
     0
 91
        1
 92
        0
 93
        3
 72
     2
 10
0.0000000000000104
 20
0.0
 40
3.000000000000002
 50
180.0
 51
270.0000000000007
 73
     1
 72
     1
 10
0.0000000000000104
 20
-3.000000000000002
 11
0.0000000000000104
 21
0.0
 72
     1
 10
0.0000000000000104
 20
0.0
 11
-2.999999999999992
 21
0.0
 97
        0
 75
     0
 76
     1
 98
        1
 10
0.0
 20
0.0
  0
ENDBLK
  5
138
330
136
100
AcDbEntity
  8
0
100
AcDbBlockEnd
  0
BLOCK
  5
216
330
215
100
AcDbEntity
  8
0
100
AcDbBlockBegin
  2
*D7
 70
     1
 10
0.0
 20
0.0
 30
0.0
  3
*D7
  1
*D8
  0
LINE
  5
218
330
215
100
AcDbEntity
  8
치수문자_일반주서
 62
     0
370
    -2
100
AcDbLine
 10
18.90000000000006
 20
19.30399999999994
 30
0.0
 11
4.375000000000028
 21
19.30399999999988
 31
0.0
  0
LINE
  5
219
330
215
100
AcDbEntity
  8
치수문자_일반주서
 62
     0
370
    -2
100
AcDbLine
 10
18.90000000000006
 20
6.603999999999949
 30
0.0
 11
4.375000000000072
 21
6.603999999999892
 31
0.0
  0
LINE
  5
21A
330
215
100
AcDbEntity
  8
치수문자_일반주서
 62
     0
370
    -2
100
AcDbLine
 10
4.375000000000039
 20
16.00199999999988
 30
0.0
 11
4.37500000000006
 21
9.905999999999892
 31
0.0
  0
SOLID
  5
21B
330
215
100
AcDbEntity
  8
치수문자_일반주서
 62
     0
100
AcDbTrace
 10
4.925333333333373
 20
16.00199999999989
 30
0.0
 11
3.824666666666706
 21
16.00199999999988
 31
0.0
 12
4.375000000000028
 22
19.30399999999988
 32
0.0
 13
4.375000000000028
 23
19.30399999999988
 33
0.0
  0
SOLID
  5
21C
330
215
100
AcDbEntity
  8
치수문자_일반주서
 62
     0
100
AcDbTrace
 10
3.824666666666727
 20
9.90599999999989
 30
0.0
 11
4.925333333333394
 21
9.905999999999894
 31
0.0
 12
4.375000000000072
 22
6.603999999999892
 32
0.0
 13
4.375000000000072
 23
6.603999999999892
 33
0.0
  0
MTEXT
  5
21D
330
215
100
AcDbEntity
  8
치수문자_일반주서
 62
     0
100
AcDbMText
 10
0.0000000000000497
 20
12.95399999999992
 30
0.0
 40
3.5
 41
0.0
 71
     2
 72
     1
  1
\A1;%%c12.7 [1/2]
  7
SLDTEXTSTYLE0
 11
-3.496765431890260E-15
 21
1.0
 31
0.0
 73
     1
 44
1.0
  0
POINT
  5
21E
330
215
100
AcDbEntity
  8
Defpoints
 62
     0
100
AcDbPoint
 10
18.96250000000006
 20
19.30399999999994
 30
0.0
  0
POINT
  5
21F
330
215
100
AcDbEntity
  8
Defpoints
 62
     0
100
AcDbPoint
 10
18.96250000000006
 20
6.603999999999949
 30
0.0
  0
POINT
  5
220
330
215
100
AcDbEntity
  8
Defpoints
 62
     0
100
AcDbPoint
 10
4.375000000000071
 20
6.603999999999894
 30
0.0
  0
ENDBLK
  5
217
330
215
100
AcDbEntity
  8
0
100
AcDbBlockEnd
  0
BLOCK
  5
222
330
221
100
AcDbEntity
  8
0
100
AcDbBlockBegin
  2
*D8
 70
     1
 10
0.0
 20
0.0
 30
0.0
  3
*D8
  1
*D9
  0
LINE
  5
224
330
221
100
AcDbEntity
  8
치수문자_일반주서
 62
     0
370
    -2
100
AcDbLine
 10
100.2425000000001
 20
19.36649999999995
 30
0.0
 11
100.2425000000001
 21
41.79764773883325
 31
0.0
  0
LINE
  5
225
330
221
100
AcDbEntity
  8
치수문자_일반주서
 62
     0
370
    -2
100
AcDbLine
 10
68.49250000000008
 20
19.32455855923232
 30
0.0
 11
68.49250000000008
 21
41.79764773883325
 31
0.0
  0
LINE
  5
226
330
221
100
AcDbEntity
  8
치수문자_일반주서
 62
     0
370
    -2
100
AcDbLine
 10
96.94050000000007
 20
41.79764773883325
 30
0.0
 11
71.79450000000008
 21
41.79764773883325
 31
0.0
  0
SOLID
  5
227
330
221
100
AcDbEntity
  8
치수문자_일반주서
 62
     0
100
AcDbTrace
 10
96.94050000000007
 20
41.24731440549991
 30
0.0
 11
96.94050000000007
 21
42.34798107216658
 31
0.0
 12
100.2425000000001
 22
41.79764773883325
 32
0.0
 13
100.2425000000001
 23
41.79764773883325
 33
0.0
  0
SOLID
  5
228
330
221
100
AcDbEntity
  8
치수문자_일반주서
 62
     0
100
AcDbTrace
 10
71.79450000000008
 20
42.34798107216658
 30
0.0
 11
71.79450000000008
 21
41.24731440549991
 31
0.0
 12
68.49250000000008
 22
41.79764773883325
 32
0.0
 13
68.49250000000008
 23
41.79764773883325
 33
0.0
  0
MTEXT
  5
229
330
221
100
AcDbEntity
  8
치수문자_일반주서
 62
     0
100
AcDbMText
 10
84.36750000000008
 20
46.17264773883325
 30
0.0
 40
3.5
 41
0.0
 71
     2
 72
     1
  1
\A1;31.75 [1 1/4]
  7
SLDTEXTSTYLE0
 73
     1
 44
1.0
  0
POINT
  5
22A
330
221
100
AcDbEntity
  8
Defpoints
 62
     0
100
AcDbPoint
 10
100.2425000000001
 20
19.30399999999995
 30
0.0
  0
POINT
  5
22B
330
221
100
AcDbEntity
  8
Defpoints
 62
     0
100
AcDbPoint
 10
68.49250000000008
 20
19.26205855923232
 30
0.0
  0
POINT
  5
22C
330
221
100
AcDbEntity
  8
Defpoints
 62
     0
100
AcDbPoint
 10
68.49250000000008
 20
41.79764773883325
 30
0.0
  0
ENDBLK
  5
223
330
221
100
AcDbEntity
  8
0
100
AcDbBlockEnd
  0
BLOCK
  5
22E
330
22D
100
AcDbEntity
  8
0
100
AcDbBlockBegin
  2
*D9
 70
     1
 10
0.0
 20
0.0
 30
0.0
  3
*D9
  1
*D10
  0
LINE
  5
230
330
22D
100
AcDbEntity
  8
치수문자_일반주서
 62
     0
370
    -2
100
AcDbLine
 10
100.2425000000001
 20
19.36649999999995
 30
0.0
 11
100.2425000000001
 21
53.79764773883326
 31
0.0
  0
LINE
  5
231
330
22D
100
AcDbEntity
  8
치수문자_일반주서
 62
     0
370
    -2
100
AcDbLine
 10
17.69250000000007
 20
18.09649999999995
 30
0.0
 11
17.69250000000007
 21
53.79764773883326
 31
0.0
  0
LINE
  5
232
330
22D
100
AcDbEntity
  8
치수문자_일반주서
 62
     0
370
    -2
100
AcDbLine
 10
96.94050000000007
 20
53.79764773883326
 30
0.0
 11
20.99450000000007
 21
53.79764773883326
 31
0.0
  0
SOLID
  5
233
330
22D
100
AcDbEntity
  8
치수문자_일반주서
 62
     0
100
AcDbTrace
 10
96.94050000000007
 20
53.24731440549993
 30
0.0
 11
96.94050000000007
 21
54.3479810721666
 31
0.0
 12
100.2425000000001
 22
53.79764773883326
 32
0.0
 13
100.2425000000001
 23
53.79764773883326
 33
0.0
  0
SOLID
  5
234
330
22D
100
AcDbEntity
  8
치수문자_일반주서
 62
     0
100
AcDbTrace
 10
20.99450000000007
 20
54.3479810721666
 30
0.0
 11
20.99450000000007
 21
53.24731440549993
 31
0.0
 12
17.69250000000007
 22
53.79764773883326
 32
0.0
 13
17.69250000000007
 23
53.79764773883326
 33
0.0
  0
MTEXT
  5
235
330
22D
100
AcDbEntity
  8
치수문자_일반주서
 62
     0
100
AcDbMText
 10
58.96750000000008
 20
58.17264773883326
 30
0.0
 40
3.5
 41
0.0
 71
     2
 72
     1
  1
\A1;82.55 [3 1/4]
  7
SLDTEXTSTYLE0
 73
     1
 44
1.0
  0
POINT
  5
236
330
22D
100
AcDbEntity
  8
Defpoints
 62
     0
100
AcDbPoint
 10
100.2425000000001
 20
19.30399999999995
 30
0.0
  0
POINT
  5
237
330
22D
100
AcDbEntity
  8
Defpoints
 62
     0
100
AcDbPoint
 10
17.69250000000007
 20
18.03399999999995
 30
0.0
  0
POINT
  5
238
330
22D
100
AcDbEntity
  8
Defpoints
 62
     0
100
AcDbPoint
 10
17.69250000000007
 20
53.79764773883326
 30
0.0
  0
ENDBLK
  5
22F
330
22D
100
AcDbEntity
  8
0
100
AcDbBlockEnd
  0
BLOCK
  5
23A
330
239
100
AcDbEntity
  8
0
100
AcDbBlockBegin
  2
*D10
 70
     1
 10
0.0
 20
0.0
 30
0.0
  3
*D10
  1
*D11
  0
LINE
  5
23C
330
239
100
AcDbEntity
  8
치수문자_일반주서
 62
     0
370
    -2
100
AcDbLine
 10
100.3050000000001
 20
19.30399999999995
 30
0.0
 11
115.6127873002071
 21
19.304
 31
0.0
  0
LINE
  5
23D
330
239
100
AcDbEntity
  8
치수문자_일반주서
 62
     0
370
    -2
100
AcDbLine
 10
100.3050000000001
 20
6.603999999999942
 30
0.0
 11
115.6127873002071
 21
6.603999999999999
 31
0.0
  0
LINE
  5
23E
330
239
100
AcDbEntity
  8
치수문자_일반주서
 62
     0
370
    -2
100
AcDbLine
 10
115.6127873002071
 20
19.304
 30
0.0
 11
115.612787300207
 21
54.79539804764687
 31
0.0
  0
LINE
  5
23F
330
239
100
AcDbEntity
  8
치수문자_일반주서
 62
     0
370
    -2
100
AcDbLine
 10
115.6127873002071
 20
19.304
 30
0.0
 11
115.6127873002071
 21
6.603999999999999
 31
0.0
  0
LINE
  5
240
330
239
100
AcDbEntity
  8
치수문자_일반주서
 62
     0
370
    -2
100
AcDbLine
 10
115.6127873002071
 20
22.606
 30
0.0
 11
115.6127873002071
 21
25.908
 31
0.0
  0
LINE
  5
241
330
239
100
AcDbEntity
  8
치수문자_일반주서
 62
     0
370
    -2
100
AcDbLine
 10
115.6127873002071
 20
3.302
 30
0.0
 11
115.6127873002072
 21
0.0
 31
0.0
  0
SOLID
  5
242
330
239
100
AcDbEntity
  8
치수문자_일반주서
 62
     0
100
AcDbTrace
 10
115.0624539668737
 20
22.606
 30
0.0
 11
116.1631206335404
 21
22.60600000000001
 31
0.0
 12
115.6127873002071
 22
19.304
 32
0.0
 13
115.6127873002071
 23
19.304
 33
0.0
  0
SOLID
  5
243
330
239
100
AcDbEntity
  8
치수문자_일반주서
 62
     0
100
AcDbTrace
 10
116.1631206335405
 20
3.302000000000001
 30
0.0
 11
115.0624539668738
 21
3.301999999999998
 31
0.0
 12
115.6127873002071
 22
6.603999999999999
 32
0.0
 13
115.6127873002071
 23
6.603999999999999
 33
0.0
  0
MTEXT
  5
244
330
239
100
AcDbEntity
  8
치수문자_일반주서
 62
     0
100
AcDbMText
 10
111.237787300207
 20
42.54539804764686
 30
0.0
 40
3.5
 41
0.0
 71
     2
 72
     1
  1
\A1;%%c12.7 [1/2]
  7
SLDTEXTSTYLE0
 11
-3.356894814614646E-15
 21
1.0
 31
0.0
 73
     1
 44
1.0
  0
POINT
  5
245
330
239
100
AcDbEntity
  8
Defpoints
 62
     0
100
AcDbPoint
 10
100.2425000000001
 20
19.30399999999995
 30
0.0
  0
POINT
  5
246
330
239
100
AcDbEntity
  8
Defpoints
 62
     0
100
AcDbPoint
 10
100.2425000000001
 20
6.603999999999942
 30
0.0
  0
POINT
  5
247
330
239
100
AcDbEntity
  8
Defpoints
 62
     0
100
AcDbPoint
 10
115.6127873002071
 20
6.604
 30
0.0
  0
ENDBLK
  5
23B
330
239
100
AcDbEntity
  8
0
100
AcDbBlockEnd
  0
BLOCK
  5
297
330
296
100
AcDbEntity
  8
0
100
AcDbBlockBegin
  2
*D11
 70
     1
 10
0.0
 20
0.0
 30
0.0
  3
*D11
  1
*D12
  0
LINE
  5
299
330
296
100
AcDbEntity
  8
치수문자_일반주서
 62
     0
370
    -2
100
AcDbLine
 10
85.86760184139169
 20
-56.01248573737218
 30
0.0
 11
71.34260184139167
 21
-56.01248573737224
 31
0.0
  0
LINE
  5
29A
330
296
100
AcDbEntity
  8
치수문자_일반주서
 62
     0
370
    -2
100
AcDbLine
 10
85.86760184139169
 20
-68.71248573737218
 30
0.0
 11
71.34260184139171
 21
-68.71248573737223
 31
0.0
  0
LINE
  5
29B
330
296
100
AcDbEntity
  8
치수문자_일반주서
 62
     0
370
    -2
100
AcDbLine
 10
71.34260184139168
 20
-59.31448573737224
 30
0.0
 11
71.3426018413917
 21
-65.41048573737223
 31
0.0
  0
SOLID
  5
29C
330
296
100
AcDbEntity
  8
치수문자_일반주서
 62
     0
100
AcDbTrace
 10
71.89293517472501
 20
-59.31448573737224
 30
0.0
 11
70.79226850805836
 21
-59.31448573737224
 31
0.0
 12
71.34260184139167
 22
-56.01248573737224
 32
0.0
 13
71.34260184139167
 23
-56.01248573737224
 33
0.0
  0
SOLID
  5
29D
330
296
100
AcDbEntity
  8
치수문자_일반주서
 62
     0
100
AcDbTrace
 10
70.79226850805837
 20
-65.41048573737223
 30
0.0
 11
71.89293517472503
 21
-65.41048573737223
 31
0.0
 12
71.34260184139171
 22
-68.71248573737223
 32
0.0
 13
71.34260184139171
 23
-68.71248573737223
 33
0.0
  0
MTEXT
  5
29E
330
296
100
AcDbEntity
  8
치수문자_일반주서
 62
     0
100
AcDbMText
 10
66.96760184139168
 20
-62.3624857373722
 30
0.0
 40
3.5
 41
0.0
 71
     2
 72
     1
  1
\A1;%%c12.7 [1/2]
  7
SLDTEXTSTYLE0
 11
-3.356894814614648E-15
 21
1.0
 31
0.0
 73
     1
 44
1.0
  0
POINT
  5
29F
330
296
100
AcDbEntity
  8
Defpoints
 62
     0
100
AcDbPoint
 10
85.93010184139169
 20
-56.01248573737218
 30
0.0
  0
POINT
  5
2A0
330
296
100
AcDbEntity
  8
Defpoints
 62
     0
100
AcDbPoint
 10
85.93010184139169
 20
-68.71248573737218
 30
0.0
  0
POINT
  5
2A1
330
296
100
AcDbEntity
  8
Defpoints
 62
     0
100
AcDbPoint
 10
71.3426018413917
 20
-68.71248573737223
 30
0.0
  0
ENDBLK
  5
298
330
296
100
AcDbEntity
  8
0
100
AcDbBlockEnd
  0
BLOCK
  5
2A3
330
2A2
100
AcDbEntity
  8
0
100
AcDbBlockBegin
  2
*D12
 70
     1
 10
0.0
 20
0.0
 30
0.0
  3
*D12
  1
*D13
  0
LINE
  5
2A5
330
2A2
100
AcDbEntity
  8
치수문자_일반주서
 62
     0
370
    -2
100
AcDbLine
 10
167.2101018413917
 20
-55.94998573737217
 30
0.0
 11
167.2101018413917
 21
-33.51883799853887
 31
0.0
  0
LINE
  5
2A6
330
2A2
100
AcDbEntity
  8
치수문자_일반주서
 62
     0
370
    -2
100
AcDbLine
 10
135.4601018413917
 20
-55.9919271781398
 30
0.0
 11
135.4601018413917
 21
-33.51883799853887
 31
0.0
  0
LINE
  5
2A7
330
2A2
100
AcDbEntity
  8
치수문자_일반주서
 62
     0
370
    -2
100
AcDbLine
 10
163.9081018413917
 20
-33.51883799853887
 30
0.0
 11
138.7621018413917
 21
-33.51883799853887
 31
0.0
  0
SOLID
  5
2A8
330
2A2
100
AcDbEntity
  8
치수문자_일반주서
 62
     0
100
AcDbTrace
 10
163.9081018413917
 20
-34.06917133187221
 30
0.0
 11
163.9081018413917
 21
-32.96850466520554
 31
0.0
 12
167.2101018413917
 22
-33.51883799853887
 32
0.0
 13
167.2101018413917
 23
-33.51883799853887
 33
0.0
  0
SOLID
  5
2A9
330
2A2
100
AcDbEntity
  8
치수문자_일반주서
 62
     0
100
AcDbTrace
 10
138.7621018413917
 20
-32.96850466520554
 30
0.0
 11
138.7621018413917
 21
-34.06917133187221
 31
0.0
 12
135.4601018413917
 22
-33.51883799853887
 32
0.0
 13
135.4601018413917
 23
-33.51883799853887
 33
0.0
  0
MTEXT
  5
2AA
330
2A2
100
AcDbEntity
  8
치수문자_일반주서
 62
     0
100
AcDbMText
 10
151.3351018413917
 20
-29.14383799853887
 30
0.0
 40
3.5
 41
0.0
 71
     2
 72
     1
  1
\A1;31.75 [1 1/4]
  7
SLDTEXTSTYLE0
 73
     1
 44
1.0
  0
POINT
  5
2AB
330
2A2
100
AcDbEntity
  8
Defpoints
 62
     0
100
AcDbPoint
 10
167.2101018413917
 20
-56.01248573737217
 30
0.0
  0
POINT
  5
2AC
330
2A2
100
AcDbEntity
  8
Defpoints
 62
     0
100
AcDbPoint
 10
135.4601018413917
 20
-56.0544271781398
 30
0.0
  0
POINT
  5
2AD
330
2A2
100
AcDbEntity
  8
Defpoints
 62
     0
100
AcDbPoint
 10
135.4601018413917
 20
-33.51883799853887
 30
0.0
  0
ENDBLK
  5
2A4
330
2A2
100
AcDbEntity
  8
0
100
AcDbBlockEnd
  0
BLOCK
  5
2AF
330
2AE
100
AcDbEntity
  8
0
100
AcDbBlockBegin
  2
*D13
 70
     1
 10
0.0
 20
0.0
 30
0.0
  3
*D13
  1
*D14
  0
LINE
  5
2B1
330
2AE
100
AcDbEntity
  8
치수문자_일반주서
 62
     0
370
    -2
100
AcDbLine
 10
167.2101018413917
 20
-55.94998573737217
 30
0.0
 11
167.2101018413917
 21
-21.51883799853886
 31
0.0
  0
LINE
  5
2B2
330
2AE
100
AcDbEntity
  8
치수문자_일반주서
 62
     0
370
    -2
100
AcDbLine
 10
84.6601018413917
 20
-57.21998573737217
 30
0.0
 11
84.6601018413917
 21
-21.51883799853886
 31
0.0
  0
LINE
  5
2B3
330
2AE
100
AcDbEntity
  8
치수문자_일반주서
 62
     0
370
    -2
100
AcDbLine
 10
163.9081018413917
 20
-21.51883799853886
 30
0.0
 11
87.9621018413917
 21
-21.51883799853886
 31
0.0
  0
SOLID
  5
2B4
330
2AE
100
AcDbEntity
  8
치수문자_일반주서
 62
     0
100
AcDbTrace
 10
163.9081018413917
 20
-22.06917133187219
 30
0.0
 11
163.9081018413917
 21
-20.96850466520552
 31
0.0
 12
167.2101018413917
 22
-21.51883799853886
 32
0.0
 13
167.2101018413917
 23
-21.51883799853886
 33
0.0
  0
SOLID
  5
2B5
330
2AE
100
AcDbEntity
  8
치수문자_일반주서
 62
     0
100
AcDbTrace
 10
87.9621018413917
 20
-20.96850466520552
 30
0.0
 11
87.9621018413917
 21
-22.06917133187219
 31
0.0
 12
84.6601018413917
 22
-21.51883799853886
 32
0.0
 13
84.6601018413917
 23
-21.51883799853886
 33
0.0
  0
MTEXT
  5
2B6
330
2AE
100
AcDbEntity
  8
치수문자_일반주서
 62
     0
100
AcDbMText
 10
125.9351018413917
 20
-17.14383799853886
 30
0.0
 40
3.5
 41
0.0
 71
     2
 72
     1
  1
\A1;82.55 [3 1/4]
  7
SLDTEXTSTYLE0
 73
     1
 44
1.0
  0
POINT
  5
2B7
330
2AE
100
AcDbEntity
  8
Defpoints
 62
     0
100
AcDbPoint
 10
167.2101018413917
 20
-56.01248573737217
 30
0.0
  0
POINT
  5
2B8
330
2AE
100
AcDbEntity
  8
Defpoints
 62
     0
100
AcDbPoint
 10
84.6601018413917
 20
-57.28248573737217
 30
0.0
  0
POINT
  5
2B9
330
2AE
100
AcDbEntity
  8
Defpoints
 62
     0
100
AcDbPoint
 10
84.6601018413917
 20
-21.51883799853886
 30
0.0
  0
ENDBLK
  5
2B0
330
2AE
100
AcDbEntity
  8
0
100
AcDbBlockEnd
  0
BLOCK
  5
2BB
330
2BA
100
AcDbEntity
  8
0
100
AcDbBlockBegin
  2
*D14
 70
     1
 10
0.0
 20
0.0
 30
0.0
  3
*D14
  1
*D15
  0
LINE
  5
2BD
330
2BA
100
AcDbEntity
  8
치수문자_일반주서
 62
     0
370
    -2
100
AcDbLine
 10
167.2726018413917
 20
-56.01248573737217
 30
0.0
 11
182.5803891415987
 21
-56.01248573737212
 31
0.0
  0
LINE
  5
2BE
330
2BA
100
AcDbEntity
  8
치수문자_일반주서
 62
     0
370
    -2
100
AcDbLine
 10
167.2726018413917
 20
-68.71248573737218
 30
0.0
 11
182.5803891415988
 21
-68.71248573737212
 31
0.0
  0
LINE
  5
2BF
330
2BA
100
AcDbEntity
  8
치수문자_일반주서
 62
     0
370
    -2
100
AcDbLine
 10
182.5803891415987
 20
-56.01248573737212
 30
0.0
 11
182.5803891415986
 21
-20.52108768972525
 31
0.0
  0
LINE
  5
2C0
330
2BA
100
AcDbEntity
  8
치수문자_일반주서
 62
     0
370
    -2
100
AcDbLine
 10
182.5803891415987
 20
-56.01248573737212
 30
0.0
 11
182.5803891415988
 21
-68.71248573737212
 31
0.0
  0
LINE
  5
2C1
330
2BA
100
AcDbEntity
  8
치수문자_일반주서
 62
     0
370
    -2
100
AcDbLine
 10
182.5803891415987
 20
-52.71048573737212
 30
0.0
 11
182.5803891415987
 21
-49.40848573737212
 31
0.0
  0
LINE
  5
2C2
330
2BA
100
AcDbEntity
  8
치수문자_일반주서
 62
     0
370
    -2
100
AcDbLine
 10
182.5803891415988
 20
-72.01448573737213
 30
0.0
 11
182.5803891415989
 21
-75.31648573737212
 31
0.0
  0
SOLID
  5
2C3
330
2BA
100
AcDbEntity
  8
치수문자_일반주서
 62
     0
100
AcDbTrace
 10
182.0300558082654
 20
-52.71048573737212
 30
0.0
 11
183.130722474932
 21
-52.71048573737212
 31
0.0
 12
182.5803891415987
 22
-56.01248573737212
 32
0.0
 13
182.5803891415987
 23
-56.01248573737212
 33
0.0
  0
SOLID
  5
2C4
330
2BA
100
AcDbEntity
  8
치수문자_일반주서
 62
     0
100
AcDbTrace
 10
183.1307224749322
 20
-72.01448573737213
 30
0.0
 11
182.0300558082655
 21
-72.01448573737213
 31
0.0
 12
182.5803891415988
 22
-68.71248573737212
 32
0.0
 13
182.5803891415988
 23
-68.71248573737212
 33
0.0
  0
MTEXT
  5
2C5
330
2BA
100
AcDbEntity
  8
치수문자_일반주서
 62
     0
100
AcDbMText
 10
178.2053891415986
 20
-32.77108768972527
 30
0.0
 40
3.5
 41
0.0
 71
     2
 72
     1
  1
\A1;%%c12.7 [1/2]
  7
SLDTEXTSTYLE0
 11
-4.475859752819528E-15
 21
1.0
 31
0.0
 73
     1
 44
1.0
  0
POINT
  5
2C6
330
2BA
100
AcDbEntity
  8
Defpoints
 62
     0
100
AcDbPoint
 10
167.2101018413917
 20
-56.01248573737217
 30
0.0
  0
POINT
  5
2C7
330
2BA
100
AcDbEntity
  8
Defpoints
 62
     0
100
AcDbPoint
 10
167.2101018413917
 20
-68.71248573737218
 30
0.0
  0
POINT
  5
2C8
330
2BA
100
AcDbEntity
  8
Defpoints
 62
     0
100
AcDbPoint
 10
182.5803891415987
 20
-68.71248573737212
 30
0.0
  0
ENDBLK
  5
2BC
330
2BA
100
AcDbEntity
  8
0
100
AcDbBlockEnd
  0
ENDSEC
  0
SECTION
  2
ENTITIES
  0
LINE
  5
96
330
1F
100
AcDbEntity
  8
0
  6
Continuous
 62
     1
370
    15
100
AcDbLine
 10
29.98855241764366
 20
1.53903477418968
 30
0.0
 11
29.93791071647463
 21
1.588419820132142
 31
0.0
  0
LINE
  5
97
330
1F
100
AcDbEntity
  8
0
  6
Continuous
 62
     1
370
    15
100
AcDbLine
 10
43.31545596783821
 20
-1.538160007890364
 30
0.0
 11
43.3655550147581
 21
-1.586521838592383
 31
0.0
  0
LINE
  5
98
330
1F
100
AcDbEntity
  8
0
  6
Continuous
 62
     1
370
    15
100
AcDbLine
 10
52.31466711035279
 20
-7.936425071276108
 30
0.0
 11
53.27500000000003
 21
-7.936425071276108
 31
0.0
  0
LINE
  5
99
330
1F
100
AcDbEntity
  8
0
  6
Continuous
 62
     1
370
    15
100
AcDbLine
 10
29.29887136493244
 20
7.938574928723899
 30
0.0
 11
27.37865328309019
 21
7.938574928723899
 31
0.0
  0
LINE
  5
9A
330
1F
100
AcDbEntity
  8
0
  6
Continuous
 62
     1
370
    15
100
AcDbLine
 10
44.00254564010079
 20
-7.936425071276108
 30
0.0
 11
45.92283857098554
 21
-7.936425071276108
 31
0.0
  0
LINE
  5
9B
330
1F
100
AcDbEntity
  8
0
  6
Continuous
 62
     1
370
    15
100
AcDbLine
 10
20.98640624550843
 20
7.938574928723899
 30
0.0
 11
19.06649961256953
 21
7.938574928723899
 31
0.0
  0
LINE
  5
9C
330
1F
100
AcDbEntity
  8
0
  6
Continuous
 62
     1
370
    15
100
AcDbLine
 10
27.37865328309019
 20
-7.936425071276108
 30
0.0
 11
29.29887136493239
 21
-7.936425071276108
 31
0.0
  0
LINE
  5
9D
330
1F
100
AcDbEntity
  8
0
  6
Continuous
 62
     1
370
    15
100
AcDbLine
 10
53.27500000000003
 20
7.938574928723899
 30
0.0
 11
52.31466711035279
 21
7.938574928723899
 31
0.0
  0
LINE
  5
9E
330
1F
100
AcDbEntity
  8
외형선
  6
Continuous
370
    15
100
AcDbLine
 10
12.00000000000004
 20
-7.936425071276108
 30
0.0
 11
12.67336056629855
 21
-7.936425071276108
 31
0.0
  0
LINE
  5
9F
330
1F
100
AcDbEntity
  8
0
  6
Continuous
 62
     1
370
    15
100
AcDbLine
 10
37.61066639308847
 20
7.938574928723899
 30
0.0
 11
35.6910303959792
 21
7.938574928723899
 31
0.0
  0
LINE
  5
A0
330
1F
100
AcDbEntity
  8
0
  6
Continuous
 62
     1
370
    15
100
AcDbLine
 10
35.69103039597913
 20
-7.936425071276108
 30
0.0
 11
37.6106663930884
 21
-7.936425071276108
 31
0.0
  0
LINE
  5
A1
330
1F
100
AcDbEntity
  8
외형선
  6
Continuous
370
    15
100
AcDbLine
 10
12.67336056629849
 20
7.938574928723899
 30
0.0
 11
12.00000000000004
 21
7.938574928723899
 31
0.0
  0
LINE
  5
A2
330
1F
100
AcDbEntity
  8
0
  6
Continuous
 62
     1
370
    15
100
AcDbLine
 10
19.06649961256958
 20
-7.936425071276108
 30
0.0
 11
20.98640624550843
 21
-7.936425071276108
 31
0.0
  0
LINE
  5
A3
330
1F
100
AcDbEntity
  8
0
  6
Continuous
 62
     1
370
    15
100
AcDbLine
 10
45.92283857098555
 20
7.938574928723899
 30
0.0
 11
44.00254564010086
 21
7.938574928723899
 31
0.0
  0
LINE
  5
A4
330
1F
100
AcDbEntity
  8
외형선
  6
Continuous
370
    15
100
AcDbLine
 10
-40.38749999999997
 20
-7.936425071276105
 30
0.0
 11
12.00000000000004
 21
-7.936425071276105
 31
0.0
  0
LINE
  5
A5
330
1F
100
AcDbEntity
  8
외형선
  6
Continuous
370
    15
100
AcDbLine
 10
12.00000000000004
 20
7.938574928723895
 30
0.0
 11
-11.02192500000004
 21
7.938574928723895
 31
0.0
  0
LINE
  5
A6
330
1F
100
AcDbEntity
  8
외형선
  6
Continuous
370
    15
100
AcDbLine
 10
-40.38749999999997
 20
7.938574928723895
 30
0.0
 11
-41.97499999999997
 21
6.351074928723902
 31
0.0
  0
LINE
  5
A7
330
1F
100
AcDbEntity
  8
외형선
  6
Continuous
370
    15
100
AcDbLine
 10
-41.97499999999997
 20
-6.348925071276112
 30
0.0
 11
-40.38749999999997
 21
-7.936425071276105
 31
0.0
  0
SPLINE
  5
A8
330
1F
100
AcDbEntity
  8
0
  6
Continuous
 62
     1
370
    15
100
AcDbSpline
210
0.0
220
0.0
230
1.0
 70
     8
 71
     3
 72
    29
 73
    25
 74
     0
 42
0.000000001
 43
0.00000001
 40
0.0
 40
0.0
 40
0.0
 40
0.0
 40
0.0246157405171512
 40
0.0732561098135841
 40
0.1218380954948719
 40
0.1703804568260408
 40
0.218977955384293
 40
0.2676083255843883
 40
0.3161578676653061
 40
0.3630921166003882
 40
0.4101118807252255
 40
0.4570478413382749
 40
0.5039695832376836
 40
0.5509826762862989
 40
0.5979371695416659
 40
0.6448518458442417
 40
0.691846259540111
 40
0.7388246920398878
 40
0.785737751708503
 40
0.8327057937926605
 40
0.8797092547723843
 40
0.9266261484918614
 40
0.9735724482330103
 40
1.0
 40
1.0
 40
1.0
 40
1.0
 10
12.67336056629849
 20
7.909191959505399
 30
0.0
 10
12.90409570212477
 20
7.914686380593946
 30
0.0
 10
13.59076033592544
 20
7.931037703209829
 30
0.0
 10
14.73465254350842
 20
7.703264650521866
 30
0.0
 10
16.1013862658934
 20
7.248059358626925
 30
0.0
 10
17.46705230016451
 20
6.566020552475326
 30
0.0
 10
18.83427921151519
 20
5.693321424173512
 30
0.0
 10
20.20247181505808
 20
4.652081755683301
 30
0.0
 10
21.5531460529171
 20
3.485375231700313
 30
0.0
 10
22.888722824455
 20
2.232965701040593
 30
0.0
 10
24.21155006982731
 20
0.9353284456876471
 30
0.0
 10
25.53198305670799
 20
-0.390221852031063
 30
0.0
 10
26.85201915768389
 20
-1.70521212775147
 30
0.0
 10
28.17464026080329
 20
-2.970898499119088
 30
0.0
 10
29.49559451939542
 20
-4.155950554386668
 30
0.0
 10
30.8154237599188
 20
-5.226620456777265
 30
0.0
 10
32.13750989943991
 20
-6.151449071023013
 30
0.0
 10
33.45913570665989
 20
-6.906660099003314
 30
0.0
 10
34.77891540372225
 20
-7.471703323737691
 30
0.0
 10
36.10024556414778
 20
-7.828979571472976
 30
0.0
 10
37.42259573966942
 20
-7.972479824720961
 30
0.0
 10
38.74247591195365
 20
-7.886178577901004
 30
0.0
 10
39.87022443561849
 20
-7.656469262272941
 30
0.0
 10
40.55879653058365
 20
-7.377125920216674
 30
0.0
 10
40.80680415606557
 20
-7.276512956862325
 30
0.0
  0
SPLINE
  5
A9
330
1F
100
AcDbEntity
  8
0
  6
Continuous
 62
     1
370
    15
100
AcDbSpline
210
0.0
220
0.0
230
1.0
 70
     8
 71
     3
 72
    29
 73
    25
 74
     0
 42
0.000000001
 43
0.00000001
 40
0.0
 40
0.0
 40
0.0
 40
0.0
 40
0.0460980243383029
 40
0.0930242935698783
 40
0.1400416455514777
 40
0.1869880401932891
 40
0.2339050287539844
 40
0.2809085847499204
 40
0.3278767217786905
 40
0.374789876280774
 40
0.4217684037461683
 40
0.4687629124399597
 40
0.5156776835792718
 40
0.5626322717518637
 40
0.6096454598361613
 40
0.6565672965865893
 40
0.7035033520793994
 40
0.7505232112534054
 40
0.7974575550647895
 40
0.8460071952872787
 40
0.8946376637923384
 40
0.9432352605891055
 40
0.9917777200473317
 40
1.0
 40
1.0
 40
1.0
 40
1.0
 10
44.00254564010081
 20
-7.934515823541646
 30
0.0
 10
43.57035588266699
 20
-7.914867191655143
 30
0.0
 10
42.69821119858321
 20
-7.875216900192703
 30
0.0
 10
41.38598270628923
 20
-7.540203028111937
 30
0.0
 10
40.06320596980747
 20
-7.012071354379743
 30
0.0
 10
38.74248951874922
 20
-6.285042731410895
 30
0.0
 10
37.42259208711631
 20
-5.384854703888379
 30
0.0
 10
36.10024654282164
 20
-4.337010779875646
 30
0.0
 10
34.7789151419269
 20
-3.168714626091732
 30
0.0
 10
33.45913577687369
 20
-1.911727151143976
 30
0.0
 10
32.13750988063516
 20
-0.6031543671022548
 30
0.0
 10
30.81542376484314
 20
0.7216756020597188
 30
0.0
 10
29.4955945184683
 20
2.028373207955301
 30
0.0
 10
28.17464025958438
 20
3.278225299724108
 30
0.0
 10
26.85201916349175
 20
4.436222255112751
 30
0.0
 10
25.53198303474286
 20
5.473536568906067
 30
0.0
 10
24.21155015198685
 20
6.359179468840778
 30
0.0
 10
22.88872251743574
 20
7.067882269997384
 30
0.0
 10
21.55314721297643
 20
7.588749860979032
 30
0.0
 10
20.20246731601658
 20
7.895756032999836
 30
0.0
 10
18.83429600959194
 20
7.977755046250947
 30
0.0
 10
17.46698969461526
 20
7.804430465716454
 30
0.0
 10
16.47977819652209
 20
7.564677152955523
 30
0.0
 10
15.94744002010001
 20
7.323331888732389
 30
0.0
 10
15.87033170318601
 20
7.288373420706507
 30
0.0
  0
LINE
  5
AA
330
1F
100
AcDbEntity
  8
0
  6
Continuous
 62
     1
370
    15
100
AcDbLine
 10
53.27500000000003
 20
-3.109777044610668
 30
0.0
 11
53.27500000000003
 21
3.111926902058607
 31
0.0
  0
SPLINE
  5
AB
330
1F
100
AcDbEntity
  8
0
  6
Continuous
 62
     1
370
    15
100
AcDbSpline
210
0.0
220
0.0
230
1.0
 70
     8
 71
     3
 72
    10
 73
     6
 74
     0
 42
0.000000001
 43
0.00000001
 40
0.0
 40
0.0
 40
0.0
 40
0.0
 40
0.3529952529988287
 40
0.7065965723751012
 40
1.0
 40
1.0
 40
1.0
 40
1.0
 10
12.00000000000005
 20
-7.90784571620136
 30
0.0
 10
12.45510570541076
 20
-7.922642459204102
 30
0.0
 10
13.3660984985989
 20
-7.952261350107678
 30
0.0
 10
14.65748872085069
 20
-7.733214597178995
 30
0.0
 10
15.49192975200194
 20
-7.42568290124454
 30
0.0
 10
15.87033170318606
 20
-7.286223563258718
 30
0.0
  0
SPLINE
  5
AC
330
1F
100
AcDbEntity
  8
0
  6
Continuous
 62
     1
370
    15
100
AcDbSpline
210
0.0
220
0.0
230
1.0
 70
     8
 71
     3
 72
    19
 73
    15
 74
     0
 42
0.000000001
 43
0.00000001
 40
0.0
 40
0.0
 40
0.0
 40
0.0
 40
0.0722759199688564
 40
0.1565884402225332
 40
0.2410283950149806
 40
0.325304771405619
 40
0.409587969365355
 40
0.4940311247146566
 40
0.5783339325550356
 40
0.6625975649590727
 40
0.7470223404917795
 40
0.8313613156584226
 40
0.9156151600725297
 40
0.9999999999999999
 40
0.9999999999999999
 40
0.9999999999999999
 40
0.9999999999999999
 10
37.61066639308849
 20
7.92519423454767
 30
0.0
 10
37.98788275616005
 20
7.915029790984699
 30
0.0
 10
38.805135887566
 20
7.893008149974228
 30
0.0
 10
40.06318714868278
 20
7.593447271161826
 30
0.0
 10
41.38596095386892
 20
7.091769650720784
 30
0.0
 10
42.70611322231887
 20
6.387363340435961
 30
0.0
 10
44.02638434544371
 20
5.507761535339692
 30
0.0
 10
45.34917468758766
 20
4.47728397524715
 30
0.0
 10
46.66975012835516
 20
3.321648058811856
 30
0.0
 10
47.98970841259906
 20
2.07379862064955
 30
0.0
 10
49.31220753392706
 20
0.77031791197209
 30
0.0
 10
50.63334301145599
 20
-0.5539922239185066
 30
0.0
 10
51.95314026661927
 20
-1.870017406747529
 30
0.0
 10
52.83415197082908
 20
-2.696309882251578
 30
0.0
 10
53.27500000000005
 20
-3.109777044610669
 30
0.0
  0
SPLINE
  5
AD
330
1F
100
AcDbEntity
  8
외형선
  6
Continuous
370
    15
100
AcDbSpline
210
0.0
220
0.0
230
1.0
 70
    24
 71
     3
 72
    13
 73
     9
 74
     0
 42
0.000000001
 43
0.00000001
 40
0.0
 40
0.0
 40
0.0
 40
0.0
 40
0.0406593074072016
 40
0.2156839830437705
 40
0.3957843861308172
 40
0.5708090617673585
 40
0.7509094648543753
 40
1.0
 40
1.0
 40
1.0
 40
1.0
 10
12.00000000000004
 20
-5.059841835583311
 30
0.0
 10
12.00000000000004
 20
-5.090427144486262
 30
0.0
 10
12.00000000000004
 20
-5.252671945676458
 30
0.0
 10
12.00000000000007
 20
-5.605232027052542
 30
0.0
 10
12.00000000000004
 20
-6.099581793152606
 30
0.0
 10
12.0
 20
-6.628846164698649
 30
0.0
 10
12.00000000000003
 20
-7.239643391209659
 30
0.0
 10
12.00000000000004
 20
-7.662456624429858
 30
0.0
 10
12.00000000000005
 20
-7.907845716201368
 30
0.0
  0
SPLINE
  5
AE
330
1F
100
AcDbEntity
  8
0
  6
Continuous
 62
     1
370
    15
100
AcDbSpline
210
0.0
220
0.0
230
1.0
 70
     8
 71
     3
 72
    17
 73
    13
 74
     0
 42
0.000000001
 43
0.00000001
 40
0.0
 40
0.0
 40
0.0
 40
0.0
 40
0.1060178467885482
 40
0.2118711158842586
 40
0.3178313399624892
 40
0.4238993602997569
 40
0.5297649266471752
 40
0.6356797114965324
 40
0.7417708235239838
 40
0.8476609712783006
 40
0.9535425486772299
 40
1.0
 40
1.0
 40
1.0
 40
1.0
 10
53.27500000000003
 20
3.111926902058606
 30
0.0
 10
52.83415197119182
 20
3.508784543990657
 30
0.0
 10
51.953140267707
 20
4.301883762568842
 30
0.0
 10
50.63334300711093
 20
5.351248690597809
 30
0.0
 10
49.31220755024717
 20
6.258085016699902
 30
0.0
 10
47.9897083516525
 20
6.989705504249322
 30
0.0
 10
46.6697503553695
 20
7.529937002187848
 30
0.0
 10
45.34917383926996
 20
7.860659554660537
 30
0.0
 10
44.0263875147019
 20
7.977218256087494
 30
0.0
 10
42.70610142049212
 20
7.861774399427654
 30
0.0
 10
41.6336523155773
 20
7.6267350827399
 30
0.0
 10
41.00003322185815
 20
7.36000505167652
 30
0.0
 10
40.80680415606563
 20
7.278662814310114
 30
0.0
  0
SPLINE
  5
AF
330
1F
100
AcDbEntity
  8
0
  6
Continuous
 62
     1
370
    15
100
AcDbSpline
210
0.0
220
0.0
230
1.0
 70
     8
 71
     3
 72
    13
 73
     9
 74
     0
 42
0.000000001
 43
0.00000001
 40
0.0
 40
0.0
 40
0.0
 40
0.0
 40
0.0328693927283761
 40
0.2263498805043598
 40
0.4196108512700644
 40
0.613029577863045
 40
0.8066807462621207
 40
1.0
 40
1.0
 40
1.0
 40
1.0
 10
19.06649961256959
 20
-7.919844348918009
 30
0.0
 10
18.9890388478264
 20
-7.925099038458545
 30
0.0
 10
18.45561752823322
 20
-7.961284627873487
 30
0.0
 10
17.46704024001392
 20
-7.800879937463646
 30
0.0
 10
16.10139807989337
 20
-7.429281735574648
 30
0.0
 10
14.73461729773569
 20
-6.813419818393481
 30
0.0
 10
13.36611404642912
 20
-6.0132598034759
 30
0.0
 10
12.45511088505645
 20
-5.332846029185132
 30
0.0
 10
12.00000000000001
 20
-4.992930946392804
 30
0.0
  0
LINE
  5
B0
330
1F
100
AcDbEntity
  8
0
  6
Continuous
 62
     1
370
    15
100
AcDbLine
 10
53.27500000000003
 20
-7.878501569079281
 30
0.0
 11
53.27500000000003
 21
-4.767649595744602
 31
0.0
  0
SPLINE
  5
B1
330
1F
100
AcDbEntity
  8
0
  6
Continuous
 62
     1
370
    15
100
AcDbSpline
210
0.0
220
0.0
230
1.0
 70
     8
 71
     3
 72
    26
 73
    22
 74
     0
 42
0.000000001
 43
0.00000001
 40
0.0
 40
0.0
 40
0.0
 40
0.0
 40
0.0082142928388025
 40
0.063261770216118
 40
0.1184028077050951
 40
0.1735250936092871
 40
0.2285706741042536
 40
0.2836807683828431
 40
0.3388324215297031
 40
0.3938825007198482
 40
0.4489670835544882
 40
0.5041349242301438
 40
0.5591958929015313
 40
0.6142613183639968
 40
0.6694312500854261
 40
0.7245094874302952
 40
0.7795621299695321
 40
0.834720053456281
 40
0.8898219202938223
 40
0.9448681679661942
 40
1.0
 40
1.0
 40
1.0
 40
1.0
 10
29.29887136493244
 20
7.924648568212324
 30
0.0
 10
29.36452053312023
 20
7.929107507687518
 30
0.0
 10
29.87011275807203
 20
7.963447701058144
 30
0.0
 10
30.81535295408094
 20
7.816717883731784
 30
0.0
 10
32.13752886423237
 20
7.474110813877211
 30
0.0
 10
33.45913068914753
 20
6.904165761813025
 30
0.0
 10
34.77891654303577
 20
6.148253031244556
 30
0.0
 10
36.10024602887143
 20
5.221486968769149
 30
0.0
 10
37.42259273968517
 20
4.151717928802304
 30
0.0
 10
38.74248742554464
 20
2.965412169265915
 30
0.0
 10
40.06321370186365
 20
1.697615719105713
 30
0.0
 10
41.38595384982512
 20
0.384753892869064
 30
0.0
 10
42.70611512434031
 20
-0.9409519099676292
 30
0.0
 10
44.0263838346756
 20
-2.24051102931559
 30
0.0
 10
45.34917482430534
 20
-3.476006886622288
 30
0.0
 10
46.66975009176875
 20
-4.617374120401404
 30
0.0
 10
47.98970842242144
 20
-5.630940352022181
 30
0.0
 10
49.31220753129687
 20
-6.488501748424336
 30
0.0
 10
50.63334301215625
 20
-7.163456373608526
 30
0.0
 10
51.95314026644397
 20
-7.656190058224359
 30
0.0
 10
52.83415197077062
 20
-7.804359367038105
 30
0.0
 10
53.27500000000006
 20
-7.878501569079283
 30
0.0
  0
SPLINE
  5
B2
330
1F
100
AcDbEntity
  8
0
  6
Continuous
 62
     1
370
    15
100
AcDbSpline
210
0.0
220
0.0
230
1.0
 70
     8
 71
     3
 72
    23
 73
    19
 74
     0
 42
0.000000001
 43
0.00000001
 40
0.0
 40
0.0
 40
0.0
 40
0.0
 40
0.0636133632987272
 40
0.12712797585989
 40
0.1907067640892611
 40
0.2543502327738206
 40
0.3178722239939938
 40
0.3814237475480116
 40
0.4450810718250146
 40
0.5086178125049703
 40
0.5721494107570481
 40
0.6358043222998898
 40
0.6993631675396084
 40
0.762882201062729
 40
0.8265184347725998
 40
0.8901067161600438
 40
0.9536205589046222
 40
0.9999999999999999
 40
0.9999999999999999
 40
0.9999999999999999
 40
0.9999999999999999
 10
53.27500000000003
 20
-4.767649595744602
 30
0.0
 10
52.83415197077081
 20
-4.402863045416442
 30
0.0
 10
51.95314026644461
 20
-3.673856224218249
 30
0.0
 10
50.63334301215352
 20
-2.441797552111507
 30
0.0
 10
49.31220753130693
 20
-1.152464584221398
 30
0.0
 10
47.98970842238375
 20
0.1700083994465009
 30
0.0
 10
46.6697500919089
 20
1.489279531345212
 30
0.0
 10
45.3491748237813
 20
2.76712181096093
 30
0.0
 10
44.02638383663339
 20
3.966674966855267
 30
0.0
 10
42.70611511704978
 20
5.058654885297216
 30
0.0
 10
41.38595387705524
 20
6.01067876328372
 30
0.0
 10
40.06321360008398
 20
6.795203041977063
 30
0.0
 10
38.74248780462879
 20
7.393241255648967
 30
0.0
 10
37.42259132474319
 20
7.78638764908908
 30
0.0
 10
36.10025131879708
 20
7.965835016102516
 30
0.0
 10
34.77889682826007
 20
7.918455404133332
 30
0.0
 10
33.57838832956725
 20
7.699781812513672
 30
0.0
 10
32.81691521628167
 20
7.407125904475134
 30
0.0
 10
32.49554255209976
 20
7.283613193108209
 30
0.0
  0
SPLINE
  5
B3
330
1F
100
AcDbEntity
  8
0
  6
Continuous
 62
     1
370
    15
100
AcDbSpline
210
0.0
220
0.0
230
1.0
 70
     8
 71
     3
 72
    23
 73
    19
 74
     0
 42
0.000000001
 43
0.00000001
 40
0.0
 40
0.0
 40
0.0
 40
0.0
 40
0.06665259032086
 40
0.1334196181408637
 40
0.2001065047013951
 40
0.2667390002257361
 40
0.3334471807999189
 40
0.4002004831907583
 40
0.4668428354930207
 40
0.5312679282644572
 40
0.5958104049113866
 40
0.6602378472466135
 40
0.7246457720234226
 40
0.7891790915044392
 40
0.8536319729854435
 40
0.9180301990509326
 40
0.9825378780016141
 40
1.0
 40
1.0
 40
1.0
 40
1.0
 10
12.00000000000005
 20
4.538339130468623
 30
0.0
 10
12.45511082802839
 20
4.151507434927334
 30
0.0
 10
13.36611387524694
 20
3.377179882832946
 30
0.0
 10
14.73461798349325
 20
2.081897853174671
 30
0.0
 10
16.1013955127801
 20
0.7333885470451083
 30
0.0
 10
17.46704982014041
 20
-0.6397111313234489
 30
0.0
 10
18.83427987725294
 20
-1.992489416900649
 30
0.0
 10
20.20247163560602
 20
-3.285725843109969
 30
0.0
 10
21.55314610340794
 20
-4.469822263075269
 30
0.0
 10
22.88872279596824
 20
-5.512835659961939
 30
0.0
 10
24.2115501341545
 20
-6.390121009796215
 30
0.0
 10
25.5319828283883
 20
-7.092124712643145
 30
0.0
 10
26.85202000723102
 20
-7.598185278593271
 30
0.0
 10
28.17463708581774
 20
-7.892532399324605
 30
0.0
 10
29.49560634695129
 20
-7.973327805258061
 30
0.0
 10
30.81537962729865
 20
-7.817957364750688
 30
0.0
 10
31.81615578670938
 20
-7.580799517138625
 30
0.0
 10
32.37622941573802
 20
-7.334032417747529
 30
0.0
 10
32.49554255209971
 20
-7.281463335660422
 30
0.0
  0
SPLINE
  5
B4
330
1F
100
AcDbEntity
  8
외형선
  6
Continuous
370
    15
100
AcDbSpline
210
0.0
220
0.0
230
1.0
 70
    24
 71
     3
 72
    14
 73
    10
 74
     0
 42
0.000000001
 43
0.00000001
 40
0.0
 40
0.0
 40
0.0
 40
0.0
 40
0.1284320658232353
 40
0.2804935587489062
 40
0.4369648452708011
 40
0.5890263381964407
 40
0.7454976247183007
 40
0.8975591176439368
 40
1.0
 40
1.0
 40
1.0
 40
1.0
 10
12.0
 20
7.841097487898357
 30
0.0
 10
12.00000000000001
 20
7.699829002690687
 30
0.0
 10
12.00000000000004
 20
7.391300911197527
 30
0.0
 10
12.00000000000004
 20
6.886880266281212
 30
0.0
 10
12.00000000000008
 20
6.352761064506793
 30
0.0
 10
12.00000000000003
 20
5.823246418826156
 30
0.0
 10
12.00000000000003
 20
5.326626694182562
 30
0.0
 10
12.00000000000004
 20
4.911099290399745
 30
0.0
 10
12.00000000000005
 20
4.693027190097861
 30
0.0
 10
12.00000000000006
 20
4.605250019659127
 30
0.0
  0
SPLINE
  5
B5
330
1F
100
AcDbEntity
  8
0
  6
Continuous
 62
     1
370
    15
100
AcDbSpline
210
0.0
220
0.0
230
1.0
 70
     8
 71
     3
 72
    25
 73
    21
 74
     0
 42
0.000000001
 43
0.00000001
 40
0.0
 40
0.0
 40
0.0
 40
0.0
 40
0.0385098311322717
 40
0.0942188775664565
 40
0.150005553942334
 40
0.205811207916378
 40
0.2615221740960881
 40
0.3172804227273707
 40
0.3731082583484197
 40
0.4288276148924514
 40
0.484563856094699
 40
0.5403996135886274
 40
0.596133822181023
 40
0.653786184087266
 40
0.7115345290199054
 40
0.7692438390263484
 40
0.8268876738247044
 40
0.8845785623598288
 40
0.9423387811742002
 40
1.0
 40
1.0
 40
1.0
 40
1.0
 10
35.69103039597913
 20
-7.912943052659648
 30
0.0
 10
35.38684314287103
 20
-7.912164671225538
 30
0.0
 10
34.64261288490317
 20
-7.91026026856045
 30
0.0
 10
33.45916151067409
 20
-7.654501383483404
 30
0.0
 10
32.13750297821127
 20
-7.188419393940841
 30
0.0
 10
30.81542561115833
 20
-6.515892725442179
 30
0.0
 10
29.49559402327883
 20
-5.664383192799223
 30
0.0
 10
28.17464039392009
 20
-4.656051955864066
 30
0.0
 10
26.85201912229141
 20
-3.520544523343779
 30
0.0
 10
25.53198306537771
 20
-2.285719620450876
 30
0.0
 10
24.21155007052029
 20
-0.9878611177064399
 30
0.0
 10
22.88872281297802
 20
0.3351951887077971
 30
0.0
 10
21.55314609867907
 20
1.666403984037528
 30
0.0
 10
20.20247163689356
 20
2.965283098289912
 30
0.0
 10
18.83427987690795
 20
4.189737239418626
 30
0.0
 10
17.46704982023267
 20
5.290769046347745
 30
0.0
 10
16.10139551275533
 20
6.236947030830506
 30
0.0
 10
14.73461798349985
 20
6.993834361725923
 30
0.0
 10
13.36611387524523
 20
7.560031161341523
 30
0.0
 10
12.4551108280278
 20
7.747462300577648
 30
0.0
 10
12.00000000000001
 20
7.841097487898359
 30
0.0
  0
SPLINE
  5
B6
330
1F
100
AcDbEntity
  8
0
  6
Continuous
 62
     1
370
    15
100
AcDbSpline
210
0.0
220
0.0
230
1.0
 70
     8
 71
     3
 72
    29
 73
    25
 74
     0
 42
0.000000001
 43
0.00000001
 40
0.0
 40
0.0
 40
0.0
 40
0.0
 40
0.0206905679378268
 40
0.0676256237015889
 40
0.1146461961251652
 40
0.1615829635963193
 40
0.2085055121094044
 40
0.2555194133420787
 40
0.3024747137741379
 40
0.3493901965689282
 40
0.3963854181277467
 40
0.4433646582157463
 40
0.4902785243487849
 40
0.5372473738425476
 40
0.584251642840749
 40
0.6311693430905593
 40
0.6781164498675489
 40
0.7251345150606878
 40
0.7720614961221576
 40
0.8189922755866622
 40
0.8660121229218118
 40
0.9129538216087245
 40
0.9598737065319466
 40
1.0
 40
1.0
 40
1.0
 40
1.0
 10
20.98640624550843
 20
7.909832668299116
 30
0.0
 10
21.18037341455371
 20
7.916683427568986
 30
0.0
 10
21.814341067048
 20
7.939074638378009
 30
0.0
 10
22.88869088814236
 20
7.738533539478871
 30
0.0
 10
24.21155861677313
 20
7.328744692105464
 30
0.0
 10
25.53198076922109
 20
6.702429782404375
 30
0.0
 10
26.85201977181437
 20
5.894022578264497
 30
0.0
 10
28.17464009662207
 20
4.923361230539884
 30
0.0
 10
29.49559456225796
 20
3.815873146340691
 30
0.0
 10
30.81542375238031
 20
2.602074924334692
 30
0.0
 10
32.13750988663585
 20
1.318095718758983
 30
0.0
 10
33.45913576535212
 20
-0.002663891690687
 30
0.0
 10
34.77891518197936
 20
-1.324661972874885
 30
0.0
 10
36.10024639387425
 20
-2.608927199905883
 30
0.0
 10
37.42259264280038
 20
-3.820261168790819
 30
0.0
 10
38.74248744872455
 20
-4.927773378893841
 30
0.0
 10
40.0632137060194
 20
-5.898423670366084
 30
0.0
 10
41.38595380993549
 20
-6.704943234508992
 30
0.0
 10
42.70611527938451
 20
-7.327568887543485
 30
0.0
 10
44.02638325374608
 20
-7.746879765106852
 30
0.0
 10
45.34917699589116
 20
-7.953159492340008
 30
0.0
 10
46.66974200426689
 20
-7.934498444866786
 30
0.0
 10
47.92524027449963
 20
-7.72717294346222
 30
0.0
 10
48.74212651170377
 20
-7.427110457089587
 30
0.0
 10
49.11869234710121
 20
-7.28878852717303
 30
0.0
  0
SPLINE
  5
B7
330
1F
100
AcDbEntity
  8
0
  6
Continuous
 62
     1
370
    15
100
AcDbSpline
210
0.0
220
0.0
230
1.0
 70
     8
 71
     3
 72
    30
 73
    26
 74
     0
 42
0.000000001
 43
0.00000001
 40
0.0
 40
0.0
 40
0.0
 40
0.0
 40
0.0128608607201971
 40
0.0597755296876999
 40
0.1067376016087648
 40
0.153747449341119
 40
0.2006675685086771
 40
0.2476095015488274
 40
0.2946295836273679
 40
0.3415605973905984
 40
0.3884878127318303
 40
0.4355061126594622
 40
0.4824534538166912
 40
0.5293713882999297
 40
0.5763758919637487
 40
0.6233449759462982
 40
0.6702590762936241
 40
0.7172385509222856
 40
0.7642340071015519
 40
0.8111497241187003
 40
0.8581052589719046
 40
0.9051193949182837
 40
0.9520421776890023
 40
0.998979179488776
 40
1.0
 40
1.0
 40
1.0
 40
1.0
 10
52.3146671103528
 20
-7.914577505690442
 30
0.0
 10
52.19401901922773
 20
-7.921012994394212
 30
0.0
 10
51.633263117293
 20
-7.950924269730788
 30
0.0
 10
50.63339491837248
 20
-7.784034162473609
 30
0.0
 10
49.31219360050702
 20
-7.411595474200537
 30
0.0
 10
47.98971214876155
 20
-6.8180899854832
 30
0.0
 10
46.66974909364856
 20
-6.039594384928116
 30
0.0
 10
45.34917509228259
 20
-5.092948101865483
 30
0.0
 10
44.02638376309747
 20
-4.007513169644816
 30
0.0
 10
42.70611514303587
 20
-2.809363325929769
 30
0.0
 10
41.38595384654318
 20
-1.533361045028584
 30
0.0
 10
40.06321369624253
 20
-0.2171828493768064
 30
0.0
 10
38.74248745125188
 20
1.106842005249096
 30
0.0
 10
37.42259264245293
 20
2.400825196343679
 30
0.0
 10
36.1002463927294
 20
3.626560485097114
 30
0.0
 10
34.77891518689861
 20
4.753047295866371
 30
0.0
 10
33.45913574683123
 20
5.748942966978338
 30
0.0
 10
32.1375099559236
 20
6.584992490497226
 30
0.0
 10
30.81542349388117
 20
7.238933487517301
 30
0.0
 10
29.49559552550244
 20
7.694014993337341
 30
0.0
 10
28.17463649624883
 20
7.934325552043471
 30
0.0
 10
26.85203321588154
 20
7.961766463506983
 30
0.0
 10
25.53193069955503
 20
7.745689834884092
 30
0.0
 10
24.64280927759075
 20
7.514777819781211
 30
0.0
 10
24.1927992335949
 20
7.305875285197742
 30
0.0
 10
24.18322041076618
 20
7.301428628075434
 30
0.0
  0
LINE
  5
B8
330
1F
100
AcDbEntity
  8
0
  6
Continuous
 62
     1
370
    15
100
AcDbLine
 10
53.27500000000003
 20
4.754562944189717
 30
0.0
 11
53.27500000000003
 21
7.880651426527076
 31
0.0
  0
SPLINE
  5
B9
330
1F
100
AcDbEntity
  8
0
  6
Continuous
 62
     1
370
    15
100
AcDbSpline
210
0.0
220
0.0
230
1.0
 70
     8
 71
     3
 72
    16
 73
    12
 74
     0
 42
0.000000001
 43
0.00000001
 40
0.0
 40
0.0
 40
0.0
 40
0.0
 40
0.1121325031789682
 40
0.2244575294568112
 40
0.3366477306665014
 40
0.448746427509906
 40
0.5609724525494287
 40
0.6732743879508013
 40
0.7853896672732436
 40
0.8937747560630717
 40
1.0
 40
1.0
 40
1.0
 40
1.0
 10
12.00000000000003
 20
-3.37058151445664
 30
0.0
 10
12.45511082485849
 20
-3.773393144755327
 30
0.0
 10
13.36611386573189
 20
-4.579708002714123
 30
0.0
 10
14.7346180216105
 20
-5.625070722837041
 30
0.0
 10
16.10139537008922
 20
-6.512304305314475
 30
0.0
 10
17.46705035264367
 20
-7.205051449952026
 30
0.0
 10
18.8342778867331
 20
-7.684449430366162
 30
0.0
 10
20.20247906444638
 20
-7.937483351136017
 30
0.0
 10
21.55311881965658
 20
-7.951449641840009
 30
0.0
 10
22.87925288159664
 20
-7.75573199336628
 30
0.0
 10
23.7514906434123
 20
-7.450405573444887
 30
0.0
 10
24.1832204107662
 20
-7.299278770627645
 30
0.0
  0
SPLINE
  5
BA
330
1F
100
AcDbEntity
  8
0
  6
Continuous
 62
     1
370
    15
100
AcDbSpline
210
0.0
220
0.0
230
1.0
 70
     8
 71
     3
 72
    13
 73
     9
 74
     0
 42
0.000000001
 43
0.00000001
 40
0.0
 40
0.0
 40
0.0
 40
0.0
 40
0.1016231952886435
 40
0.2811503108832405
 40
0.4610207485049394
 40
0.6407083849371229
 40
0.8202146468188015
 40
1.0
 40
1.0
 40
1.0
 40
1.0
 10
45.92283857098555
 20
7.91159276344557
 30
0.0
 10
46.17187348164483
 20
7.91533123012521
 30
0.0
 10
46.86085243328834
 20
7.925674056546105
 30
0.0
 10
47.98966839278112
 20
7.699410280650334
 30
0.0
 10
49.31221825035769
 20
7.261609338485056
 30
0.0
 10
50.63334015833561
 20
6.610082547079487
 30
0.0
 10
51.95314098089268
 20
5.787361871973099
 30
0.0
 10
52.83415220904347
 20
5.109162530491566
 30
0.0
 10
53.27500000000005
 20
4.769799453192431
 30
0.0
  0
SPLINE
  5
BB
330
1F
100
AcDbEntity
  8
외형선
  6
Continuous
370
    15
100
AcDbSpline
210
0.0
220
0.0
230
1.0
 70
    24
 71
     3
 72
    24
 73
    20
 74
     0
 42
0.000000001
 43
0.00000001
 40
0.0
 40
0.0
 40
0.0
 40
0.0
 40
0.1249999999999997
 40
0.1249999999999997
 40
0.1874999999999996
 40
0.1874999999999996
 40
0.2499999999999996
 40
0.2499999999999996
 40
0.3749999999999996
 40
0.3749999999999996
 40
0.4999999999999997
 40
0.4999999999999997
 40
0.6249999999999998
 40
0.6249999999999998
 40
0.7499999999999998
 40
0.7499999999999998
 40
0.8749999999999999
 40
0.8749999999999999
 40
1.0
 40
1.0
 40
1.0
 40
1.0
 10
12.00000000000004
 20
2.847091612781574
 30
0.0
 10
12.00000000000002
 20
2.797496983950307
 30
0.0
 10
12.00000000000005
 20
2.71155853570658
 30
0.0
 10
12.00000000000004
 20
2.561729839369797
 30
0.0
 10
12.00000000000003
 20
2.51029626163695
 30
0.0
 10
12.00000000000005
 20
2.388646878512578
 30
0.0
 10
12.00000000000005
 20
2.318718607478665
 30
0.0
 10
12.00000000000003
 20
2.07601228028555
 30
0.0
 10
12.00000000000007
 20
1.8697462327821
 30
0.0
 10
12.00000000000006
 20
1.343936820258229
 30
0.0
 10
12.00000000000007
 20
1.023040561280724
 30
0.0
 10
12.00000000000005
 20
0.2766828891524141
 30
0.0
 10
12.00000000000005
 20
-0.1493498818897263
 30
0.0
 10
12.00000000000005
 20
-1.025909363491333
 30
0.0
 10
12.00000000000006
 20
-1.473833578255543
 30
0.0
 10
12.00000000000005
 20
-2.266571088698213
 30
0.0
 10
12.00000000000002
 20
-2.608353890238609
 30
0.0
 10
12.00000000000002
 20
-3.115216756753809
 30
0.0
 10
12.00000000000003
 20
-3.281099581389848
 30
0.0
 10
12.00000000000003
 20
-3.370581514456606
 30
0.0
  0
SPLINE
  5
BC
330
1F
100
AcDbEntity
  8
0
  6
Continuous
 62
     1
370
    15
100
AcDbSpline
210
0.0
220
0.0
230
1.0
 70
     8
 71
     3
 72
    11
 73
     7
 74
     0
 42
0.000000001
 43
0.00000001
 40
0.0
 40
0.0
 40
0.0
 40
0.0
 40
0.3180259920122876
 40
0.6355582937109789
 40
0.9534114325653661
 40
1.0
 40
1.0
 40
1.0
 40
1.0
 10
53.27500000000003
 20
7.880651426527076
 30
0.0
 10
52.83415176498008
 20
7.913718104090278
 30
0.0
 10
51.95313964939186
 20
7.979800127882684
 30
0.0
 10
50.63334547693209
 20
7.782196927383897
 30
0.0
 10
49.68847968950397
 20
7.549200479929589
 30
0.0
 10
49.18327536621668
 20
7.320211316110998
 30
0.0
 10
49.1186923471012
 20
7.290938384620819
 30
0.0
  0
SPLINE
  5
BD
330
1F
100
AcDbEntity
  8
0
  6
Continuous
 62
     1
370
    15
100
AcDbSpline
210
0.0
220
0.0
230
1.0
 70
     8
 71
     3
 72
    19
 73
    15
 74
     0
 42
0.000000001
 43
0.00000001
 40
0.0
 40
0.0
 40
0.0
 40
0.0
 40
0.0342552324767767
 40
0.1200925046194792
 40
0.2059557880640384
 40
0.2919723792196239
 40
0.377832531370215
 40
0.4666476538977891
 40
0.5556106410395455
 40
0.6445134937542226
 40
0.7333154800267198
 40
0.8221899539347322
 40
0.9111712331329809
 40
0.9999999999999999
 40
0.9999999999999999
 40
0.9999999999999999
 40
0.9999999999999999
 10
27.37865328309019
 20
-7.910064099880017
 30
0.0
 10
27.20293110547536
 20
-7.916664367374636
 30
0.0
 10
26.58688167590979
 20
-7.939803683539687
 30
0.0
 10
25.5320060404599
 20
-7.749644455354067
 30
0.0
 10
24.21154390146483
 20
-7.34824317476038
 30
0.0
 10
22.88872446199843
 20
-6.731058332367615
 30
0.0
 10
21.55314564024095
 20
-5.921217662344117
 30
0.0
 10
20.20247176171745
 20
-4.930219218811652
 30
0.0
 10
18.83427984346199
 20
-3.783715891325643
 30
0.0
 10
17.46704982918015
 20
-2.524656313936499
 30
0.0
 10
16.10139551035773
 20
-1.189800048035573
 30
0.0
 10
14.73461798414032
 20
0.178375379605097
 30
0.0
 10
13.36611387508536
 20
1.545937126319947
 30
0.0
 10
12.45511082797452
 20
2.413621529169907
 30
0.0
 10
12.00000000000001
 20
2.847091612781585
 30
0.0
  0
LINE
  5
BE
330
1F
100
AcDbEntity
  8
0
  6
Continuous
 62
     1
370
    15
100
AcDbLine
 10
53.27500000000003
 20
-7.936425071276107
 30
0.0
 11
53.27500000000003
 21
-7.878501569079281
 31
0.0
  0
LINE
  5
BF
330
1F
100
AcDbEntity
  8
0
  6
Continuous
 62
     1
370
    15
100
AcDbLine
 10
53.27500000000003
 20
7.880651426527076
 30
0.0
 11
53.27500000000003
 21
7.938574928723897
 31
0.0
  0
LINE
  5
C0
330
1F
100
AcDbEntity
  8
외형선
  6
Continuous
370
    15
100
AcDbLine
 10
12.0
 20
2.84709161278158
 30
0.0
 11
12.00000000000004
 21
4.538339130468621
 31
0.0
  0
LINE
  5
C1
330
1F
100
AcDbEntity
  8
0
  6
Continuous
 62
     1
370
    15
100
AcDbLine
 10
53.27500000000003
 20
-4.767649595744602
 30
0.0
 11
53.27500000000003
 21
-3.109777044610668
 31
0.0
  0
LINE
  5
C2
330
1F
100
AcDbEntity
  8
외형선
  6
Continuous
370
    15
100
AcDbLine
 10
12.0
 20
7.841097487898357
 30
0.0
 11
12.00000000000004
 21
7.938574928723899
 31
0.0
  0
LINE
  5
C3
330
1F
100
AcDbEntity
  8
0
  6
Continuous
 62
     1
370
    15
100
AcDbLine
 10
53.27500000000003
 20
3.111926902058607
 30
0.0
 11
53.27500000000003
 21
4.769799453192432
 31
0.0
  0
LINE
  5
C4
330
1F
100
AcDbEntity
  8
외형선
  6
Continuous
370
    15
100
AcDbLine
 10
12.0
 20
-4.992930946392807
 30
0.0
 11
12.00000000000003
 21
-3.37058151445664
 31
0.0
  0
LINE
  5
C5
330
1F
100
AcDbEntity
  8
외형선
  6
Continuous
370
    15
100
AcDbLine
 10
11.0001402824415
 20
-7.760557187491786
 30
0.0
 11
11.00014028244151
 21
-4.177875101772844
 31
0.0
  0
SPLINE
  5
C6
330
1F
100
AcDbEntity
  8
외형선
  6
Continuous
370
    15
100
AcDbSpline
210
0.0
220
0.0
230
1.0
 70
     8
 71
     3
 72
     8
 73
     4
 74
     0
 42
0.000000001
 43
0.00000001
 40
0.0
 40
0.0
 40
0.0
 40
0.0
 40
1.0
 40
1.0
 40
1.0
 40
1.0
 10
12.00000000000004
 20
-7.907845716201355
 30
0.0
 10
11.6652943918334
 20
-7.879537159348883
 30
0.0
 10
11.33174680551732
 20
-7.83023103623914
 30
0.0
 10
11.00014028244151
 20
-7.760548812940575
 30
0.0
  0
SPLINE
  5
C7
330
1F
100
AcDbEntity
  8
외형선
  6
Continuous
370
    15
100
AcDbSpline
210
0.0
220
0.0
230
1.0
 70
     8
 71
     3
 72
     8
 73
     4
 74
     0
 42
0.000000001
 43
0.00000001
 40
0.0
 40
0.0
 40
0.0
 40
0.0
 40
1.0
 40
1.0
 40
1.0
 40
1.0
 10
12.00000000000004
 20
7.841097487898353
 30
0.0
 10
11.6652943918334
 20
7.893264671658767
 30
0.0
 10
11.33174680551727
 20
7.924523245433133
 30
0.0
 10
11.00014028244151
 20
7.934794829632557
 30
0.0
  0
LINE
  5
C8
330
1F
100
AcDbEntity
  8
외형선
  6
Continuous
370
    15
100
AcDbLine
 10
11.0001402824415
 20
5.320894064276952
 30
0.0
 11
11.00014028244151
 21
7.934796017629536
 31
0.0
  0
SPLINE
  5
C9
330
1F
100
AcDbEntity
  8
외형선
  6
Continuous
370
    15
100
AcDbSpline
210
0.0
220
0.0
230
1.0
 70
     8
 71
     3
 72
     8
 73
     4
 74
     0
 42
0.000000001
 43
0.00000001
 40
0.0
 40
0.0
 40
0.0
 40
0.0
 40
1.0
 40
1.0
 40
1.0
 40
1.0
 10
12.00000000000004
 20
4.538339130468628
 30
0.0
 10
11.6652943918334
 20
4.812305098420527
 30
0.0
 10
11.33174680551732
 20
5.073885100662531
 30
0.0
 10
11.00014028244151
 20
5.320923754301438
 30
0.0
  0
SPLINE
  5
CA
330
1F
100
AcDbEntity
  8
외형선
  6
Continuous
370
    15
100
AcDbSpline
210
0.0
220
0.0
230
1.0
 70
     8
 71
     3
 72
     8
 73
     4
 74
     0
 42
0.000000001
 43
0.00000001
 40
0.0
 40
0.0
 40
0.0
 40
0.0
 40
1.0
 40
1.0
 40
1.0
 40
1.0
 10
12.00000000000004
 20
2.84709161278157
 30
0.0
 10
11.6652943918334
 20
3.158785508870468
 30
0.0
 10
11.33174680551727
 20
3.46254647280276
 30
0.0
 10
11.00014028244151
 20
3.755812065826156
 30
0.0
  0
LINE
  5
CB
330
1F
100
AcDbEntity
  8
외형선
  6
Continuous
370
    15
100
AcDbLine
 10
11.0001402824415
 20
-2.440738051938762
 30
0.0
 11
11.00014028244151
 21
3.755845987132718
 31
0.0
  0
SPLINE
  5
CC
330
1F
100
AcDbEntity
  8
외형선
  6
Continuous
370
    15
100
AcDbSpline
210
0.0
220
0.0
230
1.0
 70
     8
 71
     3
 72
     8
 73
     4
 74
     0
 42
0.000000001
 43
0.00000001
 40
0.0
 40
0.0
 40
0.0
 40
0.0
 40
1.0
 40
1.0
 40
1.0
 40
1.0
 10
12.00000000000004
 20
-3.370581514456644
 30
0.0
 10
11.6652943918334
 20
-3.068306989652277
 30
0.0
 10
11.33174680551732
 20
-2.757420864300535
 30
0.0
 10
11.00014028244151
 20
-2.440699987363065
 30
0.0
  0
SPLINE
  5
CD
330
1F
100
AcDbEntity
  8
외형선
  6
Continuous
370
    15
100
AcDbSpline
210
0.0
220
0.0
230
1.0
 70
     8
 71
     3
 72
     8
 73
     4
 74
     0
 42
0.000000001
 43
0.00000001
 40
0.0
 40
0.0
 40
0.0
 40
0.0
 40
1.0
 40
1.0
 40
1.0
 40
1.0
 10
12.00000000000004
 20
-4.992930946392814
 30
0.0
 10
11.6652943918334
 20
-4.733404234064328
 30
0.0
 10
11.33174680551727
 20
-4.460901843906401
 30
0.0
 10
11.00014028244151
 20
-4.177907835082427
 30
0.0
  0
LINE
  5
CE
330
1F
100
AcDbEntity
  8
외형선
  6
Continuous
370
    15
100
AcDbLine
 10
-40.38749999999997
 20
0.0010749287238949
 30
0.0
 11
-40.38749999999997
 21
7.938574928723888
 31
0.0
  0
LINE
  5
CF
330
1F
100
AcDbEntity
  8
외형선
  6
Continuous
370
    15
100
AcDbLine
 10
-40.38749999999997
 20
-7.936425071276092
 30
0.0
 11
-40.38749999999997
 21
0.0010749287238949
 31
0.0
  0
LINE
  5
D0
330
1F
100
AcDbEntity
  8
외형선
  6
Continuous
370
    15
100
AcDbLine
 10
-41.97499999999997
 20
0.0010749287238949
 30
0.0
 11
-41.97499999999997
 21
6.351074928723902
 31
0.0
  0
LINE
  5
D1
330
1F
100
AcDbEntity
  8
외형선
  6
Continuous
370
    15
100
AcDbLine
 10
-41.97499999999997
 20
-6.348925071276112
 30
0.0
 11
-41.97499999999997
 21
0.0010749287238949
 31
0.0
  0
SPLINE
  5
D2
330
1F
100
AcDbEntity
  8
외형선
  6
Continuous
370
    15
100
AcDbSpline
210
0.0
220
0.0
230
1.0
 70
    24
 71
     3
 72
    24
 73
    20
 74
     0
 42
0.000000001
 43
0.00000001
 40
0.0
 40
0.0
 40
0.0
 40
0.0
 40
0.125
 40
0.125
 40
0.25
 40
0.25
 40
0.375
 40
0.375
 40
0.5
 40
0.5
 40
0.625
 40
0.625
 40
0.75
 40
0.75
 40
0.8124999999999999
 40
0.8124999999999999
 40
0.8749999999999998
 40
0.8749999999999998
 40
1.0
 40
1.0
 40
1.0
 40
1.0
 10
12.00000000000004
 20
-3.370581514456606
 30
0.0
 10
12.00000000000004
 20
-3.281099581389846
 30
0.0
 10
12.00000000000005
 20
-3.1152167567538
 30
0.0
 10
12.00000000000005
 20
-2.608353890238574
 30
0.0
 10
12.00000000000005
 20
-2.266571088698162
 30
0.0
 10
12.00000000000005
 20
-1.473833578255457
 30
0.0
 10
12.00000000000005
 20
-1.025909363491228
 30
0.0
 10
12.00000000000005
 20
-0.1493498818895985
 30
0.0
 10
12.00000000000005
 20
0.2766828891525478
 30
0.0
 10
12.00000000000003
 20
1.023040561280856
 30
0.0
 10
12.00000000000003
 20
1.343936820258356
 30
0.0
 10
12.00000000000003
 20
1.869746232782209
 30
0.0
 10
12.00000000000004
 20
2.076012280285648
 30
0.0
 10
12.00000000000004
 20
2.318718607478746
 30
0.0
 10
12.00000000000003
 20
2.388646878512653
 30
0.0
 10
12.00000000000004
 20
2.510296261637015
 30
0.0
 10
12.00000000000002
 20
2.56172983936986
 30
0.0
 10
12.00000000000005
 20
2.711558535706638
 30
0.0
 10
12.00000000000004
 20
2.797496983950361
 30
0.0
 10
12.00000000000005
 20
2.847091612781611
 30
0.0
  0
SPLINE
  5
D3
330
1F
100
AcDbEntity
  8
외형선
  6
Continuous
370
    15
100
AcDbSpline
210
0.0
220
0.0
230
1.0
 70
    24
 71
     3
 72
    14
 73
    10
 74
     0
 42
0.000000001
 43
0.00000001
 40
0.0
 40
0.0
 40
0.0
 40
0.0
 40
0.0720351725324215
 40
0.2495307948082902
 40
0.4270264170841593
 40
0.6045220393600328
 40
0.7820176616359064
 40
0.9595132839117794
 40
1.0
 40
1.0
 40
1.0
 40
1.0
 10
12.00000000000004
 20
-7.907845716201355
 30
0.0
 10
12.00000000000004
 20
-7.837998094849095
 30
0.0
 10
12.00000000000003
 20
-7.596045006395623
 30
0.0
 10
12.00000000000005
 20
-7.167868604305102
 30
0.0
 10
12.00000000000004
 20
-6.631266542153076
 30
0.0
 10
12.00000000000003
 20
-6.104043441402682
 30
0.0
 10
12.00000000000003
 20
-5.606913233910596
 30
0.0
 10
12.00000000000002
 20
-5.254673147185266
 30
0.0
 10
12.00000000000003
 20
-5.090360305249395
 30
0.0
 10
12.00000000000004
 20
-5.059841835583313
 30
0.0
  0
SPLINE
  5
D4
330
1F
100
AcDbEntity
  8
외형선
  6
Continuous
370
    15
100
AcDbSpline
210
0.0
220
0.0
230
1.0
 70
    24
 71
     3
 72
    14
 73
    10
 74
     0
 42
0.000000001
 43
0.00000001
 40
0.0
 40
0.0
 40
0.0
 40
0.0
 40
0.1003808512295946
 40
0.2546451887688308
 40
0.4089095263080672
 40
0.5609765170970028
 40
0.7152408546362526
 40
0.8695051921755027
 40
1.0
 40
1.0
 40
1.0
 40
1.0
 10
12.00000000000005
 20
4.605250019659127
 30
0.0
 10
12.00000000000005
 20
4.691155500368698
 30
0.0
 10
12.00000000000007
 20
4.909079706864334
 30
0.0
 10
12.00000000000003
 20
5.322775810690184
 30
0.0
 10
12.00000000000003
 20
5.818800463724028
 30
0.0
 10
12.00000000000001
 20
6.343133435207288
 30
0.0
 10
12.00000000000001
 20
6.877054408133657
 30
0.0
 10
12.00000000000004
 20
7.384250160397946
 30
0.0
 10
12.00000000000003
 20
7.697531836687763
 30
0.0
 10
12.00000000000002
 20
7.841097487898558
 30
0.0
  0
LINE
  5
D5
330
1F
100
AcDbEntity
  8
중심선
 48
0.8
100
AcDbLine
 10
-44.97499999999996
 20
0.0010749287238888
 30
0.0
 11
56.27500000000005
 21
0.0010749287239012
 31
0.0
  0
LINE
  5
D6
330
1F
100
AcDbEntity
  8
참조1
100
AcDbLine
 10
5.650000000000044
 20
0.0010749287238892
 30
0.0
 11
5.650000000000049
 21
-39.99892507127611
 31
0.0
  0
LINE
  5
D7
330
1F
100
AcDbEntity
  8
참조1
100
AcDbLine
 10
5.650000000000049
 20
-39.99892507127611
 30
0.0
 11
-9.508856814308633
 21
-39.9989250712761
 31
0.0
  0
CIRCLE
  5
D8
330
1F
100
AcDbEntity
  8
해칭선
100
AcDbCircle
 10
0.0000000000000104
 20
0.0
 30
0.0
 40
3.000000000000002
  0
INSERT
  5
D9
330
1F
100
AcDbEntity
  8
0
  6
Continuous
 62
     7
100
AcDbBlockReference
 66
     1
  2
블럭10
 10
-8.290272932125161
 20
-52.04609937292004
 30
0.0
  0
ATTRIB
  5
DA
330
D9
100
AcDbEntity
  8
FORMAT
 62
     2
100
AcDbText
 10
-17.47156822086644
 20
-49.97073246008785
 30
0.0
 40
4.233333333333333
  1
E1032040 [ 6 FLUTE ]
 41
0.75
  7
SLDTEXTSTYLE0
 11
-17.47156822086644
 21
-52.08739912675452
 31
0.0
100
AcDbAttribute
  2
AUTOATTR0
 70
     0
 74
     1
  0
SEQEND
  5
DB
330
D9
100
AcDbEntity
  8
0
  6
Continuous
 62
     7
  0
HATCH
  5
DC
330
1F
100
AcDbEntity
  8
중심선
100
AcDbHatch
 10
0.0
 20
0.0
 30
0.0
210
0.0
220
0.0
230
1.0
  2
SOLID
 70
     1
 71
     0
 91
        1
 92
        0
 93
        4
 72
     1
 10
-2.575363627744326
 20
-35.7989250712761
 11
-6.021638871581608
 21
-35.7989250712761
 72
     1
 10
-6.021638871581608
 20
-35.7989250712761
 11
-8.14986873078563
 21
-38.3352506518487
 72
     1
 10
-8.14986873078563
 20
-38.3352506518487
 11
-4.703560401835199
 21
-38.33521122254621
 72
     1
 10
-4.703560401835199
 20
-38.33521122254621
 11
-2.575363627744326
 21
-35.7989250712761
 97
        0
 75
     0
 76
     1
 98
        1
 10
0.0
 20
0.0
  0
HATCH
  5
DD
330
1F
100
AcDbEntity
  8
중심선
100
AcDbHatch
 10
0.0
 20
0.0
 30
0.0
210
0.0
220
0.0
230
1.0
  2
SOLID
 70
     1
 71
     0
 91
        1
 92
        0
 93
        4
 72
     1
 10
2.437400363291653
 20
-35.7989250712761
 11
-1.008874880545629
 21
-35.7989250712761
 72
     1
 10
-1.008874880545629
 20
-35.7989250712761
 11
-5.540012888903046
 21
-41.19892507127612
 72
     1
 10
-5.540012888903045
 20
-41.19892507127612
 11
-2.093737645065763
 21
-41.19892507127612
 72
     1
 10
-2.093737645065763
 20
-41.19892507127612
 11
2.437400363291653
 21
-35.7989250712761
 97
        0
 75
     0
 76
     1
 98
        1
 10
0.0
 20
0.0
  0
HATCH
  5
DE
330
1F
100
AcDbEntity
  8
중심선
100
AcDbHatch
 10
0.0
 20
0.0
 30
0.0
210
0.0
220
0.0
230
1.0
  2
SOLID
 70
     1
 71
     0
 91
        1
 92
        0
 93
        4
 72
     1
 10
7.450164354327521
 20
-35.7989250712761
 11
4.003889110490405
 21
-35.7989250712761
 72
     1
 10
4.003889110490405
 20
-35.7989250712761
 11
-3.044547791398844
 21
-44.19892507127612
 72
     1
 10
-3.044547791398844
 20
-44.19892507127612
 11
0.4017274524384384
 21
-44.19892507127612
 72
     1
 10
0.4017274524384384
 20
-44.19892507127612
 11
7.450164354327521
 21
-35.7989250712761
 97
        0
 75
     0
 76
     1
 98
        1
 10
0.0
 20
0.0
  0
HATCH
  5
DF
330
1F
100
AcDbEntity
  8
중심선
100
AcDbHatch
 10
0.0
 20
0.0
 30
0.0
210
0.0
220
0.0
230
1.0
  2
SOLID
 70
     1
 71
     0
 91
        1
 92
        0
 93
        6
 72
     3
 10
12.25005478533972
 20
-39.99892507132738
 11
3.960054785062284
 21
1.540850780301639E-10
 40
0.3939339440162633
 50
17.09539180608434
 51
320.0019657685073
 73
     0
 72
     1
 10
13.93305444104032
 20
-38.58681907591438
 11
16.23835631474135
 21
-36.65249236586649
 72
     3
 10
12.25005478528687
 20
-39.99892507127625
 11
6.600054785286829
 21
-1.249000902703301E-13
 40
0.6363583540795982
 50
39.99873849337411
 51
368.4976242363725
 73
     1
 72
     1
 10
18.67538727718748
 20
-39.03892507120613
 11
10.9301220921228
 21
-39.0389250712061
 72
     1
 10
10.9301220921228
 20
-39.0389250712061
 11
10.93009704767686
 21
-40.95892507120602
 72
     1
 10
10.93009704767686
 20
-40.95892507120602
 11
15.3714768171489
 21
-40.95892507120599
 97
        0
 75
     0
 76
     1
 98
        1
 10
0.0
 20
0.0
  0
DIMENSION
  5
E0
330
1F
100
AcDbEntity
  8
치수문자_일반주서
100
AcDbDimension
  2
_D
 10
-54.97499999999995
 20
-7.936425071276171
 30
0.0
 11
-54.97499999999998
 21
0.0010749287239079
 31
0.0
 70
   160
  1
%%c<>
 71
     2
 42
15.87500000000003
  3
SLDDIMSTYLE0
100
AcDbAlignedDimension
 13
-40.38749999999997
 23
7.938574928723908
 33
0.0
 14
-40.38749999999997
 24
-7.936425071276119
 34
0.0
 50
90.0000000000002
100
AcDbRotatedDimension
1001
ACAD
1000
DSTYLE
1002
{
1070
   171
1070
     6
1070
   273
1070
     7
1002
}
  0
DIMENSION
  5
F5
330
1F
100
AcDbEntity
  8
치수문자_일반주서
100
AcDbDimension
  2
_D_1
 10
12.0
 20
30.42063796711783
 30
0.0
 11
32.63750000000002
 21
30.42063796711783
 31
0.0
 70
   160
  1
<>
 71
     2
 42
41.27500000000003
  3
SLDDIMSTYLE0
100
AcDbAlignedDimension
 13
53.27500000000003
 23
7.938574928723899
 33
0.0
 14
12.0
 24
7.841097487898357
 34
0.0
100
AcDbRotatedDimension
1001
ACAD
1000
DSTYLE
1002
{
1070
   171
1070
     6
1070
   273
1070
     7
1002
}
  0
DIMENSION
  5
109
330
1F
100
AcDbEntity
  8
치수문자_일반주서
100
AcDbDimension
  2
_D_2
 10
-41.97499999999997
 20
42.42063796711784
 30
0.0
 11
5.650000000000037
 21
42.42063796711784
 31
0.0
 70
   160
  1
<>
 71
     2
 42
95.25
  3
SLDDIMSTYLE0
100
AcDbAlignedDimension
 13
53.27500000000003
 23
7.938574928723899
 33
0.0
 14
-41.97499999999997
 24
6.351074928723902
 34
0.0
100
AcDbRotatedDimension
1001
ACAD
1000
DSTYLE
1002
{
1070
   171
1070
     6
1070
   273
1070
     7
1002
}
  0
DIMENSION
  5
11C
330
1F
100
AcDbEntity
  8
치수문자_일반주서
100
AcDbDimension
  2
_D_3
 10
73.91725991954476
 20
-7.936425071276037
 30
0.0
 11
73.91725991954463
 21
28.54257492872397
 31
0.0
 70
   160
  1
%%c<>
 71
     2
 42
15.87500000000001
  3
SLDDIMSTYLE0
100
AcDbAlignedDimension
 13
53.27500000000003
 23
7.938574928723899
 33
0.0
 14
53.27500000000003
 24
-7.936425071276108
 34
0.0
 50
90.0000000000002
100
AcDbRotatedDimension
1001
ACAD
1000
DSTYLE
1002
{
1070
   171
1070
     6
1070
   273
1070
     7
1002
}
  0
LINE
  5
12F
330
1F
100
AcDbEntity
  8
참조1
100
AcDbLine
 10
88.46348381534564
 20
7.441074928723896
 30
0.0
 11
88.46348381534564
 21
-7.438925071276109
 31
0.0
  0
LINE
  5
130
330
1F
100
AcDbEntity
  8
참조1
100
AcDbLine
 10
101.1634838153456
 20
5.441074928723896
 30
0.0
 11
88.46348381534564
 21
5.441074928723896
 31
0.0
  0
SOLID
  5
131
330
1F
100
AcDbEntity
  8
참조1
100
AcDbTrace
 10
88.46348381534564
 20
5.441074928723896
 30
0.0
 11
94.81348381534563
 21
4.425074928723896
 31
0.0
 12
94.81348381534563
 22
6.457074928723896
 32
0.0
 13
94.81348381534563
 23
6.457074928723896
 33
0.0
  0
LINE
  5
132
330
1F
100
AcDbEntity
  8
참조1
100
AcDbLine
 10
101.1634838153456
 20
-5.438925071276109
 30
0.0
 11
88.46348381534564
 21
-5.438925071276109
 31
0.0
  0
SOLID
  5
133
330
1F
100
AcDbEntity
  8
참조1
100
AcDbTrace
 10
88.46348381534564
 20
-5.438925071276109
 30
0.0
 11
94.81348381534563
 21
-6.454925071276109
 31
0.0
 12
94.81348381534563
 22
-4.422925071276109
 32
0.0
 13
94.81348381534563
 23
-4.422925071276109
 33
0.0
  0
MTEXT
  5
134
330
1F
100
AcDbEntity
  8
참조1
100
AcDbMText
 10
97.8609739078159
 20
10.98929157337383
 30
0.0
 40
3.5
 41
0.0
 71
     1
 72
     1
  1
A
  7
SLDTEXTSTYLE0
 73
     1
 44
1.0
  0
MTEXT
  5
135
330
1F
100
AcDbEntity
  8
참조1
100
AcDbMText
 10
97.8609739078159
 20
0.1092915733738251
 30
0.0
 40
3.5
 41
0.0
 71
     1
 72
     1
  1
A
  7
SLDTEXTSTYLE0
 73
     1
 44
1.0
  0
INSERT
  5
13C
330
1F
100
AcDbEntity
  8
해칭선
100
AcDbBlockReference
  2
SW_DOWELSYMBOL_0
 10
0.0000000000000104
 20
0.0
 30
0.0
  0
LINE
  5
2FB
330
1F
100
AcDbEntity
  8
외형선
  6
Continuous
370
    15
100
AcDbLine
 10
-22.85832499999998
 20
6.287574928723856
 30
0.0
 11
-12.67292499999996
 21
6.287574928723856
 31
0.0
  0
LINE
  5
2FC
330
1F
100
AcDbEntity
  8
외형선
  6
Continuous
370
    15
100
AcDbLine
 10
-22.85832499999998
 20
6.287574928723956
 30
0.0
 11
-24.50932499999993
 21
7.938574928723867
 31
0.0
  0
LINE
  5
2FD
330
1F
100
AcDbEntity
  8
외형선
  6
Continuous
370
    15
100
AcDbLine
 10
-12.67292500000008
 20
6.287574928723956
 30
0.0
 11
-11.02192500000007
 21
7.938574928723867
 31
0.0
  0
LINE
  5
2FF
330
1F
100
AcDbEntity
  8
외형선
  6
Continuous
370
    15
100
AcDbLine
 10
-24.50932499999996
 20
7.938574928723895
 30
0.0
 11
-40.38749999999996
 21
7.938574928723895
 31
0.0
  0
ENDSEC
  0
SECTION
  2
OBJECTS
  0
DICTIONARY
  5
C
330
0
100
AcDbDictionary
281
     1
  3
ACAD_GROUP
350
D
  3
ACAD_IMAGE_VARS
350
160
  3
ACAD_LAYOUT
350
1A
  3
ACAD_MLINESTYLE
350
17
  3
ACAD_PLOTSETTINGS
350
19
  3
ACAD_PLOTSTYLENAME
350
E
  3
ACAD_SCALELIST
350
47
  3
APPDATA
350
15E
  3
DWGPROPS
350
323
  0
DICTIONARY
  5
211
330
2
100
AcDbDictionary
280
     1
281
     1
  3
ACAD_LAYERSTATES
360
212
  0
DICTIONARY
  5
D
102
{ACAD_REACTORS
330
C
102
}
330
C
100
AcDbDictionary
281
     1
  0
RASTERVARIABLES
  5
160
102
{ACAD_REACTORS
330
C
102
}
330
C
100
AcDbRasterVariables
 90
        0
 70
     1
 71
     1
 72
     1
  0
DICTIONARY
  5
1A
102
{ACAD_REACTORS
330
C
102
}
330
C
100
AcDbDictionary
281
     1
  3
Layout1
350
1E
  3
Layout2
350
26
  3
Model
350
22
  0
DICTIONARY
  5
17
102
{ACAD_REACTORS
330
C
102
}
330
C
100
AcDbDictionary
281
     1
  3
Standard
350
18
  0
DICTIONARY
  5
19
102
{ACAD_REACTORS
330
C
102
}
330
C
100
AcDbDictionary
281
     1
  0
ACDBDICTIONARYWDFLT
  5
E
102
{ACAD_REACTORS
330
C
102
}
330
C
100
AcDbDictionary
281
     1
  3
Normal
350
F
100
AcDbDictionaryWithDefault
340
F
  0
DICTIONARY
  5
47
102
{ACAD_REACTORS
330
C
102
}
330
C
100
AcDbDictionary
281
     1
  3
A0
350
48
  3
A1
350
49
  3
A2
350
4A
  3
A3
350
4B
  3
A4
350
4C
  3
A5
350
4D
  3
A6
350
4E
  3
A7
350
4F
  3
A8
350
50
  3
A9
350
51
  3
B0
350
52
  3
B1
350
53
  3
B2
350
54
  3
B3
350
55
  3
B4
350
56
  3
B5
350
57
  3
B6
350
58
  3
B7
350
59
  3
B8
350
5A
  3
B9
350
5B
  3
C0
350
5C
  3
C1
350
5D
  3
C2
350
5E
  3
C3
350
5F
  3
C4
350
60
  3
C5
350
61
  3
C6
350
62
  3
C7
350
63
  3
C8
350
64
  3
C9
350
65
  3
D0
350
66
  3
D1
350
67
  3
D2
350
68
  0
DICTIONARY
  5
15E
102
{ACAD_REACTORS
330
C
102
}
330
C
100
AcDbDictionary
281
     1
  0
XRECORD
  5
323
102
{ACAD_REACTORS
330
C
102
}
330
C
100
AcDbXrecord
280
     1
  1
DWGPROPS COOKIE
  2

  3

  4

  6

  7

  8
12016016
  9

300
=
301
=
302
=
303
=
304
=
305
=
306
=
307
=
308
=
309
=
 40
0.0
 41
2458323.068227419
 42
2458330.138202894
  1

 90
        0
  0
DICTIONARY
  5
212
102
{ACAD_REACTORS
330
211
102
}
330
211
100
AcDbDictionary
281
     1
  0
LAYOUT
  5
1E
102
{ACAD_REACTORS
330
1A
102
}
330
1A
100
AcDbPlotSettings
  1

  2
none_device
  4

  6

 40
0.0
 41
0.0
 42
0.0
 43
0.0
 44
0.0
 45
0.0
 46
0.0
 47
0.0
 48
0.0
 49
0.0
140
0.0
141
0.0
142
1.0
143
1.0
 70
   688
 72
     1
 73
     0
 74
     5
  7

 75
    16
147
1.0
148
0.0
149
0.0
100
AcDbLayout
  1
Layout1
 70
     1
 71
     1
 10
0.0
 20
0.0
 11
420.0
 21
297.0
 12
0.0
 22
0.0
 32
0.0
 14
1.000000000000000E+20
 24
1.000000000000000E+20
 34
1.000000000000000E+20
 15
-1.000000000000000E+20
 25
-1.000000000000000E+20
 35
-1.000000000000000E+20
146
0.0
 13
0.0
 23
0.0
 33
0.0
 16
1.0
 26
0.0
 36
0.0
 17
0.0
 27
1.0
 37
0.0
 76
     0
330
1B
  0
LAYOUT
  5
26
102
{ACAD_REACTORS
330
1A
102
}
330
1A
100
AcDbPlotSettings
  1

  2
none_device
  4

  6

 40
0.0
 41
0.0
 42
0.0
 43
0.0
 44
0.0
 45
0.0
 46
0.0
 47
0.0
 48
0.0
 49
0.0
140
0.0
141
0.0
142
1.0
143
1.0
 70
   688
 72
     1
 73
     0
 74
     5
  7

 75
    16
147
1.0
148
0.0
149
0.0
100
AcDbLayout
  1
Layout2
 70
     1
 71
     2
 10
0.0
 20
0.0
 11
0.0
 21
0.0
 12
0.0
 22
0.0
 32
0.0
 14
0.0
 24
0.0
 34
0.0
 15
0.0
 25
0.0
 35
0.0
146
0.0
 13
0.0
 23
0.0
 33
0.0
 16
1.0
 26
0.0
 36
0.0
 17
0.0
 27
1.0
 37
0.0
 76
     0
330
23
  0
LAYOUT
  5
22
102
{ACAD_REACTORS
330
1A
102
}
330
1A
100
AcDbPlotSettings
  1

  2
none_device
  4
ANSI_A_(11.00_x_8.50_Inches)
  6

 40
6.35
 41
19.05
 42
6.35000508
 43
19.05000254
 44
279.4
 45
215.9
 46
53.63703852440286
 47
87.78694742280936
 48
0.0
 49
0.0
140
0.0
141
0.0
142
0.0350732678308526
143
1.0
 70
  1696
 72
     0
 73
     0
 74
     0
  7

 75
     0
147
0.0235690232323232
148
0.0
149
0.0
100
AcDbLayout
  1
Model
 70
     1
 71
     0
 10
0.0
 20
0.0
 11
420.0
 21
297.0
 12
0.0
 22
0.0
 32
0.0
 14
-59.35000000000002
 24
-49.97073246008785
 34
0.0
 15
101.1634838153456
 25
46.79563796711784
 35
0.0
146
0.0
 13
0.0
 23
0.0
 33
0.0
 16
1.0
 26
0.0
 36
0.0
 17
0.0
 27
1.0
 37
0.0
 76
     0
330
1F
331
29
  0
MLINESTYLE
  5
18
102
{ACAD_REACTORS
330
17
102
}
330
17
100
AcDbMlineStyle
  2
Standard
 70
     0
  3

 62
   256
 51
90.0
 52
90.0
 71
     2
 49
0.5
 62
   256
  6
BYLAYER
 49
-0.5
 62
   256
  6
BYLAYER
  0
ACDBPLACEHOLDER
  5
F
102
{ACAD_REACTORS
330
E
102
}
330
E
  0
SCALE
  5
48
102
{ACAD_REACTORS
330
47
102
}
330
47
100
AcDbScale
 70
     0
300
1:1
140
1.0
141
1.0
290
     1
  0
SCALE
  5
49
102
{ACAD_REACTORS
330
47
102
}
330
47
100
AcDbScale
 70
     0
300
1:2
140
1.0
141
2.0
290
     0
  0
SCALE
  5
4A
102
{ACAD_REACTORS
330
47
102
}
330
47
100
AcDbScale
 70
     0
300
1:4
140
1.0
141
4.0
290
     0
  0
SCALE
  5
4B
102
{ACAD_REACTORS
330
47
102
}
330
47
100
AcDbScale
 70
     0
300
1:5
140
1.0
141
5.0
290
     0
  0
SCALE
  5
4C
102
{ACAD_REACTORS
330
47
102
}
330
47
100
AcDbScale
 70
     0
300
1:8
140
1.0
141
8.0
290
     0
  0
SCALE
  5
4D
102
{ACAD_REACTORS
330
47
102
}
330
47
100
AcDbScale
 70
     0
300
1:10
140
1.0
141
10.0
290
     0
  0
SCALE
  5
4E
102
{ACAD_REACTORS
330
47
102
}
330
47
100
AcDbScale
 70
     0
300
1:16
140
1.0
141
16.0
290
     0
  0
SCALE
  5
4F
102
{ACAD_REACTORS
330
47
102
}
330
47
100
AcDbScale
 70
     0
300
1:20
140
1.0
141
20.0
290
     0
  0
SCALE
  5
50
102
{ACAD_REACTORS
330
47
102
}
330
47
100
AcDbScale
 70
     0
300
1:30
140
1.0
141
30.0
290
     0
  0
SCALE
  5
51
102
{ACAD_REACTORS
330
47
102
}
330
47
100
AcDbScale
 70
     0
300
1:40
140
1.0
141
40.0
290
     0
  0
SCALE
  5
52
102
{ACAD_REACTORS
330
47
102
}
330
47
100
AcDbScale
 70
     0
300
1:50
140
1.0
141
50.0
290
     0
  0
SCALE
  5
53
102
{ACAD_REACTORS
330
47
102
}
330
47
100
AcDbScale
 70
     0
300
1:100
140
1.0
141
100.0
290
     0
  0
SCALE
  5
54
102
{ACAD_REACTORS
330
47
102
}
330
47
100
AcDbScale
 70
     0
300
2:1
140
2.0
141
1.0
290
     0
  0
SCALE
  5
55
102
{ACAD_REACTORS
330
47
102
}
330
47
100
AcDbScale
 70
     0
300
4:1
140
4.0
141
1.0
290
     0
  0
SCALE
  5
56
102
{ACAD_REACTORS
330
47
102
}
330
47
100
AcDbScale
 70
     0
300
8:1
140
8.0
141
1.0
290
     0
  0
SCALE
  5
57
102
{ACAD_REACTORS
330
47
102
}
330
47
100
AcDbScale
 70
     0
300
10:1
140
10.0
141
1.0
290
     0
  0
SCALE
  5
58
102
{ACAD_REACTORS
330
47
102
}
330
47
100
AcDbScale
 70
     0
300
100:1
140
100.0
141
1.0
290
     0
  0
SCALE
  5
59
102
{ACAD_REACTORS
330
47
102
}
330
47
100
AcDbScale
 70
     0
300
1/128" = 1'-0"
140
0.0078125
141
12.0
290
     0
  0
SCALE
  5
5A
102
{ACAD_REACTORS
330
47
102
}
330
47
100
AcDbScale
 70
     0
300
1/64" = 1'-0"
140
0.015625
141
12.0
290
     0
  0
SCALE
  5
5B
102
{ACAD_REACTORS
330
47
102
}
330
47
100
AcDbScale
 70
     0
300
1/32" = 1'-0"
140
0.03125
141
12.0
290
     0
  0
SCALE
  5
5C
102
{ACAD_REACTORS
330
47
102
}
330
47
100
AcDbScale
 70
     0
300
1/16" = 1'-0"
140
0.0625
141
12.0
290
     0
  0
SCALE
  5
5D
102
{ACAD_REACTORS
330
47
102
}
330
47
100
AcDbScale
 70
     0
300
3/32" = 1'-0"
140
0.09375
141
12.0
290
     0
  0
SCALE
  5
5E
102
{ACAD_REACTORS
330
47
102
}
330
47
100
AcDbScale
 70
     0
300
1/8" = 1'-0"
140
0.125
141
12.0
290
     0
  0
SCALE
  5
5F
102
{ACAD_REACTORS
330
47
102
}
330
47
100
AcDbScale
 70
     0
300
3/16" = 1'-0"
140
0.1875
141
12.0
290
     0
  0
SCALE
  5
60
102
{ACAD_REACTORS
330
47
102
}
330
47
100
AcDbScale
 70
     0
300
1/4" = 1'-0"
140
0.25
141
12.0
290
     0
  0
SCALE
  5
61
102
{ACAD_REACTORS
330
47
102
}
330
47
100
AcDbScale
 70
     0
300
3/8" = 1'-0"
140
0.375
141
12.0
290
     0
  0
SCALE
  5
62
102
{ACAD_REACTORS
330
47
102
}
330
47
100
AcDbScale
 70
     0
300
1/2" = 1'-0"
140
0.5
141
12.0
290
     0
  0
SCALE
  5
63
102
{ACAD_REACTORS
330
47
102
}
330
47
100
AcDbScale
 70
     0
300
3/4" = 1'-0"
140
0.75
141
12.0
290
     0
  0
SCALE
  5
64
102
{ACAD_REACTORS
330
47
102
}
330
47
100
AcDbScale
 70
     0
300
1" = 1'-0"
140
1.0
141
12.0
290
     0
  0
SCALE
  5
65
102
{ACAD_REACTORS
330
47
102
}
330
47
100
AcDbScale
 70
     0
300
1-1/2" = 1'-0"
140
1.5
141
12.0
290
     0
  0
SCALE
  5
66
102
{ACAD_REACTORS
330
47
102
}
330
47
100
AcDbScale
 70
     0
300
3" = 1'-0"
140
3.0
141
12.0
290
     0
  0
SCALE
  5
67
102
{ACAD_REACTORS
330
47
102
}
330
47
100
AcDbScale
 70
     0
300
6" = 1'-0"
140
6.0
141
12.0
290
     0
  0
SCALE
  5
68
102
{ACAD_REACTORS
330
47
102
}
330
47
100
AcDbScale
 70
     0
300
1'-0" = 1'-0"
140
12.0
141
12.0
290
     0
  0
ENDSEC
  0
EOF
