  0
SECTION
  2
HEADER
  9
$ACADVER
  1
AC1015
  9
$ACADMAINTVER
 70
     6
  9
$DWGCODEPAGE
  3
ANSI_949
  9
$INSBASE
 10
0.0
 20
0.0
 30
0.0
  9
$EXTMIN
 10
-57.20564581522808
 20
-49.97073246008785
 30
0.0
  9
$EXTMAX
 10
91.26339147959949
 20
45.93033999616129
 30
0.0
  9
$LIMMIN
 10
0.0
 20
0.0
  9
$LIMMAX
 10
420.0
 20
297.0
  9
$ORTHOMODE
 70
     0
  9
$REGENMODE
 70
     1
  9
$FILLMODE
 70
     1
  9
$QTEXTMODE
 70
     0
  9
$MIRRTEXT
 70
     1
  9
$LTSCALE
 40
1.0
  9
$ATTMODE
 70
     1
  9
$TEXTSIZE
 40
3.5
  9
$TRACEWID
 40
1.0
  9
$TEXTSTYLE
  7
Standard
  9
$CLAYER
  8
0
  9
$CELTYPE
  6
ByLayer
  9
$CECOLOR
 62
   256
  9
$CELTSCALE
 40
1.0
  9
$DISPSILH
 70
     0
  9
$DIMSCALE
 40
1.0
  9
$DIMASZ
 40
3.302
  9
$DIMEXO
 40
1.0
  9
$DIMDLI
 40
3.75
  9
$DIMRND
 40
0.0
  9
$DIMDLE
 40
0.0
  9
$DIMEXE
 40
1.0
  9
$DIMTP
 40
0.0
  9
$DIMTM
 40
0.0
  9
$DIMTXT
 40
3.5
  9
$DIMCEN
 40
2.5
  9
$DIMTSZ
 40
0.0
  9
$DIMTOL
 70
     0
  9
$DIMLIM
 70
     0
  9
$DIMTIH
 70
     1
  9
$DIMTOH
 70
     1
  9
$DIMSE1
 70
     0
  9
$DIMSE2
 70
     0
  9
$DIMTAD
 70
     1
  9
$DIMZIN
 70
     0
  9
$DIMBLK
  1

  9
$DIMASO
 70
     1
  9
$DIMSHO
 70
     1
  9
$DIMPOST
  1

  9
$DIMAPOST
  1

  9
$DIMALT
 70
     0
  9
$DIMALTD
 70
     3
  9
$DIMALTF
 40
0.0393700787401575
  9
$DIMLFAC
 40
1.0
  9
$DIMTOFL
 70
     1
  9
$DIMTVP
 40
0.0
  9
$DIMTIX
 70
     0
  9
$DIMSOXD
 70
     0
  9
$DIMSAH
 70
     0
  9
$DIMBLK1
  1

  9
$DIMBLK2
  1

  9
$DIMSTYLE
  2
ISO-25
  9
$DIMCLRD
 70
     0
  9
$DIMCLRE
 70
     0
  9
$DIMCLRT
 70
     0
  9
$DIMTFAC
 40
1.0
  9
$DIMGAP
 40
1.524
  9
$DIMJUST
 70
     0
  9
$DIMSD1
 70
     0
  9
$DIMSD2
 70
     0
  9
$DIMTOLJ
 70
     0
  9
$DIMTZIN
 70
     0
  9
$DIMALTZ
 70
     0
  9
$DIMALTTZ
 70
     0
  9
$DIMUPT
 70
     0
  9
$DIMDEC
 70
     2
  9
$DIMTDEC
 70
     2
  9
$DIMALTU
 70
     2
  9
$DIMALTTD
 70
     3
  9
$DIMTXSTY
  7
Standard
  9
$DIMAUNIT
 70
     0
  9
$DIMADEC
 70
     2
  9
$DIMALTRND
 40
0.0
  9
$DIMAZIN
 70
     0
  9
$DIMDSEP
 70
    44
  9
$DIMATFIT
 70
     3
  9
$DIMFRAC
 70
     0
  9
$DIMLDRBLK
  1

  9
$DIMLUNIT
 70
     2
  9
$DIMLWD
 70
    -2
  9
$DIMLWE
 70
    -2
  9
$DIMTMOVE
 70
     0
  9
$LUNITS
 70
     2
  9
$LUPREC
 70
     2
  9
$SKETCHINC
 40
1.0
  9
$FILLETRAD
 40
10.0
  9
$AUNITS
 70
     0
  9
$AUPREC
 70
     2
  9
$MENU
  1
.
  9
$ELEVATION
 40
0.0
  9
$PELEVATION
 40
0.0
  9
$THICKNESS
 40
0.0
  9
$LIMCHECK
 70
     0
  9
$CHAMFERA
 40
0.0
  9
$CHAMFERB
 40
0.0
  9
$CHAMFERC
 40
0.0
  9
$CHAMFERD
 40
0.0
  9
$SKPOLY
 70
     0
  9
$TDCREATE
 40
2458312.752245764
  9
$TDUCREATE
 40
2458312.377245764
  9
$TDUPDATE
 40
2458323.733518229
  9
$TDUUPDATE
 40
2458323.358518229
  9
$TDINDWG
 40
0.0001878125
  9
$TDUSRTIMER
 40
2458323.35848309
  9
$USRTIMER
 70
     1
  9
$ANGBASE
 50
0.0
  9
$ANGDIR
 70
     0
  9
$PDMODE
 70
     0
  9
$PDSIZE
 40
-1.0
  9
$PLINEWID
 40
0.0
  9
$SPLFRAME
 70
     0
  9
$SPLINETYPE
 70
     6
  9
$SPLINESEGS
 70
     8
  9
$HANDSEED
  5
26E
  9
$SURFTAB1
 70
     6
  9
$SURFTAB2
 70
     6
  9
$SURFTYPE
 70
     6
  9
$SURFU
 70
     6
  9
$SURFV
 70
     6
  9
$UCSBASE
  2

  9
$UCSNAME
  2

  9
$UCSORG
 10
0.0
 20
0.0
 30
0.0
  9
$UCSXDIR
 10
1.0
 20
0.0
 30
0.0
  9
$UCSYDIR
 10
0.0
 20
1.0
 30
0.0
  9
$UCSORTHOREF
  2

  9
$UCSORTHOVIEW
 70
     0
  9
$UCSORGTOP
 10
0.0
 20
0.0
 30
0.0
  9
$UCSORGBOTTOM
 10
0.0
 20
0.0
 30
0.0
  9
$UCSORGLEFT
 10
0.0
 20
0.0
 30
0.0
  9
$UCSORGRIGHT
 10
0.0
 20
0.0
 30
0.0
  9
$UCSORGFRONT
 10
0.0
 20
0.0
 30
0.0
  9
$UCSORGBACK
 10
0.0
 20
0.0
 30
0.0
  9
$PUCSBASE
  2

  9
$PUCSNAME
  2

  9
$PUCSORG
 10
0.0
 20
0.0
 30
0.0
  9
$PUCSXDIR
 10
1.0
 20
0.0
 30
0.0
  9
$PUCSYDIR
 10
0.0
 20
1.0
 30
0.0
  9
$PUCSORTHOREF
  2

  9
$PUCSORTHOVIEW
 70
     0
  9
$PUCSORGTOP
 10
0.0
 20
0.0
 30
0.0
  9
$PUCSORGBOTTOM
 10
0.0
 20
0.0
 30
0.0
  9
$PUCSORGLEFT
 10
0.0
 20
0.0
 30
0.0
  9
$PUCSORGRIGHT
 10
0.0
 20
0.0
 30
0.0
  9
$PUCSORGFRONT
 10
0.0
 20
0.0
 30
0.0
  9
$PUCSORGBACK
 10
0.0
 20
0.0
 30
0.0
  9
$USERI1
 70
     0
  9
$USERI2
 70
     0
  9
$USERI3
 70
     0
  9
$USERI4
 70
     0
  9
$USERI5
 70
     0
  9
$USERR1
 40
0.0
  9
$USERR2
 40
0.0
  9
$USERR3
 40
0.0
  9
$USERR4
 40
0.0
  9
$USERR5
 40
0.0
  9
$WORLDVIEW
 70
     1
  9
$SHADEDGE
 70
     3
  9
$SHADEDIF
 70
    70
  9
$TILEMODE
 70
     1
  9
$MAXACTVP
 70
    64
  9
$PINSBASE
 10
0.0
 20
0.0
 30
0.0
  9
$PLIMCHECK
 70
     0
  9
$PEXTMIN
 10
1.000000000000000E+20
 20
1.000000000000000E+20
 30
1.000000000000000E+20
  9
$PEXTMAX
 10
-1.000000000000000E+20
 20
-1.000000000000000E+20
 30
-1.000000000000000E+20
  9
$PLIMMIN
 10
0.0
 20
0.0
  9
$PLIMMAX
 10
0.0
 20
0.0
  9
$UNITMODE
 70
     0
  9
$VISRETAIN
 70
     1
  9
$PLINEGEN
 70
     0
  9
$PSLTSCALE
 70
     1
  9
$TREEDEPTH
 70
  3020
  9
$CMLSTYLE
  2
Standard
  9
$CMLJUST
 70
     0
  9
$CMLSCALE
 40
20.0
  9
$PROXYGRAPHICS
 70
     1
  9
$MEASUREMENT
 70
     1
  9
$CELWEIGHT
370
    -1
  9
$ENDCAPS
280
     0
  9
$JOINSTYLE
280
     0
  9
$LWDISPLAY
290
     1
  9
$INSUNITS
 70
     4
  9
$HYPERLINKBASE
  1

  9
$STYLESHEET
  1

  9
$XEDIT
290
     1
  9
$CEPSNTYPE
380
     0
  9
$PSTYLEMODE
290
     1
  9
$FINGERPRINTGUID
  2
{815A13CF-CFB6-4598-9E87-7DBD1D5D855A}
  9
$VERSIONGUID
  2
{FAEB1C32-E019-11D5-929B-00C0DF256EC4}
  9
$EXTNAMES
290
     1
  9
$PSVPSCALE
 40
0.0
  9
$OLESTARTUP
290
     0
  0
ENDSEC
  0
SECTION
  2
CLASSES
  0
CLASS
  1
ACDBDICTIONARYWDFLT
  2
AcDbDictionaryWithDefault
  3
ObjectDBX Classes
 90
        0
280
     0
281
     0
  0
CLASS
  1
VISUALSTYLE
  2
AcDbVisualStyle
  3
ObjectDBX Classes
 90
     4095
280
     0
281
     0
  0
CLASS
  1
MATERIAL
  2
AcDbMaterial
  3
ObjectDBX Classes
 90
     1153
280
     0
281
     0
  0
CLASS
  1
SCALE
  2
AcDbScale
  3
ObjectDBX Classes
 90
     1153
280
     0
281
     0
  0
CLASS
  1
SUN
  2
AcDbSun
  3
SCENEOE
 90
     1153
280
     0
281
     0
  0
CLASS
  1
ACDBPLACEHOLDER
  2
AcDbPlaceHolder
  3
ObjectDBX Classes
 90
        0
280
     0
281
     0
  0
CLASS
  1
LAYOUT
  2
AcDbLayout
  3
ObjectDBX Classes
 90
        0
280
     0
281
     0
  0
CLASS
  1
TABLESTYLE
  2
AcDbTableStyle
  3
ObjectDBX Classes
 90
     4095
280
     0
281
     0
  0
CLASS
  1
MLEADERSTYLE
  2
AcDbMLeaderStyle
  3
ACDB_MLEADERSTYLE_CLASS
 90
     4095
280
     0
281
     0
  0
CLASS
  1
RASTERVARIABLES
  2
AcDbRasterVariables
  3
ISM
 90
        0
280
     0
281
     0
  0
ENDSEC
  0
SECTION
  2
TABLES
  0
TABLE
  2
VPORT
  5
8
330
0
100
AcDbSymbolTable
 70
     1
  0
VPORT
  5
29
330
8
100
AcDbSymbolTableRecord
100
AcDbViewportTableRecord
  2
*Active
 70
     0
 10
0.0
 20
0.0
 11
1.0
 21
1.0
 12
-22.09988473923165
 22
-17.10480228766344
 13
0.0
 23
0.0
 14
10.0
 24
10.0
 15
10.0
 25
10.0
 16
0.0
 26
0.0
 36
1.0
 17
0.0
 27
0.0
 37
0.0
 40
183.3508725421909
 41
1.333733493397359
 42
50.0
 43
0.0
 44
0.0
 50
0.0
 51
0.0
 71
    16
 72
  2000
 73
     1
 74
     3
 75
     0
 76
     0
 77
     0
 78
     0
281
     0
 65
     1
110
0.0
120
0.0
130
0.0
111
1.0
121
0.0
131
0.0
112
0.0
122
1.0
132
0.0
 79
     0
146
0.0
  0
ENDTAB
  0
TABLE
  2
LTYPE
  5
5
330
0
100
AcDbSymbolTable
 70
     6
  0
LTYPE
  5
14
330
5
100
AcDbSymbolTableRecord
100
AcDbLinetypeTableRecord
  2
ByBlock
 70
     0
  3

 72
    65
 73
     0
 40
0.0
  0
LTYPE
  5
15
330
5
100
AcDbSymbolTableRecord
100
AcDbLinetypeTableRecord
  2
ByLayer
 70
     0
  3

 72
    65
 73
     0
 40
0.0
  0
LTYPE
  5
16
330
5
100
AcDbSymbolTableRecord
100
AcDbLinetypeTableRecord
  2
Continuous
 70
     0
  3
Solid line
 72
    65
 73
     0
 40
0.0
  0
LTYPE
  5
6A
330
5
100
AcDbSymbolTableRecord
100
AcDbLinetypeTableRecord
  2
HIDDEN
 70
     0
  3
Hidden __ __ __ __ __ __ __ __ __ __ __ __ __ __
 72
    65
 73
     2
 40
1.905
 49
1.27
 74
     0
 49
-0.635
 74
     0
  0
LTYPE
  5
6B
330
5
100
AcDbSymbolTableRecord
100
AcDbLinetypeTableRecord
  2
PHANTOM
 70
     0
  3
Phantom ______  __  __  ______  __  __  ______
 72
    65
 73
     6
 40
12.7
 49
6.35
 74
     0
 49
-1.27
 74
     0
 49
1.27
 74
     0
 49
-1.27
 74
     0
 49
1.27
 74
     0
 49
-1.27
 74
     0
  0
LTYPE
  5
6C
330
5
100
AcDbSymbolTableRecord
100
AcDbLinetypeTableRecord
  2
CENTER
 70
     0
  3
Center ____ _ ____ _ ____ _ ____ _ ____ _ ____
 72
    65
 73
     4
 40
10.16
 49
6.35
 74
     0
 49
-1.27
 74
     0
 49
1.27
 74
     0
 49
-1.27
 74
     0
  0
LTYPE
  5
6D
330
5
100
AcDbSymbolTableRecord
100
AcDbLinetypeTableRecord
  2
CENTERX2
 70
     0
  3
Center (2x) ________  __  ________  __  _____
 72
    65
 73
     4
 40
20.32
 49
12.7
 74
     0
 49
-2.54
 74
     0
 49
2.54
 74
     0
 49
-2.54
 74
     0
  0
LTYPE
  5
6E
330
5
100
AcDbSymbolTableRecord
100
AcDbLinetypeTableRecord
  2
DOT2
 70
     0
  3
Dot (.5x) ........................................
 72
    65
 73
     2
 40
0.635
 49
0.0
 74
     0
 49
-0.635
 74
     0
  0
ENDTAB
  0
TABLE
  2
LAYER
  5
2
102
{ACAD_XDICTIONARY
360
1BA
102
}
330
0
100
AcDbSymbolTable
 70
    18
  0
LAYER
  5
10
330
2
100
AcDbSymbolTableRecord
100
AcDbLayerTableRecord
  2
0
 70
     0
 62
     7
  6
Continuous
370
    -3
390
F
  0
LAYER
  5
6F
330
2
100
AcDbSymbolTableRecord
100
AcDbLayerTableRecord
  2
FORMAT
 70
     0
 62
     2
  6
Continuous
370
    -3
390
F
  0
LAYER
  5
70
330
2
100
AcDbSymbolTableRecord
100
AcDbLayerTableRecord
  2
외형선
 70
     0
 62
     4
  6
Continuous
370
    30
390
F
  0
LAYER
  5
71
330
2
100
AcDbSymbolTableRecord
100
AcDbLayerTableRecord
  2
숨은선
 70
     0
 62
     2
  6
HIDDEN
370
    15
390
F
  0
LAYER
  5
72
330
2
100
AcDbSymbolTableRecord
100
AcDbLayerTableRecord
  2
중심선
 70
     0
 62
     1
  6
CENTERX2
370
    -3
390
F
  0
LAYER
  5
73
330
2
100
AcDbSymbolTableRecord
100
AcDbLayerTableRecord
  2
파단선
 70
     0
 62
     4
  6
Continuous
370
    -3
390
F
  0
LAYER
  5
74
330
2
100
AcDbSymbolTableRecord
100
AcDbLayerTableRecord
  2
해칭선
 70
     0
 62
   100
  6
Continuous
370
    -3
390
F
  0
LAYER
  5
75
330
2
100
AcDbSymbolTableRecord
100
AcDbLayerTableRecord
  2
가는실선
 70
     0
 62
     4
  6
Continuous
370
    -3
390
F
  0
LAYER
  5
76
330
2
100
AcDbSymbolTableRecord
100
AcDbLayerTableRecord
  2
치수_보조선
 70
     0
 62
     4
  6
Continuous
370
    -3
390
F
  0
LAYER
  5
77
330
2
100
AcDbSymbolTableRecord
100
AcDbLayerTableRecord
  2
치수문자_일반주서
 70
     0
 62
     7
  6
Continuous
370
    15
390
F
  0
LAYER
  5
78
330
2
100
AcDbSymbolTableRecord
100
AcDbLayerTableRecord
  2
개별주서
 70
     0
 62
   100
  6
Continuous
370
    30
390
F
  0
LAYER
  5
79
330
2
100
AcDbSymbolTableRecord
100
AcDbLayerTableRecord
  2
중간선
 70
     0
 62
     2
  6
Continuous
370
    15
390
F
  0
LAYER
  5
7A
330
2
100
AcDbSymbolTableRecord
100
AcDbLayerTableRecord
  2
윤곽선
 70
     0
 62
     3
  6
Continuous
370
    40
390
F
  0
LAYER
  5
7B
330
2
100
AcDbSymbolTableRecord
100
AcDbLayerTableRecord
  2
중심마크
 70
     0
 62
   100
  6
Continuous
370
    30
390
F
  0
LAYER
  5
7C
330
2
100
AcDbSymbolTableRecord
100
AcDbLayerTableRecord
  2
가상선
 70
     0
 62
     4
  6
PHANTOM
370
    -3
390
F
  0
LAYER
  5
7D
330
2
100
AcDbSymbolTableRecord
100
AcDbLayerTableRecord
  2
특수지정선
 70
     0
 62
     5
  6
CENTERX2
370
    60
390
F
  0
LAYER
  5
7E
330
2
100
AcDbSymbolTableRecord
100
AcDbLayerTableRecord
  2
참조1
 70
     0
 62
    -4
  6
Continuous
370
    -3
390
F
  0
LAYER
  5
13A
330
2
100
AcDbSymbolTableRecord
100
AcDbLayerTableRecord
  2
Defpoints
 70
     0
 62
     7
  6
Continuous
290
     0
370
    -3
390
F
  0
ENDTAB
  0
TABLE
  2
STYLE
  5
3
330
0
100
AcDbSymbolTable
 70
     2
  0
STYLE
  5
11
330
3
100
AcDbSymbolTableRecord
100
AcDbTextStyleTableRecord
  2
Standard
 70
     0
 40
0.0
 41
1.0
 50
0.0
 71
     0
 42
3.5
  3
txt
  4

  0
STYLE
  5
94
330
3
100
AcDbSymbolTableRecord
100
AcDbTextStyleTableRecord
  2
SLDTEXTSTYLE0
 70
     0
 40
0.0
 41
0.75
 50
0.0
 71
     0
 42
3.5
  3
TXT
  4

  0
ENDTAB
  0
TABLE
  2
VIEW
  5
6
330
0
100
AcDbSymbolTable
 70
     0
  0
ENDTAB
  0
TABLE
  2
UCS
  5
7
330
0
100
AcDbSymbolTable
 70
     0
  0
ENDTAB
  0
TABLE
  2
APPID
  5
9
330
0
100
AcDbSymbolTable
 70
     1
  0
APPID
  5
12
330
9
100
AcDbSymbolTableRecord
100
AcDbRegAppTableRecord
  2
ACAD
 70
     0
  0
ENDTAB
  0
TABLE
  2
DIMSTYLE
  5
A
330
0
100
AcDbSymbolTable
 70
     4
100
AcDbDimStyleTable
  0
DIMSTYLE
105
27
330
A
100
AcDbSymbolTableRecord
100
AcDbDimStyleTableRecord
  2
ISO-25
 70
     0
 41
2.5
 42
0.625
 43
3.75
 44
1.25
 73
     0
 74
     0
 77
     1
 78
     8
140
2.5
141
2.5
143
0.03937007874016
147
0.625
171
     3
172
     1
178
     0
271
     2
272
     2
274
     3
278
    44
283
     0
284
     8
340
11
  0
DIMSTYLE
105
B7
330
A
100
AcDbSymbolTableRecord
100
AcDbDimStyleTableRecord
  2
SLDDIMSTYLE0
 70
     0
 41
3.302
 44
0.0
 45
0.000000001
 73
     0
 74
     0
 77
     1
 78
    12
 79
     3
140
3.5
143
0.0393700787401575
147
0.875
148
0.000000001
170
     1
173
     1
178
     0
271
     2
272
     2
276
     2
284
    12
340
94
  0
DIMSTYLE
105
CB
102
{ACAD_REACTORS
330
1D1
330
1D2
330
1D3
330
1D4
102
}
330
A
100
AcDbSymbolTableRecord
100
AcDbDimStyleTableRecord
  2
SLDDIMSTYLE1
 70
     0
 41
3.302
 44
0.0
 45
0.000000001
 73
     0
 74
     0
 77
     1
 78
     4
 79
     1
140
3.5
143
0.0393700787401575
147
0.875
148
0.000000001
170
     1
172
     1
173
     1
178
     0
271
     2
272
     2
276
     2
284
    12
289
     0
340
94
  0
DIMSTYLE
105
F4
330
A
100
AcDbSymbolTableRecord
100
AcDbDimStyleTableRecord
  2
SLDDIMSTYLE2
 70
     0
 41
3.302
 44
0.0
 45
0.000000001
 73
     0
 74
     0
 77
     1
 78
    12
 79
     3
140
3.5
143
0.0393700787401575
147
0.875
148
0.000000001
170
     1
172
     1
173
     1
178
     0
271
     2
272
     2
276
     2
284
    12
289
     0
340
94
  0
ENDTAB
  0
TABLE
  2
BLOCK_RECORD
  5
1
330
0
100
AcDbSymbolTable
 70
    15
  0
BLOCK_RECORD
  5
1F
330
1
100
AcDbSymbolTableRecord
100
AcDbBlockTableRecord
  2
*Model_Space
340
22
  0
BLOCK_RECORD
  5
1B
330
1
100
AcDbSymbolTableRecord
100
AcDbBlockTableRecord
  2
*Paper_Space
340
1E
  0
BLOCK_RECORD
  5
23
330
1
100
AcDbSymbolTableRecord
100
AcDbBlockTableRecord
  2
*Paper_Space0
340
26
  0
BLOCK_RECORD
  5
7F
330
1
100
AcDbSymbolTableRecord
100
AcDbBlockTableRecord
  2
블럭10
340
0
102
{BLKREFS
331
AF
102
}
  0
BLOCK_RECORD
  5
B8
330
1
100
AcDbSymbolTableRecord
100
AcDbBlockTableRecord
  2
_D
340
0
  0
BLOCK_RECORD
  5
CC
330
1
100
AcDbSymbolTableRecord
100
AcDbBlockTableRecord
  2
_D_1
340
0
  0
BLOCK_RECORD
  5
E1
330
1
100
AcDbSymbolTableRecord
100
AcDbBlockTableRecord
  2
_D_2
340
0
  0
BLOCK_RECORD
  5
F5
330
1
100
AcDbSymbolTableRecord
100
AcDbBlockTableRecord
  2
_D_3
340
0
  0
BLOCK_RECORD
  5
10F
330
1
100
AcDbSymbolTableRecord
100
AcDbBlockTableRecord
  2
SW_DOWELSYMBOL_0
340
0
102
{BLKREFS
331
1D5
102
}
  0
BLOCK_RECORD
  5
177
330
1
100
AcDbSymbolTableRecord
100
AcDbBlockTableRecord
  2
*D7
340
0
  0
BLOCK_RECORD
  5
184
330
1
100
AcDbSymbolTableRecord
100
AcDbBlockTableRecord
  2
*D8
340
0
  0
BLOCK_RECORD
  5
191
330
1
100
AcDbSymbolTableRecord
100
AcDbBlockTableRecord
  2
*D9
340
0
  0
BLOCK_RECORD
  5
19E
330
1
100
AcDbSymbolTableRecord
100
AcDbBlockTableRecord
  2
*D10
340
0
  0
BLOCK_RECORD
  5
1DF
330
1
100
AcDbSymbolTableRecord
100
AcDbBlockTableRecord
  2
*D11
340
0
  0
BLOCK_RECORD
  5
1EB
330
1
100
AcDbSymbolTableRecord
100
AcDbBlockTableRecord
  2
*D12
340
0
  0
BLOCK_RECORD
  5
1F7
330
1
100
AcDbSymbolTableRecord
100
AcDbBlockTableRecord
  2
*D13
340
0
  0
BLOCK_RECORD
  5
203
330
1
100
AcDbSymbolTableRecord
100
AcDbBlockTableRecord
  2
*D14
340
0
  0
ENDTAB
  0
ENDSEC
  0
SECTION
  2
BLOCKS
  0
BLOCK
  5
20
330
1F
100
AcDbEntity
  8
0
100
AcDbBlockBegin
  2
*Model_Space
 70
     0
 10
0.0
 20
0.0
 30
0.0
  3
*Model_Space
  1
*Model_Space
  0
ENDBLK
  5
21
330
1F
100
AcDbEntity
  8
0
100
AcDbBlockEnd
  0
BLOCK
  5
1C
330
1B
100
AcDbEntity
 67
     1
  8
0
100
AcDbBlockBegin
  2
*Paper_Space
 70
     0
 10
0.0
 20
0.0
 30
0.0
  3
*Paper_Space
  1
*Paper_Space
  0
ENDBLK
  5
1D
330
1B
100
AcDbEntity
 67
     1
  8
0
100
AcDbBlockEnd
  0
BLOCK
  5
24
330
23
100
AcDbEntity
  8
0
100
AcDbBlockBegin
  2
*Paper_Space0
 70
     0
 10
0.0
 20
0.0
 30
0.0
  3
*Paper_Space0
  1
*Paper_Space0
  0
ENDBLK
  5
25
330
23
100
AcDbEntity
  8
0
100
AcDbBlockEnd
  0
BLOCK
  5
80
330
7F
100
AcDbEntity
  8
0
100
AcDbBlockBegin
  2
블럭10
 70
     2
 10
0.0
 20
0.0
 30
0.0
  3
블럭10
  1
블럭10
  0
ELLIPSE
  5
82
330
7F
100
AcDbEntity
  8
중심선
100
AcDbEllipse
 10
20.54032771741204
 20
12.0471743016438
 30
0.0
 11
6.600054785286829
 21
-1.261213355974178E-13
 31
0.0
210
0.0
220
0.0
230
1.0
 40
0.636358354079598
 41
0.9219305317359503
 42
6.513795318482858
  0
ELLIPSE
  5
83
330
7F
100
AcDbEntity
  8
중심선
100
AcDbEllipse
 10
20.54032771746488
 20
12.04717430159265
 30
0.0
 11
3.960054785062283
 21
1.540847449632565E-10
 31
0.0
210
0.0
220
0.0
230
1.0
 40
0.3939339440162632
 41
1.131841032648279
 42
5.62031148352944
  0
LINE
  5
84
330
7F
100
AcDbEntity
  8
중심선
100
AcDbLine
 10
2.268634060543552
 20
16.24717430164393
 30
0.0
 11
5.714909304380834
 21
16.24717430164393
 31
0.0
  0
LINE
  5
85
330
7F
100
AcDbEntity
  8
중심선
100
AcDbLine
 10
5.245725140726316
 20
7.84717430164391
 30
0.0
 11
8.692000384563599
 21
7.84717430164391
 31
0.0
  0
LINE
  5
86
330
7F
100
AcDbEntity
  8
중심선
100
AcDbLine
 10
15.74043728645272
 20
16.24717430164393
 30
0.0
 11
8.692000384563599
 21
7.84717430164391
 31
0.0
  0
LINE
  5
87
330
7F
100
AcDbEntity
  8
중심선
100
AcDbLine
 10
0.1404042013395286
 20
13.71084872107135
 30
0.0
 11
3.58671253028996
 21
13.71088815037384
 31
0.0
  0
LINE
  5
88
330
7F
100
AcDbEntity
  8
중심선
100
AcDbLine
 10
2.750260043222114
 20
10.84717430164391
 30
0.0
 11
6.196535287059397
 21
10.84717430164391
 31
0.0
  0
LINE
  5
89
330
7F
100
AcDbEntity
  8
중심선
100
AcDbLine
 10
12.29416204261559
 20
16.24717430164393
 30
0.0
 11
5.245725140726316
 21
7.84717430164391
 31
0.0
  0
LINE
  5
8A
330
7F
100
AcDbEntity
  8
중심선
100
AcDbLine
 10
10.72767329541681
 20
16.24717430164393
 30
0.0
 11
6.196535287059397
 21
10.84717430164391
 31
0.0
  0
LINE
  5
8B
330
7F
100
AcDbEntity
  8
중심선
100
AcDbLine
 10
7.28139805157953
 20
16.24717430164393
 30
0.0
 11
2.750260043222114
 21
10.84717430164391
 31
0.0
  0
LINE
  5
8C
330
7F
100
AcDbEntity
  8
중심선
100
AcDbLine
 10
5.714909304380834
 20
16.24717430164393
 30
0.0
 11
3.58671253028996
 21
13.71088815037384
 31
0.0
  0
LINE
  5
8D
330
7F
100
AcDbEntity
  8
중심선
100
AcDbLine
 10
2.268634060543552
 20
16.24717430164393
 30
0.0
 11
0.1404042013395286
 21
13.71084872107135
 31
0.0
  0
LINE
  5
8E
330
7F
100
AcDbEntity
  8
중심선
100
AcDbLine
 10
7.28139805157953
 20
16.24717430164393
 30
0.0
 11
10.72767329541681
 21
16.24717430164393
 31
0.0
  0
LINE
  5
8F
330
7F
100
AcDbEntity
  8
중심선
100
AcDbLine
 10
12.29416204261559
 20
16.24717430164393
 30
0.0
 11
15.74043728645272
 21
16.24717430164393
 31
0.0
  0
LINE
  5
90
330
7F
100
AcDbEntity
  8
중심선
100
AcDbLine
 10
19.22036997980202
 20
11.08717430171403
 30
0.0
 11
23.66174974927406
 21
11.08717430171406
 31
0.0
  0
LINE
  5
91
330
7F
100
AcDbEntity
  8
중심선
100
AcDbLine
 10
19.22039502424796
 20
13.00717430171391
 30
0.0
 11
19.22036997980202
 21
11.08717430171403
 31
0.0
  0
LINE
  5
92
330
7F
100
AcDbEntity
  8
중심선
100
AcDbLine
 10
19.22039502424796
 20
13.00717430171391
 30
0.0
 11
26.96566020931264
 21
13.00717430171391
 31
0.0
  0
LINE
  5
93
330
7F
100
AcDbEntity
  8
중심선
100
AcDbLine
 10
22.22332737316547
 20
13.45928029700563
 30
0.0
 11
24.52862924686651
 21
15.39360700705356
 31
0.0
  0
ATTDEF
  5
95
330
7F
100
AcDbEntity
  8
FORMAT
 62
     2
100
AcDbText
 10
4.408487351596664
 20
2.075366912832191
 30
0.0
 40
4.233333333333333
  1
E2031919
 41
0.75
  7
SLDTEXTSTYLE0
 11
4.408487351596664
 21
-0.0412997538344756
 31
0.0
100
AcDbAttributeDefinition
  3

  2
AUTOATTR0
 70
     0
 74
     1
  0
ENDBLK
  5
81
330
7F
100
AcDbEntity
  8
0
100
AcDbBlockEnd
  0
BLOCK
  5
B9
330
B8
100
AcDbEntity
  8
0
100
AcDbBlockBegin
  2
_D
 70
     0
 10
0.0
 20
0.0
 30
0.0
  3
_D
  1
_D
  0
SOLID
  5
BB
330
B8
100
AcDbEntity
  8
치수문자_일반주서
100
AcDbTrace
 10
-1.841524023601865
 20
5.218258589704702
 30
0.0
 11
-2.349524023601865
 21
1.916258589704702
 31
0.0
 12
-1.333524023601865
 22
1.916258589704702
 32
0.0
 13
-1.333524023601865
 23
1.916258589704702
 33
0.0
  0
SOLID
  5
BC
330
B8
100
AcDbEntity
  8
치수문자_일반주서
100
AcDbTrace
 10
-1.841524023601868
 20
-5.100491410295307
 30
0.0
 11
-1.333524023601868
 21
-1.798491410295307
 31
0.0
 12
-2.349524023601868
 22
-1.798491410295307
 32
0.0
 13
-2.349524023601868
 23
-1.798491410295307
 33
0.0
  0
LINE
  5
BD
330
B8
100
AcDbEntity
  8
치수문자_일반주서
100
AcDbLine
 10
-12.63440573964458
 20
10.23472747827022
 30
0.0
 11
-12.63440573964457
 21
9.52378999270572
 31
0.0
  0
LINE
  5
BE
330
B8
100
AcDbEntity
  8
치수문자_일반주서
100
AcDbLine
 10
-12.63440573964457
 20
9.52378999270572
 30
0.0
 11
-7.078155748585271
 21
9.523789992705758
 31
0.0
  0
LINE
  5
BF
330
B8
100
AcDbEntity
  8
치수문자_일반주서
100
AcDbLine
 10
-7.078155748585271
 20
9.523789992705758
 30
0.0
 11
-7.078155748585276
 21
10.23472747827026
 31
0.0
  0
LINE
  5
C0
330
B8
100
AcDbEntity
  8
치수문자_일반주서
100
AcDbLine
 10
-12.63440573964466
 20
21.06346034040748
 30
0.0
 11
-12.63440573964466
 21
21.77439782597198
 31
0.0
  0
LINE
  5
C1
330
B8
100
AcDbEntity
  8
치수문자_일반주서
100
AcDbLine
 10
-12.63440573964466
 20
21.77439782597198
 30
0.0
 11
-7.078155748585358
 21
21.77439782597202
 31
0.0
  0
LINE
  5
C2
330
B8
100
AcDbEntity
  8
치수문자_일반주서
100
AcDbLine
 10
-7.078155748585358
 20
21.77439782597202
 30
0.0
 11
-7.078155748585353
 21
21.06346034040752
 31
0.0
  0
LINE
  5
C3
330
B8
100
AcDbEntity
  8
치수문자_일반주서
100
AcDbLine
 10
3.481157664253888
 20
5.218258589704702
 30
0.0
 11
-2.841524023601865
 21
5.218258589704702
 31
0.0
  0
LINE
  5
C4
330
B8
100
AcDbEntity
  8
치수문자_일반주서
100
AcDbLine
 10
3.481157664253888
 20
-5.100491410295314
 30
0.0
 11
-2.841524023601868
 21
-5.100491410295307
 31
0.0
  0
LINE
  5
C5
330
B8
100
AcDbEntity
  8
치수문자_일반주서
100
AcDbLine
 10
-1.841524023601865
 20
5.218258589704702
 30
0.0
 11
-1.84152402360186
 21
24.10706285215994
 31
0.0
  0
LINE
  5
C6
330
B8
100
AcDbEntity
  8
치수문자_일반주서
100
AcDbLine
 10
-1.841524023601865
 20
5.218258589704702
 30
0.0
 11
-1.841524023601868
 21
-5.100491410295307
 31
0.0
  0
MTEXT
  5
C7
330
B8
100
AcDbEntity
  8
치수문자_일반주서
100
AcDbMText
 10
-11.58989266316418
 20
11.1233993788816
 30
0.0
 40
3.5
 41
0.0
 71
     1
 72
     1
  1
0.41
  7
SLDTEXTSTYLE0
 11
-7.044195017643634E-15
 21
1.0
 31
0.0
 73
     1
 44
1.0
  0
MTEXT
  5
C8
330
B8
100
AcDbEntity
  8
치수문자_일반주서
100
AcDbMText
 10
-6.353261112803678
 20
7.191124966517865
 30
0.0
 40
3.5
 41
0.0
 71
     1
 72
     1
  1
%%c
  7
SLDTEXTSTYLE0
 11
-7.044195017643634E-15
 21
1.0
 31
0.0
 73
     1
 44
1.0
  0
MTEXT
  5
C9
330
B8
100
AcDbEntity
  8
치수문자_일반주서
100
AcDbMText
 10
-6.353261112803716
 20
12.46956236489195
 30
0.0
 40
3.5
 41
0.0
 71
     1
 72
     1
  1
10.32
  7
SLDTEXTSTYLE0
 11
-7.044195017643634E-15
 21
1.0
 31
0.0
 73
     1
 44
1.0
  0
ENDBLK
  5
BA
330
B8
100
AcDbEntity
  8
0
100
AcDbBlockEnd
  0
BLOCK
  5
CD
330
CC
100
AcDbEntity
  8
0
100
AcDbBlockBegin
  2
_D_1
 70
     0
 10
0.0
 20
0.0
 30
0.0
  3
_D_1
  1
_D_1
  0
SOLID
  5
CF
330
CC
100
AcDbEntity
  8
치수문자_일반주서
100
AcDbTrace
 10
29.88115766425387
 20
15.04947043550686
 30
0.0
 11
33.18315766425387
 21
14.54147043550687
 31
0.0
 12
33.18315766425387
 22
15.55747043550687
 32
0.0
 13
33.18315766425387
 23
15.55747043550687
 33
0.0
  0
SOLID
  5
D0
330
CC
100
AcDbEntity
  8
치수문자_일반주서
100
AcDbTrace
 10
4.481157664253845
 20
15.04947043550681
 30
0.0
 11
1.179157664253845
 21
15.5574704355068
 31
0.0
 12
1.179157664253847
 22
14.5414704355068
 32
0.0
 13
1.179157664253847
 23
14.5414704355068
 33
0.0
  0
LINE
  5
D1
330
CC
100
AcDbEntity
  8
치수문자_일반주서
100
AcDbLine
 10
11.76679158243119
 20
25.84235215154961
 30
0.0
 11
11.05585409686669
 21
25.8423521515496
 31
0.0
  0
LINE
  5
D2
330
CC
100
AcDbEntity
  8
치수문자_일반주서
100
AcDbLine
 10
11.05585409686669
 20
25.8423521515496
 30
0.0
 11
11.05585409686674
 21
20.2861021604903
 31
0.0
  0
LINE
  5
D3
330
CC
100
AcDbEntity
  8
치수문자_일반주서
100
AcDbLine
 10
11.05585409686674
 20
20.2861021604903
 30
0.0
 11
11.76679158243124
 21
20.28610216049031
 31
0.0
  0
LINE
  5
D4
330
CC
100
AcDbEntity
  8
치수문자_일반주서
100
AcDbLine
 10
22.59552444456845
 20
25.8423521515497
 30
0.0
 11
23.30646193013295
 21
25.84235215154971
 31
0.0
  0
LINE
  5
D5
330
CC
100
AcDbEntity
  8
치수문자_일반주서
100
AcDbLine
 10
23.30646193013295
 20
25.84235215154971
 30
0.0
 11
23.306461930133
 21
20.28610216049041
 31
0.0
  0
LINE
  5
D6
330
CC
100
AcDbEntity
  8
치수문자_일반주서
100
AcDbLine
 10
23.306461930133
 20
20.28610216049041
 30
0.0
 11
22.5955244445685
 21
20.2861021604904
 31
0.0
  0
LINE
  5
D7
330
CC
100
AcDbEntity
  8
치수문자_일반주서
100
AcDbLine
 10
29.88115766425388
 20
6.001577696114738
 30
0.0
 11
29.88115766425386
 21
16.04947043550686
 31
0.0
  0
LINE
  5
D8
330
CC
100
AcDbEntity
  8
치수문자_일반주서
100
AcDbLine
 10
4.481157664253865
 20
5.995193093878775
 30
0.0
 11
4.481157664253844
 21
16.04947043550681
 31
0.0
  0
LINE
  5
D9
330
CC
100
AcDbEntity
  8
치수문자_일반주서
100
AcDbLine
 10
29.88115766425387
 20
15.04947043550686
 30
0.0
 11
36.23115766425386
 21
15.04947043550688
 31
0.0
  0
LINE
  5
DA
330
CC
100
AcDbEntity
  8
치수문자_일반주서
100
AcDbLine
 10
29.88115766425387
 20
15.04947043550686
 30
0.0
 11
4.481157664253845
 21
15.04947043550681
 31
0.0
  0
LINE
  5
DB
330
CC
100
AcDbEntity
  8
치수문자_일반주서
100
AcDbLine
 10
4.481157664253845
 20
15.04947043550681
 30
0.0
 11
-1.868842335746155
 21
15.04947043550679
 31
0.0
  0
MTEXT
  5
DC
330
CC
100
AcDbEntity
  8
치수문자_일반주서
100
AcDbMText
 10
10.54209537138005
 20
19.61467970136857
 30
0.0
 40
3.5
 41
0.0
 71
     1
 72
     1
  1

  7
SLDTEXTSTYLE0
 73
     1
 44
1.0
  0
MTEXT
  5
DD
330
CC
100
AcDbEntity
  8
치수문자_일반주서
100
AcDbMText
 10
12.65546348304257
 20
24.79783907506921
 30
0.0
 40
3.5
 41
0.0
 71
     1
 72
     1
  1
1.00
  7
SLDTEXTSTYLE0
 73
     1
 44
1.0
  0
MTEXT
  5
DE
330
CC
100
AcDbEntity
  8
치수문자_일반주서
100
AcDbMText
 10
11.36240776986589
 20
19.56120752470873
 30
0.0
 40
3.5
 41
0.0
 71
     1
 72
     1
  1
25.40
  7
SLDTEXTSTYLE0
 73
     1
 44
1.0
  0
MTEXT
  5
DF
330
CC
100
AcDbEntity
  8
치수문자_일반주서
100
AcDbMText
 10
25.15216517527362
 20
19.6146797013687
 30
0.0
 40
3.5
 41
0.0
 71
     1
 72
     1
  1

  7
SLDTEXTSTYLE0
 73
     1
 44
1.0
  0
ENDBLK
  5
CE
330
CC
100
AcDbEntity
  8
0
100
AcDbBlockEnd
  0
BLOCK
  5
E2
330
E1
100
AcDbEntity
  8
0
100
AcDbBlockBegin
  2
_D_2
 70
     0
 10
0.0
 20
0.0
 30
0.0
  3
_D_2
  1
_D_2
  0
SOLID
  5
E4
330
E1
100
AcDbEntity
  8
치수문자_일반주서
100
AcDbTrace
 10
29.88115766425389
 20
27.04947043550681
 30
0.0
 11
26.57915766425389
 21
27.5574704355068
 31
0.0
 12
26.57915766425389
 22
26.54147043550681
 32
0.0
 13
26.57915766425389
 23
26.54147043550681
 33
0.0
  0
SOLID
  5
E5
330
E1
100
AcDbEntity
  8
치수문자_일반주서
100
AcDbTrace
 10
-38.38134233574612
 20
27.0494704355068
 30
0.0
 11
-35.07934233574612
 21
26.5414704355068
 31
0.0
 12
-35.07934233574612
 22
27.5574704355068
 32
0.0
 13
-35.07934233574612
 23
27.5574704355068
 33
0.0
  0
LINE
  5
E6
330
E1
100
AcDbEntity
  8
치수문자_일반주서
100
AcDbLine
 10
-8.732315079352109
 20
37.84235215154953
 30
0.0
 11
-9.443252564916609
 21
37.84235215154954
 31
0.0
  0
LINE
  5
E7
330
E1
100
AcDbEntity
  8
치수문자_일반주서
100
AcDbLine
 10
-9.443252564916609
 20
37.84235215154954
 30
0.0
 11
-9.44325256491665
 21
32.28610216049024
 31
0.0
  0
LINE
  5
E8
330
E1
100
AcDbEntity
  8
치수문자_일반주서
100
AcDbLine
 10
-9.44325256491665
 20
32.28610216049024
 30
0.0
 11
-8.73231507935215
 21
32.28610216049023
 31
0.0
  0
LINE
  5
E9
330
E1
100
AcDbEntity
  8
치수문자_일반주서
100
AcDbLine
 10
2.096417782785149
 20
37.84235215154946
 30
0.0
 11
2.807355268349649
 21
37.84235215154945
 31
0.0
  0
LINE
  5
EA
330
E1
100
AcDbEntity
  8
치수문자_일반주서
100
AcDbLine
 10
2.807355268349649
 20
37.84235215154945
 30
0.0
 11
2.807355268349609
 21
32.28610216049015
 31
0.0
  0
LINE
  5
EB
330
E1
100
AcDbEntity
  8
치수문자_일반주서
100
AcDbLine
 10
2.807355268349609
 20
32.28610216049015
 30
0.0
 11
2.096417782785109
 21
32.28610216049015
 31
0.0
  0
LINE
  5
EC
330
E1
100
AcDbEntity
  8
치수문자_일반주서
100
AcDbLine
 10
29.88115766425389
 20
6.001577696114738
 30
0.0
 11
29.88115766425389
 21
28.04947043550681
 31
0.0
  0
LINE
  5
ED
330
E1
100
AcDbEntity
  8
치수문자_일반주서
100
AcDbLine
 10
-38.38134233574612
 20
4.8688835897047
 30
0.0
 11
-38.38134233574612
 21
28.04947043550681
 31
0.0
  0
LINE
  5
EE
330
E1
100
AcDbEntity
  8
치수문자_일반주서
100
AcDbLine
 10
29.88115766425389
 20
27.04947043550681
 30
0.0
 11
-38.38134233574612
 21
27.0494704355068
 31
0.0
  0
MTEXT
  5
EF
330
E1
100
AcDbEntity
  8
치수문자_일반주서
100
AcDbMText
 10
-9.95701129040335
 20
31.61467970136853
 30
0.0
 40
3.5
 41
0.0
 71
     1
 72
     1
  1

  7
SLDTEXTSTYLE0
 73
     1
 44
1.0
  0
MTEXT
  5
F0
330
E1
100
AcDbEntity
  8
치수문자_일반주서
100
AcDbMText
 10
-7.843643178740747
 20
36.79783907506912
 30
0.0
 40
3.5
 41
0.0
 71
     1
 72
     1
  1
2.69
  7
SLDTEXTSTYLE0
 73
     1
 44
1.0
  0
MTEXT
  5
F1
330
E1
100
AcDbEntity
  8
치수문자_일반주서
100
AcDbMText
 10
-9.136698891917511
 20
31.56120752470866
 30
0.0
 40
3.5
 41
0.0
 71
     1
 72
     1
  1
68.26
  7
SLDTEXTSTYLE0
 73
     1
 44
1.0
  0
MTEXT
  5
F2
330
E1
100
AcDbEntity
  8
치수문자_일반주서
100
AcDbMText
 10
4.653058513490217
 20
31.61467970136842
 30
0.0
 40
3.5
 41
0.0
 71
     1
 72
     1
  1

  7
SLDTEXTSTYLE0
 73
     1
 44
1.0
  0
ENDBLK
  5
E3
330
E1
100
AcDbEntity
  8
0
100
AcDbBlockEnd
  0
BLOCK
  5
F6
330
F5
100
AcDbEntity
  8
0
100
AcDbBlockBegin
  2
_D_3
 70
     0
 10
0.0
 20
0.0
 30
0.0
  3
_D_3
  1
_D_3
  0
SOLID
  5
F8
330
F5
100
AcDbEntity
  8
치수문자_일반주서
100
AcDbTrace
 10
-51.38134233574612
 20
4.821383589704696
 30
0.0
 11
-50.87334233574612
 21
8.123383589704694
 31
0.0
 12
-51.88934233574612
 22
8.123383589704694
 32
0.0
 13
-51.88934233574612
 23
8.123383589704694
 33
0.0
  0
SOLID
  5
F9
330
F5
100
AcDbEntity
  8
치수문자_일반주서
100
AcDbTrace
 10
-51.38134233574612
 20
-4.70361641029531
 30
0.0
 11
-51.88934233574612
 21
-8.00561641029531
 31
0.0
 12
-50.87334233574612
 22
-8.00561641029531
 32
0.0
 13
-50.87334233574612
 23
-8.00561641029531
 33
0.0
  0
LINE
  5
FA
330
F5
100
AcDbEntity
  8
치수문자_일반주서
100
AcDbLine
 10
-62.17422405178885
 20
-5.35548284136401
 30
0.0
 11
-62.17422405178885
 21
-6.06642032692851
 31
0.0
  0
LINE
  5
FB
330
F5
100
AcDbEntity
  8
치수문자_일반주서
100
AcDbLine
 10
-62.17422405178885
 20
-6.06642032692851
 30
0.0
 11
-56.61797406072954
 21
-6.066420326928471
 31
0.0
  0
LINE
  5
FC
330
F5
100
AcDbEntity
  8
치수문자_일반주서
100
AcDbLine
 10
-56.61797406072954
 20
-6.066420326928471
 30
0.0
 11
-56.61797406072955
 21
-5.355482841363971
 31
0.0
  0
LINE
  5
FD
330
F5
100
AcDbEntity
  8
치수문자_일반주서
100
AcDbLine
 10
-62.17422405178892
 20
5.473250020773248
 30
0.0
 11
-62.17422405178893
 21
6.184187506337748
 31
0.0
  0
LINE
  5
FE
330
F5
100
AcDbEntity
  8
치수문자_일반주서
100
AcDbLine
 10
-62.17422405178893
 20
6.184187506337748
 30
0.0
 11
-56.61797406072962
 21
6.184187506337787
 31
0.0
  0
LINE
  5
FF
330
F5
100
AcDbEntity
  8
치수문자_일반주서
100
AcDbLine
 10
-56.61797406072962
 20
6.184187506337787
 30
0.0
 11
-56.61797406072962
 21
5.473250020773287
 31
0.0
  0
LINE
  5
100
330
F5
100
AcDbEntity
  8
치수문자_일반주서
100
AcDbLine
 10
-38.42884233574613
 20
4.821383589704697
 30
0.0
 11
-52.38134233574613
 21
4.821383589704696
 31
0.0
  0
LINE
  5
101
330
F5
100
AcDbEntity
  8
치수문자_일반주서
100
AcDbLine
 10
-38.42884233574613
 20
-4.703616410295309
 30
0.0
 11
-52.38134233574613
 21
-4.70361641029531
 31
0.0
  0
LINE
  5
102
330
F5
100
AcDbEntity
  8
치수문자_일반주서
100
AcDbLine
 10
-51.38134233574612
 20
4.821383589704696
 30
0.0
 11
-51.38134233574612
 21
11.17138358970469
 31
0.0
  0
LINE
  5
103
330
F5
100
AcDbEntity
  8
치수문자_일반주서
100
AcDbLine
 10
-51.38134233574612
 20
4.821383589704696
 30
0.0
 11
-51.38134233574612
 21
-4.70361641029531
 31
0.0
  0
LINE
  5
104
330
F5
100
AcDbEntity
  8
치수문자_일반주서
100
AcDbLine
 10
-51.38134233574612
 20
-4.70361641029531
 30
0.0
 11
-51.38134233574612
 21
-11.05361641029531
 31
0.0
  0
MTEXT
  5
105
330
F5
100
AcDbEntity
  8
치수문자_일반주서
100
AcDbMText
 10
-61.12971097530844
 20
-4.466810940752632
 30
0.0
 40
3.5
 41
0.0
 71
     1
 72
     1
  1
0.38
  7
SLDTEXTSTYLE0
 11
-7.044195017643634E-15
 21
1.0
 31
0.0
 73
     1
 44
1.0
  0
MTEXT
  5
106
330
F5
100
AcDbEntity
  8
치수문자_일반주서
100
AcDbMText
 10
-55.89307942494795
 20
-7.106030105600923
 30
0.0
 40
3.5
 41
0.0
 71
     1
 72
     1
  1
%%c
  7
SLDTEXTSTYLE0
 11
-7.044195017643634E-15
 21
1.0
 31
0.0
 73
     1
 44
1.0
  0
MTEXT
  5
107
330
F5
100
AcDbEntity
  8
치수문자_일반주서
100
AcDbMText
 10
-55.89307942494798
 20
-1.827592707226842
 30
0.0
 40
3.5
 41
0.0
 71
     1
 72
     1
  1
9.53
  7
SLDTEXTSTYLE0
 11
-7.044195017643634E-15
 21
1.0
 31
0.0
 73
     1
 44
1.0
  0
ENDBLK
  5
F7
330
F5
100
AcDbEntity
  8
0
100
AcDbBlockEnd
  0
BLOCK
  5
110
330
10F
100
AcDbEntity
  8
0
100
AcDbBlockBegin
  2
SW_DOWELSYMBOL_0
 70
     0
 10
0.0
 20
0.0
 30
0.0
  3
SW_DOWELSYMBOL_0
  1
SW_DOWELSYMBOL_0
  0
CIRCLE
  5
112
330
10F
100
AcDbEntity
  8
해칭선
 62
     0
100
AcDbCircle
 10
0.0
 20
0.0
 30
0.0
 40
2.999999999999999
  0
HATCH
  5
113
330
10F
100
AcDbEntity
  8
0
  6
Continuous
 62
     0
370
     0
100
AcDbHatch
 10
0.0
 20
0.0
 30
0.0
210
0.0
220
0.0
230
1.0
  2
SOLID
 70
     1
 71
     0
 91
        1
 92
        0
 93
        3
 72
     2
 10
0.0
 20
0.0
 40
2.999999999999999
 50
0.0
 51
90.0
 73
     1
 72
     1
 10
0.0
 20
2.999999999999999
 11
0.0
 21
0.0
 72
     1
 10
0.0
 20
0.0
 11
2.999999999999999
 21
0.0
 97
        0
 75
     0
 76
     1
 98
        1
 10
0.0
 20
0.0
  0
HATCH
  5
114
330
10F
100
AcDbEntity
  8
0
  6
Continuous
 62
     0
370
     0
100
AcDbHatch
 10
0.0
 20
0.0
 30
0.0
210
0.0
220
0.0
230
1.0
  2
SOLID
 70
     1
 71
     0
 91
        1
 92
        0
 93
        3
 72
     2
 10
0.0
 20
0.0
 40
2.999999999999999
 50
180.0
 51
270.0000000000007
 73
     1
 72
     1
 10
0.0
 20
-2.999999999999999
 11
0.0
 21
0.0
 72
     1
 10
0.0
 20
0.0
 11
-2.999999999999999
 21
0.0
 97
        0
 75
     0
 76
     1
 98
        1
 10
0.0
 20
0.0
  0
ENDBLK
  5
111
330
10F
100
AcDbEntity
  8
0
100
AcDbBlockEnd
  0
BLOCK
  5
178
330
177
100
AcDbEntity
  8
0
100
AcDbBlockBegin
  2
*D7
 70
     1
 10
0.0
 20
0.0
 30
0.0
  3
*D7
  1
*D12
  0
LINE
  5
179
330
177
100
AcDbEntity
  8
치수문자_일반주서
 62
     0
370
    -2
100
AcDbLine
 10
116.8306458152281
 20
25.66875000000004
 30
0.0
 11
116.8306458152281
 21
38.74038479835853
 31
0.0
  0
LINE
  5
17A
330
177
100
AcDbEntity
  8
치수문자_일반주서
 62
     0
370
    -2
100
AcDbLine
 10
69.20564581522808
 20
25.66875000000002
 30
0.0
 11
69.20564581522808
 21
38.74038479835853
 31
0.0
  0
LINE
  5
17B
330
177
100
AcDbEntity
  8
치수문자_일반주서
 62
     0
370
    -2
100
AcDbLine
 10
113.5286458152281
 20
38.74038479835853
 30
0.0
 11
72.50764581522807
 21
38.74038479835853
 31
0.0
  0
SOLID
  5
17C
330
177
100
AcDbEntity
  8
치수문자_일반주서
 62
     0
100
AcDbTrace
 10
113.5286458152281
 20
38.1900514650252
 30
0.0
 11
113.5286458152281
 21
39.29071813169187
 31
0.0
 12
116.8306458152281
 22
38.74038479835853
 32
0.0
 13
116.8306458152281
 23
38.74038479835853
 33
0.0
  0
SOLID
  5
17D
330
177
100
AcDbEntity
  8
치수문자_일반주서
 62
     0
100
AcDbTrace
 10
72.50764581522807
 20
39.29071813169187
 30
0.0
 11
72.50764581522807
 21
38.1900514650252
 31
0.0
 12
69.20564581522808
 22
38.74038479835853
 32
0.0
 13
69.20564581522808
 23
38.74038479835853
 33
0.0
  0
MTEXT
  5
17E
330
177
100
AcDbEntity
  8
치수문자_일반주서
 62
     0
100
AcDbMText
 10
91.43064581522809
 20
43.11538479835853
 30
0.0
 40
3.5
 41
0.0
 71
     2
 72
     1
  1
\A1;47.63 [1 7/8]
  7
SLDTEXTSTYLE0
 73
     1
 44
1.0
  0
POINT
  5
17F
330
177
100
AcDbEntity
  8
Defpoints
 62
     0
100
AcDbPoint
 10
116.8306458152281
 20
25.60625000000004
 30
0.0
  0
POINT
  5
180
330
177
100
AcDbEntity
  8
Defpoints
 62
     0
100
AcDbPoint
 10
69.20564581522808
 20
25.60625000000002
 30
0.0
  0
POINT
  5
181
330
177
100
AcDbEntity
  8
Defpoints
 62
     0
100
AcDbPoint
 10
69.20564581522808
 20
38.74038479835853
 30
0.0
  0
ENDBLK
  5
182
330
177
100
AcDbEntity
  8
0
100
AcDbBlockEnd
  0
BLOCK
  5
185
330
184
100
AcDbEntity
  8
0
100
AcDbBlockBegin
  2
*D8
 70
     1
 10
0.0
 20
0.0
 30
0.0
  3
*D8
  1
*D13
  0
LINE
  5
186
330
184
100
AcDbEntity
  8
치수문자_일반주서
 62
     0
370
    -2
100
AcDbLine
 10
116.8306458152281
 20
25.66875000000004
 30
0.0
 11
116.8306458152281
 21
54.46158999616132
 31
0.0
  0
LINE
  5
187
330
184
100
AcDbEntity
  8
치수문자_일반주서
 62
     0
370
    -2
100
AcDbLine
 10
12.0556458152281
 20
18.36625000000004
 30
0.0
 11
12.0556458152281
 21
54.46158999616132
 31
0.0
  0
LINE
  5
188
330
184
100
AcDbEntity
  8
치수문자_일반주서
 62
     0
370
    -2
100
AcDbLine
 10
113.5286458152281
 20
54.46158999616132
 30
0.0
 11
15.3576458152281
 21
54.46158999616132
 31
0.0
  0
SOLID
  5
189
330
184
100
AcDbEntity
  8
치수문자_일반주서
 62
     0
100
AcDbTrace
 10
113.5286458152281
 20
53.91125666282798
 30
0.0
 11
113.5286458152281
 21
55.01192332949465
 31
0.0
 12
116.8306458152281
 22
54.46158999616132
 32
0.0
 13
116.8306458152281
 23
54.46158999616132
 33
0.0
  0
SOLID
  5
18A
330
184
100
AcDbEntity
  8
치수문자_일반주서
 62
     0
100
AcDbTrace
 10
15.3576458152281
 20
55.01192332949465
 30
0.0
 11
15.3576458152281
 21
53.91125666282798
 31
0.0
 12
12.0556458152281
 22
54.46158999616132
 32
0.0
 13
12.0556458152281
 23
54.46158999616132
 33
0.0
  0
MTEXT
  5
18B
330
184
100
AcDbEntity
  8
치수문자_일반주서
 62
     0
100
AcDbMText
 10
59.68064581522809
 20
58.83658999616132
 30
0.0
 40
3.5
 41
0.0
 71
     2
 72
     1
  1
\A1;104.78 [4 1/8]
  7
SLDTEXTSTYLE0
 73
     1
 44
1.0
  0
POINT
  5
18C
330
184
100
AcDbEntity
  8
Defpoints
 62
     0
100
AcDbPoint
 10
116.8306458152281
 20
25.60625000000004
 30
0.0
  0
POINT
  5
18D
330
184
100
AcDbEntity
  8
Defpoints
 62
     0
100
AcDbPoint
 10
12.0556458152281
 20
18.30375000000004
 30
0.0
  0
POINT
  5
18E
330
184
100
AcDbEntity
  8
Defpoints
 62
     0
100
AcDbPoint
 10
12.0556458152281
 20
54.46158999616132
 30
0.0
  0
ENDBLK
  5
18F
330
184
100
AcDbEntity
  8
0
100
AcDbBlockEnd
  0
BLOCK
  5
192
330
191
100
AcDbEntity
  8
0
100
AcDbBlockBegin
  2
*D9
 70
     1
 10
0.0
 20
0.0
 30
0.0
  3
*D9
  1
*D14
  0
LINE
  5
193
330
191
100
AcDbEntity
  8
치수문자_일반주서
 62
     0
370
    -2
100
AcDbLine
 10
14.5331458152281
 20
22.43125000000003
 30
0.0
 11
4.37500000000001
 21
22.43125
 31
0.0
  0
LINE
  5
194
330
191
100
AcDbEntity
  8
치수문자_일반주서
 62
     0
370
    -2
100
AcDbLine
 10
14.5331458152281
 20
3.381250000000031
 30
0.0
 11
4.375000000000076
 21
3.381249999999993
 31
0.0
  0
LINE
  5
195
330
191
100
AcDbEntity
  8
치수문자_일반주서
 62
     0
370
    -2
100
AcDbLine
 10
4.375000000000021
 20
19.12925
 30
0.0
 11
4.375000000000065
 21
6.683249999999992
 31
0.0
  0
SOLID
  5
196
330
191
100
AcDbEntity
  8
치수문자_일반주서
 62
     0
100
AcDbTrace
 10
4.925333333333355
 20
19.12925
 30
0.0
 11
3.824666666666688
 21
19.12924999999999
 31
0.0
 12
4.37500000000001
 22
22.43125
 32
0.0
 13
4.37500000000001
 23
22.43125
 33
0.0
  0
SOLID
  5
197
330
191
100
AcDbEntity
  8
치수문자_일반주서
 62
     0
100
AcDbTrace
 10
3.824666666666732
 20
6.68324999999999
 30
0.0
 11
4.925333333333398
 21
6.683249999999994
 31
0.0
 12
4.375000000000076
 22
3.381249999999993
 32
0.0
 13
4.375000000000076
 23
3.381249999999993
 33
0.0
  0
MTEXT
  5
198
330
191
100
AcDbEntity
  8
치수문자_일반주서
 62
     0
100
AcDbMText
 10
0.0000000000000426
 20
12.90625
 30
0.0
 40
3.5
 41
0.0
 71
     2
 72
     1
  1
\A1;%%c19.05 [3/4]
  7
SLDTEXTSTYLE0
 11
-3.496765431890257E-15
 21
1.0
 31
0.0
 73
     1
 44
1.0
  0
POINT
  5
199
330
191
100
AcDbEntity
  8
Defpoints
 62
     0
100
AcDbPoint
 10
14.5956458152281
 20
22.43125000000003
 30
0.0
  0
POINT
  5
19A
330
191
100
AcDbEntity
  8
Defpoints
 62
     0
100
AcDbPoint
 10
14.5956458152281
 20
3.381250000000032
 30
0.0
  0
POINT
  5
19B
330
191
100
AcDbEntity
  8
Defpoints
 62
     0
100
AcDbPoint
 10
4.375000000000078
 20
3.381249999999993
 30
0.0
  0
ENDBLK
  5
19C
330
191
100
AcDbEntity
  8
0
100
AcDbBlockEnd
  0
BLOCK
  5
19F
330
19E
100
AcDbEntity
  8
0
100
AcDbBlockBegin
  2
*D10
 70
     1
 10
0.0
 20
0.0
 30
0.0
  3
*D10
  1
*D15
  0
LINE
  5
1A0
330
19E
100
AcDbEntity
  8
치수문자_일반주서
 62
     0
370
    -2
100
AcDbLine
 10
116.8931458152281
 20
25.60625000000004
 30
0.0
 11
138.4127137583485
 21
25.60625000000012
 31
0.0
  0
LINE
  5
1A1
330
19E
100
AcDbEntity
  8
치수문자_일반주서
 62
     0
370
    -2
100
AcDbLine
 10
116.8931458152281
 20
0.2062500000000365
 30
0.0
 11
138.4127137583486
 21
0.206250000000118
 31
0.0
  0
LINE
  5
1A2
330
19E
100
AcDbEntity
  8
치수문자_일반주서
 62
     0
370
    -2
100
AcDbLine
 10
138.4127137583485
 20
22.30425000000012
 30
0.0
 11
138.4127137583486
 21
3.508250000000118
 31
0.0
  0
SOLID
  5
1A3
330
19E
100
AcDbEntity
  8
치수문자_일반주서
 62
     0
100
AcDbTrace
 10
138.9630470916818
 20
22.30425000000012
 30
0.0
 11
137.8623804250152
 21
22.30425000000012
 31
0.0
 12
138.4127137583485
 22
25.60625000000012
 32
0.0
 13
138.4127137583485
 23
25.60625000000012
 33
0.0
  0
SOLID
  5
1A4
330
19E
100
AcDbEntity
  8
치수문자_일반주서
 62
     0
100
AcDbTrace
 10
137.8623804250153
 20
3.508250000000116
 30
0.0
 11
138.9630470916819
 21
3.508250000000119
 31
0.0
 12
138.4127137583486
 22
0.206250000000118
 32
0.0
 13
138.4127137583486
 23
0.206250000000118
 33
0.0
  0
MTEXT
  5
1A5
330
19E
100
AcDbEntity
  8
치수문자_일반주서
 62
     0
100
AcDbMText
 10
134.0377137583486
 20
12.9062500000001
 30
0.0
 40
3.5
 41
0.0
 71
     2
 72
     1
  1
\A1;%%c25.40 [1]
  7
SLDTEXTSTYLE0
 11
-3.356894814614646E-15
 21
1.0
 31
0.0
 73
     1
 44
1.0
  0
POINT
  5
1A6
330
19E
100
AcDbEntity
  8
Defpoints
 62
     0
100
AcDbPoint
 10
116.8306458152281
 20
25.60625000000004
 30
0.0
  0
POINT
  5
1A7
330
19E
100
AcDbEntity
  8
Defpoints
 62
     0
100
AcDbPoint
 10
116.8306458152281
 20
0.2062500000000362
 30
0.0
  0
POINT
  5
1A8
330
19E
100
AcDbEntity
  8
Defpoints
 62
     0
100
AcDbPoint
 10
138.4127137583486
 20
0.2062500000001169
 30
0.0
  0
ENDBLK
  5
1A9
330
19E
100
AcDbEntity
  8
0
100
AcDbBlockEnd
  0
BLOCK
  5
1E0
330
1DF
100
AcDbEntity
  8
0
100
AcDbBlockBegin
  2
*D11
 70
     1
 10
0.0
 20
0.0
 30
0.0
  3
*D11
  1
*D12
  0
LINE
  5
1E2
330
1DF
100
AcDbEntity
  8
치수문자_일반주서
 62
     0
370
    -2
100
AcDbLine
 10
59.625
 20
12.76250000000001
 30
0.0
 11
59.625
 21
25.83413479835851
 31
0.0
  0
LINE
  5
1E3
330
1DF
100
AcDbEntity
  8
치수문자_일반주서
 62
     0
370
    -2
100
AcDbLine
 10
12.0
 20
12.7625
 30
0.0
 11
12.0
 21
25.83413479835851
 31
0.0
  0
LINE
  5
1E4
330
1DF
100
AcDbEntity
  8
치수문자_일반주서
 62
     0
370
    -2
100
AcDbLine
 10
56.323
 20
25.83413479835851
 30
0.0
 11
15.302
 21
25.83413479835851
 31
0.0
  0
SOLID
  5
1E5
330
1DF
100
AcDbEntity
  8
치수문자_일반주서
 62
     0
100
AcDbTrace
 10
56.323
 20
25.28380146502517
 30
0.0
 11
56.323
 21
26.38446813169184
 31
0.0
 12
59.625
 22
25.83413479835851
 32
0.0
 13
59.625
 23
25.83413479835851
 33
0.0
  0
SOLID
  5
1E6
330
1DF
100
AcDbEntity
  8
치수문자_일반주서
 62
     0
100
AcDbTrace
 10
15.302
 20
26.38446813169184
 30
0.0
 11
15.302
 21
25.28380146502517
 31
0.0
 12
12.0
 22
25.83413479835851
 32
0.0
 13
12.0
 23
25.83413479835851
 33
0.0
  0
MTEXT
  5
1E7
330
1DF
100
AcDbEntity
  8
치수문자_일반주서
 62
     0
100
AcDbMText
 10
34.22500000000001
 20
30.20913479835851
 30
0.0
 40
3.5
 41
0.0
 71
     2
 72
     1
  1
\A1;47.63 [1 7/8]
  7
SLDTEXTSTYLE0
 73
     1
 44
1.0
  0
POINT
  5
1E8
330
1DF
100
AcDbEntity
  8
Defpoints
 62
     0
100
AcDbPoint
 10
59.625
 20
12.70000000000001
 30
0.0
  0
POINT
  5
1E9
330
1DF
100
AcDbEntity
  8
Defpoints
 62
     0
100
AcDbPoint
 10
12.0
 20
12.7
 30
0.0
  0
POINT
  5
1EA
330
1DF
100
AcDbEntity
  8
Defpoints
 62
     0
100
AcDbPoint
 10
12.0
 20
25.83413479835851
 30
0.0
  0
ENDBLK
  5
1E1
330
1DF
100
AcDbEntity
  8
0
100
AcDbBlockEnd
  0
BLOCK
  5
1EC
330
1EB
100
AcDbEntity
  8
0
100
AcDbBlockBegin
  2
*D12
 70
     1
 10
0.0
 20
0.0
 30
0.0
  3
*D12
  1
*D13
  0
LINE
  5
1EE
330
1EB
100
AcDbEntity
  8
치수문자_일반주서
 62
     0
370
    -2
100
AcDbLine
 10
59.625
 20
12.76250000000001
 30
0.0
 11
59.625
 21
41.55533999616129
 31
0.0
  0
LINE
  5
1EF
330
1EB
100
AcDbEntity
  8
치수문자_일반주서
 62
     0
370
    -2
100
AcDbLine
 10
-45.14999999999998
 20
5.460000000000017
 30
0.0
 11
-45.14999999999998
 21
41.55533999616129
 31
0.0
  0
LINE
  5
1F0
330
1EB
100
AcDbEntity
  8
치수문자_일반주서
 62
     0
370
    -2
100
AcDbLine
 10
56.323
 20
41.55533999616129
 30
0.0
 11
-41.84799999999998
 21
41.55533999616129
 31
0.0
  0
SOLID
  5
1F1
330
1EB
100
AcDbEntity
  8
치수문자_일반주서
 62
     0
100
AcDbTrace
 10
56.323
 20
41.00500666282795
 30
0.0
 11
56.323
 21
42.10567332949462
 31
0.0
 12
59.625
 22
41.55533999616129
 32
0.0
 13
59.625
 23
41.55533999616129
 33
0.0
  0
SOLID
  5
1F2
330
1EB
100
AcDbEntity
  8
치수문자_일반주서
 62
     0
100
AcDbTrace
 10
-41.84799999999998
 20
42.10567332949462
 30
0.0
 11
-41.84799999999998
 21
41.00500666282795
 31
0.0
 12
-45.14999999999998
 22
41.55533999616129
 32
0.0
 13
-45.14999999999998
 23
41.55533999616129
 33
0.0
  0
MTEXT
  5
1F3
330
1EB
100
AcDbEntity
  8
치수문자_일반주서
 62
     0
100
AcDbMText
 10
2.475000000000009
 20
45.93033999616129
 30
0.0
 40
3.5
 41
0.0
 71
     2
 72
     1
  1
\A1;104.78 [4 1/8]
  7
SLDTEXTSTYLE0
 73
     1
 44
1.0
  0
POINT
  5
1F4
330
1EB
100
AcDbEntity
  8
Defpoints
 62
     0
100
AcDbPoint
 10
59.625
 20
12.70000000000001
 30
0.0
  0
POINT
  5
1F5
330
1EB
100
AcDbEntity
  8
Defpoints
 62
     0
100
AcDbPoint
 10
-45.14999999999998
 20
5.397500000000017
 30
0.0
  0
POINT
  5
1F6
330
1EB
100
AcDbEntity
  8
Defpoints
 62
     0
100
AcDbPoint
 10
-45.14999999999998
 20
41.55533999616129
 30
0.0
  0
ENDBLK
  5
1ED
330
1EB
100
AcDbEntity
  8
0
100
AcDbBlockEnd
  0
BLOCK
  5
1F8
330
1F7
100
AcDbEntity
  8
0
100
AcDbBlockBegin
  2
*D13
 70
     1
 10
0.0
 20
0.0
 30
0.0
  3
*D13
  1
*D14
  0
LINE
  5
1FA
330
1F7
100
AcDbEntity
  8
치수문자_일반주서
 62
     0
370
    -2
100
AcDbLine
 10
-42.67249999999999
 20
9.525000000000007
 30
0.0
 11
-52.83064581522807
 21
9.524999999999968
 31
0.0
  0
LINE
  5
1FB
330
1F7
100
AcDbEntity
  8
치수문자_일반주서
 62
     0
370
    -2
100
AcDbLine
 10
-42.67249999999999
 20
-9.524999999999995
 30
0.0
 11
-52.830645815228
 21
-9.525000000000034
 31
0.0
  0
LINE
  5
1FC
330
1F7
100
AcDbEntity
  8
치수문자_일반주서
 62
     0
370
    -2
100
AcDbLine
 10
-52.83064581522805
 20
6.222999999999969
 30
0.0
 11
-52.83064581522802
 21
-6.223000000000035
 31
0.0
  0
SOLID
  5
1FD
330
1F7
100
AcDbEntity
  8
치수문자_일반주서
 62
     0
100
AcDbTrace
 10
-52.28031248189472
 20
6.222999999999971
 30
0.0
 11
-53.38097914856139
 21
6.222999999999967
 31
0.0
 12
-52.83064581522807
 22
9.524999999999968
 32
0.0
 13
-52.83064581522807
 23
9.524999999999968
 33
0.0
  0
SOLID
  5
1FE
330
1F7
100
AcDbEntity
  8
치수문자_일반주서
 62
     0
100
AcDbTrace
 10
-53.38097914856135
 20
-6.223000000000036
 30
0.0
 11
-52.28031248189468
 21
-6.223000000000033
 31
0.0
 12
-52.830645815228
 22
-9.525000000000034
 32
0.0
 13
-52.830645815228
 23
-9.525000000000034
 33
0.0
  0
MTEXT
  5
1FF
330
1F7
100
AcDbEntity
  8
치수문자_일반주서
 62
     0
100
AcDbMText
 10
-57.20564581522804
 20
-0.0000000000000287
 30
0.0
 40
3.5
 41
0.0
 71
     2
 72
     1
  1
\A1;%%c19.05 [3/4]
  7
SLDTEXTSTYLE0
 11
-3.356894814614647E-15
 21
1.0
 31
0.0
 73
     1
 44
1.0
  0
POINT
  5
200
330
1F7
100
AcDbEntity
  8
Defpoints
 62
     0
100
AcDbPoint
 10
-42.60999999999999
 20
9.525000000000007
 30
0.0
  0
POINT
  5
201
330
1F7
100
AcDbEntity
  8
Defpoints
 62
     0
100
AcDbPoint
 10
-42.60999999999999
 20
-9.524999999999995
 30
0.0
  0
POINT
  5
202
330
1F7
100
AcDbEntity
  8
Defpoints
 62
     0
100
AcDbPoint
 10
-52.830645815228
 20
-9.525000000000032
 30
0.0
  0
ENDBLK
  5
1F9
330
1F7
100
AcDbEntity
  8
0
100
AcDbBlockEnd
  0
BLOCK
  5
204
330
203
100
AcDbEntity
  8
0
100
AcDbBlockBegin
  2
*D14
 70
     1
 10
0.0
 20
0.0
 30
0.0
  3
*D14
  1
*D15
  0
LINE
  5
206
330
203
100
AcDbEntity
  8
치수문자_일반주서
 62
     0
370
    -2
100
AcDbLine
 10
59.6875
 20
12.70000000000001
 30
0.0
 11
81.20706794312044
 21
12.70000000000009
 31
0.0
  0
LINE
  5
207
330
203
100
AcDbEntity
  8
치수문자_일반주서
 62
     0
370
    -2
100
AcDbLine
 10
59.68749999999997
 20
-12.69999999999999
 30
0.0
 11
81.20706794312052
 21
-12.69999999999991
 31
0.0
  0
LINE
  5
208
330
203
100
AcDbEntity
  8
치수문자_일반주서
 62
     0
370
    -2
100
AcDbLine
 10
81.20706794312045
 20
9.398000000000092
 30
0.0
 11
81.2070679431205
 21
-9.39799999999991
 31
0.0
  0
SOLID
  5
209
330
203
100
AcDbEntity
  8
치수문자_일반주서
 62
     0
100
AcDbTrace
 10
81.75740127645378
 20
9.398000000000094
 30
0.0
 11
80.65673460978712
 21
9.39800000000009
 31
0.0
 12
81.20706794312044
 22
12.70000000000009
 32
0.0
 13
81.20706794312044
 23
12.70000000000009
 33
0.0
  0
SOLID
  5
20A
330
203
100
AcDbEntity
  8
치수문자_일반주서
 62
     0
100
AcDbTrace
 10
80.65673460978718
 20
-9.397999999999913
 30
0.0
 11
81.75740127645383
 21
-9.397999999999909
 31
0.0
 12
81.20706794312052
 22
-12.69999999999991
 32
0.0
 13
81.20706794312052
 23
-12.69999999999991
 33
0.0
  0
MTEXT
  5
20B
330
203
100
AcDbEntity
  8
치수문자_일반주서
 62
     0
100
AcDbMText
 10
76.83206794312048
 20
0.0000000000000778
 30
0.0
 40
3.5
 41
0.0
 71
     2
 72
     1
  1
\A1;%%c25.40 [1]
  7
SLDTEXTSTYLE0
 11
-3.356894814614646E-15
 21
1.0
 31
0.0
 73
     1
 44
1.0
  0
POINT
  5
20C
330
203
100
AcDbEntity
  8
Defpoints
 62
     0
100
AcDbPoint
 10
59.625
 20
12.70000000000001
 30
0.0
  0
POINT
  5
20D
330
203
100
AcDbEntity
  8
Defpoints
 62
     0
100
AcDbPoint
 10
59.62499999999997
 20
-12.69999999999999
 30
0.0
  0
POINT
  5
20E
330
203
100
AcDbEntity
  8
Defpoints
 62
     0
100
AcDbPoint
 10
81.20706794312052
 20
-12.69999999999991
 30
0.0
  0
ENDBLK
  5
205
330
203
100
AcDbEntity
  8
0
100
AcDbBlockEnd
  0
ENDSEC
  0
SECTION
  2
ENTITIES
  0
LINE
  5
AC
330
1F
100
AcDbEntity
  8
참조1
100
AcDbLine
 10
6.862407664253888
 20
0.0010749287238892
 30
0.0
 11
6.862407664253894
 21
-39.99892507127611
 31
0.0
  0
LINE
  5
AD
330
1F
100
AcDbEntity
  8
참조1
100
AcDbLine
 10
6.862407664253894
 20
-39.99892507127611
 30
0.0
 11
-19.40894915005478
 21
-39.9989250712761
 31
0.0
  0
INSERT
  5
AF
330
1F
100
AcDbEntity
  8
0
  6
Continuous
 62
     7
100
AcDbBlockReference
 66
     1
  2
블럭10
 10
-7.077865267871316
 20
-52.04609937292004
 30
0.0
  0
ATTRIB
  5
B0
330
AF
100
AcDbEntity
  8
FORMAT
 62
     2
100
AcDbText
 10
-16.2591605566126
 20
-49.97073246008785
 30
0.0
 40
4.233333333333333
  1
E1031919 [ 4 FLUTE ]
 41
0.75
  7
SLDTEXTSTYLE0
 11
-16.2591605566126
 21
-52.08739912675452
 31
0.0
100
AcDbAttribute
  2
AUTOATTR0
 70
     0
 74
     1
  0
SEQEND
  5
B1
330
AF
100
AcDbEntity
  8
0
  6
Continuous
 62
     7
  0
HATCH
  5
B2
330
1F
100
AcDbEntity
  8
중심선
100
AcDbHatch
 10
0.0
 20
0.0
 30
0.0
210
0.0
220
0.0
230
1.0
  2
SOLID
 70
     1
 71
     0
 91
        1
 92
        0
 93
        4
 72
     1
 10
-1.362955963490481
 20
-35.7989250712761
 11
-4.809231207327763
 21
-35.7989250712761
 72
     1
 10
-4.809231207327763
 20
-35.7989250712761
 11
-6.937461066531786
 21
-38.3352506518487
 72
     1
 10
-6.937461066531786
 20
-38.3352506518487
 11
-3.491152737581355
 21
-38.33521122254621
 72
     1
 10
-3.491152737581355
 20
-38.33521122254621
 11
-1.362955963490481
 21
-35.7989250712761
 97
        0
 75
     0
 76
     1
 98
        1
 10
0.0
 20
0.0
  0
HATCH
  5
B3
330
1F
100
AcDbEntity
  8
중심선
100
AcDbHatch
 10
0.0
 20
0.0
 30
0.0
210
0.0
220
0.0
230
1.0
  2
SOLID
 70
     1
 71
     0
 91
        1
 92
        0
 93
        4
 72
     1
 10
3.649808027545498
 20
-35.7989250712761
 11
0.2035327837082157
 21
-35.7989250712761
 72
     1
 10
0.2035327837082157
 20
-35.7989250712761
 11
-4.327605224649201
 21
-41.19892507127612
 72
     1
 10
-4.327605224649201
 20
-41.19892507127612
 11
-0.8813299808119179
 21
-41.19892507127612
 72
     1
 10
-0.8813299808119179
 20
-41.19892507127612
 11
3.649808027545498
 21
-35.7989250712761
 97
        0
 75
     0
 76
     1
 98
        1
 10
0.0
 20
0.0
  0
HATCH
  5
B4
330
1F
100
AcDbEntity
  8
중심선
100
AcDbHatch
 10
0.0
 20
0.0
 30
0.0
210
0.0
220
0.0
230
1.0
  2
SOLID
 70
     1
 71
     0
 91
        1
 92
        0
 93
        4
 72
     1
 10
8.662572018581422
 20
-35.79892507127608
 11
5.216296774744277
 21
-35.7989250712761
 72
     1
 10
5.216296774744277
 20
-35.7989250712761
 11
-1.832140127144999
 21
-44.19892507127612
 72
     1
 10
-1.832140127144999
 20
-44.19892507127612
 11
1.614135116692283
 21
-44.19892507127612
 72
     1
 10
1.614135116692283
 20
-44.19892507127612
 11
8.662572018581422
 21
-35.79892507127608
 97
        0
 75
     0
 76
     1
 98
        1
 10
0.0
 20
0.0
  0
HATCH
  5
B5
330
1F
100
AcDbEntity
  8
중심선
100
AcDbHatch
 10
0.0
 20
0.0
 30
0.0
210
0.0
220
0.0
230
1.0
  2
SOLID
 70
     1
 71
     0
 91
        1
 92
        0
 93
        6
 72
     3
 10
13.46246244959356
 20
-39.99892507132738
 11
3.960054785062284
 21
1.540850780301639E-10
 40
0.3939339440162633
 50
17.09539180608433
 51
320.0019657685081
 73
     0
 72
     1
 10
15.14546210529416
 20
-38.58681907591441
 11
17.45076397899523
 21
-36.65249236586646
 72
     3
 10
13.46246244954072
 20
-39.99892507127625
 11
6.600054785286829
 21
-1.249000902703301E-13
 40
0.6363583540795982
 50
39.99873849337411
 51
368.4976242363724
 73
     1
 72
     1
 10
19.88779494144133
 20
-39.03892507120613
 11
12.14252975637664
 21
-39.03892507120613
 72
     1
 10
12.14252975637664
 20
-39.03892507120613
 11
12.14250471193071
 21
-40.95892507120602
 72
     1
 10
12.14250471193071
 20
-40.95892507120602
 11
16.58388448140274
 21
-40.95892507120599
 97
        0
 75
     0
 76
     1
 98
        1
 10
0.0
 20
0.0
  0
LINE
  5
108
330
1F
100
AcDbEntity
  8
참조1
100
AcDbLine
 10
78.56339147959949
 20
7.441074928723896
 30
0.0
 11
78.56339147959949
 21
-7.438925071276109
 31
0.0
  0
LINE
  5
109
330
1F
100
AcDbEntity
  8
참조1
100
AcDbLine
 10
91.26339147959949
 20
5.441074928723896
 30
0.0
 11
78.56339147959949
 21
5.441074928723896
 31
0.0
  0
SOLID
  5
10A
330
1F
100
AcDbEntity
  8
참조1
100
AcDbTrace
 10
78.56339147959949
 20
5.441074928723896
 30
0.0
 11
84.91339147959948
 21
4.425074928723896
 31
0.0
 12
84.91339147959948
 22
6.457074928723896
 32
0.0
 13
84.91339147959948
 23
6.457074928723896
 33
0.0
  0
LINE
  5
10B
330
1F
100
AcDbEntity
  8
참조1
100
AcDbLine
 10
91.26339147959949
 20
-5.438925071276109
 30
0.0
 11
78.56339147959949
 21
-5.438925071276109
 31
0.0
  0
SOLID
  5
10C
330
1F
100
AcDbEntity
  8
참조1
100
AcDbTrace
 10
78.56339147959949
 20
-5.438925071276109
 30
0.0
 11
84.91339147959948
 21
-6.454925071276109
 31
0.0
 12
84.91339147959948
 22
-4.422925071276109
 32
0.0
 13
84.91339147959948
 23
-4.422925071276109
 33
0.0
  0
MTEXT
  5
10D
330
1F
100
AcDbEntity
  8
참조1
100
AcDbMText
 10
87.94774161222547
 20
11.01136670591222
 30
0.0
 40
3.5
 41
0.0
 71
     1
 72
     1
  1
A
  7
SLDTEXTSTYLE0
 73
     1
 44
1.0
  0
MTEXT
  5
10E
330
1F
100
AcDbEntity
  8
참조1
100
AcDbMText
 10
87.94774161222547
 20
0.1313667059122192
 30
0.0
 40
3.5
 41
0.0
 71
     1
 72
     1
  1
A
  7
SLDTEXTSTYLE0
 73
     1
 44
1.0
  0
LINE
  5
1BF
330
1F
100
AcDbEntity
  8
외형선
  6
Continuous
370
    15
100
AcDbLine
 10
-42.67249999999999
 20
-9.524999999999995
 30
0.0
 11
11.99999999999999
 21
-9.524999999999995
 31
0.0
  0
LINE
  5
1C0
330
1F
100
AcDbEntity
  8
외형선
  6
Continuous
370
    15
100
AcDbLine
 10
-45.14999999999998
 20
-6.985000000000008
 30
0.0
 11
-42.60999999999999
 21
-9.524999999999995
 31
0.0
  0
LINE
  5
1C1
330
1F
100
AcDbEntity
  8
0
  6
Continuous
 62
     1
370
    15
100
AcDbLine
 10
54.89216257534181
 20
3.765779968501969
 30
0.0
 11
54.81033560014011
 21
3.810008854975449
 31
0.0
  0
LINE
  5
1C2
330
1F
100
AcDbEntity
  8
0
  6
Continuous
 62
     1
370
    15
100
AcDbLine
 10
34.70236888591626
 20
12.7
 30
0.0
 11
26.95903744126826
 21
12.7
 31
0.0
  0
LINE
  5
1C3
330
1F
100
AcDbEntity
  8
0
  6
Continuous
 62
     1
370
    15
100
AcDbLine
 10
26.95903744126809
 20
-12.70000000000001
 30
0.0
 11
34.70236888591626
 21
-12.70000000000001
 31
0.0
  0
LINE
  5
1C4
330
1F
100
AcDbEntity
  8
0
  6
Continuous
 62
     1
370
    15
100
AcDbLine
 10
59.625
 20
-11.50215313554797
 30
0.0
 11
59.625
 21
1.088153135548122
 31
0.0
  0
SPLINE
  5
1C5
330
1F
100
AcDbEntity
  8
0
  6
Continuous
 62
     1
370
    15
100
AcDbSpline
210
0.0
220
0.0
230
1.0
 70
     8
 71
     3
 72
    56
 73
    52
 74
     0
 42
0.000000001
 43
0.00000001
 40
0.0
 40
0.0
 40
0.0
 40
0.0
 40
0.0625000000000003
 40
0.0625000000000003
 40
0.0937500000000002
 40
0.0937500000000002
 40
0.125
 40
0.125
 40
0.1562499999999998
 40
0.1562499999999998
 40
0.1874999999999996
 40
0.1874999999999996
 40
0.2499999999999992
 40
0.2499999999999992
 40
0.3124999999999988
 40
0.3124999999999988
 40
0.3437499999999986
 40
0.3437499999999986
 40
0.3749999999999984
 40
0.3749999999999984
 40
0.4062499999999983
 40
0.4062499999999983
 40
0.4374999999999981
 40
0.4374999999999981
 40
0.4999999999999977
 40
0.4999999999999977
 40
0.5624999999999973
 40
0.5624999999999973
 40
0.5937499999999971
 40
0.5937499999999971
 40
0.624999999999997
 40
0.624999999999997
 40
0.6562499999999968
 40
0.6562499999999968
 40
0.6874999999999967
 40
0.6874999999999967
 40
0.7499999999999969
 40
0.7499999999999969
 40
0.7812499999999972
 40
0.7812499999999972
 40
0.8124999999999977
 40
0.8124999999999977
 40
0.843749999999998
 40
0.843749999999998
 40
0.8749999999999984
 40
0.8749999999999984
 40
0.9062499999999988
 40
0.9062499999999988
 40
0.9374999999999992
 40
0.9374999999999992
 40
0.9375238101118122
 40
0.9375238101118122
 40
0.9375238101118122
 40
0.9375238101118122
 10
59.625
 20
-11.50215313554797
 30
0.0
 10
58.57028912215166
 20
-11.24339872313263
 30
0.0
 10
57.50610882236263
 20
-10.94382056627383
 30
0.0
 10
55.92043758912759
 20
-10.44007049362532
 30
0.0
 10
55.39322103010501
 20
-10.26310493401647
 30
0.0
 10
54.33387528262035
 20
-9.891112676797814
 30
0.0
 10
53.80329775907441
 20
-9.696246525514466
 30
0.0
 10
52.74447631308982
 20
-9.290304186448736
 30
0.0
 10
52.21770709619746
 20
-9.079440646101917
 30
0.0
 10
51.15976471075396
 20
-8.641752399621396
 30
0.0
 10
50.62928678841715
 20
-8.41500117050175
 30
0.0
 10
49.03954330703873
 20
-7.713642019271518
 30
0.0
 10
47.98527887898496
 20
-7.218473634491501
 30
0.0
 10
45.86500976528005
 20
-6.179673857279202
 30
0.0
 10
44.81063384410385
 20
-5.637943145571352
 30
0.0
 10
43.22102762568662
 20
-4.797475180292713
 30
0.0
 10
42.69051676490481
 20
-4.51278920528687
 30
0.0
 10
41.63235197164364
 20
-3.936591945856373
 30
0.0
 10
41.10564102976571
 20
-3.645262671134326
 30
0.0
 10
40.047002399015
 20
-3.055827749937478
 30
0.0
 10
39.51643785047214
 20
-2.757966735615891
 30
0.0
 10
38.45696085106458
 20
-2.158279385383327
 30
0.0
 10
37.92953460006821
 20
-1.856739166745694
 30
0.0
 10
36.34427394483443
 20
-0.9475119479599137
 30
0.0
 10
35.28005332313991
 20
-0.3345450281237135
 30
0.0
 10
33.16992697067663
 20
0.8859605199896521
 30
0.0
 10
32.1064950127077
 20
1.496856686790608
 30
0.0
 10
30.52043091793708
 20
2.400515088871817
 30
0.0
 10
29.99338915968931
 20
2.699603709837543
 30
0.0
 10
28.93418655858824
 20
3.293540063334676
 30
0.0
 10
28.40360204116266
 20
3.588085645613956
 30
0.0
 10
27.34460965477145
 20
4.170032831297315
 30
0.0
 10
26.81774725495194
 20
4.457160325793895
 30
0.0
 10
25.76003911926216
 20
5.023911470908915
 30
0.0
 10
25.22960011274679
 20
5.30345108120124
 30
0.0
 10
23.63973723725741
 20
6.127260815946267
 30
0.0
 10
22.58555526008911
 20
6.656103859321989
 30
0.0
 10
20.99537131084233
 20
7.413473006530824
 30
0.0
 10
20.46519362414659
 20
7.659716135667944
 30
0.0
 10
19.40873803972806
 20
8.137899802822355
 30
0.0
 10
18.88097651148658
 20
8.37007757984347
 30
0.0
 10
17.82134245031989
 20
8.8200911943258
 30
0.0
 10
17.29080462970855
 20
9.037722921417144
 30
0.0
 10
16.23242927888427
 20
9.45655537586555
 30
0.0
 10
15.70574170193065
 20
9.65762829093987
 30
0.0
 10
14.64729775439798
 20
10.04331572623612
 30
0.0
 10
14.11675216149348
 20
10.22775758064563
 30
0.0
 10
13.05715580954038
 20
10.5783783219414
 30
0.0
 10
12.52948498320488
 20
10.74442265115484
 30
0.0
 10
12.00080501745202
 20
10.90120069747099
 30
0.0
 10
12.00040250928386
 20
10.90132005400999
 30
0.0
 10
11.99999999999999
 20
10.90143940514244
 30
0.0
  0
SPLINE
  5
1C6
330
1F
100
AcDbEntity
  8
0
  6
Continuous
 62
     1
370
    15
100
AcDbSpline
210
0.0
220
0.0
230
1.0
 70
     8
 71
     3
 72
    18
 73
    14
 74
     0
 42
0.000000001
 43
0.00000001
 40
0.0
 40
0.0
 40
0.0
 40
0.0
 40
0.0691775896771731
 40
0.1383395883936429
 40
0.2074911200577623
 40
0.2766373294002107
 40
0.3457833717514782
 40
0.4136995222226249
 40
0.48162934661527
 40
0.5495781220457667
 40
0.6175163413847785
 40
0.6868243734554202
 40
0.7090522397933658
 40
0.7090522397933658
 40
0.7090522397933658
 40
0.7090522397933658
 10
59.62499999999997
 20
1.088153135548122
 30
0.0
 10
58.56259977453081
 20
1.696917935759508
 30
0.0
 10
56.43803876298666
 20
2.914310335274848
 30
0.0
 10
53.25167253902831
 20
4.673423351076062
 30
0.0
 10
50.06586995176511
 20
6.336164733285921
 30
0.0
 10
46.88036918308077
 20
7.865734039811082
 30
0.0
 10
43.71382441365198
 20
9.222571311326591
 30
0.0
 10
40.56596899300884
 20
10.38201847476296
 30
0.0
 10
37.43637672088018
 20
11.32479531223242
 30
0.0
 10
34.30616753983638
 20
12.03865477397838
 30
0.0
 10
31.15498073197212
 20
12.51252710754262
 30
0.0
 10
28.70601886082264
 20
12.68119952886263
 30
0.0
 10
27.30037093673852
 20
12.69992576706954
 30
0.0
 10
26.95903535251296
 20
12.69989461528953
 30
0.0
  0
LINE
  5
1C7
330
1F
100
AcDbEntity
  8
0
  6
Continuous
 62
     1
370
    15
100
AcDbLine
 10
59.625
 20
-12.69999999999999
 30
0.0
 11
59.625
 21
-11.50215313554797
 31
0.0
  0
SPLINE
  5
1C8
330
1F
100
AcDbEntity
  8
0
  6
Continuous
 62
     1
370
    15
100
AcDbSpline
210
0.0
220
0.0
230
1.0
 70
     8
 71
     3
 72
    56
 73
    52
 74
     0
 42
0.000000001
 43
0.00000001
 40
0.0
 40
0.0
 40
0.0
 40
0.0
 40
0.0625000000000007
 40
0.0625000000000007
 40
0.0937500000000007
 40
0.0937500000000007
 40
0.1250000000000007
 40
0.1250000000000007
 40
0.1562500000000007
 40
0.1562500000000007
 40
0.1875000000000008
 40
0.1875000000000008
 40
0.2500000000000008
 40
0.2500000000000008
 40
0.3125000000000008
 40
0.3125000000000008
 40
0.3437500000000009
 40
0.3437500000000009
 40
0.3750000000000009
 40
0.3750000000000009
 40
0.4062500000000009
 40
0.4062500000000009
 40
0.4375000000000009
 40
0.4375000000000009
 40
0.5000000000000009
 40
0.5000000000000009
 40
0.562500000000001
 40
0.562500000000001
 40
0.5937500000000007
 40
0.5937500000000007
 40
0.6250000000000003
 40
0.6250000000000003
 40
0.6562500000000001
 40
0.6562500000000001
 40
0.6874999999999998
 40
0.6874999999999998
 40
0.7499999999999992
 40
0.7499999999999992
 40
0.7812499999999992
 40
0.7812499999999992
 40
0.8124999999999992
 40
0.8124999999999992
 40
0.8437499999999992
 40
0.8437499999999992
 40
0.8749999999999992
 40
0.8749999999999992
 40
0.9062499999999993
 40
0.9062499999999993
 40
0.9374999999999993
 40
0.9374999999999993
 40
0.9375238101118116
 40
0.9375238101118116
 40
0.9375238101118116
 40
0.9375238101118116
 10
59.62499999999997
 20
-12.69999999999999
 30
0.0
 10
58.57028912215178
 20
-12.60100312106293
 30
0.0
 10
57.50610882236272
 20
-12.50449091193716
 30
0.0
 10
55.92043758912759
 20
-12.2954971268013
 30
0.0
 10
55.393221030105
 20
-12.21517842628206
 30
0.0
 10
54.3338752826204
 20
-12.03322179628625
 30
0.0
 10
53.8032977590744
 20
-11.93164700191012
 30
0.0
 10
52.74447631308988
 20
-11.70810788127357
 30
0.0
 10
52.21770709619742
 20
-11.58627726970652
 30
0.0
 10
51.15976471075392
 20
-11.32240114377738
 30
0.0
 10
50.62928678841712
 20
-11.1803845260161
 30
0.0
 10
49.0395433070387
 20
-10.72570996270427
 30
0.0
 10
47.98527887898491
 20
-10.38481970970887
 30
0.0
 10
45.86500976528001
 20
-9.632112580086119
 30
0.0
 10
44.81063384410385
 20
-9.221671746608108
 30
0.0
 10
43.22102762568662
 20
-8.559150480444128
 30
0.0
 10
42.69051676490477
 20
-8.330583085040118
 30
0.0
 10
41.63235197164362
 20
-7.859800624780087
 30
0.0
 10
41.10564102976574
 20
-7.617746203085899
 30
0.0
 10
40.04700239901499
 20
-7.120045624287183
 30
0.0
 10
39.51643785047212
 20
-6.864594358992692
 30
0.0
 10
38.45696085106457
 20
-6.342474908740975
 30
0.0
 10
37.92953460006821
 20
-6.076064584556116
 30
0.0
 10
36.34427394483443
 20
-5.261237342997859
 30
0.0
 10
35.28005332313992
 20
-4.696526476595199
 30
0.0
 10
33.16992697067656
 20
-3.541728925053047
 30
0.0
 10
32.10649501270773
 20
-2.948472192483571
 30
0.0
 10
30.52043091793719
 20
-2.048007128335126
 30
0.0
 10
29.99338915968931
 20
-1.746128713070142
 30
0.0
 10
28.93418655858821
 20
-1.138890716854547
 30
0.0
 10
28.40360204116266
 20
-0.8338297402433135
 30
0.0
 10
27.34460965477143
 20
-0.2232062535778034
 30
0.0
 10
26.817747254952
 20
0.0820574133462095
 30
0.0
 10
25.76003911926216
 20
0.6926790459718113
 30
0.0
 10
25.22960011274677
 20
0.9979579832964092
 30
0.0
 10
23.63973723725741
 20
1.91011988700718
 30
0.0
 10
22.58555526008914
 20
2.512609579220914
 30
0.0
 10
20.99537131084239
 20
3.401826742406199
 30
0.0
 10
20.46519362414656
 20
3.69555132694788
 30
0.0
 10
19.40873803972804
 20
4.275367716267192
 30
0.0
 10
18.88097651148655
 20
4.561737832250936
 30
0.0
 10
17.82134245031992
 20
5.126798150170517
 30
0.0
 10
17.29080462970852
 20
5.405242023322815
 30
0.0
 10
16.2324292788843
 20
5.951793997200598
 30
0.0
 10
15.70574170193068
 20
6.219718765459719
 30
0.0
 10
14.64729775439795
 20
6.745170722107995
 30
0.0
 10
14.11675216149347
 20
7.002480642036483
 30
0.0
 10
13.0571558095404
 20
7.50424632544688
 30
0.0
 10
12.52948498320484
 20
7.748496149017827
 30
0.0
 10
12.00080501745202
 20
7.986097845194026
 30
0.0
 10
12.00040250928387
 20
7.986278737824302
 30
0.0
 10
12.00000000000001
 20
7.986459626579299
 30
0.0
  0
SPLINE
  5
1C9
330
1F
100
AcDbEntity
  8
0
  6
Continuous
 62
     1
370
    15
100
AcDbSpline
210
0.0
220
0.0
230
1.0
 70
     8
 71
     3
 72
    20
 73
    16
 74
     0
 42
0.000000001
 43
0.00000001
 40
0.0808199449342748
 40
0.0808199449342748
 40
0.0808199449342748
 40
0.0808199449342748
 40
0.0811346896674857
 40
0.1622512250185782
 40
0.2433538775755048
 40
0.3244486756578991
 40
0.4055416632245812
 40
0.4851902508376895
 40
0.5648528351145009
 40
0.6445379511573459
 40
0.7242209199663945
 40
0.8055079719358661
 40
0.8867840441542105
 40
0.9680548975153221
 40
1.0
 40
1.0
 40
1.0
 40
1.0
 10
12.0
 20
-6.5152375155764
 30
0.0
 10
12.00412148649623
 20
-6.517290098251079
 30
0.0
 10
13.07043919537276
 20
-7.048231486776386
 30
0.0
 10
15.19870802254839
 20
-8.052911288126623
 30
0.0
 10
18.3846362831152
 20
-9.39573677865704
 30
0.0
 10
21.57018766860469
 20
-10.53978620174029
 30
0.0
 10
24.73670310315909
 20
-11.45812565128729
 30
0.0
 10
27.88443728030398
 20
-12.13579457227477
 30
0.0
 10
31.01384726982251
 20
-12.56419349688834
 30
0.0
 10
34.14395615181321
 20
-12.73895685466504
 30
0.0
 10
37.29529373589665
 20
-12.65484901124942
 30
0.0
 10
40.46728432863046
 20
-12.31196503155267
 30
0.0
 10
43.65999593020744
 20
-11.69411416716669
 30
0.0
 10
46.2065938314327
 20
-11.04587250280743
 30
0.0
 10
47.68900547920393
 20
-10.53276290029354
 30
0.0
 10
48.10728390699936
 20
-10.3879834942838
 30
0.0
  0
SPLINE
  5
1CA
330
1F
100
AcDbEntity
  8
0
  6
Continuous
 62
     1
370
    15
100
AcDbSpline
210
0.0
220
0.0
230
1.0
 70
     8
 71
     3
 72
    15
 73
    11
 74
     0
 42
0.000000001
 43
0.00000001
 40
0.0
 40
0.0
 40
0.0
 40
0.0
 40
0.103189974260182
 40
0.2313121825998095
 40
0.3594170849856921
 40
0.4875137615656505
 40
0.6156113083732392
 40
0.7437188197609343
 40
0.8718453708401903
 40
1.0
 40
1.0
 40
1.0
 40
1.0
 10
34.70236888591626
 20
12.68117925589063
 30
0.0
 10
35.55967341059782
 20
12.6720039549463
 30
0.0
 10
37.48141999672238
 20
12.65143646374708
 30
0.0
 10
40.46728315847778
 20
12.30491299307517
 30
0.0
 10
43.65999528389776
 20
11.70396850090759
 30
0.0
 10
46.8524557273862
 20
10.84910374525701
 30
0.0
 10
50.04494285162261
 20
9.768670315850438
 30
0.0
 10
53.23773097482
 20
8.480012227642328
 30
0.0
 10
56.43107512621062
 20
7.021145569547246
 30
0.0
 10
58.56028061705595
 20
5.929941838896278
 30
0.0
 10
59.625
 20
5.384280197612563
 30
0.0
  0
LINE
  5
1CB
330
1F
100
AcDbEntity
  8
0
  6
Continuous
 62
     1
370
    15
100
AcDbLine
 10
59.625
 20
1.088153135548122
 30
0.0
 11
59.625
 21
5.384280197612563
 31
0.0
  0
SPLINE
  5
1CC
330
1F
100
AcDbEntity
  8
0
  6
Continuous
 62
     1
370
    15
100
AcDbSpline
210
0.0
220
0.0
230
1.0
 70
     8
 71
     3
 72
    13
 73
     9
 74
     0
 42
0.000000001
 43
0.00000001
 40
0.0
 40
0.0
 40
0.0
 40
0.0
 40
0.119586889687062
 40
0.2956361376781952
 40
0.4716899720998234
 40
0.6477608870216934
 40
0.8238613435400077
 40
0.8249266445602842
 40
0.8249266445602842
 40
0.8249266445602842
 40
0.8249266445602842
 10
26.95903744126809
 20
-12.67086899261525
 30
0.0
 10
26.23618996083073
 20
-12.6705133310523
 30
0.0
 10
24.44920613838894
 20
-12.66963408407911
 30
0.0
 10
21.59810210230668
 20
-12.36151244925885
 30
0.0
 10
18.40555941964361
 20
-11.79535607316063
 30
0.0
 10
15.21264514637062
 20
-10.96742687038572
 30
0.0
 10
13.0774014344845
 20
-10.27007442607068
 30
0.0
 10
12.00643971400314
 20
-9.876826829304232
 30
0.0
 10
12.0
 20
-9.874460661179867
 30
0.0
  0
SPLINE
  5
1CD
330
1F
100
AcDbEntity
  8
0
  6
Continuous
 62
     1
370
    15
100
AcDbSpline
210
0.0
220
0.0
230
1.0
 70
     8
 71
     3
 72
    11
 73
     7
 74
     0
 42
0.000000001
 43
0.00000001
 40
0.0
 40
0.0
 40
0.0
 40
0.0
 40
0.2767052879046528
 40
0.5533482131093292
 40
0.8299492708718522
 40
0.9999999999999999
 40
0.9999999999999999
 40
0.9999999999999999
 40
0.9999999999999999
 10
59.62499999999997
 20
12.70000000000001
 30
0.0
 10
58.56259973803434
 20
12.57565404647517
 30
0.0
 10
56.43803865350546
 20
12.42038581343595
 30
0.0
 10
53.25167297681043
 20
11.84753357254402
 30
0.0
 10
50.47484757998075
 20
11.17912575466109
 30
0.0
 10
48.7601204341581
 20
10.60613457154832
 30
0.0
 10
48.10728390699933
 20
10.38798349428379
 30
0.0
  0
LINE
  5
1CE
330
1F
100
AcDbEntity
  8
0
  6
Continuous
 62
     1
370
    15
100
AcDbLine
 10
59.625
 20
5.369567747644796
 30
0.0
 11
59.625
 21
12.70000000000001
 31
0.0
  0
LINE
  5
1CF
330
1F
100
AcDbEntity
  8
중심선
100
AcDbLine
 10
-48.97499999999998
 20
-0.0000000000000053
 30
0.0
 11
62.625
 21
0.0000000000000071
 31
0.0
  0
CIRCLE
  5
1D0
330
1F
100
AcDbEntity
  8
해칭선
100
AcDbCircle
 10
0.0
 20
0.0
 30
0.0
 40
3.000000000000003
  0
DIMENSION
  5
1D1
330
1F
100
AcDbEntity
  8
치수문자_일반주서
100
AcDbDimension
  2
*D11
 10
12.0
 20
25.83413479835851
 30
0.0
 11
34.22500000000001
 21
25.83413479835851
 31
0.0
 70
   160
  1
<>
 71
     2
 42
47.625
  3
SLDDIMSTYLE1
100
AcDbAlignedDimension
 13
59.625
 23
12.70000000000001
 33
0.0
 14
12.0
 24
12.7
 34
0.0
 50
0.000000000000008
100
AcDbRotatedDimension
1001
ACAD
1000
DSTYLE
1002
{
1070
   171
1070
     6
1070
   273
1070
     7
1002
}
  0
DIMENSION
  5
1D2
330
1F
100
AcDbEntity
  8
치수문자_일반주서
100
AcDbDimension
  2
*D12
 10
-45.14999999999998
 20
41.55533999616129
 30
0.0
 11
2.475000000000009
 21
41.55533999616129
 31
0.0
 70
   160
  1
<>
 71
     2
 42
104.775
  3
SLDDIMSTYLE1
100
AcDbAlignedDimension
 13
59.625
 23
12.70000000000001
 33
0.0
 14
-45.14999999999998
 24
5.397500000000017
 34
0.0
 50
0.0000000000000036
100
AcDbRotatedDimension
1001
ACAD
1000
DSTYLE
1002
{
1070
   171
1070
     6
1070
   273
1070
     7
1002
}
  0
DIMENSION
  5
1D3
330
1F
100
AcDbEntity
  8
치수문자_일반주서
100
AcDbDimension
  2
*D13
 10
-52.830645815228
 20
-9.525000000000034
 30
0.0
 11
-52.83064581522804
 21
-0.0000000000000142
 31
0.0
 70
   160
  1
%%c<>
 71
     2
 42
19.05
 52
-270.0
  3
SLDDIMSTYLE1
100
AcDbAlignedDimension
 13
-42.60999999999999
 23
9.525000000000007
 33
0.0
 14
-42.60999999999999
 24
-9.524999999999995
 34
0.0
 50
90.0000000000002
100
AcDbRotatedDimension
1001
ACAD
1000
DSTYLE
1002
{
1070
   171
1070
     6
1070
   273
1070
     7
1002
}
  0
DIMENSION
  5
1D4
330
1F
100
AcDbEntity
  8
치수문자_일반주서
100
AcDbDimension
  2
*D14
 10
81.20706794312052
 20
-12.69999999999991
 30
0.0
 11
81.20706794312048
 21
0.0000000000000924
 31
0.0
 70
   160
  1
%%c<>
 71
     2
 42
25.4
 52
-270.0
  3
SLDDIMSTYLE1
100
AcDbAlignedDimension
 13
59.625
 23
12.70000000000001
 33
0.0
 14
59.62499999999997
 24
-12.69999999999999
 34
0.0
 50
90.0000000000002
100
AcDbRotatedDimension
1001
ACAD
1000
DSTYLE
1002
{
1070
   171
1070
     6
1070
   273
1070
     7
1002
}
  0
INSERT
  5
1D5
330
1F
100
AcDbEntity
  8
해칭선
100
AcDbBlockReference
  2
SW_DOWELSYMBOL_0
 10
0.0
 20
0.0
 30
0.0
  0
LINE
  5
1D6
330
1F
100
AcDbEntity
  8
외형선
  6
Continuous
370
    15
100
AcDbLine
 10
12.0
 20
12.7
 30
0.0
 11
12.0
 21
-12.7
 31
0.0
  0
SPLINE
  5
1D7
330
1F
100
AcDbEntity
  8
0
  6
Continuous
 62
     1
370
    15
100
AcDbSpline
210
0.0
220
0.0
230
1.0
 70
     8
 71
     3
 72
     9
 73
     5
 74
     0
 42
0.000000001
 43
0.0000000001
 40
0.0
 40
0.0
 40
0.0
 40
0.0
 40
4.702026978301209
 40
5.812693480953971
 40
5.812693480953971
 40
5.812693480953971
 40
5.812693480953971
 10
12.0
 20
-12.7
 30
0.0
 10
13.57755598505099
 20
-12.56374506337907
 30
0.0
 10
15.5277467075761
 20
-12.39530532760147
 30
0.0
 10
17.34231911343466
 20
-11.72540802047379
 30
0.0
 10
17.68655647833054
 20
-11.58822208403849
 30
0.0
  0
LINE
  5
1D8
330
1F
100
AcDbEntity
  8
0
  6
Continuous
 62
     1
370
    15
100
AcDbLine
 10
12.0
 20
12.7625
 30
0.0
 11
27.12099018936446
 21
12.69956571448507
 31
0.0
  0
SPLINE
  5
1D9
330
1F
100
AcDbEntity
  8
0
  6
Continuous
 62
     1
370
    15
100
AcDbSpline
210
0.0
220
0.0
230
1.0
 70
     8
 71
     3
 72
     8
 73
     4
 74
     0
 42
0.000000001
 43
0.00000001
 40
0.9991310861057279
 40
0.9991310861057279
 40
0.9991310861057279
 40
0.9991310861057279
 40
1.0
 40
1.0
 40
1.0
 40
1.0
 10
13.59546031943503
 20
10.40025243952972
 30
0.0
 10
13.58211640960559
 20
10.3957253115452
 30
0.0
 10
13.56877249965009
 20
10.39119793933745
 30
0.0
 10
13.5554285896946
 20
10.38667056712971
 30
0.0
  0
LINE
  5
1DA
330
1F
100
AcDbEntity
  8
외형선
  6
Continuous
370
    15
100
AcDbLine
 10
-45.14999999999998
 20
6.985000000000015
 30
0.0
 11
-42.60999999999999
 21
9.525000000000007
 31
0.0
  0
LINE
  5
1DB
330
1F
100
AcDbEntity
  8
외형선
  6
Continuous
370
    15
100
AcDbLine
 10
12.00000000000001
 20
9.525000000000007
 30
0.0
 11
-11.65692499999996
 21
9.525000000000007
 31
0.0
  0
LINE
  5
1DC
330
1F
100
AcDbEntity
  8
외형선
  6
Continuous
370
    15
100
AcDbLine
 10
-45.14999999999998
 20
-0.0000000000000036
 30
0.0
 11
-45.14999999999998
 21
6.985000000000015
 31
0.0
  0
LINE
  5
1DD
330
1F
100
AcDbEntity
  8
외형선
  6
Continuous
370
    15
100
AcDbLine
 10
-42.60999999999999
 20
9.525000000000007
 30
0.0
 11
-42.60999999999999
 21
-9.524999999999995
 31
0.0
  0
LINE
  5
1DE
330
1F
100
AcDbEntity
  8
외형선
  6
Continuous
370
    15
100
AcDbLine
 10
-45.14999999999998
 20
-6.985000000000008
 30
0.0
 11
-45.14999999999998
 21
-0.0000000000000036
 31
0.0
  0
LINE
  5
246
330
1F
100
AcDbEntity
  8
외형선
  6
Continuous
370
    15
100
AcDbLine
 10
-25.14432499999995
 20
7.619999999999992
 30
0.0
 11
-13.56192499999995
 21
7.619999999999992
 31
0.0
  0
LINE
  5
247
330
1F
100
AcDbEntity
  8
외형선
  6
Continuous
370
    15
100
AcDbLine
 10
-25.14432499999995
 20
7.619999999999978
 30
0.0
 11
-27.0493250000001
 21
9.525000000000007
 31
0.0
  0
LINE
  5
248
330
1F
100
AcDbEntity
  8
외형선
  6
Continuous
370
    15
100
AcDbLine
 10
-13.56192499999995
 20
7.619999999999978
 30
0.0
 11
-11.65692499999997
 21
9.525000000000007
 31
0.0
  0
LINE
  5
249
330
1F
100
AcDbEntity
  8
외형선
  6
Continuous
370
    15
100
AcDbLine
 10
-27.0493250000001
 20
9.525000000000007
 30
0.0
 11
-42.60999999999999
 21
9.525000000000007
 31
0.0
  0
ENDSEC
  0
SECTION
  2
OBJECTS
  0
DICTIONARY
  5
C
330
0
100
AcDbDictionary
281
     1
  3
ACAD_GROUP
350
D
  3
ACAD_IMAGE_VARS
350
139
  3
ACAD_LAYOUT
350
1A
  3
ACAD_MLINESTYLE
350
17
  3
ACAD_PLOTSETTINGS
350
19
  3
ACAD_PLOTSTYLENAME
350
E
  3
ACAD_SCALELIST
350
47
  3
APPDATA
350
137
  3
DWGPROPS
350
26D
  0
DICTIONARY
  5
1BA
330
2
100
AcDbDictionary
280
     1
281
     1
  3
ACAD_LAYERSTATES
360
1BB
  0
DICTIONARY
  5
D
102
{ACAD_REACTORS
330
C
102
}
330
C
100
AcDbDictionary
281
     1
  0
RASTERVARIABLES
  5
139
102
{ACAD_REACTORS
330
C
102
}
330
C
100
AcDbRasterVariables
 90
        0
 70
     1
 71
     1
 72
     1
  0
DICTIONARY
  5
1A
102
{ACAD_REACTORS
330
C
102
}
330
C
100
AcDbDictionary
281
     1
  3
Layout1
350
1E
  3
Layout2
350
26
  3
Model
350
22
  0
DICTIONARY
  5
17
102
{ACAD_REACTORS
330
C
102
}
330
C
100
AcDbDictionary
281
     1
  3
Standard
350
18
  0
DICTIONARY
  5
19
102
{ACAD_REACTORS
330
C
102
}
330
C
100
AcDbDictionary
281
     1
  0
ACDBDICTIONARYWDFLT
  5
E
102
{ACAD_REACTORS
330
C
102
}
330
C
100
AcDbDictionary
281
     1
  3
Normal
350
F
100
AcDbDictionaryWithDefault
340
F
  0
DICTIONARY
  5
47
102
{ACAD_REACTORS
330
C
102
}
330
C
100
AcDbDictionary
281
     1
  3
A0
350
48
  3
A1
350
49
  3
A2
350
4A
  3
A3
350
4B
  3
A4
350
4C
  3
A5
350
4D
  3
A6
350
4E
  3
A7
350
4F
  3
A8
350
50
  3
A9
350
51
  3
B0
350
52
  3
B1
350
53
  3
B2
350
54
  3
B3
350
55
  3
B4
350
56
  3
B5
350
57
  3
B6
350
58
  3
B7
350
59
  3
B8
350
5A
  3
B9
350
5B
  3
C0
350
5C
  3
C1
350
5D
  3
C2
350
5E
  3
C3
350
5F
  3
C4
350
60
  3
C5
350
61
  3
C6
350
62
  3
C7
350
63
  3
C8
350
64
  3
C9
350
65
  3
D0
350
66
  3
D1
350
67
  3
D2
350
68
  0
DICTIONARY
  5
137
102
{ACAD_REACTORS
330
C
102
}
330
C
100
AcDbDictionary
281
     1
  0
XRECORD
  5
26D
102
{ACAD_REACTORS
330
C
102
}
330
C
100
AcDbXrecord
280
     1
  1
DWGPROPS COOKIE
  2

  3

  4

  6

  7

  8
12016016
  9

300
=
301
=
302
=
303
=
304
=
305
=
306
=
307
=
308
=
309
=
 40
0.0
 41
2458312.377245764
 42
2458323.358518229
  1

 90
        0
  0
DICTIONARY
  5
1BB
102
{ACAD_REACTORS
330
1BA
102
}
330
1BA
100
AcDbDictionary
281
     1
  0
LAYOUT
  5
1E
102
{ACAD_REACTORS
330
1A
102
}
330
1A
100
AcDbPlotSettings
  1

  2
none_device
  4

  6

 40
0.0
 41
0.0
 42
0.0
 43
0.0
 44
0.0
 45
0.0
 46
0.0
 47
0.0
 48
0.0
 49
0.0
140
0.0
141
0.0
142
1.0
143
1.0
 70
   688
 72
     1
 73
     0
 74
     5
  7

 75
    16
147
1.0
148
0.0
149
0.0
100
AcDbLayout
  1
Layout1
 70
     1
 71
     1
 10
0.0
 20
0.0
 11
420.0
 21
297.0
 12
0.0
 22
0.0
 32
0.0
 14
1.000000000000000E+20
 24
1.000000000000000E+20
 34
1.000000000000000E+20
 15
-1.000000000000000E+20
 25
-1.000000000000000E+20
 35
-1.000000000000000E+20
146
0.0
 13
0.0
 23
0.0
 33
0.0
 16
1.0
 26
0.0
 36
0.0
 17
0.0
 27
1.0
 37
0.0
 76
     0
330
1B
  0
LAYOUT
  5
26
102
{ACAD_REACTORS
330
1A
102
}
330
1A
100
AcDbPlotSettings
  1

  2
none_device
  4

  6

 40
0.0
 41
0.0
 42
0.0
 43
0.0
 44
0.0
 45
0.0
 46
0.0
 47
0.0
 48
0.0
 49
0.0
140
0.0
141
0.0
142
1.0
143
1.0
 70
   688
 72
     1
 73
     0
 74
     5
  7

 75
    16
147
1.0
148
0.0
149
0.0
100
AcDbLayout
  1
Layout2
 70
     1
 71
     2
 10
0.0
 20
0.0
 11
0.0
 21
0.0
 12
0.0
 22
0.0
 32
0.0
 14
0.0
 24
0.0
 34
0.0
 15
0.0
 25
0.0
 35
0.0
146
0.0
 13
0.0
 23
0.0
 33
0.0
 16
1.0
 26
0.0
 36
0.0
 17
0.0
 27
1.0
 37
0.0
 76
     0
330
23
  0
LAYOUT
  5
22
102
{ACAD_REACTORS
330
1A
102
}
330
1A
100
AcDbPlotSettings
  1

  2
none_device
  4
ANSI_A_(11.00_x_8.50_Inches)
  6

 40
6.35
 41
19.05
 42
6.35000508
 43
19.05000254
 44
279.4
 45
215.9
 46
107.1300962393278
 47
100.5026560646533
 48
0.0
 49
0.0
140
0.0
141
0.0
142
0.0709734699818263
143
1.0
 70
  1696
 72
     0
 73
     0
 74
     0
  7

 75
     0
147
0.0235690232323232
148
0.0
149
0.0
100
AcDbLayout
  1
Model
 70
     1
 71
     0
 10
0.0
 20
0.0
 11
420.0
 21
297.0
 12
0.0
 22
0.0
 32
0.0
 14
-57.20564581522808
 24
-49.97073246008785
 34
0.0
 15
91.26339147959949
 25
45.93033999616129
 35
0.0
146
0.0
 13
0.0
 23
0.0
 33
0.0
 16
1.0
 26
0.0
 36
0.0
 17
0.0
 27
1.0
 37
0.0
 76
     0
330
1F
331
29
  0
MLINESTYLE
  5
18
102
{ACAD_REACTORS
330
17
102
}
330
17
100
AcDbMlineStyle
  2
Standard
 70
     0
  3

 62
   256
 51
90.0
 52
90.0
 71
     2
 49
0.5
 62
   256
  6
BYLAYER
 49
-0.5
 62
   256
  6
BYLAYER
  0
ACDBPLACEHOLDER
  5
F
102
{ACAD_REACTORS
330
E
102
}
330
E
  0
SCALE
  5
48
102
{ACAD_REACTORS
330
47
102
}
330
47
100
AcDbScale
 70
     0
300
1:1
140
1.0
141
1.0
290
     1
  0
SCALE
  5
49
102
{ACAD_REACTORS
330
47
102
}
330
47
100
AcDbScale
 70
     0
300
1:2
140
1.0
141
2.0
290
     0
  0
SCALE
  5
4A
102
{ACAD_REACTORS
330
47
102
}
330
47
100
AcDbScale
 70
     0
300
1:4
140
1.0
141
4.0
290
     0
  0
SCALE
  5
4B
102
{ACAD_REACTORS
330
47
102
}
330
47
100
AcDbScale
 70
     0
300
1:5
140
1.0
141
5.0
290
     0
  0
SCALE
  5
4C
102
{ACAD_REACTORS
330
47
102
}
330
47
100
AcDbScale
 70
     0
300
1:8
140
1.0
141
8.0
290
     0
  0
SCALE
  5
4D
102
{ACAD_REACTORS
330
47
102
}
330
47
100
AcDbScale
 70
     0
300
1:10
140
1.0
141
10.0
290
     0
  0
SCALE
  5
4E
102
{ACAD_REACTORS
330
47
102
}
330
47
100
AcDbScale
 70
     0
300
1:16
140
1.0
141
16.0
290
     0
  0
SCALE
  5
4F
102
{ACAD_REACTORS
330
47
102
}
330
47
100
AcDbScale
 70
     0
300
1:20
140
1.0
141
20.0
290
     0
  0
SCALE
  5
50
102
{ACAD_REACTORS
330
47
102
}
330
47
100
AcDbScale
 70
     0
300
1:30
140
1.0
141
30.0
290
     0
  0
SCALE
  5
51
102
{ACAD_REACTORS
330
47
102
}
330
47
100
AcDbScale
 70
     0
300
1:40
140
1.0
141
40.0
290
     0
  0
SCALE
  5
52
102
{ACAD_REACTORS
330
47
102
}
330
47
100
AcDbScale
 70
     0
300
1:50
140
1.0
141
50.0
290
     0
  0
SCALE
  5
53
102
{ACAD_REACTORS
330
47
102
}
330
47
100
AcDbScale
 70
     0
300
1:100
140
1.0
141
100.0
290
     0
  0
SCALE
  5
54
102
{ACAD_REACTORS
330
47
102
}
330
47
100
AcDbScale
 70
     0
300
2:1
140
2.0
141
1.0
290
     0
  0
SCALE
  5
55
102
{ACAD_REACTORS
330
47
102
}
330
47
100
AcDbScale
 70
     0
300
4:1
140
4.0
141
1.0
290
     0
  0
SCALE
  5
56
102
{ACAD_REACTORS
330
47
102
}
330
47
100
AcDbScale
 70
     0
300
8:1
140
8.0
141
1.0
290
     0
  0
SCALE
  5
57
102
{ACAD_REACTORS
330
47
102
}
330
47
100
AcDbScale
 70
     0
300
10:1
140
10.0
141
1.0
290
     0
  0
SCALE
  5
58
102
{ACAD_REACTORS
330
47
102
}
330
47
100
AcDbScale
 70
     0
300
100:1
140
100.0
141
1.0
290
     0
  0
SCALE
  5
59
102
{ACAD_REACTORS
330
47
102
}
330
47
100
AcDbScale
 70
     0
300
1/128" = 1'-0"
140
0.0078125
141
12.0
290
     0
  0
SCALE
  5
5A
102
{ACAD_REACTORS
330
47
102
}
330
47
100
AcDbScale
 70
     0
300
1/64" = 1'-0"
140
0.015625
141
12.0
290
     0
  0
SCALE
  5
5B
102
{ACAD_REACTORS
330
47
102
}
330
47
100
AcDbScale
 70
     0
300
1/32" = 1'-0"
140
0.03125
141
12.0
290
     0
  0
SCALE
  5
5C
102
{ACAD_REACTORS
330
47
102
}
330
47
100
AcDbScale
 70
     0
300
1/16" = 1'-0"
140
0.0625
141
12.0
290
     0
  0
SCALE
  5
5D
102
{ACAD_REACTORS
330
47
102
}
330
47
100
AcDbScale
 70
     0
300
3/32" = 1'-0"
140
0.09375
141
12.0
290
     0
  0
SCALE
  5
5E
102
{ACAD_REACTORS
330
47
102
}
330
47
100
AcDbScale
 70
     0
300
1/8" = 1'-0"
140
0.125
141
12.0
290
     0
  0
SCALE
  5
5F
102
{ACAD_REACTORS
330
47
102
}
330
47
100
AcDbScale
 70
     0
300
3/16" = 1'-0"
140
0.1875
141
12.0
290
     0
  0
SCALE
  5
60
102
{ACAD_REACTORS
330
47
102
}
330
47
100
AcDbScale
 70
     0
300
1/4" = 1'-0"
140
0.25
141
12.0
290
     0
  0
SCALE
  5
61
102
{ACAD_REACTORS
330
47
102
}
330
47
100
AcDbScale
 70
     0
300
3/8" = 1'-0"
140
0.375
141
12.0
290
     0
  0
SCALE
  5
62
102
{ACAD_REACTORS
330
47
102
}
330
47
100
AcDbScale
 70
     0
300
1/2" = 1'-0"
140
0.5
141
12.0
290
     0
  0
SCALE
  5
63
102
{ACAD_REACTORS
330
47
102
}
330
47
100
AcDbScale
 70
     0
300
3/4" = 1'-0"
140
0.75
141
12.0
290
     0
  0
SCALE
  5
64
102
{ACAD_REACTORS
330
47
102
}
330
47
100
AcDbScale
 70
     0
300
1" = 1'-0"
140
1.0
141
12.0
290
     0
  0
SCALE
  5
65
102
{ACAD_REACTORS
330
47
102
}
330
47
100
AcDbScale
 70
     0
300
1-1/2" = 1'-0"
140
1.5
141
12.0
290
     0
  0
SCALE
  5
66
102
{ACAD_REACTORS
330
47
102
}
330
47
100
AcDbScale
 70
     0
300
3" = 1'-0"
140
3.0
141
12.0
290
     0
  0
SCALE
  5
67
102
{ACAD_REACTORS
330
47
102
}
330
47
100
AcDbScale
 70
     0
300
6" = 1'-0"
140
6.0
141
12.0
290
     0
  0
SCALE
  5
68
102
{ACAD_REACTORS
330
47
102
}
330
47
100
AcDbScale
 70
     0
300
1'-0" = 1'-0"
140
12.0
141
12.0
290
     0
  0
ENDSEC
  0
EOF
