  0
SECTION
  2
HEADER
  9
$ACADVER
  1
AC1015
  9
$ACADMAINTVER
 70
     6
  9
$DWGCODEPAGE
  3
ANSI_949
  9
$INSBASE
 10
0.0
 20
0.0
 30
0.0
  9
$EXTMIN
 10
-64.15827283782721
 20
-49.97073246008785
 30
0.0
  9
$EXTMAX
 10
91.26339147959949
 20
45.78992281398641
 30
0.0
  9
$LIMMIN
 10
0.0
 20
0.0
  9
$LIMMAX
 10
420.0
 20
297.0
  9
$ORTHOMODE
 70
     1
  9
$REGENMODE
 70
     1
  9
$FILLMODE
 70
     1
  9
$QTEXTMODE
 70
     0
  9
$MIRRTEXT
 70
     1
  9
$LTSCALE
 40
1.0
  9
$ATTMODE
 70
     1
  9
$TEXTSIZE
 40
3.5
  9
$TRACEWID
 40
1.0
  9
$TEXTSTYLE
  7
Standard
  9
$CLAYER
  8
0
  9
$CELTYPE
  6
ByLayer
  9
$CECOLOR
 62
   256
  9
$CELTSCALE
 40
1.0
  9
$DISPSILH
 70
     0
  9
$DIMSCALE
 40
1.0
  9
$DIMASZ
 40
3.302
  9
$DIMEXO
 40
1.0
  9
$DIMDLI
 40
3.75
  9
$DIMRND
 40
0.0
  9
$DIMDLE
 40
0.0
  9
$DIMEXE
 40
1.0
  9
$DIMTP
 40
0.0
  9
$DIMTM
 40
0.0
  9
$DIMTXT
 40
3.5
  9
$DIMCEN
 40
2.5
  9
$DIMTSZ
 40
0.0
  9
$DIMTOL
 70
     0
  9
$DIMLIM
 70
     0
  9
$DIMTIH
 70
     1
  9
$DIMTOH
 70
     1
  9
$DIMSE1
 70
     0
  9
$DIMSE2
 70
     0
  9
$DIMTAD
 70
     1
  9
$DIMZIN
 70
     0
  9
$DIMBLK
  1

  9
$DIMASO
 70
     1
  9
$DIMSHO
 70
     1
  9
$DIMPOST
  1

  9
$DIMAPOST
  1

  9
$DIMALT
 70
     0
  9
$DIMALTD
 70
     3
  9
$DIMALTF
 40
0.0393700787401575
  9
$DIMLFAC
 40
1.0
  9
$DIMTOFL
 70
     1
  9
$DIMTVP
 40
0.0
  9
$DIMTIX
 70
     0
  9
$DIMSOXD
 70
     0
  9
$DIMSAH
 70
     0
  9
$DIMBLK1
  1

  9
$DIMBLK2
  1

  9
$DIMSTYLE
  2
ISO-25
  9
$DIMCLRD
 70
     0
  9
$DIMCLRE
 70
     0
  9
$DIMCLRT
 70
     0
  9
$DIMTFAC
 40
1.0
  9
$DIMGAP
 40
1.524
  9
$DIMJUST
 70
     0
  9
$DIMSD1
 70
     0
  9
$DIMSD2
 70
     0
  9
$DIMTOLJ
 70
     0
  9
$DIMTZIN
 70
     0
  9
$DIMALTZ
 70
     0
  9
$DIMALTTZ
 70
     0
  9
$DIMUPT
 70
     0
  9
$DIMDEC
 70
     2
  9
$DIMTDEC
 70
     2
  9
$DIMALTU
 70
     2
  9
$DIMALTTD
 70
     3
  9
$DIMTXSTY
  7
Standard
  9
$DIMAUNIT
 70
     0
  9
$DIMADEC
 70
     2
  9
$DIMALTRND
 40
0.0
  9
$DIMAZIN
 70
     0
  9
$DIMDSEP
 70
    44
  9
$DIMATFIT
 70
     3
  9
$DIMFRAC
 70
     0
  9
$DIMLDRBLK
  1

  9
$DIMLUNIT
 70
     2
  9
$DIMLWD
 70
    -2
  9
$DIMLWE
 70
    -2
  9
$DIMTMOVE
 70
     0
  9
$LUNITS
 70
     2
  9
$LUPREC
 70
     2
  9
$SKETCHINC
 40
1.0
  9
$FILLETRAD
 40
10.0
  9
$AUNITS
 70
     0
  9
$AUPREC
 70
     2
  9
$MENU
  1
.
  9
$ELEVATION
 40
0.0
  9
$PELEVATION
 40
0.0
  9
$THICKNESS
 40
0.0
  9
$LIMCHECK
 70
     0
  9
$CHAMFERA
 40
0.0
  9
$CHAMFERB
 40
0.0
  9
$CHAMFERC
 40
0.0
  9
$CHAMFERD
 40
0.0
  9
$SKPOLY
 70
     0
  9
$TDCREATE
 40
2458312.747796505
  9
$TDUCREATE
 40
2458312.372796505
  9
$TDUPDATE
 40
2458323.732256887
  9
$TDUUPDATE
 40
2458323.357256887
  9
$TDINDWG
 40
0.0019613657
  9
$TDUSRTIMER
 40
2458323.357216968
  9
$USRTIMER
 70
     1
  9
$ANGBASE
 50
0.0
  9
$ANGDIR
 70
     0
  9
$PDMODE
 70
     0
  9
$PDSIZE
 40
-1.0
  9
$PLINEWID
 40
0.0
  9
$SPLFRAME
 70
     0
  9
$SPLINETYPE
 70
     6
  9
$SPLINESEGS
 70
     8
  9
$HANDSEED
  5
26E
  9
$SURFTAB1
 70
     6
  9
$SURFTAB2
 70
     6
  9
$SURFTYPE
 70
     6
  9
$SURFU
 70
     6
  9
$SURFV
 70
     6
  9
$UCSBASE
  2

  9
$UCSNAME
  2

  9
$UCSORG
 10
0.0
 20
0.0
 30
0.0
  9
$UCSXDIR
 10
1.0
 20
0.0
 30
0.0
  9
$UCSYDIR
 10
0.0
 20
1.0
 30
0.0
  9
$UCSORTHOREF
  2

  9
$UCSORTHOVIEW
 70
     0
  9
$UCSORGTOP
 10
0.0
 20
0.0
 30
0.0
  9
$UCSORGBOTTOM
 10
0.0
 20
0.0
 30
0.0
  9
$UCSORGLEFT
 10
0.0
 20
0.0
 30
0.0
  9
$UCSORGRIGHT
 10
0.0
 20
0.0
 30
0.0
  9
$UCSORGFRONT
 10
0.0
 20
0.0
 30
0.0
  9
$UCSORGBACK
 10
0.0
 20
0.0
 30
0.0
  9
$PUCSBASE
  2

  9
$PUCSNAME
  2

  9
$PUCSORG
 10
0.0
 20
0.0
 30
0.0
  9
$PUCSXDIR
 10
1.0
 20
0.0
 30
0.0
  9
$PUCSYDIR
 10
0.0
 20
1.0
 30
0.0
  9
$PUCSORTHOREF
  2

  9
$PUCSORTHOVIEW
 70
     0
  9
$PUCSORGTOP
 10
0.0
 20
0.0
 30
0.0
  9
$PUCSORGBOTTOM
 10
0.0
 20
0.0
 30
0.0
  9
$PUCSORGLEFT
 10
0.0
 20
0.0
 30
0.0
  9
$PUCSORGRIGHT
 10
0.0
 20
0.0
 30
0.0
  9
$PUCSORGFRONT
 10
0.0
 20
0.0
 30
0.0
  9
$PUCSORGBACK
 10
0.0
 20
0.0
 30
0.0
  9
$USERI1
 70
     0
  9
$USERI2
 70
     0
  9
$USERI3
 70
     0
  9
$USERI4
 70
     0
  9
$USERI5
 70
     0
  9
$USERR1
 40
0.0
  9
$USERR2
 40
0.0
  9
$USERR3
 40
0.0
  9
$USERR4
 40
0.0
  9
$USERR5
 40
0.0
  9
$WORLDVIEW
 70
     1
  9
$SHADEDGE
 70
     3
  9
$SHADEDIF
 70
    70
  9
$TILEMODE
 70
     1
  9
$MAXACTVP
 70
    64
  9
$PINSBASE
 10
0.0
 20
0.0
 30
0.0
  9
$PLIMCHECK
 70
     0
  9
$PEXTMIN
 10
1.000000000000000E+20
 20
1.000000000000000E+20
 30
1.000000000000000E+20
  9
$PEXTMAX
 10
-1.000000000000000E+20
 20
-1.000000000000000E+20
 30
-1.000000000000000E+20
  9
$PLIMMIN
 10
0.0
 20
0.0
  9
$PLIMMAX
 10
0.0
 20
0.0
  9
$UNITMODE
 70
     0
  9
$VISRETAIN
 70
     1
  9
$PLINEGEN
 70
     0
  9
$PSLTSCALE
 70
     1
  9
$TREEDEPTH
 70
  3020
  9
$CMLSTYLE
  2
Standard
  9
$CMLJUST
 70
     0
  9
$CMLSCALE
 40
20.0
  9
$PROXYGRAPHICS
 70
     1
  9
$MEASUREMENT
 70
     1
  9
$CELWEIGHT
370
    -1
  9
$ENDCAPS
280
     0
  9
$JOINSTYLE
280
     0
  9
$LWDISPLAY
290
     1
  9
$INSUNITS
 70
     4
  9
$HYPERLINKBASE
  1

  9
$STYLESHEET
  1

  9
$XEDIT
290
     1
  9
$CEPSNTYPE
380
     0
  9
$PSTYLEMODE
290
     1
  9
$FINGERPRINTGUID
  2
{6C105B04-EA35-4F28-8F9F-C7C2A7CD1F62}
  9
$VERSIONGUID
  2
{FAEB1C32-E019-11D5-929B-00C0DF256EC4}
  9
$EXTNAMES
290
     1
  9
$PSVPSCALE
 40
0.0
  9
$OLESTARTUP
290
     0
  0
ENDSEC
  0
SECTION
  2
CLASSES
  0
CLASS
  1
ACDBDICTIONARYWDFLT
  2
AcDbDictionaryWithDefault
  3
ObjectDBX Classes
 90
        0
280
     0
281
     0
  0
CLASS
  1
VISUALSTYLE
  2
AcDbVisualStyle
  3
ObjectDBX Classes
 90
     4095
280
     0
281
     0
  0
CLASS
  1
MATERIAL
  2
AcDbMaterial
  3
ObjectDBX Classes
 90
     1153
280
     0
281
     0
  0
CLASS
  1
SCALE
  2
AcDbScale
  3
ObjectDBX Classes
 90
     1153
280
     0
281
     0
  0
CLASS
  1
SUN
  2
AcDbSun
  3
SCENEOE
 90
     1153
280
     0
281
     0
  0
CLASS
  1
ACDBPLACEHOLDER
  2
AcDbPlaceHolder
  3
ObjectDBX Classes
 90
        0
280
     0
281
     0
  0
CLASS
  1
LAYOUT
  2
AcDbLayout
  3
ObjectDBX Classes
 90
        0
280
     0
281
     0
  0
CLASS
  1
TABLESTYLE
  2
AcDbTableStyle
  3
ObjectDBX Classes
 90
     4095
280
     0
281
     0
  0
CLASS
  1
MLEADERSTYLE
  2
AcDbMLeaderStyle
  3
ACDB_MLEADERSTYLE_CLASS
 90
     4095
280
     0
281
     0
  0
CLASS
  1
RASTERVARIABLES
  2
AcDbRasterVariables
  3
ISM
 90
        0
280
     0
281
     0
  0
CLASS
  1
DIMASSOC
  2
AcDbDimAssoc
  3
"AcDbDimAssoc|Product Desc:     AcDim ARX App For Dimension|Company:          Autodesk, Inc.|WEB Address:      www.autodesk.com"
 90
        0
280
     0
281
     0
  0
ENDSEC
  0
SECTION
  2
TABLES
  0
TABLE
  2
VPORT
  5
8
330
0
100
AcDbSymbolTable
 70
     1
  0
VPORT
  5
29
330
8
100
AcDbSymbolTableRecord
100
AcDbViewportTableRecord
  2
*Active
 70
     0
 10
0.0
 20
0.0
 11
1.0
 21
1.0
 12
1.317466900656235
 22
-9.960654602865667
 13
0.0
 23
0.0
 14
10.0
 24
10.0
 15
10.0
 25
10.0
 16
0.0
 26
0.0
 36
1.0
 17
0.0
 27
0.0
 37
0.0
 40
119.8662379605369
 41
1.632093933463796
 42
50.0
 43
0.0
 44
0.0
 50
0.0
 51
0.0
 71
    16
 72
  2000
 73
     1
 74
     3
 75
     0
 76
     0
 77
     0
 78
     0
281
     0
 65
     1
110
0.0
120
0.0
130
0.0
111
1.0
121
0.0
131
0.0
112
0.0
122
1.0
132
0.0
 79
     0
146
0.0
  0
ENDTAB
  0
TABLE
  2
LTYPE
  5
5
330
0
100
AcDbSymbolTable
 70
     6
  0
LTYPE
  5
14
330
5
100
AcDbSymbolTableRecord
100
AcDbLinetypeTableRecord
  2
ByBlock
 70
     0
  3

 72
    65
 73
     0
 40
0.0
  0
LTYPE
  5
15
330
5
100
AcDbSymbolTableRecord
100
AcDbLinetypeTableRecord
  2
ByLayer
 70
     0
  3

 72
    65
 73
     0
 40
0.0
  0
LTYPE
  5
16
330
5
100
AcDbSymbolTableRecord
100
AcDbLinetypeTableRecord
  2
Continuous
 70
     0
  3
Solid line
 72
    65
 73
     0
 40
0.0
  0
LTYPE
  5
6A
330
5
100
AcDbSymbolTableRecord
100
AcDbLinetypeTableRecord
  2
HIDDEN
 70
     0
  3
Hidden __ __ __ __ __ __ __ __ __ __ __ __ __ __
 72
    65
 73
     2
 40
1.905
 49
1.27
 74
     0
 49
-0.635
 74
     0
  0
LTYPE
  5
6B
330
5
100
AcDbSymbolTableRecord
100
AcDbLinetypeTableRecord
  2
PHANTOM
 70
     0
  3
Phantom ______  __  __  ______  __  __  ______
 72
    65
 73
     6
 40
12.7
 49
6.35
 74
     0
 49
-1.27
 74
     0
 49
1.27
 74
     0
 49
-1.27
 74
     0
 49
1.27
 74
     0
 49
-1.27
 74
     0
  0
LTYPE
  5
6C
330
5
100
AcDbSymbolTableRecord
100
AcDbLinetypeTableRecord
  2
CENTER
 70
     0
  3
Center ____ _ ____ _ ____ _ ____ _ ____ _ ____
 72
    65
 73
     4
 40
10.16
 49
6.35
 74
     0
 49
-1.27
 74
     0
 49
1.27
 74
     0
 49
-1.27
 74
     0
  0
LTYPE
  5
6D
330
5
100
AcDbSymbolTableRecord
100
AcDbLinetypeTableRecord
  2
CENTERX2
 70
     0
  3
Center (2x) ________  __  ________  __  _____
 72
    65
 73
     4
 40
20.32
 49
12.7
 74
     0
 49
-2.54
 74
     0
 49
2.54
 74
     0
 49
-2.54
 74
     0
  0
LTYPE
  5
6E
330
5
100
AcDbSymbolTableRecord
100
AcDbLinetypeTableRecord
  2
DOT2
 70
     0
  3
Dot (.5x) ........................................
 72
    65
 73
     2
 40
0.635
 49
0.0
 74
     0
 49
-0.635
 74
     0
  0
ENDTAB
  0
TABLE
  2
LAYER
  5
2
102
{ACAD_XDICTIONARY
360
1C3
102
}
330
0
100
AcDbSymbolTable
 70
    18
  0
LAYER
  5
10
330
2
100
AcDbSymbolTableRecord
100
AcDbLayerTableRecord
  2
0
 70
     0
 62
     7
  6
Continuous
370
    -3
390
F
  0
LAYER
  5
6F
330
2
100
AcDbSymbolTableRecord
100
AcDbLayerTableRecord
  2
FORMAT
 70
     0
 62
     2
  6
Continuous
370
    -3
390
F
  0
LAYER
  5
70
330
2
100
AcDbSymbolTableRecord
100
AcDbLayerTableRecord
  2
외형선
 70
     0
 62
     4
  6
Continuous
370
    30
390
F
  0
LAYER
  5
71
330
2
100
AcDbSymbolTableRecord
100
AcDbLayerTableRecord
  2
숨은선
 70
     0
 62
     2
  6
HIDDEN
370
    15
390
F
  0
LAYER
  5
72
330
2
100
AcDbSymbolTableRecord
100
AcDbLayerTableRecord
  2
중심선
 70
     0
 62
     1
  6
CENTERX2
370
    -3
390
F
  0
LAYER
  5
73
330
2
100
AcDbSymbolTableRecord
100
AcDbLayerTableRecord
  2
파단선
 70
     0
 62
     4
  6
Continuous
370
    -3
390
F
  0
LAYER
  5
74
330
2
100
AcDbSymbolTableRecord
100
AcDbLayerTableRecord
  2
해칭선
 70
     0
 62
   100
  6
Continuous
370
    -3
390
F
  0
LAYER
  5
75
330
2
100
AcDbSymbolTableRecord
100
AcDbLayerTableRecord
  2
가는실선
 70
     0
 62
     4
  6
Continuous
370
    -3
390
F
  0
LAYER
  5
76
330
2
100
AcDbSymbolTableRecord
100
AcDbLayerTableRecord
  2
치수_보조선
 70
     0
 62
     4
  6
Continuous
370
    -3
390
F
  0
LAYER
  5
77
330
2
100
AcDbSymbolTableRecord
100
AcDbLayerTableRecord
  2
치수문자_일반주서
 70
     0
 62
     7
  6
Continuous
370
    15
390
F
  0
LAYER
  5
78
330
2
100
AcDbSymbolTableRecord
100
AcDbLayerTableRecord
  2
개별주서
 70
     0
 62
   100
  6
Continuous
370
    30
390
F
  0
LAYER
  5
79
330
2
100
AcDbSymbolTableRecord
100
AcDbLayerTableRecord
  2
중간선
 70
     0
 62
     2
  6
Continuous
370
    15
390
F
  0
LAYER
  5
7A
330
2
100
AcDbSymbolTableRecord
100
AcDbLayerTableRecord
  2
윤곽선
 70
     0
 62
     3
  6
Continuous
370
    40
390
F
  0
LAYER
  5
7B
330
2
100
AcDbSymbolTableRecord
100
AcDbLayerTableRecord
  2
중심마크
 70
     0
 62
   100
  6
Continuous
370
    30
390
F
  0
LAYER
  5
7C
330
2
100
AcDbSymbolTableRecord
100
AcDbLayerTableRecord
  2
가상선
 70
     0
 62
     4
  6
PHANTOM
370
    -3
390
F
  0
LAYER
  5
7D
330
2
100
AcDbSymbolTableRecord
100
AcDbLayerTableRecord
  2
특수지정선
 70
     0
 62
     5
  6
CENTERX2
370
    60
390
F
  0
LAYER
  5
7E
330
2
100
AcDbSymbolTableRecord
100
AcDbLayerTableRecord
  2
참조1
 70
     0
 62
    -4
  6
Continuous
370
    -3
390
F
  0
LAYER
  5
13A
330
2
100
AcDbSymbolTableRecord
100
AcDbLayerTableRecord
  2
Defpoints
 70
     0
 62
     7
  6
Continuous
290
     0
370
    -3
390
F
  0
ENDTAB
  0
TABLE
  2
STYLE
  5
3
330
0
100
AcDbSymbolTable
 70
     2
  0
STYLE
  5
11
330
3
100
AcDbSymbolTableRecord
100
AcDbTextStyleTableRecord
  2
Standard
 70
     0
 40
0.0
 41
1.0
 50
0.0
 71
     0
 42
3.5
  3
txt
  4

  0
STYLE
  5
94
330
3
100
AcDbSymbolTableRecord
100
AcDbTextStyleTableRecord
  2
SLDTEXTSTYLE0
 70
     0
 40
0.0
 41
0.75
 50
0.0
 71
     0
 42
3.5
  3
TXT
  4

  0
ENDTAB
  0
TABLE
  2
VIEW
  5
6
330
0
100
AcDbSymbolTable
 70
     0
  0
ENDTAB
  0
TABLE
  2
UCS
  5
7
330
0
100
AcDbSymbolTable
 70
     0
  0
ENDTAB
  0
TABLE
  2
APPID
  5
9
330
0
100
AcDbSymbolTable
 70
     1
  0
APPID
  5
12
330
9
100
AcDbSymbolTableRecord
100
AcDbRegAppTableRecord
  2
ACAD
 70
     0
  0
ENDTAB
  0
TABLE
  2
DIMSTYLE
  5
A
330
0
100
AcDbSymbolTable
 70
     4
100
AcDbDimStyleTable
  0
DIMSTYLE
105
27
330
A
100
AcDbSymbolTableRecord
100
AcDbDimStyleTableRecord
  2
ISO-25
 70
     0
 41
2.5
 42
0.625
 43
3.75
 44
1.25
 73
     0
 74
     0
 77
     1
 78
     8
140
2.5
141
2.5
143
0.03937007874016
147
0.625
171
     3
172
     1
178
     0
271
     2
272
     2
274
     3
278
    44
283
     0
284
     8
340
11
  0
DIMSTYLE
105
B6
330
A
100
AcDbSymbolTableRecord
100
AcDbDimStyleTableRecord
  2
SLDDIMSTYLE0
 70
     0
 41
3.302
 44
0.0
 45
0.000000001
 73
     0
 74
     0
 77
     1
 78
    12
 79
     3
140
3.5
143
0.0393700787401575
147
0.875
148
0.000000001
170
     1
173
     1
178
     0
271
     2
272
     2
276
     2
284
    12
340
94
  0
DIMSTYLE
105
CA
102
{ACAD_REACTORS
330
1D2
330
1D3
330
1E4
330
1EB
102
}
330
A
100
AcDbSymbolTableRecord
100
AcDbDimStyleTableRecord
  2
SLDDIMSTYLE1
 70
     0
 41
3.302
 44
0.0
 45
0.000000001
 73
     0
 74
     0
 77
     1
 78
     4
 79
     1
140
3.5
143
0.0393700787401575
147
0.875
148
0.000000001
170
     1
172
     1
173
     1
178
     0
271
     2
272
     2
276
     2
284
    12
289
     0
340
94
  0
DIMSTYLE
105
F3
330
A
100
AcDbSymbolTableRecord
100
AcDbDimStyleTableRecord
  2
SLDDIMSTYLE2
 70
     0
 41
3.302
 44
0.0
 45
0.000000001
 73
     0
 74
     0
 77
     1
 78
    12
 79
     3
140
3.5
143
0.0393700787401575
147
0.875
148
0.000000001
170
     1
172
     1
173
     1
178
     0
271
     2
272
     2
276
     2
284
    12
289
     0
340
94
  0
ENDTAB
  0
TABLE
  2
BLOCK_RECORD
  5
1
330
0
100
AcDbSymbolTable
 70
    15
  0
BLOCK_RECORD
  5
1F
330
1
100
AcDbSymbolTableRecord
100
AcDbBlockTableRecord
  2
*Model_Space
340
22
  0
BLOCK_RECORD
  5
1B
330
1
100
AcDbSymbolTableRecord
100
AcDbBlockTableRecord
  2
*Paper_Space
340
1E
  0
BLOCK_RECORD
  5
23
330
1
100
AcDbSymbolTableRecord
100
AcDbBlockTableRecord
  2
*Paper_Space0
340
26
  0
BLOCK_RECORD
  5
7F
330
1
100
AcDbSymbolTableRecord
100
AcDbBlockTableRecord
  2
블럭10
340
0
102
{BLKREFS
331
AE
102
}
  0
BLOCK_RECORD
  5
B7
330
1
100
AcDbSymbolTableRecord
100
AcDbBlockTableRecord
  2
_D
340
0
  0
BLOCK_RECORD
  5
CB
330
1
100
AcDbSymbolTableRecord
100
AcDbBlockTableRecord
  2
_D_1
340
0
  0
BLOCK_RECORD
  5
E0
330
1
100
AcDbSymbolTableRecord
100
AcDbBlockTableRecord
  2
_D_2
340
0
  0
BLOCK_RECORD
  5
F4
330
1
100
AcDbSymbolTableRecord
100
AcDbBlockTableRecord
  2
_D_3
340
0
  0
BLOCK_RECORD
  5
10E
330
1
100
AcDbSymbolTableRecord
100
AcDbBlockTableRecord
  2
SW_DOWELSYMBOL_0
340
0
102
{BLKREFS
331
1D4
102
}
  0
BLOCK_RECORD
  5
16E
330
1
100
AcDbSymbolTableRecord
100
AcDbBlockTableRecord
  2
*D7
340
0
  0
BLOCK_RECORD
  5
17B
330
1
100
AcDbSymbolTableRecord
100
AcDbBlockTableRecord
  2
*D8
340
0
  0
BLOCK_RECORD
  5
19E
330
1
100
AcDbSymbolTableRecord
100
AcDbBlockTableRecord
  2
*D9
340
0
  0
BLOCK_RECORD
  5
1B6
330
1
100
AcDbSymbolTableRecord
100
AcDbBlockTableRecord
  2
*D10
340
0
  0
BLOCK_RECORD
  5
1EF
330
1
100
AcDbSymbolTableRecord
100
AcDbBlockTableRecord
  2
*D11
340
0
  0
BLOCK_RECORD
  5
1FB
330
1
100
AcDbSymbolTableRecord
100
AcDbBlockTableRecord
  2
*D12
340
0
  0
BLOCK_RECORD
  5
207
330
1
100
AcDbSymbolTableRecord
100
AcDbBlockTableRecord
  2
*D13
340
0
  0
BLOCK_RECORD
  5
216
330
1
100
AcDbSymbolTableRecord
100
AcDbBlockTableRecord
  2
*D14
340
0
  0
ENDTAB
  0
ENDSEC
  0
SECTION
  2
BLOCKS
  0
BLOCK
  5
20
330
1F
100
AcDbEntity
  8
0
100
AcDbBlockBegin
  2
*Model_Space
 70
     0
 10
0.0
 20
0.0
 30
0.0
  3
*Model_Space
  1
*Model_Space
  0
ENDBLK
  5
21
330
1F
100
AcDbEntity
  8
0
100
AcDbBlockEnd
  0
BLOCK
  5
1C
330
1B
100
AcDbEntity
 67
     1
  8
0
100
AcDbBlockBegin
  2
*Paper_Space
 70
     0
 10
0.0
 20
0.0
 30
0.0
  3
*Paper_Space
  1
*Paper_Space
  0
ENDBLK
  5
1D
330
1B
100
AcDbEntity
 67
     1
  8
0
100
AcDbBlockEnd
  0
BLOCK
  5
24
330
23
100
AcDbEntity
  8
0
100
AcDbBlockBegin
  2
*Paper_Space0
 70
     0
 10
0.0
 20
0.0
 30
0.0
  3
*Paper_Space0
  1
*Paper_Space0
  0
ENDBLK
  5
25
330
23
100
AcDbEntity
  8
0
100
AcDbBlockEnd
  0
BLOCK
  5
80
330
7F
100
AcDbEntity
  8
0
100
AcDbBlockBegin
  2
블럭10
 70
     2
 10
0.0
 20
0.0
 30
0.0
  3
블럭10
  1
블럭10
  0
ELLIPSE
  5
82
330
7F
100
AcDbEntity
  8
중심선
100
AcDbEllipse
 10
20.54032771741204
 20
12.0471743016438
 30
0.0
 11
6.600054785286829
 21
-1.261213355974178E-13
 31
0.0
210
0.0
220
0.0
230
1.0
 40
0.636358354079598
 41
0.9219305317359503
 42
6.513795318482858
  0
ELLIPSE
  5
83
330
7F
100
AcDbEntity
  8
중심선
100
AcDbEllipse
 10
20.54032771746488
 20
12.04717430159265
 30
0.0
 11
3.960054785062283
 21
1.540847449632565E-10
 31
0.0
210
0.0
220
0.0
230
1.0
 40
0.3939339440162632
 41
1.131841032648279
 42
5.62031148352944
  0
LINE
  5
84
330
7F
100
AcDbEntity
  8
중심선
100
AcDbLine
 10
2.268634060543552
 20
16.24717430164393
 30
0.0
 11
5.714909304380834
 21
16.24717430164393
 31
0.0
  0
LINE
  5
85
330
7F
100
AcDbEntity
  8
중심선
100
AcDbLine
 10
5.245725140726316
 20
7.84717430164391
 30
0.0
 11
8.692000384563599
 21
7.84717430164391
 31
0.0
  0
LINE
  5
86
330
7F
100
AcDbEntity
  8
중심선
100
AcDbLine
 10
15.74043728645272
 20
16.24717430164393
 30
0.0
 11
8.692000384563599
 21
7.84717430164391
 31
0.0
  0
LINE
  5
87
330
7F
100
AcDbEntity
  8
중심선
100
AcDbLine
 10
0.1404042013395286
 20
13.71084872107135
 30
0.0
 11
3.58671253028996
 21
13.71088815037384
 31
0.0
  0
LINE
  5
88
330
7F
100
AcDbEntity
  8
중심선
100
AcDbLine
 10
2.750260043222114
 20
10.84717430164391
 30
0.0
 11
6.196535287059397
 21
10.84717430164391
 31
0.0
  0
LINE
  5
89
330
7F
100
AcDbEntity
  8
중심선
100
AcDbLine
 10
12.29416204261559
 20
16.24717430164393
 30
0.0
 11
5.245725140726316
 21
7.84717430164391
 31
0.0
  0
LINE
  5
8A
330
7F
100
AcDbEntity
  8
중심선
100
AcDbLine
 10
10.72767329541681
 20
16.24717430164393
 30
0.0
 11
6.196535287059397
 21
10.84717430164391
 31
0.0
  0
LINE
  5
8B
330
7F
100
AcDbEntity
  8
중심선
100
AcDbLine
 10
7.28139805157953
 20
16.24717430164393
 30
0.0
 11
2.750260043222114
 21
10.84717430164391
 31
0.0
  0
LINE
  5
8C
330
7F
100
AcDbEntity
  8
중심선
100
AcDbLine
 10
5.714909304380834
 20
16.24717430164393
 30
0.0
 11
3.58671253028996
 21
13.71088815037384
 31
0.0
  0
LINE
  5
8D
330
7F
100
AcDbEntity
  8
중심선
100
AcDbLine
 10
2.268634060543552
 20
16.24717430164393
 30
0.0
 11
0.1404042013395286
 21
13.71084872107135
 31
0.0
  0
LINE
  5
8E
330
7F
100
AcDbEntity
  8
중심선
100
AcDbLine
 10
7.28139805157953
 20
16.24717430164393
 30
0.0
 11
10.72767329541681
 21
16.24717430164393
 31
0.0
  0
LINE
  5
8F
330
7F
100
AcDbEntity
  8
중심선
100
AcDbLine
 10
12.29416204261559
 20
16.24717430164393
 30
0.0
 11
15.74043728645272
 21
16.24717430164393
 31
0.0
  0
LINE
  5
90
330
7F
100
AcDbEntity
  8
중심선
100
AcDbLine
 10
19.22036997980202
 20
11.08717430171403
 30
0.0
 11
23.66174974927406
 21
11.08717430171406
 31
0.0
  0
LINE
  5
91
330
7F
100
AcDbEntity
  8
중심선
100
AcDbLine
 10
19.22039502424796
 20
13.00717430171391
 30
0.0
 11
19.22036997980202
 21
11.08717430171403
 31
0.0
  0
LINE
  5
92
330
7F
100
AcDbEntity
  8
중심선
100
AcDbLine
 10
19.22039502424796
 20
13.00717430171391
 30
0.0
 11
26.96566020931264
 21
13.00717430171391
 31
0.0
  0
LINE
  5
93
330
7F
100
AcDbEntity
  8
중심선
100
AcDbLine
 10
22.22332737316547
 20
13.45928029700563
 30
0.0
 11
24.52862924686651
 21
15.39360700705356
 31
0.0
  0
ATTDEF
  5
95
330
7F
100
AcDbEntity
  8
FORMAT
 62
     2
100
AcDbText
 10
4.408487351596664
 20
2.075366912832191
 30
0.0
 40
4.233333333333333
  1
E2031036
 41
0.75
  7
SLDTEXTSTYLE0
 11
4.408487351596664
 21
-0.0412997538344756
 31
0.0
100
AcDbAttributeDefinition
  3

  2
AUTOATTR0
 70
     0
 74
     1
  0
ENDBLK
  5
81
330
7F
100
AcDbEntity
  8
0
100
AcDbBlockEnd
  0
BLOCK
  5
B8
330
B7
100
AcDbEntity
  8
0
100
AcDbBlockBegin
  2
_D
 70
     0
 10
0.0
 20
0.0
 30
0.0
  3
_D
  1
_D
  0
SOLID
  5
BA
330
B7
100
AcDbEntity
  8
치수문자_일반주서
100
AcDbTrace
 10
-1.841524023601865
 20
5.218258589704702
 30
0.0
 11
-2.349524023601865
 21
1.916258589704702
 31
0.0
 12
-1.333524023601865
 22
1.916258589704702
 32
0.0
 13
-1.333524023601865
 23
1.916258589704702
 33
0.0
  0
SOLID
  5
BB
330
B7
100
AcDbEntity
  8
치수문자_일반주서
100
AcDbTrace
 10
-1.841524023601868
 20
-5.100491410295307
 30
0.0
 11
-1.333524023601868
 21
-1.798491410295307
 31
0.0
 12
-2.349524023601868
 22
-1.798491410295307
 32
0.0
 13
-2.349524023601868
 23
-1.798491410295307
 33
0.0
  0
LINE
  5
BC
330
B7
100
AcDbEntity
  8
치수문자_일반주서
100
AcDbLine
 10
-12.63440573964458
 20
10.23472747827022
 30
0.0
 11
-12.63440573964457
 21
9.52378999270572
 31
0.0
  0
LINE
  5
BD
330
B7
100
AcDbEntity
  8
치수문자_일반주서
100
AcDbLine
 10
-12.63440573964457
 20
9.52378999270572
 30
0.0
 11
-7.078155748585271
 21
9.523789992705758
 31
0.0
  0
LINE
  5
BE
330
B7
100
AcDbEntity
  8
치수문자_일반주서
100
AcDbLine
 10
-7.078155748585271
 20
9.523789992705758
 30
0.0
 11
-7.078155748585276
 21
10.23472747827026
 31
0.0
  0
LINE
  5
BF
330
B7
100
AcDbEntity
  8
치수문자_일반주서
100
AcDbLine
 10
-12.63440573964466
 20
21.06346034040748
 30
0.0
 11
-12.63440573964466
 21
21.77439782597198
 31
0.0
  0
LINE
  5
C0
330
B7
100
AcDbEntity
  8
치수문자_일반주서
100
AcDbLine
 10
-12.63440573964466
 20
21.77439782597198
 30
0.0
 11
-7.078155748585358
 21
21.77439782597202
 31
0.0
  0
LINE
  5
C1
330
B7
100
AcDbEntity
  8
치수문자_일반주서
100
AcDbLine
 10
-7.078155748585358
 20
21.77439782597202
 30
0.0
 11
-7.078155748585353
 21
21.06346034040752
 31
0.0
  0
LINE
  5
C2
330
B7
100
AcDbEntity
  8
치수문자_일반주서
100
AcDbLine
 10
3.481157664253888
 20
5.218258589704702
 30
0.0
 11
-2.841524023601865
 21
5.218258589704702
 31
0.0
  0
LINE
  5
C3
330
B7
100
AcDbEntity
  8
치수문자_일반주서
100
AcDbLine
 10
3.481157664253888
 20
-5.100491410295314
 30
0.0
 11
-2.841524023601868
 21
-5.100491410295307
 31
0.0
  0
LINE
  5
C4
330
B7
100
AcDbEntity
  8
치수문자_일반주서
100
AcDbLine
 10
-1.841524023601865
 20
5.218258589704702
 30
0.0
 11
-1.84152402360186
 21
24.10706285215994
 31
0.0
  0
LINE
  5
C5
330
B7
100
AcDbEntity
  8
치수문자_일반주서
100
AcDbLine
 10
-1.841524023601865
 20
5.218258589704702
 30
0.0
 11
-1.841524023601868
 21
-5.100491410295307
 31
0.0
  0
MTEXT
  5
C6
330
B7
100
AcDbEntity
  8
치수문자_일반주서
100
AcDbMText
 10
-11.58989266316418
 20
11.1233993788816
 30
0.0
 40
3.5
 41
0.0
 71
     1
 72
     1
  1
0.41
  7
SLDTEXTSTYLE0
 11
-7.044195017643634E-15
 21
1.0
 31
0.0
 73
     1
 44
1.0
  0
MTEXT
  5
C7
330
B7
100
AcDbEntity
  8
치수문자_일반주서
100
AcDbMText
 10
-6.353261112803678
 20
7.191124966517865
 30
0.0
 40
3.5
 41
0.0
 71
     1
 72
     1
  1
%%c
  7
SLDTEXTSTYLE0
 11
-7.044195017643634E-15
 21
1.0
 31
0.0
 73
     1
 44
1.0
  0
MTEXT
  5
C8
330
B7
100
AcDbEntity
  8
치수문자_일반주서
100
AcDbMText
 10
-6.353261112803716
 20
12.46956236489195
 30
0.0
 40
3.5
 41
0.0
 71
     1
 72
     1
  1
10.32
  7
SLDTEXTSTYLE0
 11
-7.044195017643634E-15
 21
1.0
 31
0.0
 73
     1
 44
1.0
  0
ENDBLK
  5
B9
330
B7
100
AcDbEntity
  8
0
100
AcDbBlockEnd
  0
BLOCK
  5
CC
330
CB
100
AcDbEntity
  8
0
100
AcDbBlockBegin
  2
_D_1
 70
     0
 10
0.0
 20
0.0
 30
0.0
  3
_D_1
  1
_D_1
  0
SOLID
  5
CE
330
CB
100
AcDbEntity
  8
치수문자_일반주서
100
AcDbTrace
 10
29.88115766425387
 20
15.04947043550686
 30
0.0
 11
33.18315766425387
 21
14.54147043550687
 31
0.0
 12
33.18315766425387
 22
15.55747043550687
 32
0.0
 13
33.18315766425387
 23
15.55747043550687
 33
0.0
  0
SOLID
  5
CF
330
CB
100
AcDbEntity
  8
치수문자_일반주서
100
AcDbTrace
 10
4.481157664253845
 20
15.04947043550681
 30
0.0
 11
1.179157664253845
 21
15.5574704355068
 31
0.0
 12
1.179157664253847
 22
14.5414704355068
 32
0.0
 13
1.179157664253847
 23
14.5414704355068
 33
0.0
  0
LINE
  5
D0
330
CB
100
AcDbEntity
  8
치수문자_일반주서
100
AcDbLine
 10
11.76679158243119
 20
25.84235215154961
 30
0.0
 11
11.05585409686669
 21
25.8423521515496
 31
0.0
  0
LINE
  5
D1
330
CB
100
AcDbEntity
  8
치수문자_일반주서
100
AcDbLine
 10
11.05585409686669
 20
25.8423521515496
 30
0.0
 11
11.05585409686674
 21
20.2861021604903
 31
0.0
  0
LINE
  5
D2
330
CB
100
AcDbEntity
  8
치수문자_일반주서
100
AcDbLine
 10
11.05585409686674
 20
20.2861021604903
 30
0.0
 11
11.76679158243124
 21
20.28610216049031
 31
0.0
  0
LINE
  5
D3
330
CB
100
AcDbEntity
  8
치수문자_일반주서
100
AcDbLine
 10
22.59552444456845
 20
25.8423521515497
 30
0.0
 11
23.30646193013295
 21
25.84235215154971
 31
0.0
  0
LINE
  5
D4
330
CB
100
AcDbEntity
  8
치수문자_일반주서
100
AcDbLine
 10
23.30646193013295
 20
25.84235215154971
 30
0.0
 11
23.306461930133
 21
20.28610216049041
 31
0.0
  0
LINE
  5
D5
330
CB
100
AcDbEntity
  8
치수문자_일반주서
100
AcDbLine
 10
23.306461930133
 20
20.28610216049041
 30
0.0
 11
22.5955244445685
 21
20.2861021604904
 31
0.0
  0
LINE
  5
D6
330
CB
100
AcDbEntity
  8
치수문자_일반주서
100
AcDbLine
 10
29.88115766425388
 20
6.001577696114738
 30
0.0
 11
29.88115766425386
 21
16.04947043550686
 31
0.0
  0
LINE
  5
D7
330
CB
100
AcDbEntity
  8
치수문자_일반주서
100
AcDbLine
 10
4.481157664253865
 20
5.995193093878775
 30
0.0
 11
4.481157664253844
 21
16.04947043550681
 31
0.0
  0
LINE
  5
D8
330
CB
100
AcDbEntity
  8
치수문자_일반주서
100
AcDbLine
 10
29.88115766425387
 20
15.04947043550686
 30
0.0
 11
36.23115766425386
 21
15.04947043550688
 31
0.0
  0
LINE
  5
D9
330
CB
100
AcDbEntity
  8
치수문자_일반주서
100
AcDbLine
 10
29.88115766425387
 20
15.04947043550686
 30
0.0
 11
4.481157664253845
 21
15.04947043550681
 31
0.0
  0
LINE
  5
DA
330
CB
100
AcDbEntity
  8
치수문자_일반주서
100
AcDbLine
 10
4.481157664253845
 20
15.04947043550681
 30
0.0
 11
-1.868842335746155
 21
15.04947043550679
 31
0.0
  0
MTEXT
  5
DB
330
CB
100
AcDbEntity
  8
치수문자_일반주서
100
AcDbMText
 10
10.54209537138005
 20
19.61467970136857
 30
0.0
 40
3.5
 41
0.0
 71
     1
 72
     1
  1

  7
SLDTEXTSTYLE0
 73
     1
 44
1.0
  0
MTEXT
  5
DC
330
CB
100
AcDbEntity
  8
치수문자_일반주서
100
AcDbMText
 10
12.65546348304257
 20
24.79783907506921
 30
0.0
 40
3.5
 41
0.0
 71
     1
 72
     1
  1
1.00
  7
SLDTEXTSTYLE0
 73
     1
 44
1.0
  0
MTEXT
  5
DD
330
CB
100
AcDbEntity
  8
치수문자_일반주서
100
AcDbMText
 10
11.36240776986589
 20
19.56120752470873
 30
0.0
 40
3.5
 41
0.0
 71
     1
 72
     1
  1
25.40
  7
SLDTEXTSTYLE0
 73
     1
 44
1.0
  0
MTEXT
  5
DE
330
CB
100
AcDbEntity
  8
치수문자_일반주서
100
AcDbMText
 10
25.15216517527362
 20
19.6146797013687
 30
0.0
 40
3.5
 41
0.0
 71
     1
 72
     1
  1

  7
SLDTEXTSTYLE0
 73
     1
 44
1.0
  0
ENDBLK
  5
CD
330
CB
100
AcDbEntity
  8
0
100
AcDbBlockEnd
  0
BLOCK
  5
E1
330
E0
100
AcDbEntity
  8
0
100
AcDbBlockBegin
  2
_D_2
 70
     0
 10
0.0
 20
0.0
 30
0.0
  3
_D_2
  1
_D_2
  0
SOLID
  5
E3
330
E0
100
AcDbEntity
  8
치수문자_일반주서
100
AcDbTrace
 10
29.88115766425389
 20
27.04947043550681
 30
0.0
 11
26.57915766425389
 21
27.5574704355068
 31
0.0
 12
26.57915766425389
 22
26.54147043550681
 32
0.0
 13
26.57915766425389
 23
26.54147043550681
 33
0.0
  0
SOLID
  5
E4
330
E0
100
AcDbEntity
  8
치수문자_일반주서
100
AcDbTrace
 10
-38.38134233574612
 20
27.0494704355068
 30
0.0
 11
-35.07934233574612
 21
26.5414704355068
 31
0.0
 12
-35.07934233574612
 22
27.5574704355068
 32
0.0
 13
-35.07934233574612
 23
27.5574704355068
 33
0.0
  0
LINE
  5
E5
330
E0
100
AcDbEntity
  8
치수문자_일반주서
100
AcDbLine
 10
-8.732315079352109
 20
37.84235215154953
 30
0.0
 11
-9.443252564916609
 21
37.84235215154954
 31
0.0
  0
LINE
  5
E6
330
E0
100
AcDbEntity
  8
치수문자_일반주서
100
AcDbLine
 10
-9.443252564916609
 20
37.84235215154954
 30
0.0
 11
-9.44325256491665
 21
32.28610216049024
 31
0.0
  0
LINE
  5
E7
330
E0
100
AcDbEntity
  8
치수문자_일반주서
100
AcDbLine
 10
-9.44325256491665
 20
32.28610216049024
 30
0.0
 11
-8.73231507935215
 21
32.28610216049023
 31
0.0
  0
LINE
  5
E8
330
E0
100
AcDbEntity
  8
치수문자_일반주서
100
AcDbLine
 10
2.096417782785149
 20
37.84235215154946
 30
0.0
 11
2.807355268349649
 21
37.84235215154945
 31
0.0
  0
LINE
  5
E9
330
E0
100
AcDbEntity
  8
치수문자_일반주서
100
AcDbLine
 10
2.807355268349649
 20
37.84235215154945
 30
0.0
 11
2.807355268349609
 21
32.28610216049015
 31
0.0
  0
LINE
  5
EA
330
E0
100
AcDbEntity
  8
치수문자_일반주서
100
AcDbLine
 10
2.807355268349609
 20
32.28610216049015
 30
0.0
 11
2.096417782785109
 21
32.28610216049015
 31
0.0
  0
LINE
  5
EB
330
E0
100
AcDbEntity
  8
치수문자_일반주서
100
AcDbLine
 10
29.88115766425389
 20
6.001577696114738
 30
0.0
 11
29.88115766425389
 21
28.04947043550681
 31
0.0
  0
LINE
  5
EC
330
E0
100
AcDbEntity
  8
치수문자_일반주서
100
AcDbLine
 10
-38.38134233574612
 20
4.8688835897047
 30
0.0
 11
-38.38134233574612
 21
28.04947043550681
 31
0.0
  0
LINE
  5
ED
330
E0
100
AcDbEntity
  8
치수문자_일반주서
100
AcDbLine
 10
29.88115766425389
 20
27.04947043550681
 30
0.0
 11
-38.38134233574612
 21
27.0494704355068
 31
0.0
  0
MTEXT
  5
EE
330
E0
100
AcDbEntity
  8
치수문자_일반주서
100
AcDbMText
 10
-9.95701129040335
 20
31.61467970136853
 30
0.0
 40
3.5
 41
0.0
 71
     1
 72
     1
  1

  7
SLDTEXTSTYLE0
 73
     1
 44
1.0
  0
MTEXT
  5
EF
330
E0
100
AcDbEntity
  8
치수문자_일반주서
100
AcDbMText
 10
-7.843643178740747
 20
36.79783907506912
 30
0.0
 40
3.5
 41
0.0
 71
     1
 72
     1
  1
2.69
  7
SLDTEXTSTYLE0
 73
     1
 44
1.0
  0
MTEXT
  5
F0
330
E0
100
AcDbEntity
  8
치수문자_일반주서
100
AcDbMText
 10
-9.136698891917511
 20
31.56120752470866
 30
0.0
 40
3.5
 41
0.0
 71
     1
 72
     1
  1
68.26
  7
SLDTEXTSTYLE0
 73
     1
 44
1.0
  0
MTEXT
  5
F1
330
E0
100
AcDbEntity
  8
치수문자_일반주서
100
AcDbMText
 10
4.653058513490217
 20
31.61467970136842
 30
0.0
 40
3.5
 41
0.0
 71
     1
 72
     1
  1

  7
SLDTEXTSTYLE0
 73
     1
 44
1.0
  0
ENDBLK
  5
E2
330
E0
100
AcDbEntity
  8
0
100
AcDbBlockEnd
  0
BLOCK
  5
F5
330
F4
100
AcDbEntity
  8
0
100
AcDbBlockBegin
  2
_D_3
 70
     0
 10
0.0
 20
0.0
 30
0.0
  3
_D_3
  1
_D_3
  0
SOLID
  5
F7
330
F4
100
AcDbEntity
  8
치수문자_일반주서
100
AcDbTrace
 10
-51.38134233574612
 20
4.821383589704696
 30
0.0
 11
-50.87334233574612
 21
8.123383589704694
 31
0.0
 12
-51.88934233574612
 22
8.123383589704694
 32
0.0
 13
-51.88934233574612
 23
8.123383589704694
 33
0.0
  0
SOLID
  5
F8
330
F4
100
AcDbEntity
  8
치수문자_일반주서
100
AcDbTrace
 10
-51.38134233574612
 20
-4.70361641029531
 30
0.0
 11
-51.88934233574612
 21
-8.00561641029531
 31
0.0
 12
-50.87334233574612
 22
-8.00561641029531
 32
0.0
 13
-50.87334233574612
 23
-8.00561641029531
 33
0.0
  0
LINE
  5
F9
330
F4
100
AcDbEntity
  8
치수문자_일반주서
100
AcDbLine
 10
-62.17422405178885
 20
-5.35548284136401
 30
0.0
 11
-62.17422405178885
 21
-6.06642032692851
 31
0.0
  0
LINE
  5
FA
330
F4
100
AcDbEntity
  8
치수문자_일반주서
100
AcDbLine
 10
-62.17422405178885
 20
-6.06642032692851
 30
0.0
 11
-56.61797406072954
 21
-6.066420326928471
 31
0.0
  0
LINE
  5
FB
330
F4
100
AcDbEntity
  8
치수문자_일반주서
100
AcDbLine
 10
-56.61797406072954
 20
-6.066420326928471
 30
0.0
 11
-56.61797406072955
 21
-5.355482841363971
 31
0.0
  0
LINE
  5
FC
330
F4
100
AcDbEntity
  8
치수문자_일반주서
100
AcDbLine
 10
-62.17422405178892
 20
5.473250020773248
 30
0.0
 11
-62.17422405178893
 21
6.184187506337748
 31
0.0
  0
LINE
  5
FD
330
F4
100
AcDbEntity
  8
치수문자_일반주서
100
AcDbLine
 10
-62.17422405178893
 20
6.184187506337748
 30
0.0
 11
-56.61797406072962
 21
6.184187506337787
 31
0.0
  0
LINE
  5
FE
330
F4
100
AcDbEntity
  8
치수문자_일반주서
100
AcDbLine
 10
-56.61797406072962
 20
6.184187506337787
 30
0.0
 11
-56.61797406072962
 21
5.473250020773287
 31
0.0
  0
LINE
  5
FF
330
F4
100
AcDbEntity
  8
치수문자_일반주서
100
AcDbLine
 10
-38.42884233574613
 20
4.821383589704697
 30
0.0
 11
-52.38134233574613
 21
4.821383589704696
 31
0.0
  0
LINE
  5
100
330
F4
100
AcDbEntity
  8
치수문자_일반주서
100
AcDbLine
 10
-38.42884233574613
 20
-4.703616410295309
 30
0.0
 11
-52.38134233574613
 21
-4.70361641029531
 31
0.0
  0
LINE
  5
101
330
F4
100
AcDbEntity
  8
치수문자_일반주서
100
AcDbLine
 10
-51.38134233574612
 20
4.821383589704696
 30
0.0
 11
-51.38134233574612
 21
11.17138358970469
 31
0.0
  0
LINE
  5
102
330
F4
100
AcDbEntity
  8
치수문자_일반주서
100
AcDbLine
 10
-51.38134233574612
 20
4.821383589704696
 30
0.0
 11
-51.38134233574612
 21
-4.70361641029531
 31
0.0
  0
LINE
  5
103
330
F4
100
AcDbEntity
  8
치수문자_일반주서
100
AcDbLine
 10
-51.38134233574612
 20
-4.70361641029531
 30
0.0
 11
-51.38134233574612
 21
-11.05361641029531
 31
0.0
  0
MTEXT
  5
104
330
F4
100
AcDbEntity
  8
치수문자_일반주서
100
AcDbMText
 10
-61.12971097530844
 20
-4.466810940752632
 30
0.0
 40
3.5
 41
0.0
 71
     1
 72
     1
  1
0.38
  7
SLDTEXTSTYLE0
 11
-7.044195017643634E-15
 21
1.0
 31
0.0
 73
     1
 44
1.0
  0
MTEXT
  5
105
330
F4
100
AcDbEntity
  8
치수문자_일반주서
100
AcDbMText
 10
-55.89307942494795
 20
-7.106030105600923
 30
0.0
 40
3.5
 41
0.0
 71
     1
 72
     1
  1
%%c
  7
SLDTEXTSTYLE0
 11
-7.044195017643634E-15
 21
1.0
 31
0.0
 73
     1
 44
1.0
  0
MTEXT
  5
106
330
F4
100
AcDbEntity
  8
치수문자_일반주서
100
AcDbMText
 10
-55.89307942494798
 20
-1.827592707226842
 30
0.0
 40
3.5
 41
0.0
 71
     1
 72
     1
  1
9.53
  7
SLDTEXTSTYLE0
 11
-7.044195017643634E-15
 21
1.0
 31
0.0
 73
     1
 44
1.0
  0
ENDBLK
  5
F6
330
F4
100
AcDbEntity
  8
0
100
AcDbBlockEnd
  0
BLOCK
  5
10F
330
10E
100
AcDbEntity
  8
0
100
AcDbBlockBegin
  2
SW_DOWELSYMBOL_0
 70
     0
 10
0.0
 20
0.0
 30
0.0
  3
SW_DOWELSYMBOL_0
  1
SW_DOWELSYMBOL_0
  0
CIRCLE
  5
111
330
10E
100
AcDbEntity
  8
해칭선
 62
     0
100
AcDbCircle
 10
0.0
 20
0.0
 30
0.0
 40
2.999999999999999
  0
HATCH
  5
112
330
10E
100
AcDbEntity
  8
0
  6
Continuous
 62
     0
370
     0
100
AcDbHatch
 10
0.0
 20
0.0
 30
0.0
210
0.0
220
0.0
230
1.0
  2
SOLID
 70
     1
 71
     0
 91
        1
 92
        0
 93
        3
 72
     2
 10
0.0
 20
0.0
 40
2.999999999999999
 50
0.0
 51
90.0
 73
     1
 72
     1
 10
0.0
 20
2.999999999999999
 11
0.0
 21
0.0
 72
     1
 10
0.0
 20
0.0
 11
2.999999999999999
 21
0.0
 97
        0
 75
     0
 76
     1
 98
        1
 10
0.0
 20
0.0
  0
HATCH
  5
113
330
10E
100
AcDbEntity
  8
0
  6
Continuous
 62
     0
370
     0
100
AcDbHatch
 10
0.0
 20
0.0
 30
0.0
210
0.0
220
0.0
230
1.0
  2
SOLID
 70
     1
 71
     0
 91
        1
 92
        0
 93
        3
 72
     2
 10
0.0
 20
0.0
 40
2.999999999999999
 50
180.0
 51
270.0000000000007
 73
     1
 72
     1
 10
0.0
 20
-2.999999999999999
 11
0.0
 21
0.0
 72
     1
 10
0.0
 20
0.0
 11
-2.999999999999999
 21
0.0
 97
        0
 75
     0
 76
     1
 98
        1
 10
0.0
 20
0.0
  0
ENDBLK
  5
110
330
10E
100
AcDbEntity
  8
0
100
AcDbBlockEnd
  0
BLOCK
  5
16F
330
16E
100
AcDbEntity
  8
0
100
AcDbBlockBegin
  2
*D7
 70
     1
 10
0.0
 20
0.0
 30
0.0
  3
*D7
  1
*D8
  0
LINE
  5
170
330
16E
100
AcDbEntity
  8
치수문자_일반주서
 62
     0
370
    -2
100
AcDbLine
 10
101.0832728378272
 20
20.16024999682499
 30
0.0
 11
101.0832728378273
 21
43.80785144644639
 31
0.0
  0
LINE
  5
171
330
16E
100
AcDbEntity
  8
치수문자_일반주서
 62
     0
370
    -2
100
AcDbLine
 10
15.35827283782725
 20
18.49337499841249
 30
0.0
 11
15.35827283782726
 21
43.80785144644639
 31
0.0
  0
LINE
  5
172
330
16E
100
AcDbEntity
  8
치수문자_일반주서
 62
     0
370
    -2
100
AcDbLine
 10
97.78127283782726
 20
43.80785144644639
 30
0.0
 11
18.66027283782726
 21
43.80785144644639
 31
0.0
  0
SOLID
  5
173
330
16E
100
AcDbEntity
  8
치수문자_일반주서
 62
     0
100
AcDbTrace
 10
97.78127283782726
 20
43.25751811311306
 30
0.0
 11
97.78127283782726
 21
44.35818477977973
 31
0.0
 12
101.0832728378273
 22
43.80785144644639
 32
0.0
 13
101.0832728378273
 23
43.80785144644639
 33
0.0
  0
SOLID
  5
174
330
16E
100
AcDbEntity
  8
치수문자_일반주서
 62
     0
100
AcDbTrace
 10
18.66027283782726
 20
44.35818477977973
 30
0.0
 11
18.66027283782726
 21
43.25751811311306
 31
0.0
 12
15.35827283782726
 22
43.80785144644639
 32
0.0
 13
15.35827283782726
 23
43.80785144644639
 33
0.0
  0
MTEXT
  5
175
330
16E
100
AcDbEntity
  8
치수문자_일반주서
 62
     0
100
AcDbMText
 10
56.93411205491638
 20
48.18285144644639
 30
0.0
 40
3.5
 41
0.0
 71
     2
 72
     1
  1
\A1;85.73 [3 3/8]
  7
SLDTEXTSTYLE0
 73
     1
 44
1.0
  0
POINT
  5
176
330
16E
100
AcDbEntity
  8
Defpoints
 62
     0
100
AcDbPoint
 10
101.0832728378272
 20
20.09774999682499
 30
0.0
  0
POINT
  5
177
330
16E
100
AcDbEntity
  8
Defpoints
 62
     0
100
AcDbPoint
 10
15.35827283782725
 20
18.43087499841249
 30
0.0
  0
POINT
  5
178
330
16E
100
AcDbEntity
  8
Defpoints
 62
     0
100
AcDbPoint
 10
15.35827283782725
 20
43.80785144644639
 30
0.0
  0
ENDBLK
  5
179
330
16E
100
AcDbEntity
  8
0
100
AcDbBlockEnd
  0
BLOCK
  5
17C
330
17B
100
AcDbEntity
  8
0
100
AcDbBlockBegin
  2
*D8
 70
     1
 10
0.0
 20
0.0
 30
0.0
  3
*D8
  1
*D9
  0
LINE
  5
17D
330
17B
100
AcDbEntity
  8
치수문자_일반주서
 62
     0
370
    -2
100
AcDbLine
 10
16.56577283782723
 20
19.70087499841247
 30
0.0
 11
4.375000000000028
 21
19.70087499841243
 31
0.0
  0
LINE
  5
17E
330
17B
100
AcDbEntity
  8
치수문자_일반주서
 62
     0
370
    -2
100
AcDbLine
 10
16.56577283782723
 20
7.000874998412485
 30
0.0
 11
4.375000000000072
 21
7.000874998412439
 31
0.0
  0
LINE
  5
17F
330
17B
100
AcDbEntity
  8
치수문자_일반주서
 62
     0
370
    -2
100
AcDbLine
 10
4.375000000000039
 20
16.39887499841243
 30
0.0
 11
4.37500000000006
 21
10.30287499841244
 31
0.0
  0
SOLID
  5
180
330
17B
100
AcDbEntity
  8
치수문자_일반주서
 62
     0
100
AcDbTrace
 10
4.925333333333373
 20
16.39887499841243
 30
0.0
 11
3.824666666666706
 21
16.39887499841242
 31
0.0
 12
4.375000000000028
 22
19.70087499841243
 32
0.0
 13
4.375000000000028
 23
19.70087499841243
 33
0.0
  0
SOLID
  5
181
330
17B
100
AcDbEntity
  8
치수문자_일반주서
 62
     0
100
AcDbTrace
 10
3.824666666666727
 20
10.30287499841244
 30
0.0
 11
4.925333333333394
 21
10.30287499841244
 31
0.0
 12
4.375000000000072
 22
7.000874998412439
 32
0.0
 13
4.375000000000072
 23
7.000874998412439
 33
0.0
  0
MTEXT
  5
182
330
17B
100
AcDbEntity
  8
치수문자_일반주서
 62
     0
100
AcDbMText
 10
0.0000000000000497
 20
13.35087499841246
 30
0.0
 40
3.5
 41
0.0
 71
     2
 72
     1
  1
\A1;%%c12.70 [1/2]
  7
SLDTEXTSTYLE0
 11
-3.496765431890260E-15
 21
1.0
 31
0.0
 73
     1
 44
1.0
  0
POINT
  5
183
330
17B
100
AcDbEntity
  8
Defpoints
 62
     0
100
AcDbPoint
 10
16.62827283782723
 20
19.70087499841247
 30
0.0
  0
POINT
  5
184
330
17B
100
AcDbEntity
  8
Defpoints
 62
     0
100
AcDbPoint
 10
16.62827283782723
 20
7.000874998412485
 30
0.0
  0
POINT
  5
185
330
17B
100
AcDbEntity
  8
Defpoints
 62
     0
100
AcDbPoint
 10
4.375000000000071
 20
7.000874998412439
 30
0.0
  0
ENDBLK
  5
186
330
17B
100
AcDbEntity
  8
0
100
AcDbBlockEnd
  0
BLOCK
  5
19F
330
19E
100
AcDbEntity
  8
0
100
AcDbBlockBegin
  2
*D9
 70
     1
 10
0.0
 20
0.0
 30
0.0
  3
*D9
  1
*D10
  0
LINE
  5
1A0
330
19E
100
AcDbEntity
  8
치수문자_일반주서
 62
     0
370
    -2
100
AcDbLine
 10
101.1457728378272
 20
20.09774999682499
 30
0.0
 11
122.8425766826562
 21
20.09774999682499
 31
0.0
  0
LINE
  5
1A1
330
19E
100
AcDbEntity
  8
치수문자_일반주서
 62
     0
370
    -2
100
AcDbLine
 10
101.1457728378273
 20
6.603999999999999
 30
0.0
 11
122.8425766826562
 21
6.603999999999999
 31
0.0
  0
LINE
  5
1A2
330
19E
100
AcDbEntity
  8
치수문자_일반주서
 62
     0
370
    -2
100
AcDbLine
 10
122.8425766826562
 20
20.09774999682499
 30
0.0
 11
122.8425766826562
 21
58.66376784839348
 31
0.0
  0
LINE
  5
1A3
330
19E
100
AcDbEntity
  8
치수문자_일반주서
 62
     0
370
    -2
100
AcDbLine
 10
122.8425766826562
 20
20.09774999682499
 30
0.0
 11
122.8425766826562
 21
6.603999999999999
 31
0.0
  0
LINE
  5
1A4
330
19E
100
AcDbEntity
  8
치수문자_일반주서
 62
     0
370
    -2
100
AcDbLine
 10
122.8425766826562
 20
23.39974999682499
 30
0.0
 11
122.8425766826562
 21
26.70174999682499
 31
0.0
  0
LINE
  5
1A5
330
19E
100
AcDbEntity
  8
치수문자_일반주서
 62
     0
370
    -2
100
AcDbLine
 10
122.8425766826562
 20
3.302
 30
0.0
 11
122.8425766826562
 21
0.0
 31
0.0
  0
SOLID
  5
1A6
330
19E
100
AcDbEntity
  8
치수문자_일반주서
 62
     0
100
AcDbTrace
 10
122.2922433493228
 20
23.39974999682499
 30
0.0
 11
123.3929100159895
 21
23.39974999682499
 31
0.0
 12
122.8425766826562
 22
20.09774999682499
 32
0.0
 13
122.8425766826562
 23
20.09774999682499
 33
0.0
  0
SOLID
  5
1A7
330
19E
100
AcDbEntity
  8
치수문자_일반주서
 62
     0
100
AcDbTrace
 10
123.3929100159895
 20
3.302
 30
0.0
 11
122.2922433493228
 21
3.302
 31
0.0
 12
122.8425766826562
 22
6.603999999999999
 32
0.0
 13
122.8425766826562
 23
6.603999999999999
 33
0.0
  0
MTEXT
  5
1A8
330
19E
100
AcDbEntity
  8
치수문자_일반주서
 62
     0
100
AcDbMText
 10
120.2175766826562
 20
43.78876784839349
 30
0.0
 40
3.5
 41
0.0
 71
     5
 72
     1
  1
\A1;13.49 [17/32]
  7
SLDTEXTSTYLE0
 11
0.0
 21
1.0
 31
0.0
 73
     1
 44
1.0
  0
POINT
  5
1A9
330
19E
100
AcDbEntity
  8
Defpoints
 62
     0
100
AcDbPoint
 10
101.0832728378272
 20
20.09774999682499
 30
0.0
  0
POINT
  5
1AA
330
19E
100
AcDbEntity
  8
Defpoints
 62
     0
100
AcDbPoint
 10
101.0832728378273
 20
6.603999999999999
 30
0.0
  0
POINT
  5
1AB
330
19E
100
AcDbEntity
  8
Defpoints
 62
     0
100
AcDbPoint
 10
122.8425766826562
 20
6.603999999999997
 30
0.0
  0
ENDBLK
  5
1AC
330
19E
100
AcDbEntity
  8
0
100
AcDbBlockEnd
  0
BLOCK
  5
1B7
330
1B6
100
AcDbEntity
  8
0
100
AcDbBlockBegin
  2
*D10
 70
     1
 10
0.0
 20
0.0
 30
0.0
  3
*D10
  1
*D11
  0
LINE
  5
1B8
330
1B6
100
AcDbEntity
  8
치수문자_일반주서
 62
     0
370
    -2
100
AcDbLine
 10
66.15827283782723
 20
20.16024999730691
 30
0.0
 11
66.15827283782723
 21
31.86114976714703
 31
0.0
  0
LINE
  5
1B9
330
1B6
100
AcDbEntity
  8
치수문자_일반주서
 62
     0
370
    -2
100
AcDbLine
 10
101.0832728378272
 20
20.16024999682499
 30
0.0
 11
101.0832728378272
 21
31.86114976714703
 31
0.0
  0
LINE
  5
1BA
330
1B6
100
AcDbEntity
  8
치수문자_일반주서
 62
     0
370
    -2
100
AcDbLine
 10
69.46027283782723
 20
31.86114976714703
 30
0.0
 11
97.78127283782723
 21
31.86114976714703
 31
0.0
  0
SOLID
  5
1BB
330
1B6
100
AcDbEntity
  8
치수문자_일반주서
 62
     0
100
AcDbTrace
 10
69.46027283782723
 20
32.41148310048036
 30
0.0
 11
69.46027283782723
 21
31.31081643381369
 31
0.0
 12
66.15827283782723
 22
31.86114976714703
 32
0.0
 13
66.15827283782723
 23
31.86114976714703
 33
0.0
  0
SOLID
  5
1BC
330
1B6
100
AcDbEntity
  8
치수문자_일반주서
 62
     0
100
AcDbTrace
 10
97.78127283782723
 20
31.31081643381369
 30
0.0
 11
97.78127283782723
 21
32.41148310048036
 31
0.0
 12
101.0832728378272
 22
31.86114976714703
 32
0.0
 13
101.0832728378272
 23
31.86114976714703
 33
0.0
  0
MTEXT
  5
1BD
330
1B6
100
AcDbEntity
  8
치수문자_일반주서
 62
     0
100
AcDbMText
 10
83.62077283782723
 20
34.48614976714703
 30
0.0
 40
3.5
 41
0.0
 71
     5
 72
     1
  1
\A1;34.93 [1 3/8]
  7
SLDTEXTSTYLE0
 73
     1
 44
1.0
  0
POINT
  5
1BE
330
1B6
100
AcDbEntity
  8
Defpoints
 62
     0
100
AcDbPoint
 10
66.15827283782723
 20
20.09774999730691
 30
0.0
  0
POINT
  5
1BF
330
1B6
100
AcDbEntity
  8
Defpoints
 62
     0
100
AcDbPoint
 10
101.0832728378272
 20
20.09774999682499
 30
0.0
  0
POINT
  5
1C0
330
1B6
100
AcDbEntity
  8
Defpoints
 62
     0
100
AcDbPoint
 10
101.0832728378272
 20
31.86114976714703
 30
0.0
  0
ENDBLK
  5
1C1
330
1B6
100
AcDbEntity
  8
0
100
AcDbBlockEnd
  0
BLOCK
  5
1F0
330
1EF
100
AcDbEntity
  8
0
100
AcDbBlockBegin
  2
*D11
 70
     1
 10
0.0
 20
0.0
 30
0.0
  3
*D11
  1
*D12
  0
LINE
  5
1F2
330
1EF
100
AcDbEntity
  8
치수문자_일반주서
 62
     0
370
    -2
100
AcDbLine
 10
36.92500000000001
 20
7.205315686786641
 30
0.0
 11
36.92500000000002
 21
30.45604213927955
 31
0.0
  0
LINE
  5
1F3
330
1EF
100
AcDbEntity
  8
치수문자_일반주서
 62
     0
370
    -2
100
AcDbLine
 10
-48.79999999999995
 20
5.141565691245653
 30
0.0
 11
-48.79999999999994
 21
30.45604213927955
 31
0.0
  0
LINE
  5
1F4
330
1EF
100
AcDbEntity
  8
치수문자_일반주서
 62
     0
370
    -2
100
AcDbLine
 10
33.62300000000002
 20
30.45604213927955
 30
0.0
 11
-45.49799999999994
 21
30.45604213927955
 31
0.0
  0
SOLID
  5
1F5
330
1EF
100
AcDbEntity
  8
치수문자_일반주서
 62
     0
100
AcDbTrace
 10
33.62300000000002
 20
29.90570880594622
 30
0.0
 11
33.62300000000002
 21
31.00637547261288
 31
0.0
 12
36.92500000000002
 22
30.45604213927955
 32
0.0
 13
36.92500000000002
 23
30.45604213927955
 33
0.0
  0
SOLID
  5
1F6
330
1EF
100
AcDbEntity
  8
치수문자_일반주서
 62
     0
100
AcDbTrace
 10
-45.49799999999994
 20
31.00637547261288
 30
0.0
 11
-45.49799999999994
 21
29.90570880594622
 31
0.0
 12
-48.79999999999994
 22
30.45604213927955
 32
0.0
 13
-48.79999999999994
 23
30.45604213927955
 33
0.0
  0
MTEXT
  5
1F7
330
1EF
100
AcDbEntity
  8
치수문자_일반주서
 62
     0
100
AcDbMText
 10
-7.224160782910815
 20
34.83104213927955
 30
0.0
 40
3.5
 41
0.0
 71
     2
 72
     1
  1
\A1;85.73 [3 3/8]
  7
SLDTEXTSTYLE0
 73
     1
 44
1.0
  0
POINT
  5
1F8
330
1EF
100
AcDbEntity
  8
Defpoints
 62
     0
100
AcDbPoint
 10
36.92500000000001
 20
7.142815686786641
 30
0.0
  0
POINT
  5
1F9
330
1EF
100
AcDbEntity
  8
Defpoints
 62
     0
100
AcDbPoint
 10
-48.79999999999995
 20
5.079065691245653
 30
0.0
  0
POINT
  5
1FA
330
1EF
100
AcDbEntity
  8
Defpoints
 62
     0
100
AcDbPoint
 10
-48.79999999999995
 20
30.45604213927955
 30
0.0
  0
ENDBLK
  5
1F1
330
1EF
100
AcDbEntity
  8
0
100
AcDbBlockEnd
  0
BLOCK
  5
1FC
330
1FB
100
AcDbEntity
  8
0
100
AcDbBlockBegin
  2
*D12
 70
     1
 10
0.0
 20
0.0
 30
0.0
  3
*D12
  1
*D13
  0
LINE
  5
1FE
330
1FB
100
AcDbEntity
  8
치수문자_일반주서
 62
     0
370
    -2
100
AcDbLine
 10
-47.59249999999997
 20
6.349065691245634
 30
0.0
 11
-59.78327283782718
 21
6.349065691245588
 31
0.0
  0
LINE
  5
1FF
330
1FB
100
AcDbEntity
  8
치수문자_일반주서
 62
     0
370
    -2
100
AcDbLine
 10
-47.59249999999997
 20
-6.350934308754354
 30
0.0
 11
-59.78327283782713
 21
-6.3509343087544
 31
0.0
  0
LINE
  5
200
330
1FB
100
AcDbEntity
  8
치수문자_일반주서
 62
     0
370
    -2
100
AcDbLine
 10
-59.78327283782716
 20
3.047065691245589
 30
0.0
 11
-59.78327283782715
 21
-3.048934308754401
 31
0.0
  0
SOLID
  5
201
330
1FB
100
AcDbEntity
  8
치수문자_일반주서
 62
     0
100
AcDbTrace
 10
-59.23293950449383
 20
3.04706569124559
 30
0.0
 11
-60.3336061711605
 21
3.047065691245587
 31
0.0
 12
-59.78327283782718
 22
6.349065691245588
 32
0.0
 13
-59.78327283782718
 23
6.349065691245588
 33
0.0
  0
SOLID
  5
202
330
1FB
100
AcDbEntity
  8
치수문자_일반주서
 62
     0
100
AcDbTrace
 10
-60.33360617116048
 20
-3.048934308754403
 30
0.0
 11
-59.23293950449381
 21
-3.048934308754399
 31
0.0
 12
-59.78327283782713
 22
-6.3509343087544
 32
0.0
 13
-59.78327283782713
 23
-6.3509343087544
 33
0.0
  0
MTEXT
  5
203
330
1FB
100
AcDbEntity
  8
치수문자_일반주서
 62
     0
100
AcDbMText
 10
-64.15827283782716
 20
-0.0009343087543744
 30
0.0
 40
3.5
 41
0.0
 71
     2
 72
     1
  1
\A1;%%c12.70 [1/2]
  7
SLDTEXTSTYLE0
 11
-3.356894814614650E-15
 21
1.0
 31
0.0
 73
     1
 44
1.0
  0
POINT
  5
204
330
1FB
100
AcDbEntity
  8
Defpoints
 62
     0
100
AcDbPoint
 10
-47.52999999999997
 20
6.349065691245634
 30
0.0
  0
POINT
  5
205
330
1FB
100
AcDbEntity
  8
Defpoints
 62
     0
100
AcDbPoint
 10
-47.52999999999997
 20
-6.350934308754354
 30
0.0
  0
POINT
  5
206
330
1FB
100
AcDbEntity
  8
Defpoints
 62
     0
100
AcDbPoint
 10
-59.78327283782713
 20
-6.3509343087544
 30
0.0
  0
ENDBLK
  5
1FD
330
1FB
100
AcDbEntity
  8
0
100
AcDbBlockEnd
  0
BLOCK
  5
208
330
207
100
AcDbEntity
  8
0
100
AcDbBlockBegin
  2
*D13
 70
     1
 10
0.0
 20
0.0
 30
0.0
  3
*D13
  1
*D14
  0
LINE
  5
20A
330
207
100
AcDbEntity
  8
치수문자_일반주서
 62
     0
370
    -2
100
AcDbLine
 10
36.98750000000001
 20
7.142815686786641
 30
0.0
 11
59.96426288556506
 21
7.142815686786641
 31
0.0
  0
LINE
  5
20B
330
207
100
AcDbEntity
  8
치수문자_일반주서
 62
     0
370
    -2
100
AcDbLine
 10
36.98750000000007
 20
-7.144684304295334
 30
0.0
 11
59.96426288556506
 21
-7.144684304295332
 31
0.0
  0
LINE
  5
20C
330
207
100
AcDbEntity
  8
치수문자_일반주서
 62
     0
370
    -2
100
AcDbLine
 10
59.96426288556506
 20
7.142815686786641
 30
0.0
 11
59.96426288556506
 21
45.78992281398641
 31
0.0
  0
LINE
  5
20D
330
207
100
AcDbEntity
  8
치수문자_일반주서
 62
     0
370
    -2
100
AcDbLine
 10
59.96426288556506
 20
7.142815686786641
 30
0.0
 11
59.96426288556506
 21
-7.144684304295332
 31
0.0
  0
LINE
  5
20E
330
207
100
AcDbEntity
  8
치수문자_일반주서
 62
     0
370
    -2
100
AcDbLine
 10
59.96426288556506
 20
10.44481568678664
 30
0.0
 11
59.96426288556506
 21
13.74681568678664
 31
0.0
  0
LINE
  5
20F
330
207
100
AcDbEntity
  8
치수문자_일반주서
 62
     0
370
    -2
100
AcDbLine
 10
59.96426288556506
 20
-10.44668430429533
 30
0.0
 11
59.96426288556506
 21
-13.74868430429533
 31
0.0
  0
SOLID
  5
210
330
207
100
AcDbEntity
  8
치수문자_일반주서
 62
     0
100
AcDbTrace
 10
59.41392955223173
 20
10.44481568678664
 30
0.0
 11
60.5145962188984
 21
10.44481568678664
 31
0.0
 12
59.96426288556506
 22
7.142815686786641
 32
0.0
 13
59.96426288556506
 23
7.142815686786641
 33
0.0
  0
SOLID
  5
211
330
207
100
AcDbEntity
  8
치수문자_일반주서
 62
     0
100
AcDbTrace
 10
60.5145962188984
 20
-10.44668430429533
 30
0.0
 11
59.41392955223173
 21
-10.44668430429533
 31
0.0
 12
59.96426288556506
 22
-7.144684304295332
 32
0.0
 13
59.96426288556506
 23
-7.144684304295332
 33
0.0
  0
MTEXT
  5
212
330
207
100
AcDbEntity
  8
치수문자_일반주서
 62
     0
100
AcDbMText
 10
57.33926288556506
 20
32.22742281398641
 30
0.0
 40
3.5
 41
0.0
 71
     5
 72
     1
  1
\A1;14.29 [9/16]
  7
SLDTEXTSTYLE0
 11
0.0
 21
1.0
 31
0.0
 73
     1
 44
1.0
  0
POINT
  5
213
330
207
100
AcDbEntity
  8
Defpoints
 62
     0
100
AcDbPoint
 10
36.92500000000001
 20
7.142815686786641
 30
0.0
  0
POINT
  5
214
330
207
100
AcDbEntity
  8
Defpoints
 62
     0
100
AcDbPoint
 10
36.92500000000007
 20
-7.144684304295334
 30
0.0
  0
POINT
  5
215
330
207
100
AcDbEntity
  8
Defpoints
 62
     0
100
AcDbPoint
 10
59.96426288556506
 20
-7.144684304295335
 30
0.0
  0
ENDBLK
  5
209
330
207
100
AcDbEntity
  8
0
100
AcDbBlockEnd
  0
BLOCK
  5
217
330
216
100
AcDbEntity
  8
0
100
AcDbBlockBegin
  2
*D14
 70
     1
 10
0.0
 20
0.0
 30
0.0
  3
*D14
  1
*D15
  0
LINE
  5
219
330
216
100
AcDbEntity
  8
치수문자_일반주서
 62
     0
370
    -2
100
AcDbLine
 10
2.0
 20
7.170068503234361
 30
0.0
 11
2.0
 21
18.90621545662676
 31
0.0
  0
LINE
  5
21A
330
216
100
AcDbEntity
  8
치수문자_일반주서
 62
     0
370
    -2
100
AcDbLine
 10
36.92500000000001
 20
7.205315686786641
 30
0.0
 11
36.92500000000001
 21
18.90621545662676
 31
0.0
  0
LINE
  5
21B
330
216
100
AcDbEntity
  8
치수문자_일반주서
 62
     0
370
    -2
100
AcDbLine
 10
5.302
 20
18.90621545662676
 30
0.0
 11
33.62300000000001
 21
18.90621545662676
 31
0.0
  0
SOLID
  5
21C
330
216
100
AcDbEntity
  8
치수문자_일반주서
 62
     0
100
AcDbTrace
 10
5.302
 20
19.4565487899601
 30
0.0
 11
5.302
 21
18.35588212329343
 31
0.0
 12
2.0
 22
18.90621545662676
 32
0.0
 13
2.0
 23
18.90621545662676
 33
0.0
  0
SOLID
  5
21D
330
216
100
AcDbEntity
  8
치수문자_일반주서
 62
     0
100
AcDbTrace
 10
33.62300000000001
 20
18.35588212329343
 30
0.0
 11
33.62300000000001
 21
19.4565487899601
 31
0.0
 12
36.92500000000001
 22
18.90621545662676
 32
0.0
 13
36.92500000000001
 23
18.90621545662676
 33
0.0
  0
MTEXT
  5
21E
330
216
100
AcDbEntity
  8
치수문자_일반주서
 62
     0
100
AcDbMText
 10
19.46250000000001
 20
21.53121545662676
 30
0.0
 40
3.5
 41
0.0
 71
     5
 72
     1
  1
\A1;34.93 [1 3/8]
  7
SLDTEXTSTYLE0
 73
     1
 44
1.0
  0
POINT
  5
21F
330
216
100
AcDbEntity
  8
Defpoints
 62
     0
100
AcDbPoint
 10
2.0
 20
7.107568503234361
 30
0.0
  0
POINT
  5
220
330
216
100
AcDbEntity
  8
Defpoints
 62
     0
100
AcDbPoint
 10
36.92500000000001
 20
7.142815686786641
 30
0.0
  0
POINT
  5
221
330
216
100
AcDbEntity
  8
Defpoints
 62
     0
100
AcDbPoint
 10
36.92500000000001
 20
18.90621545662676
 30
0.0
  0
ENDBLK
  5
218
330
216
100
AcDbEntity
  8
0
100
AcDbBlockEnd
  0
ENDSEC
  0
SECTION
  2
ENTITIES
  0
LINE
  5
AB
330
1F
100
AcDbEntity
  8
참조1
100
AcDbLine
 10
0.5124076642538944
 20
0.0010749287238892
 30
0.0
 11
0.5124076642538996
 21
-39.99892507127611
 31
0.0
  0
LINE
  5
AC
330
1F
100
AcDbEntity
  8
참조1
100
AcDbLine
 10
0.5124076642538996
 20
-39.99892507127611
 30
0.0
 11
-19.40894915005478
 21
-39.9989250712761
 31
0.0
  0
INSERT
  5
AE
330
1F
100
AcDbEntity
  8
0
  6
Continuous
 62
     7
100
AcDbBlockReference
 66
     1
  2
블럭10
 10
-13.42786526787131
 20
-52.04609937292004
 30
0.0
  0
ATTRIB
  5
AF
330
AE
100
AcDbEntity
  8
FORMAT
 62
     2
100
AcDbText
 10
-22.60916055661259
 20
-49.97073246008785
 30
0.0
 40
4.233333333333333
  1
E1031036 [ 4 FLUTE ]
 41
0.75
  7
SLDTEXTSTYLE0
 11
-22.60916055661259
 21
-52.08739912675452
 31
0.0
100
AcDbAttribute
  2
AUTOATTR0
 70
     0
 74
     1
  0
SEQEND
  5
B0
330
AE
100
AcDbEntity
  8
0
  6
Continuous
 62
     7
  0
HATCH
  5
B1
330
1F
100
AcDbEntity
  8
중심선
100
AcDbHatch
 10
0.0
 20
0.0
 30
0.0
210
0.0
220
0.0
230
1.0
  2
SOLID
 70
     1
 71
     0
 91
        1
 92
        0
 93
        4
 72
     1
 10
-7.712955963490476
 20
-35.7989250712761
 11
-11.15923120732776
 21
-35.7989250712761
 72
     1
 10
-11.15923120732776
 20
-35.7989250712761
 11
-13.28746106653178
 21
-38.3352506518487
 72
     1
 10
-13.28746106653178
 20
-38.3352506518487
 11
-9.84115273758135
 21
-38.33521122254621
 72
     1
 10
-9.84115273758135
 20
-38.33521122254621
 11
-7.712955963490476
 21
-35.7989250712761
 97
        0
 75
     0
 76
     1
 98
        1
 10
0.0
 20
0.0
  0
HATCH
  5
B2
330
1F
100
AcDbEntity
  8
중심선
100
AcDbHatch
 10
0.0
 20
0.0
 30
0.0
210
0.0
220
0.0
230
1.0
  2
SOLID
 70
     1
 71
     0
 91
        1
 92
        0
 93
        4
 72
     1
 10
-2.700191972454497
 20
-35.7989250712761
 11
-6.146467216291779
 21
-35.7989250712761
 72
     1
 10
-6.146467216291779
 20
-35.7989250712761
 11
-10.6776052246492
 21
-41.19892507127612
 72
     1
 10
-10.6776052246492
 20
-41.19892507127612
 11
-7.231329980811912
 21
-41.19892507127612
 72
     1
 10
-7.231329980811912
 20
-41.19892507127612
 11
-2.700191972454498
 21
-35.7989250712761
 97
        0
 75
     0
 76
     1
 98
        1
 10
0.0
 20
0.0
  0
HATCH
  5
B3
330
1F
100
AcDbEntity
  8
중심선
100
AcDbHatch
 10
0.0
 20
0.0
 30
0.0
210
0.0
220
0.0
230
1.0
  2
SOLID
 70
     1
 71
     0
 91
        1
 92
        0
 93
        4
 72
     1
 10
2.312572018581399
 20
-35.7989250712761
 11
-1.133703225255717
 21
-35.7989250712761
 72
     1
 10
-1.133703225255717
 20
-35.7989250712761
 11
-8.182140127144994
 21
-44.19892507127612
 72
     1
 10
-8.182140127144994
 20
-44.19892507127612
 11
-4.735864883307711
 21
-44.19892507127612
 72
     1
 10
-4.735864883307711
 20
-44.19892507127612
 11
2.312572018581399
 21
-35.7989250712761
 97
        0
 75
     0
 76
     1
 98
        1
 10
0.0
 20
0.0
  0
HATCH
  5
B4
330
1F
100
AcDbEntity
  8
중심선
100
AcDbHatch
 10
0.0
 20
0.0
 30
0.0
210
0.0
220
0.0
230
1.0
  2
SOLID
 70
     1
 71
     0
 91
        1
 92
        0
 93
        6
 72
     3
 10
7.11246244959357
 20
-39.99892507132738
 11
3.960054785062284
 21
1.540850780301639E-10
 40
0.3939339440162633
 50
17.09539180608433
 51
320.0019657685073
 73
     0
 72
     1
 10
8.795462105294167
 20
-38.58681907591438
 11
11.10076397899523
 21
-36.65249236586649
 72
     3
 10
7.112462449540724
 20
-39.99892507127625
 11
6.600054785286829
 21
-1.249000902703301E-13
 40
0.6363583540795982
 50
39.99873849337386
 51
368.4976242363724
 73
     1
 72
     1
 10
13.53779494144133
 20
-39.03892507120613
 11
5.792529756376647
 21
-39.03892507120613
 72
     1
 10
5.792529756376647
 20
-39.03892507120613
 11
5.792504711930713
 21
-40.95892507120602
 72
     1
 10
5.792504711930713
 20
-40.95892507120602
 11
10.23388448140275
 21
-40.95892507120599
 97
        0
 75
     0
 76
     1
 98
        1
 10
0.0
 20
0.0
  0
LINE
  5
107
330
1F
100
AcDbEntity
  8
참조1
100
AcDbLine
 10
78.56339147959949
 20
7.441074928723896
 30
0.0
 11
78.56339147959949
 21
-7.438925071276109
 31
0.0
  0
LINE
  5
108
330
1F
100
AcDbEntity
  8
참조1
100
AcDbLine
 10
91.26339147959949
 20
5.441074928723896
 30
0.0
 11
78.56339147959949
 21
5.441074928723896
 31
0.0
  0
SOLID
  5
109
330
1F
100
AcDbEntity
  8
참조1
100
AcDbTrace
 10
78.56339147959949
 20
5.441074928723896
 30
0.0
 11
84.91339147959948
 21
4.425074928723896
 31
0.0
 12
84.91339147959948
 22
6.457074928723896
 32
0.0
 13
84.91339147959948
 23
6.457074928723896
 33
0.0
  0
LINE
  5
10A
330
1F
100
AcDbEntity
  8
참조1
100
AcDbLine
 10
91.26339147959949
 20
-5.438925071276109
 30
0.0
 11
78.56339147959949
 21
-5.438925071276109
 31
0.0
  0
SOLID
  5
10B
330
1F
100
AcDbEntity
  8
참조1
100
AcDbTrace
 10
78.56339147959949
 20
-5.438925071276109
 30
0.0
 11
84.91339147959948
 21
-6.454925071276109
 31
0.0
 12
84.91339147959948
 22
-4.422925071276109
 32
0.0
 13
84.91339147959948
 23
-4.422925071276109
 33
0.0
  0
MTEXT
  5
10C
330
1F
100
AcDbEntity
  8
참조1
100
AcDbMText
 10
87.94774161222547
 20
11.01136670591222
 30
0.0
 40
3.5
 41
0.0
 71
     1
 72
     1
  1
A
  7
SLDTEXTSTYLE0
 73
     1
 44
1.0
  0
MTEXT
  5
10D
330
1F
100
AcDbEntity
  8
참조1
100
AcDbMText
 10
87.94774161222547
 20
0.1313667059122192
 30
0.0
 40
3.5
 41
0.0
 71
     1
 72
     1
  1
A
  7
SLDTEXTSTYLE0
 73
     1
 44
1.0
  0
LINE
  5
1C8
330
1F
100
AcDbEntity
  8
외형선
  6
Continuous
370
    15
100
AcDbLine
 10
-47.52999999999997
 20
-6.350934308754354
 30
0.0
 11
2.0
 21
-6.350934308754354
 31
0.0
  0
LINE
  5
1C9
330
1F
100
AcDbEntity
  8
외형선
  6
Continuous
370
    15
100
AcDbLine
 10
2.0
 20
6.349065691245649
 30
0.0
 11
-19.06612499999999
 21
6.349065691245649
 31
0.0
  0
LINE
  5
1CA
330
1F
100
AcDbEntity
  8
외형선
  6
Continuous
370
    15
100
AcDbLine
 10
-47.52999999999997
 20
6.349065691245649
 30
0.0
 11
-48.79999999999995
 21
5.079065691245653
 31
0.0
  0
LINE
  5
1CB
330
1F
100
AcDbEntity
  8
외형선
  6
Continuous
370
    15
100
AcDbLine
 10
-48.79999999999995
 20
-5.080934308754358
 30
0.0
 11
-47.52999999999997
 21
-6.350934308754354
 31
0.0
  0
LINE
  5
1CC
330
1F
100
AcDbEntity
  8
외형선
  6
Continuous
370
    15
100
AcDbLine
 10
-47.52999999999997
 20
-0.0009343087543598
 30
0.0
 11
-47.52999999999997
 21
6.349065691245649
 31
0.0
  0
LINE
  5
1CD
330
1F
100
AcDbEntity
  8
외형선
  6
Continuous
370
    15
100
AcDbLine
 10
-47.52999999999997
 20
-6.350934308754354
 30
0.0
 11
-47.52999999999997
 21
-0.0009343087543598
 31
0.0
  0
LINE
  5
1CE
330
1F
100
AcDbEntity
  8
외형선
  6
Continuous
370
    15
100
AcDbLine
 10
-48.79999999999995
 20
-0.0009343087543598
 30
0.0
 11
-48.79999999999995
 21
5.079065691245653
 31
0.0
  0
LINE
  5
1CF
330
1F
100
AcDbEntity
  8
외형선
  6
Continuous
370
    15
100
AcDbLine
 10
-48.79999999999995
 20
-5.080934308754358
 30
0.0
 11
-48.79999999999995
 21
-0.0009343087543598
 31
0.0
  0
LINE
  5
1D0
330
1F
100
AcDbEntity
  8
중심선
 48
0.8
100
AcDbLine
 10
-51.79999999999995
 20
-0.0009343087543474
 30
0.0
 11
39.92500000000007
 21
-0.0009343087543323
 31
0.0
  0
CIRCLE
  5
1D1
330
1F
100
AcDbEntity
  8
해칭선
100
AcDbCircle
 10
0.0
 20
0.0
 30
0.0
 40
3.000000000000003
  0
DIMENSION
  5
1D2
330
1F
100
AcDbEntity
  8
치수문자_일반주서
100
AcDbDimension
  2
*D11
 10
-48.79999999999994
 20
30.45604213927955
 30
0.0
 11
-7.224160782910815
 21
30.45604213927955
 31
0.0
 70
   160
  1
<>
 71
     2
 42
85.72499999999997
  3
SLDDIMSTYLE1
100
AcDbAlignedDimension
 13
36.92500000000001
 23
7.142815686786641
 33
0.0
 14
-48.79999999999995
 24
5.079065691245653
 34
0.0
 50
0.0000000000000049
100
AcDbRotatedDimension
1001
ACAD
1000
DSTYLE
1002
{
1070
   171
1070
     6
1070
   273
1070
     7
1002
}
  0
DIMENSION
  5
1D3
330
1F
100
AcDbEntity
  8
치수문자_일반주서
100
AcDbDimension
  2
*D12
 10
-59.78327283782713
 20
-6.3509343087544
 30
0.0
 11
-59.78327283782716
 21
-0.0009343087543598
 31
0.0
 70
   160
  1
%%c<>
 71
     2
 42
12.69999999999999
 52
-270.0
  3
SLDDIMSTYLE1
100
AcDbAlignedDimension
 13
-47.52999999999997
 23
6.349065691245634
 33
0.0
 14
-47.52999999999997
 24
-6.350934308754354
 34
0.0
 50
90.0000000000002
100
AcDbRotatedDimension
1001
ACAD
1000
DSTYLE
1002
{
1070
   171
1070
     6
1070
   273
1070
     7
1002
}
  0
INSERT
  5
1D4
330
1F
100
AcDbEntity
  8
해칭선
100
AcDbBlockReference
  2
SW_DOWELSYMBOL_0
 10
0.0
 20
0.0
 30
0.0
  0
LINE
  5
1D5
330
1F
100
AcDbEntity
  8
외형선
  6
Continuous
370
    15
100
AcDbLine
 10
-31.76612499999997
 20
4.825065691245634
 30
0.0
 11
-20.5901250000001
 21
4.825065691245634
 31
0.0
  0
LINE
  5
1D6
330
1F
100
AcDbEntity
  8
외형선
  6
Continuous
370
    15
100
AcDbLine
 10
-31.76612499999997
 20
4.825065691245634
 30
0.0
 11
-33.29012499999995
 21
6.349065691245634
 31
0.0
  0
LINE
  5
1D7
330
1F
100
AcDbEntity
  8
외형선
  6
Continuous
370
    15
100
AcDbLine
 10
-20.59012499999999
 20
4.825065691245634
 30
0.0
 11
-19.06612499999999
 21
6.349065691245634
 31
0.0
  0
LINE
  5
1D8
330
1F
100
AcDbEntity
  8
외형선
  6
Continuous
370
    15
100
AcDbLine
 10
-33.29012499999995
 20
6.349065691245649
 30
0.0
 11
-47.52999999999997
 21
6.349065691245649
 31
0.0
  0
LINE
  5
1D9
330
1F
100
AcDbEntity
  8
0
  6
Continuous
 62
     1
370
    15
100
AcDbLine
 10
14.7458863414785
 20
1.408755319278842
 30
0.0
 11
14.71677816863459
 21
1.423880834069108
 31
0.0
  0
LINE
  5
1DA
330
1F
100
AcDbEntity
  8
0
  6
Continuous
 62
     1
370
    15
100
AcDbLine
 10
17.39143474511135
 20
-7.144684304805601
 30
0.0
 11
21.57269664372538
 21
-7.144684304805601
 31
0.0
  0
LINE
  5
1DB
330
1F
100
AcDbEntity
  8
0
  6
Continuous
 62
     1
370
    15
100
AcDbLine
 10
21.57269664372538
 20
7.142815687296907
 30
0.0
 11
17.39143474511147
 21
7.142815687296907
 31
0.0
  0
LINE
  5
1DC
330
1F
100
AcDbEntity
  8
0
  6
Continuous
 62
     1
370
    15
100
AcDbLine
 10
36.92500000000007
 20
-6.527647374870853
 30
0.0
 11
36.92500000000007
 21
0.747191535281643
 31
0.0
  0
SPLINE
  5
1DD
330
1F
100
AcDbEntity
  8
0
  6
Continuous
 62
     1
370
    15
100
AcDbSpline
210
0.0
220
0.0
230
1.0
 70
     8
 71
     3
 72
    30
 73
    26
 74
     0
 42
0.000000001
 43
0.00000001
 40
0.0374146061561758
 40
0.0374146061561758
 40
0.0374146061561758
 40
0.0374146061561758
 40
0.0429433191521586
 40
0.0847958460532689
 40
0.1265380801789035
 40
0.1683849090176851
 40
0.2109878325875331
 40
0.2536733231354598
 40
0.2962928243333132
 40
0.338958863497881
 40
0.3815980659595927
 40
0.424241812333196
 40
0.4669033313433048
 40
0.5095267196823714
 40
0.5522083945134034
 40
0.5948145473909695
 40
0.6375130286633062
 40
0.6801050733654526
 40
0.7228170062906014
 40
0.76539807396235
 40
0.8123898076472396
 40
0.8592247312281519
 40
0.9062132666729998
 40
0.953072557277202
 40
1.0
 40
1.0
 40
1.0
 40
1.0
 10
2.0
 20
7.107568503234362
 30
0.0
 10
2.066846661281318
 20
7.103227311770139
 30
0.0
 10
2.639767560621721
 20
7.064119066309839
 30
0.0
 10
3.718436792207882
 20
6.970434477197939
 30
0.0
 10
5.234494130583499
 20
6.736360311895416
 30
0.0
 10
6.761610514928122
 20
6.417345224037482
 30
0.0
 10
8.298342756449415
 20
6.008636016583714
 30
0.0
 10
9.84596547487962
 20
5.518220078036475
 30
0.0
 10
11.3931170406168
 20
4.951773018244046
 30
0.0
 10
12.94058408931957
 20
4.31993267183643
 30
0.0
 10
14.48784890474107
 20
3.629106428747339
 30
0.0
 10
16.03514440168982
 20
2.889485058763102
 30
0.0
 10
17.58257564767402
 20
2.111622261124837
 30
0.0
 10
19.12974849691341
 20
1.303776345817614
 30
0.0
 10
20.67734190721717
 20
0.480698305718458
 30
0.0
 10
22.2244179740203
 20
-0.3519728776203612
 30
0.0
 10
23.77214755027819
 20
-1.176150703141681
 30
0.0
 10
25.31914559321427
 20
-1.988806416708611
 30
0.0
 10
26.86697836136864
 20
-2.769992410703024
 30
0.0
 10
28.46553369722159
 20
-3.543751537067559
 30
0.0
 10
30.1167622725672
 20
-4.284049711728731
 30
0.0
 10
31.81839137479088
 20
-4.983300699619633
 30
0.0
 10
33.52117260699771
 20
-5.594993923153016
 30
0.0
 10
35.22285406165119
 20
-6.126250345569373
 30
0.0
 10
36.35734322034881
 20
-6.393783562208661
 30
0.0
 10
36.92500000000007
 20
-6.527647374870853
 30
0.0
  0
SPLINE
  5
1DE
330
1F
100
AcDbEntity
  8
0
  6
Continuous
 62
     1
370
    15
100
AcDbSpline
210
0.0
220
0.0
230
1.0
 70
     8
 71
     3
 72
    26
 73
    22
 74
     0
 42
0.000000001
 43
0.00000001
 40
0.0
 40
0.0
 40
0.0
 40
0.0
 40
0.0553135071548851
 40
0.1106006435819129
 40
0.1659404014264213
 40
0.22120472414744
 40
0.2765669348978542
 40
0.3308271909815558
 40
0.3852134377130799
 40
0.4394660454129749
 40
0.4938598066841391
 40
0.5492116762068446
 40
0.6047273150354116
 40
0.6600659796729039
 40
0.7155935965062253
 40
0.7709231304793787
 40
0.8264583544448891
 40
0.8817828344730805
 40
0.9373212922471509
 40
0.9926447964328386
 40
1.0
 40
1.0
 40
1.0
 40
1.0
 10
36.92500000000001
 20
0.747191535281643
 30
0.0
 10
36.41025606497055
 20
1.02059970928103
 30
0.0
 10
35.38101359920645
 20
1.567285709866975
 30
0.0
 10
33.83716448110806
 20
2.364450847674016
 30
0.0
 10
32.29301905905726
 20
3.129108436397444
 30
0.0
 10
30.74926874269801
 20
3.853696645439663
 30
0.0
 10
29.21415648407776
 20
4.520126425482353
 30
0.0
 10
27.68887194915524
 20
5.125839479396841
 30
0.0
 10
26.17209132726217
 20
5.658867317352556
 30
0.0
 10
24.65601583989252
 20
6.121240457707652
 30
0.0
 10
23.12888749927163
 20
6.504699247908621
 30
0.0
 10
21.59221062512432
 20
6.806592492738925
 30
0.0
 10
20.04434121376678
 20
7.017230463958448
 30
0.0
 10
18.49742194545576
 20
7.134407228326871
 30
0.0
 10
16.9494826205366
 20
7.154979765889014
 30
0.0
 10
15.40260281288536
 20
7.079058861491866
 30
0.0
 10
13.85461180957549
 20
6.908231486538928
 30
0.0
 10
12.30777039333506
 20
6.644555248480997
 30
0.0
 10
10.75969746559053
 20
6.286461541670472
 30
0.0
 10
9.660921498361489
 20
5.989270815656737
 30
0.0
 10
9.07743665325276
 20
5.79347708782697
 30
0.0
 10
9.008966035909339
 20
5.770501139901549
 30
0.0
  0
LINE
  5
1DF
330
1F
100
AcDbEntity
  8
0
  6
Continuous
 62
     1
370
    15
100
AcDbLine
 10
36.92500000000007
 20
-7.144684304295334
 30
0.0
 11
36.92500000000007
 21
-6.527647374870853
 31
0.0
  0
SPLINE
  5
1E0
330
1F
100
AcDbEntity
  8
0
  6
Continuous
 62
     1
370
    15
100
AcDbSpline
210
0.0
220
0.0
230
1.0
 70
     8
 71
     3
 72
    17
 73
    13
 74
     0
 42
0.000000001
 43
0.00000001
 40
0.0
 40
0.0
 40
0.0
 40
0.0
 40
0.0424053873589721
 40
0.1433167980995664
 40
0.2439766620841109
 40
0.3449198637742099
 40
0.4455537852055246
 40
0.5566116495132375
 40
0.6672989168268824
 40
0.7783492225773587
 40
0.8890940776698316
 40
1.0
 40
1.0
 40
1.0
 40
1.0
 10
21.57269664372538
 20
7.131086164330794
 30
0.0
 10
21.78964208388416
 20
7.133886540087571
 30
0.0
 10
22.52284906022103
 20
7.143350924495532
 30
0.0
 10
23.77215769525375
 20
7.058200888839998
 30
0.0
 10
25.31914286959409
 20
6.878353259268112
 30
0.0
 10
26.86697908714524
 20
6.60149166889199
 30
0.0
 10
28.46553348046254
 20
6.222943061153789
 30
0.0
 10
30.1167623328152
 20
5.74056955739298
 30
0.0
 10
31.81839135861551
 20
5.146181678212545
 30
0.0
 10
33.52117261130363
 20
4.470995545283936
 30
0.0
 10
35.22285406057409
 20
3.722833898872705
 30
0.0
 10
36.35734321998959
 20
3.176679539178443
 30
0.0
 10
36.92500000000007
 20
2.903403922007728
 30
0.0
  0
LINE
  5
1E1
330
1F
100
AcDbEntity
  8
0
  6
Continuous
 62
     1
370
    15
100
AcDbLine
 10
36.92500000000007
 20
0.747191535281643
 30
0.0
 11
36.92500000000007
 21
2.903403922007728
 31
0.0
  0
SPLINE
  5
1E2
330
1F
100
AcDbEntity
  8
0
  6
Continuous
 62
     1
370
    15
100
AcDbSpline
210
0.0
220
0.0
230
1.0
 70
     8
 71
     3
 72
    12
 73
     8
 74
     0
 42
0.000000001
 43
0.00000001
 40
0.0
 40
0.0
 40
0.0
 40
0.0
 40
0.22161487511116
 40
0.443124095277239
 40
0.6648441443974558
 40
0.8862619609106462
 40
1.0
 40
1.0
 40
1.0
 40
1.0
 10
36.92500000000001
 20
7.142815686786641
 30
0.0
 10
36.41025617714325
 20
7.065407183952798
 30
0.0
 10
35.38101393567109
 20
6.989171478695924
 30
0.0
 10
33.83716313546435
 20
6.756266400239348
 30
0.0
 10
32.29302410775747
 20
6.436239936657294
 30
0.0
 10
31.00015486409947
 20
6.105911888137359
 30
0.0
 10
30.22154617185114
 20
5.855758170310939
 30
0.0
 10
29.95731857625969
 20
5.770866342043952
 30
0.0
  0
LINE
  5
1E3
330
1F
100
AcDbEntity
  8
0
  6
Continuous
 62
     1
370
    15
100
AcDbLine
 10
36.92500000000007
 20
2.903403922007728
 30
0.0
 11
36.92500000000007
 21
7.142815686786641
 31
0.0
  0
DIMENSION
  5
1E4
330
1F
100
AcDbEntity
  8
치수문자_일반주서
100
AcDbDimension
  2
*D13
 10
59.96426288556506
 20
-7.144684304295332
 30
0.0
 11
59.96426288556506
 21
32.22742281398641
 31
0.0
 70
   160
 71
     5
 42
14.28749999108197
  3
SLDDIMSTYLE1
100
AcDbAlignedDimension
 13
36.92500000000001
 23
7.142815686786641
 33
0.0
 14
36.92500000000007
 24
-7.144684304295334
 34
0.0
 50
90.0
100
AcDbRotatedDimension
1001
ACAD
1000
DSTYLE
1002
{
1070
   171
1070
     6
1070
   273
1070
     7
1002
}
  0
SPLINE
  5
1E7
330
1F
100
AcDbEntity
  8
0
  6
Continuous
 62
     1
370
    15
100
AcDbSpline
210
0.0
220
0.0
230
1.0
 70
     8
 71
     3
 72
    18
 73
    14
 74
     0
 42
0.000000001
 43
0.00000001
 40
0.0
 40
0.0
 40
0.0
 40
0.0
 40
0.0181424870475558
 40
0.0813739770614897
 40
0.1448405329392353
 40
0.2080662472227872
 40
0.2715364987494743
 40
0.3347610978243649
 40
0.3982300459038098
 40
0.4614581905969664
 40
0.524920836553027
 40
0.5881571867210437
 40
0.6300838441250919
 40
0.6300838441250919
 40
0.6300838441250919
 40
0.6300838441250919
 10
17.39143474511135
 20
-7.134841127991404
 30
0.0
 10
17.24364755747837
 20
-7.137712357694998
 30
0.0
 10
16.58078192142167
 20
-7.150590601974681
 30
0.0
 10
15.40262848034854
 20
-7.076279564630644
 30
0.0
 10
13.8546084507966
 20
-6.911651334092772
 30
0.0
 10
12.3077582813618
 20
-6.644856865086926
 30
0.0
 10
10.75974944962579
 20
-6.293057035104621
 30
0.0
 10
9.212894954190205
 20
-5.852723012629895
 30
0.0
 10
7.664896159099641
 20
-5.337600714698647
 30
0.0
 10
6.118025179021771
 20
-4.746121105097981
 30
0.0
 10
4.570069983787249
 20
-4.095567690608862
 30
0.0
 10
3.198244955545675
 20
-3.465262656803969
 30
0.0
 10
2.341528125884338
 20
-3.053141175739881
 30
0.0
 10
2.000000000000028
 20
-2.885936147000747
 30
0.0
  0
SPLINE
  5
1E8
330
1F
100
AcDbEntity
  8
0
  6
Continuous
 62
     1
370
    15
100
AcDbSpline
210
0.0
220
0.0
230
1.0
 70
     8
 71
     3
 72
    50
 73
    46
 74
     0
 42
0.000000001
 43
0.00000001
 40
0.0
 40
0.0
 40
0.0
 40
0.0
 40
0.0625000000000006
 40
0.0625000000000006
 40
0.0937500000000009
 40
0.0937500000000009
 40
0.1250000000000012
 40
0.1250000000000012
 40
0.1562500000000016
 40
0.1562500000000016
 40
0.1875000000000019
 40
0.1875000000000019
 40
0.2187500000000022
 40
0.2187500000000022
 40
0.2500000000000025
 40
0.2500000000000025
 40
0.2812500000000028
 40
0.2812500000000028
 40
0.3125000000000031
 40
0.3125000000000031
 40
0.3437500000000035
 40
0.3437500000000035
 40
0.3750000000000038
 40
0.3750000000000038
 40
0.4375000000000034
 40
0.4375000000000034
 40
0.4687500000000032
 40
0.4687500000000032
 40
0.500000000000003
 40
0.500000000000003
 40
0.5312500000000029
 40
0.5312500000000029
 40
0.5625000000000027
 40
0.5625000000000027
 40
0.5937500000000026
 40
0.5937500000000026
 40
0.6250000000000024
 40
0.6250000000000024
 40
0.6562500000000023
 40
0.6562500000000023
 40
0.6875000000000021
 40
0.6875000000000021
 40
0.7500000000000018
 40
0.7500000000000018
 40
0.7944397077085076
 40
0.7944397077085076
 40
0.7944397077085076
 40
0.7944397077085076
 10
36.92500000000001
 20
-7.144684304295334
 30
0.0
 10
36.01492632548741
 20
-7.054092102071047
 30
0.0
 10
35.0889710350298
 20
-6.951825025405002
 30
0.0
 10
33.72000615428644
 20
-6.72662037260724
 30
0.0
 10
33.26393741431576
 20
-6.639555056533339
 30
0.0
 10
32.34573186073845
 20
-6.441794600297325
 30
0.0
 10
31.88565964267659
 20
-6.331210072394734
 30
0.0
 10
30.97089465044951
 20
-6.088477167863239
 30
0.0
 10
30.51650099646591
 20
-5.9564131437978
 30
0.0
 10
29.59921028293024
 20
-5.670840811669198
 30
0.0
 10
29.13894665193112
 20
-5.517552489204727
 30
0.0
 10
28.22251126312608
 20
-5.192430745508759
 30
0.0
 10
27.76853403543157
 20
-5.020912117350335
 30
0.0
 10
26.8526136842037
 20
-4.659735987097216
 30
0.0
 10
26.39238908563655
 20
-4.47025518037576
 30
0.0
 10
25.4747374052516
 20
-4.076494447522625
 30
0.0
 10
25.01991725651948
 20
-3.872625869957332
 30
0.0
 10
24.1058205199628
 20
-3.451280726074989
 30
0.0
 10
23.645865333898
 20
-3.233668185335727
 30
0.0
 10
22.72745348280458
 20
-2.787970303851635
 30
0.0
 10
22.27053245744867
 20
-2.560149834579125
 30
0.0
 10
21.35870957367777
 20
-2.096628862626545
 30
0.0
 10
20.89925372966059
 20
-1.860147041888274
 30
0.0
 10
19.52118177060683
 20
-1.142097156290631
 30
0.0
 10
18.61171252258563
 20
-0.6535169889476382
 30
0.0
 10
17.23387320905081
 20
0.0835072829315084
 30
0.0
 10
16.774054015806
 20
0.3295631826104737
 30
0.0
 10
15.86064177473261
 20
0.8185272280557658
 30
0.0
 10
15.40528122535005
 20
1.061755706065229
 30
0.0
 10
14.48733440769189
 20
1.54486255958504
 30
0.0
 10
14.02717156103617
 20
1.784303015543017
 30
0.0
 10
13.11179009768105
 20
2.255162713252454
 30
0.0
 10
12.65767852640886
 20
2.486412355520677
 30
0.0
 10
11.74080104397174
 20
2.940745384012792
 30
0.0
 10
11.28052482068207
 20
3.163389205101567
 30
0.0
 10
10.36362649591729
 20
3.596086006061876
 30
0.0
 10
9.909504777280063
 20
3.805777916640084
 30
0.0
 10
8.994151467406937
 20
4.212051976164555
 30
0.0
 10
8.533992333920224
 20
4.408435816774524
 30
0.0
 10
7.616032019625464
 20
4.784527532297704
 30
0.0
 10
7.160641044904366
 20
4.96393760922991
 30
0.0
 10
5.790575810412946
 20
5.475447137825774
 30
0.0
 10
4.866445176624097
 20
5.781103784918005
 30
0.0
 10
3.307775348574012
 20
6.228275975487365
 30
0.0
 10
2.65244525182834
 20
6.393017443919359
 30
0.0
 10
1.999999999999972
 20
6.534168412317116
 30
0.0
  0
SPLINE
  5
1E9
330
1F
100
AcDbEntity
  8
0
  6
Continuous
 62
     1
370
    15
100
AcDbSpline
210
0.0
220
0.0
230
1.0
 70
     8
 71
     3
 72
    13
 73
     9
 74
     0
 42
0.000000001
 43
0.00000001
 40
0.5631832214605524
 40
0.5631832214605524
 40
0.5631832214605524
 40
0.5631832214605524
 40
0.5756840423973622
 40
0.6703223909360159
 40
0.7647113417226201
 40
0.8593368056101297
 40
0.9556719764612343
 40
1.0
 40
1.0
 40
1.0
 40
1.0
 10
1.999999999999943
 20
-7.107568503234365
 30
0.0
 10
2.066847196374511
 20
-7.103921461196101
 30
0.0
 10
2.639805850573566
 20
-7.070366863069154
 30
0.0
 10
3.718423191522419
 20
-6.970257154023479
 30
0.0
 10
5.234495981953529
 20
-6.739434735155779
 30
0.0
 10
6.761616780916711
 20
-6.416407522949122
 30
0.0
 10
8.019320124829363
 20
-6.092554634072513
 30
0.0
 10
8.771824793570289
 20
-5.849093198167962
 30
0.0
 10
9.008966035909282
 20
-5.772369757410273
 30
0.0
  0
DIMENSION
  5
1EB
330
1F
100
AcDbEntity
  8
치수문자_일반주서
100
AcDbDimension
  2
*D14
 10
36.92500000000001
 20
18.90621545662676
 30
0.0
 11
19.46250000000001
 21
21.53121545662676
 31
0.0
 70
    32
 71
     5
 42
34.92500000000001
  3
SLDDIMSTYLE1
100
AcDbAlignedDimension
 13
2.0
 23
7.107568503234361
 33
0.0
 14
36.92500000000001
 24
7.142815686786641
 34
0.0
100
AcDbRotatedDimension
1001
ACAD
1000
DSTYLE
1002
{
1070
   171
1070
     6
1070
   273
1070
     7
1002
}
  0
LINE
  5
1EE
330
1F
100
AcDbEntity
  8
외형선
  6
Continuous
370
    15
100
AcDbLine
 10
2.0
 20
7.107568503234361
 30
0.0
 11
2.0
 21
-7.107568503234361
 31
0.0
  0
SPLINE
  5
222
330
1F
100
AcDbEntity
  8
0
  6
Continuous
 62
     1
370
    15
100
AcDbSpline
210
0.0
220
0.0
230
1.0
 70
     8
 71
     3
 72
    26
 73
    22
 74
     0
 42
0.000000001
 43
0.00000001
 40
0.2442716607620373
 40
0.2442716607620373
 40
0.2442716607620373
 40
0.2442716607620373
 40
0.2496936913972726
 40
0.2907415524704258
 40
0.3316812412811065
 40
0.3727235138441228
 40
0.4145073442956814
 40
0.4563721542745554
 40
0.4981722436290207
 40
0.5400179762010833
 40
0.5818373880386023
 40
0.6236612564257703
 40
0.6655025557488515
 40
0.7073064575095037
 40
0.7491675251332891
 40
0.7909545228051907
 40
0.8328320737459686
 40
0.8746052344893132
 40
0.9164959784584866
 40
0.9582583732182179
 40
1.0
 40
1.0
 40
1.0
 40
1.0
 10
1.999999999999943
 20
-0.7280985743471025
 30
0.0
 10
2.066847198535726
 20
-0.763779932121424
 30
0.0
 10
2.639805790843639
 20
-1.069280554938306
 30
0.0
 10
3.718422671705582
 20
-1.637938857049017
 30
0.0
 10
5.234497918211503
 20
-2.420893773454804
 30
0.0
 10
6.761609478572751
 20
-3.173596560868424
 30
0.0
 10
8.29834303685243
 20
-3.892961705292988
 30
0.0
 10
9.845965399828657
 20
-4.561845543108912
 30
0.0
 10
11.39311706069259
 20
-5.171424086714449
 30
0.0
 10
12.94058408411254
 20
-5.709957312426205
 30
0.0
 10
14.48784890549877
 20
-6.172329829906809
 30
0.0
 10
16.03514440386593
 20
-6.551377233544308
 30
0.0
 10
17.58257563821024
 20
-6.842016504235264
 30
0.0
 10
19.12974853257629
 20
-7.040863975336485
 30
0.0
 10
20.67734177391822
 20
-7.144547794550499
 30
0.0
 10
22.22441847097744
 20
-7.15215909387525
 30
0.0
 10
23.77214569298201
 20
-7.06357007092455
 30
0.0
 10
25.31915251325836
 20
-6.879594183479158
 30
0.0
 10
26.86695248599852
 20
-6.602359545079372
 30
0.0
 10
28.41207464808176
 20
-6.242104521770054
 30
0.0
 10
29.44232267659919
 20
-5.92916553699062
 30
0.0
 10
29.95731857625969
 20
-5.772734959552645
 30
0.0
  0
ENDSEC
  0
SECTION
  2
OBJECTS
  0
DICTIONARY
  5
C
330
0
100
AcDbDictionary
281
     1
  3
ACAD_GROUP
350
D
  3
ACAD_IMAGE_VARS
350
138
  3
ACAD_LAYOUT
350
1A
  3
ACAD_MLINESTYLE
350
17
  3
ACAD_PLOTSETTINGS
350
19
  3
ACAD_PLOTSTYLENAME
350
E
  3
ACAD_SCALELIST
350
47
  3
APPDATA
350
136
  3
DWGPROPS
350
26D
  0
DICTIONARY
  5
1C3
330
2
100
AcDbDictionary
280
     1
281
     1
  3
ACAD_LAYERSTATES
360
1C4
  0
DICTIONARY
  5
D
102
{ACAD_REACTORS
330
C
102
}
330
C
100
AcDbDictionary
281
     1
  0
RASTERVARIABLES
  5
138
102
{ACAD_REACTORS
330
C
102
}
330
C
100
AcDbRasterVariables
 90
        0
 70
     1
 71
     1
 72
     1
  0
DICTIONARY
  5
1A
102
{ACAD_REACTORS
330
C
102
}
330
C
100
AcDbDictionary
281
     1
  3
Layout1
350
1E
  3
Layout2
350
26
  3
Model
350
22
  0
DICTIONARY
  5
17
102
{ACAD_REACTORS
330
C
102
}
330
C
100
AcDbDictionary
281
     1
  3
Standard
350
18
  0
DICTIONARY
  5
19
102
{ACAD_REACTORS
330
C
102
}
330
C
100
AcDbDictionary
281
     1
  0
ACDBDICTIONARYWDFLT
  5
E
102
{ACAD_REACTORS
330
C
102
}
330
C
100
AcDbDictionary
281
     1
  3
Normal
350
F
100
AcDbDictionaryWithDefault
340
F
  0
DICTIONARY
  5
47
102
{ACAD_REACTORS
330
C
102
}
330
C
100
AcDbDictionary
281
     1
  3
A0
350
48
  3
A1
350
49
  3
A2
350
4A
  3
A3
350
4B
  3
A4
350
4C
  3
A5
350
4D
  3
A6
350
4E
  3
A7
350
4F
  3
A8
350
50
  3
A9
350
51
  3
B0
350
52
  3
B1
350
53
  3
B2
350
54
  3
B3
350
55
  3
B4
350
56
  3
B5
350
57
  3
B6
350
58
  3
B7
350
59
  3
B8
350
5A
  3
B9
350
5B
  3
C0
350
5C
  3
C1
350
5D
  3
C2
350
5E
  3
C3
350
5F
  3
C4
350
60
  3
C5
350
61
  3
C6
350
62
  3
C7
350
63
  3
C8
350
64
  3
C9
350
65
  3
D0
350
66
  3
D1
350
67
  3
D2
350
68
  0
DICTIONARY
  5
136
102
{ACAD_REACTORS
330
C
102
}
330
C
100
AcDbDictionary
281
     1
  0
XRECORD
  5
26D
102
{ACAD_REACTORS
330
C
102
}
330
C
100
AcDbXrecord
280
     1
  1
DWGPROPS COOKIE
  2

  3

  4

  6

  7

  8
12016016
  9

300
=
301
=
302
=
303
=
304
=
305
=
306
=
307
=
308
=
309
=
 40
0.0
 41
2458312.372796505
 42
2458323.357256887
  1

 90
        0
  0
DICTIONARY
  5
1C4
102
{ACAD_REACTORS
330
1C3
102
}
330
1C3
100
AcDbDictionary
281
     1
  0
LAYOUT
  5
1E
102
{ACAD_REACTORS
330
1A
102
}
330
1A
100
AcDbPlotSettings
  1

  2
none_device
  4

  6

 40
0.0
 41
0.0
 42
0.0
 43
0.0
 44
0.0
 45
0.0
 46
0.0
 47
0.0
 48
0.0
 49
0.0
140
0.0
141
0.0
142
1.0
143
1.0
 70
   688
 72
     1
 73
     0
 74
     5
  7

 75
    16
147
1.0
148
0.0
149
0.0
100
AcDbLayout
  1
Layout1
 70
     1
 71
     1
 10
0.0
 20
0.0
 11
420.0
 21
297.0
 12
0.0
 22
0.0
 32
0.0
 14
1.000000000000000E+20
 24
1.000000000000000E+20
 34
1.000000000000000E+20
 15
-1.000000000000000E+20
 25
-1.000000000000000E+20
 35
-1.000000000000000E+20
146
0.0
 13
0.0
 23
0.0
 33
0.0
 16
1.0
 26
0.0
 36
0.0
 17
0.0
 27
1.0
 37
0.0
 76
     0
330
1B
  0
LAYOUT
  5
26
102
{ACAD_REACTORS
330
1A
102
}
330
1A
100
AcDbPlotSettings
  1

  2
none_device
  4

  6

 40
0.0
 41
0.0
 42
0.0
 43
0.0
 44
0.0
 45
0.0
 46
0.0
 47
0.0
 48
0.0
 49
0.0
140
0.0
141
0.0
142
1.0
143
1.0
 70
   688
 72
     1
 73
     0
 74
     5
  7

 75
    16
147
1.0
148
0.0
149
0.0
100
AcDbLayout
  1
Layout2
 70
     1
 71
     2
 10
0.0
 20
0.0
 11
0.0
 21
0.0
 12
0.0
 22
0.0
 32
0.0
 14
0.0
 24
0.0
 34
0.0
 15
0.0
 25
0.0
 35
0.0
146
0.0
 13
0.0
 23
0.0
 33
0.0
 16
1.0
 26
0.0
 36
0.0
 17
0.0
 27
1.0
 37
0.0
 76
     0
330
23
  0
LAYOUT
  5
22
102
{ACAD_REACTORS
330
1A
102
}
330
1A
100
AcDbPlotSettings
  1

  2
none_device
  4
ANSI_A_(11.00_x_8.50_Inches)
  6

 40
6.35
 41
19.05
 42
6.35000508
 43
19.05000254
 44
279.4
 45
215.9
 46
107.1300962393278
 47
100.5026560646533
 48
0.0
 49
0.0
140
0.0
141
0.0
142
0.0709734699818263
143
1.0
 70
  1696
 72
     0
 73
     0
 74
     0
  7

 75
     0
147
0.0235690232323232
148
0.0
149
0.0
100
AcDbLayout
  1
Model
 70
     1
 71
     0
 10
0.0
 20
0.0
 11
420.0
 21
297.0
 12
0.0
 22
0.0
 32
0.0
 14
-64.15827283782721
 24
-49.97073246008785
 34
0.0
 15
91.26339147959949
 25
45.78992281398641
 35
0.0
146
0.0
 13
0.0
 23
0.0
 33
0.0
 16
1.0
 26
0.0
 36
0.0
 17
0.0
 27
1.0
 37
0.0
 76
     0
330
1F
331
29
  0
MLINESTYLE
  5
18
102
{ACAD_REACTORS
330
17
102
}
330
17
100
AcDbMlineStyle
  2
Standard
 70
     0
  3

 62
   256
 51
90.0
 52
90.0
 71
     2
 49
0.5
 62
   256
  6
BYLAYER
 49
-0.5
 62
   256
  6
BYLAYER
  0
ACDBPLACEHOLDER
  5
F
102
{ACAD_REACTORS
330
E
102
}
330
E
  0
SCALE
  5
48
102
{ACAD_REACTORS
330
47
102
}
330
47
100
AcDbScale
 70
     0
300
1:1
140
1.0
141
1.0
290
     1
  0
SCALE
  5
49
102
{ACAD_REACTORS
330
47
102
}
330
47
100
AcDbScale
 70
     0
300
1:2
140
1.0
141
2.0
290
     0
  0
SCALE
  5
4A
102
{ACAD_REACTORS
330
47
102
}
330
47
100
AcDbScale
 70
     0
300
1:4
140
1.0
141
4.0
290
     0
  0
SCALE
  5
4B
102
{ACAD_REACTORS
330
47
102
}
330
47
100
AcDbScale
 70
     0
300
1:5
140
1.0
141
5.0
290
     0
  0
SCALE
  5
4C
102
{ACAD_REACTORS
330
47
102
}
330
47
100
AcDbScale
 70
     0
300
1:8
140
1.0
141
8.0
290
     0
  0
SCALE
  5
4D
102
{ACAD_REACTORS
330
47
102
}
330
47
100
AcDbScale
 70
     0
300
1:10
140
1.0
141
10.0
290
     0
  0
SCALE
  5
4E
102
{ACAD_REACTORS
330
47
102
}
330
47
100
AcDbScale
 70
     0
300
1:16
140
1.0
141
16.0
290
     0
  0
SCALE
  5
4F
102
{ACAD_REACTORS
330
47
102
}
330
47
100
AcDbScale
 70
     0
300
1:20
140
1.0
141
20.0
290
     0
  0
SCALE
  5
50
102
{ACAD_REACTORS
330
47
102
}
330
47
100
AcDbScale
 70
     0
300
1:30
140
1.0
141
30.0
290
     0
  0
SCALE
  5
51
102
{ACAD_REACTORS
330
47
102
}
330
47
100
AcDbScale
 70
     0
300
1:40
140
1.0
141
40.0
290
     0
  0
SCALE
  5
52
102
{ACAD_REACTORS
330
47
102
}
330
47
100
AcDbScale
 70
     0
300
1:50
140
1.0
141
50.0
290
     0
  0
SCALE
  5
53
102
{ACAD_REACTORS
330
47
102
}
330
47
100
AcDbScale
 70
     0
300
1:100
140
1.0
141
100.0
290
     0
  0
SCALE
  5
54
102
{ACAD_REACTORS
330
47
102
}
330
47
100
AcDbScale
 70
     0
300
2:1
140
2.0
141
1.0
290
     0
  0
SCALE
  5
55
102
{ACAD_REACTORS
330
47
102
}
330
47
100
AcDbScale
 70
     0
300
4:1
140
4.0
141
1.0
290
     0
  0
SCALE
  5
56
102
{ACAD_REACTORS
330
47
102
}
330
47
100
AcDbScale
 70
     0
300
8:1
140
8.0
141
1.0
290
     0
  0
SCALE
  5
57
102
{ACAD_REACTORS
330
47
102
}
330
47
100
AcDbScale
 70
     0
300
10:1
140
10.0
141
1.0
290
     0
  0
SCALE
  5
58
102
{ACAD_REACTORS
330
47
102
}
330
47
100
AcDbScale
 70
     0
300
100:1
140
100.0
141
1.0
290
     0
  0
SCALE
  5
59
102
{ACAD_REACTORS
330
47
102
}
330
47
100
AcDbScale
 70
     0
300
1/128" = 1'-0"
140
0.0078125
141
12.0
290
     0
  0
SCALE
  5
5A
102
{ACAD_REACTORS
330
47
102
}
330
47
100
AcDbScale
 70
     0
300
1/64" = 1'-0"
140
0.015625
141
12.0
290
     0
  0
SCALE
  5
5B
102
{ACAD_REACTORS
330
47
102
}
330
47
100
AcDbScale
 70
     0
300
1/32" = 1'-0"
140
0.03125
141
12.0
290
     0
  0
SCALE
  5
5C
102
{ACAD_REACTORS
330
47
102
}
330
47
100
AcDbScale
 70
     0
300
1/16" = 1'-0"
140
0.0625
141
12.0
290
     0
  0
SCALE
  5
5D
102
{ACAD_REACTORS
330
47
102
}
330
47
100
AcDbScale
 70
     0
300
3/32" = 1'-0"
140
0.09375
141
12.0
290
     0
  0
SCALE
  5
5E
102
{ACAD_REACTORS
330
47
102
}
330
47
100
AcDbScale
 70
     0
300
1/8" = 1'-0"
140
0.125
141
12.0
290
     0
  0
SCALE
  5
5F
102
{ACAD_REACTORS
330
47
102
}
330
47
100
AcDbScale
 70
     0
300
3/16" = 1'-0"
140
0.1875
141
12.0
290
     0
  0
SCALE
  5
60
102
{ACAD_REACTORS
330
47
102
}
330
47
100
AcDbScale
 70
     0
300
1/4" = 1'-0"
140
0.25
141
12.0
290
     0
  0
SCALE
  5
61
102
{ACAD_REACTORS
330
47
102
}
330
47
100
AcDbScale
 70
     0
300
3/8" = 1'-0"
140
0.375
141
12.0
290
     0
  0
SCALE
  5
62
102
{ACAD_REACTORS
330
47
102
}
330
47
100
AcDbScale
 70
     0
300
1/2" = 1'-0"
140
0.5
141
12.0
290
     0
  0
SCALE
  5
63
102
{ACAD_REACTORS
330
47
102
}
330
47
100
AcDbScale
 70
     0
300
3/4" = 1'-0"
140
0.75
141
12.0
290
     0
  0
SCALE
  5
64
102
{ACAD_REACTORS
330
47
102
}
330
47
100
AcDbScale
 70
     0
300
1" = 1'-0"
140
1.0
141
12.0
290
     0
  0
SCALE
  5
65
102
{ACAD_REACTORS
330
47
102
}
330
47
100
AcDbScale
 70
     0
300
1-1/2" = 1'-0"
140
1.5
141
12.0
290
     0
  0
SCALE
  5
66
102
{ACAD_REACTORS
330
47
102
}
330
47
100
AcDbScale
 70
     0
300
3" = 1'-0"
140
3.0
141
12.0
290
     0
  0
SCALE
  5
67
102
{ACAD_REACTORS
330
47
102
}
330
47
100
AcDbScale
 70
     0
300
6" = 1'-0"
140
6.0
141
12.0
290
     0
  0
SCALE
  5
68
102
{ACAD_REACTORS
330
47
102
}
330
47
100
AcDbScale
 70
     0
300
1'-0" = 1'-0"
140
12.0
141
12.0
290
     0
  0
ENDSEC
  0
EOF
