  0
SECTION
  2
HEADER
  9
$ACADVER
  1
AC1015
  9
$ACADMAINTVER
 70
     6
  9
$DWGCODEPAGE
  3
ANSI_949
  9
$INSBASE
 10
0.0
 20
0.0
 30
0.0
  9
$EXTMIN
 10
-56.15827283782723
 20
-49.97073246008785
 30
0.0
  9
$EXTMAX
 10
89.03783746512288
 20
48.31329155664181
 30
0.0
  9
$LIMMIN
 10
0.0
 20
0.0
  9
$LIMMAX
 10
420.0
 20
297.0
  9
$ORTHOMODE
 70
     1
  9
$REGENMODE
 70
     1
  9
$FILLMODE
 70
     1
  9
$QTEXTMODE
 70
     0
  9
$MIRRTEXT
 70
     1
  9
$LTSCALE
 40
1.0
  9
$ATTMODE
 70
     1
  9
$TEXTSIZE
 40
3.5
  9
$TRACEWID
 40
1.0
  9
$TEXTSTYLE
  7
Standard
  9
$CLAYER
  8
0
  9
$CELTYPE
  6
ByLayer
  9
$CECOLOR
 62
   256
  9
$CELTSCALE
 40
1.0
  9
$DISPSILH
 70
     0
  9
$DIMSCALE
 40
1.0
  9
$DIMASZ
 40
3.302
  9
$DIMEXO
 40
1.0
  9
$DIMDLI
 40
3.75
  9
$DIMRND
 40
0.0
  9
$DIMDLE
 40
0.0
  9
$DIMEXE
 40
1.0
  9
$DIMTP
 40
0.0
  9
$DIMTM
 40
0.0
  9
$DIMTXT
 40
3.5
  9
$DIMCEN
 40
2.5
  9
$DIMTSZ
 40
0.0
  9
$DIMTOL
 70
     0
  9
$DIMLIM
 70
     0
  9
$DIMTIH
 70
     1
  9
$DIMTOH
 70
     1
  9
$DIMSE1
 70
     0
  9
$DIMSE2
 70
     0
  9
$DIMTAD
 70
     1
  9
$DIMZIN
 70
     0
  9
$DIMBLK
  1

  9
$DIMASO
 70
     1
  9
$DIMSHO
 70
     1
  9
$DIMPOST
  1

  9
$DIMAPOST
  1

  9
$DIMALT
 70
     0
  9
$DIMALTD
 70
     3
  9
$DIMALTF
 40
0.0393700787401575
  9
$DIMLFAC
 40
1.0
  9
$DIMTOFL
 70
     1
  9
$DIMTVP
 40
0.0
  9
$DIMTIX
 70
     0
  9
$DIMSOXD
 70
     0
  9
$DIMSAH
 70
     0
  9
$DIMBLK1
  1

  9
$DIMBLK2
  1

  9
$DIMSTYLE
  2
ISO-25
  9
$DIMCLRD
 70
     0
  9
$DIMCLRE
 70
     0
  9
$DIMCLRT
 70
     0
  9
$DIMTFAC
 40
1.0
  9
$DIMGAP
 40
1.524
  9
$DIMJUST
 70
     0
  9
$DIMSD1
 70
     0
  9
$DIMSD2
 70
     0
  9
$DIMTOLJ
 70
     0
  9
$DIMTZIN
 70
     0
  9
$DIMALTZ
 70
     0
  9
$DIMALTTZ
 70
     0
  9
$DIMUPT
 70
     0
  9
$DIMDEC
 70
     2
  9
$DIMTDEC
 70
     2
  9
$DIMALTU
 70
     2
  9
$DIMALTTD
 70
     3
  9
$DIMTXSTY
  7
Standard
  9
$DIMAUNIT
 70
     0
  9
$DIMADEC
 70
     2
  9
$DIMALTRND
 40
0.0
  9
$DIMAZIN
 70
     0
  9
$DIMDSEP
 70
    44
  9
$DIMATFIT
 70
     3
  9
$DIMFRAC
 70
     0
  9
$DIMLDRBLK
  1

  9
$DIMLUNIT
 70
     2
  9
$DIMLWD
 70
    -2
  9
$DIMLWE
 70
    -2
  9
$DIMTMOVE
 70
     0
  9
$LUNITS
 70
     2
  9
$LUPREC
 70
     2
  9
$SKETCHINC
 40
1.0
  9
$FILLETRAD
 40
10.0
  9
$AUNITS
 70
     0
  9
$AUPREC
 70
     2
  9
$MENU
  1
.
  9
$ELEVATION
 40
0.0
  9
$PELEVATION
 40
0.0
  9
$THICKNESS
 40
0.0
  9
$LIMCHECK
 70
     0
  9
$CHAMFERA
 40
0.0
  9
$CHAMFERB
 40
0.0
  9
$CHAMFERC
 40
0.0
  9
$CHAMFERD
 40
0.0
  9
$SKPOLY
 70
     0
  9
$TDCREATE
 40
2458312.669961991
  9
$TDUCREATE
 40
2458312.294961991
  9
$TDUPDATE
 40
2458323.732367859
  9
$TDUUPDATE
 40
2458323.357367859
  9
$TDINDWG
 40
0.001377419
  9
$TDUSRTIMER
 40
2458323.357329792
  9
$USRTIMER
 70
     1
  9
$ANGBASE
 50
0.0
  9
$ANGDIR
 70
     0
  9
$PDMODE
 70
     0
  9
$PDSIZE
 40
-1.0
  9
$PLINEWID
 40
0.0
  9
$SPLFRAME
 70
     0
  9
$SPLINETYPE
 70
     6
  9
$SPLINESEGS
 70
     8
  9
$HANDSEED
  5
2B7
  9
$SURFTAB1
 70
     6
  9
$SURFTAB2
 70
     6
  9
$SURFTYPE
 70
     6
  9
$SURFU
 70
     6
  9
$SURFV
 70
     6
  9
$UCSBASE
  2

  9
$UCSNAME
  2

  9
$UCSORG
 10
0.0
 20
0.0
 30
0.0
  9
$UCSXDIR
 10
1.0
 20
0.0
 30
0.0
  9
$UCSYDIR
 10
0.0
 20
1.0
 30
0.0
  9
$UCSORTHOREF
  2

  9
$UCSORTHOVIEW
 70
     0
  9
$UCSORGTOP
 10
0.0
 20
0.0
 30
0.0
  9
$UCSORGBOTTOM
 10
0.0
 20
0.0
 30
0.0
  9
$UCSORGLEFT
 10
0.0
 20
0.0
 30
0.0
  9
$UCSORGRIGHT
 10
0.0
 20
0.0
 30
0.0
  9
$UCSORGFRONT
 10
0.0
 20
0.0
 30
0.0
  9
$UCSORGBACK
 10
0.0
 20
0.0
 30
0.0
  9
$PUCSBASE
  2

  9
$PUCSNAME
  2

  9
$PUCSORG
 10
0.0
 20
0.0
 30
0.0
  9
$PUCSXDIR
 10
1.0
 20
0.0
 30
0.0
  9
$PUCSYDIR
 10
0.0
 20
1.0
 30
0.0
  9
$PUCSORTHOREF
  2

  9
$PUCSORTHOVIEW
 70
     0
  9
$PUCSORGTOP
 10
0.0
 20
0.0
 30
0.0
  9
$PUCSORGBOTTOM
 10
0.0
 20
0.0
 30
0.0
  9
$PUCSORGLEFT
 10
0.0
 20
0.0
 30
0.0
  9
$PUCSORGRIGHT
 10
0.0
 20
0.0
 30
0.0
  9
$PUCSORGFRONT
 10
0.0
 20
0.0
 30
0.0
  9
$PUCSORGBACK
 10
0.0
 20
0.0
 30
0.0
  9
$USERI1
 70
     0
  9
$USERI2
 70
     0
  9
$USERI3
 70
     0
  9
$USERI4
 70
     0
  9
$USERI5
 70
     0
  9
$USERR1
 40
0.0
  9
$USERR2
 40
0.0
  9
$USERR3
 40
0.0
  9
$USERR4
 40
0.0
  9
$USERR5
 40
0.0
  9
$WORLDVIEW
 70
     1
  9
$SHADEDGE
 70
     3
  9
$SHADEDIF
 70
    70
  9
$TILEMODE
 70
     1
  9
$MAXACTVP
 70
    64
  9
$PINSBASE
 10
0.0
 20
0.0
 30
0.0
  9
$PLIMCHECK
 70
     0
  9
$PEXTMIN
 10
1.000000000000000E+20
 20
1.000000000000000E+20
 30
1.000000000000000E+20
  9
$PEXTMAX
 10
-1.000000000000000E+20
 20
-1.000000000000000E+20
 30
-1.000000000000000E+20
  9
$PLIMMIN
 10
0.0
 20
0.0
  9
$PLIMMAX
 10
0.0
 20
0.0
  9
$UNITMODE
 70
     0
  9
$VISRETAIN
 70
     1
  9
$PLINEGEN
 70
     0
  9
$PSLTSCALE
 70
     1
  9
$TREEDEPTH
 70
  3020
  9
$CMLSTYLE
  2
Standard
  9
$CMLJUST
 70
     0
  9
$CMLSCALE
 40
20.0
  9
$PROXYGRAPHICS
 70
     1
  9
$MEASUREMENT
 70
     1
  9
$CELWEIGHT
370
    -1
  9
$ENDCAPS
280
     0
  9
$JOINSTYLE
280
     0
  9
$LWDISPLAY
290
     1
  9
$INSUNITS
 70
     4
  9
$HYPERLINKBASE
  1

  9
$STYLESHEET
  1

  9
$XEDIT
290
     1
  9
$CEPSNTYPE
380
     0
  9
$PSTYLEMODE
290
     1
  9
$FINGERPRINTGUID
  2
{22E26780-1DE4-4DE7-B46B-6047B8A113F6}
  9
$VERSIONGUID
  2
{FAEB1C32-E019-11D5-929B-00C0DF256EC4}
  9
$EXTNAMES
290
     1
  9
$PSVPSCALE
 40
0.0
  9
$OLESTARTUP
290
     0
  0
ENDSEC
  0
SECTION
  2
CLASSES
  0
CLASS
  1
ACDBDICTIONARYWDFLT
  2
AcDbDictionaryWithDefault
  3
ObjectDBX Classes
 90
        0
280
     0
281
     0
  0
CLASS
  1
VISUALSTYLE
  2
AcDbVisualStyle
  3
ObjectDBX Classes
 90
     4095
280
     0
281
     0
  0
CLASS
  1
MATERIAL
  2
AcDbMaterial
  3
ObjectDBX Classes
 90
     1153
280
     0
281
     0
  0
CLASS
  1
SCALE
  2
AcDbScale
  3
ObjectDBX Classes
 90
     1153
280
     0
281
     0
  0
CLASS
  1
SUN
  2
AcDbSun
  3
SCENEOE
 90
     1153
280
     0
281
     0
  0
CLASS
  1
ACDBPLACEHOLDER
  2
AcDbPlaceHolder
  3
ObjectDBX Classes
 90
        0
280
     0
281
     0
  0
CLASS
  1
LAYOUT
  2
AcDbLayout
  3
ObjectDBX Classes
 90
        0
280
     0
281
     0
  0
CLASS
  1
TABLESTYLE
  2
AcDbTableStyle
  3
ObjectDBX Classes
 90
     4095
280
     0
281
     0
  0
CLASS
  1
MLEADERSTYLE
  2
AcDbMLeaderStyle
  3
ACDB_MLEADERSTYLE_CLASS
 90
     4095
280
     0
281
     0
  0
CLASS
  1
RASTERVARIABLES
  2
AcDbRasterVariables
  3
ISM
 90
        0
280
     0
281
     0
  0
ENDSEC
  0
SECTION
  2
TABLES
  0
TABLE
  2
VPORT
  5
8
330
0
100
AcDbSymbolTable
 70
     1
  0
VPORT
  5
29
330
8
100
AcDbSymbolTableRecord
100
AcDbViewportTableRecord
  2
*Active
 70
     0
 10
0.0
 20
0.0
 11
1.0
 21
1.0
 12
0.2180109165648823
 22
-7.123437254217922
 13
0.0
 23
0.0
 14
10.0
 24
10.0
 15
10.0
 25
10.0
 16
0.0
 26
0.0
 36
1.0
 17
0.0
 27
0.0
 37
0.0
 40
144.1200481561651
 41
1.632093933463796
 42
50.0
 43
0.0
 44
0.0
 50
0.0
 51
0.0
 71
    16
 72
  2000
 73
     1
 74
     3
 75
     0
 76
     0
 77
     0
 78
     0
281
     0
 65
     1
110
0.0
120
0.0
130
0.0
111
1.0
121
0.0
131
0.0
112
0.0
122
1.0
132
0.0
 79
     0
146
0.0
  0
ENDTAB
  0
TABLE
  2
LTYPE
  5
5
330
0
100
AcDbSymbolTable
 70
     6
  0
LTYPE
  5
14
330
5
100
AcDbSymbolTableRecord
100
AcDbLinetypeTableRecord
  2
ByBlock
 70
     0
  3

 72
    65
 73
     0
 40
0.0
  0
LTYPE
  5
15
330
5
100
AcDbSymbolTableRecord
100
AcDbLinetypeTableRecord
  2
ByLayer
 70
     0
  3

 72
    65
 73
     0
 40
0.0
  0
LTYPE
  5
16
330
5
100
AcDbSymbolTableRecord
100
AcDbLinetypeTableRecord
  2
Continuous
 70
     0
  3
Solid line
 72
    65
 73
     0
 40
0.0
  0
LTYPE
  5
6A
330
5
100
AcDbSymbolTableRecord
100
AcDbLinetypeTableRecord
  2
HIDDEN
 70
     0
  3
Hidden __ __ __ __ __ __ __ __ __ __ __ __ __ __
 72
    65
 73
     2
 40
1.905
 49
1.27
 74
     0
 49
-0.635
 74
     0
  0
LTYPE
  5
6B
330
5
100
AcDbSymbolTableRecord
100
AcDbLinetypeTableRecord
  2
PHANTOM
 70
     0
  3
Phantom ______  __  __  ______  __  __  ______
 72
    65
 73
     6
 40
12.7
 49
6.35
 74
     0
 49
-1.27
 74
     0
 49
1.27
 74
     0
 49
-1.27
 74
     0
 49
1.27
 74
     0
 49
-1.27
 74
     0
  0
LTYPE
  5
6C
330
5
100
AcDbSymbolTableRecord
100
AcDbLinetypeTableRecord
  2
CENTER
 70
     0
  3
Center ____ _ ____ _ ____ _ ____ _ ____ _ ____
 72
    65
 73
     4
 40
10.16
 49
6.35
 74
     0
 49
-1.27
 74
     0
 49
1.27
 74
     0
 49
-1.27
 74
     0
  0
LTYPE
  5
6D
330
5
100
AcDbSymbolTableRecord
100
AcDbLinetypeTableRecord
  2
CENTERX2
 70
     0
  3
Center (2x) ________  __  ________  __  _____
 72
    65
 73
     4
 40
20.32
 49
12.7
 74
     0
 49
-2.54
 74
     0
 49
2.54
 74
     0
 49
-2.54
 74
     0
  0
LTYPE
  5
6E
330
5
100
AcDbSymbolTableRecord
100
AcDbLinetypeTableRecord
  2
DOT2
 70
     0
  3
Dot (.5x) ........................................
 72
    65
 73
     2
 40
0.635
 49
0.0
 74
     0
 49
-0.635
 74
     0
  0
ENDTAB
  0
TABLE
  2
LAYER
  5
2
102
{ACAD_XDICTIONARY
360
1E6
102
}
330
0
100
AcDbSymbolTable
 70
    18
  0
LAYER
  5
10
330
2
100
AcDbSymbolTableRecord
100
AcDbLayerTableRecord
  2
0
 70
     0
 62
     7
  6
Continuous
370
    -3
390
F
  0
LAYER
  5
6F
330
2
100
AcDbSymbolTableRecord
100
AcDbLayerTableRecord
  2
FORMAT
 70
     0
 62
     2
  6
Continuous
370
    -3
390
F
  0
LAYER
  5
70
330
2
100
AcDbSymbolTableRecord
100
AcDbLayerTableRecord
  2
외형선
 70
     0
 62
     4
  6
Continuous
370
    30
390
F
  0
LAYER
  5
71
330
2
100
AcDbSymbolTableRecord
100
AcDbLayerTableRecord
  2
숨은선
 70
     0
 62
     2
  6
HIDDEN
370
    15
390
F
  0
LAYER
  5
72
330
2
100
AcDbSymbolTableRecord
100
AcDbLayerTableRecord
  2
중심선
 70
     0
 62
     1
  6
CENTERX2
370
    -3
390
F
  0
LAYER
  5
73
330
2
100
AcDbSymbolTableRecord
100
AcDbLayerTableRecord
  2
파단선
 70
     0
 62
     4
  6
Continuous
370
    -3
390
F
  0
LAYER
  5
74
330
2
100
AcDbSymbolTableRecord
100
AcDbLayerTableRecord
  2
해칭선
 70
     0
 62
   100
  6
Continuous
370
    -3
390
F
  0
LAYER
  5
75
330
2
100
AcDbSymbolTableRecord
100
AcDbLayerTableRecord
  2
가는실선
 70
     0
 62
     4
  6
Continuous
370
    -3
390
F
  0
LAYER
  5
76
330
2
100
AcDbSymbolTableRecord
100
AcDbLayerTableRecord
  2
치수_보조선
 70
     0
 62
     4
  6
Continuous
370
    -3
390
F
  0
LAYER
  5
77
330
2
100
AcDbSymbolTableRecord
100
AcDbLayerTableRecord
  2
치수문자_일반주서
 70
     0
 62
     7
  6
Continuous
370
    15
390
F
  0
LAYER
  5
78
330
2
100
AcDbSymbolTableRecord
100
AcDbLayerTableRecord
  2
개별주서
 70
     0
 62
   100
  6
Continuous
370
    30
390
F
  0
LAYER
  5
79
330
2
100
AcDbSymbolTableRecord
100
AcDbLayerTableRecord
  2
중간선
 70
     0
 62
     2
  6
Continuous
370
    15
390
F
  0
LAYER
  5
7A
330
2
100
AcDbSymbolTableRecord
100
AcDbLayerTableRecord
  2
윤곽선
 70
     0
 62
     3
  6
Continuous
370
    40
390
F
  0
LAYER
  5
7B
330
2
100
AcDbSymbolTableRecord
100
AcDbLayerTableRecord
  2
중심마크
 70
     0
 62
   100
  6
Continuous
370
    30
390
F
  0
LAYER
  5
7C
330
2
100
AcDbSymbolTableRecord
100
AcDbLayerTableRecord
  2
가상선
 70
     0
 62
     4
  6
PHANTOM
370
    -3
390
F
  0
LAYER
  5
7D
330
2
100
AcDbSymbolTableRecord
100
AcDbLayerTableRecord
  2
특수지정선
 70
     0
 62
     5
  6
CENTERX2
370
    60
390
F
  0
LAYER
  5
7E
330
2
100
AcDbSymbolTableRecord
100
AcDbLayerTableRecord
  2
참조1
 70
     0
 62
    -4
  6
Continuous
370
    -3
390
F
  0
LAYER
  5
14B
330
2
100
AcDbSymbolTableRecord
100
AcDbLayerTableRecord
  2
Defpoints
 70
     0
 62
     7
  6
Continuous
290
     0
370
    -3
390
F
  0
ENDTAB
  0
TABLE
  2
STYLE
  5
3
330
0
100
AcDbSymbolTable
 70
     2
  0
STYLE
  5
11
330
3
100
AcDbSymbolTableRecord
100
AcDbTextStyleTableRecord
  2
Standard
 70
     0
 40
0.0
 41
1.0
 50
0.0
 71
     0
 42
3.5
  3
txt
  4

  0
STYLE
  5
94
330
3
100
AcDbSymbolTableRecord
100
AcDbTextStyleTableRecord
  2
SLDTEXTSTYLE0
 70
     0
 40
0.0
 41
0.75
 50
0.0
 71
     0
 42
3.5
  3
TXT
  4

  0
ENDTAB
  0
TABLE
  2
VIEW
  5
6
330
0
100
AcDbSymbolTable
 70
     0
  0
ENDTAB
  0
TABLE
  2
UCS
  5
7
330
0
100
AcDbSymbolTable
 70
     0
  0
ENDTAB
  0
TABLE
  2
APPID
  5
9
330
0
100
AcDbSymbolTable
 70
     1
  0
APPID
  5
12
330
9
100
AcDbSymbolTableRecord
100
AcDbRegAppTableRecord
  2
ACAD
 70
     0
  0
ENDTAB
  0
TABLE
  2
DIMSTYLE
  5
A
330
0
100
AcDbSymbolTable
 70
     4
100
AcDbDimStyleTable
  0
DIMSTYLE
105
27
330
A
100
AcDbSymbolTableRecord
100
AcDbDimStyleTableRecord
  2
ISO-25
 70
     0
 41
2.5
 42
0.625
 43
3.75
 44
1.25
 73
     0
 74
     0
 77
     1
 78
     8
140
2.5
141
2.5
143
0.03937007874016
147
0.625
171
     3
172
     1
178
     0
271
     2
272
     2
274
     3
278
    44
283
     0
284
     8
340
11
  0
DIMSTYLE
105
C8
330
A
100
AcDbSymbolTableRecord
100
AcDbDimStyleTableRecord
  2
SLDDIMSTYLE0
 70
     0
 41
3.302
 44
0.0
 45
0.000000001
 73
     0
 74
     0
 77
     1
 78
    12
 79
     3
140
3.5
143
0.0393700787401575
147
0.875
148
0.000000001
170
     1
173
     1
178
     0
271
     2
272
     2
276
     2
284
    12
340
94
  0
DIMSTYLE
105
F0
102
{ACAD_REACTORS
330
EF
330
C7
330
DC
330
104
102
}
330
A
100
AcDbSymbolTableRecord
100
AcDbDimStyleTableRecord
  2
SLDDIMSTYLE1
 70
     0
 41
3.302
 44
0.0
 45
0.000000001
 73
     0
 74
     0
 77
     1
 78
     4
 79
     1
140
3.5
143
0.0393700787401575
147
0.875
148
0.000000001
170
     1
172
     1
173
     1
178
     0
271
     2
272
     2
276
     2
284
    12
289
     0
340
94
  0
DIMSTYLE
105
105
330
A
100
AcDbSymbolTableRecord
100
AcDbDimStyleTableRecord
  2
SLDDIMSTYLE2
 70
     0
 41
3.302
 44
0.0
 45
0.000000001
 73
     0
 74
     0
 77
     1
 78
     4
 79
     1
140
3.5
143
0.0393700787401575
147
0.875
148
0.000000001
170
     1
173
     1
178
     0
271
     2
272
     2
276
     2
284
    12
340
94
  0
ENDTAB
  0
TABLE
  2
BLOCK_RECORD
  5
1
330
0
100
AcDbSymbolTable
 70
    15
  0
BLOCK_RECORD
  5
1F
330
1
100
AcDbSymbolTableRecord
100
AcDbBlockTableRecord
  2
*Model_Space
340
22
  0
BLOCK_RECORD
  5
1B
330
1
100
AcDbSymbolTableRecord
100
AcDbBlockTableRecord
  2
*Paper_Space
340
1E
  0
BLOCK_RECORD
  5
23
330
1
100
AcDbSymbolTableRecord
100
AcDbBlockTableRecord
  2
*Paper_Space0
340
26
  0
BLOCK_RECORD
  5
7F
330
1
100
AcDbSymbolTableRecord
100
AcDbBlockTableRecord
  2
블럭10
340
0
102
{BLKREFS
331
C0
102
}
  0
BLOCK_RECORD
  5
C9
330
1
100
AcDbSymbolTableRecord
100
AcDbBlockTableRecord
  2
_D
340
0
  0
BLOCK_RECORD
  5
DD
330
1
100
AcDbSymbolTableRecord
100
AcDbBlockTableRecord
  2
_D_1
340
0
  0
BLOCK_RECORD
  5
F1
330
1
100
AcDbSymbolTableRecord
100
AcDbBlockTableRecord
  2
_D_2
340
0
  0
BLOCK_RECORD
  5
106
330
1
100
AcDbSymbolTableRecord
100
AcDbBlockTableRecord
  2
_D_3
340
0
  0
BLOCK_RECORD
  5
11F
330
1
100
AcDbSymbolTableRecord
100
AcDbBlockTableRecord
  2
SW_DOWELSYMBOL_0
340
0
102
{BLKREFS
331
125
102
}
  0
BLOCK_RECORD
  5
1EA
330
1
100
AcDbSymbolTableRecord
100
AcDbBlockTableRecord
  2
*D7
340
0
  0
BLOCK_RECORD
  5
1F6
330
1
100
AcDbSymbolTableRecord
100
AcDbBlockTableRecord
  2
*D8
340
0
  0
BLOCK_RECORD
  5
202
330
1
100
AcDbSymbolTableRecord
100
AcDbBlockTableRecord
  2
*D9
340
0
  0
BLOCK_RECORD
  5
20E
330
1
100
AcDbSymbolTableRecord
100
AcDbBlockTableRecord
  2
*D10
340
0
  0
BLOCK_RECORD
  5
257
330
1
100
AcDbSymbolTableRecord
100
AcDbBlockTableRecord
  2
*D11
340
0
  0
BLOCK_RECORD
  5
263
330
1
100
AcDbSymbolTableRecord
100
AcDbBlockTableRecord
  2
*D12
340
0
  0
BLOCK_RECORD
  5
26F
330
1
100
AcDbSymbolTableRecord
100
AcDbBlockTableRecord
  2
*D13
340
0
  0
BLOCK_RECORD
  5
27B
330
1
100
AcDbSymbolTableRecord
100
AcDbBlockTableRecord
  2
*D14
340
0
  0
ENDTAB
  0
ENDSEC
  0
SECTION
  2
BLOCKS
  0
BLOCK
  5
20
330
1F
100
AcDbEntity
  8
0
100
AcDbBlockBegin
  2
*Model_Space
 70
     0
 10
0.0
 20
0.0
 30
0.0
  3
*Model_Space
  1
*Model_Space
  0
ENDBLK
  5
21
330
1F
100
AcDbEntity
  8
0
100
AcDbBlockEnd
  0
BLOCK
  5
1C
330
1B
100
AcDbEntity
 67
     1
  8
0
100
AcDbBlockBegin
  2
*Paper_Space
 70
     0
 10
0.0
 20
0.0
 30
0.0
  3
*Paper_Space
  1
*Paper_Space
  0
ENDBLK
  5
1D
330
1B
100
AcDbEntity
 67
     1
  8
0
100
AcDbBlockEnd
  0
BLOCK
  5
24
330
23
100
AcDbEntity
  8
0
100
AcDbBlockBegin
  2
*Paper_Space0
 70
     0
 10
0.0
 20
0.0
 30
0.0
  3
*Paper_Space0
  1
*Paper_Space0
  0
ENDBLK
  5
25
330
23
100
AcDbEntity
  8
0
100
AcDbBlockEnd
  0
BLOCK
  5
80
330
7F
100
AcDbEntity
  8
0
100
AcDbBlockBegin
  2
블럭10
 70
     2
 10
0.0
 20
0.0
 30
0.0
  3
블럭10
  1
블럭10
  0
ELLIPSE
  5
82
330
7F
100
AcDbEntity
  8
중심선
100
AcDbEllipse
 10
20.54032771741204
 20
12.0471743016438
 30
0.0
 11
6.600054785286829
 21
-1.261213355974178E-13
 31
0.0
210
0.0
220
0.0
230
1.0
 40
0.636358354079598
 41
0.9219305317359503
 42
6.513795318482858
  0
ELLIPSE
  5
83
330
7F
100
AcDbEntity
  8
중심선
100
AcDbEllipse
 10
20.54032771746488
 20
12.04717430159265
 30
0.0
 11
3.960054785062283
 21
1.540847449632565E-10
 31
0.0
210
0.0
220
0.0
230
1.0
 40
0.3939339440162632
 41
1.131841032648279
 42
5.62031148352944
  0
LINE
  5
84
330
7F
100
AcDbEntity
  8
중심선
100
AcDbLine
 10
2.268634060543552
 20
16.24717430164393
 30
0.0
 11
5.714909304380834
 21
16.24717430164393
 31
0.0
  0
LINE
  5
85
330
7F
100
AcDbEntity
  8
중심선
100
AcDbLine
 10
5.245725140726316
 20
7.84717430164391
 30
0.0
 11
8.692000384563599
 21
7.84717430164391
 31
0.0
  0
LINE
  5
86
330
7F
100
AcDbEntity
  8
중심선
100
AcDbLine
 10
15.74043728645272
 20
16.24717430164393
 30
0.0
 11
8.692000384563599
 21
7.84717430164391
 31
0.0
  0
LINE
  5
87
330
7F
100
AcDbEntity
  8
중심선
100
AcDbLine
 10
0.1404042013395286
 20
13.71084872107135
 30
0.0
 11
3.58671253028996
 21
13.71088815037384
 31
0.0
  0
LINE
  5
88
330
7F
100
AcDbEntity
  8
중심선
100
AcDbLine
 10
2.750260043222114
 20
10.84717430164391
 30
0.0
 11
6.196535287059397
 21
10.84717430164391
 31
0.0
  0
LINE
  5
89
330
7F
100
AcDbEntity
  8
중심선
100
AcDbLine
 10
12.29416204261559
 20
16.24717430164393
 30
0.0
 11
5.245725140726316
 21
7.84717430164391
 31
0.0
  0
LINE
  5
8A
330
7F
100
AcDbEntity
  8
중심선
100
AcDbLine
 10
10.72767329541681
 20
16.24717430164393
 30
0.0
 11
6.196535287059397
 21
10.84717430164391
 31
0.0
  0
LINE
  5
8B
330
7F
100
AcDbEntity
  8
중심선
100
AcDbLine
 10
7.28139805157953
 20
16.24717430164393
 30
0.0
 11
2.750260043222114
 21
10.84717430164391
 31
0.0
  0
LINE
  5
8C
330
7F
100
AcDbEntity
  8
중심선
100
AcDbLine
 10
5.714909304380834
 20
16.24717430164393
 30
0.0
 11
3.58671253028996
 21
13.71088815037384
 31
0.0
  0
LINE
  5
8D
330
7F
100
AcDbEntity
  8
중심선
100
AcDbLine
 10
2.268634060543552
 20
16.24717430164393
 30
0.0
 11
0.1404042013395286
 21
13.71084872107135
 31
0.0
  0
LINE
  5
8E
330
7F
100
AcDbEntity
  8
중심선
100
AcDbLine
 10
7.28139805157953
 20
16.24717430164393
 30
0.0
 11
10.72767329541681
 21
16.24717430164393
 31
0.0
  0
LINE
  5
8F
330
7F
100
AcDbEntity
  8
중심선
100
AcDbLine
 10
12.29416204261559
 20
16.24717430164393
 30
0.0
 11
15.74043728645272
 21
16.24717430164393
 31
0.0
  0
LINE
  5
90
330
7F
100
AcDbEntity
  8
중심선
100
AcDbLine
 10
19.22036997980202
 20
11.08717430171403
 30
0.0
 11
23.66174974927406
 21
11.08717430171406
 31
0.0
  0
LINE
  5
91
330
7F
100
AcDbEntity
  8
중심선
100
AcDbLine
 10
19.22039502424796
 20
13.00717430171391
 30
0.0
 11
19.22036997980202
 21
11.08717430171403
 31
0.0
  0
LINE
  5
92
330
7F
100
AcDbEntity
  8
중심선
100
AcDbLine
 10
19.22039502424796
 20
13.00717430171391
 30
0.0
 11
26.96566020931264
 21
13.00717430171391
 31
0.0
  0
LINE
  5
93
330
7F
100
AcDbEntity
  8
중심선
100
AcDbLine
 10
22.22332737316547
 20
13.45928029700563
 30
0.0
 11
24.52862924686651
 21
15.39360700705356
 31
0.0
  0
ATTDEF
  5
95
330
7F
100
AcDbEntity
  8
FORMAT
 62
     2
100
AcDbText
 10
4.408487351596664
 20
2.075366912832191
 30
0.0
 40
4.233333333333333
  1
E2031032
 41
0.75
  7
SLDTEXTSTYLE0
 11
4.408487351596664
 21
-0.0412997538344756
 31
0.0
100
AcDbAttributeDefinition
  3

  2
AUTOATTR0
 70
     0
 74
     1
  0
ENDBLK
  5
81
330
7F
100
AcDbEntity
  8
0
100
AcDbBlockEnd
  0
BLOCK
  5
CA
330
C9
100
AcDbEntity
  8
0
100
AcDbBlockBegin
  2
_D
 70
     0
 10
0.0
 20
0.0
 30
0.0
  3
_D
  1
_D
  0
LINE
  5
CC
330
C9
100
AcDbEntity
  8
치수문자_일반주서
 62
     0
370
    -2
100
AcDbLine
 10
41.75000000000001
 20
6.412500000000005
 30
0.0
 11
41.75000000000001
 21
19.50748634215365
 31
0.0
  0
LINE
  5
CD
330
C9
100
AcDbEntity
  8
치수문자_일반주서
 62
     0
370
    -2
100
AcDbLine
 10
10.00000000000002
 20
6.321897172882123
 30
0.0
 11
10.00000000000002
 21
19.50748634215365
 31
0.0
  0
LINE
  5
CE
330
C9
100
AcDbEntity
  8
치수문자_일반주서
 62
     0
370
    -2
100
AcDbLine
 10
38.44800000000001
 20
19.50748634215365
 30
0.0
 11
13.30200000000002
 21
19.50748634215365
 31
0.0
  0
SOLID
  5
CF
330
C9
100
AcDbEntity
  8
치수문자_일반주서
 62
     0
100
AcDbTrace
 10
38.44800000000001
 20
18.95715300882032
 30
0.0
 11
38.44800000000001
 21
20.05781967548699
 31
0.0
 12
41.75000000000001
 22
19.50748634215365
 32
0.0
 13
41.75000000000001
 23
19.50748634215365
 33
0.0
  0
SOLID
  5
D0
330
C9
100
AcDbEntity
  8
치수문자_일반주서
 62
     0
100
AcDbTrace
 10
13.30200000000002
 20
20.05781967548699
 30
0.0
 11
13.30200000000002
 21
18.95715300882032
 31
0.0
 12
10.00000000000002
 22
19.50748634215365
 32
0.0
 13
10.00000000000002
 23
19.50748634215365
 33
0.0
  0
MTEXT
  5
D1
330
C9
100
AcDbEntity
  8
치수문자_일반주서
 62
     0
100
AcDbMText
 10
23.90273539870468
 20
23.88248634215365
 30
0.0
 40
3.5
 41
0.0
 71
     2
 72
     1
  1
\A1;31.75 [1 1/4]
  7
SLDTEXTSTYLE0
 73
     1
 44
1.0
  0
POINT
  5
D2
330
C9
100
AcDbEntity
  8
Defpoints
 62
     0
100
AcDbPoint
 10
41.75000000000001
 20
6.350000000000005
 30
0.0
  0
POINT
  5
D3
330
C9
100
AcDbEntity
  8
Defpoints
 62
     0
100
AcDbPoint
 10
10.00000000000002
 20
6.259397172882123
 30
0.0
  0
POINT
  5
D4
330
C9
100
AcDbEntity
  8
Defpoints
 62
     0
100
AcDbPoint
 10
10.00000000000002
 20
19.50748634215365
 30
0.0
  0
ENDBLK
  5
CB
330
C9
100
AcDbEntity
  8
0
100
AcDbBlockEnd
  0
BLOCK
  5
DE
330
DD
100
AcDbEntity
  8
0
100
AcDbBlockBegin
  2
_D_1
 70
     0
 10
0.0
 20
0.0
 30
0.0
  3
_D_1
  1
_D_1
  0
LINE
  5
E0
330
DD
100
AcDbEntity
  8
치수문자_일반주서
 62
     0
370
    -2
100
AcDbLine
 10
41.75000000000001
 20
6.412500000000005
 30
0.0
 11
41.75000000000001
 21
30.4569764480339
 31
0.0
  0
LINE
  5
E1
330
DD
100
AcDbEntity
  8
치수문자_일반주서
 62
     0
370
    -2
100
AcDbLine
 10
-40.79999999999998
 20
5.142500000000002
 30
0.0
 11
-40.79999999999998
 21
30.4569764480339
 31
0.0
  0
LINE
  5
E2
330
DD
100
AcDbEntity
  8
치수문자_일반주서
 62
     0
370
    -2
100
AcDbLine
 10
38.44800000000001
 20
30.4569764480339
 30
0.0
 11
-37.49799999999998
 21
30.4569764480339
 31
0.0
  0
SOLID
  5
E3
330
DD
100
AcDbEntity
  8
치수문자_일반주서
 62
     0
100
AcDbTrace
 10
38.44800000000001
 20
29.90664311470056
 30
0.0
 11
38.44800000000001
 21
31.00730978136723
 31
0.0
 12
41.75000000000001
 22
30.4569764480339
 32
0.0
 13
41.75000000000001
 23
30.4569764480339
 33
0.0
  0
SOLID
  5
E4
330
DD
100
AcDbEntity
  8
치수문자_일반주서
 62
     0
100
AcDbTrace
 10
-37.49799999999998
 20
31.00730978136723
 30
0.0
 11
-37.49799999999998
 21
29.90664311470056
 31
0.0
 12
-40.79999999999998
 22
30.4569764480339
 32
0.0
 13
-40.79999999999998
 23
30.4569764480339
 33
0.0
  0
MTEXT
  5
E5
330
DD
100
AcDbEntity
  8
치수문자_일반주서
 62
     0
100
AcDbMText
 10
0.7758392170891479
 20
34.8319764480339
 30
0.0
 40
3.5
 41
0.0
 71
     2
 72
     1
  1
\A1;82.55 [3 1/4]
  7
SLDTEXTSTYLE0
 73
     1
 44
1.0
  0
POINT
  5
E6
330
DD
100
AcDbEntity
  8
Defpoints
 62
     0
100
AcDbPoint
 10
41.75000000000001
 20
6.350000000000005
 30
0.0
  0
POINT
  5
E7
330
DD
100
AcDbEntity
  8
Defpoints
 62
     0
100
AcDbPoint
 10
-40.79999999999998
 20
5.080000000000002
 30
0.0
  0
POINT
  5
E8
330
DD
100
AcDbEntity
  8
Defpoints
 62
     0
100
AcDbPoint
 10
-40.79999999999998
 20
30.4569764480339
 30
0.0
  0
ENDBLK
  5
DF
330
DD
100
AcDbEntity
  8
0
100
AcDbBlockEnd
  0
BLOCK
  5
F2
330
F1
100
AcDbEntity
  8
0
100
AcDbBlockBegin
  2
_D_2
 70
     0
 10
0.0
 20
0.0
 30
0.0
  3
_D_2
  1
_D_2
  0
LINE
  5
F4
330
F1
100
AcDbEntity
  8
치수문자_일반주서
 62
     0
370
    -2
100
AcDbLine
 10
-39.59249999999999
 20
6.349999999999993
 30
0.0
 11
-51.78327283782721
 21
6.349999999999947
 31
0.0
  0
LINE
  5
F5
330
F1
100
AcDbEntity
  8
치수문자_일반주서
 62
     0
370
    -2
100
AcDbLine
 10
-39.59249999999999
 20
-6.349999999999995
 30
0.0
 11
-51.78327283782716
 21
-6.350000000000041
 31
0.0
  0
LINE
  5
F6
330
F1
100
AcDbEntity
  8
치수문자_일반주서
 62
     0
370
    -2
100
AcDbLine
 10
-51.78327283782719
 20
3.047999999999948
 30
0.0
 11
-51.78327283782718
 21
-3.048000000000042
 31
0.0
  0
SOLID
  5
F7
330
F1
100
AcDbEntity
  8
치수문자_일반주서
 62
     0
100
AcDbTrace
 10
-51.23293950449386
 20
3.047999999999949
 30
0.0
 11
-52.33360617116053
 21
3.047999999999946
 31
0.0
 12
-51.78327283782721
 22
6.349999999999947
 32
0.0
 13
-51.78327283782721
 23
6.349999999999947
 33
0.0
  0
SOLID
  5
F8
330
F1
100
AcDbEntity
  8
치수문자_일반주서
 62
     0
100
AcDbTrace
 10
-52.33360617116051
 20
-3.048000000000044
 30
0.0
 11
-51.23293950449384
 21
-3.04800000000004
 31
0.0
 12
-51.78327283782716
 22
-6.350000000000041
 32
0.0
 13
-51.78327283782716
 23
-6.350000000000041
 33
0.0
  0
MTEXT
  5
F9
330
F1
100
AcDbEntity
  8
치수문자_일반주서
 62
     0
100
AcDbMText
 10
-56.15827283782718
 20
-0.0000000000000216
 30
0.0
 40
3.5
 41
0.0
 71
     2
 72
     1
  1
\A1;%%c12.70 [1/2]
  7
SLDTEXTSTYLE0
 11
-3.356894814614650E-15
 21
1.0
 31
0.0
 73
     1
 44
1.0
  0
POINT
  5
FA
330
F1
100
AcDbEntity
  8
Defpoints
 62
     0
100
AcDbPoint
 10
-39.52999999999999
 20
6.349999999999993
 30
0.0
  0
POINT
  5
FB
330
F1
100
AcDbEntity
  8
Defpoints
 62
     0
100
AcDbPoint
 10
-39.52999999999999
 20
-6.349999999999995
 30
0.0
  0
POINT
  5
FC
330
F1
100
AcDbEntity
  8
Defpoints
 62
     0
100
AcDbPoint
 10
-51.78327283782716
 20
-6.350000000000041
 30
0.0
  0
ENDBLK
  5
F3
330
F1
100
AcDbEntity
  8
0
100
AcDbBlockEnd
  0
BLOCK
  5
107
330
106
100
AcDbEntity
  8
0
100
AcDbBlockBegin
  2
_D_3
 70
     0
 10
0.0
 20
0.0
 30
0.0
  3
_D_3
  1
_D_3
  0
LINE
  5
109
330
106
100
AcDbEntity
  8
치수문자_일반주서
 62
     0
370
    -2
100
AcDbLine
 10
41.81250000000001
 20
6.350000000000005
 30
0.0
 11
59.66481388442249
 21
6.350000000000072
 31
0.0
  0
LINE
  5
10A
330
106
100
AcDbEntity
  8
치수문자_일반주서
 62
     0
370
    -2
100
AcDbLine
 10
41.81250000000001
 20
-6.349999999999994
 30
0.0
 11
59.66481388442253
 21
-6.34999999999993
 31
0.0
  0
LINE
  5
10B
330
106
100
AcDbEntity
  8
치수문자_일반주서
 62
     0
370
    -2
100
AcDbLine
 10
59.66481388442249
 20
6.350000000000072
 30
0.0
 11
59.66481388442234
 21
48.31329155664181
 31
0.0
  0
LINE
  5
10C
330
106
100
AcDbEntity
  8
치수문자_일반주서
 62
     0
370
    -2
100
AcDbLine
 10
59.66481388442249
 20
6.350000000000072
 30
0.0
 11
59.66481388442253
 21
-6.34999999999993
 31
0.0
  0
LINE
  5
10D
330
106
100
AcDbEntity
  8
치수문자_일반주서
 62
     0
370
    -2
100
AcDbLine
 10
59.66481388442247
 20
9.652000000000072
 30
0.0
 11
59.66481388442246
 21
12.95400000000007
 31
0.0
  0
LINE
  5
10E
330
106
100
AcDbEntity
  8
치수문자_일반주서
 62
     0
370
    -2
100
AcDbLine
 10
59.66481388442254
 20
-9.65199999999993
 30
0.0
 11
59.66481388442256
 21
-12.95399999999993
 31
0.0
  0
SOLID
  5
10F
330
106
100
AcDbEntity
  8
치수문자_일반주서
 62
     0
100
AcDbTrace
 10
59.11448055108914
 20
9.65200000000007
 30
0.0
 11
60.21514721775581
 21
9.652000000000074
 31
0.0
 12
59.66481388442249
 22
6.350000000000072
 32
0.0
 13
59.66481388442249
 23
6.350000000000072
 33
0.0
  0
SOLID
  5
110
330
106
100
AcDbEntity
  8
치수문자_일반주서
 62
     0
100
AcDbTrace
 10
60.21514721775588
 20
-9.651999999999928
 30
0.0
 11
59.11448055108921
 21
-9.651999999999932
 31
0.0
 12
59.66481388442253
 22
-6.34999999999993
 32
0.0
 13
59.66481388442253
 23
-6.34999999999993
 33
0.0
  0
MTEXT
  5
111
330
106
100
AcDbEntity
  8
치수문자_일반주서
 62
     0
100
AcDbMText
 10
55.28981388442239
 20
34.9695415566418
 30
0.0
 40
3.5
 41
0.0
 71
     2
 72
     1
  1
\A1;%%c12.70 [1/2]
  7
SLDTEXTSTYLE0
 11
-3.356894814614647E-15
 21
1.0
 31
0.0
 73
     1
 44
1.0
  0
POINT
  5
112
330
106
100
AcDbEntity
  8
Defpoints
 62
     0
100
AcDbPoint
 10
41.75000000000001
 20
6.350000000000005
 30
0.0
  0
POINT
  5
28C
330
106
100
AcDbEntity
  8
Defpoints
 62
     0
100
AcDbPoint
 10
41.75000000000001
 20
-6.349999999999994
 30
0.0
  0
POINT
  5
28D
330
106
100
AcDbEntity
  8
Defpoints
 62
     0
100
AcDbPoint
 10
59.66481388442253
 20
-6.349999999999928
 30
0.0
  0
ENDBLK
  5
108
330
106
100
AcDbEntity
  8
0
100
AcDbBlockEnd
  0
BLOCK
  5
120
330
11F
100
AcDbEntity
  8
0
100
AcDbBlockBegin
  2
SW_DOWELSYMBOL_0
 70
     0
 10
0.0
 20
0.0
 30
0.0
  3
SW_DOWELSYMBOL_0
  1
SW_DOWELSYMBOL_0
  0
CIRCLE
  5
122
330
11F
100
AcDbEntity
  8
해칭선
 62
     0
100
AcDbCircle
 10
0.0
 20
0.0
 30
0.0
 40
3.000000000000001
  0
HATCH
  5
123
330
11F
100
AcDbEntity
  8
0
  6
Continuous
 62
     0
370
     0
100
AcDbHatch
 10
0.0
 20
0.0
 30
0.0
210
0.0
220
0.0
230
1.0
  2
SOLID
 70
     1
 71
     0
 91
        1
 92
        0
 93
        3
 72
     2
 10
0.0
 20
0.0
 40
3.000000000000001
 50
0.0
 51
90.0
 73
     1
 72
     1
 10
0.0
 20
3.000000000000001
 11
0.0
 21
0.0
 72
     1
 10
0.0
 20
0.0
 11
3.000000000000001
 21
0.0
 97
        0
 75
     0
 76
     1
 98
        1
 10
0.0
 20
0.0
  0
HATCH
  5
124
330
11F
100
AcDbEntity
  8
0
  6
Continuous
 62
     0
370
     0
100
AcDbHatch
 10
0.0
 20
0.0
 30
0.0
210
0.0
220
0.0
230
1.0
  2
SOLID
 70
     1
 71
     0
 91
        1
 92
        0
 93
        3
 72
     2
 10
0.0
 20
0.0
 40
3.000000000000001
 50
180.0
 51
270.0000000000007
 73
     1
 72
     1
 10
0.0
 20
-3.000000000000001
 11
0.0
 21
0.0
 72
     1
 10
0.0
 20
0.0
 11
-3.000000000000001
 21
0.0
 97
        0
 75
     0
 76
     1
 98
        1
 10
0.0
 20
0.0
  0
ENDBLK
  5
121
330
11F
100
AcDbEntity
  8
0
100
AcDbBlockEnd
  0
BLOCK
  5
1EB
330
1EA
100
AcDbEntity
  8
0
100
AcDbBlockBegin
  2
*D7
 70
     1
 10
0.0
 20
0.0
 30
0.0
  3
*D7
  1
*D8
  0
LINE
  5
1ED
330
1EA
100
AcDbEntity
  8
치수문자_일반주서
 62
     0
370
    -2
100
AcDbLine
 10
97.90827283782724
 20
18.96962499999995
 30
0.0
 11
97.90827283782724
 21
30.18000505024955
 31
0.0
  0
LINE
  5
1EE
330
1EA
100
AcDbEntity
  8
치수문자_일반주서
 62
     0
370
    -2
100
AcDbLine
 10
66.15827283782724
 20
18.95193298788355
 30
0.0
 11
66.15827283782724
 21
30.18000505024955
 31
0.0
  0
LINE
  5
1EF
330
1EA
100
AcDbEntity
  8
치수문자_일반주서
 62
     0
370
    -2
100
AcDbLine
 10
94.60627283782725
 20
30.18000505024955
 30
0.0
 11
69.46027283782723
 21
30.18000505024955
 31
0.0
  0
SOLID
  5
1F0
330
1EA
100
AcDbEntity
  8
치수문자_일반주서
 62
     0
100
AcDbTrace
 10
94.60627283782725
 20
29.62967171691622
 30
0.0
 11
94.60627283782725
 21
30.73033838358289
 31
0.0
 12
97.90827283782724
 22
30.18000505024955
 32
0.0
 13
97.90827283782724
 23
30.18000505024955
 33
0.0
  0
SOLID
  5
1F1
330
1EA
100
AcDbEntity
  8
치수문자_일반주서
 62
     0
100
AcDbTrace
 10
69.46027283782723
 20
30.73033838358289
 30
0.0
 11
69.46027283782723
 21
29.62967171691622
 31
0.0
 12
66.15827283782724
 22
30.18000505024955
 32
0.0
 13
66.15827283782724
 23
30.18000505024955
 33
0.0
  0
MTEXT
  5
1F2
330
1EA
100
AcDbEntity
  8
치수문자_일반주서
 62
     0
100
AcDbMText
 10
81.2637164686089
 20
34.55500505024955
 30
0.0
 40
3.5
 41
0.0
 71
     2
 72
     1
  1
\A1;31.75 [1 1/4]
  7
SLDTEXTSTYLE0
 73
     1
 44
1.0
  0
POINT
  5
1F3
330
1EA
100
AcDbEntity
  8
Defpoints
 62
     0
100
AcDbPoint
 10
97.90827283782724
 20
18.90712499999995
 30
0.0
  0
POINT
  5
1F4
330
1EA
100
AcDbEntity
  8
Defpoints
 62
     0
100
AcDbPoint
 10
66.15827283782724
 20
18.88943298788355
 30
0.0
  0
POINT
  5
1F5
330
1EA
100
AcDbEntity
  8
Defpoints
 62
     0
100
AcDbPoint
 10
66.15827283782724
 20
30.18000505024955
 30
0.0
  0
ENDBLK
  5
1EC
330
1EA
100
AcDbEntity
  8
0
100
AcDbBlockEnd
  0
BLOCK
  5
1F7
330
1F6
100
AcDbEntity
  8
0
100
AcDbBlockBegin
  2
*D8
 70
     1
 10
0.0
 20
0.0
 30
0.0
  3
*D8
  1
*D9
  0
LINE
  5
1F9
330
1F6
100
AcDbEntity
  8
치수문자_일반주서
 62
     0
370
    -2
100
AcDbLine
 10
97.90827283782724
 20
18.96962499999995
 30
0.0
 11
97.90827283782724
 21
47.78654627569998
 31
0.0
  0
LINE
  5
1FA
330
1F6
100
AcDbEntity
  8
치수문자_일반주서
 62
     0
370
    -2
100
AcDbLine
 10
15.35827283782724
 20
17.89806249999995
 30
0.0
 11
15.35827283782724
 21
47.78654627569998
 31
0.0
  0
LINE
  5
1FB
330
1F6
100
AcDbEntity
  8
치수문자_일반주서
 62
     0
370
    -2
100
AcDbLine
 10
94.60627283782725
 20
47.78654627569998
 30
0.0
 11
18.66027283782724
 21
47.78654627569998
 31
0.0
  0
SOLID
  5
1FC
330
1F6
100
AcDbEntity
  8
치수문자_일반주서
 62
     0
100
AcDbTrace
 10
94.60627283782725
 20
47.23621294236664
 30
0.0
 11
94.60627283782725
 21
48.33687960903331
 31
0.0
 12
97.90827283782724
 22
47.78654627569998
 32
0.0
 13
97.90827283782724
 23
47.78654627569998
 33
0.0
  0
SOLID
  5
1FD
330
1F6
100
AcDbEntity
  8
치수문자_일반주서
 62
     0
100
AcDbTrace
 10
18.66027283782724
 20
48.33687960903331
 30
0.0
 11
18.66027283782724
 21
47.23621294236664
 31
0.0
 12
15.35827283782724
 22
47.78654627569998
 32
0.0
 13
15.35827283782724
 23
47.78654627569998
 33
0.0
  0
MTEXT
  5
1FE
330
1F6
100
AcDbEntity
  8
치수문자_일반주서
 62
     0
100
AcDbMText
 10
56.63327283782723
 20
52.16154627569998
 30
0.0
 40
3.5
 41
0.0
 71
     2
 72
     1
  1
\A1;82.55 [3 1/4]
  7
SLDTEXTSTYLE0
 73
     1
 44
1.0
  0
POINT
  5
1FF
330
1F6
100
AcDbEntity
  8
Defpoints
 62
     0
100
AcDbPoint
 10
97.90827283782724
 20
18.90712499999995
 30
0.0
  0
POINT
  5
200
330
1F6
100
AcDbEntity
  8
Defpoints
 62
     0
100
AcDbPoint
 10
15.35827283782724
 20
17.83556249999995
 30
0.0
  0
POINT
  5
201
330
1F6
100
AcDbEntity
  8
Defpoints
 62
     0
100
AcDbPoint
 10
15.35827283782724
 20
47.78654627569998
 30
0.0
  0
ENDBLK
  5
1F8
330
1F6
100
AcDbEntity
  8
0
100
AcDbBlockEnd
  0
BLOCK
  5
203
330
202
100
AcDbEntity
  8
0
100
AcDbBlockBegin
  2
*D9
 70
     1
 10
0.0
 20
0.0
 30
0.0
  3
*D9
  1
*D10
  0
LINE
  5
205
330
202
100
AcDbEntity
  8
치수문자_일반주서
 62
     0
370
    -2
100
AcDbLine
 10
16.56577283782723
 20
19.10556249999994
 30
0.0
 11
4.37500000000002
 21
19.10556249999989
 31
0.0
  0
LINE
  5
206
330
202
100
AcDbEntity
  8
치수문자_일반주서
 62
     0
370
    -2
100
AcDbLine
 10
16.56577283782723
 20
6.405562499999951
 30
0.0
 11
4.375000000000065
 21
6.405562499999904
 31
0.0
  0
LINE
  5
207
330
202
100
AcDbEntity
  8
치수문자_일반주서
 62
     0
370
    -2
100
AcDbLine
 10
4.375000000000032
 20
15.8035624999999
 30
0.0
 11
4.375000000000053
 21
9.707562499999904
 31
0.0
  0
SOLID
  5
208
330
202
100
AcDbEntity
  8
치수문자_일반주서
 62
     0
100
AcDbTrace
 10
4.925333333333366
 20
15.8035624999999
 30
0.0
 11
3.824666666666699
 21
15.80356249999989
 31
0.0
 12
4.37500000000002
 22
19.10556249999989
 32
0.0
 13
4.37500000000002
 23
19.10556249999989
 33
0.0
  0
SOLID
  5
209
330
202
100
AcDbEntity
  8
치수문자_일반주서
 62
     0
100
AcDbTrace
 10
3.82466666666672
 20
9.707562499999902
 30
0.0
 11
4.925333333333387
 21
9.707562499999906
 31
0.0
 12
4.375000000000065
 22
6.405562499999904
 32
0.0
 13
4.375000000000065
 23
6.405562499999904
 33
0.0
  0
MTEXT
  5
20A
330
202
100
AcDbEntity
  8
치수문자_일반주서
 62
     0
100
AcDbMText
 10
0.0000000000000426
 20
12.75556249999993
 30
0.0
 40
3.5
 41
0.0
 71
     2
 72
     1
  1
\A1;%%c12.70 [1/2]
  7
SLDTEXTSTYLE0
 11
-3.496765431890259E-15
 21
1.0
 31
0.0
 73
     1
 44
1.0
  0
POINT
  5
20B
330
202
100
AcDbEntity
  8
Defpoints
 62
     0
100
AcDbPoint
 10
16.62827283782723
 20
19.10556249999994
 30
0.0
  0
POINT
  5
20C
330
202
100
AcDbEntity
  8
Defpoints
 62
     0
100
AcDbPoint
 10
16.62827283782723
 20
6.405562499999951
 30
0.0
  0
POINT
  5
20D
330
202
100
AcDbEntity
  8
Defpoints
 62
     0
100
AcDbPoint
 10
4.375000000000064
 20
6.405562499999904
 30
0.0
  0
ENDBLK
  5
204
330
202
100
AcDbEntity
  8
0
100
AcDbBlockEnd
  0
BLOCK
  5
20F
330
20E
100
AcDbEntity
  8
0
100
AcDbBlockBegin
  2
*D10
 70
     1
 10
0.0
 20
0.0
 30
0.0
  3
*D10
  1
*D11
  0
LINE
  5
211
330
20E
100
AcDbEntity
  8
치수문자_일반주서
 62
     0
370
    -2
100
AcDbLine
 10
97.97077283782723
 20
18.90712499999995
 30
0.0
 11
111.40318141395
 21
18.907125
 31
0.0
  0
LINE
  5
212
330
20E
100
AcDbEntity
  8
치수문자_일반주서
 62
     0
370
    -2
100
AcDbLine
 10
97.97077283782723
 20
6.603999999999951
 30
0.0
 11
111.40318141395
 21
6.603999999999999
 31
0.0
  0
LINE
  5
213
330
20E
100
AcDbEntity
  8
치수문자_일반주서
 62
     0
370
    -2
100
AcDbLine
 10
111.40318141395
 20
18.907125
 30
0.0
 11
111.4031814139498
 21
58.0139808151342
 31
0.0
  0
LINE
  5
214
330
20E
100
AcDbEntity
  8
치수문자_일반주서
 62
     0
370
    -2
100
AcDbLine
 10
111.40318141395
 20
18.907125
 30
0.0
 11
111.40318141395
 21
6.603999999999999
 31
0.0
  0
LINE
  5
215
330
20E
100
AcDbEntity
  8
치수문자_일반주서
 62
     0
370
    -2
100
AcDbLine
 10
111.40318141395
 20
22.209125
 30
0.0
 11
111.40318141395
 21
25.511125
 31
0.0
  0
LINE
  5
216
330
20E
100
AcDbEntity
  8
치수문자_일반주서
 62
     0
370
    -2
100
AcDbLine
 10
111.40318141395
 20
3.302
 30
0.0
 11
111.4031814139501
 21
0.0
 31
0.0
  0
SOLID
  5
217
330
20E
100
AcDbEntity
  8
치수문자_일반주서
 62
     0
100
AcDbTrace
 10
110.8528480806166
 20
22.209125
 30
0.0
 11
111.9535147472833
 21
22.209125
 31
0.0
 12
111.40318141395
 22
18.907125
 32
0.0
 13
111.40318141395
 23
18.907125
 33
0.0
  0
SOLID
  5
218
330
20E
100
AcDbEntity
  8
치수문자_일반주서
 62
     0
100
AcDbTrace
 10
111.9535147472834
 20
3.302000000000001
 30
0.0
 11
110.8528480806167
 21
3.301999999999998
 31
0.0
 12
111.40318141395
 22
6.603999999999999
 32
0.0
 13
111.40318141395
 23
6.603999999999999
 33
0.0
  0
MTEXT
  5
219
330
20E
100
AcDbEntity
  8
치수문자_일반주서
 62
     0
100
AcDbMText
 10
107.0281814139499
 20
42.04523081513419
 30
0.0
 40
3.5
 41
0.0
 71
     2
 72
     1
  1
\A1;%%c12.30 [31/64]
  7
SLDTEXTSTYLE0
 11
-3.465181744118346E-15
 21
1.0
 31
0.0
 73
     1
 44
1.0
  0
POINT
  5
21A
330
20E
100
AcDbEntity
  8
Defpoints
 62
     0
100
AcDbPoint
 10
97.90827283782723
 20
18.90712499999995
 30
0.0
  0
POINT
  5
21B
330
20E
100
AcDbEntity
  8
Defpoints
 62
     0
100
AcDbPoint
 10
97.90827283782723
 20
6.603999999999951
 30
0.0
  0
POINT
  5
21C
330
20E
100
AcDbEntity
  8
Defpoints
 62
     0
100
AcDbPoint
 10
111.40318141395
 20
6.604000000000002
 30
0.0
  0
ENDBLK
  5
210
330
20E
100
AcDbEntity
  8
0
100
AcDbBlockEnd
  0
BLOCK
  5
258
330
257
100
AcDbEntity
  8
0
100
AcDbBlockBegin
  2
*D11
 70
     1
 10
0.0
 20
0.0
 30
0.0
  3
*D11
  1
*D12
  0
LINE
  5
25A
330
257
100
AcDbEntity
  8
치수문자_일반주서
 62
     0
370
    -2
100
AcDbLine
 10
194.4043179274263
 20
-52.8342549867053
 30
0.0
 11
194.4043179274263
 21
-41.62387493645571
 31
0.0
  0
LINE
  5
25B
330
257
100
AcDbEntity
  8
치수문자_일반주서
 62
     0
370
    -2
100
AcDbLine
 10
162.6543179274263
 20
-52.8519469988217
 30
0.0
 11
162.6543179274263
 21
-41.62387493645571
 31
0.0
  0
LINE
  5
25C
330
257
100
AcDbEntity
  8
치수문자_일반주서
 62
     0
370
    -2
100
AcDbLine
 10
191.1023179274263
 20
-41.62387493645571
 30
0.0
 11
165.9563179274263
 21
-41.62387493645571
 31
0.0
  0
SOLID
  5
25D
330
257
100
AcDbEntity
  8
치수문자_일반주서
 62
     0
100
AcDbTrace
 10
191.1023179274263
 20
-42.17420826978904
 30
0.0
 11
191.1023179274263
 21
-41.07354160312237
 31
0.0
 12
194.4043179274263
 22
-41.62387493645571
 32
0.0
 13
194.4043179274263
 23
-41.62387493645571
 33
0.0
  0
SOLID
  5
25E
330
257
100
AcDbEntity
  8
치수문자_일반주서
 62
     0
100
AcDbTrace
 10
165.9563179274263
 20
-41.07354160312237
 30
0.0
 11
165.9563179274263
 21
-42.17420826978904
 31
0.0
 12
162.6543179274263
 22
-41.62387493645571
 32
0.0
 13
162.6543179274263
 23
-41.62387493645571
 33
0.0
  0
MTEXT
  5
25F
330
257
100
AcDbEntity
  8
치수문자_일반주서
 62
     0
100
AcDbMText
 10
177.7597615582079
 20
-37.24887493645571
 30
0.0
 40
3.5
 41
0.0
 71
     2
 72
     1
  1
\A1;31.75 [1 1/4]
  7
SLDTEXTSTYLE0
 73
     1
 44
1.0
  0
POINT
  5
260
330
257
100
AcDbEntity
  8
Defpoints
 62
     0
100
AcDbPoint
 10
194.4043179274263
 20
-52.8967549867053
 30
0.0
  0
POINT
  5
261
330
257
100
AcDbEntity
  8
Defpoints
 62
     0
100
AcDbPoint
 10
162.6543179274263
 20
-52.9144469988217
 30
0.0
  0
POINT
  5
262
330
257
100
AcDbEntity
  8
Defpoints
 62
     0
100
AcDbPoint
 10
162.6543179274263
 20
-41.62387493645571
 30
0.0
  0
ENDBLK
  5
259
330
257
100
AcDbEntity
  8
0
100
AcDbBlockEnd
  0
BLOCK
  5
264
330
263
100
AcDbEntity
  8
0
100
AcDbBlockBegin
  2
*D12
 70
     1
 10
0.0
 20
0.0
 30
0.0
  3
*D12
  1
*D13
  0
LINE
  5
266
330
263
100
AcDbEntity
  8
치수문자_일반주서
 62
     0
370
    -2
100
AcDbLine
 10
194.4043179274263
 20
-52.8342549867053
 30
0.0
 11
194.4043179274263
 21
-24.01733371100528
 31
0.0
  0
LINE
  5
267
330
263
100
AcDbEntity
  8
치수문자_일반주서
 62
     0
370
    -2
100
AcDbLine
 10
111.8543179274263
 20
-53.9058174867053
 30
0.0
 11
111.8543179274263
 21
-24.01733371100528
 31
0.0
  0
LINE
  5
268
330
263
100
AcDbEntity
  8
치수문자_일반주서
 62
     0
370
    -2
100
AcDbLine
 10
191.1023179274263
 20
-24.01733371100528
 30
0.0
 11
115.1563179274263
 21
-24.01733371100528
 31
0.0
  0
SOLID
  5
269
330
263
100
AcDbEntity
  8
치수문자_일반주서
 62
     0
100
AcDbTrace
 10
191.1023179274263
 20
-24.56766704433861
 30
0.0
 11
191.1023179274263
 21
-23.46700037767194
 31
0.0
 12
194.4043179274263
 22
-24.01733371100528
 32
0.0
 13
194.4043179274263
 23
-24.01733371100528
 33
0.0
  0
SOLID
  5
26A
330
263
100
AcDbEntity
  8
치수문자_일반주서
 62
     0
100
AcDbTrace
 10
115.1563179274263
 20
-23.46700037767194
 30
0.0
 11
115.1563179274263
 21
-24.56766704433861
 31
0.0
 12
111.8543179274263
 22
-24.01733371100528
 32
0.0
 13
111.8543179274263
 23
-24.01733371100528
 33
0.0
  0
MTEXT
  5
26B
330
263
100
AcDbEntity
  8
치수문자_일반주서
 62
     0
100
AcDbMText
 10
153.1293179274263
 20
-19.64233371100528
 30
0.0
 40
3.5
 41
0.0
 71
     2
 72
     1
  1
\A1;82.55 [3 1/4]
  7
SLDTEXTSTYLE0
 73
     1
 44
1.0
  0
POINT
  5
26C
330
263
100
AcDbEntity
  8
Defpoints
 62
     0
100
AcDbPoint
 10
194.4043179274263
 20
-52.8967549867053
 30
0.0
  0
POINT
  5
26D
330
263
100
AcDbEntity
  8
Defpoints
 62
     0
100
AcDbPoint
 10
111.8543179274263
 20
-53.9683174867053
 30
0.0
  0
POINT
  5
26E
330
263
100
AcDbEntity
  8
Defpoints
 62
     0
100
AcDbPoint
 10
111.8543179274263
 20
-24.01733371100528
 30
0.0
  0
ENDBLK
  5
265
330
263
100
AcDbEntity
  8
0
100
AcDbBlockEnd
  0
BLOCK
  5
270
330
26F
100
AcDbEntity
  8
0
100
AcDbBlockBegin
  2
*D13
 70
     1
 10
0.0
 20
0.0
 30
0.0
  3
*D13
  1
*D14
  0
LINE
  5
272
330
26F
100
AcDbEntity
  8
치수문자_일반주서
 62
     0
370
    -2
100
AcDbLine
 10
113.0618179274263
 20
-52.69831748670531
 30
0.0
 11
100.8710450895991
 21
-52.69831748670536
 31
0.0
  0
LINE
  5
273
330
26F
100
AcDbEntity
  8
치수문자_일반주서
 62
     0
370
    -2
100
AcDbLine
 10
113.0618179274263
 20
-65.39831748670531
 30
0.0
 11
100.8710450895991
 21
-65.39831748670537
 31
0.0
  0
LINE
  5
274
330
26F
100
AcDbEntity
  8
치수문자_일반주서
 62
     0
370
    -2
100
AcDbLine
 10
100.8710450895991
 20
-56.00031748670536
 30
0.0
 11
100.8710450895991
 21
-62.09631748670537
 31
0.0
  0
SOLID
  5
275
330
26F
100
AcDbEntity
  8
치수문자_일반주서
 62
     0
100
AcDbTrace
 10
101.4213784229324
 20
-56.00031748670536
 30
0.0
 11
100.3207117562657
 21
-56.00031748670536
 31
0.0
 12
100.8710450895991
 22
-52.69831748670536
 32
0.0
 13
100.8710450895991
 23
-52.69831748670536
 33
0.0
  0
SOLID
  5
276
330
26F
100
AcDbEntity
  8
치수문자_일반주서
 62
     0
100
AcDbTrace
 10
100.3207117562658
 20
-62.09631748670537
 30
0.0
 11
101.4213784229324
 21
-62.09631748670537
 31
0.0
 12
100.8710450895991
 22
-65.39831748670537
 32
0.0
 13
100.8710450895991
 23
-65.39831748670537
 33
0.0
  0
MTEXT
  5
277
330
26F
100
AcDbEntity
  8
치수문자_일반주서
 62
     0
100
AcDbMText
 10
96.49604508959906
 20
-59.04831748670533
 30
0.0
 40
3.5
 41
0.0
 71
     2
 72
     1
  1
\A1;%%c12.70 [1/2]
  7
SLDTEXTSTYLE0
 11
-3.356894814614650E-15
 21
1.0
 31
0.0
 73
     1
 44
1.0
  0
POINT
  5
278
330
26F
100
AcDbEntity
  8
Defpoints
 62
     0
100
AcDbPoint
 10
113.1243179274263
 20
-52.69831748670531
 30
0.0
  0
POINT
  5
279
330
26F
100
AcDbEntity
  8
Defpoints
 62
     0
100
AcDbPoint
 10
113.1243179274263
 20
-65.39831748670531
 30
0.0
  0
POINT
  5
27A
330
26F
100
AcDbEntity
  8
Defpoints
 62
     0
100
AcDbPoint
 10
100.8710450895991
 20
-65.39831748670535
 30
0.0
  0
ENDBLK
  5
271
330
26F
100
AcDbEntity
  8
0
100
AcDbBlockEnd
  0
BLOCK
  5
27C
330
27B
100
AcDbEntity
  8
0
100
AcDbBlockBegin
  2
*D14
 70
     1
 10
0.0
 20
0.0
 30
0.0
  3
*D14
  1
*D15
  0
LINE
  5
27E
330
27B
100
AcDbEntity
  8
치수문자_일반주서
 62
     0
370
    -2
100
AcDbLine
 10
194.4668179274262
 20
-52.8967549867053
 30
0.0
 11
207.899226503549
 21
-52.89675498670525
 31
0.0
  0
LINE
  5
27F
330
27B
100
AcDbEntity
  8
치수문자_일반주서
 62
     0
370
    -2
100
AcDbLine
 10
194.4668179274262
 20
-65.1998799867053
 30
0.0
 11
207.8992265035491
 21
-65.19987998670524
 31
0.0
  0
LINE
  5
280
330
27B
100
AcDbEntity
  8
치수문자_일반주서
 62
     0
370
    -2
100
AcDbLine
 10
207.899226503549
 20
-52.89675498670525
 30
0.0
 11
207.8992265035488
 21
-13.78989917157105
 31
0.0
  0
LINE
  5
281
330
27B
100
AcDbEntity
  8
치수문자_일반주서
 62
     0
370
    -2
100
AcDbLine
 10
207.899226503549
 20
-52.89675498670525
 30
0.0
 11
207.8992265035491
 21
-65.19987998670524
 31
0.0
  0
LINE
  5
282
330
27B
100
AcDbEntity
  8
치수문자_일반주서
 62
     0
370
    -2
100
AcDbLine
 10
207.899226503549
 20
-49.59475498670525
 30
0.0
 11
207.899226503549
 21
-46.29275498670525
 31
0.0
  0
LINE
  5
283
330
27B
100
AcDbEntity
  8
치수문자_일반주서
 62
     0
370
    -2
100
AcDbLine
 10
207.8992265035491
 20
-68.50187998670523
 30
0.0
 11
207.8992265035491
 21
-71.80387998670523
 31
0.0
  0
SOLID
  5
284
330
27B
100
AcDbEntity
  8
치수문자_일반주서
 62
     0
100
AcDbTrace
 10
207.3488931702157
 20
-49.59475498670525
 30
0.0
 11
208.4495598368823
 21
-49.59475498670525
 31
0.0
 12
207.899226503549
 22
-52.89675498670525
 32
0.0
 13
207.899226503549
 23
-52.89675498670525
 33
0.0
  0
SOLID
  5
285
330
27B
100
AcDbEntity
  8
치수문자_일반주서
 62
     0
100
AcDbTrace
 10
208.4495598368824
 20
-68.50187998670523
 30
0.0
 11
207.3488931702158
 21
-68.50187998670523
 31
0.0
 12
207.8992265035491
 22
-65.19987998670524
 32
0.0
 13
207.8992265035491
 23
-65.19987998670524
 33
0.0
  0
MTEXT
  5
286
330
27B
100
AcDbEntity
  8
치수문자_일반주서
 62
     0
100
AcDbMText
 10
203.5242265035489
 20
-29.75864917157107
 30
0.0
 40
3.5
 41
0.0
 71
     2
 72
     1
  1
\A1;%%c12.30 [31/64]
  7
SLDTEXTSTYLE0
 11
-4.620242325491131E-15
 21
1.0
 31
0.0
 73
     1
 44
1.0
  0
POINT
  5
287
330
27B
100
AcDbEntity
  8
Defpoints
 62
     0
100
AcDbPoint
 10
194.4043179274262
 20
-52.8967549867053
 30
0.0
  0
POINT
  5
288
330
27B
100
AcDbEntity
  8
Defpoints
 62
     0
100
AcDbPoint
 10
194.4043179274262
 20
-65.1998799867053
 30
0.0
  0
POINT
  5
289
330
27B
100
AcDbEntity
  8
Defpoints
 62
     0
100
AcDbPoint
 10
207.899226503549
 20
-65.19987998670524
 30
0.0
  0
ENDBLK
  5
27D
330
27B
100
AcDbEntity
  8
0
100
AcDbBlockEnd
  0
ENDSEC
  0
SECTION
  2
ENTITIES
  0
LINE
  5
96
330
1F
100
AcDbEntity
  8
외형선
  6
Continuous
370
    15
100
AcDbLine
 10
-39.52999999999999
 20
-6.350000000000001
 30
0.0
 11
10.00000000000001
 21
-6.350000000000001
 31
0.0
  0
LINE
  5
97
330
1F
100
AcDbEntity
  8
외형선
  6
Continuous
370
    15
100
AcDbLine
 10
10.00000000000001
 20
6.349999999999999
 30
0.0
 11
-11.06612499999999
 21
6.349999999999999
 31
0.0
  0
LINE
  5
98
330
1F
100
AcDbEntity
  8
외형선
  6
Continuous
370
    15
100
AcDbLine
 10
-39.52999999999999
 20
6.349999999999999
 30
0.0
 11
-40.79999999999998
 21
5.080000000000002
 31
0.0
  0
LINE
  5
99
330
1F
100
AcDbEntity
  8
외형선
  6
Continuous
370
    15
100
AcDbLine
 10
-40.79999999999998
 20
-5.080000000000004
 30
0.0
 11
-39.52999999999999
 21
-6.350000000000001
 31
0.0
  0
LINE
  5
9A
330
1F
100
AcDbEntity
  8
0
  6
Continuous
 62
     1
370
    15
100
AcDbLine
 10
12.01183696579541
 20
6.350000000000001
 30
0.0
 11
10.00000000000001
 21
6.350000000000001
 31
0.0
  0
LINE
  5
9B
330
1F
100
AcDbEntity
  8
0
  6
Continuous
 62
     1
370
    15
100
AcDbLine
 10
39.38179796316776
 20
1.883863746395346
 30
0.0
 11
39.34264294014501
 21
1.905024268548959
 31
0.0
  0
LINE
  5
9C
330
1F
100
AcDbEntity
  8
0
  6
Continuous
 62
     1
370
    15
100
AcDbLine
 10
25.41684546377441
 20
-6.350000000000002
 30
0.0
 11
29.29008531789772
 21
-6.350000000000002
 31
0.0
  0
LINE
  5
9D
330
1F
100
AcDbEntity
  8
0
  6
Continuous
 62
     1
370
    15
100
AcDbLine
 10
29.29008531789772
 20
6.350000000000001
 30
0.0
 11
25.4168454637745
 21
6.350000000000001
 31
0.0
  0
LINE
  5
9E
330
1F
100
AcDbEntity
  8
0
  6
Continuous
 62
     1
370
    15
100
AcDbLine
 10
10.00000000000001
 20
-6.350000000000002
 30
0.0
 11
12.01183696579533
 21
-6.350000000000002
 31
0.0
  0
SPLINE
  5
9F
330
1F
100
AcDbEntity
  8
외형선
  6
Continuous
370
    15
100
AcDbSpline
210
0.0
220
0.0
230
1.0
 70
     8
 71
     3
 72
     8
 73
     4
 74
     0
 42
0.000000001
 43
0.00000001
 40
0.0
 40
0.0
 40
0.0
 40
0.0
 40
1.0
 40
1.0
 40
1.0
 40
1.0
 10
10.00000000000003
 20
6.259397172892281
 30
0.0
 10
9.832908804964678
 20
6.275634173401705
 30
0.0
 10
9.666159724729885
 20
6.289692295096984
 30
0.0
 10
9.500000480993021
 20
6.301562105052853
 30
0.0
  0
LINE
  5
A0
330
1F
100
AcDbEntity
  8
외형선
  6
Continuous
370
    15
100
AcDbLine
 10
9.500000480993021
 20
1.437959404461822
 30
0.0
 11
9.500000480993009
 21
6.301562105052854
 31
0.0
  0
SPLINE
  5
A1
330
1F
100
AcDbEntity
  8
외형선
  6
Continuous
370
    15
100
AcDbSpline
210
0.0
220
0.0
230
1.0
 70
     8
 71
     3
 72
     8
 73
     4
 74
     0
 42
0.000000001
 43
0.00000001
 40
0.0
 40
0.0
 40
0.0
 40
0.0
 40
1.0
 40
1.0
 40
1.0
 40
1.0
 10
10.00000000000001
 20
1.154933170255835
 30
0.0
 10
9.832908804964664
 20
1.24978741085912
 30
0.0
 10
9.666159724730322
 20
1.344176890025076
 30
0.0
 10
9.500000480993021
 20
1.437959404461822
 30
0.0
  0
SPLINE
  5
A2
330
1F
100
AcDbEntity
  8
외형선
  6
Continuous
370
    15
100
AcDbSpline
210
0.0
220
0.0
230
1.0
 70
     8
 71
     3
 72
     8
 73
     4
 74
     0
 42
0.000000001
 43
0.00000001
 40
0.0
 40
0.0
 40
0.0
 40
0.0
 40
1.0
 40
1.0
 40
1.0
 40
1.0
 10
10.00000000000003
 20
-1.068853138643498
 30
0.0
 10
9.832908804964678
 20
-0.9737663288560278
 30
0.0
 10
9.666159724729885
 20
-0.8783742849668634
 30
0.0
 10
9.500000480993021
 20
-0.782825035472033
 30
0.0
  0
LINE
  5
A3
330
1F
100
AcDbEntity
  8
외형선
  6
Continuous
370
    15
100
AcDbLine
 10
9.500000480993021
 20
-6.185044280449393
 30
0.0
 11
9.500000480993009
 21
-0.7828250354720315
 31
0.0
  0
SPLINE
  5
A4
330
1F
100
AcDbEntity
  8
외형선
  6
Continuous
370
    15
100
AcDbSpline
210
0.0
220
0.0
230
1.0
 70
     8
 71
     3
 72
     8
 73
     4
 74
     0
 42
0.000000001
 43
0.00000001
 40
0.0
 40
0.0
 40
0.0
 40
0.0
 40
1.0
 40
1.0
 40
1.0
 40
1.0
 10
10.00000000000001
 20
-6.244087553217269
 30
0.0
 10
9.832908804964664
 20
-6.226542906721126
 30
0.0
 10
9.666159724730322
 20
-6.206847753874468
 30
0.0
 10
9.500000480993021
 20
-6.185044280449397
 30
0.0
  0
LINE
  5
A5
330
1F
100
AcDbEntity
  8
외형선
  6
Continuous
370
    15
100
AcDbLine
 10
-39.52999999999999
 20
-0.0000000000000011
 30
0.0
 11
-39.52999999999999
 21
6.349999999999999
 31
0.0
  0
LINE
  5
A6
330
1F
100
AcDbEntity
  8
외형선
  6
Continuous
370
    15
100
AcDbLine
 10
-39.52999999999999
 20
-6.350000000000001
 30
0.0
 11
-39.52999999999999
 21
-0.0000000000000011
 31
0.0
  0
LINE
  5
A7
330
1F
100
AcDbEntity
  8
외형선
  6
Continuous
370
    15
100
AcDbLine
 10
10.00000000000001
 20
-6.350000000000001
 30
0.0
 11
10.00000000000001
 21
-6.24408755321727
 31
0.0
  0
LINE
  5
A8
330
1F
100
AcDbEntity
  8
외형선
  6
Continuous
370
    15
100
AcDbLine
 10
10.00000000000002
 20
-1.068853138643538
 30
0.0
 11
10.00000000000001
 21
1.15493317025583
 31
0.0
  0
LINE
  5
A9
330
1F
100
AcDbEntity
  8
외형선
  6
Continuous
370
    15
100
AcDbLine
 10
10.00000000000002
 20
6.259397172892387
 30
0.0
 11
10.00000000000001
 21
6.349999999999999
 31
0.0
  0
LINE
  5
AA
330
1F
100
AcDbEntity
  8
외형선
  6
Continuous
370
    15
100
AcDbLine
 10
-40.79999999999998
 20
-0.0000000000000011
 30
0.0
 11
-40.79999999999998
 21
5.080000000000002
 31
0.0
  0
LINE
  5
AB
330
1F
100
AcDbEntity
  8
외형선
  6
Continuous
370
    15
100
AcDbLine
 10
-40.79999999999998
 20
-5.080000000000004
 30
0.0
 11
-40.79999999999998
 21
-0.0000000000000011
 31
0.0
  0
SPLINE
  5
AC
330
1F
100
AcDbEntity
  8
외형선
  6
Continuous
370
    15
100
AcDbSpline
210
0.0
220
0.0
230
1.0
 70
    24
 71
     3
 72
    17
 73
    13
 74
     0
 42
0.000000001
 43
0.00000001
 40
0.0
 40
0.0
 40
0.0
 40
0.0
 40
0.1012851907664003
 40
0.2025703815328007
 40
0.3107985724342457
 40
0.4190267633356904
 40
0.5272549542371356
 40
0.6354831451385811
 40
0.7437113360400269
 40
0.8519395269414727
 40
0.9601677178429177
 40
1.0
 40
1.0
 40
1.0
 40
1.0
 10
10.00000000000001
 20
-6.24408755321727
 30
0.0
 10
10.00000000000001
 20
-6.062651550268294
 30
0.0
 10
10.00000000000001
 20
-5.699779544370342
 30
0.0
 10
9.999999999999986
 20
-5.09973625855923
 30
0.0
 10
10.00000000000002
 20
-4.471620823754448
 30
0.0
 10
10.00000000000003
 20
-3.828531798784354
 30
0.0
 10
10.00000000000001
 20
-3.203841202352697
 30
0.0
 10
9.999999999999979
 20
-2.61443252568528
 30
0.0
 10
10.00000000000001
 20
-2.076807666323537
 30
0.0
 10
10.00000000000002
 20
-1.611673276838216
 30
0.0
 10
10.00000000000002
 20
-1.291196118081352
 30
0.0
 10
10.0
 20
-1.161472264743423
 30
0.0
 10
9.999999999999993
 20
-1.126573030518919
 30
0.0
  0
SPLINE
  5
AD
330
1F
100
AcDbEntity
  8
외형선
  6
Continuous
370
    15
100
AcDbSpline
210
0.0
220
0.0
230
1.0
 70
    24
 71
     3
 72
    16
 73
    12
 74
     0
 42
0.000000001
 43
0.00000001
 40
0.0
 40
0.0
 40
0.0
 40
0.0
 40
0.1010844629996205
 40
0.2115197255237668
 40
0.3219549880479123
 40
0.4323902505720578
 40
0.5428255130961985
 40
0.6532607756203394
 40
0.763696038144492
 40
0.874131300668645
 40
0.9999999999999999
 40
0.9999999999999999
 40
0.9999999999999999
 40
0.9999999999999999
 10
9.999999999999993
 20
1.212653062131211
 30
0.0
 10
9.999999999999993
 20
1.31591906036577
 30
0.0
 10
10.0
 20
1.532003658872204
 30
0.0
 10
10.00000000000001
 20
1.967507760142205
 30
0.0
 10
10.00000000000004
 20
2.481302568919905
 30
0.0
 10
9.999999999999979
 20
3.054054519273979
 30
0.0
 10
10.0
 20
3.668638043235236
 30
0.0
 10
10.00000000000001
 20
4.307332480143519
 30
0.0
 10
10.00000000000001
 20
4.951221272064246
 30
0.0
 10
10.00000000000003
 20
5.616312070393231
 30
0.0
 10
10.00000000000001
 20
6.035900774390965
 30
0.0
 10
10.00000000000002
 20
6.259397172892387
 30
0.0
  0
LINE
  5
AE
330
1F
100
AcDbEntity
  8
0
  6
Continuous
 62
     1
370
    15
100
AcDbLine
 10
41.75000000000001
 20
-6.349999999999994
 30
0.0
 11
41.75000000000001
 21
-5.751076567773987
 31
0.0
  0
SPLINE
  5
AF
330
1F
100
AcDbEntity
  8
0
  6
Continuous
 62
     1
370
    15
100
AcDbSpline
210
0.0
220
0.0
230
1.0
 70
     8
 71
     3
 72
    56
 73
    52
 74
     0
 42
0.000000001
 43
0.00000001
 40
0.0
 40
0.0
 40
0.0
 40
0.0
 40
0.0625000000000018
 40
0.0625000000000018
 40
0.0937500000000023
 40
0.0937500000000023
 40
0.1250000000000027
 40
0.1250000000000027
 40
0.1562500000000031
 40
0.1562500000000031
 40
0.1875000000000035
 40
0.1875000000000035
 40
0.2500000000000034
 40
0.2500000000000034
 40
0.2812500000000034
 40
0.2812500000000034
 40
0.3125000000000033
 40
0.3125000000000033
 40
0.3437500000000033
 40
0.3437500000000033
 40
0.3750000000000033
 40
0.3750000000000033
 40
0.4375000000000023
 40
0.4375000000000023
 40
0.5000000000000012
 40
0.5000000000000012
 40
0.5312500000000007
 40
0.5312500000000007
 40
0.5625000000000002
 40
0.5625000000000002
 40
0.5937499999999997
 40
0.5937499999999997
 40
0.6249999999999991
 40
0.6249999999999991
 40
0.6874999999999991
 40
0.6874999999999991
 40
0.7187499999999993
 40
0.7187499999999993
 40
0.7499999999999996
 40
0.7499999999999996
 40
0.7812499999999999
 40
0.7812499999999999
 40
0.8125000000000001
 40
0.8125000000000001
 40
0.8750000000000001
 40
0.8750000000000001
 40
0.9375
 40
0.9375
 40
0.9687500000000001
 40
0.9687500000000001
 40
1.0
 40
1.0
 40
1.0
 40
1.0
 10
41.75
 20
-6.349999999999994
 30
0.0
 10
41.09219039396782
 20
-6.293988358516046
 30
0.0
 10
40.42501174443434
 20
-6.226699655026749
 30
0.0
 10
39.4344101330266
 20
-6.076069244167157
 30
0.0
 10
39.10579172860228
 20
-6.017656352298223
 30
0.0
 10
38.44348589100971
 20
-5.884367810428008
 30
0.0
 10
38.1113553609602
 20
-5.809563655088114
 30
0.0
 10
37.44919017872109
 20
-5.644551349714974
 30
0.0
 10
37.12070629398836
 20
-5.554506101346563
 30
0.0
 10
36.46007471842424
 20
-5.359299888270226
 30
0.0
 10
36.12813232263061
 20
-5.254126875433823
 30
0.0
 10
35.13349054538323
 20
-4.917741129838118
 30
0.0
 10
34.47632874845542
 20
-4.666248277495908
 30
0.0
 10
33.48155099675927
 20
-4.252012356445162
 30
0.0
 10
33.14970457196714
 20
-4.107922545870607
 30
0.0
 10
32.4895436495671
 20
-3.809528289359395
 30
0.0
 10
32.16076168747828
 20
-3.655173787303879
 30
0.0
 10
31.49832493850599
 20
-3.336207533821673
 30
0.0
 10
31.16619932849267
 20
-3.171823889212612
 30
0.0
 10
30.50418453867289
 20
-2.835266191897026
 30
0.0
 10
30.17580612907721
 20
-2.663367128204377
 30
0.0
 10
29.18452750658867
 20
-2.136492583521166
 30
0.0
 10
28.51869026427272
 20
-1.770795897705319
 30
0.0
 10
27.20181261074206
 20
-1.026925770380415
 30
0.0
 10
26.53456144994944
 20
-0.6457215881242199
 30
0.0
 10
25.5446947523989
 20
-0.0738394658648345
 30
0.0
 10
25.21572020267418
 20
0.1169575365130705
 30
0.0
 10
24.5531622927269
 20
0.4986034169801465
 30
0.0
 10
24.22104652254245
 20
0.6891676282373674
 30
0.0
 10
23.55919185482394
 20
1.067456025472934
 30
0.0
 10
23.23088987064992
 20
1.254911432162795
 30
0.0
 10
22.5698262889092
 20
1.626760488066608
 30
0.0
 10
22.23780756479646
 20
1.81100597259962
 30
0.0
 10
21.24336045771984
 20
2.355315423790552
 30
0.0
 10
20.5861014855723
 20
2.706333727757233
 30
0.0
 10
19.59124648190522
 20
3.209608570601002
 30
0.0
 10
19.25951565182075
 20
3.373243613077155
 30
0.0
 10
18.59986393742999
 20
3.69032193667872
 30
0.0
 10
18.27066777951874
 20
3.843985299817709
 30
0.0
 10
17.60799846495433
 20
4.141122288210067
 30
0.0
 10
17.27589745390484
 20
4.284372177796667
 30
0.0
 10
16.61421263010975
 20
4.558504588998535
 30
0.0
 10
16.28595801790227
 20
4.689231459775328
 30
0.0
 10
15.29406041970809
 20
5.062776233644727
 30
0.0
 10
14.62946911043667
 20
5.285955466837626
 30
0.0
 10
13.31140945221171
 20
5.671602048380121
 30
0.0
 10
12.64412572441791
 20
5.835329507953013
 30
0.0
 10
11.65505169968703
 20
6.031306427758397
 30
0.0
 10
11.32560492387749
 20
6.088548014910153
 30
0.0
 10
10.66283396652916
 20
6.186565655947194
 30
0.0
 10
10.33075263319031
 20
6.22725645672551
 30
0.0
 10
9.999999999998549
 20
6.259397172892428
 30
0.0
  0
SPLINE
  5
B0
330
1F
100
AcDbEntity
  8
0
  6
Continuous
 62
     1
370
    15
100
AcDbSpline
210
0.0
220
0.0
230
1.0
 70
     8
 71
     3
 72
    22
 73
    18
 74
     0
 42
0.000000001
 43
0.00000001
 40
0.0
 40
0.0
 40
0.0
 40
0.0
 40
0.0663221277895753
 40
0.1333005137199334
 40
0.2002546368551966
 40
0.2671950526013702
 40
0.3329350536289982
 40
0.3986858830099361
 40
0.4644621636408833
 40
0.5302696322315446
 40
0.5973920295488273
 40
0.6644914924381895
 40
0.7315781448803773
 40
0.7986621583423427
 40
0.8657537140834917
 40
0.9328629653853654
 40
1.0
 40
1.0
 40
1.0
 40
1.0
 10
12.01183696579541
 20
6.348961507257809
 30
0.0
 10
12.6693513174184
 20
6.329703318765336
 30
0.0
 10
13.9908861319777
 20
6.290996381805974
 30
0.0
 10
15.97605971982321
 20
5.972276185274606
 30
0.0
 10
17.96719587393866
 20
5.472520394724788
 30
0.0
 10
19.94600093812898
 20
4.793909552676884
 30
0.0
 10
21.91278233205131
 20
3.967122915471148
 30
0.0
 10
23.86811355794744
 20
3.01989839886647
 30
0.0
 10
25.82424200040659
 20
1.977354673825915
 30
0.0
 10
27.79427452053829
 20
0.865284091615685
 30
0.0
 10
29.7771781784328
 20
-0.2828717908953531
 30
0.0
 10
31.77264086221663
 20
-1.429338994907815
 30
0.0
 10
33.76764309358298
 20
-2.528546106418278
 30
0.0
 10
35.76255114138532
 20
-3.545700028289259
 30
0.0
 10
37.75773214380828
 20
-4.442865521950982
 30
0.0
 10
39.75352806886644
 20
-5.207804991162233
 30
0.0
 10
41.08441754364691
 20
-5.569961058565319
 30
0.0
 10
41.75
 20
-5.751076567773987
 30
0.0
  0
LINE
  5
B1
330
1F
100
AcDbEntity
  8
0
  6
Continuous
 62
     1
370
    15
100
AcDbLine
 10
41.75000000000001
 20
-5.751076567773987
 30
0.0
 11
41.75000000000001
 21
0.5440765677740629
 31
0.0
  0
SPLINE
  5
B2
330
1F
100
AcDbEntity
  8
0
  6
Continuous
 62
     1
370
    15
100
AcDbSpline
210
0.0
220
0.0
230
1.0
 70
     8
 71
     3
 72
    19
 73
    15
 74
     0
 42
0.000000001
 43
0.00000001
 40
0.0
 40
0.0
 40
0.0
 40
0.0
 40
0.0864868890511565
 40
0.1729370763562608
 40
0.2593641480778845
 40
0.3457817783998198
 40
0.432203677517813
 40
0.5171016929195683
 40
0.6020408150014696
 40
0.6869930417858748
 40
0.7719002578768354
 40
0.8585153912942161
 40
0.9451222000037698
 40
1.0
 40
1.0
 40
1.0
 40
1.0
 10
41.75
 20
0.5440765677740619
 30
0.0
 10
41.08586618786617
 20
0.9242142415899529
 30
0.0
 10
39.757880396727
 20
1.684328273252085
 30
0.0
 10
37.76645113852709
 20
2.764875785656353
 30
0.0
 10
35.7756425180868
 20
3.756174080160613
 30
0.0
 10
33.7851035811627
 20
4.624321824624577
 30
0.0
 10
31.806266634552
 20
5.337171981134385
 30
0.0
 10
29.8387617992987
 20
5.874792778942434
 30
0.0
 10
27.88228949426125
 20
6.223986345764674
 30
0.0
 10
25.9256357377155
 20
6.37639809409923
 30
0.0
 10
23.95644680523836
 20
6.329262477190091
 30
0.0
 10
21.97457544210148
 20
6.070337473066306
 30
0.0
 10
20.22332405294694
 20
5.689892750519048
 30
0.0
 10
19.13703893848239
 20
5.327579072558032
 30
0.0
 10
18.71570026570538
 20
5.187048044222719
 30
0.0
  0
SPLINE
  5
B3
330
1F
100
AcDbEntity
  8
0
  6
Continuous
 62
     1
370
    15
100
AcDbSpline
210
0.0
220
0.0
230
1.0
 70
     8
 71
     3
 72
    15
 73
    11
 74
     0
 42
0.000000001
 43
0.00000001
 40
0.0
 40
0.0
 40
0.0
 40
0.0
 40
0.0938774977350836
 40
0.223290528289988
 40
0.352691120768244
 40
0.4820989156678749
 40
0.6115335267621356
 40
0.7410144684403489
 40
0.870532545916048
 40
1.0
 40
1.0
 40
1.0
 40
1.0
 10
25.41684546377441
 20
-6.330706138262977
 30
0.0
 10
24.93441421479721
 20
-6.327781734656936
 30
0.0
 10
23.78693658654061
 20
-6.320825950343546
 30
0.0
 10
21.97458188779849
 20
-6.070422326435195
 30
0.0
 10
19.97967842471182
 20
-5.621548204185891
 30
0.0
 10
17.98464447927888
 20
-4.981094530140719
 30
0.0
 10
15.98911378525418
 20
-4.179097480424491
 30
0.0
 10
13.99287506380569
 20
-3.23862597067613
 30
0.0
 10
11.99626008868198
 20
-2.194704822643875
 30
0.0
 10
10.66533331168114
 20
-1.444088126120652
 30
0.0
 10
9.999999999998542
 20
-1.068853138642654
 30
0.0
  0
SPLINE
  5
B4
330
1F
100
AcDbEntity
  8
0
  6
Continuous
 62
     1
370
    15
100
AcDbSpline
210
0.0
220
0.0
230
1.0
 70
     8
 71
     3
 72
    21
 73
    17
 74
     0
 42
0.000000001
 43
0.00000001
 40
0.0
 40
0.0
 40
0.0
 40
0.0
 40
0.0766282277396034
 40
0.1532867277573928
 40
0.229921666545043
 40
0.3065288444693759
 40
0.3831203387532458
 40
0.4583383495289999
 40
0.5335687498268594
 40
0.6088282707874435
 40
0.6841234762057876
 40
0.7609231891018082
 40
0.8376966610179135
 40
0.9144554755513217
 40
0.9912112706317375
 40
1.0
 40
1.0
 40
1.0
 40
1.0
 10
10.00000000000001
 20
1.154933170255835
 30
0.0
 10
10.66388600712845
 20
0.7743964915099074
 30
0.0
 10
11.991920292124
 20
0.0131728015291151
 30
0.0
 10
13.98418919072619
 20
-1.138675615749226
 30
0.0
 10
15.97605627978603
 20
-2.250857400531273
 30
0.0
 10
17.96719679599635
 20
-3.290088849015959
 30
0.0
 10
19.94600069564913
 20
-4.215939460394358
 30
0.0
 10
21.91278239787029
 20
-5.001194729564795
 30
0.0
 10
23.86811353531682
 20
-5.624063425681689
 30
0.0
 10
25.82424202509401
 20
-6.069530331698342
 30
0.0
 10
27.79427444372393
 20
-6.325532185292661
 30
0.0
 10
29.7771784669541
 20
-6.377926177130116
 30
0.0
 10
31.77263978783102
 20
-6.225701850855798
 30
0.0
 10
33.76764710186404
 20
-5.852396573849854
 30
0.0
 10
35.17366810383641
 20
-5.497840429994636
 30
0.0
 10
35.91476227276007
 20
-5.226441834724707
 30
0.0
 10
35.99090129076323
 20
-5.198558708129209
 30
0.0
  0
SPLINE
  5
B5
330
1F
100
AcDbEntity
  8
외형선
  6
Continuous
370
    15
100
AcDbSpline
210
0.0
220
0.0
230
1.0
 70
    24
 71
     3
 72
    17
 73
    13
 74
     0
 42
0.000000001
 43
0.00000001
 40
0.0
 40
0.0
 40
0.0
 40
0.0
 40
0.1048800194659896
 40
0.2097600389319791
 40
0.3200611464660513
 40
0.4303622540001228
 40
0.5406633615341974
 40
0.6509644690682715
 40
0.7612655766023457
 40
0.87156668413642
 40
0.9818677916704948
 40
0.9999999999999999
 40
0.9999999999999999
 40
0.9999999999999999
 40
0.9999999999999999
 10
10.00000000000002
 20
6.259397172882123
 30
0.0
 10
10.00000000000003
 20
6.073795250986336
 30
0.0
 10
10.00000000000001
 20
5.702591407194761
 30
0.0
 10
10.00000000000001
 20
5.093579167313735
 30
0.0
 10
10.00000000000003
 20
4.461330133690417
 30
0.0
 10
10.00000000000001
 20
3.819331450823123
 30
0.0
 10
10.00000000000002
 20
3.197735930745996
 30
0.0
 10
10.00000000000002
 20
2.613498180590568
 30
0.0
 10
10.00000000000001
 20
2.082166344034297
 30
0.0
 10
9.999999999999972
 20
1.62749241853668
 30
0.0
 10
10.00000000000004
 20
1.336092082046463
 30
0.0
 10
9.999999999999993
 20
1.227924197941736
 30
0.0
 10
10.0
 20
1.212653062131211
 30
0.0
  0
SPLINE
  5
B6
330
1F
100
AcDbEntity
  8
0
  6
Continuous
 62
     1
370
    15
100
AcDbSpline
210
0.0
220
0.0
230
1.0
 70
     8
 71
     3
 72
    14
 73
    10
 74
     0
 42
0.000000001
 43
0.00000001
 40
0.0
 40
0.0
 40
0.0
 40
0.0
 40
0.0391070533698805
 40
0.199251425426908
 40
0.3593652231554668
 40
0.5194727225052843
 40
0.6795982227974594
 40
0.8397659565791225
 40
1.0
 40
1.0
 40
1.0
 40
1.0
 10
29.29008531789772
 20
6.330731961796428
 30
0.0
 10
29.45251968129615
 20
6.33654944015666
 30
0.0
 10
30.28012686865778
 20
6.366189639450205
 30
0.0
 10
31.77263211149182
 20
6.212382329934764
 30
0.0
 10
33.7676454379725
 20
5.865595859026568
 30
0.0
 10
35.76255051336179
 20
5.309865557630437
 30
0.0
 10
37.75773231133614
 20
4.582612486722642
 30
0.0
 10
39.75352802695964
 20
3.709924482684552
 30
0.0
 10
41.08441752967605
 20
3.031448365401792
 30
0.0
 10
41.75
 20
2.692140098806284
 30
0.0
  0
LINE
  5
B7
330
1F
100
AcDbEntity
  8
0
  6
Continuous
 62
     1
370
    15
100
AcDbLine
 10
41.75000000000001
 20
0.5440765677740628
 30
0.0
 11
41.75000000000001
 21
2.692140098806283
 31
0.0
  0
SPLINE
  5
B8
330
1F
100
AcDbEntity
  8
0
  6
Continuous
 62
     1
370
    15
100
AcDbSpline
210
0.0
220
0.0
230
1.0
 70
     8
 71
     3
 72
    12
 73
     8
 74
     0
 42
0.000000001
 43
0.00000001
 40
0.0
 40
0.0
 40
0.0
 40
0.0
 40
0.2285196638056872
 40
0.4571296051897234
 40
0.6856692825920767
 40
0.9141261719235194
 40
1.0
 40
1.0
 40
1.0
 40
1.0
 10
10.00000000000001
 20
-6.24408755321727
 30
0.0
 10
10.66388593765581
 20
-6.29388547028574
 30
0.0
 10
11.99192008367861
 20
-6.393500977282708
 30
0.0
 10
13.98419002478528
 20
-6.281873303070298
 30
0.0
 10
15.97605315365725
 20
-5.96868226402287
 30
0.0
 10
17.55313037274068
 20
-5.595153104424903
 30
0.0
 10
18.4662420118154
 20
-5.274617124015467
 30
0.0
 10
18.71570026570529
 20
-5.18704804422272
 30
0.0
  0
SPLINE
  5
B9
330
1F
100
AcDbEntity
  8
외형선
  6
Continuous
370
    15
100
AcDbSpline
210
0.0
220
0.0
230
1.0
 70
    24
 71
     3
 72
    17
 73
    13
 74
     0
 42
0.000000001
 43
0.00000001
 40
0.0
 40
0.0
 40
0.0
 40
0.0
 40
0.0117236439800004
 40
0.1186589561342174
 40
0.228695399585219
 40
0.3356307117394362
 40
0.4456671551904386
 40
0.5526024673446557
 40
0.6626389107956577
 40
0.769574222949874
 40
0.8796106664008753
 40
1.0
 40
1.0
 40
1.0
 40
1.0
 10
10.00000000000001
 20
-1.126573030513655
 30
0.0
 10
10.00000000000002
 20
-1.13618745183222
 30
0.0
 10
10.00000000000001
 20
-1.233498253784387
 30
0.0
 10
9.99999999999995
 20
-1.511922921403155
 30
0.0
 10
9.999999999999979
 20
-1.95241444480808
 30
0.0
 10
10.00000000000005
 20
-2.478604914389033
 30
0.0
 10
9.999999999999986
 20
-3.05335445317841
 30
0.0
 10
10.00000000000001
 20
-3.674084238745914
 30
0.0
 10
9.999999999999957
 20
-4.31147381923574
 30
0.0
 10
10.00000000000002
 20
-4.957928532259067
 30
0.0
 10
9.999999999999986
 20
-5.614366398941856
 30
0.0
 10
10.00000000000001
 20
-6.027985943522678
 30
0.0
 10
10.00000000000001
 20
-6.244087553217269
 30
0.0
  0
SPLINE
  5
BA
330
1F
100
AcDbEntity
  8
0
  6
Continuous
 62
     1
370
    15
100
AcDbSpline
210
0.0
220
0.0
230
1.0
 70
     8
 71
     3
 72
    10
 73
     6
 74
     0
 42
0.000000001
 43
0.00000001
 40
0.0
 40
0.0
 40
0.0
 40
0.0
 40
0.3459255874039182
 40
0.691704377146351
 40
1.0
 40
1.0
 40
1.0
 40
1.0
 10
41.75
 20
6.350000000000005
 30
0.0
 10
41.08586647003976
 20
6.272971331171563
 30
0.0
 10
39.75788124312805
 20
6.165639859635155
 30
0.0
 10
37.83822506331391
 20
5.776947306849155
 30
0.0
 10
36.58269219456535
 20
5.383845725311205
 30
0.0
 10
35.99090129076323
 20
5.198558708129206
 30
0.0
  0
LINE
  5
BB
330
1F
100
AcDbEntity
  8
0
  6
Continuous
 62
     1
370
    15
100
AcDbLine
 10
41.75000000000001
 20
2.690139749320214
 30
0.0
 11
41.75000000000001
 21
6.350000000000005
 31
0.0
  0
LINE
  5
BC
330
1F
100
AcDbEntity
  8
중심선
 48
0.8
100
AcDbLine
 10
-43.79999999999999
 20
-0.000000000000005
 30
0.0
 11
44.75000000000001
 21
0.0000000000000054
 31
0.0
  0
LINE
  5
BD
330
1F
100
AcDbEntity
  8
참조1
100
AcDbLine
 10
5.430603649777287
 20
0.0010749287238892
 30
0.0
 11
5.430603649777292
 21
-39.99892507127611
 31
0.0
  0
LINE
  5
BE
330
1F
100
AcDbEntity
  8
참조1
100
AcDbLine
 10
5.430603649777292
 20
-39.99892507127611
 30
0.0
 11
-21.63450316453139
 21
-39.9989250712761
 31
0.0
  0
CIRCLE
  5
BF
330
1F
100
AcDbEntity
  8
해칭선
100
AcDbCircle
 10
0.0
 20
0.0
 30
0.0
 40
3.000000000000003
  0
INSERT
  5
C0
330
1F
100
AcDbEntity
  8
0
  6
Continuous
 62
     7
100
AcDbBlockReference
 66
     1
  2
블럭10
 10
-8.509669282347918
 20
-52.04609937292004
 30
0.0
  0
ATTRIB
  5
C1
330
C0
100
AcDbEntity
  8
FORMAT
 62
     2
100
AcDbText
 10
-17.6909645710892
 20
-49.97073246008785
 30
0.0
 40
4.233333333333333
  1
E1031032 [ 4 FLUTE ]
 41
0.75
  7
SLDTEXTSTYLE0
 11
-17.6909645710892
 21
-52.08739912675452
 31
0.0
100
AcDbAttribute
  2
AUTOATTR0
 70
     0
 74
     1
  0
SEQEND
  5
C2
330
C0
100
AcDbEntity
  8
0
  6
Continuous
 62
     7
  0
HATCH
  5
C3
330
1F
100
AcDbEntity
  8
중심선
100
AcDbHatch
 10
0.0
 20
0.0
 30
0.0
210
0.0
220
0.0
230
1.0
  2
SOLID
 70
     1
 71
     0
 91
        1
 92
        0
 93
        4
 72
     1
 10
-2.794759977967076
 20
-35.7989250712761
 11
-6.241035221804358
 21
-35.7989250712761
 72
     1
 10
-6.241035221804358
 20
-35.7989250712761
 11
-8.36926508100838
 21
-38.3352506518487
 72
     1
 10
-8.36926508100838
 20
-38.3352506518487
 11
-4.922956752057922
 21
-38.33521122254621
 72
     1
 10
-4.922956752057922
 20
-38.33521122254621
 11
-2.794759977967076
 21
-35.7989250712761
 97
        0
 75
     0
 76
     1
 98
        1
 10
0.0
 20
0.0
  0
HATCH
  5
C4
330
1F
100
AcDbEntity
  8
중심선
100
AcDbHatch
 10
0.0
 20
0.0
 30
0.0
210
0.0
220
0.0
230
1.0
  2
SOLID
 70
     1
 71
     0
 91
        1
 92
        0
 93
        4
 72
     1
 10
2.218004013068903
 20
-35.7989250712761
 11
-1.22827123076838
 21
-35.7989250712761
 72
     1
 10
-1.22827123076838
 20
-35.7989250712761
 11
-5.759409239125795
 21
-41.19892507127612
 72
     1
 10
-5.759409239125795
 20
-41.19892507127612
 11
-2.313133995288513
 21
-41.19892507127612
 72
     1
 10
-2.313133995288513
 20
-41.19892507127612
 11
2.218004013068903
 21
-35.7989250712761
 97
        0
 75
     0
 76
     1
 98
        1
 10
0.0
 20
0.0
  0
HATCH
  5
C5
330
1F
100
AcDbEntity
  8
중심선
100
AcDbHatch
 10
0.0
 20
0.0
 30
0.0
210
0.0
220
0.0
230
1.0
  2
SOLID
 70
     1
 71
     0
 91
        1
 92
        0
 93
        4
 72
     1
 10
7.230768004104826
 20
-35.79892507127608
 11
3.784492760267683
 21
-35.7989250712761
 72
     1
 10
3.784492760267683
 20
-35.7989250712761
 11
-3.263944141621594
 21
-44.19892507127612
 72
     1
 10
-3.263944141621594
 20
-44.19892507127612
 11
0.1823311022156879
 21
-44.19892507127612
 72
     1
 10
0.1823311022156882
 20
-44.19892507127612
 11
7.230768004104826
 21
-35.79892507127608
 97
        0
 75
     0
 76
     1
 98
        1
 10
0.0
 20
0.0
  0
HATCH
  5
C6
330
1F
100
AcDbEntity
  8
중심선
100
AcDbHatch
 10
0.0
 20
0.0
 30
0.0
210
0.0
220
0.0
230
1.0
  2
SOLID
 70
     1
 71
     0
 91
        1
 92
        0
 93
        6
 72
     3
 10
12.03065843511697
 20
-39.99892507132738
 11
3.960054785062284
 21
1.540850780301639E-10
 40
0.3939339440162633
 50
17.09539180608433
 51
320.0019657685081
 73
     0
 72
     1
 10
13.71365809081754
 20
-38.58681907591443
 11
16.0189599645186
 21
-36.65249236586649
 72
     3
 10
12.03065843506412
 20
-39.99892507127625
 11
6.600054785286829
 21
-1.249000902703301E-13
 40
0.6363583540795982
 50
39.99873849337406
 51
368.4976242363724
 73
     1
 72
     1
 10
18.45599092696473
 20
-39.03892507120613
 11
10.71072574190005
 21
-39.03892507120613
 72
     1
 10
10.71072574190005
 20
-39.03892507120613
 11
10.71070069745411
 21
-40.95892507120602
 72
     1
 10
10.71070069745411
 20
-40.95892507120602
 11
15.15208046692615
 21
-40.95892507120599
 97
        0
 75
     0
 76
     1
 98
        1
 10
0.0
 20
0.0
  0
DIMENSION
  5
C7
330
1F
100
AcDbEntity
  8
치수문자_일반주서
100
AcDbDimension
  2
_D
 10
10.00000000000002
 20
19.50748634215365
 30
0.0
 11
23.90273539870468
 21
19.50748634215365
 31
0.0
 70
   160
  1
<>
 71
     2
 42
31.74999999999999
  3
SLDDIMSTYLE1
100
AcDbAlignedDimension
 13
41.75000000000001
 23
6.350000000000005
 33
0.0
 14
10.00000000000002
 24
6.259397172882123
 34
0.0
100
AcDbRotatedDimension
1001
ACAD
1000
DSTYLE
1002
{
1070
   171
1070
     6
1070
   273
1070
     7
1002
}
  0
DIMENSION
  5
DC
330
1F
100
AcDbEntity
  8
치수문자_일반주서
100
AcDbDimension
  2
_D_1
 10
-40.79999999999998
 20
30.4569764480339
 30
0.0
 11
0.7758392170891479
 21
30.4569764480339
 31
0.0
 70
   160
  1
<>
 71
     2
 42
82.55
  3
SLDDIMSTYLE1
100
AcDbAlignedDimension
 13
41.75000000000001
 23
6.350000000000005
 33
0.0
 14
-40.79999999999998
 24
5.080000000000002
 34
0.0
 50
0.0000000000000049
100
AcDbRotatedDimension
1001
ACAD
1000
DSTYLE
1002
{
1070
   171
1070
     6
1070
   273
1070
     7
1002
}
  0
DIMENSION
  5
EF
330
1F
100
AcDbEntity
  8
치수문자_일반주서
100
AcDbDimension
  2
_D_2
 10
-51.78327283782716
 20
-6.350000000000041
 30
0.0
 11
-51.78327283782718
 21
-0.0000000000000071
 31
0.0
 70
   160
  1
%%c<>
 71
     2
 42
12.69999999999999
 52
-270.0
  3
SLDDIMSTYLE1
100
AcDbAlignedDimension
 13
-39.52999999999999
 23
6.349999999999993
 33
0.0
 14
-39.52999999999999
 24
-6.349999999999995
 34
0.0
 50
90.0000000000002
100
AcDbRotatedDimension
1001
ACAD
1000
DSTYLE
1002
{
1070
   171
1070
     6
1070
   273
1070
     7
1002
}
  0
DIMENSION
  5
104
330
1F
100
AcDbEntity
  8
치수문자_일반주서
100
AcDbDimension
  2
_D_3
 10
59.66481388442253
 20
-6.34999999999993
 30
0.0
 11
59.66481388442239
 21
34.96954155664181
 31
0.0
 70
   160
  1
%%c<>
 71
     2
 42
12.7
 52
-270.0
  3
SLDDIMSTYLE1
100
AcDbAlignedDimension
 13
41.75000000000001
 23
6.350000000000005
 33
0.0
 14
41.75000000000001
 24
-6.349999999999994
 34
0.0
 50
90.0000000000002
100
AcDbRotatedDimension
1001
ACAD
1000
DSTYLE
1002
{
1070
   171
1070
     6
1070
   273
1070
     7
1002
}
  0
LINE
  5
118
330
1F
100
AcDbEntity
  8
참조1
100
AcDbLine
 10
76.33783746512287
 20
7.441074928723896
 30
0.0
 11
76.33783746512287
 21
-7.438925071276109
 31
0.0
  0
LINE
  5
119
330
1F
100
AcDbEntity
  8
참조1
100
AcDbLine
 10
89.03783746512288
 20
5.441074928723896
 30
0.0
 11
76.33783746512287
 21
5.441074928723896
 31
0.0
  0
SOLID
  5
11A
330
1F
100
AcDbEntity
  8
참조1
100
AcDbTrace
 10
76.33783746512287
 20
5.441074928723896
 30
0.0
 11
82.68783746512287
 21
4.425074928723896
 31
0.0
 12
82.68783746512287
 22
6.457074928723896
 32
0.0
 13
82.68783746512287
 23
6.457074928723896
 33
0.0
  0
LINE
  5
11B
330
1F
100
AcDbEntity
  8
참조1
100
AcDbLine
 10
89.03783746512288
 20
-5.438925071276109
 30
0.0
 11
76.33783746512287
 21
-5.438925071276109
 31
0.0
  0
SOLID
  5
11C
330
1F
100
AcDbEntity
  8
참조1
100
AcDbTrace
 10
76.33783746512287
 20
-5.438925071276109
 30
0.0
 11
82.68783746512287
 21
-6.454925071276109
 31
0.0
 12
82.68783746512287
 22
-4.422925071276109
 32
0.0
 13
82.68783746512287
 23
-4.422925071276109
 33
0.0
  0
MTEXT
  5
11D
330
1F
100
AcDbEntity
  8
참조1
100
AcDbMText
 10
85.72218759774887
 20
11.01136670591222
 30
0.0
 40
3.5
 41
0.0
 71
     1
 72
     1
  1
A
  7
SLDTEXTSTYLE0
 73
     1
 44
1.0
  0
MTEXT
  5
11E
330
1F
100
AcDbEntity
  8
참조1
100
AcDbMText
 10
85.72218759774887
 20
0.1313667059122201
 30
0.0
 40
3.5
 41
0.0
 71
     1
 72
     1
  1
A
  7
SLDTEXTSTYLE0
 73
     1
 44
1.0
  0
INSERT
  5
125
330
1F
100
AcDbEntity
  8
해칭선
100
AcDbBlockReference
  2
SW_DOWELSYMBOL_0
 10
0.0
 20
0.0
 30
0.0
  0
LINE
  5
252
330
1F
100
AcDbEntity
  8
외형선
  6
Continuous
370
    15
100
AcDbLine
 10
-23.76612499999997
 20
4.825999999999994
 30
0.0
 11
-12.5901250000001
 21
4.825999999999994
 31
0.0
  0
LINE
  5
253
330
1F
100
AcDbEntity
  8
외형선
  6
Continuous
370
    15
100
AcDbLine
 10
-23.76612499999997
 20
4.825999999999994
 30
0.0
 11
-25.29012499999995
 21
6.349999999999995
 31
0.0
  0
LINE
  5
254
330
1F
100
AcDbEntity
  8
외형선
  6
Continuous
370
    15
100
AcDbLine
 10
-12.59012499999999
 20
4.825999999999994
 30
0.0
 11
-11.06612499999999
 21
6.349999999999995
 31
0.0
  0
LINE
  5
290
330
1F
100
AcDbEntity
  8
외형선
  6
Continuous
370
    15
100
AcDbLine
 10
-25.29012499999995
 20
6.349999999999999
 30
0.0
 11
-39.52999999999999
 21
6.349999999999999
 31
0.0
  0
ENDSEC
  0
SECTION
  2
OBJECTS
  0
DICTIONARY
  5
C
330
0
100
AcDbDictionary
281
     1
  3
ACAD_GROUP
350
D
  3
ACAD_IMAGE_VARS
350
149
  3
ACAD_LAYOUT
350
1A
  3
ACAD_MLINESTYLE
350
17
  3
ACAD_PLOTSETTINGS
350
19
  3
ACAD_PLOTSTYLENAME
350
E
  3
ACAD_SCALELIST
350
47
  3
APPDATA
350
147
  3
DWGPROPS
350
2B6
  0
DICTIONARY
  5
1E6
330
2
100
AcDbDictionary
280
     1
281
     1
  3
ACAD_LAYERSTATES
360
1E7
  0
DICTIONARY
  5
D
102
{ACAD_REACTORS
330
C
102
}
330
C
100
AcDbDictionary
281
     1
  0
RASTERVARIABLES
  5
149
102
{ACAD_REACTORS
330
C
102
}
330
C
100
AcDbRasterVariables
 90
        0
 70
     1
 71
     1
 72
     1
  0
DICTIONARY
  5
1A
102
{ACAD_REACTORS
330
C
102
}
330
C
100
AcDbDictionary
281
     1
  3
Layout1
350
1E
  3
Layout2
350
26
  3
Model
350
22
  0
DICTIONARY
  5
17
102
{ACAD_REACTORS
330
C
102
}
330
C
100
AcDbDictionary
281
     1
  3
Standard
350
18
  0
DICTIONARY
  5
19
102
{ACAD_REACTORS
330
C
102
}
330
C
100
AcDbDictionary
281
     1
  0
ACDBDICTIONARYWDFLT
  5
E
102
{ACAD_REACTORS
330
C
102
}
330
C
100
AcDbDictionary
281
     1
  3
Normal
350
F
100
AcDbDictionaryWithDefault
340
F
  0
DICTIONARY
  5
47
102
{ACAD_REACTORS
330
C
102
}
330
C
100
AcDbDictionary
281
     1
  3
A0
350
48
  3
A1
350
49
  3
A2
350
4A
  3
A3
350
4B
  3
A4
350
4C
  3
A5
350
4D
  3
A6
350
4E
  3
A7
350
4F
  3
A8
350
50
  3
A9
350
51
  3
B0
350
52
  3
B1
350
53
  3
B2
350
54
  3
B3
350
55
  3
B4
350
56
  3
B5
350
57
  3
B6
350
58
  3
B7
350
59
  3
B8
350
5A
  3
B9
350
5B
  3
C0
350
5C
  3
C1
350
5D
  3
C2
350
5E
  3
C3
350
5F
  3
C4
350
60
  3
C5
350
61
  3
C6
350
62
  3
C7
350
63
  3
C8
350
64
  3
C9
350
65
  3
D0
350
66
  3
D1
350
67
  3
D2
350
68
  0
DICTIONARY
  5
147
102
{ACAD_REACTORS
330
C
102
}
330
C
100
AcDbDictionary
281
     1
  0
XRECORD
  5
2B6
102
{ACAD_REACTORS
330
C
102
}
330
C
100
AcDbXrecord
280
     1
  1
DWGPROPS COOKIE
  2

  3

  4

  6

  7

  8
12016016
  9

300
=
301
=
302
=
303
=
304
=
305
=
306
=
307
=
308
=
309
=
 40
0.0
 41
2458312.294961991
 42
2458323.357367859
  1

 90
        0
  0
DICTIONARY
  5
1E7
102
{ACAD_REACTORS
330
1E6
102
}
330
1E6
100
AcDbDictionary
281
     1
  0
LAYOUT
  5
1E
102
{ACAD_REACTORS
330
1A
102
}
330
1A
100
AcDbPlotSettings
  1

  2
none_device
  4

  6

 40
0.0
 41
0.0
 42
0.0
 43
0.0
 44
0.0
 45
0.0
 46
0.0
 47
0.0
 48
0.0
 49
0.0
140
0.0
141
0.0
142
1.0
143
1.0
 70
   688
 72
     1
 73
     0
 74
     5
  7

 75
    16
147
1.0
148
0.0
149
0.0
100
AcDbLayout
  1
Layout1
 70
     1
 71
     1
 10
0.0
 20
0.0
 11
420.0
 21
297.0
 12
0.0
 22
0.0
 32
0.0
 14
1.000000000000000E+20
 24
1.000000000000000E+20
 34
1.000000000000000E+20
 15
-1.000000000000000E+20
 25
-1.000000000000000E+20
 35
-1.000000000000000E+20
146
0.0
 13
0.0
 23
0.0
 33
0.0
 16
1.0
 26
0.0
 36
0.0
 17
0.0
 27
1.0
 37
0.0
 76
     0
330
1B
  0
LAYOUT
  5
26
102
{ACAD_REACTORS
330
1A
102
}
330
1A
100
AcDbPlotSettings
  1

  2
none_device
  4

  6

 40
0.0
 41
0.0
 42
0.0
 43
0.0
 44
0.0
 45
0.0
 46
0.0
 47
0.0
 48
0.0
 49
0.0
140
0.0
141
0.0
142
1.0
143
1.0
 70
   688
 72
     1
 73
     0
 74
     5
  7

 75
    16
147
1.0
148
0.0
149
0.0
100
AcDbLayout
  1
Layout2
 70
     1
 71
     2
 10
0.0
 20
0.0
 11
0.0
 21
0.0
 12
0.0
 22
0.0
 32
0.0
 14
0.0
 24
0.0
 34
0.0
 15
0.0
 25
0.0
 35
0.0
146
0.0
 13
0.0
 23
0.0
 33
0.0
 16
1.0
 26
0.0
 36
0.0
 17
0.0
 27
1.0
 37
0.0
 76
     0
330
23
  0
LAYOUT
  5
22
102
{ACAD_REACTORS
330
1A
102
}
330
1A
100
AcDbPlotSettings
  1

  2
none_device
  4
ANSI_A_(11.00_x_8.50_Inches)
  6

 40
6.35
 41
19.05
 42
6.35000508
 43
19.05000254
 44
279.4
 45
215.9
 46
91.11468853327221
 47
80.36933387863309
 48
0.0
 49
0.0
140
0.0
141
0.0
142
0.0656396459699799
143
1.0
 70
  1696
 72
     0
 73
     0
 74
     0
  7

 75
     0
147
0.0235690232323232
148
0.0
149
0.0
100
AcDbLayout
  1
Model
 70
     1
 71
     0
 10
0.0
 20
0.0
 11
420.0
 21
297.0
 12
0.0
 22
0.0
 32
0.0
 14
-56.15827283782723
 24
-49.97073246008785
 34
0.0
 15
89.03783746512288
 25
48.31329155664181
 35
0.0
146
0.0
 13
0.0
 23
0.0
 33
0.0
 16
1.0
 26
0.0
 36
0.0
 17
0.0
 27
1.0
 37
0.0
 76
     0
330
1F
331
29
  0
MLINESTYLE
  5
18
102
{ACAD_REACTORS
330
17
102
}
330
17
100
AcDbMlineStyle
  2
Standard
 70
     0
  3

 62
   256
 51
90.0
 52
90.0
 71
     2
 49
0.5
 62
   256
  6
BYLAYER
 49
-0.5
 62
   256
  6
BYLAYER
  0
ACDBPLACEHOLDER
  5
F
102
{ACAD_REACTORS
330
E
102
}
330
E
  0
SCALE
  5
48
102
{ACAD_REACTORS
330
47
102
}
330
47
100
AcDbScale
 70
     0
300
1:1
140
1.0
141
1.0
290
     1
  0
SCALE
  5
49
102
{ACAD_REACTORS
330
47
102
}
330
47
100
AcDbScale
 70
     0
300
1:2
140
1.0
141
2.0
290
     0
  0
SCALE
  5
4A
102
{ACAD_REACTORS
330
47
102
}
330
47
100
AcDbScale
 70
     0
300
1:4
140
1.0
141
4.0
290
     0
  0
SCALE
  5
4B
102
{ACAD_REACTORS
330
47
102
}
330
47
100
AcDbScale
 70
     0
300
1:5
140
1.0
141
5.0
290
     0
  0
SCALE
  5
4C
102
{ACAD_REACTORS
330
47
102
}
330
47
100
AcDbScale
 70
     0
300
1:8
140
1.0
141
8.0
290
     0
  0
SCALE
  5
4D
102
{ACAD_REACTORS
330
47
102
}
330
47
100
AcDbScale
 70
     0
300
1:10
140
1.0
141
10.0
290
     0
  0
SCALE
  5
4E
102
{ACAD_REACTORS
330
47
102
}
330
47
100
AcDbScale
 70
     0
300
1:16
140
1.0
141
16.0
290
     0
  0
SCALE
  5
4F
102
{ACAD_REACTORS
330
47
102
}
330
47
100
AcDbScale
 70
     0
300
1:20
140
1.0
141
20.0
290
     0
  0
SCALE
  5
50
102
{ACAD_REACTORS
330
47
102
}
330
47
100
AcDbScale
 70
     0
300
1:30
140
1.0
141
30.0
290
     0
  0
SCALE
  5
51
102
{ACAD_REACTORS
330
47
102
}
330
47
100
AcDbScale
 70
     0
300
1:40
140
1.0
141
40.0
290
     0
  0
SCALE
  5
52
102
{ACAD_REACTORS
330
47
102
}
330
47
100
AcDbScale
 70
     0
300
1:50
140
1.0
141
50.0
290
     0
  0
SCALE
  5
53
102
{ACAD_REACTORS
330
47
102
}
330
47
100
AcDbScale
 70
     0
300
1:100
140
1.0
141
100.0
290
     0
  0
SCALE
  5
54
102
{ACAD_REACTORS
330
47
102
}
330
47
100
AcDbScale
 70
     0
300
2:1
140
2.0
141
1.0
290
     0
  0
SCALE
  5
55
102
{ACAD_REACTORS
330
47
102
}
330
47
100
AcDbScale
 70
     0
300
4:1
140
4.0
141
1.0
290
     0
  0
SCALE
  5
56
102
{ACAD_REACTORS
330
47
102
}
330
47
100
AcDbScale
 70
     0
300
8:1
140
8.0
141
1.0
290
     0
  0
SCALE
  5
57
102
{ACAD_REACTORS
330
47
102
}
330
47
100
AcDbScale
 70
     0
300
10:1
140
10.0
141
1.0
290
     0
  0
SCALE
  5
58
102
{ACAD_REACTORS
330
47
102
}
330
47
100
AcDbScale
 70
     0
300
100:1
140
100.0
141
1.0
290
     0
  0
SCALE
  5
59
102
{ACAD_REACTORS
330
47
102
}
330
47
100
AcDbScale
 70
     0
300
1/128" = 1'-0"
140
0.0078125
141
12.0
290
     0
  0
SCALE
  5
5A
102
{ACAD_REACTORS
330
47
102
}
330
47
100
AcDbScale
 70
     0
300
1/64" = 1'-0"
140
0.015625
141
12.0
290
     0
  0
SCALE
  5
5B
102
{ACAD_REACTORS
330
47
102
}
330
47
100
AcDbScale
 70
     0
300
1/32" = 1'-0"
140
0.03125
141
12.0
290
     0
  0
SCALE
  5
5C
102
{ACAD_REACTORS
330
47
102
}
330
47
100
AcDbScale
 70
     0
300
1/16" = 1'-0"
140
0.0625
141
12.0
290
     0
  0
SCALE
  5
5D
102
{ACAD_REACTORS
330
47
102
}
330
47
100
AcDbScale
 70
     0
300
3/32" = 1'-0"
140
0.09375
141
12.0
290
     0
  0
SCALE
  5
5E
102
{ACAD_REACTORS
330
47
102
}
330
47
100
AcDbScale
 70
     0
300
1/8" = 1'-0"
140
0.125
141
12.0
290
     0
  0
SCALE
  5
5F
102
{ACAD_REACTORS
330
47
102
}
330
47
100
AcDbScale
 70
     0
300
3/16" = 1'-0"
140
0.1875
141
12.0
290
     0
  0
SCALE
  5
60
102
{ACAD_REACTORS
330
47
102
}
330
47
100
AcDbScale
 70
     0
300
1/4" = 1'-0"
140
0.25
141
12.0
290
     0
  0
SCALE
  5
61
102
{ACAD_REACTORS
330
47
102
}
330
47
100
AcDbScale
 70
     0
300
3/8" = 1'-0"
140
0.375
141
12.0
290
     0
  0
SCALE
  5
62
102
{ACAD_REACTORS
330
47
102
}
330
47
100
AcDbScale
 70
     0
300
1/2" = 1'-0"
140
0.5
141
12.0
290
     0
  0
SCALE
  5
63
102
{ACAD_REACTORS
330
47
102
}
330
47
100
AcDbScale
 70
     0
300
3/4" = 1'-0"
140
0.75
141
12.0
290
     0
  0
SCALE
  5
64
102
{ACAD_REACTORS
330
47
102
}
330
47
100
AcDbScale
 70
     0
300
1" = 1'-0"
140
1.0
141
12.0
290
     0
  0
SCALE
  5
65
102
{ACAD_REACTORS
330
47
102
}
330
47
100
AcDbScale
 70
     0
300
1-1/2" = 1'-0"
140
1.5
141
12.0
290
     0
  0
SCALE
  5
66
102
{ACAD_REACTORS
330
47
102
}
330
47
100
AcDbScale
 70
     0
300
3" = 1'-0"
140
3.0
141
12.0
290
     0
  0
SCALE
  5
67
102
{ACAD_REACTORS
330
47
102
}
330
47
100
AcDbScale
 70
     0
300
6" = 1'-0"
140
6.0
141
12.0
290
     0
  0
SCALE
  5
68
102
{ACAD_REACTORS
330
47
102
}
330
47
100
AcDbScale
 70
     0
300
1'-0" = 1'-0"
140
12.0
141
12.0
290
     0
  0
ENDSEC
  0
EOF
