  0
SECTION
  2
HEADER
  9
$ACADVER
  1
AC1015
  9
$ACADMAINTVER
 70
     6
  9
$DWGCODEPAGE
  3
ANSI_949
  9
$INSBASE
 10
0.0
 20
0.0
 30
0.0
  9
$EXTMIN
 10
-62.41769400570027
 20
-49.97073246008785
 30
0.0
  9
$EXTMAX
 10
89.03783746512288
 20
45.25949324385815
 30
0.0
  9
$LIMMIN
 10
0.0
 20
0.0
  9
$LIMMAX
 10
420.0
 20
297.0
  9
$ORTHOMODE
 70
     1
  9
$REGENMODE
 70
     1
  9
$FILLMODE
 70
     1
  9
$QTEXTMODE
 70
     0
  9
$MIRRTEXT
 70
     1
  9
$LTSCALE
 40
1.0
  9
$ATTMODE
 70
     1
  9
$TEXTSIZE
 40
3.5
  9
$TRACEWID
 40
1.0
  9
$TEXTSTYLE
  7
Standard
  9
$CLAYER
  8
0
  9
$CELTYPE
  6
ByLayer
  9
$CECOLOR
 62
   256
  9
$CELTSCALE
 40
1.0
  9
$DISPSILH
 70
     0
  9
$DIMSCALE
 40
1.0
  9
$DIMASZ
 40
3.302
  9
$DIMEXO
 40
1.0
  9
$DIMDLI
 40
3.75
  9
$DIMRND
 40
0.0
  9
$DIMDLE
 40
0.0
  9
$DIMEXE
 40
1.0
  9
$DIMTP
 40
0.0
  9
$DIMTM
 40
0.0
  9
$DIMTXT
 40
3.5
  9
$DIMCEN
 40
2.5
  9
$DIMTSZ
 40
0.0
  9
$DIMTOL
 70
     0
  9
$DIMLIM
 70
     0
  9
$DIMTIH
 70
     1
  9
$DIMTOH
 70
     1
  9
$DIMSE1
 70
     0
  9
$DIMSE2
 70
     0
  9
$DIMTAD
 70
     1
  9
$DIMZIN
 70
     0
  9
$DIMBLK
  1

  9
$DIMASO
 70
     1
  9
$DIMSHO
 70
     1
  9
$DIMPOST
  1

  9
$DIMAPOST
  1

  9
$DIMALT
 70
     0
  9
$DIMALTD
 70
     3
  9
$DIMALTF
 40
0.0393700787401575
  9
$DIMLFAC
 40
1.0
  9
$DIMTOFL
 70
     1
  9
$DIMTVP
 40
0.0
  9
$DIMTIX
 70
     0
  9
$DIMSOXD
 70
     0
  9
$DIMSAH
 70
     0
  9
$DIMBLK1
  1

  9
$DIMBLK2
  1

  9
$DIMSTYLE
  2
ISO-25
  9
$DIMCLRD
 70
     0
  9
$DIMCLRE
 70
     0
  9
$DIMCLRT
 70
     0
  9
$DIMTFAC
 40
1.0
  9
$DIMGAP
 40
1.524
  9
$DIMJUST
 70
     0
  9
$DIMSD1
 70
     0
  9
$DIMSD2
 70
     0
  9
$DIMTOLJ
 70
     0
  9
$DIMTZIN
 70
     0
  9
$DIMALTZ
 70
     0
  9
$DIMALTTZ
 70
     0
  9
$DIMUPT
 70
     0
  9
$DIMDEC
 70
     2
  9
$DIMTDEC
 70
     2
  9
$DIMALTU
 70
     2
  9
$DIMALTTD
 70
     3
  9
$DIMTXSTY
  7
Standard
  9
$DIMAUNIT
 70
     0
  9
$DIMADEC
 70
     2
  9
$DIMALTRND
 40
0.0
  9
$DIMAZIN
 70
     0
  9
$DIMDSEP
 70
    44
  9
$DIMATFIT
 70
     3
  9
$DIMFRAC
 70
     0
  9
$DIMLDRBLK
  1

  9
$DIMLUNIT
 70
     2
  9
$DIMLWD
 70
    -2
  9
$DIMLWE
 70
    -2
  9
$DIMTMOVE
 70
     0
  9
$LUNITS
 70
     2
  9
$LUPREC
 70
     2
  9
$SKETCHINC
 40
1.0
  9
$FILLETRAD
 40
10.0
  9
$AUNITS
 70
     0
  9
$AUPREC
 70
     2
  9
$MENU
  1
.
  9
$ELEVATION
 40
0.0
  9
$PELEVATION
 40
0.0
  9
$THICKNESS
 40
0.0
  9
$LIMCHECK
 70
     0
  9
$CHAMFERA
 40
0.0
  9
$CHAMFERB
 40
0.0
  9
$CHAMFERC
 40
0.0
  9
$CHAMFERD
 40
0.0
  9
$SKPOLY
 70
     0
  9
$TDCREATE
 40
2458312.669750209
  9
$TDUCREATE
 40
2458312.294750209
  9
$TDUPDATE
 40
2458323.732413854
  9
$TDUUPDATE
 40
2458323.357413854
  9
$TDINDWG
 40
0.0014938657
  9
$TDUSRTIMER
 40
2458323.357374352
  9
$USRTIMER
 70
     1
  9
$ANGBASE
 50
0.0
  9
$ANGDIR
 70
     0
  9
$PDMODE
 70
     0
  9
$PDSIZE
 40
-1.0
  9
$PLINEWID
 40
0.0
  9
$SPLFRAME
 70
     0
  9
$SPLINETYPE
 70
     6
  9
$SPLINESEGS
 70
     8
  9
$HANDSEED
  5
2CA
  9
$SURFTAB1
 70
     6
  9
$SURFTAB2
 70
     6
  9
$SURFTYPE
 70
     6
  9
$SURFU
 70
     6
  9
$SURFV
 70
     6
  9
$UCSBASE
  2

  9
$UCSNAME
  2

  9
$UCSORG
 10
0.0
 20
0.0
 30
0.0
  9
$UCSXDIR
 10
1.0
 20
0.0
 30
0.0
  9
$UCSYDIR
 10
0.0
 20
1.0
 30
0.0
  9
$UCSORTHOREF
  2

  9
$UCSORTHOVIEW
 70
     0
  9
$UCSORGTOP
 10
0.0
 20
0.0
 30
0.0
  9
$UCSORGBOTTOM
 10
0.0
 20
0.0
 30
0.0
  9
$UCSORGLEFT
 10
0.0
 20
0.0
 30
0.0
  9
$UCSORGRIGHT
 10
0.0
 20
0.0
 30
0.0
  9
$UCSORGFRONT
 10
0.0
 20
0.0
 30
0.0
  9
$UCSORGBACK
 10
0.0
 20
0.0
 30
0.0
  9
$PUCSBASE
  2

  9
$PUCSNAME
  2

  9
$PUCSORG
 10
0.0
 20
0.0
 30
0.0
  9
$PUCSXDIR
 10
1.0
 20
0.0
 30
0.0
  9
$PUCSYDIR
 10
0.0
 20
1.0
 30
0.0
  9
$PUCSORTHOREF
  2

  9
$PUCSORTHOVIEW
 70
     0
  9
$PUCSORGTOP
 10
0.0
 20
0.0
 30
0.0
  9
$PUCSORGBOTTOM
 10
0.0
 20
0.0
 30
0.0
  9
$PUCSORGLEFT
 10
0.0
 20
0.0
 30
0.0
  9
$PUCSORGRIGHT
 10
0.0
 20
0.0
 30
0.0
  9
$PUCSORGFRONT
 10
0.0
 20
0.0
 30
0.0
  9
$PUCSORGBACK
 10
0.0
 20
0.0
 30
0.0
  9
$USERI1
 70
     0
  9
$USERI2
 70
     0
  9
$USERI3
 70
     0
  9
$USERI4
 70
     0
  9
$USERI5
 70
     0
  9
$USERR1
 40
0.0
  9
$USERR2
 40
0.0
  9
$USERR3
 40
0.0
  9
$USERR4
 40
0.0
  9
$USERR5
 40
0.0
  9
$WORLDVIEW
 70
     1
  9
$SHADEDGE
 70
     3
  9
$SHADEDIF
 70
    70
  9
$TILEMODE
 70
     1
  9
$MAXACTVP
 70
    64
  9
$PINSBASE
 10
0.0
 20
0.0
 30
0.0
  9
$PLIMCHECK
 70
     0
  9
$PEXTMIN
 10
1.000000000000000E+20
 20
1.000000000000000E+20
 30
1.000000000000000E+20
  9
$PEXTMAX
 10
-1.000000000000000E+20
 20
-1.000000000000000E+20
 30
-1.000000000000000E+20
  9
$PLIMMIN
 10
0.0
 20
0.0
  9
$PLIMMAX
 10
0.0
 20
0.0
  9
$UNITMODE
 70
     0
  9
$VISRETAIN
 70
     1
  9
$PLINEGEN
 70
     0
  9
$PSLTSCALE
 70
     1
  9
$TREEDEPTH
 70
  3020
  9
$CMLSTYLE
  2
Standard
  9
$CMLJUST
 70
     0
  9
$CMLSCALE
 40
20.0
  9
$PROXYGRAPHICS
 70
     1
  9
$MEASUREMENT
 70
     1
  9
$CELWEIGHT
370
    -1
  9
$ENDCAPS
280
     0
  9
$JOINSTYLE
280
     0
  9
$LWDISPLAY
290
     1
  9
$INSUNITS
 70
     4
  9
$HYPERLINKBASE
  1

  9
$STYLESHEET
  1

  9
$XEDIT
290
     1
  9
$CEPSNTYPE
380
     0
  9
$PSTYLEMODE
290
     1
  9
$FINGERPRINTGUID
  2
{98BFA54C-7C25-4E98-93D4-34B9CECF9FBC}
  9
$VERSIONGUID
  2
{FAEB1C32-E019-11D5-929B-00C0DF256EC4}
  9
$EXTNAMES
290
     1
  9
$PSVPSCALE
 40
0.0
  9
$OLESTARTUP
290
     0
  0
ENDSEC
  0
SECTION
  2
CLASSES
  0
CLASS
  1
ACDBDICTIONARYWDFLT
  2
AcDbDictionaryWithDefault
  3
ObjectDBX Classes
 90
        0
280
     0
281
     0
  0
CLASS
  1
VISUALSTYLE
  2
AcDbVisualStyle
  3
ObjectDBX Classes
 90
     4095
280
     0
281
     0
  0
CLASS
  1
MATERIAL
  2
AcDbMaterial
  3
ObjectDBX Classes
 90
     1153
280
     0
281
     0
  0
CLASS
  1
SCALE
  2
AcDbScale
  3
ObjectDBX Classes
 90
     1153
280
     0
281
     0
  0
CLASS
  1
SUN
  2
AcDbSun
  3
SCENEOE
 90
     1153
280
     0
281
     0
  0
CLASS
  1
ACDBPLACEHOLDER
  2
AcDbPlaceHolder
  3
ObjectDBX Classes
 90
        0
280
     0
281
     0
  0
CLASS
  1
LAYOUT
  2
AcDbLayout
  3
ObjectDBX Classes
 90
        0
280
     0
281
     0
  0
CLASS
  1
TABLESTYLE
  2
AcDbTableStyle
  3
ObjectDBX Classes
 90
     4095
280
     0
281
     0
  0
CLASS
  1
MLEADERSTYLE
  2
AcDbMLeaderStyle
  3
ACDB_MLEADERSTYLE_CLASS
 90
     4095
280
     0
281
     0
  0
CLASS
  1
RASTERVARIABLES
  2
AcDbRasterVariables
  3
ISM
 90
        0
280
     0
281
     0
  0
ENDSEC
  0
SECTION
  2
TABLES
  0
TABLE
  2
VPORT
  5
8
330
0
100
AcDbSymbolTable
 70
     1
  0
VPORT
  5
29
330
8
100
AcDbSymbolTableRecord
100
AcDbViewportTableRecord
  2
*Active
 70
     0
 10
0.0
 20
0.0
 11
1.0
 21
1.0
 12
-13.37346930579884
 22
4.827707934473061
 13
0.0
 23
0.0
 14
10.0
 24
10.0
 15
10.0
 25
10.0
 16
0.0
 26
0.0
 36
1.0
 17
0.0
 27
0.0
 37
0.0
 40
142.0286939894982
 41
1.632093933463796
 42
50.0
 43
0.0
 44
0.0
 50
0.0
 51
0.0
 71
    16
 72
  2000
 73
     1
 74
     3
 75
     0
 76
     0
 77
     0
 78
     0
281
     0
 65
     1
110
0.0
120
0.0
130
0.0
111
1.0
121
0.0
131
0.0
112
0.0
122
1.0
132
0.0
 79
     0
146
0.0
  0
ENDTAB
  0
TABLE
  2
LTYPE
  5
5
330
0
100
AcDbSymbolTable
 70
     6
  0
LTYPE
  5
14
330
5
100
AcDbSymbolTableRecord
100
AcDbLinetypeTableRecord
  2
ByBlock
 70
     0
  3

 72
    65
 73
     0
 40
0.0
  0
LTYPE
  5
15
330
5
100
AcDbSymbolTableRecord
100
AcDbLinetypeTableRecord
  2
ByLayer
 70
     0
  3

 72
    65
 73
     0
 40
0.0
  0
LTYPE
  5
16
330
5
100
AcDbSymbolTableRecord
100
AcDbLinetypeTableRecord
  2
Continuous
 70
     0
  3
Solid line
 72
    65
 73
     0
 40
0.0
  0
LTYPE
  5
6A
330
5
100
AcDbSymbolTableRecord
100
AcDbLinetypeTableRecord
  2
HIDDEN
 70
     0
  3
Hidden __ __ __ __ __ __ __ __ __ __ __ __ __ __
 72
    65
 73
     2
 40
1.905
 49
1.27
 74
     0
 49
-0.635
 74
     0
  0
LTYPE
  5
6B
330
5
100
AcDbSymbolTableRecord
100
AcDbLinetypeTableRecord
  2
PHANTOM
 70
     0
  3
Phantom ______  __  __  ______  __  __  ______
 72
    65
 73
     6
 40
12.7
 49
6.35
 74
     0
 49
-1.27
 74
     0
 49
1.27
 74
     0
 49
-1.27
 74
     0
 49
1.27
 74
     0
 49
-1.27
 74
     0
  0
LTYPE
  5
6C
330
5
100
AcDbSymbolTableRecord
100
AcDbLinetypeTableRecord
  2
CENTER
 70
     0
  3
Center ____ _ ____ _ ____ _ ____ _ ____ _ ____
 72
    65
 73
     4
 40
10.16
 49
6.35
 74
     0
 49
-1.27
 74
     0
 49
1.27
 74
     0
 49
-1.27
 74
     0
  0
LTYPE
  5
6D
330
5
100
AcDbSymbolTableRecord
100
AcDbLinetypeTableRecord
  2
CENTERX2
 70
     0
  3
Center (2x) ________  __  ________  __  _____
 72
    65
 73
     4
 40
20.32
 49
12.7
 74
     0
 49
-2.54
 74
     0
 49
2.54
 74
     0
 49
-2.54
 74
     0
  0
LTYPE
  5
6E
330
5
100
AcDbSymbolTableRecord
100
AcDbLinetypeTableRecord
  2
DOT2
 70
     0
  3
Dot (.5x) ........................................
 72
    65
 73
     2
 40
0.635
 49
0.0
 74
     0
 49
-0.635
 74
     0
  0
ENDTAB
  0
TABLE
  2
LAYER
  5
2
102
{ACAD_XDICTIONARY
360
1F3
102
}
330
0
100
AcDbSymbolTable
 70
    18
  0
LAYER
  5
10
330
2
100
AcDbSymbolTableRecord
100
AcDbLayerTableRecord
  2
0
 70
     0
 62
     7
  6
Continuous
370
    -3
390
F
  0
LAYER
  5
6F
330
2
100
AcDbSymbolTableRecord
100
AcDbLayerTableRecord
  2
FORMAT
 70
     0
 62
     2
  6
Continuous
370
    -3
390
F
  0
LAYER
  5
70
330
2
100
AcDbSymbolTableRecord
100
AcDbLayerTableRecord
  2
외형선
 70
     0
 62
     4
  6
Continuous
370
    30
390
F
  0
LAYER
  5
71
330
2
100
AcDbSymbolTableRecord
100
AcDbLayerTableRecord
  2
숨은선
 70
     0
 62
     2
  6
HIDDEN
370
    15
390
F
  0
LAYER
  5
72
330
2
100
AcDbSymbolTableRecord
100
AcDbLayerTableRecord
  2
중심선
 70
     0
 62
     1
  6
CENTERX2
370
    -3
390
F
  0
LAYER
  5
73
330
2
100
AcDbSymbolTableRecord
100
AcDbLayerTableRecord
  2
파단선
 70
     0
 62
     4
  6
Continuous
370
    -3
390
F
  0
LAYER
  5
74
330
2
100
AcDbSymbolTableRecord
100
AcDbLayerTableRecord
  2
해칭선
 70
     0
 62
   100
  6
Continuous
370
    -3
390
F
  0
LAYER
  5
75
330
2
100
AcDbSymbolTableRecord
100
AcDbLayerTableRecord
  2
가는실선
 70
     0
 62
     4
  6
Continuous
370
    -3
390
F
  0
LAYER
  5
76
330
2
100
AcDbSymbolTableRecord
100
AcDbLayerTableRecord
  2
치수_보조선
 70
     0
 62
     4
  6
Continuous
370
    -3
390
F
  0
LAYER
  5
77
330
2
100
AcDbSymbolTableRecord
100
AcDbLayerTableRecord
  2
치수문자_일반주서
 70
     0
 62
     7
  6
Continuous
370
    15
390
F
  0
LAYER
  5
78
330
2
100
AcDbSymbolTableRecord
100
AcDbLayerTableRecord
  2
개별주서
 70
     0
 62
   100
  6
Continuous
370
    30
390
F
  0
LAYER
  5
79
330
2
100
AcDbSymbolTableRecord
100
AcDbLayerTableRecord
  2
중간선
 70
     0
 62
     2
  6
Continuous
370
    15
390
F
  0
LAYER
  5
7A
330
2
100
AcDbSymbolTableRecord
100
AcDbLayerTableRecord
  2
윤곽선
 70
     0
 62
     3
  6
Continuous
370
    40
390
F
  0
LAYER
  5
7B
330
2
100
AcDbSymbolTableRecord
100
AcDbLayerTableRecord
  2
중심마크
 70
     0
 62
   100
  6
Continuous
370
    30
390
F
  0
LAYER
  5
7C
330
2
100
AcDbSymbolTableRecord
100
AcDbLayerTableRecord
  2
가상선
 70
     0
 62
     4
  6
PHANTOM
370
    -3
390
F
  0
LAYER
  5
7D
330
2
100
AcDbSymbolTableRecord
100
AcDbLayerTableRecord
  2
특수지정선
 70
     0
 62
     5
  6
CENTERX2
370
    60
390
F
  0
LAYER
  5
7E
330
2
100
AcDbSymbolTableRecord
100
AcDbLayerTableRecord
  2
참조1
 70
     0
 62
    -4
  6
Continuous
370
    -3
390
F
  0
LAYER
  5
153
330
2
100
AcDbSymbolTableRecord
100
AcDbLayerTableRecord
  2
Defpoints
 70
     0
 62
     7
  6
Continuous
290
     0
370
    -3
390
F
  0
ENDTAB
  0
TABLE
  2
STYLE
  5
3
330
0
100
AcDbSymbolTable
 70
     2
  0
STYLE
  5
11
330
3
100
AcDbSymbolTableRecord
100
AcDbTextStyleTableRecord
  2
Standard
 70
     0
 40
0.0
 41
1.0
 50
0.0
 71
     0
 42
3.5
  3
txt
  4

  0
STYLE
  5
94
330
3
100
AcDbSymbolTableRecord
100
AcDbTextStyleTableRecord
  2
SLDTEXTSTYLE0
 70
     0
 40
0.0
 41
0.75
 50
0.0
 71
     0
 42
3.5
  3
TXT
  4

  0
ENDTAB
  0
TABLE
  2
VIEW
  5
6
330
0
100
AcDbSymbolTable
 70
     0
  0
ENDTAB
  0
TABLE
  2
UCS
  5
7
330
0
100
AcDbSymbolTable
 70
     0
  0
ENDTAB
  0
TABLE
  2
APPID
  5
9
330
0
100
AcDbSymbolTable
 70
     1
  0
APPID
  5
12
330
9
100
AcDbSymbolTableRecord
100
AcDbRegAppTableRecord
  2
ACAD
 70
     0
  0
ENDTAB
  0
TABLE
  2
DIMSTYLE
  5
A
330
0
100
AcDbSymbolTable
 70
     4
100
AcDbDimStyleTable
  0
DIMSTYLE
105
27
330
A
100
AcDbSymbolTableRecord
100
AcDbDimStyleTableRecord
  2
ISO-25
 70
     0
 41
2.5
 42
0.625
 43
3.75
 44
1.25
 73
     0
 74
     0
 77
     1
 78
     8
140
2.5
141
2.5
143
0.03937007874016
147
0.625
171
     3
172
     1
178
     0
271
     2
272
     2
274
     3
278
    44
283
     0
284
     8
340
11
  0
DIMSTYLE
105
D0
330
A
100
AcDbSymbolTableRecord
100
AcDbDimStyleTableRecord
  2
SLDDIMSTYLE0
 70
     0
 41
3.302
 44
0.0
 45
0.000000001
 73
     0
 74
     0
 77
     1
 78
    12
 79
     3
140
3.5
143
0.0393700787401575
147
0.875
148
0.000000001
170
     1
173
     1
178
     0
271
     2
272
     2
276
     2
284
    12
340
94
  0
DIMSTYLE
105
F8
102
{ACAD_REACTORS
330
F7
330
CF
330
E4
330
10C
102
}
330
A
100
AcDbSymbolTableRecord
100
AcDbDimStyleTableRecord
  2
SLDDIMSTYLE1
 70
     0
 41
3.302
 44
0.0
 45
0.000000001
 73
     0
 74
     0
 77
     1
 78
     4
 79
     1
140
3.5
143
0.0393700787401575
147
0.875
148
0.000000001
170
     1
172
     1
173
     1
178
     0
271
     2
272
     2
276
     2
284
    12
289
     0
340
94
  0
DIMSTYLE
105
10D
330
A
100
AcDbSymbolTableRecord
100
AcDbDimStyleTableRecord
  2
SLDDIMSTYLE2
 70
     0
 41
3.302
 44
0.0
 45
0.000000001
 73
     0
 74
     0
 77
     1
 78
     4
 79
     1
140
3.5
143
0.0393700787401575
147
0.875
148
0.000000001
170
     1
173
     1
178
     0
271
     2
272
     2
276
     2
284
    12
340
94
  0
ENDTAB
  0
TABLE
  2
BLOCK_RECORD
  5
1
330
0
100
AcDbSymbolTable
 70
    15
  0
BLOCK_RECORD
  5
1F
330
1
100
AcDbSymbolTableRecord
100
AcDbBlockTableRecord
  2
*Model_Space
340
22
  0
BLOCK_RECORD
  5
1B
330
1
100
AcDbSymbolTableRecord
100
AcDbBlockTableRecord
  2
*Paper_Space
340
1E
  0
BLOCK_RECORD
  5
23
330
1
100
AcDbSymbolTableRecord
100
AcDbBlockTableRecord
  2
*Paper_Space0
340
26
  0
BLOCK_RECORD
  5
7F
330
1
100
AcDbSymbolTableRecord
100
AcDbBlockTableRecord
  2
블럭10
340
0
102
{BLKREFS
331
C8
102
}
  0
BLOCK_RECORD
  5
D1
330
1
100
AcDbSymbolTableRecord
100
AcDbBlockTableRecord
  2
_D
340
0
  0
BLOCK_RECORD
  5
E5
330
1
100
AcDbSymbolTableRecord
100
AcDbBlockTableRecord
  2
_D_1
340
0
  0
BLOCK_RECORD
  5
F9
330
1
100
AcDbSymbolTableRecord
100
AcDbBlockTableRecord
  2
_D_2
340
0
  0
BLOCK_RECORD
  5
10E
330
1
100
AcDbSymbolTableRecord
100
AcDbBlockTableRecord
  2
_D_3
340
0
  0
BLOCK_RECORD
  5
127
330
1
100
AcDbSymbolTableRecord
100
AcDbBlockTableRecord
  2
SW_DOWELSYMBOL_0
340
0
102
{BLKREFS
331
12D
102
}
  0
BLOCK_RECORD
  5
1F7
330
1
100
AcDbSymbolTableRecord
100
AcDbBlockTableRecord
  2
*D7
340
0
  0
BLOCK_RECORD
  5
206
330
1
100
AcDbSymbolTableRecord
100
AcDbBlockTableRecord
  2
*D8
340
0
  0
BLOCK_RECORD
  5
212
330
1
100
AcDbSymbolTableRecord
100
AcDbBlockTableRecord
  2
*D9
340
0
  0
BLOCK_RECORD
  5
21E
330
1
100
AcDbSymbolTableRecord
100
AcDbBlockTableRecord
  2
*D10
340
0
  0
BLOCK_RECORD
  5
269
330
1
100
AcDbSymbolTableRecord
100
AcDbBlockTableRecord
  2
*D11
340
0
  0
BLOCK_RECORD
  5
278
330
1
100
AcDbSymbolTableRecord
100
AcDbBlockTableRecord
  2
*D12
340
0
  0
BLOCK_RECORD
  5
284
330
1
100
AcDbSymbolTableRecord
100
AcDbBlockTableRecord
  2
*D13
340
0
  0
BLOCK_RECORD
  5
290
330
1
100
AcDbSymbolTableRecord
100
AcDbBlockTableRecord
  2
*D14
340
0
  0
ENDTAB
  0
ENDSEC
  0
SECTION
  2
BLOCKS
  0
BLOCK
  5
20
330
1F
100
AcDbEntity
  8
0
100
AcDbBlockBegin
  2
*Model_Space
 70
     0
 10
0.0
 20
0.0
 30
0.0
  3
*Model_Space
  1
*Model_Space
  0
ENDBLK
  5
21
330
1F
100
AcDbEntity
  8
0
100
AcDbBlockEnd
  0
BLOCK
  5
1C
330
1B
100
AcDbEntity
 67
     1
  8
0
100
AcDbBlockBegin
  2
*Paper_Space
 70
     0
 10
0.0
 20
0.0
 30
0.0
  3
*Paper_Space
  1
*Paper_Space
  0
ENDBLK
  5
1D
330
1B
100
AcDbEntity
 67
     1
  8
0
100
AcDbBlockEnd
  0
BLOCK
  5
24
330
23
100
AcDbEntity
  8
0
100
AcDbBlockBegin
  2
*Paper_Space0
 70
     0
 10
0.0
 20
0.0
 30
0.0
  3
*Paper_Space0
  1
*Paper_Space0
  0
ENDBLK
  5
25
330
23
100
AcDbEntity
  8
0
100
AcDbBlockEnd
  0
BLOCK
  5
80
330
7F
100
AcDbEntity
  8
0
100
AcDbBlockBegin
  2
블럭10
 70
     2
 10
0.0
 20
0.0
 30
0.0
  3
블럭10
  1
블럭10
  0
ELLIPSE
  5
82
330
7F
100
AcDbEntity
  8
중심선
100
AcDbEllipse
 10
20.54032771741204
 20
12.0471743016438
 30
0.0
 11
6.600054785286829
 21
-1.261213355974178E-13
 31
0.0
210
0.0
220
0.0
230
1.0
 40
0.636358354079598
 41
0.9219305317359503
 42
6.513795318482858
  0
ELLIPSE
  5
83
330
7F
100
AcDbEntity
  8
중심선
100
AcDbEllipse
 10
20.54032771746488
 20
12.04717430159265
 30
0.0
 11
3.960054785062283
 21
1.540847449632565E-10
 31
0.0
210
0.0
220
0.0
230
1.0
 40
0.3939339440162632
 41
1.131841032648279
 42
5.62031148352944
  0
LINE
  5
84
330
7F
100
AcDbEntity
  8
중심선
100
AcDbLine
 10
2.268634060543552
 20
16.24717430164393
 30
0.0
 11
5.714909304380834
 21
16.24717430164393
 31
0.0
  0
LINE
  5
85
330
7F
100
AcDbEntity
  8
중심선
100
AcDbLine
 10
5.245725140726316
 20
7.84717430164391
 30
0.0
 11
8.692000384563599
 21
7.84717430164391
 31
0.0
  0
LINE
  5
86
330
7F
100
AcDbEntity
  8
중심선
100
AcDbLine
 10
15.74043728645272
 20
16.24717430164393
 30
0.0
 11
8.692000384563599
 21
7.84717430164391
 31
0.0
  0
LINE
  5
87
330
7F
100
AcDbEntity
  8
중심선
100
AcDbLine
 10
0.1404042013395286
 20
13.71084872107135
 30
0.0
 11
3.58671253028996
 21
13.71088815037384
 31
0.0
  0
LINE
  5
88
330
7F
100
AcDbEntity
  8
중심선
100
AcDbLine
 10
2.750260043222114
 20
10.84717430164391
 30
0.0
 11
6.196535287059397
 21
10.84717430164391
 31
0.0
  0
LINE
  5
89
330
7F
100
AcDbEntity
  8
중심선
100
AcDbLine
 10
12.29416204261559
 20
16.24717430164393
 30
0.0
 11
5.245725140726316
 21
7.84717430164391
 31
0.0
  0
LINE
  5
8A
330
7F
100
AcDbEntity
  8
중심선
100
AcDbLine
 10
10.72767329541681
 20
16.24717430164393
 30
0.0
 11
6.196535287059397
 21
10.84717430164391
 31
0.0
  0
LINE
  5
8B
330
7F
100
AcDbEntity
  8
중심선
100
AcDbLine
 10
7.28139805157953
 20
16.24717430164393
 30
0.0
 11
2.750260043222114
 21
10.84717430164391
 31
0.0
  0
LINE
  5
8C
330
7F
100
AcDbEntity
  8
중심선
100
AcDbLine
 10
5.714909304380834
 20
16.24717430164393
 30
0.0
 11
3.58671253028996
 21
13.71088815037384
 31
0.0
  0
LINE
  5
8D
330
7F
100
AcDbEntity
  8
중심선
100
AcDbLine
 10
2.268634060543552
 20
16.24717430164393
 30
0.0
 11
0.1404042013395286
 21
13.71084872107135
 31
0.0
  0
LINE
  5
8E
330
7F
100
AcDbEntity
  8
중심선
100
AcDbLine
 10
7.28139805157953
 20
16.24717430164393
 30
0.0
 11
10.72767329541681
 21
16.24717430164393
 31
0.0
  0
LINE
  5
8F
330
7F
100
AcDbEntity
  8
중심선
100
AcDbLine
 10
12.29416204261559
 20
16.24717430164393
 30
0.0
 11
15.74043728645272
 21
16.24717430164393
 31
0.0
  0
LINE
  5
90
330
7F
100
AcDbEntity
  8
중심선
100
AcDbLine
 10
19.22036997980202
 20
11.08717430171403
 30
0.0
 11
23.66174974927406
 21
11.08717430171406
 31
0.0
  0
LINE
  5
91
330
7F
100
AcDbEntity
  8
중심선
100
AcDbLine
 10
19.22039502424796
 20
13.00717430171391
 30
0.0
 11
19.22036997980202
 21
11.08717430171403
 31
0.0
  0
LINE
  5
92
330
7F
100
AcDbEntity
  8
중심선
100
AcDbLine
 10
19.22039502424796
 20
13.00717430171391
 30
0.0
 11
26.96566020931264
 21
13.00717430171391
 31
0.0
  0
LINE
  5
93
330
7F
100
AcDbEntity
  8
중심선
100
AcDbLine
 10
22.22332737316547
 20
13.45928029700563
 30
0.0
 11
24.52862924686651
 21
15.39360700705356
 31
0.0
  0
ATTDEF
  5
95
330
7F
100
AcDbEntity
  8
FORMAT
 62
     2
100
AcDbText
 10
4.408487351596664
 20
2.075366912832191
 30
0.0
 40
4.233333333333333
  1
E2031031
 41
0.75
  7
SLDTEXTSTYLE0
 11
4.408487351596664
 21
-0.0412997538344756
 31
0.0
100
AcDbAttributeDefinition
  3

  2
AUTOATTR0
 70
     0
 74
     1
  0
ENDBLK
  5
81
330
7F
100
AcDbEntity
  8
0
100
AcDbBlockEnd
  0
BLOCK
  5
D2
330
D1
100
AcDbEntity
  8
0
100
AcDbBlockBegin
  2
_D
 70
     0
 10
0.0
 20
0.0
 30
0.0
  3
_D
  1
_D
  0
LINE
  5
D4
330
D1
100
AcDbEntity
  8
치수문자_일반주서
 62
     0
370
    -2
100
AcDbLine
 10
35.49057883212696
 20
6.215137428723899
 30
0.0
 11
35.49057883212696
 21
17.4255174789735
 31
0.0
  0
LINE
  5
D5
330
D1
100
AcDbEntity
  8
치수문자_일반주서
 62
     0
370
    -2
100
AcDbLine
 10
3.74057883212696
 20
6.1974454166075
 30
0.0
 11
3.74057883212696
 21
17.4255174789735
 31
0.0
  0
LINE
  5
D6
330
D1
100
AcDbEntity
  8
치수문자_일반주서
 62
     0
370
    -2
100
AcDbLine
 10
32.18857883212696
 20
17.4255174789735
 30
0.0
 11
7.04257883212696
 21
17.4255174789735
 31
0.0
  0
SOLID
  5
D7
330
D1
100
AcDbEntity
  8
치수문자_일반주서
 62
     0
100
AcDbTrace
 10
32.18857883212696
 20
16.87518414564017
 30
0.0
 11
32.18857883212696
 21
17.97585081230683
 31
0.0
 12
35.49057883212696
 22
17.4255174789735
 32
0.0
 13
35.49057883212696
 23
17.4255174789735
 33
0.0
  0
SOLID
  5
D8
330
D1
100
AcDbEntity
  8
치수문자_일반주서
 62
     0
100
AcDbTrace
 10
7.04257883212696
 20
17.97585081230683
 30
0.0
 11
7.04257883212696
 21
16.87518414564017
 31
0.0
 12
3.74057883212696
 22
17.4255174789735
 32
0.0
 13
3.74057883212696
 23
17.4255174789735
 33
0.0
  0
MTEXT
  5
D9
330
D1
100
AcDbEntity
  8
치수문자_일반주서
 62
     0
100
AcDbMText
 10
18.84602246290863
 20
21.8005174789735
 30
0.0
 40
3.5
 41
0.0
 71
     2
 72
     1
  1
\A1;31.75 [1 1/4]
  7
SLDTEXTSTYLE0
 73
     1
 44
1.0
  0
POINT
  5
DA
330
D1
100
AcDbEntity
  8
Defpoints
 62
     0
100
AcDbPoint
 10
35.49057883212696
 20
6.152637428723899
 30
0.0
  0
POINT
  5
DB
330
D1
100
AcDbEntity
  8
Defpoints
 62
     0
100
AcDbPoint
 10
3.74057883212696
 20
6.1349454166075
 30
0.0
  0
POINT
  5
DC
330
D1
100
AcDbEntity
  8
Defpoints
 62
     0
100
AcDbPoint
 10
3.74057883212696
 20
17.4255174789735
 30
0.0
  0
ENDBLK
  5
D3
330
D1
100
AcDbEntity
  8
0
100
AcDbBlockEnd
  0
BLOCK
  5
E6
330
E5
100
AcDbEntity
  8
0
100
AcDbBlockBegin
  2
_D_1
 70
     0
 10
0.0
 20
0.0
 30
0.0
  3
_D_1
  1
_D_1
  0
LINE
  5
E8
330
E5
100
AcDbEntity
  8
치수문자_일반주서
 62
     0
370
    -2
100
AcDbLine
 10
35.49057883212696
 20
6.215137428723899
 30
0.0
 11
35.49057883212696
 21
35.03205870442392
 31
0.0
  0
LINE
  5
E9
330
E5
100
AcDbEntity
  8
치수문자_일반주서
 62
     0
370
    -2
100
AcDbLine
 10
-47.05942116787303
 20
5.143574928723896
 30
0.0
 11
-47.05942116787303
 21
35.03205870442392
 31
0.0
  0
LINE
  5
EA
330
E5
100
AcDbEntity
  8
치수문자_일반주서
 62
     0
370
    -2
100
AcDbLine
 10
32.18857883212696
 20
35.03205870442392
 30
0.0
 11
-43.75742116787303
 21
35.03205870442392
 31
0.0
  0
SOLID
  5
EB
330
E5
100
AcDbEntity
  8
치수문자_일반주서
 62
     0
100
AcDbTrace
 10
32.18857883212696
 20
34.48172537109059
 30
0.0
 11
32.18857883212696
 21
35.58239203775726
 31
0.0
 12
35.49057883212696
 22
35.03205870442392
 32
0.0
 13
35.49057883212696
 23
35.03205870442392
 33
0.0
  0
SOLID
  5
EC
330
E5
100
AcDbEntity
  8
치수문자_일반주서
 62
     0
100
AcDbTrace
 10
-43.75742116787303
 20
35.58239203775726
 30
0.0
 11
-43.75742116787303
 21
34.48172537109059
 31
0.0
 12
-47.05942116787303
 22
35.03205870442392
 32
0.0
 13
-47.05942116787303
 23
35.03205870442392
 33
0.0
  0
MTEXT
  5
ED
330
E5
100
AcDbEntity
  8
치수문자_일반주서
 62
     0
100
AcDbMText
 10
-5.784421167873039
 20
39.40705870442392
 30
0.0
 40
3.5
 41
0.0
 71
     2
 72
     1
  1
\A1;82.55 [3 1/4]
  7
SLDTEXTSTYLE0
 73
     1
 44
1.0
  0
POINT
  5
EE
330
E5
100
AcDbEntity
  8
Defpoints
 62
     0
100
AcDbPoint
 10
35.49057883212696
 20
6.152637428723899
 30
0.0
  0
POINT
  5
EF
330
E5
100
AcDbEntity
  8
Defpoints
 62
     0
100
AcDbPoint
 10
-47.05942116787303
 20
5.081074928723896
 30
0.0
  0
POINT
  5
F0
330
E5
100
AcDbEntity
  8
Defpoints
 62
     0
100
AcDbPoint
 10
-47.05942116787303
 20
35.03205870442392
 30
0.0
  0
ENDBLK
  5
E7
330
E5
100
AcDbEntity
  8
0
100
AcDbBlockEnd
  0
BLOCK
  5
FA
330
F9
100
AcDbEntity
  8
0
100
AcDbBlockBegin
  2
_D_2
 70
     0
 10
0.0
 20
0.0
 30
0.0
  3
_D_2
  1
_D_2
  0
LINE
  5
FC
330
F9
100
AcDbEntity
  8
치수문자_일반주서
 62
     0
370
    -2
100
AcDbLine
 10
-45.85192116787304
 20
6.351074928723888
 30
0.0
 11
-58.04269400570026
 21
6.351074928723841
 31
0.0
  0
LINE
  5
FD
330
F9
100
AcDbEntity
  8
치수문자_일반주서
 62
     0
370
    -2
100
AcDbLine
 10
-45.85192116787304
 20
-6.348925071276101
 30
0.0
 11
-58.04269400570021
 21
-6.348925071276147
 31
0.0
  0
LINE
  5
FE
330
F9
100
AcDbEntity
  8
치수문자_일반주서
 62
     0
370
    -2
100
AcDbLine
 10
-58.04269400570024
 20
3.049074928723842
 30
0.0
 11
-58.04269400570023
 21
-3.046925071276148
 31
0.0
  0
SOLID
  5
FF
330
F9
100
AcDbEntity
  8
치수문자_일반주서
 62
     0
100
AcDbTrace
 10
-57.49236067236691
 20
3.049074928723844
 30
0.0
 11
-58.59302733903358
 21
3.04907492872384
 31
0.0
 12
-58.04269400570026
 22
6.351074928723841
 32
0.0
 13
-58.04269400570026
 23
6.351074928723841
 33
0.0
  0
SOLID
  5
100
330
F9
100
AcDbEntity
  8
치수문자_일반주서
 62
     0
100
AcDbTrace
 10
-58.59302733903356
 20
-3.046925071276149
 30
0.0
 11
-57.49236067236689
 21
-3.046925071276146
 31
0.0
 12
-58.04269400570021
 22
-6.348925071276147
 32
0.0
 13
-58.04269400570021
 23
-6.348925071276147
 33
0.0
  0
MTEXT
  5
101
330
F9
100
AcDbEntity
  8
치수문자_일반주서
 62
     0
100
AcDbMText
 10
-62.41769400570023
 20
0.0010749287238727
 30
0.0
 40
3.5
 41
0.0
 71
     2
 72
     1
  1
\A1;%%c12.70 [1/2]
  7
SLDTEXTSTYLE0
 11
-3.356894814614650E-15
 21
1.0
 31
0.0
 73
     1
 44
1.0
  0
POINT
  5
102
330
F9
100
AcDbEntity
  8
Defpoints
 62
     0
100
AcDbPoint
 10
-45.78942116787304
 20
6.351074928723888
 30
0.0
  0
POINT
  5
103
330
F9
100
AcDbEntity
  8
Defpoints
 62
     0
100
AcDbPoint
 10
-45.78942116787304
 20
-6.348925071276101
 30
0.0
  0
POINT
  5
104
330
F9
100
AcDbEntity
  8
Defpoints
 62
     0
100
AcDbPoint
 10
-58.04269400570021
 20
-6.348925071276147
 30
0.0
  0
ENDBLK
  5
FB
330
F9
100
AcDbEntity
  8
0
100
AcDbBlockEnd
  0
BLOCK
  5
10F
330
10E
100
AcDbEntity
  8
0
100
AcDbBlockBegin
  2
_D_3
 70
     0
 10
0.0
 20
0.0
 30
0.0
  3
_D_3
  1
_D_3
  0
LINE
  5
111
330
10E
100
AcDbEntity
  8
치수문자_일반주서
 62
     0
370
    -2
100
AcDbLine
 10
35.55307883212695
 20
6.152637428723899
 30
0.0
 11
48.9854874082497
 21
6.152637428723949
 31
0.0
  0
LINE
  5
112
330
10E
100
AcDbEntity
  8
치수문자_일반주서
 62
     0
370
    -2
100
AcDbLine
 10
35.55307883212695
 20
-6.1504875712761
 30
0.0
 11
48.98548740824974
 21
-6.150487571276052
 31
0.0
  0
LINE
  5
113
330
10E
100
AcDbEntity
  8
치수문자_일반주서
 62
     0
370
    -2
100
AcDbLine
 10
48.9854874082497
 20
6.152637428723949
 30
0.0
 11
48.98548740824956
 21
45.25949324385815
 31
0.0
  0
LINE
  5
114
330
10E
100
AcDbEntity
  8
치수문자_일반주서
 62
     0
370
    -2
100
AcDbLine
 10
48.9854874082497
 20
6.152637428723949
 30
0.0
 11
48.98548740824974
 21
-6.150487571276052
 31
0.0
  0
LINE
  5
115
330
10E
100
AcDbEntity
  8
치수문자_일반주서
 62
     0
370
    -2
100
AcDbLine
 10
48.98548740824968
 20
9.454637428723949
 30
0.0
 11
48.98548740824967
 21
12.75663742872395
 31
0.0
  0
LINE
  5
116
330
10E
100
AcDbEntity
  8
치수문자_일반주서
 62
     0
370
    -2
100
AcDbLine
 10
48.98548740824975
 20
-9.452487571276052
 30
0.0
 11
48.98548740824977
 21
-12.75448757127605
 31
0.0
  0
SOLID
  5
117
330
10E
100
AcDbEntity
  8
치수문자_일반주서
 62
     0
100
AcDbTrace
 10
48.43515407491635
 20
9.454637428723947
 30
0.0
 11
49.53582074158302
 21
9.45463742872395
 31
0.0
 12
48.9854874082497
 22
6.152637428723949
 32
0.0
 13
48.9854874082497
 23
6.152637428723949
 33
0.0
  0
SOLID
  5
118
330
10E
100
AcDbEntity
  8
치수문자_일반주서
 62
     0
100
AcDbTrace
 10
49.53582074158309
 20
-9.45248757127605
 30
0.0
 11
48.43515407491642
 21
-9.452487571276054
 31
0.0
 12
48.98548740824974
 22
-6.150487571276052
 32
0.0
 13
48.98548740824974
 23
-6.150487571276052
 33
0.0
  0
MTEXT
  5
119
330
10E
100
AcDbEntity
  8
치수문자_일반주서
 62
     0
100
AcDbMText
 10
44.61048740824962
 20
29.29074324385813
 30
0.0
 40
3.5
 41
0.0
 71
     2
 72
     1
  1
\A1;%%c12.30 [31/64]
  7
SLDTEXTSTYLE0
 11
-3.465181744118346E-15
 21
1.0
 31
0.0
 73
     1
 44
1.0
  0
POINT
  5
11A
330
10E
100
AcDbEntity
  8
Defpoints
 62
     0
100
AcDbPoint
 10
35.49057883212695
 20
6.152637428723899
 30
0.0
  0
POINT
  5
2A1
330
10E
100
AcDbEntity
  8
Defpoints
 62
     0
100
AcDbPoint
 10
35.49057883212695
 20
-6.1504875712761
 30
0.0
  0
POINT
  5
2A2
330
10E
100
AcDbEntity
  8
Defpoints
 62
     0
100
AcDbPoint
 10
48.98548740824974
 20
-6.15048757127605
 30
0.0
  0
ENDBLK
  5
110
330
10E
100
AcDbEntity
  8
0
100
AcDbBlockEnd
  0
BLOCK
  5
128
330
127
100
AcDbEntity
  8
0
100
AcDbBlockBegin
  2
SW_DOWELSYMBOL_0
 70
     0
 10
0.0
 20
0.0
 30
0.0
  3
SW_DOWELSYMBOL_0
  1
SW_DOWELSYMBOL_0
  0
CIRCLE
  5
12A
330
127
100
AcDbEntity
  8
해칭선
 62
     0
100
AcDbCircle
 10
0.0
 20
0.0
 30
0.0
 40
3.000000000000001
  0
HATCH
  5
12B
330
127
100
AcDbEntity
  8
0
  6
Continuous
 62
     0
370
     0
100
AcDbHatch
 10
0.0
 20
0.0
 30
0.0
210
0.0
220
0.0
230
1.0
  2
SOLID
 70
     1
 71
     0
 91
        1
 92
        0
 93
        3
 72
     2
 10
0.0
 20
0.0
 40
3.000000000000001
 50
0.0
 51
90.0
 73
     1
 72
     1
 10
0.0
 20
3.000000000000001
 11
0.0
 21
0.0
 72
     1
 10
0.0
 20
0.0
 11
3.000000000000001
 21
0.0
 97
        0
 75
     0
 76
     1
 98
        1
 10
0.0
 20
0.0
  0
HATCH
  5
12C
330
127
100
AcDbEntity
  8
0
  6
Continuous
 62
     0
370
     0
100
AcDbHatch
 10
0.0
 20
0.0
 30
0.0
210
0.0
220
0.0
230
1.0
  2
SOLID
 70
     1
 71
     0
 91
        1
 92
        0
 93
        3
 72
     2
 10
0.0
 20
0.0
 40
3.000000000000001
 50
180.0
 51
270.0000000000007
 73
     1
 72
     1
 10
0.0
 20
-3.000000000000001
 11
0.0
 21
0.0
 72
     1
 10
0.0
 20
0.0
 11
-3.000000000000001
 21
0.0
 97
        0
 75
     0
 76
     1
 98
        1
 10
0.0
 20
0.0
  0
ENDBLK
  5
129
330
127
100
AcDbEntity
  8
0
100
AcDbBlockEnd
  0
BLOCK
  5
1F8
330
1F7
100
AcDbEntity
  8
0
100
AcDbBlockBegin
  2
*D7
 70
     1
 10
0.0
 20
0.0
 30
0.0
  3
*D7
  1
*D8
  0
LINE
  5
1FA
330
1F7
100
AcDbEntity
  8
치수문자_일반주서
 62
     0
370
    -2
100
AcDbLine
 10
97.90827283782724
 20
18.57274999999994
 30
0.0
 11
97.90827283782724
 21
28.56912501741772
 31
0.0
  0
LINE
  5
1FB
330
1F7
100
AcDbEntity
  8
치수문자_일반주서
 62
     0
370
    -2
100
AcDbLine
 10
66.15827283782724
 20
18.57112988385622
 30
0.0
 11
66.15827283782724
 21
28.56912501741772
 31
0.0
  0
LINE
  5
1FC
330
1F7
100
AcDbEntity
  8
치수문자_일반주서
 62
     0
370
    -2
100
AcDbLine
 10
66.15827283782724
 20
28.56912501741772
 30
0.0
 11
30.67927283782724
 21
28.56912501741772
 31
0.0
  0
LINE
  5
1FD
330
1F7
100
AcDbEntity
  8
치수문자_일반주서
 62
     0
370
    -2
100
AcDbLine
 10
97.90827283782724
 20
28.56912501741772
 30
0.0
 11
66.15827283782724
 21
28.56912501741772
 31
0.0
  0
LINE
  5
1FE
330
1F7
100
AcDbEntity
  8
치수문자_일반주서
 62
     0
370
    -2
100
AcDbLine
 10
101.2102728378272
 20
28.56912501741772
 30
0.0
 11
104.5122728378272
 21
28.56912501741772
 31
0.0
  0
LINE
  5
1FF
330
1F7
100
AcDbEntity
  8
치수문자_일반주서
 62
     0
370
    -2
100
AcDbLine
 10
62.85627283782724
 20
28.56912501741772
 30
0.0
 11
59.55427283782724
 21
28.56912501741772
 31
0.0
  0
SOLID
  5
200
330
1F7
100
AcDbEntity
  8
치수문자_일반주서
 62
     0
100
AcDbTrace
 10
101.2102728378272
 20
29.11945835075106
 30
0.0
 11
101.2102728378272
 21
28.01879168408439
 31
0.0
 12
97.90827283782724
 22
28.56912501741772
 32
0.0
 13
97.90827283782724
 23
28.56912501741772
 33
0.0
  0
SOLID
  5
201
330
1F7
100
AcDbEntity
  8
치수문자_일반주서
 62
     0
100
AcDbTrace
 10
62.85627283782724
 20
28.01879168408439
 30
0.0
 11
62.85627283782724
 21
29.11945835075106
 31
0.0
 12
66.15827283782724
 22
28.56912501741772
 32
0.0
 13
66.15827283782724
 23
28.56912501741772
 33
0.0
  0
MTEXT
  5
202
330
1F7
100
AcDbEntity
  8
치수문자_일반주서
 62
     0
100
AcDbMText
 10
45.11677283782724
 20
32.94412501741772
 30
0.0
 40
3.5
 41
0.0
 71
     2
 72
     1
  1
\A1;31.75 [1 1/4]
  7
SLDTEXTSTYLE0
 73
     1
 44
1.0
  0
POINT
  5
203
330
1F7
100
AcDbEntity
  8
Defpoints
 62
     0
100
AcDbPoint
 10
97.90827283782724
 20
18.51024999999994
 30
0.0
  0
POINT
  5
204
330
1F7
100
AcDbEntity
  8
Defpoints
 62
     0
100
AcDbPoint
 10
66.15827283782724
 20
18.50862988385622
 30
0.0
  0
POINT
  5
205
330
1F7
100
AcDbEntity
  8
Defpoints
 62
     0
100
AcDbPoint
 10
66.15827283782724
 20
28.56912501741772
 30
0.0
  0
ENDBLK
  5
1F9
330
1F7
100
AcDbEntity
  8
0
100
AcDbBlockEnd
  0
BLOCK
  5
207
330
206
100
AcDbEntity
  8
0
100
AcDbBlockBegin
  2
*D8
 70
     1
 10
0.0
 20
0.0
 30
0.0
  3
*D8
  1
*D9
  0
LINE
  5
209
330
206
100
AcDbEntity
  8
치수문자_일반주서
 62
     0
370
    -2
100
AcDbLine
 10
97.90827283782724
 20
18.57274999999994
 30
0.0
 11
97.90827283782724
 21
47.39040101144356
 31
0.0
  0
LINE
  5
20A
330
206
100
AcDbEntity
  8
치수문자_일반주서
 62
     0
370
    -2
100
AcDbLine
 10
15.35827283782724
 20
17.69962499999993
 30
0.0
 11
15.35827283782724
 21
47.39040101144356
 31
0.0
  0
LINE
  5
20B
330
206
100
AcDbEntity
  8
치수문자_일반주서
 62
     0
370
    -2
100
AcDbLine
 10
94.60627283782725
 20
47.39040101144356
 30
0.0
 11
18.66027283782724
 21
47.39040101144356
 31
0.0
  0
SOLID
  5
20C
330
206
100
AcDbEntity
  8
치수문자_일반주서
 62
     0
100
AcDbTrace
 10
94.60627283782725
 20
46.84006767811022
 30
0.0
 11
94.60627283782725
 21
47.94073434477689
 31
0.0
 12
97.90827283782724
 22
47.39040101144356
 32
0.0
 13
97.90827283782724
 23
47.39040101144356
 33
0.0
  0
SOLID
  5
20D
330
206
100
AcDbEntity
  8
치수문자_일반주서
 62
     0
100
AcDbTrace
 10
18.66027283782724
 20
47.94073434477689
 30
0.0
 11
18.66027283782724
 21
46.84006767811022
 31
0.0
 12
15.35827283782724
 22
47.39040101144356
 32
0.0
 13
15.35827283782724
 23
47.39040101144356
 33
0.0
  0
MTEXT
  5
20E
330
206
100
AcDbEntity
  8
치수문자_일반주서
 62
     0
100
AcDbMText
 10
56.63327283782724
 20
51.76540101144356
 30
0.0
 40
3.5
 41
0.0
 71
     2
 72
     1
  1
\A1;82.55 [3 1/4]
  7
SLDTEXTSTYLE0
 73
     1
 44
1.0
  0
POINT
  5
20F
330
206
100
AcDbEntity
  8
Defpoints
 62
     0
100
AcDbPoint
 10
97.90827283782724
 20
18.51024999999994
 30
0.0
  0
POINT
  5
210
330
206
100
AcDbEntity
  8
Defpoints
 62
     0
100
AcDbPoint
 10
15.35827283782724
 20
17.63712499999993
 30
0.0
  0
POINT
  5
211
330
206
100
AcDbEntity
  8
Defpoints
 62
     0
100
AcDbPoint
 10
15.35827283782724
 20
47.39040101144356
 30
0.0
  0
ENDBLK
  5
208
330
206
100
AcDbEntity
  8
0
100
AcDbBlockEnd
  0
BLOCK
  5
213
330
212
100
AcDbEntity
  8
0
100
AcDbBlockBegin
  2
*D9
 70
     1
 10
0.0
 20
0.0
 30
0.0
  3
*D9
  1
*D10
  0
LINE
  5
215
330
212
100
AcDbEntity
  8
치수문자_일반주서
 62
     0
370
    -2
100
AcDbLine
 10
16.56577283782724
 20
18.90712499999992
 30
0.0
 11
4.37500000000002
 21
18.90712499999988
 31
0.0
  0
LINE
  5
216
330
212
100
AcDbEntity
  8
치수문자_일반주서
 62
     0
370
    -2
100
AcDbLine
 10
16.56577283782724
 20
6.207124999999936
 30
0.0
 11
4.375000000000065
 21
6.207124999999889
 31
0.0
  0
LINE
  5
217
330
212
100
AcDbEntity
  8
치수문자_일반주서
 62
     0
370
    -2
100
AcDbLine
 10
4.375000000000032
 20
15.60512499999988
 30
0.0
 11
4.375000000000053
 21
9.509124999999889
 31
0.0
  0
SOLID
  5
218
330
212
100
AcDbEntity
  8
치수문자_일반주서
 62
     0
100
AcDbTrace
 10
4.925333333333366
 20
15.60512499999988
 30
0.0
 11
3.824666666666699
 21
15.60512499999987
 31
0.0
 12
4.37500000000002
 22
18.90712499999988
 32
0.0
 13
4.37500000000002
 23
18.90712499999988
 33
0.0
  0
SOLID
  5
219
330
212
100
AcDbEntity
  8
치수문자_일반주서
 62
     0
100
AcDbTrace
 10
3.82466666666672
 20
9.509124999999887
 30
0.0
 11
4.925333333333387
 21
9.50912499999989
 31
0.0
 12
4.375000000000065
 22
6.207124999999889
 32
0.0
 13
4.375000000000065
 23
6.207124999999889
 33
0.0
  0
MTEXT
  5
21A
330
212
100
AcDbEntity
  8
치수문자_일반주서
 62
     0
100
AcDbMText
 10
0.0000000000000426
 20
12.55712499999991
 30
0.0
 40
3.5
 41
0.0
 71
     2
 72
     1
  1
\A1;%%c12.70 [1/2]
  7
SLDTEXTSTYLE0
 11
-3.496765431890260E-15
 21
1.0
 31
0.0
 73
     1
 44
1.0
  0
POINT
  5
21B
330
212
100
AcDbEntity
  8
Defpoints
 62
     0
100
AcDbPoint
 10
16.62827283782724
 20
18.90712499999992
 30
0.0
  0
POINT
  5
21C
330
212
100
AcDbEntity
  8
Defpoints
 62
     0
100
AcDbPoint
 10
16.62827283782724
 20
6.207124999999936
 30
0.0
  0
POINT
  5
21D
330
212
100
AcDbEntity
  8
Defpoints
 62
     0
100
AcDbPoint
 10
4.375000000000064
 20
6.207124999999889
 30
0.0
  0
ENDBLK
  5
214
330
212
100
AcDbEntity
  8
0
100
AcDbBlockEnd
  0
BLOCK
  5
21F
330
21E
100
AcDbEntity
  8
0
100
AcDbBlockBegin
  2
*D10
 70
     1
 10
0.0
 20
0.0
 30
0.0
  3
*D10
  1
*D11
  0
LINE
  5
221
330
21E
100
AcDbEntity
  8
치수문자_일반주서
 62
     0
370
    -2
100
AcDbLine
 10
97.97077283782724
 20
18.51024999999994
 30
0.0
 11
115.441105756672
 21
18.51025
 31
0.0
  0
LINE
  5
222
330
21E
100
AcDbEntity
  8
치수문자_일반주서
 62
     0
370
    -2
100
AcDbLine
 10
97.97077283782724
 20
6.603999999999936
 30
0.0
 11
115.441105756672
 21
6.603999999999999
 31
0.0
  0
LINE
  5
223
330
21E
100
AcDbEntity
  8
치수문자_일반주서
 62
     0
370
    -2
100
AcDbLine
 10
115.441105756672
 20
18.51025
 30
0.0
 11
115.4411057566718
 21
56.21735792769204
 31
0.0
  0
LINE
  5
224
330
21E
100
AcDbEntity
  8
치수문자_일반주서
 62
     0
370
    -2
100
AcDbLine
 10
115.441105756672
 20
18.51025
 30
0.0
 11
115.441105756672
 21
6.603999999999999
 31
0.0
  0
LINE
  5
225
330
21E
100
AcDbEntity
  8
치수문자_일반주서
 62
     0
370
    -2
100
AcDbLine
 10
115.441105756672
 20
21.81225
 30
0.0
 11
115.441105756672
 21
25.11425
 31
0.0
  0
LINE
  5
226
330
21E
100
AcDbEntity
  8
치수문자_일반주서
 62
     0
370
    -2
100
AcDbLine
 10
115.441105756672
 20
3.302
 30
0.0
 11
115.4411057566721
 21
0.0
 31
0.0
  0
SOLID
  5
227
330
21E
100
AcDbEntity
  8
치수문자_일반주서
 62
     0
100
AcDbTrace
 10
114.8907724233386
 20
21.81225
 30
0.0
 11
115.9914390900053
 21
21.81225
 31
0.0
 12
115.441105756672
 22
18.51025
 32
0.0
 13
115.441105756672
 23
18.51025
 33
0.0
  0
SOLID
  5
228
330
21E
100
AcDbEntity
  8
치수문자_일반주서
 62
     0
100
AcDbTrace
 10
115.9914390900054
 20
3.302000000000001
 30
0.0
 11
114.8907724233387
 21
3.301999999999998
 31
0.0
 12
115.441105756672
 22
6.603999999999999
 32
0.0
 13
115.441105756672
 23
6.603999999999999
 33
0.0
  0
MTEXT
  5
229
330
21E
100
AcDbEntity
  8
치수문자_일반주서
 62
     0
100
AcDbMText
 10
111.0661057566719
 20
40.90485792769203
 30
0.0
 40
3.5
 41
0.0
 71
     2
 72
     1
  1
\A1;%%c11.91 [15/32]
  7
SLDTEXTSTYLE0
 11
-3.580687802255624E-15
 21
1.0
 31
0.0
 73
     1
 44
1.0
  0
POINT
  5
22A
330
21E
100
AcDbEntity
  8
Defpoints
 62
     0
100
AcDbPoint
 10
97.90827283782724
 20
18.51024999999994
 30
0.0
  0
POINT
  5
22B
330
21E
100
AcDbEntity
  8
Defpoints
 62
     0
100
AcDbPoint
 10
97.90827283782724
 20
6.603999999999936
 30
0.0
  0
POINT
  5
22C
330
21E
100
AcDbEntity
  8
Defpoints
 62
     0
100
AcDbPoint
 10
115.441105756672
 20
6.604000000000002
 30
0.0
  0
ENDBLK
  5
220
330
21E
100
AcDbEntity
  8
0
100
AcDbBlockEnd
  0
BLOCK
  5
26A
330
269
100
AcDbEntity
  8
0
100
AcDbBlockBegin
  2
*D11
 70
     1
 10
0.0
 20
0.0
 30
0.0
  3
*D11
  1
*D12
  0
LINE
  5
26C
330
269
100
AcDbEntity
  8
치수문자_일반주서
 62
     0
370
    -2
100
AcDbLine
 10
186.7088414042328
 20
-33.02348086591257
 30
0.0
 11
186.7088414042328
 21
-23.02710584849478
 31
0.0
  0
LINE
  5
26D
330
269
100
AcDbEntity
  8
치수문자_일반주서
 62
     0
370
    -2
100
AcDbLine
 10
154.9588414042328
 20
-33.02510098205629
 30
0.0
 11
154.9588414042328
 21
-23.02710584849478
 31
0.0
  0
LINE
  5
26E
330
269
100
AcDbEntity
  8
치수문자_일반주서
 62
     0
370
    -2
100
AcDbLine
 10
154.9588414042328
 20
-23.02710584849478
 30
0.0
 11
119.4798414042328
 21
-23.02710584849478
 31
0.0
  0
LINE
  5
26F
330
269
100
AcDbEntity
  8
치수문자_일반주서
 62
     0
370
    -2
100
AcDbLine
 10
186.7088414042328
 20
-23.02710584849478
 30
0.0
 11
154.9588414042328
 21
-23.02710584849478
 31
0.0
  0
LINE
  5
270
330
269
100
AcDbEntity
  8
치수문자_일반주서
 62
     0
370
    -2
100
AcDbLine
 10
190.0108414042328
 20
-23.02710584849478
 30
0.0
 11
193.3128414042328
 21
-23.02710584849478
 31
0.0
  0
LINE
  5
271
330
269
100
AcDbEntity
  8
치수문자_일반주서
 62
     0
370
    -2
100
AcDbLine
 10
151.6568414042328
 20
-23.02710584849478
 30
0.0
 11
148.3548414042328
 21
-23.02710584849478
 31
0.0
  0
SOLID
  5
272
330
269
100
AcDbEntity
  8
치수문자_일반주서
 62
     0
100
AcDbTrace
 10
190.0108414042328
 20
-22.47677251516145
 30
0.0
 11
190.0108414042328
 21
-23.57743918182812
 31
0.0
 12
186.7088414042328
 22
-23.02710584849478
 32
0.0
 13
186.7088414042328
 23
-23.02710584849478
 33
0.0
  0
SOLID
  5
273
330
269
100
AcDbEntity
  8
치수문자_일반주서
 62
     0
100
AcDbTrace
 10
151.6568414042328
 20
-23.57743918182812
 30
0.0
 11
151.6568414042328
 21
-22.47677251516145
 31
0.0
 12
154.9588414042328
 22
-23.02710584849478
 32
0.0
 13
154.9588414042328
 23
-23.02710584849478
 33
0.0
  0
MTEXT
  5
274
330
269
100
AcDbEntity
  8
치수문자_일반주서
 62
     0
100
AcDbMText
 10
133.9173414042328
 20
-18.65210584849478
 30
0.0
 40
3.5
 41
0.0
 71
     2
 72
     1
  1
\A1;31.75 [1 1/4]
  7
SLDTEXTSTYLE0
 73
     1
 44
1.0
  0
POINT
  5
275
330
269
100
AcDbEntity
  8
Defpoints
 62
     0
100
AcDbPoint
 10
186.7088414042328
 20
-33.08598086591257
 30
0.0
  0
POINT
  5
276
330
269
100
AcDbEntity
  8
Defpoints
 62
     0
100
AcDbPoint
 10
154.9588414042328
 20
-33.08760098205629
 30
0.0
  0
POINT
  5
277
330
269
100
AcDbEntity
  8
Defpoints
 62
     0
100
AcDbPoint
 10
154.9588414042328
 20
-23.02710584849478
 30
0.0
  0
ENDBLK
  5
26B
330
269
100
AcDbEntity
  8
0
100
AcDbBlockEnd
  0
BLOCK
  5
279
330
278
100
AcDbEntity
  8
0
100
AcDbBlockBegin
  2
*D12
 70
     1
 10
0.0
 20
0.0
 30
0.0
  3
*D12
  1
*D13
  0
LINE
  5
27B
330
278
100
AcDbEntity
  8
치수문자_일반주서
 62
     0
370
    -2
100
AcDbLine
 10
186.7088414042328
 20
-33.02348086591257
 30
0.0
 11
186.7088414042328
 21
-4.205829854468945
 31
0.0
  0
LINE
  5
27C
330
278
100
AcDbEntity
  8
치수문자_일반주서
 62
     0
370
    -2
100
AcDbLine
 10
104.1588414042328
 20
-33.89660586591257
 30
0.0
 11
104.1588414042328
 21
-4.205829854468945
 31
0.0
  0
LINE
  5
27D
330
278
100
AcDbEntity
  8
치수문자_일반주서
 62
     0
370
    -2
100
AcDbLine
 10
183.4068414042328
 20
-4.205829854468945
 30
0.0
 11
107.4608414042328
 21
-4.205829854468945
 31
0.0
  0
SOLID
  5
27E
330
278
100
AcDbEntity
  8
치수문자_일반주서
 62
     0
100
AcDbTrace
 10
183.4068414042328
 20
-4.756163187802279
 30
0.0
 11
183.4068414042328
 21
-3.655496521135612
 31
0.0
 12
186.7088414042328
 22
-4.205829854468945
 32
0.0
 13
186.7088414042328
 23
-4.205829854468945
 33
0.0
  0
SOLID
  5
27F
330
278
100
AcDbEntity
  8
치수문자_일반주서
 62
     0
100
AcDbTrace
 10
107.4608414042328
 20
-3.655496521135612
 30
0.0
 11
107.4608414042328
 21
-4.756163187802279
 31
0.0
 12
104.1588414042328
 22
-4.205829854468945
 32
0.0
 13
104.1588414042328
 23
-4.205829854468945
 33
0.0
  0
MTEXT
  5
280
330
278
100
AcDbEntity
  8
치수문자_일반주서
 62
     0
100
AcDbMText
 10
145.4338414042328
 20
0.169170145531055
 30
0.0
 40
3.5
 41
0.0
 71
     2
 72
     1
  1
\A1;82.55 [3 1/4]
  7
SLDTEXTSTYLE0
 73
     1
 44
1.0
  0
POINT
  5
281
330
278
100
AcDbEntity
  8
Defpoints
 62
     0
100
AcDbPoint
 10
186.7088414042328
 20
-33.08598086591257
 30
0.0
  0
POINT
  5
282
330
278
100
AcDbEntity
  8
Defpoints
 62
     0
100
AcDbPoint
 10
104.1588414042328
 20
-33.95910586591257
 30
0.0
  0
POINT
  5
283
330
278
100
AcDbEntity
  8
Defpoints
 62
     0
100
AcDbPoint
 10
104.1588414042328
 20
-4.205829854468945
 30
0.0
  0
ENDBLK
  5
27A
330
278
100
AcDbEntity
  8
0
100
AcDbBlockEnd
  0
BLOCK
  5
285
330
284
100
AcDbEntity
  8
0
100
AcDbBlockBegin
  2
*D13
 70
     1
 10
0.0
 20
0.0
 30
0.0
  3
*D13
  1
*D14
  0
LINE
  5
287
330
284
100
AcDbEntity
  8
치수문자_일반주서
 62
     0
370
    -2
100
AcDbLine
 10
105.3663414042328
 20
-32.68910586591258
 30
0.0
 11
93.17556856640559
 21
-32.68910586591262
 31
0.0
  0
LINE
  5
288
330
284
100
AcDbEntity
  8
치수문자_일반주서
 62
     0
370
    -2
100
AcDbLine
 10
105.3663414042328
 20
-45.38910586591257
 30
0.0
 11
93.17556856640563
 21
-45.38910586591261
 31
0.0
  0
LINE
  5
289
330
284
100
AcDbEntity
  8
치수문자_일반주서
 62
     0
370
    -2
100
AcDbLine
 10
93.1755685664056
 20
-35.99110586591262
 30
0.0
 11
93.17556856640562
 21
-42.08710586591261
 31
0.0
  0
SOLID
  5
28A
330
284
100
AcDbEntity
  8
치수문자_일반주서
 62
     0
100
AcDbTrace
 10
93.72590189973893
 20
-35.99110586591262
 30
0.0
 11
92.62523523307227
 21
-35.99110586591262
 31
0.0
 12
93.17556856640559
 22
-32.68910586591262
 32
0.0
 13
93.17556856640559
 23
-32.68910586591262
 33
0.0
  0
SOLID
  5
28B
330
284
100
AcDbEntity
  8
치수문자_일반주서
 62
     0
100
AcDbTrace
 10
92.62523523307229
 20
-42.08710586591261
 30
0.0
 11
93.72590189973894
 21
-42.08710586591261
 31
0.0
 12
93.17556856640563
 22
-45.38910586591261
 32
0.0
 13
93.17556856640563
 23
-45.38910586591261
 33
0.0
  0
MTEXT
  5
28C
330
284
100
AcDbEntity
  8
치수문자_일반주서
 62
     0
100
AcDbMText
 10
88.8005685664056
 20
-39.03910586591259
 30
0.0
 40
3.5
 41
0.0
 71
     2
 72
     1
  1
\A1;%%c12.70 [1/2]
  7
SLDTEXTSTYLE0
 11
-3.356894814614650E-15
 21
1.0
 31
0.0
 73
     1
 44
1.0
  0
POINT
  5
28D
330
284
100
AcDbEntity
  8
Defpoints
 62
     0
100
AcDbPoint
 10
105.4288414042328
 20
-32.68910586591258
 30
0.0
  0
POINT
  5
28E
330
284
100
AcDbEntity
  8
Defpoints
 62
     0
100
AcDbPoint
 10
105.4288414042328
 20
-45.38910586591257
 30
0.0
  0
POINT
  5
28F
330
284
100
AcDbEntity
  8
Defpoints
 62
     0
100
AcDbPoint
 10
93.17556856640563
 20
-45.38910586591261
 30
0.0
  0
ENDBLK
  5
286
330
284
100
AcDbEntity
  8
0
100
AcDbBlockEnd
  0
BLOCK
  5
291
330
290
100
AcDbEntity
  8
0
100
AcDbBlockBegin
  2
*D14
 70
     1
 10
0.0
 20
0.0
 30
0.0
  3
*D14
  1
*D15
  0
LINE
  5
293
330
290
100
AcDbEntity
  8
치수문자_일반주서
 62
     0
370
    -2
100
AcDbLine
 10
186.7713414042328
 20
-33.08598086591257
 30
0.0
 11
204.2416743230775
 21
-33.0859808659125
 31
0.0
  0
LINE
  5
294
330
290
100
AcDbEntity
  8
치수문자_일반주서
 62
     0
370
    -2
100
AcDbLine
 10
186.7713414042328
 20
-44.99223086591257
 30
0.0
 11
204.2416743230775
 21
-44.9922308659125
 31
0.0
  0
LINE
  5
295
330
290
100
AcDbEntity
  8
치수문자_일반주서
 62
     0
370
    -2
100
AcDbLine
 10
204.2416743230775
 20
-33.0859808659125
 30
0.0
 11
204.2416743230774
 21
4.621127061779539
 31
0.0
  0
LINE
  5
296
330
290
100
AcDbEntity
  8
치수문자_일반주서
 62
     0
370
    -2
100
AcDbLine
 10
204.2416743230775
 20
-33.0859808659125
 30
0.0
 11
204.2416743230775
 21
-44.9922308659125
 31
0.0
  0
LINE
  5
297
330
290
100
AcDbEntity
  8
치수문자_일반주서
 62
     0
370
    -2
100
AcDbLine
 10
204.2416743230775
 20
-29.7839808659125
 30
0.0
 11
204.2416743230775
 21
-26.4819808659125
 31
0.0
  0
LINE
  5
298
330
290
100
AcDbEntity
  8
치수문자_일반주서
 62
     0
370
    -2
100
AcDbLine
 10
204.2416743230775
 20
-48.2942308659125
 30
0.0
 11
204.2416743230775
 21
-51.5962308659125
 31
0.0
  0
SOLID
  5
299
330
290
100
AcDbEntity
  8
치수문자_일반주서
 62
     0
100
AcDbTrace
 10
203.6913409897442
 20
-29.7839808659125
 30
0.0
 11
204.7920076564108
 21
-29.7839808659125
 31
0.0
 12
204.2416743230775
 22
-33.0859808659125
 32
0.0
 13
204.2416743230775
 23
-33.0859808659125
 33
0.0
  0
SOLID
  5
29A
330
290
100
AcDbEntity
  8
치수문자_일반주서
 62
     0
100
AcDbTrace
 10
204.7920076564109
 20
-48.2942308659125
 30
0.0
 11
203.6913409897442
 21
-48.2942308659125
 31
0.0
 12
204.2416743230775
 22
-44.9922308659125
 32
0.0
 13
204.2416743230775
 23
-44.9922308659125
 33
0.0
  0
MTEXT
  5
29B
330
290
100
AcDbEntity
  8
치수문자_일반주서
 62
     0
100
AcDbMText
 10
199.8666743230775
 20
-10.69137293822047
 30
0.0
 40
3.5
 41
0.0
 71
     2
 72
     1
  1
\A1;%%c11.91 [15/32]
  7
SLDTEXTSTYLE0
 11
-2.387125201503749E-15
 21
1.0
 31
0.0
 73
     1
 44
1.0
  0
POINT
  5
29C
330
290
100
AcDbEntity
  8
Defpoints
 62
     0
100
AcDbPoint
 10
186.7088414042328
 20
-33.08598086591257
 30
0.0
  0
POINT
  5
29D
330
290
100
AcDbEntity
  8
Defpoints
 62
     0
100
AcDbPoint
 10
186.7088414042328
 20
-44.99223086591257
 30
0.0
  0
POINT
  5
29E
330
290
100
AcDbEntity
  8
Defpoints
 62
     0
100
AcDbPoint
 10
204.2416743230776
 20
-44.9922308659125
 30
0.0
  0
ENDBLK
  5
292
330
290
100
AcDbEntity
  8
0
100
AcDbBlockEnd
  0
ENDSEC
  0
SECTION
  2
ENTITIES
  0
LINE
  5
96
330
1F
100
AcDbEntity
  8
외형선
  6
Continuous
370
    15
100
AcDbLine
 10
1.999999999999998
 20
-6.348925071276112
 30
0.0
 11
2.740578832126955
 21
-6.150487571276107
 31
0.0
  0
LINE
  5
97
330
1F
100
AcDbEntity
  8
외형선
  6
Continuous
370
    15
100
AcDbLine
 10
2.740578832126955
 20
6.152637428723894
 30
0.0
 11
1.999999999999998
 21
6.351074928723899
 31
0.0
  0
LINE
  5
98
330
1F
100
AcDbEntity
  8
외형선
  6
Continuous
370
    15
100
AcDbLine
 10
-45.78942116787304
 20
-6.34892507127611
 30
0.0
 11
1.999999999999998
 21
-6.34892507127611
 31
0.0
  0
LINE
  5
99
330
1F
100
AcDbEntity
  8
외형선
  6
Continuous
370
    15
100
AcDbLine
 10
1.999999999999998
 20
6.351074928723897
 30
0.0
 11
-17.32554616787304
 21
6.351074928723897
 31
0.0
  0
LINE
  5
9A
330
1F
100
AcDbEntity
  8
외형선
  6
Continuous
370
    15
100
AcDbLine
 10
-45.78942116787304
 20
6.351074928723893
 30
0.0
 11
-47.05942116787303
 21
5.081074928723896
 31
0.0
  0
LINE
  5
9B
330
1F
100
AcDbEntity
  8
외형선
  6
Continuous
370
    15
100
AcDbLine
 10
-47.05942116787303
 20
-5.078925071276109
 30
0.0
 11
-45.78942116787304
 21
-6.348925071276106
 31
0.0
  0
LINE
  5
9C
330
1F
100
AcDbEntity
  8
외형선
  6
Continuous
370
    15
100
AcDbLine
 10
2.740578832126955
 20
-6.150487571276107
 30
0.0
 11
3.740578832126957
 21
-6.150487571276107
 31
0.0
  0
LINE
  5
9D
330
1F
100
AcDbEntity
  8
외형선
  6
Continuous
370
    15
100
AcDbLine
 10
3.740578832126957
 20
6.152637428723894
 30
0.0
 11
2.740578832126955
 21
6.152637428723894
 31
0.0
  0
LINE
  5
9E
330
1F
100
AcDbEntity
  8
0
  6
Continuous
 62
     1
370
    15
100
AcDbLine
 10
26.59515947417655
 20
-1.806493779489074
 30
0.0
 11
26.66480295770518
 21
-1.844305292774891
 31
0.0
  0
LINE
  5
9F
330
1F
100
AcDbEntity
  8
0
  6
Continuous
 62
     1
370
    15
100
AcDbLine
 10
6.682645055870404
 20
6.152637428723896
 30
0.0
 11
3.740578832126957
 21
6.152637428723896
 31
0.0
  0
LINE
  5
A0
330
1F
100
AcDbEntity
  8
0
  6
Continuous
 62
     1
370
    15
100
AcDbLine
 10
19.66861686727678
 20
-6.150487571276109
 30
0.0
 11
23.41960283530312
 21
-6.150487571276109
 31
0.0
  0
LINE
  5
A1
330
1F
100
AcDbEntity
  8
0
  6
Continuous
 62
     1
370
    15
100
AcDbLine
 10
23.4196028353031
 20
6.152637428723896
 30
0.0
 11
19.66861686727685
 21
6.152637428723896
 31
0.0
  0
LINE
  5
A2
330
1F
100
AcDbEntity
  8
0
  6
Continuous
 62
     1
370
    15
100
AcDbLine
 10
3.740578832126957
 20
-6.150487571276109
 30
0.0
 11
6.682645055870312
 21
-6.150487571276109
 31
0.0
  0
LINE
  5
A3
330
1F
100
AcDbEntity
  8
외형선
  6
Continuous
370
    15
100
AcDbLine
 10
2.740578832126955
 20
0.0010749287238931
 30
0.0
 11
2.740578832126955
 21
6.152637428723889
 31
0.0
  0
LINE
  5
A4
330
1F
100
AcDbEntity
  8
외형선
  6
Continuous
370
    15
100
AcDbLine
 10
2.740578832126955
 20
-6.150487571276092
 30
0.0
 11
2.740578832126955
 21
0.0010749287238931
 31
0.0
  0
LINE
  5
A5
330
1F
100
AcDbEntity
  8
외형선
  6
Continuous
370
    15
100
AcDbLine
 10
1.999999999999998
 20
0.0010749287238931
 30
0.0
 11
1.999999999999998
 21
6.351074928723899
 31
0.0
  0
LINE
  5
A6
330
1F
100
AcDbEntity
  8
외형선
  6
Continuous
370
    15
100
AcDbLine
 10
1.999999999999998
 20
-6.348925071276112
 30
0.0
 11
1.999999999999998
 21
0.0010749287238931
 31
0.0
  0
LINE
  5
A7
330
1F
100
AcDbEntity
  8
외형선
  6
Continuous
370
    15
100
AcDbLine
 10
-45.78942116787304
 20
0.0010749287238931
 30
0.0
 11
-45.78942116787304
 21
6.351074928723897
 31
0.0
  0
LINE
  5
A8
330
1F
100
AcDbEntity
  8
외형선
  6
Continuous
370
    15
100
AcDbLine
 10
-45.78942116787304
 20
-6.34892507127611
 30
0.0
 11
-45.78942116787304
 21
0.0010749287238931
 31
0.0
  0
LINE
  5
A9
330
1F
100
AcDbEntity
  8
외형선
  6
Continuous
370
    15
100
AcDbLine
 10
-47.05942116787303
 20
0.0010749287238931
 30
0.0
 11
-47.05942116787303
 21
5.081074928723896
 31
0.0
  0
LINE
  5
AA
330
1F
100
AcDbEntity
  8
외형선
  6
Continuous
370
    15
100
AcDbLine
 10
-47.05942116787303
 20
-5.078925071276109
 30
0.0
 11
-47.05942116787303
 21
0.0010749287238931
 31
0.0
  0
SPLINE
  5
AB
330
1F
100
AcDbEntity
  8
외형선
  6
Continuous
370
    15
100
AcDbSpline
210
0.0
220
0.0
230
1.0
 70
     8
 71
     3
 72
     8
 73
     4
 74
     0
 42
0.000000001
 43
0.00000001
 40
0.0
 40
0.0
 40
0.0
 40
0.0
 40
1.0
 40
1.0
 40
1.0
 40
1.0
 10
3.74057883212695
 20
6.134945416606586
 30
0.0
 10
3.574167165876284
 20
6.142225420074793
 30
0.0
 10
3.407422186608095
 20
6.147265574102954
 30
0.0
 10
3.240618054789129
 20
6.150052289887278
 30
0.0
  0
LINE
  5
AC
330
1F
100
AcDbEntity
  8
외형선
  6
Continuous
370
    15
100
AcDbLine
 10
3.240618054789101
 20
1.953828655580189
 30
0.0
 11
3.240618054789108
 21
6.150053489056345
 31
0.0
  0
SPLINE
  5
AD
330
1F
100
AcDbEntity
  8
외형선
  6
Continuous
370
    15
100
AcDbSpline
210
0.0
220
0.0
230
1.0
 70
     8
 71
     3
 72
     8
 73
     4
 74
     0
 42
0.000000001
 43
0.00000001
 40
0.0
 40
0.0
 40
0.0
 40
0.0
 40
1.0
 40
1.0
 40
1.0
 40
1.0
 10
3.740578832126976
 20
1.678410973394143
 30
0.0
 10
3.574167165876306
 20
1.770829076787865
 30
0.0
 10
3.407422186608109
 20
1.862695031480933
 30
0.0
 10
3.240618054789129
 20
1.953856058532375
 30
0.0
  0
SPLINE
  5
AE
330
1F
100
AcDbEntity
  8
외형선
  6
Continuous
370
    15
100
AcDbSpline
210
0.0
220
0.0
230
1.0
 70
     8
 71
     3
 72
     8
 73
     4
 74
     0
 42
0.000000001
 43
0.00000001
 40
0.0
 40
0.0
 40
0.0
 40
0.0
 40
1.0
 40
1.0
 40
1.0
 40
1.0
 10
3.74057883212695
 20
-0.4651375006341969
 30
0.0
 10
3.574167165876284
 20
-0.3693558448623839
 30
0.0
 10
3.407422186608095
 20
-0.2733396551881158
 30
0.0
 10
3.240618054789129
 20
-0.1772467001001425
 30
0.0
  0
LINE
  5
AF
330
1F
100
AcDbEntity
  8
외형선
  6
Continuous
370
    15
100
AcDbLine
 10
3.240618054789101
 20
-5.832318086807893
 30
0.0
 11
3.240618054789108
 21
-0.1772053449412075
 31
0.0
  0
SPLINE
  5
B0
330
1F
100
AcDbEntity
  8
외형선
  6
Continuous
370
    15
100
AcDbSpline
210
0.0
220
0.0
230
1.0
 70
     8
 71
     3
 72
     8
 73
     4
 74
     0
 42
0.000000001
 43
0.00000001
 40
0.0
 40
0.0
 40
0.0
 40
0.0
 40
1.0
 40
1.0
 40
1.0
 40
1.0
 10
3.740578832126976
 20
-5.917393199487679
 30
0.0
 10
3.574167165876306
 20
-5.891201250381215
 30
0.0
 10
3.407422186608109
 20
-5.862825940682026
 30
0.0
 10
3.240618054789129
 20
-5.832308913478687
 30
0.0
  0
LINE
  5
B1
330
1F
100
AcDbEntity
  8
외형선
  6
Continuous
370
    15
100
AcDbLine
 10
3.740578832126957
 20
-6.150487571276107
 30
0.0
 11
3.740578832126964
 21
-5.917393199487679
 31
0.0
  0
LINE
  5
B2
330
1F
100
AcDbEntity
  8
외형선
  6
Continuous
370
    15
100
AcDbLine
 10
3.740578832126936
 20
-0.4651375006342454
 30
0.0
 11
3.740578832126964
 21
1.678410973394145
 31
0.0
  0
LINE
  5
B3
330
1F
100
AcDbEntity
  8
외형선
  6
Continuous
370
    15
100
AcDbLine
 10
3.740578832126936
 20
6.134945416606674
 30
0.0
 11
3.740578832126957
 21
6.152637428723894
 31
0.0
  0
SPLINE
  5
B4
330
1F
100
AcDbEntity
  8
외형선
  6
Continuous
370
    15
100
AcDbSpline
210
0.0
220
0.0
230
1.0
 70
    24
 71
     3
 72
    18
 73
    14
 74
     0
 42
0.000000001
 43
0.00000001
 40
0.0
 40
0.0
 40
0.0
 40
0.0
 40
0.0769931913474853
 40
0.1539863826949708
 40
0.2510548829945931
 40
0.3481233832942155
 40
0.4451918835938385
 40
0.5422603838934615
 40
0.6393288841930844
 40
0.7363973844927074
 40
0.8334658847923295
 40
0.9305343850919517
 40
1.0
 40
1.0
 40
1.0
 40
1.0
 10
3.740578832126964
 20
-5.917393199487679
 30
0.0
 10
3.740578832126957
 20
-5.77630784949419
 30
0.0
 10
3.740578832126964
 20
-5.494137149507213
 30
0.0
 10
3.740578832126914
 20
-4.992909663937962
 30
0.0
 10
3.74057883212695
 20
-4.426831977644941
 30
0.0
 10
3.740578832126943
 20
-3.803046021880661
 30
0.0
 10
3.740578832126943
 20
-3.182101831545626
 30
0.0
 10
3.74057883212695
 20
-2.58076427876729
 30
0.0
 10
3.74057883212695
 20
-2.017675159102359
 30
0.0
 10
3.740578832126957
 20
-1.505791458517058
 30
0.0
 10
3.740578832126957
 20
-1.066403925631782
 30
0.0
 10
3.740578832126964
 20
-0.7284178027166113
 30
0.0
 10
3.74057883212695
 20
-0.5833270150230505
 30
0.0
 10
3.74057883212695
 20
-0.5228059573883561
 30
0.0
  0
SPLINE
  5
B5
330
1F
100
AcDbEntity
  8
외형선
  6
Continuous
370
    15
100
AcDbSpline
210
0.0
220
0.0
230
1.0
 70
    24
 71
     3
 72
    15
 73
    11
 74
     0
 42
0.000000001
 43
0.00000001
 40
0.0
 40
0.0
 40
0.0
 40
0.0
 40
0.0705713960260167
 40
0.1957604301025349
 40
0.320949464179053
 40
0.446138498255568
 40
0.5713275323320831
 40
0.6965165664086063
 40
0.8217056004851294
 40
1.0
 40
1.0
 40
1.0
 40
1.0
 10
3.740578832126957
 20
1.736079430148256
 30
0.0
 10
3.740578832126957
 20
1.800934006734521
 30
0.0
 10
3.740578832126964
 20
1.98083635416668
 30
0.0
 10
3.740578832126957
 20
2.368309661915413
 30
0.0
 10
3.74057883212695
 20
2.873351232468846
 30
0.0
 10
3.740578832126936
 20
3.4371279498019
 30
0.0
 10
3.740578832126921
 20
4.036928785777957
 30
0.0
 10
3.740578832126928
 20
4.657298249984714
 30
0.0
 10
3.740578832126936
 20
5.372028043245741
 30
0.0
 10
3.74057883212695
 20
5.852608028674491
 30
0.0
 10
3.740578832126936
 20
6.134945416606674
 30
0.0
  0
LINE
  5
B6
330
1F
100
AcDbEntity
  8
0
  6
Continuous
 62
     1
370
    15
100
AcDbLine
 10
35.49057883212696
 20
-5.570280496307158
 30
0.0
 11
35.49057883212696
 21
0.5281491037550174
 31
0.0
  0
SPLINE
  5
B7
330
1F
100
AcDbEntity
  8
0
  6
Continuous
 62
     1
370
    15
100
AcDbSpline
210
0.0
220
0.0
230
1.0
 70
     8
 71
     3
 72
    22
 73
    18
 74
     0
 42
0.000000001
 43
0.00000001
 40
0.0
 40
0.0
 40
0.0
 40
0.0
 40
0.0361015656824035
 40
0.1052102249507591
 40
0.1743214103681607
 40
0.2434404288215531
 40
0.3113411427298531
 40
0.3792667205181678
 40
0.4471865231455795
 40
0.5150828021928802
 40
0.5843506870224766
 40
0.6536122022730861
 40
0.7228723736897926
 40
0.7921362301450428
 40
0.8614087919372104
 40
0.9306950591314239
 40
1.0
 40
1.0
 40
1.0
 40
1.0
 10
6.682645055870397
 20
6.125853989657112
 30
0.0
 10
7.029302222384596
 20
6.130560984665012
 30
0.0
 10
8.039559749457114
 20
6.144278506170309
 30
0.0
 10
9.713418122751508
 20
5.933072908989891
 30
0.0
 10
11.70433135450499
 20
5.51552162824709
 30
0.0
 10
13.68370304302334
 20
4.898777349769022
 30
0.0
 10
15.65171262103093
 20
4.121553075481196
 30
0.0
 10
17.60843035704739
 20
3.209909824653868
 30
0.0
 10
19.56504628489106
 20
2.190580772932894
 30
0.0
 10
21.53436563998795
 20
1.090123942752164
 30
0.0
 10
23.51655994092787
 20
-0.0553518965097178
 30
0.0
 10
25.5117990230306
 20
-1.206557435513395
 30
0.0
 10
27.50699591982484
 20
-2.315243925867807
 30
0.0
 10
29.50231835802602
 20
-3.343935336008022
 30
0.0
 10
31.49794447191051
 20
-4.251913196857593
 30
0.0
 10
33.49403426774436
 20
-5.025159774158515
 30
0.0
 10
34.82500419937274
 20
-5.388557267623305
 30
0.0
 10
35.49057883212698
 20
-5.570280496307158
 30
0.0
  0
SPLINE
  5
B8
330
1F
100
AcDbEntity
  8
0
  6
Continuous
 62
     1
370
    15
100
AcDbSpline
210
0.0
220
0.0
230
1.0
 70
     8
 71
     3
 72
    19
 73
    15
 74
     0
 42
0.000000001
 43
0.00000001
 40
0.0
 40
0.0
 40
0.0
 40
0.0
 40
0.0892710138067033
 40
0.1785171456300889
 40
0.2677451723504958
 40
0.3569619144057004
 40
0.4461742194347942
 40
0.5337939502179526
 40
0.6214272402659762
 40
0.7090844143837749
 40
0.7967729063566181
 40
0.8862305158095931
 40
0.9756659638040093
 40
1.0
 40
1.0
 40
1.0
 40
1.0
 10
35.49057883212695
 20
0.5281491037550167
 30
0.0
 10
34.82645197883004
 20
0.9082566574153289
 30
0.0
 10
33.49838338039815
 20
1.668365819598716
 30
0.0
 10
31.50665670445187
 20
2.745649199999888
 30
0.0
 10
29.51540301215427
 20
3.728545313459097
 30
0.0
 10
27.5244595032654
 20
4.581217842368971
 30
0.0
 10
25.54547792644531
 20
5.270338395476303
 30
0.0
 10
23.57833867917772
 20
5.775426454900296
 30
0.0
 10
21.6226812444234
 20
6.083730970570383
 30
0.0
 10
19.66642812277441
 20
6.186702475184931
 30
0.0
 10
17.69638570070533
 20
6.084611010765142
 30
0.0
 10
15.71323152045973
 20
5.75913431886991
 30
0.0
 10
14.2014484795675
 20
5.396199191400254
 30
0.0
 10
13.35516596394965
 20
5.092956838249619
 30
0.0
 10
13.17415548021912
 20
5.028096647924986
 30
0.0
  0
LINE
  5
B9
330
1F
100
AcDbEntity
  8
0
  6
Continuous
 62
     1
370
    15
100
AcDbLine
 10
35.49057883212696
 20
-6.1504875712761
 30
0.0
 11
35.49057883212696
 21
-5.570280496307158
 31
0.0
  0
SPLINE
  5
BA
330
1F
100
AcDbEntity
  8
0
  6
Continuous
 62
     1
370
    15
100
AcDbSpline
210
0.0
220
0.0
230
1.0
 70
     8
 71
     3
 72
    60
 73
    56
 74
     0
 42
0.000000001
 43
0.00000001
 40
0.0
 40
0.0
 40
0.0
 40
0.0
 40
0.0625000000000013
 40
0.0625000000000013
 40
0.0937500000000019
 40
0.0937500000000019
 40
0.1250000000000025
 40
0.1250000000000025
 40
0.1562500000000031
 40
0.1562500000000031
 40
0.1875000000000037
 40
0.1875000000000037
 40
0.2187500000000044
 40
0.2187500000000044
 40
0.250000000000005
 40
0.250000000000005
 40
0.3125000000000053
 40
0.3125000000000053
 40
0.3437500000000054
 40
0.3437500000000054
 40
0.3750000000000055
 40
0.3750000000000055
 40
0.4062500000000057
 40
0.4062500000000057
 40
0.4375000000000058
 40
0.4375000000000058
 40
0.4687500000000059
 40
0.4687500000000059
 40
0.500000000000006
 40
0.500000000000006
 40
0.5625000000000052
 40
0.5625000000000052
 40
0.6250000000000046
 40
0.6250000000000046
 40
0.6562500000000041
 40
0.6562500000000041
 40
0.6875000000000038
 40
0.6875000000000038
 40
0.7187500000000034
 40
0.7187500000000034
 40
0.750000000000003
 40
0.750000000000003
 40
0.7812500000000027
 40
0.7812500000000027
 40
0.8125000000000023
 40
0.8125000000000023
 40
0.8750000000000016
 40
0.8750000000000016
 40
0.9062500000000012
 40
0.9062500000000012
 40
0.9375000000000009
 40
0.9375000000000009
 40
0.9687500000000004
 40
0.9687500000000004
 40
1.0
 40
1.0
 40
1.0
 40
1.0
 10
35.49057883212695
 20
-6.1504875712761
 30
0.0
 10
34.83271974248445
 20
-6.095203208685722
 30
0.0
 10
34.16518836429264
 20
-6.026771019288446
 30
0.0
 10
33.17519440028654
 20
-5.872946615327676
 30
0.0
 10
32.84616018783215
 20
-5.813182740323462
 30
0.0
 10
32.18346338577327
 20
-5.676730875353446
 30
0.0
 10
31.85130876654642
 20
-5.600116605532686
 30
0.0
 10
31.18970298303886
 20
-5.431133826868713
 30
0.0
 10
30.86144708684731
 20
-5.33890608217303
 30
0.0
 10
30.19982037683672
 20
-5.138826926509334
 30
0.0
 10
29.86766365448359
 20
-5.031061085252567
 30
0.0
 10
29.20497945707255
 20
-4.801453919657338
 30
0.0
 10
28.87596916525597
 20
-4.679815000361464
 30
0.0
 10
28.2159439970674
 20
-4.423157747940778
 30
0.0
 10
27.88405450772165
 20
-4.288001495650279
 30
0.0
 10
26.8892120276157
 20
-3.864591205713309
 30
0.0
 10
26.23189903917256
 20
-3.559161307279064
 30
0.0
 10
25.23704400827155
 20
-3.071486968152464
 30
0.0
 10
24.90516719175798
 20
-2.904193212190326
 30
0.0
 10
24.24520053640484
 20
-2.562349241656876
 30
0.0
 10
23.91614203024745
 20
-2.387645636462433
 30
0.0
 10
23.25343275377374
 20
-2.031024808502756
 30
0.0
 10
22.92128030331817
 20
-1.849366295236187
 30
0.0
 10
22.25969557583192
 20
-1.481723293081572
 30
0.0
 10
21.93143930606703
 20
-1.295968597610682
 30
0.0
 10
21.26979179908556
 20
-0.9202897188066973
 30
0.0
 10
20.93763303925252
 20
-0.7305912504615141
 30
0.0
 10
20.27496157671411
 20
-0.3499378116486296
 30
0.0
 10
19.9459748324545
 20
-0.1592794846194434
 30
0.0
 10
18.9558934846231
 20
0.4131623012487974
 30
0.0
 10
18.28851981990713
 20
0.7960007397034152
 30
0.0
 10
16.97265237587223
 20
1.544550385794673
 30
0.0
 10
16.30511271747467
 20
1.913832840464366
 30
0.0
 10
15.31520690809231
 20
2.44594186555329
 30
0.0
 10
14.98612373518259
 20
2.619886158098274
 30
0.0
 10
14.32340211453521
 20
2.960495342763363
 30
0.0
 10
13.99125189849457
 20
3.126889406252357
 30
0.0
 10
13.32968835653418
 20
3.44970949119641
 30
0.0
 10
13.0014313396229
 20
3.605970435818147
 30
0.0
 10
12.33976316521611
 20
3.908446619869642
 30
0.0
 10
12.00760243355096
 20
4.054444609109373
 30
0.0
 10
11.34494383610156
 20
4.334045869908583
 30
0.0
 10
11.01598026630279
 20
4.46745504788117
 30
0.0
 10
10.35589709922059
 20
4.721310275174051
 30
0.0
 10
10.02399519892283
 20
4.841831966068368
 30
0.0
 10
9.029166053102122
 20
5.181733728744439
 30
0.0
 10
8.371851824824374
 20
5.379000335251619
 30
0.0
 10
7.376985026651548
 20
5.627534116952901
 30
0.0
 10
7.045121144816894
 20
5.702354272028947
 30
0.0
 10
6.385213516088308
 20
5.835056562481415
 30
0.0
 10
6.056105303392973
 20
5.893039629050937
 30
0.0
 10
5.393371468821252
 20
5.992057845786474
 30
0.0
 10
5.061223552837637
 20
6.032988599786866
 30
0.0
 10
4.399681325893811
 20
6.097192699757786
 30
0.0
 10
4.071423188263566
 20
6.120471983857686
 30
0.0
 10
3.740578832127081
 20
6.134945416606583
 30
0.0
  0
SPLINE
  5
BB
330
1F
100
AcDbEntity
  8
0
  6
Continuous
 62
     1
370
    15
100
AcDbSpline
210
0.0
220
0.0
230
1.0
 70
     8
 71
     3
 72
    21
 73
    17
 74
     0
 42
0.000000001
 43
0.00000001
 40
0.0
 40
0.0
 40
0.0
 40
0.0
 40
0.0760830000166366
 40
0.1521570916012827
 40
0.2282281155919053
 40
0.3043019202289289
 40
0.3803843470426101
 40
0.4551257309933742
 40
0.5298944837403662
 40
0.6046568795067964
 40
0.6793933818056653
 40
0.7556396725662891
 40
0.831878952043507
 40
0.9081167523020256
 40
0.9843586088489809
 40
1.0
 40
1.0
 40
1.0
 40
1.0
 10
3.74057883212695
 20
1.678410973394157
 30
0.0
 10
4.404301888969755
 20
1.304053442012837
 30
0.0
 10
5.731670288426033
 20
0.5553822121512074
 30
0.0
 10
7.722589694911003
 20
-0.6026576482346453
 30
0.0
 10
9.713419355884257
 20
-1.735450624492172
 30
0.0
 10
11.70433102392443
 20
-2.808907520574023
 30
0.0
 10
13.68370312957702
 20
-3.778453347472613
 30
0.0
 10
15.65171259906967
 20
-4.613242902864497
 30
0.0
 10
17.60843035894727
 20
-5.28782793352874
 30
0.0
 10
19.56504629925068
 20
-5.784666764017011
 30
0.0
 10
21.53436558017793
 20
-6.08941795148818
 30
0.0
 10
23.51656017077154
 20
-6.185635071909371
 30
0.0
 10
25.51179816548299
 20
-6.070071348041197
 30
0.0
 10
27.50699912020961
 20
-5.727276309974221
 30
0.0
 10
28.97358219220002
 20
-5.368835821258343
 30
0.0
 10
29.77514448518114
 20
-5.078428099342182
 30
0.0
 10
29.9115953581154
 20
-5.028991658145652
 30
0.0
  0
SPLINE
  5
BC
330
1F
100
AcDbEntity
  8
외형선
  6
Continuous
370
    15
100
AcDbSpline
210
0.0
220
0.0
230
1.0
 70
    24
 71
     3
 72
    15
 73
    11
 74
     0
 42
0.000000001
 43
0.00000001
 40
0.0
 40
0.0
 40
0.0
 40
0.0
 40
0.1278884172347552
 40
0.2557768344695104
 40
0.3812953415387416
 40
0.506813848607973
 40
0.6323323556772076
 40
0.7578508627464422
 40
0.8833693698156745
 40
1.0
 40
1.0
 40
1.0
 40
1.0
 10
3.740578832126957
 20
6.1349454166075
 30
0.0
 10
3.74057883212695
 20
5.934662871055473
 30
0.0
 10
3.740578832126936
 20
5.534097779951423
 30
0.0
 10
3.7405788321269
 20
4.903892105813559
 30
0.0
 10
3.740578832126957
 20
4.276524514166315
 30
0.0
 10
3.740578832127005
 20
3.665994701734611
 30
0.0
 10
3.740578832126969
 20
3.086954860575136
 30
0.0
 10
3.74057883212695
 20
2.55646513371524
 30
0.0
 10
3.740578832126969
 20
2.093742841232347
 30
0.0
 10
3.740578832126957
 20
1.852340410624147
 30
0.0
 10
3.740578832126957
 20
1.736069430148256
 30
0.0
  0
SPLINE
  5
BD
330
1F
100
AcDbEntity
  8
0
  6
Continuous
 62
     1
370
    15
100
AcDbSpline
210
0.0
220
0.0
230
1.0
 70
     8
 71
     3
 72
    16
 73
    12
 74
     0
 42
0.000000001
 43
0.00000001
 40
0.0
 40
0.0
 40
0.0
 40
0.0
 40
0.0001250560041743
 40
0.1229825406548299
 40
0.2483186780770235
 40
0.3736237658028036
 40
0.4989068093000428
 40
0.6241768652081234
 40
0.7494430203652387
 40
0.8747143706869536
 40
1.0
 40
1.0
 40
1.0
 40
1.0
 10
19.66861686727678
 20
-6.15038242472848
 30
0.0
 10
19.66795288807925
 20
-6.150417470069927
 30
0.0
 10
19.01498265131724
 20
-6.184881749956427
 30
0.0
 10
17.69637287181187
 20
-6.063965749314641
 30
0.0
 10
15.7132323779554
 20
-5.769761511532868
 30
0.0
 10
13.71729306917348
 20
-5.245416776397229
 30
0.0
 10
11.72177980218511
 20
-4.544587354382391
 30
0.0
 10
9.726513675875248
 20
-3.682978824338929
 30
0.0
 10
7.731321004118444
 20
-2.69271273458347
 30
0.0
 10
5.736034320329013
 20
-1.609230609771026
 30
0.0
 10
4.405755931938749
 20
-0.8465163591202866
 30
0.0
 10
3.740578832127088
 20
-0.4651375006342811
 30
0.0
  0
SPLINE
  5
BE
330
1F
100
AcDbEntity
  8
0
  6
Continuous
 62
     1
370
    15
100
AcDbSpline
210
0.0
220
0.0
230
1.0
 70
     8
 71
     3
 72
    12
 73
     8
 74
     0
 42
0.000000001
 43
0.00000001
 40
0.0
 40
0.0
 40
0.0
 40
0.0
 40
0.2110677926936191
 40
0.4221108718102721
 40
0.633145440874757
 40
0.8441877239475992
 40
1.0
 40
1.0
 40
1.0
 40
1.0
 10
3.740578832126957
 20
-5.917393199487679
 30
0.0
 10
4.40430190563532
 20
-6.001853878606213
 30
0.0
 10
5.731670338420768
 20
-6.170765347482775
 30
0.0
 10
7.722589494962799
 20
-6.155470094105919
 30
0.0
 10
9.713420105670858
 20
-5.934569729707063
 30
0.0
 10
11.53058314426512
 20
-5.561144015504285
 30
0.0
 10
12.68418992417855
 20
-5.185494502625525
 30
0.0
 10
13.17415548021905
 20
-5.025946790477198
 30
0.0
  0
SPLINE
  5
BF
330
1F
100
AcDbEntity
  8
외형선
  6
Continuous
370
    15
100
AcDbSpline
210
0.0
220
0.0
230
1.0
 70
    24
 71
     3
 72
    18
 73
    14
 74
     0
 42
0.000000001
 43
0.00000001
 40
0.0
 40
0.0
 40
0.0
 40
0.0
 40
0.0305313980072195
 40
0.1289821442239742
 40
0.224658276133781
 40
0.323109022350534
 40
0.4187851542603413
 40
0.5172359004770949
 40
0.6129120323869024
 40
0.7113627786036565
 40
0.8070389105134644
 40
0.9054896567302179
 40
0.9999999999999999
 40
0.9999999999999999
 40
0.9999999999999999
 40
0.9999999999999999
 10
3.740578832126969
 20
-0.5228059573883559
 30
0.0
 10
3.740578832126964
 20
-0.5461782975330187
 30
0.0
 10
3.74057883212695
 20
-0.6449164734487703
 30
0.0
 10
3.740578832126964
 20
-0.9135979603357394
 30
0.0
 10
3.740578832127005
 20
-1.322627632660436
 30
0.0
 10
3.740578832126936
 20
-1.807302465957856
 30
0.0
 10
3.740578832126943
 20
-2.353990459375692
 30
0.0
 10
3.740578832126998
 20
-2.939712337725573
 30
0.0
 10
3.740578832126957
 20
-3.557712269265454
 30
0.0
 10
3.740578832126964
 20
-4.179911251994368
 30
0.0
 10
3.740578832126957
 20
-4.798465724624979
 30
0.0
 10
3.740578832126928
 20
-5.387531234804519
 30
0.0
 10
3.74057883212695
 20
-5.7431935035817
 30
0.0
 10
3.740578832126964
 20
-5.917393199487679
 30
0.0
  0
SPLINE
  5
C0
330
1F
100
AcDbEntity
  8
0
  6
Continuous
 62
     1
370
    15
100
AcDbSpline
210
0.0
220
0.0
230
1.0
 70
     8
 71
     3
 72
    14
 73
    10
 74
     0
 42
0.000000001
 43
0.00000001
 40
0.0
 40
0.0
 40
0.0
 40
0.0
 40
0.0080367614596142
 40
0.1733320592721822
 40
0.3386241499729158
 40
0.5039250351613433
 40
0.6692466959746344
 40
0.8346010652625322
 40
1.0
 40
1.0
 40
1.0
 40
1.0
 10
23.4196028353031
 20
6.147659117754436
 30
0.0
 10
23.45193938703316
 20
6.149306382904995
 30
0.0
 10
24.14935477372815
 20
6.18483361139731
 30
0.0
 10
25.51179639056851
 20
6.054498024865995
 30
0.0
 10
27.50699662520624
 20
5.74273980139209
 30
0.0
 10
29.50231816905521
 20
5.206228036593603
 30
0.0
 10
31.4979445223161
 20
4.492380693610001
 30
0.0
 10
33.49403425513795
 20
3.626129124321901
 30
0.0
 10
34.82500419517022
 20
2.948130592071794
 30
0.0
 10
35.49057883212698
 20
2.609085649442485
 30
0.0
  0
LINE
  5
C1
330
1F
100
AcDbEntity
  8
0
  6
Continuous
 62
     1
370
    15
100
AcDbLine
 10
35.49057883212696
 20
0.5281491037550174
 30
0.0
 11
35.49057883212696
 21
2.609085649442485
 31
0.0
  0
SPLINE
  5
C2
330
1F
100
AcDbEntity
  8
0
  6
Continuous
 62
     1
370
    15
100
AcDbSpline
210
0.0
220
0.0
230
1.0
 70
     8
 71
     3
 72
    10
 73
     6
 74
     0
 42
0.000000001
 43
0.00000001
 40
0.0
 40
0.0
 40
0.0
 40
0.0
 40
0.3571011347765754
 40
0.7141027368593983
 40
1.0
 40
1.0
 40
1.0
 40
1.0
 10
35.49057883212695
 20
6.152637428723899
 30
0.0
 10
34.82645233596915
 20
6.075485985568556
 30
0.0
 10
33.49838445171596
 20
5.966441914084641
 30
0.0
 10
31.63874609476157
 20
5.583364407498847
 30
0.0
 10
30.44323804433995
 20
5.201123935435597
 30
0.0
 10
29.91159535811541
 20
5.03114151559344
 30
0.0
  0
LINE
  5
C3
330
1F
100
AcDbEntity
  8
0
  6
Continuous
 62
     1
370
    15
100
AcDbLine
 10
35.49057883212696
 20
2.602964684644343
 30
0.0
 11
35.49057883212696
 21
6.152637428723899
 31
0.0
  0
LINE
  5
C4
330
1F
100
AcDbEntity
  8
중심선
 48
0.8
100
AcDbLine
 10
-50.05942116787304
 20
0.0010749287238892
 30
0.0
 11
38.49057883212696
 21
0.0010749287238997
 31
0.0
  0
LINE
  5
C5
330
1F
100
AcDbEntity
  8
참조1
100
AcDbLine
 10
5.430603649777287
 20
0.0010749287238892
 30
0.0
 11
5.430603649777292
 21
-39.99892507127611
 31
0.0
  0
LINE
  5
C6
330
1F
100
AcDbEntity
  8
참조1
100
AcDbLine
 10
5.430603649777292
 20
-39.99892507127611
 30
0.0
 11
-21.63450316453139
 21
-39.9989250712761
 31
0.0
  0
CIRCLE
  5
C7
330
1F
100
AcDbEntity
  8
해칭선
100
AcDbCircle
 10
0.0
 20
0.0
 30
0.0
 40
3.000000000000003
  0
INSERT
  5
C8
330
1F
100
AcDbEntity
  8
0
  6
Continuous
 62
     7
100
AcDbBlockReference
 66
     1
  2
블럭10
 10
-15.4582355244956
 20
-52.04609937292004
 30
0.0
  0
ATTRIB
  5
C9
330
C8
100
AcDbEntity
  8
FORMAT
 62
     2
100
AcDbText
 10
-24.63953081323688
 20
-49.97073246008785
 30
0.0
 40
4.233333333333333
  1
E1031031 [ 4 FLUTE ]
 41
0.75
  7
SLDTEXTSTYLE0
 11
-24.63953081323688
 21
-52.08739912675452
 31
0.0
100
AcDbAttribute
  2
AUTOATTR0
 70
     0
 74
     1
  0
SEQEND
  5
CA
330
C8
100
AcDbEntity
  8
0
  6
Continuous
 62
     7
  0
HATCH
  5
CB
330
1F
100
AcDbEntity
  8
중심선
100
AcDbHatch
 10
0.0
 20
0.0
 30
0.0
210
0.0
220
0.0
230
1.0
  2
SOLID
 70
     1
 71
     0
 91
        1
 92
        0
 93
        4
 72
     1
 10
-9.743326220114753
 20
-35.7989250712761
 11
-13.18960146395203
 21
-35.7989250712761
 72
     1
 10
-13.18960146395204
 20
-35.7989250712761
 11
-15.31783132315606
 21
-38.3352506518487
 72
     1
 10
-15.31783132315606
 20
-38.3352506518487
 11
-11.8715229942056
 21
-38.33521122254621
 72
     1
 10
-11.8715229942056
 20
-38.33521122254621
 11
-9.743326220114753
 21
-35.7989250712761
 97
        0
 75
     0
 76
     1
 98
        1
 10
-6.948566242147677
 20
0.0
  0
HATCH
  5
CC
330
1F
100
AcDbEntity
  8
중심선
100
AcDbHatch
 10
0.0
 20
0.0
 30
0.0
210
0.0
220
0.0
230
1.0
  2
SOLID
 70
     1
 71
     0
 91
        1
 92
        0
 93
        4
 72
     1
 10
-4.730562229078775
 20
-35.7989250712761
 11
-8.176837472916057
 21
-35.7989250712761
 72
     1
 10
-8.176837472916057
 20
-35.7989250712761
 11
-12.70797548127347
 21
-41.19892507127612
 72
     1
 10
-12.70797548127347
 20
-41.19892507127612
 11
-9.261700237436191
 21
-41.19892507127612
 72
     1
 10
-9.261700237436191
 20
-41.19892507127612
 11
-4.730562229078775
 21
-35.7989250712761
 97
        0
 75
     0
 76
     1
 98
        1
 10
-6.948566242147677
 20
0.0
  0
HATCH
  5
CD
330
1F
100
AcDbEntity
  8
중심선
100
AcDbHatch
 10
0.0
 20
0.0
 30
0.0
210
0.0
220
0.0
230
1.0
  2
SOLID
 70
     1
 71
     0
 91
        1
 92
        0
 93
        4
 72
     1
 10
0.2822017619571486
 20
-35.79892507127608
 11
-3.164073481879995
 21
-35.7989250712761
 72
     1
 10
-3.164073481879995
 20
-35.7989250712761
 11
-10.21251038376927
 21
-44.19892507127612
 72
     1
 10
-10.21251038376927
 20
-44.19892507127612
 11
-6.766235139931989
 21
-44.19892507127612
 72
     1
 10
-6.76623513993199
 20
-44.19892507127612
 11
0.2822017619571486
 21
-35.79892507127608
 97
        0
 75
     0
 76
     1
 98
        1
 10
-6.948566242147677
 20
0.0
  0
HATCH
  5
CE
330
1F
100
AcDbEntity
  8
중심선
100
AcDbHatch
 10
0.0
 20
0.0
 30
0.0
210
0.0
220
0.0
230
1.0
  2
SOLID
 70
     1
 71
     0
 91
        1
 92
        0
 93
        6
 72
     3
 10
5.082092192969291
 20
-39.99892507132738
 11
3.960054785062283
 21
1.540882976769353E-10
 40
0.3939339440162628
 50
17.09539180608436
 51
320.0019657685082
 73
     0
 72
     1
 10
6.76509184866986
 20
-38.58681907591443
 11
9.070393722370927
 21
-36.65249236586649
 72
     3
 10
5.082092192916445
 20
-39.99892507127625
 11
6.600054785286829
 21
-1.278976924368180E-13
 40
0.636358354079598
 50
39.99873849337408
 51
368.4976242363724
 73
     1
 72
     1
 10
11.50742468481706
 20
-39.03892507120613
 11
3.762159499752368
 21
-39.03892507120613
 72
     1
 10
3.762159499752368
 20
-39.03892507120613
 11
3.762134455306434
 21
-40.95892507120602
 72
     1
 10
3.762134455306434
 20
-40.95892507120602
 11
8.203514224778472
 21
-40.95892507120599
 97
        0
 75
     0
 76
     1
 98
        1
 10
-6.948566242147677
 20
0.0
  0
DIMENSION
  5
CF
330
1F
100
AcDbEntity
  8
치수문자_일반주서
100
AcDbDimension
  2
_D
 10
3.74057883212696
 20
17.4255174789735
 30
0.0
 11
18.84602246290863
 21
17.4255174789735
 31
0.0
 70
   160
  1
<>
 71
     2
 42
31.75
  3
SLDDIMSTYLE1
100
AcDbAlignedDimension
 13
35.49057883212696
 23
6.152637428723899
 33
0.0
 14
3.74057883212696
 24
6.1349454166075
 34
0.0
 50
0.0000000000000064
100
AcDbRotatedDimension
1001
ACAD
1000
DSTYLE
1002
{
1070
   171
1070
     6
1070
   273
1070
     7
1002
}
  0
DIMENSION
  5
E4
330
1F
100
AcDbEntity
  8
치수문자_일반주서
100
AcDbDimension
  2
_D_1
 10
-47.05942116787303
 20
35.03205870442392
 30
0.0
 11
-5.784421167873039
 21
35.03205870442392
 31
0.0
 70
   160
  1
<>
 71
     2
 42
82.55
  3
SLDDIMSTYLE1
100
AcDbAlignedDimension
 13
35.49057883212696
 23
6.152637428723899
 33
0.0
 14
-47.05942116787303
 24
5.081074928723896
 34
0.0
 50
0.0000000000000099
100
AcDbRotatedDimension
1001
ACAD
1000
DSTYLE
1002
{
1070
   171
1070
     6
1070
   273
1070
     7
1002
}
  0
DIMENSION
  5
F7
330
1F
100
AcDbEntity
  8
치수문자_일반주서
100
AcDbDimension
  2
_D_2
 10
-58.04269400570021
 20
-6.348925071276147
 30
0.0
 11
-58.04269400570023
 21
0.0010749287238872
 31
0.0
 70
   160
  1
%%c<>
 71
     2
 42
12.69999999999999
 52
-270.0
  3
SLDDIMSTYLE1
100
AcDbAlignedDimension
 13
-45.78942116787304
 23
6.351074928723888
 33
0.0
 14
-45.78942116787304
 24
-6.348925071276101
 34
0.0
 50
90.0000000000002
100
AcDbRotatedDimension
1001
ACAD
1000
DSTYLE
1002
{
1070
   171
1070
     6
1070
   273
1070
     7
1002
}
  0
DIMENSION
  5
10C
330
1F
100
AcDbEntity
  8
치수문자_일반주서
100
AcDbDimension
  2
_D_3
 10
48.98548740824974
 20
-6.150487571276052
 30
0.0
 11
48.98548740824962
 21
29.29074324385815
 31
0.0
 70
   160
  1
%%c<>
 71
     2
 42
12.303125
 52
-270.0
  3
SLDDIMSTYLE1
100
AcDbAlignedDimension
 13
35.49057883212695
 23
6.152637428723899
 33
0.0
 14
35.49057883212695
 24
-6.1504875712761
 34
0.0
 50
90.0000000000002
100
AcDbRotatedDimension
1001
ACAD
1000
DSTYLE
1002
{
1070
   171
1070
     6
1070
   273
1070
     7
1002
}
  0
LINE
  5
120
330
1F
100
AcDbEntity
  8
참조1
100
AcDbLine
 10
76.33783746512287
 20
7.441074928723896
 30
0.0
 11
76.33783746512287
 21
-7.438925071276109
 31
0.0
  0
LINE
  5
121
330
1F
100
AcDbEntity
  8
참조1
100
AcDbLine
 10
89.03783746512288
 20
5.441074928723896
 30
0.0
 11
76.33783746512287
 21
5.441074928723896
 31
0.0
  0
SOLID
  5
122
330
1F
100
AcDbEntity
  8
참조1
100
AcDbTrace
 10
76.33783746512287
 20
5.441074928723896
 30
0.0
 11
82.68783746512287
 21
4.425074928723896
 31
0.0
 12
82.68783746512287
 22
6.457074928723896
 32
0.0
 13
82.68783746512287
 23
6.457074928723896
 33
0.0
  0
LINE
  5
123
330
1F
100
AcDbEntity
  8
참조1
100
AcDbLine
 10
89.03783746512288
 20
-5.438925071276109
 30
0.0
 11
76.33783746512287
 21
-5.438925071276109
 31
0.0
  0
SOLID
  5
124
330
1F
100
AcDbEntity
  8
참조1
100
AcDbTrace
 10
76.33783746512287
 20
-5.438925071276109
 30
0.0
 11
82.68783746512287
 21
-6.454925071276109
 31
0.0
 12
82.68783746512287
 22
-4.422925071276109
 32
0.0
 13
82.68783746512287
 23
-4.422925071276109
 33
0.0
  0
MTEXT
  5
125
330
1F
100
AcDbEntity
  8
참조1
100
AcDbMText
 10
85.72218759774887
 20
11.01136670591222
 30
0.0
 40
3.5
 41
0.0
 71
     1
 72
     1
  1
A
  7
SLDTEXTSTYLE0
 73
     1
 44
1.0
  0
MTEXT
  5
126
330
1F
100
AcDbEntity
  8
참조1
100
AcDbMText
 10
85.72218759774887
 20
0.1313667059122201
 30
0.0
 40
3.5
 41
0.0
 71
     1
 72
     1
  1
A
  7
SLDTEXTSTYLE0
 73
     1
 44
1.0
  0
INSERT
  5
12D
330
1F
100
AcDbEntity
  8
해칭선
100
AcDbBlockReference
  2
SW_DOWELSYMBOL_0
 10
0.0
 20
0.0
 30
0.0
  0
LINE
  5
264
330
1F
100
AcDbEntity
  8
외형선
  6
Continuous
370
    15
100
AcDbLine
 10
-30.02554616787302
 20
4.827074928723889
 30
0.0
 11
-18.84954616787315
 21
4.827074928723889
 31
0.0
  0
LINE
  5
265
330
1F
100
AcDbEntity
  8
외형선
  6
Continuous
370
    15
100
AcDbLine
 10
-30.02554616787302
 20
4.827074928723889
 30
0.0
 11
-31.549546167873
 21
6.351074928723889
 31
0.0
  0
LINE
  5
266
330
1F
100
AcDbEntity
  8
외형선
  6
Continuous
370
    15
100
AcDbLine
 10
-18.84954616787304
 20
4.827074928723889
 30
0.0
 11
-17.32554616787304
 21
6.351074928723889
 31
0.0
  0
LINE
  5
2A3
330
1F
100
AcDbEntity
  8
외형선
  6
Continuous
370
    15
100
AcDbLine
 10
-31.549546167873
 20
6.351074928723897
 30
0.0
 11
-45.78942116787304
 21
6.351074928723897
 31
0.0
  0
ENDSEC
  0
SECTION
  2
OBJECTS
  0
DICTIONARY
  5
C
330
0
100
AcDbDictionary
281
     1
  3
ACAD_GROUP
350
D
  3
ACAD_IMAGE_VARS
350
151
  3
ACAD_LAYOUT
350
1A
  3
ACAD_MLINESTYLE
350
17
  3
ACAD_PLOTSETTINGS
350
19
  3
ACAD_PLOTSTYLENAME
350
E
  3
ACAD_SCALELIST
350
47
  3
APPDATA
350
14F
  3
DWGPROPS
350
2C9
  0
DICTIONARY
  5
1F3
330
2
100
AcDbDictionary
280
     1
281
     1
  3
ACAD_LAYERSTATES
360
1F4
  0
DICTIONARY
  5
D
102
{ACAD_REACTORS
330
C
102
}
330
C
100
AcDbDictionary
281
     1
  0
RASTERVARIABLES
  5
151
102
{ACAD_REACTORS
330
C
102
}
330
C
100
AcDbRasterVariables
 90
        0
 70
     1
 71
     1
 72
     1
  0
DICTIONARY
  5
1A
102
{ACAD_REACTORS
330
C
102
}
330
C
100
AcDbDictionary
281
     1
  3
Layout1
350
1E
  3
Layout2
350
26
  3
Model
350
22
  0
DICTIONARY
  5
17
102
{ACAD_REACTORS
330
C
102
}
330
C
100
AcDbDictionary
281
     1
  3
Standard
350
18
  0
DICTIONARY
  5
19
102
{ACAD_REACTORS
330
C
102
}
330
C
100
AcDbDictionary
281
     1
  0
ACDBDICTIONARYWDFLT
  5
E
102
{ACAD_REACTORS
330
C
102
}
330
C
100
AcDbDictionary
281
     1
  3
Normal
350
F
100
AcDbDictionaryWithDefault
340
F
  0
DICTIONARY
  5
47
102
{ACAD_REACTORS
330
C
102
}
330
C
100
AcDbDictionary
281
     1
  3
A0
350
48
  3
A1
350
49
  3
A2
350
4A
  3
A3
350
4B
  3
A4
350
4C
  3
A5
350
4D
  3
A6
350
4E
  3
A7
350
4F
  3
A8
350
50
  3
A9
350
51
  3
B0
350
52
  3
B1
350
53
  3
B2
350
54
  3
B3
350
55
  3
B4
350
56
  3
B5
350
57
  3
B6
350
58
  3
B7
350
59
  3
B8
350
5A
  3
B9
350
5B
  3
C0
350
5C
  3
C1
350
5D
  3
C2
350
5E
  3
C3
350
5F
  3
C4
350
60
  3
C5
350
61
  3
C6
350
62
  3
C7
350
63
  3
C8
350
64
  3
C9
350
65
  3
D0
350
66
  3
D1
350
67
  3
D2
350
68
  0
DICTIONARY
  5
14F
102
{ACAD_REACTORS
330
C
102
}
330
C
100
AcDbDictionary
281
     1
  0
XRECORD
  5
2C9
102
{ACAD_REACTORS
330
C
102
}
330
C
100
AcDbXrecord
280
     1
  1
DWGPROPS COOKIE
  2

  3

  4

  6

  7

  8
12016016
  9

300
=
301
=
302
=
303
=
304
=
305
=
306
=
307
=
308
=
309
=
 40
0.0
 41
2458312.294750209
 42
2458323.357413854
  1

 90
        0
  0
DICTIONARY
  5
1F4
102
{ACAD_REACTORS
330
1F3
102
}
330
1F3
100
AcDbDictionary
281
     1
  0
LAYOUT
  5
1E
102
{ACAD_REACTORS
330
1A
102
}
330
1A
100
AcDbPlotSettings
  1

  2
none_device
  4

  6

 40
0.0
 41
0.0
 42
0.0
 43
0.0
 44
0.0
 45
0.0
 46
0.0
 47
0.0
 48
0.0
 49
0.0
140
0.0
141
0.0
142
1.0
143
1.0
 70
   688
 72
     1
 73
     0
 74
     5
  7

 75
    16
147
1.0
148
0.0
149
0.0
100
AcDbLayout
  1
Layout1
 70
     1
 71
     1
 10
0.0
 20
0.0
 11
420.0
 21
297.0
 12
0.0
 22
0.0
 32
0.0
 14
1.000000000000000E+20
 24
1.000000000000000E+20
 34
1.000000000000000E+20
 15
-1.000000000000000E+20
 25
-1.000000000000000E+20
 35
-1.000000000000000E+20
146
0.0
 13
0.0
 23
0.0
 33
0.0
 16
1.0
 26
0.0
 36
0.0
 17
0.0
 27
1.0
 37
0.0
 76
     0
330
1B
  0
LAYOUT
  5
26
102
{ACAD_REACTORS
330
1A
102
}
330
1A
100
AcDbPlotSettings
  1

  2
none_device
  4

  6

 40
0.0
 41
0.0
 42
0.0
 43
0.0
 44
0.0
 45
0.0
 46
0.0
 47
0.0
 48
0.0
 49
0.0
140
0.0
141
0.0
142
1.0
143
1.0
 70
   688
 72
     1
 73
     0
 74
     5
  7

 75
    16
147
1.0
148
0.0
149
0.0
100
AcDbLayout
  1
Layout2
 70
     1
 71
     2
 10
0.0
 20
0.0
 11
0.0
 21
0.0
 12
0.0
 22
0.0
 32
0.0
 14
0.0
 24
0.0
 34
0.0
 15
0.0
 25
0.0
 35
0.0
146
0.0
 13
0.0
 23
0.0
 33
0.0
 16
1.0
 26
0.0
 36
0.0
 17
0.0
 27
1.0
 37
0.0
 76
     0
330
23
  0
LAYOUT
  5
22
102
{ACAD_REACTORS
330
1A
102
}
330
1A
100
AcDbPlotSettings
  1

  2
none_device
  4
ANSI_A_(11.00_x_8.50_Inches)
  6

 40
6.35
 41
19.05
 42
6.35000508
 43
19.05000254
 44
279.4
 45
215.9
 46
91.1146885332722
 47
81.73670798698024
 48
0.0
 49
0.0
140
0.0
141
0.0
142
0.0656396459699799
143
1.0
 70
  1696
 72
     0
 73
     0
 74
     0
  7

 75
     0
147
0.0235690232323232
148
0.0
149
0.0
100
AcDbLayout
  1
Model
 70
     1
 71
     0
 10
0.0
 20
0.0
 11
420.0
 21
297.0
 12
0.0
 22
0.0
 32
0.0
 14
-62.41769400570027
 24
-49.97073246008785
 34
0.0
 15
89.03783746512288
 25
45.25949324385815
 35
0.0
146
0.0
 13
0.0
 23
0.0
 33
0.0
 16
1.0
 26
0.0
 36
0.0
 17
0.0
 27
1.0
 37
0.0
 76
     0
330
1F
331
29
  0
MLINESTYLE
  5
18
102
{ACAD_REACTORS
330
17
102
}
330
17
100
AcDbMlineStyle
  2
Standard
 70
     0
  3

 62
   256
 51
90.0
 52
90.0
 71
     2
 49
0.5
 62
   256
  6
BYLAYER
 49
-0.5
 62
   256
  6
BYLAYER
  0
ACDBPLACEHOLDER
  5
F
102
{ACAD_REACTORS
330
E
102
}
330
E
  0
SCALE
  5
48
102
{ACAD_REACTORS
330
47
102
}
330
47
100
AcDbScale
 70
     0
300
1:1
140
1.0
141
1.0
290
     1
  0
SCALE
  5
49
102
{ACAD_REACTORS
330
47
102
}
330
47
100
AcDbScale
 70
     0
300
1:2
140
1.0
141
2.0
290
     0
  0
SCALE
  5
4A
102
{ACAD_REACTORS
330
47
102
}
330
47
100
AcDbScale
 70
     0
300
1:4
140
1.0
141
4.0
290
     0
  0
SCALE
  5
4B
102
{ACAD_REACTORS
330
47
102
}
330
47
100
AcDbScale
 70
     0
300
1:5
140
1.0
141
5.0
290
     0
  0
SCALE
  5
4C
102
{ACAD_REACTORS
330
47
102
}
330
47
100
AcDbScale
 70
     0
300
1:8
140
1.0
141
8.0
290
     0
  0
SCALE
  5
4D
102
{ACAD_REACTORS
330
47
102
}
330
47
100
AcDbScale
 70
     0
300
1:10
140
1.0
141
10.0
290
     0
  0
SCALE
  5
4E
102
{ACAD_REACTORS
330
47
102
}
330
47
100
AcDbScale
 70
     0
300
1:16
140
1.0
141
16.0
290
     0
  0
SCALE
  5
4F
102
{ACAD_REACTORS
330
47
102
}
330
47
100
AcDbScale
 70
     0
300
1:20
140
1.0
141
20.0
290
     0
  0
SCALE
  5
50
102
{ACAD_REACTORS
330
47
102
}
330
47
100
AcDbScale
 70
     0
300
1:30
140
1.0
141
30.0
290
     0
  0
SCALE
  5
51
102
{ACAD_REACTORS
330
47
102
}
330
47
100
AcDbScale
 70
     0
300
1:40
140
1.0
141
40.0
290
     0
  0
SCALE
  5
52
102
{ACAD_REACTORS
330
47
102
}
330
47
100
AcDbScale
 70
     0
300
1:50
140
1.0
141
50.0
290
     0
  0
SCALE
  5
53
102
{ACAD_REACTORS
330
47
102
}
330
47
100
AcDbScale
 70
     0
300
1:100
140
1.0
141
100.0
290
     0
  0
SCALE
  5
54
102
{ACAD_REACTORS
330
47
102
}
330
47
100
AcDbScale
 70
     0
300
2:1
140
2.0
141
1.0
290
     0
  0
SCALE
  5
55
102
{ACAD_REACTORS
330
47
102
}
330
47
100
AcDbScale
 70
     0
300
4:1
140
4.0
141
1.0
290
     0
  0
SCALE
  5
56
102
{ACAD_REACTORS
330
47
102
}
330
47
100
AcDbScale
 70
     0
300
8:1
140
8.0
141
1.0
290
     0
  0
SCALE
  5
57
102
{ACAD_REACTORS
330
47
102
}
330
47
100
AcDbScale
 70
     0
300
10:1
140
10.0
141
1.0
290
     0
  0
SCALE
  5
58
102
{ACAD_REACTORS
330
47
102
}
330
47
100
AcDbScale
 70
     0
300
100:1
140
100.0
141
1.0
290
     0
  0
SCALE
  5
59
102
{ACAD_REACTORS
330
47
102
}
330
47
100
AcDbScale
 70
     0
300
1/128" = 1'-0"
140
0.0078125
141
12.0
290
     0
  0
SCALE
  5
5A
102
{ACAD_REACTORS
330
47
102
}
330
47
100
AcDbScale
 70
     0
300
1/64" = 1'-0"
140
0.015625
141
12.0
290
     0
  0
SCALE
  5
5B
102
{ACAD_REACTORS
330
47
102
}
330
47
100
AcDbScale
 70
     0
300
1/32" = 1'-0"
140
0.03125
141
12.0
290
     0
  0
SCALE
  5
5C
102
{ACAD_REACTORS
330
47
102
}
330
47
100
AcDbScale
 70
     0
300
1/16" = 1'-0"
140
0.0625
141
12.0
290
     0
  0
SCALE
  5
5D
102
{ACAD_REACTORS
330
47
102
}
330
47
100
AcDbScale
 70
     0
300
3/32" = 1'-0"
140
0.09375
141
12.0
290
     0
  0
SCALE
  5
5E
102
{ACAD_REACTORS
330
47
102
}
330
47
100
AcDbScale
 70
     0
300
1/8" = 1'-0"
140
0.125
141
12.0
290
     0
  0
SCALE
  5
5F
102
{ACAD_REACTORS
330
47
102
}
330
47
100
AcDbScale
 70
     0
300
3/16" = 1'-0"
140
0.1875
141
12.0
290
     0
  0
SCALE
  5
60
102
{ACAD_REACTORS
330
47
102
}
330
47
100
AcDbScale
 70
     0
300
1/4" = 1'-0"
140
0.25
141
12.0
290
     0
  0
SCALE
  5
61
102
{ACAD_REACTORS
330
47
102
}
330
47
100
AcDbScale
 70
     0
300
3/8" = 1'-0"
140
0.375
141
12.0
290
     0
  0
SCALE
  5
62
102
{ACAD_REACTORS
330
47
102
}
330
47
100
AcDbScale
 70
     0
300
1/2" = 1'-0"
140
0.5
141
12.0
290
     0
  0
SCALE
  5
63
102
{ACAD_REACTORS
330
47
102
}
330
47
100
AcDbScale
 70
     0
300
3/4" = 1'-0"
140
0.75
141
12.0
290
     0
  0
SCALE
  5
64
102
{ACAD_REACTORS
330
47
102
}
330
47
100
AcDbScale
 70
     0
300
1" = 1'-0"
140
1.0
141
12.0
290
     0
  0
SCALE
  5
65
102
{ACAD_REACTORS
330
47
102
}
330
47
100
AcDbScale
 70
     0
300
1-1/2" = 1'-0"
140
1.5
141
12.0
290
     0
  0
SCALE
  5
66
102
{ACAD_REACTORS
330
47
102
}
330
47
100
AcDbScale
 70
     0
300
3" = 1'-0"
140
3.0
141
12.0
290
     0
  0
SCALE
  5
67
102
{ACAD_REACTORS
330
47
102
}
330
47
100
AcDbScale
 70
     0
300
6" = 1'-0"
140
6.0
141
12.0
290
     0
  0
SCALE
  5
68
102
{ACAD_REACTORS
330
47
102
}
330
47
100
AcDbScale
 70
     0
300
1'-0" = 1'-0"
140
12.0
141
12.0
290
     0
  0
ENDSEC
  0
EOF
