  0
SECTION
  2
HEADER
  9
$ACADVER
  1
AC1015
  9
$ACADMAINTVER
 70
     6
  9
$DWGCODEPAGE
  3
ANSI_949
  9
$INSBASE
 10
0.0
 20
0.0
 30
0.0
  9
$EXTMIN
 10
-56.53827283782721
 20
-49.97073246008787
 30
0.0
  9
$EXTMAX
 10
91.26339147959949
 20
42.52951441088325
 30
0.0
  9
$LIMMIN
 10
0.0
 20
0.0
  9
$LIMMAX
 10
420.0
 20
297.0
  9
$ORTHOMODE
 70
     1
  9
$REGENMODE
 70
     1
  9
$FILLMODE
 70
     1
  9
$QTEXTMODE
 70
     0
  9
$MIRRTEXT
 70
     1
  9
$LTSCALE
 40
1.0
  9
$ATTMODE
 70
     1
  9
$TEXTSIZE
 40
3.5
  9
$TRACEWID
 40
1.0
  9
$TEXTSTYLE
  7
Standard
  9
$CLAYER
  8
0
  9
$CELTYPE
  6
ByLayer
  9
$CECOLOR
 62
   256
  9
$CELTSCALE
 40
1.0
  9
$DISPSILH
 70
     0
  9
$DIMSCALE
 40
1.0
  9
$DIMASZ
 40
3.302
  9
$DIMEXO
 40
1.0
  9
$DIMDLI
 40
3.75
  9
$DIMRND
 40
0.0
  9
$DIMDLE
 40
0.0
  9
$DIMEXE
 40
1.0
  9
$DIMTP
 40
0.0
  9
$DIMTM
 40
0.0
  9
$DIMTXT
 40
3.5
  9
$DIMCEN
 40
2.5
  9
$DIMTSZ
 40
0.0
  9
$DIMTOL
 70
     0
  9
$DIMLIM
 70
     0
  9
$DIMTIH
 70
     1
  9
$DIMTOH
 70
     1
  9
$DIMSE1
 70
     0
  9
$DIMSE2
 70
     0
  9
$DIMTAD
 70
     1
  9
$DIMZIN
 70
     0
  9
$DIMBLK
  1

  9
$DIMASO
 70
     1
  9
$DIMSHO
 70
     1
  9
$DIMPOST
  1

  9
$DIMAPOST
  1

  9
$DIMALT
 70
     0
  9
$DIMALTD
 70
     3
  9
$DIMALTF
 40
0.0393700787401575
  9
$DIMLFAC
 40
1.0
  9
$DIMTOFL
 70
     1
  9
$DIMTVP
 40
0.0
  9
$DIMTIX
 70
     0
  9
$DIMSOXD
 70
     0
  9
$DIMSAH
 70
     0
  9
$DIMBLK1
  1

  9
$DIMBLK2
  1

  9
$DIMSTYLE
  2
ISO-25
  9
$DIMCLRD
 70
     0
  9
$DIMCLRE
 70
     0
  9
$DIMCLRT
 70
     0
  9
$DIMTFAC
 40
1.0
  9
$DIMGAP
 40
1.524
  9
$DIMJUST
 70
     0
  9
$DIMSD1
 70
     0
  9
$DIMSD2
 70
     0
  9
$DIMTOLJ
 70
     0
  9
$DIMTZIN
 70
     0
  9
$DIMALTZ
 70
     0
  9
$DIMALTTZ
 70
     0
  9
$DIMUPT
 70
     0
  9
$DIMDEC
 70
     2
  9
$DIMTDEC
 70
     2
  9
$DIMALTU
 70
     2
  9
$DIMALTTD
 70
     3
  9
$DIMTXSTY
  7
Standard
  9
$DIMAUNIT
 70
     0
  9
$DIMADEC
 70
     2
  9
$DIMALTRND
 40
0.0
  9
$DIMAZIN
 70
     0
  9
$DIMDSEP
 70
    44
  9
$DIMATFIT
 70
     3
  9
$DIMFRAC
 70
     0
  9
$DIMLDRBLK
  1

  9
$DIMLUNIT
 70
     2
  9
$DIMLWD
 70
    -2
  9
$DIMLWE
 70
    -2
  9
$DIMTMOVE
 70
     0
  9
$LUNITS
 70
     2
  9
$LUPREC
 70
     2
  9
$SKETCHINC
 40
1.0
  9
$FILLETRAD
 40
10.0
  9
$AUNITS
 70
     0
  9
$AUPREC
 70
     2
  9
$MENU
  1
.
  9
$ELEVATION
 40
0.0
  9
$PELEVATION
 40
0.0
  9
$THICKNESS
 40
0.0
  9
$LIMCHECK
 70
     0
  9
$CHAMFERA
 40
0.0
  9
$CHAMFERB
 40
0.0
  9
$CHAMFERC
 40
0.0
  9
$CHAMFERD
 40
0.0
  9
$SKPOLY
 70
     0
  9
$TDCREATE
 40
2458312.74716169
  9
$TDUCREATE
 40
2458312.37216169
  9
$TDUPDATE
 40
2458323.732584456
  9
$TDUUPDATE
 40
2458323.357584456
  9
$TDINDWG
 40
0.0035787384
  9
$TDUSRTIMER
 40
2458323.357548796
  9
$USRTIMER
 70
     1
  9
$ANGBASE
 50
0.0
  9
$ANGDIR
 70
     0
  9
$PDMODE
 70
     0
  9
$PDSIZE
 40
-1.0
  9
$PLINEWID
 40
0.0
  9
$SPLFRAME
 70
     0
  9
$SPLINETYPE
 70
     6
  9
$SPLINESEGS
 70
     8
  9
$HANDSEED
  5
2E4
  9
$SURFTAB1
 70
     6
  9
$SURFTAB2
 70
     6
  9
$SURFTYPE
 70
     6
  9
$SURFU
 70
     6
  9
$SURFV
 70
     6
  9
$UCSBASE
  2

  9
$UCSNAME
  2

  9
$UCSORG
 10
0.0
 20
0.0
 30
0.0
  9
$UCSXDIR
 10
1.0
 20
0.0
 30
0.0
  9
$UCSYDIR
 10
0.0
 20
1.0
 30
0.0
  9
$UCSORTHOREF
  2

  9
$UCSORTHOVIEW
 70
     0
  9
$UCSORGTOP
 10
0.0
 20
0.0
 30
0.0
  9
$UCSORGBOTTOM
 10
0.0
 20
0.0
 30
0.0
  9
$UCSORGLEFT
 10
0.0
 20
0.0
 30
0.0
  9
$UCSORGRIGHT
 10
0.0
 20
0.0
 30
0.0
  9
$UCSORGFRONT
 10
0.0
 20
0.0
 30
0.0
  9
$UCSORGBACK
 10
0.0
 20
0.0
 30
0.0
  9
$PUCSBASE
  2

  9
$PUCSNAME
  2

  9
$PUCSORG
 10
0.0
 20
0.0
 30
0.0
  9
$PUCSXDIR
 10
1.0
 20
0.0
 30
0.0
  9
$PUCSYDIR
 10
0.0
 20
1.0
 30
0.0
  9
$PUCSORTHOREF
  2

  9
$PUCSORTHOVIEW
 70
     0
  9
$PUCSORGTOP
 10
0.0
 20
0.0
 30
0.0
  9
$PUCSORGBOTTOM
 10
0.0
 20
0.0
 30
0.0
  9
$PUCSORGLEFT
 10
0.0
 20
0.0
 30
0.0
  9
$PUCSORGRIGHT
 10
0.0
 20
0.0
 30
0.0
  9
$PUCSORGFRONT
 10
0.0
 20
0.0
 30
0.0
  9
$PUCSORGBACK
 10
0.0
 20
0.0
 30
0.0
  9
$USERI1
 70
     0
  9
$USERI2
 70
     0
  9
$USERI3
 70
     0
  9
$USERI4
 70
     0
  9
$USERI5
 70
     0
  9
$USERR1
 40
0.0
  9
$USERR2
 40
0.0
  9
$USERR3
 40
0.0
  9
$USERR4
 40
0.0
  9
$USERR5
 40
0.0
  9
$WORLDVIEW
 70
     1
  9
$SHADEDGE
 70
     3
  9
$SHADEDIF
 70
    70
  9
$TILEMODE
 70
     1
  9
$MAXACTVP
 70
    64
  9
$PINSBASE
 10
0.0
 20
0.0
 30
0.0
  9
$PLIMCHECK
 70
     0
  9
$PEXTMIN
 10
1.000000000000000E+20
 20
1.000000000000000E+20
 30
1.000000000000000E+20
  9
$PEXTMAX
 10
-1.000000000000000E+20
 20
-1.000000000000000E+20
 30
-1.000000000000000E+20
  9
$PLIMMIN
 10
0.0
 20
0.0
  9
$PLIMMAX
 10
0.0
 20
0.0
  9
$UNITMODE
 70
     0
  9
$VISRETAIN
 70
     1
  9
$PLINEGEN
 70
     0
  9
$PSLTSCALE
 70
     1
  9
$TREEDEPTH
 70
  3020
  9
$CMLSTYLE
  2
Standard
  9
$CMLJUST
 70
     0
  9
$CMLSCALE
 40
20.0
  9
$PROXYGRAPHICS
 70
     1
  9
$MEASUREMENT
 70
     1
  9
$CELWEIGHT
370
    -1
  9
$ENDCAPS
280
     0
  9
$JOINSTYLE
280
     0
  9
$LWDISPLAY
290
     1
  9
$INSUNITS
 70
     4
  9
$HYPERLINKBASE
  1

  9
$STYLESHEET
  1

  9
$XEDIT
290
     1
  9
$CEPSNTYPE
380
     0
  9
$PSTYLEMODE
290
     1
  9
$FINGERPRINTGUID
  2
{F1E10534-B119-4A93-BEAF-1E5753020696}
  9
$VERSIONGUID
  2
{FAEB1C32-E019-11D5-929B-00C0DF256EC4}
  9
$EXTNAMES
290
     1
  9
$PSVPSCALE
 40
0.0
  9
$OLESTARTUP
290
     0
  0
ENDSEC
  0
SECTION
  2
CLASSES
  0
CLASS
  1
ACDBDICTIONARYWDFLT
  2
AcDbDictionaryWithDefault
  3
ObjectDBX Classes
 90
        0
280
     0
281
     0
  0
CLASS
  1
VISUALSTYLE
  2
AcDbVisualStyle
  3
ObjectDBX Classes
 90
     4095
280
     0
281
     0
  0
CLASS
  1
MATERIAL
  2
AcDbMaterial
  3
ObjectDBX Classes
 90
     1153
280
     0
281
     0
  0
CLASS
  1
SCALE
  2
AcDbScale
  3
ObjectDBX Classes
 90
     1153
280
     0
281
     0
  0
CLASS
  1
SUN
  2
AcDbSun
  3
SCENEOE
 90
     1153
280
     0
281
     0
  0
CLASS
  1
ACDBPLACEHOLDER
  2
AcDbPlaceHolder
  3
ObjectDBX Classes
 90
        0
280
     0
281
     0
  0
CLASS
  1
LAYOUT
  2
AcDbLayout
  3
ObjectDBX Classes
 90
        0
280
     0
281
     0
  0
CLASS
  1
TABLESTYLE
  2
AcDbTableStyle
  3
ObjectDBX Classes
 90
     4095
280
     0
281
     0
  0
CLASS
  1
MLEADERSTYLE
  2
AcDbMLeaderStyle
  3
ACDB_MLEADERSTYLE_CLASS
 90
     4095
280
     0
281
     0
  0
CLASS
  1
RASTERVARIABLES
  2
AcDbRasterVariables
  3
ISM
 90
        0
280
     0
281
     0
  0
ENDSEC
  0
SECTION
  2
TABLES
  0
TABLE
  2
VPORT
  5
8
330
0
100
AcDbSymbolTable
 70
     1
  0
VPORT
  5
29
330
8
100
AcDbSymbolTableRecord
100
AcDbViewportTableRecord
  2
*Active
 70
     0
 10
0.0
 20
0.0
 11
1.0
 21
1.0
 12
-28.31591142930783
 22
1.749927032549181
 13
0.0
 23
0.0
 14
10.0
 24
10.0
 15
10.0
 25
10.0
 16
0.0
 26
0.0
 36
1.0
 17
0.0
 27
0.0
 37
0.0
 40
149.832797450671
 41
1.632093933463796
 42
50.0
 43
0.0
 44
0.0
 50
0.0
 51
0.0
 71
    16
 72
  2000
 73
     1
 74
     3
 75
     0
 76
     0
 77
     0
 78
     0
281
     0
 65
     1
110
0.0
120
0.0
130
0.0
111
1.0
121
0.0
131
0.0
112
0.0
122
1.0
132
0.0
 79
     0
146
0.0
  0
ENDTAB
  0
TABLE
  2
LTYPE
  5
5
330
0
100
AcDbSymbolTable
 70
     6
  0
LTYPE
  5
14
330
5
100
AcDbSymbolTableRecord
100
AcDbLinetypeTableRecord
  2
ByBlock
 70
     0
  3

 72
    65
 73
     0
 40
0.0
  0
LTYPE
  5
15
330
5
100
AcDbSymbolTableRecord
100
AcDbLinetypeTableRecord
  2
ByLayer
 70
     0
  3

 72
    65
 73
     0
 40
0.0
  0
LTYPE
  5
16
330
5
100
AcDbSymbolTableRecord
100
AcDbLinetypeTableRecord
  2
Continuous
 70
     0
  3
Solid line
 72
    65
 73
     0
 40
0.0
  0
LTYPE
  5
6A
330
5
100
AcDbSymbolTableRecord
100
AcDbLinetypeTableRecord
  2
HIDDEN
 70
     0
  3
Hidden __ __ __ __ __ __ __ __ __ __ __ __ __ __
 72
    65
 73
     2
 40
1.905
 49
1.27
 74
     0
 49
-0.635
 74
     0
  0
LTYPE
  5
6B
330
5
100
AcDbSymbolTableRecord
100
AcDbLinetypeTableRecord
  2
PHANTOM
 70
     0
  3
Phantom ______  __  __  ______  __  __  ______
 72
    65
 73
     6
 40
12.7
 49
6.35
 74
     0
 49
-1.27
 74
     0
 49
1.27
 74
     0
 49
-1.27
 74
     0
 49
1.27
 74
     0
 49
-1.27
 74
     0
  0
LTYPE
  5
6C
330
5
100
AcDbSymbolTableRecord
100
AcDbLinetypeTableRecord
  2
CENTER
 70
     0
  3
Center ____ _ ____ _ ____ _ ____ _ ____ _ ____
 72
    65
 73
     4
 40
10.16
 49
6.35
 74
     0
 49
-1.27
 74
     0
 49
1.27
 74
     0
 49
-1.27
 74
     0
  0
LTYPE
  5
6D
330
5
100
AcDbSymbolTableRecord
100
AcDbLinetypeTableRecord
  2
CENTERX2
 70
     0
  3
Center (2x) ________  __  ________  __  _____
 72
    65
 73
     4
 40
20.32
 49
12.7
 74
     0
 49
-2.54
 74
     0
 49
2.54
 74
     0
 49
-2.54
 74
     0
  0
LTYPE
  5
6E
330
5
100
AcDbSymbolTableRecord
100
AcDbLinetypeTableRecord
  2
DOT2
 70
     0
  3
Dot (.5x) ........................................
 72
    65
 73
     2
 40
0.635
 49
0.0
 74
     0
 49
-0.635
 74
     0
  0
ENDTAB
  0
TABLE
  2
LAYER
  5
2
102
{ACAD_XDICTIONARY
360
1C5
102
}
330
0
100
AcDbSymbolTable
 70
    18
  0
LAYER
  5
10
330
2
100
AcDbSymbolTableRecord
100
AcDbLayerTableRecord
  2
0
 70
     0
 62
     7
  6
Continuous
370
    -3
390
F
  0
LAYER
  5
6F
330
2
100
AcDbSymbolTableRecord
100
AcDbLayerTableRecord
  2
FORMAT
 70
     0
 62
     2
  6
Continuous
370
    -3
390
F
  0
LAYER
  5
70
330
2
100
AcDbSymbolTableRecord
100
AcDbLayerTableRecord
  2
외형선
 70
     0
 62
     4
  6
Continuous
370
    30
390
F
  0
LAYER
  5
71
330
2
100
AcDbSymbolTableRecord
100
AcDbLayerTableRecord
  2
숨은선
 70
     0
 62
     2
  6
HIDDEN
370
    15
390
F
  0
LAYER
  5
72
330
2
100
AcDbSymbolTableRecord
100
AcDbLayerTableRecord
  2
중심선
 70
     0
 62
     1
  6
CENTERX2
370
    -3
390
F
  0
LAYER
  5
73
330
2
100
AcDbSymbolTableRecord
100
AcDbLayerTableRecord
  2
파단선
 70
     0
 62
     4
  6
Continuous
370
    -3
390
F
  0
LAYER
  5
74
330
2
100
AcDbSymbolTableRecord
100
AcDbLayerTableRecord
  2
해칭선
 70
     0
 62
   100
  6
Continuous
370
    -3
390
F
  0
LAYER
  5
75
330
2
100
AcDbSymbolTableRecord
100
AcDbLayerTableRecord
  2
가는실선
 70
     0
 62
     4
  6
Continuous
370
    -3
390
F
  0
LAYER
  5
76
330
2
100
AcDbSymbolTableRecord
100
AcDbLayerTableRecord
  2
치수_보조선
 70
     0
 62
     4
  6
Continuous
370
    -3
390
F
  0
LAYER
  5
77
330
2
100
AcDbSymbolTableRecord
100
AcDbLayerTableRecord
  2
치수문자_일반주서
 70
     0
 62
     7
  6
Continuous
370
    15
390
F
  0
LAYER
  5
78
330
2
100
AcDbSymbolTableRecord
100
AcDbLayerTableRecord
  2
개별주서
 70
     0
 62
   100
  6
Continuous
370
    30
390
F
  0
LAYER
  5
79
330
2
100
AcDbSymbolTableRecord
100
AcDbLayerTableRecord
  2
중간선
 70
     0
 62
     2
  6
Continuous
370
    15
390
F
  0
LAYER
  5
7A
330
2
100
AcDbSymbolTableRecord
100
AcDbLayerTableRecord
  2
윤곽선
 70
     0
 62
     3
  6
Continuous
370
    40
390
F
  0
LAYER
  5
7B
330
2
100
AcDbSymbolTableRecord
100
AcDbLayerTableRecord
  2
중심마크
 70
     0
 62
   100
  6
Continuous
370
    30
390
F
  0
LAYER
  5
7C
330
2
100
AcDbSymbolTableRecord
100
AcDbLayerTableRecord
  2
가상선
 70
     0
 62
     4
  6
PHANTOM
370
    -3
390
F
  0
LAYER
  5
7D
330
2
100
AcDbSymbolTableRecord
100
AcDbLayerTableRecord
  2
특수지정선
 70
     0
 62
     5
  6
CENTERX2
370
    60
390
F
  0
LAYER
  5
7E
330
2
100
AcDbSymbolTableRecord
100
AcDbLayerTableRecord
  2
참조1
 70
     0
 62
    -4
  6
Continuous
370
    -3
390
F
  0
LAYER
  5
13B
330
2
100
AcDbSymbolTableRecord
100
AcDbLayerTableRecord
  2
Defpoints
 70
     0
 62
     7
  6
Continuous
290
     0
370
    -3
390
F
  0
ENDTAB
  0
TABLE
  2
STYLE
  5
3
330
0
100
AcDbSymbolTable
 70
     2
  0
STYLE
  5
11
330
3
100
AcDbSymbolTableRecord
100
AcDbTextStyleTableRecord
  2
Standard
 70
     0
 40
0.0
 41
1.0
 50
0.0
 71
     0
 42
3.5
  3
txt
  4

  0
STYLE
  5
94
330
3
100
AcDbSymbolTableRecord
100
AcDbTextStyleTableRecord
  2
SLDTEXTSTYLE0
 70
     0
 40
0.0
 41
0.75
 50
0.0
 71
     0
 42
3.5
  3
TXT
  4

  0
ENDTAB
  0
TABLE
  2
VIEW
  5
6
330
0
100
AcDbSymbolTable
 70
     0
  0
ENDTAB
  0
TABLE
  2
UCS
  5
7
330
0
100
AcDbSymbolTable
 70
     0
  0
ENDTAB
  0
TABLE
  2
APPID
  5
9
330
0
100
AcDbSymbolTable
 70
     1
  0
APPID
  5
12
330
9
100
AcDbSymbolTableRecord
100
AcDbRegAppTableRecord
  2
ACAD
 70
     0
  0
ENDTAB
  0
TABLE
  2
DIMSTYLE
  5
A
330
0
100
AcDbSymbolTable
 70
     4
100
AcDbDimStyleTable
  0
DIMSTYLE
105
27
330
A
100
AcDbSymbolTableRecord
100
AcDbDimStyleTableRecord
  2
ISO-25
 70
     0
 41
2.5
 42
0.625
 43
3.75
 44
1.25
 73
     0
 74
     0
 77
     1
 78
     8
140
2.5
141
2.5
143
0.03937007874016
147
0.625
171
     3
172
     1
178
     0
271
     2
272
     2
274
     3
278
    44
283
     0
284
     8
340
11
  0
DIMSTYLE
105
B7
330
A
100
AcDbSymbolTableRecord
100
AcDbDimStyleTableRecord
  2
SLDDIMSTYLE0
 70
     0
 41
3.302
 44
0.0
 45
0.000000001
 73
     0
 74
     0
 77
     1
 78
    12
 79
     3
140
3.5
143
0.0393700787401575
147
0.875
148
0.000000001
170
     1
173
     1
178
     0
271
     2
272
     2
276
     2
284
    12
340
94
  0
DIMSTYLE
105
CB
330
A
100
AcDbSymbolTableRecord
100
AcDbDimStyleTableRecord
  2
SLDDIMSTYLE1
 70
     0
 41
3.302
 44
0.0
 45
0.000000001
 73
     0
 74
     0
 77
     1
 78
     4
 79
     1
140
3.5
143
0.0393700787401575
147
0.875
148
0.000000001
170
     1
172
     1
173
     1
178
     0
271
     2
272
     2
276
     2
284
    12
289
     0
340
94
  0
DIMSTYLE
105
F4
102
{ACAD_REACTORS
330
1EB
330
1F6
330
1F7
330
1FD
102
}
330
A
100
AcDbSymbolTableRecord
100
AcDbDimStyleTableRecord
  2
SLDDIMSTYLE2
 70
     0
 41
3.302
 44
0.0
 45
0.000000001
 73
     0
 74
     0
 77
     1
 78
    12
 79
     3
140
3.5
143
0.0393700787401575
147
0.875
148
0.000000001
170
     1
172
     1
173
     1
178
     0
271
     2
272
     2
276
     2
284
    12
289
     0
340
94
  0
ENDTAB
  0
TABLE
  2
BLOCK_RECORD
  5
1
330
0
100
AcDbSymbolTable
 70
    19
  0
BLOCK_RECORD
  5
1F
330
1
100
AcDbSymbolTableRecord
100
AcDbBlockTableRecord
  2
*Model_Space
340
22
  0
BLOCK_RECORD
  5
1B
330
1
100
AcDbSymbolTableRecord
100
AcDbBlockTableRecord
  2
*Paper_Space
340
1E
  0
BLOCK_RECORD
  5
23
330
1
100
AcDbSymbolTableRecord
100
AcDbBlockTableRecord
  2
*Paper_Space0
340
26
  0
BLOCK_RECORD
  5
7F
330
1
100
AcDbSymbolTableRecord
100
AcDbBlockTableRecord
  2
블럭10
340
0
102
{BLKREFS
331
AF
102
}
  0
BLOCK_RECORD
  5
B8
330
1
100
AcDbSymbolTableRecord
100
AcDbBlockTableRecord
  2
_D
340
0
  0
BLOCK_RECORD
  5
CC
330
1
100
AcDbSymbolTableRecord
100
AcDbBlockTableRecord
  2
_D_1
340
0
  0
BLOCK_RECORD
  5
E1
330
1
100
AcDbSymbolTableRecord
100
AcDbBlockTableRecord
  2
_D_2
340
0
  0
BLOCK_RECORD
  5
F5
330
1
100
AcDbSymbolTableRecord
100
AcDbBlockTableRecord
  2
_D_3
340
0
  0
BLOCK_RECORD
  5
10F
330
1
100
AcDbSymbolTableRecord
100
AcDbBlockTableRecord
  2
SW_DOWELSYMBOL_0
340
0
102
{BLKREFS
331
1F8
102
}
  0
BLOCK_RECORD
  5
191
330
1
100
AcDbSymbolTableRecord
100
AcDbBlockTableRecord
  2
*D7
340
0
  0
BLOCK_RECORD
  5
19E
330
1
100
AcDbSymbolTableRecord
100
AcDbBlockTableRecord
  2
*D8
340
0
  0
BLOCK_RECORD
  5
1B6
330
1
100
AcDbSymbolTableRecord
100
AcDbBlockTableRecord
  2
*D9
340
0
  0
BLOCK_RECORD
  5
1C9
330
1
100
AcDbSymbolTableRecord
100
AcDbBlockTableRecord
  2
*D10
340
0
  0
BLOCK_RECORD
  5
1FE
330
1
100
AcDbSymbolTableRecord
100
AcDbBlockTableRecord
  2
*D11
340
0
  0
BLOCK_RECORD
  5
20A
330
1
100
AcDbSymbolTableRecord
100
AcDbBlockTableRecord
  2
*D12
340
0
  0
BLOCK_RECORD
  5
216
330
1
100
AcDbSymbolTableRecord
100
AcDbBlockTableRecord
  2
*D13
340
0
  0
BLOCK_RECORD
  5
222
330
1
100
AcDbSymbolTableRecord
100
AcDbBlockTableRecord
  2
*D14
340
0
  0
BLOCK_RECORD
  5
270
330
1
100
AcDbSymbolTableRecord
100
AcDbBlockTableRecord
  2
*D15
340
0
  0
BLOCK_RECORD
  5
287
330
1
100
AcDbSymbolTableRecord
100
AcDbBlockTableRecord
  2
*D16
340
0
  0
BLOCK_RECORD
  5
294
330
1
100
AcDbSymbolTableRecord
100
AcDbBlockTableRecord
  2
*D17
340
0
  0
BLOCK_RECORD
  5
2AC
330
1
100
AcDbSymbolTableRecord
100
AcDbBlockTableRecord
  2
*D18
340
0
  0
ENDTAB
  0
ENDSEC
  0
SECTION
  2
BLOCKS
  0
BLOCK
  5
20
330
1F
100
AcDbEntity
  8
0
100
AcDbBlockBegin
  2
*Model_Space
 70
     0
 10
0.0
 20
0.0
 30
0.0
  3
*Model_Space
  1
*Model_Space
  0
ENDBLK
  5
21
330
1F
100
AcDbEntity
  8
0
100
AcDbBlockEnd
  0
BLOCK
  5
1C
330
1B
100
AcDbEntity
 67
     1
  8
0
100
AcDbBlockBegin
  2
*Paper_Space
 70
     0
 10
0.0
 20
0.0
 30
0.0
  3
*Paper_Space
  1
*Paper_Space
  0
ENDBLK
  5
1D
330
1B
100
AcDbEntity
 67
     1
  8
0
100
AcDbBlockEnd
  0
BLOCK
  5
24
330
23
100
AcDbEntity
  8
0
100
AcDbBlockBegin
  2
*Paper_Space0
 70
     0
 10
0.0
 20
0.0
 30
0.0
  3
*Paper_Space0
  1
*Paper_Space0
  0
ENDBLK
  5
25
330
23
100
AcDbEntity
  8
0
100
AcDbBlockEnd
  0
BLOCK
  5
80
330
7F
100
AcDbEntity
  8
0
100
AcDbBlockBegin
  2
블럭10
 70
     2
 10
0.0
 20
0.0
 30
0.0
  3
블럭10
  1
블럭10
  0
ELLIPSE
  5
82
330
7F
100
AcDbEntity
  8
중심선
100
AcDbEllipse
 10
20.54032771741204
 20
12.0471743016438
 30
0.0
 11
6.600054785286829
 21
-1.261213355974178E-13
 31
0.0
210
0.0
220
0.0
230
1.0
 40
0.636358354079598
 41
0.9219305317359503
 42
6.513795318482858
  0
ELLIPSE
  5
83
330
7F
100
AcDbEntity
  8
중심선
100
AcDbEllipse
 10
20.54032771746488
 20
12.04717430159265
 30
0.0
 11
3.960054785062283
 21
1.540847449632565E-10
 31
0.0
210
0.0
220
0.0
230
1.0
 40
0.3939339440162632
 41
1.131841032648279
 42
5.62031148352944
  0
LINE
  5
84
330
7F
100
AcDbEntity
  8
중심선
100
AcDbLine
 10
2.268634060543552
 20
16.24717430164393
 30
0.0
 11
5.714909304380834
 21
16.24717430164393
 31
0.0
  0
LINE
  5
85
330
7F
100
AcDbEntity
  8
중심선
100
AcDbLine
 10
5.245725140726316
 20
7.84717430164391
 30
0.0
 11
8.692000384563599
 21
7.84717430164391
 31
0.0
  0
LINE
  5
86
330
7F
100
AcDbEntity
  8
중심선
100
AcDbLine
 10
15.74043728645272
 20
16.24717430164393
 30
0.0
 11
8.692000384563599
 21
7.84717430164391
 31
0.0
  0
LINE
  5
87
330
7F
100
AcDbEntity
  8
중심선
100
AcDbLine
 10
0.1404042013395286
 20
13.71084872107135
 30
0.0
 11
3.58671253028996
 21
13.71088815037384
 31
0.0
  0
LINE
  5
88
330
7F
100
AcDbEntity
  8
중심선
100
AcDbLine
 10
2.750260043222114
 20
10.84717430164391
 30
0.0
 11
6.196535287059397
 21
10.84717430164391
 31
0.0
  0
LINE
  5
89
330
7F
100
AcDbEntity
  8
중심선
100
AcDbLine
 10
12.29416204261559
 20
16.24717430164393
 30
0.0
 11
5.245725140726316
 21
7.84717430164391
 31
0.0
  0
LINE
  5
8A
330
7F
100
AcDbEntity
  8
중심선
100
AcDbLine
 10
10.72767329541681
 20
16.24717430164393
 30
0.0
 11
6.196535287059397
 21
10.84717430164391
 31
0.0
  0
LINE
  5
8B
330
7F
100
AcDbEntity
  8
중심선
100
AcDbLine
 10
7.28139805157953
 20
16.24717430164393
 30
0.0
 11
2.750260043222114
 21
10.84717430164391
 31
0.0
  0
LINE
  5
8C
330
7F
100
AcDbEntity
  8
중심선
100
AcDbLine
 10
5.714909304380834
 20
16.24717430164393
 30
0.0
 11
3.58671253028996
 21
13.71088815037384
 31
0.0
  0
LINE
  5
8D
330
7F
100
AcDbEntity
  8
중심선
100
AcDbLine
 10
2.268634060543552
 20
16.24717430164393
 30
0.0
 11
0.1404042013395286
 21
13.71084872107135
 31
0.0
  0
LINE
  5
8E
330
7F
100
AcDbEntity
  8
중심선
100
AcDbLine
 10
7.28139805157953
 20
16.24717430164393
 30
0.0
 11
10.72767329541681
 21
16.24717430164393
 31
0.0
  0
LINE
  5
8F
330
7F
100
AcDbEntity
  8
중심선
100
AcDbLine
 10
12.29416204261559
 20
16.24717430164393
 30
0.0
 11
15.74043728645272
 21
16.24717430164393
 31
0.0
  0
LINE
  5
90
330
7F
100
AcDbEntity
  8
중심선
100
AcDbLine
 10
19.22036997980202
 20
11.08717430171403
 30
0.0
 11
23.66174974927406
 21
11.08717430171406
 31
0.0
  0
LINE
  5
91
330
7F
100
AcDbEntity
  8
중심선
100
AcDbLine
 10
19.22039502424796
 20
13.00717430171391
 30
0.0
 11
19.22036997980202
 21
11.08717430171403
 31
0.0
  0
LINE
  5
92
330
7F
100
AcDbEntity
  8
중심선
100
AcDbLine
 10
19.22039502424796
 20
13.00717430171391
 30
0.0
 11
26.96566020931264
 21
13.00717430171391
 31
0.0
  0
LINE
  5
93
330
7F
100
AcDbEntity
  8
중심선
100
AcDbLine
 10
22.22332737316547
 20
13.45928029700563
 30
0.0
 11
24.52862924686651
 21
15.39360700705356
 31
0.0
  0
ATTDEF
  5
95
330
7F
100
AcDbEntity
  8
FORMAT
 62
     2
100
AcDbText
 10
4.408487351596664
 20
2.075366912832191
 30
0.0
 40
4.233333333333333
  1
E2031027
 41
0.75
  7
SLDTEXTSTYLE0
 11
4.408487351596664
 21
-0.0412997538344756
 31
0.0
100
AcDbAttributeDefinition
  3

  2
AUTOATTR0
 70
     0
 74
     1
  0
ENDBLK
  5
81
330
7F
100
AcDbEntity
  8
0
100
AcDbBlockEnd
  0
BLOCK
  5
B9
330
B8
100
AcDbEntity
  8
0
100
AcDbBlockBegin
  2
_D
 70
     0
 10
0.0
 20
0.0
 30
0.0
  3
_D
  1
_D
  0
SOLID
  5
BB
330
B8
100
AcDbEntity
  8
치수문자_일반주서
100
AcDbTrace
 10
-1.841524023601865
 20
5.218258589704702
 30
0.0
 11
-2.349524023601865
 21
1.916258589704702
 31
0.0
 12
-1.333524023601865
 22
1.916258589704702
 32
0.0
 13
-1.333524023601865
 23
1.916258589704702
 33
0.0
  0
SOLID
  5
BC
330
B8
100
AcDbEntity
  8
치수문자_일반주서
100
AcDbTrace
 10
-1.841524023601868
 20
-5.100491410295307
 30
0.0
 11
-1.333524023601868
 21
-1.798491410295307
 31
0.0
 12
-2.349524023601868
 22
-1.798491410295307
 32
0.0
 13
-2.349524023601868
 23
-1.798491410295307
 33
0.0
  0
LINE
  5
BD
330
B8
100
AcDbEntity
  8
치수문자_일반주서
100
AcDbLine
 10
-12.63440573964458
 20
10.23472747827022
 30
0.0
 11
-12.63440573964457
 21
9.52378999270572
 31
0.0
  0
LINE
  5
BE
330
B8
100
AcDbEntity
  8
치수문자_일반주서
100
AcDbLine
 10
-12.63440573964457
 20
9.52378999270572
 30
0.0
 11
-7.078155748585271
 21
9.523789992705758
 31
0.0
  0
LINE
  5
BF
330
B8
100
AcDbEntity
  8
치수문자_일반주서
100
AcDbLine
 10
-7.078155748585271
 20
9.523789992705758
 30
0.0
 11
-7.078155748585276
 21
10.23472747827026
 31
0.0
  0
LINE
  5
C0
330
B8
100
AcDbEntity
  8
치수문자_일반주서
100
AcDbLine
 10
-12.63440573964466
 20
21.06346034040748
 30
0.0
 11
-12.63440573964466
 21
21.77439782597198
 31
0.0
  0
LINE
  5
C1
330
B8
100
AcDbEntity
  8
치수문자_일반주서
100
AcDbLine
 10
-12.63440573964466
 20
21.77439782597198
 30
0.0
 11
-7.078155748585358
 21
21.77439782597202
 31
0.0
  0
LINE
  5
C2
330
B8
100
AcDbEntity
  8
치수문자_일반주서
100
AcDbLine
 10
-7.078155748585358
 20
21.77439782597202
 30
0.0
 11
-7.078155748585353
 21
21.06346034040752
 31
0.0
  0
LINE
  5
C3
330
B8
100
AcDbEntity
  8
치수문자_일반주서
100
AcDbLine
 10
3.481157664253888
 20
5.218258589704702
 30
0.0
 11
-2.841524023601865
 21
5.218258589704702
 31
0.0
  0
LINE
  5
C4
330
B8
100
AcDbEntity
  8
치수문자_일반주서
100
AcDbLine
 10
3.481157664253888
 20
-5.100491410295314
 30
0.0
 11
-2.841524023601868
 21
-5.100491410295307
 31
0.0
  0
LINE
  5
C5
330
B8
100
AcDbEntity
  8
치수문자_일반주서
100
AcDbLine
 10
-1.841524023601865
 20
5.218258589704702
 30
0.0
 11
-1.84152402360186
 21
24.10706285215994
 31
0.0
  0
LINE
  5
C6
330
B8
100
AcDbEntity
  8
치수문자_일반주서
100
AcDbLine
 10
-1.841524023601865
 20
5.218258589704702
 30
0.0
 11
-1.841524023601868
 21
-5.100491410295307
 31
0.0
  0
MTEXT
  5
C7
330
B8
100
AcDbEntity
  8
치수문자_일반주서
100
AcDbMText
 10
-11.58989266316418
 20
11.1233993788816
 30
0.0
 40
3.5
 41
0.0
 71
     1
 72
     1
  1
0.41
  7
SLDTEXTSTYLE0
 11
-7.044195017643634E-15
 21
1.0
 31
0.0
 73
     1
 44
1.0
  0
MTEXT
  5
C8
330
B8
100
AcDbEntity
  8
치수문자_일반주서
100
AcDbMText
 10
-6.353261112803678
 20
7.191124966517865
 30
0.0
 40
3.5
 41
0.0
 71
     1
 72
     1
  1
%%c
  7
SLDTEXTSTYLE0
 11
-7.044195017643634E-15
 21
1.0
 31
0.0
 73
     1
 44
1.0
  0
MTEXT
  5
C9
330
B8
100
AcDbEntity
  8
치수문자_일반주서
100
AcDbMText
 10
-6.353261112803716
 20
12.46956236489195
 30
0.0
 40
3.5
 41
0.0
 71
     1
 72
     1
  1
10.32
  7
SLDTEXTSTYLE0
 11
-7.044195017643634E-15
 21
1.0
 31
0.0
 73
     1
 44
1.0
  0
ENDBLK
  5
BA
330
B8
100
AcDbEntity
  8
0
100
AcDbBlockEnd
  0
BLOCK
  5
CD
330
CC
100
AcDbEntity
  8
0
100
AcDbBlockBegin
  2
_D_1
 70
     0
 10
0.0
 20
0.0
 30
0.0
  3
_D_1
  1
_D_1
  0
LINE
  5
CF
330
CC
100
AcDbEntity
  8
0
  6
Continuous
 62
     0
370
    -2
100
AcDbLine
 10
29.88115766425389
 20
5.064077696114738
 30
0.0
 11
29.88115766425389
 21
15.04947043550684
 31
0.0
  0
LINE
  5
D0
330
CC
100
AcDbEntity
  8
0
  6
Continuous
 62
     0
370
    -2
100
AcDbLine
 10
4.481157664253867
 20
5.057693093878775
 30
0.0
 11
4.481157664253868
 21
15.04947043550684
 31
0.0
  0
LINE
  5
D1
330
CC
100
AcDbEntity
  8
0
  6
Continuous
 62
     0
370
    -2
100
AcDbLine
 10
26.57915766425389
 20
15.04947043550684
 30
0.0
 11
7.783157664253867
 21
15.04947043550684
 31
0.0
  0
SOLID
  5
D2
330
CC
100
AcDbEntity
  8
0
 62
     0
100
AcDbTrace
 10
26.57915766425389
 20
14.49913710217351
 30
0.0
 11
26.57915766425389
 21
15.59980376884017
 31
0.0
 12
29.88115766425389
 22
15.04947043550684
 32
0.0
 13
29.88115766425389
 23
15.04947043550684
 33
0.0
  0
SOLID
  5
D3
330
CC
100
AcDbEntity
  8
0
 62
     0
100
AcDbTrace
 10
7.783157664253867
 20
15.59980376884017
 30
0.0
 11
7.783157664253867
 21
14.49913710217351
 31
0.0
 12
4.481157664253868
 22
15.04947043550684
 32
0.0
 13
4.481157664253868
 23
15.04947043550684
 33
0.0
  0
MTEXT
  5
D4
330
CC
100
AcDbEntity
  8
0
 62
     0
370
    15
100
AcDbMText
 10
17.18115766425385
 20
19.42447043550684
 30
0.0
 40
3.5
 41
0.0
 71
     2
 72
     1
  1
\A1;25.40 [1.00]
  7
SLDTEXTSTYLE0
 73
     1
 44
1.0
  0
POINT
  5
D5
330
CC
100
AcDbEntity
  8
Defpoints
 62
     0
100
AcDbPoint
 10
29.88115766425389
 20
5.001577696114738
 30
0.0
  0
POINT
  5
D6
330
CC
100
AcDbEntity
  8
Defpoints
 62
     0
100
AcDbPoint
 10
4.481157664253867
 20
4.995193093878775
 30
0.0
  0
POINT
  5
D7
330
CC
100
AcDbEntity
  8
Defpoints
 62
     0
100
AcDbPoint
 10
4.481157664253867
 20
15.04947043550681
 30
0.0
  0
ENDBLK
  5
CE
330
CC
100
AcDbEntity
  8
0
100
AcDbBlockEnd
  0
BLOCK
  5
E2
330
E1
100
AcDbEntity
  8
0
100
AcDbBlockBegin
  2
_D_2
 70
     0
 10
0.0
 20
0.0
 30
0.0
  3
_D_2
  1
_D_2
  0
LINE
  5
E4
330
E1
100
AcDbEntity
  8
0
  6
Continuous
 62
     0
370
    -2
100
AcDbLine
 10
29.88115766425389
 20
5.064077696114738
 30
0.0
 11
29.88115766425388
 21
27.04947043550682
 31
0.0
  0
LINE
  5
E5
330
E1
100
AcDbEntity
  8
0
  6
Continuous
 62
     0
370
    -2
100
AcDbLine
 10
-38.38134233574612
 20
3.9313835897047
 30
0.0
 11
-38.38134233574613
 21
27.04947043550682
 31
0.0
  0
LINE
  5
E6
330
E1
100
AcDbEntity
  8
0
  6
Continuous
 62
     0
370
    -2
100
AcDbLine
 10
26.57915766425388
 20
27.04947043550682
 30
0.0
 11
-35.07934233574613
 21
27.04947043550682
 31
0.0
  0
SOLID
  5
E7
330
E1
100
AcDbEntity
  8
0
 62
     0
100
AcDbTrace
 10
26.57915766425388
 20
26.49913710217348
 30
0.0
 11
26.57915766425388
 21
27.59980376884015
 31
0.0
 12
29.88115766425388
 22
27.04947043550682
 32
0.0
 13
29.88115766425388
 23
27.04947043550682
 33
0.0
  0
SOLID
  5
E8
330
E1
100
AcDbEntity
  8
0
 62
     0
100
AcDbTrace
 10
-35.07934233574613
 20
27.59980376884015
 30
0.0
 11
-35.07934233574613
 21
26.49913710217348
 31
0.0
 12
-38.38134233574613
 22
27.04947043550682
 32
0.0
 13
-38.38134233574613
 23
27.04947043550682
 33
0.0
  0
MTEXT
  5
E9
330
E1
100
AcDbEntity
  8
0
 62
     0
370
    15
100
AcDbMText
 10
-3.317948997529442
 20
31.42447043550682
 30
0.0
 40
3.5
 41
0.0
 71
     2
 72
     1
  1
\A1;68.26 [2.69]
  7
SLDTEXTSTYLE0
 73
     1
 44
1.0
  0
POINT
  5
EA
330
E1
100
AcDbEntity
  8
Defpoints
 62
     0
100
AcDbPoint
 10
29.88115766425389
 20
5.001577696114738
 30
0.0
  0
POINT
  5
EB
330
E1
100
AcDbEntity
  8
Defpoints
 62
     0
100
AcDbPoint
 10
-38.38134233574612
 20
3.8688835897047
 30
0.0
  0
POINT
  5
EC
330
E1
100
AcDbEntity
  8
Defpoints
 62
     0
100
AcDbPoint
 10
-38.38134233574612
 20
27.04947043550682
 30
0.0
  0
ENDBLK
  5
E3
330
E1
100
AcDbEntity
  8
0
100
AcDbBlockEnd
  0
BLOCK
  5
F6
330
F5
100
AcDbEntity
  8
0
100
AcDbBlockBegin
  2
_D_3
 70
     0
 10
0.0
 20
0.0
 30
0.0
  3
_D_3
  1
_D_3
  0
SOLID
  5
F8
330
F5
100
AcDbEntity
  8
치수문자_일반주서
100
AcDbTrace
 10
-51.38134233574612
 20
4.821383589704696
 30
0.0
 11
-50.87334233574612
 21
8.123383589704694
 31
0.0
 12
-51.88934233574612
 22
8.123383589704694
 32
0.0
 13
-51.88934233574612
 23
8.123383589704694
 33
0.0
  0
SOLID
  5
F9
330
F5
100
AcDbEntity
  8
치수문자_일반주서
100
AcDbTrace
 10
-51.38134233574612
 20
-4.70361641029531
 30
0.0
 11
-51.88934233574612
 21
-8.00561641029531
 31
0.0
 12
-50.87334233574612
 22
-8.00561641029531
 32
0.0
 13
-50.87334233574612
 23
-8.00561641029531
 33
0.0
  0
LINE
  5
FA
330
F5
100
AcDbEntity
  8
치수문자_일반주서
100
AcDbLine
 10
-62.17422405178885
 20
-5.35548284136401
 30
0.0
 11
-62.17422405178885
 21
-6.06642032692851
 31
0.0
  0
LINE
  5
FB
330
F5
100
AcDbEntity
  8
치수문자_일반주서
100
AcDbLine
 10
-62.17422405178885
 20
-6.06642032692851
 30
0.0
 11
-56.61797406072954
 21
-6.066420326928471
 31
0.0
  0
LINE
  5
FC
330
F5
100
AcDbEntity
  8
치수문자_일반주서
100
AcDbLine
 10
-56.61797406072954
 20
-6.066420326928471
 30
0.0
 11
-56.61797406072955
 21
-5.355482841363971
 31
0.0
  0
LINE
  5
FD
330
F5
100
AcDbEntity
  8
치수문자_일반주서
100
AcDbLine
 10
-62.17422405178892
 20
5.473250020773248
 30
0.0
 11
-62.17422405178893
 21
6.184187506337748
 31
0.0
  0
LINE
  5
FE
330
F5
100
AcDbEntity
  8
치수문자_일반주서
100
AcDbLine
 10
-62.17422405178893
 20
6.184187506337748
 30
0.0
 11
-56.61797406072962
 21
6.184187506337787
 31
0.0
  0
LINE
  5
FF
330
F5
100
AcDbEntity
  8
치수문자_일반주서
100
AcDbLine
 10
-56.61797406072962
 20
6.184187506337787
 30
0.0
 11
-56.61797406072962
 21
5.473250020773287
 31
0.0
  0
LINE
  5
100
330
F5
100
AcDbEntity
  8
치수문자_일반주서
100
AcDbLine
 10
-38.42884233574613
 20
4.821383589704697
 30
0.0
 11
-52.38134233574613
 21
4.821383589704696
 31
0.0
  0
LINE
  5
101
330
F5
100
AcDbEntity
  8
치수문자_일반주서
100
AcDbLine
 10
-38.42884233574613
 20
-4.703616410295309
 30
0.0
 11
-52.38134233574613
 21
-4.70361641029531
 31
0.0
  0
LINE
  5
102
330
F5
100
AcDbEntity
  8
치수문자_일반주서
100
AcDbLine
 10
-51.38134233574612
 20
4.821383589704696
 30
0.0
 11
-51.38134233574612
 21
11.17138358970469
 31
0.0
  0
LINE
  5
103
330
F5
100
AcDbEntity
  8
치수문자_일반주서
100
AcDbLine
 10
-51.38134233574612
 20
4.821383589704696
 30
0.0
 11
-51.38134233574612
 21
-4.70361641029531
 31
0.0
  0
LINE
  5
104
330
F5
100
AcDbEntity
  8
치수문자_일반주서
100
AcDbLine
 10
-51.38134233574612
 20
-4.70361641029531
 30
0.0
 11
-51.38134233574612
 21
-11.05361641029531
 31
0.0
  0
MTEXT
  5
105
330
F5
100
AcDbEntity
  8
치수문자_일반주서
100
AcDbMText
 10
-61.12971097530844
 20
-4.466810940752632
 30
0.0
 40
3.5
 41
0.0
 71
     1
 72
     1
  1
0.38
  7
SLDTEXTSTYLE0
 11
-7.044195017643634E-15
 21
1.0
 31
0.0
 73
     1
 44
1.0
  0
MTEXT
  5
106
330
F5
100
AcDbEntity
  8
치수문자_일반주서
100
AcDbMText
 10
-55.89307942494795
 20
-7.106030105600923
 30
0.0
 40
3.5
 41
0.0
 71
     1
 72
     1
  1
%%c
  7
SLDTEXTSTYLE0
 11
-7.044195017643634E-15
 21
1.0
 31
0.0
 73
     1
 44
1.0
  0
MTEXT
  5
107
330
F5
100
AcDbEntity
  8
치수문자_일반주서
100
AcDbMText
 10
-55.89307942494798
 20
-1.827592707226842
 30
0.0
 40
3.5
 41
0.0
 71
     1
 72
     1
  1
9.53
  7
SLDTEXTSTYLE0
 11
-7.044195017643634E-15
 21
1.0
 31
0.0
 73
     1
 44
1.0
  0
ENDBLK
  5
F7
330
F5
100
AcDbEntity
  8
0
100
AcDbBlockEnd
  0
BLOCK
  5
110
330
10F
100
AcDbEntity
  8
0
100
AcDbBlockBegin
  2
SW_DOWELSYMBOL_0
 70
     0
 10
0.0
 20
0.0
 30
0.0
  3
SW_DOWELSYMBOL_0
  1
SW_DOWELSYMBOL_0
  0
CIRCLE
  5
112
330
10F
100
AcDbEntity
  8
해칭선
 62
     0
100
AcDbCircle
 10
0.0
 20
0.0
 30
0.0
 40
2.999999999999999
  0
HATCH
  5
113
330
10F
100
AcDbEntity
  8
0
  6
Continuous
 62
     0
370
     0
100
AcDbHatch
 10
0.0
 20
0.0
 30
0.0
210
0.0
220
0.0
230
1.0
  2
SOLID
 70
     1
 71
     0
 91
        1
 92
        0
 93
        3
 72
     2
 10
0.0
 20
0.0
 40
2.999999999999999
 50
0.0
 51
90.0
 73
     1
 72
     1
 10
0.0
 20
2.999999999999999
 11
0.0
 21
0.0
 72
     1
 10
0.0
 20
0.0
 11
2.999999999999999
 21
0.0
 97
        0
 75
     0
 76
     1
 98
        1
 10
0.0
 20
0.0
  0
HATCH
  5
114
330
10F
100
AcDbEntity
  8
0
  6
Continuous
 62
     0
370
     0
100
AcDbHatch
 10
0.0
 20
0.0
 30
0.0
210
0.0
220
0.0
230
1.0
  2
SOLID
 70
     1
 71
     0
 91
        1
 92
        0
 93
        3
 72
     2
 10
0.0
 20
0.0
 40
2.999999999999999
 50
180.0
 51
270.0000000000007
 73
     1
 72
     1
 10
0.0
 20
-2.999999999999999
 11
0.0
 21
0.0
 72
     1
 10
0.0
 20
0.0
 11
-2.999999999999999
 21
0.0
 97
        0
 75
     0
 76
     1
 98
        1
 10
0.0
 20
0.0
  0
ENDBLK
  5
111
330
10F
100
AcDbEntity
  8
0
100
AcDbBlockEnd
  0
BLOCK
  5
192
330
191
100
AcDbEntity
  8
0
100
AcDbBlockBegin
  2
*D7
 70
     1
 10
0.0
 20
0.0
 30
0.0
  3
*D7
  1
*D13
  0
LINE
  5
193
330
191
100
AcDbEntity
  8
치수문자_일반주서
 62
     0
370
    -2
100
AcDbLine
 10
83.93827283782726
 20
17.47187500000001
 30
0.0
 11
83.93827283782727
 21
45.89702942590523
 31
0.0
  0
LINE
  5
194
330
191
100
AcDbEntity
  8
치수문자_일반주서
 62
     0
370
    -2
100
AcDbLine
 10
15.67577283782725
 20
16.12250000000001
 30
0.0
 11
15.67577283782726
 21
45.89702942590523
 31
0.0
  0
LINE
  5
195
330
191
100
AcDbEntity
  8
치수문자_일반주서
 62
     0
370
    -2
100
AcDbLine
 10
80.63627283782728
 20
45.89702942590523
 30
0.0
 11
18.97777283782726
 21
45.89702942590523
 31
0.0
  0
SOLID
  5
196
330
191
100
AcDbEntity
  8
치수문자_일반주서
 62
     0
100
AcDbTrace
 10
80.63627283782728
 20
45.3466960925719
 30
0.0
 11
80.63627283782728
 21
46.44736275923857
 31
0.0
 12
83.93827283782727
 22
45.89702942590523
 32
0.0
 13
83.93827283782727
 23
45.89702942590523
 33
0.0
  0
SOLID
  5
197
330
191
100
AcDbEntity
  8
치수문자_일반주서
 62
     0
100
AcDbTrace
 10
18.97777283782726
 20
46.44736275923857
 30
0.0
 11
18.97777283782726
 21
45.3466960925719
 31
0.0
 12
15.67577283782726
 22
45.89702942590523
 32
0.0
 13
15.67577283782726
 23
45.89702942590523
 33
0.0
  0
MTEXT
  5
198
330
191
100
AcDbEntity
  8
치수문자_일반주서
 62
     0
100
AcDbMText
 10
47.42577283782725
 20
50.27202942590523
 30
0.0
 40
3.5
 41
0.0
 71
     2
 72
     1
  1
\A1;68.26 [2 11/16]
  7
SLDTEXTSTYLE0
 73
     1
 44
1.0
  0
POINT
  5
199
330
191
100
AcDbEntity
  8
Defpoints
 62
     0
100
AcDbPoint
 10
83.93827283782726
 20
17.40937500000001
 30
0.0
  0
POINT
  5
19A
330
191
100
AcDbEntity
  8
Defpoints
 62
     0
100
AcDbPoint
 10
15.67577283782725
 20
16.06000000000001
 30
0.0
  0
POINT
  5
19B
330
191
100
AcDbEntity
  8
Defpoints
 62
     0
100
AcDbPoint
 10
15.67577283782725
 20
45.89702942590523
 30
0.0
  0
ENDBLK
  5
19C
330
191
100
AcDbEntity
  8
0
100
AcDbBlockEnd
  0
BLOCK
  5
19F
330
19E
100
AcDbEntity
  8
0
100
AcDbBlockBegin
  2
*D8
 70
     1
 10
0.0
 20
0.0
 30
0.0
  3
*D8
  1
*D14
  0
LINE
  5
1A0
330
19E
100
AcDbEntity
  8
치수문자_일반주서
 62
     0
370
    -2
100
AcDbLine
 10
16.56577283782725
 20
17.01250000000001
 30
0.0
 11
4.375000000000034
 21
17.01249999999997
 31
0.0
  0
LINE
  5
1A1
330
19E
100
AcDbEntity
  8
치수문자_일반주서
 62
     0
370
    -2
100
AcDbLine
 10
16.56577283782725
 20
7.487500000000006
 30
0.0
 11
4.375000000000067
 21
7.48749999999996
 31
0.0
  0
LINE
  5
1A2
330
19E
100
AcDbEntity
  8
치수문자_일반주서
 62
     0
370
    -2
100
AcDbLine
 10
4.375000000000045
 20
13.71049999999997
 30
0.0
 11
4.375000000000055
 21
10.78949999999996
 31
0.0
  0
SOLID
  5
1A3
330
19E
100
AcDbEntity
  8
치수문자_일반주서
 62
     0
100
AcDbTrace
 10
4.925333333333379
 20
13.71049999999997
 30
0.0
 11
3.824666666666712
 21
13.71049999999997
 31
0.0
 12
4.375000000000034
 22
17.01249999999997
 32
0.0
 13
4.375000000000034
 23
17.01249999999997
 33
0.0
  0
SOLID
  5
1A4
330
19E
100
AcDbEntity
  8
치수문자_일반주서
 62
     0
100
AcDbTrace
 10
3.824666666666722
 20
10.78949999999996
 30
0.0
 11
4.925333333333389
 21
10.78949999999996
 31
0.0
 12
4.375000000000067
 22
7.48749999999996
 32
0.0
 13
4.375000000000067
 23
7.48749999999996
 33
0.0
  0
MTEXT
  5
1A5
330
19E
100
AcDbEntity
  8
치수문자_일반주서
 62
     0
100
AcDbMText
 10
0.0000000000000497
 20
12.25
 30
0.0
 40
3.5
 41
0.0
 71
     2
 72
     1
  1
\A1;%%c9.53 [3/8]
  7
SLDTEXTSTYLE0
 11
-3.450141892798384E-15
 21
1.0
 31
0.0
 73
     1
 44
1.0
  0
POINT
  5
1A6
330
19E
100
AcDbEntity
  8
Defpoints
 62
     0
100
AcDbPoint
 10
16.62827283782725
 20
17.01250000000001
 30
0.0
  0
POINT
  5
1A7
330
19E
100
AcDbEntity
  8
Defpoints
 62
     0
100
AcDbPoint
 10
16.62827283782725
 20
7.487500000000006
 30
0.0
  0
POINT
  5
1A8
330
19E
100
AcDbEntity
  8
Defpoints
 62
     0
100
AcDbPoint
 10
4.375000000000071
 20
7.48749999999996
 30
0.0
  0
ENDBLK
  5
1A9
330
19E
100
AcDbEntity
  8
0
100
AcDbBlockEnd
  0
BLOCK
  5
1B7
330
1B6
100
AcDbEntity
  8
0
100
AcDbBlockBegin
  2
*D9
 70
     1
 10
0.0
 20
0.0
 30
0.0
  3
*D9
  1
*D18
  0
LINE
  5
1B8
330
1B6
100
AcDbEntity
  8
치수문자_일반주서
 62
     0
370
    -2
100
AcDbLine
 10
84.00077283782726
 20
17.40937500000001
 30
0.0
 11
98.57495445518066
 21
17.40937500000001
 31
0.0
  0
LINE
  5
1B9
330
1B6
100
AcDbEntity
  8
치수문자_일반주서
 62
     0
370
    -2
100
AcDbLine
 10
84.00077283782726
 20
7.090625000000015
 30
0.0
 11
98.57495445518066
 21
7.090625000000017
 31
0.0
  0
LINE
  5
1BA
330
1B6
100
AcDbEntity
  8
치수문자_일반주서
 62
     0
370
    -2
100
AcDbLine
 10
98.57495445518066
 20
17.40937500000001
 30
0.0
 11
98.57495445518066
 21
53.32587500000001
 31
0.0
  0
LINE
  5
1BB
330
1B6
100
AcDbEntity
  8
치수문자_일반주서
 62
     0
370
    -2
100
AcDbLine
 10
98.57495445518066
 20
17.40937500000001
 30
0.0
 11
98.57495445518066
 21
7.090625000000017
 31
0.0
  0
LINE
  5
1BC
330
1B6
100
AcDbEntity
  8
치수문자_일반주서
 62
     0
370
    -2
100
AcDbLine
 10
98.57495445518066
 20
20.71137500000001
 30
0.0
 11
98.57495445518066
 21
24.01337500000001
 31
0.0
  0
LINE
  5
1BD
330
1B6
100
AcDbEntity
  8
치수문자_일반주서
 62
     0
370
    -2
100
AcDbLine
 10
98.57495445518066
 20
3.788625000000017
 30
0.0
 11
98.57495445518066
 21
0.4866250000000178
 31
0.0
  0
SOLID
  5
1BE
330
1B6
100
AcDbEntity
  8
치수문자_일반주서
 62
     0
100
AcDbTrace
 10
98.02462112184733
 20
20.71137500000001
 30
0.0
 11
99.12528778851399
 21
20.71137500000001
 31
0.0
 12
98.57495445518066
 22
17.40937500000001
 32
0.0
 13
98.57495445518066
 23
17.40937500000001
 33
0.0
  0
SOLID
  5
1BF
330
1B6
100
AcDbEntity
  8
치수문자_일반주서
 62
     0
100
AcDbTrace
 10
99.12528778851399
 20
3.788625000000017
 30
0.0
 11
98.02462112184733
 21
3.788625000000017
 31
0.0
 12
98.57495445518066
 22
7.090625000000017
 32
0.0
 13
98.57495445518066
 23
7.090625000000017
 33
0.0
  0
MTEXT
  5
1C0
330
1B6
100
AcDbEntity
  8
치수문자_일반주서
 62
     0
100
AcDbMText
 10
95.94995445518066
 20
38.66962500000001
 30
0.0
 40
3.5
 41
0.0
 71
     5
 72
     1
  1
\A1;10.32 [13/32]
  7
SLDTEXTSTYLE0
 11
0.0
 21
1.0
 31
0.0
 73
     1
 44
1.0
  0
POINT
  5
1C1
330
1B6
100
AcDbEntity
  8
Defpoints
 62
     0
100
AcDbPoint
 10
83.93827283782726
 20
17.40937500000001
 30
0.0
  0
POINT
  5
1C2
330
1B6
100
AcDbEntity
  8
Defpoints
 62
     0
100
AcDbPoint
 10
83.93827283782726
 20
7.090625000000015
 30
0.0
  0
POINT
  5
1C3
330
1B6
100
AcDbEntity
  8
Defpoints
 62
     0
100
AcDbPoint
 10
98.57495445518066
 20
7.090625000000014
 30
0.0
  0
ENDBLK
  5
1C4
330
1B6
100
AcDbEntity
  8
0
100
AcDbBlockEnd
  0
BLOCK
  5
1CA
330
1C9
100
AcDbEntity
  8
0
100
AcDbBlockBegin
  2
*D10
 70
     1
 10
0.0
 20
0.0
 30
0.0
  3
*D10
  1
*D11
  0
LINE
  5
1CC
330
1C9
100
AcDbEntity
  8
치수문자_일반주서
 62
     0
370
    -2
100
AcDbLine
 10
83.93827283782726
 20
17.47187500000001
 30
0.0
 11
83.93827283782726
 21
27.24058684580216
 31
0.0
  0
LINE
  5
1CD
330
1C9
100
AcDbEntity
  8
치수문자_일반주서
 62
     0
370
    -2
100
AcDbLine
 10
58.53827283782722
 20
17.2488095041741
 30
0.0
 11
58.53827283782722
 21
27.24058684580216
 31
0.0
  0
LINE
  5
1CE
330
1C9
100
AcDbEntity
  8
치수문자_일반주서
 62
     0
370
    -2
100
AcDbLine
 10
80.63627283782725
 20
27.24058684580216
 30
0.0
 11
61.84027283782722
 21
27.24058684580216
 31
0.0
  0
SOLID
  5
1CF
330
1C9
100
AcDbEntity
  8
치수문자_일반주서
 62
     0
100
AcDbTrace
 10
80.63627283782725
 20
26.69025351246883
 30
0.0
 11
80.63627283782725
 21
27.7909201791355
 31
0.0
 12
83.93827283782726
 22
27.24058684580216
 32
0.0
 13
83.93827283782726
 23
27.24058684580216
 33
0.0
  0
SOLID
  5
1D0
330
1C9
100
AcDbEntity
  8
치수문자_일반주서
 62
     0
100
AcDbTrace
 10
61.84027283782722
 20
27.7909201791355
 30
0.0
 11
61.84027283782722
 21
26.69025351246883
 31
0.0
 12
58.53827283782722
 22
27.24058684580216
 32
0.0
 13
58.53827283782722
 23
27.24058684580216
 33
0.0
  0
MTEXT
  5
1D1
330
1C9
100
AcDbEntity
  8
치수문자_일반주서
 62
     0
100
AcDbMText
 10
71.2382728378272
 20
31.61558684580216
 30
0.0
 40
3.5
 41
0.0
 71
     2
 72
     1
  1
\A1;25.4 [1]
  7
SLDTEXTSTYLE0
 73
     1
 44
1.0
  0
POINT
  5
1D2
330
1C9
100
AcDbEntity
  8
Defpoints
 62
     0
100
AcDbPoint
 10
83.93827283782726
 20
17.40937500000001
 30
0.0
  0
POINT
  5
1D3
330
1C9
100
AcDbEntity
  8
Defpoints
 62
     0
100
AcDbPoint
 10
58.53827283782722
 20
17.1863095041741
 30
0.0
  0
POINT
  5
1D4
330
1C9
100
AcDbEntity
  8
Defpoints
 62
     0
100
AcDbPoint
 10
58.53827283782722
 20
27.24058684580216
 30
0.0
  0
ENDBLK
  5
1CB
330
1C9
100
AcDbEntity
  8
0
100
AcDbBlockEnd
  0
BLOCK
  5
1FF
330
1FE
100
AcDbEntity
  8
0
100
AcDbBlockBegin
  2
*D11
 70
     1
 10
0.0
 20
0.0
 30
0.0
  3
*D11
  1
*D12
  0
LINE
  5
201
330
1FE
100
AcDbEntity
  8
치수문자_일반주서
 62
     0
370
    -2
100
AcDbLine
 10
27.40000000000005
 20
5.420312497618756
 30
0.0
 11
27.40000000000005
 21
15.56714787141427
 31
0.0
  0
LINE
  5
202
330
1FE
100
AcDbEntity
  8
치수문자_일반주서
 62
     0
370
    -2
100
AcDbLine
 10
1.999999999999986
 20
5.414217638920555
 30
0.0
 11
1.999999999999986
 21
15.56714787141427
 31
0.0
  0
LINE
  5
203
330
1FE
100
AcDbEntity
  8
치수문자_일반주서
 62
     0
370
    -2
100
AcDbLine
 10
24.09800000000005
 20
15.56714787141427
 30
0.0
 11
5.301999999999985
 21
15.56714787141427
 31
0.0
  0
SOLID
  5
204
330
1FE
100
AcDbEntity
  8
치수문자_일반주서
 62
     0
100
AcDbTrace
 10
24.09800000000005
 20
15.01681453808094
 30
0.0
 11
24.09800000000005
 21
16.11748120474761
 31
0.0
 12
27.40000000000005
 22
15.56714787141427
 32
0.0
 13
27.40000000000005
 23
15.56714787141427
 33
0.0
  0
SOLID
  5
205
330
1FE
100
AcDbEntity
  8
치수문자_일반주서
 62
     0
100
AcDbTrace
 10
5.301999999999985
 20
16.11748120474761
 30
0.0
 11
5.301999999999985
 21
15.01681453808094
 31
0.0
 12
1.999999999999986
 22
15.56714787141427
 32
0.0
 13
1.999999999999986
 23
15.56714787141427
 33
0.0
  0
MTEXT
  5
206
330
1FE
100
AcDbEntity
  8
치수문자_일반주서
 62
     0
100
AcDbMText
 10
14.21153846739996
 20
19.94214787141427
 30
0.0
 40
3.5
 41
0.0
 71
     2
 72
     1
  1
\A1;25.4 [1]
  7
SLDTEXTSTYLE0
 73
     1
 44
1.0
  0
POINT
  5
207
330
1FE
100
AcDbEntity
  8
Defpoints
 62
     0
100
AcDbPoint
 10
27.40000000000005
 20
5.357812497618756
 30
0.0
  0
POINT
  5
208
330
1FE
100
AcDbEntity
  8
Defpoints
 62
     0
100
AcDbPoint
 10
1.999999999999986
 20
5.351717638920555
 30
0.0
  0
POINT
  5
209
330
1FE
100
AcDbEntity
  8
Defpoints
 62
     0
100
AcDbPoint
 10
1.999999999999986
 20
15.56714787141427
 30
0.0
  0
ENDBLK
  5
200
330
1FE
100
AcDbEntity
  8
0
100
AcDbBlockEnd
  0
BLOCK
  5
20B
330
20A
100
AcDbEntity
  8
0
100
AcDbBlockBegin
  2
*D12
 70
     1
 10
0.0
 20
0.0
 30
0.0
  3
*D12
  1
*D13
  0
LINE
  5
20D
330
20A
100
AcDbEntity
  8
치수문자_일반주서
 62
     0
370
    -2
100
AcDbLine
 10
27.40000000000005
 20
5.420312497618756
 30
0.0
 11
27.40000000000005
 21
34.94114592675679
 31
0.0
  0
LINE
  5
20E
330
20A
100
AcDbEntity
  8
치수문자_일반주서
 62
     0
370
    -2
100
AcDbLine
 10
-40.86249999999997
 20
3.872500000000002
 30
0.0
 11
-40.86249999999997
 21
34.94114592675679
 31
0.0
  0
LINE
  5
20F
330
20A
100
AcDbEntity
  8
치수문자_일반주서
 62
     0
370
    -2
100
AcDbLine
 10
24.09800000000005
 20
34.94114592675679
 30
0.0
 11
-37.56049999999997
 21
34.94114592675679
 31
0.0
  0
SOLID
  5
210
330
20A
100
AcDbEntity
  8
치수문자_일반주서
 62
     0
100
AcDbTrace
 10
24.09800000000005
 20
34.39081259342345
 30
0.0
 11
24.09800000000005
 21
35.49147926009012
 31
0.0
 12
27.40000000000005
 22
34.94114592675679
 32
0.0
 13
27.40000000000005
 23
34.94114592675679
 33
0.0
  0
SOLID
  5
211
330
20A
100
AcDbEntity
  8
치수문자_일반주서
 62
     0
100
AcDbTrace
 10
-37.56049999999997
 20
35.49147926009012
 30
0.0
 11
-37.56049999999997
 21
34.39081259342345
 31
0.0
 12
-40.86249999999997
 22
34.94114592675679
 32
0.0
 13
-40.86249999999997
 23
34.94114592675679
 33
0.0
  0
MTEXT
  5
212
330
20A
100
AcDbEntity
  8
치수문자_일반주서
 62
     0
100
AcDbMText
 10
-10.51682690622498
 20
39.31614592675679
 30
0.0
 40
3.5
 41
0.0
 71
     2
 72
     1
  1
\A1;68.26 [2 11/16]
  7
SLDTEXTSTYLE0
 73
     1
 44
1.0
  0
POINT
  5
213
330
20A
100
AcDbEntity
  8
Defpoints
 62
     0
100
AcDbPoint
 10
27.40000000000005
 20
5.357812497618756
 30
0.0
  0
POINT
  5
214
330
20A
100
AcDbEntity
  8
Defpoints
 62
     0
100
AcDbPoint
 10
-40.86249999999997
 20
3.810000000000002
 30
0.0
  0
POINT
  5
215
330
20A
100
AcDbEntity
  8
Defpoints
 62
     0
100
AcDbPoint
 10
-40.86249999999997
 20
34.94114592675679
 30
0.0
  0
ENDBLK
  5
20C
330
20A
100
AcDbEntity
  8
0
100
AcDbBlockEnd
  0
BLOCK
  5
217
330
216
100
AcDbEntity
  8
0
100
AcDbBlockBegin
  2
*D13
 70
     1
 10
0.0
 20
0.0
 30
0.0
  3
*D13
  1
*D14
  0
LINE
  5
219
330
216
100
AcDbEntity
  8
치수문자_일반주서
 62
     0
370
    -2
100
AcDbLine
 10
-39.97249999999998
 20
4.762500000000003
 30
0.0
 11
-52.16327283782718
 21
4.762499999999957
 31
0.0
  0
LINE
  5
21A
330
216
100
AcDbEntity
  8
치수문자_일반주서
 62
     0
370
    -2
100
AcDbLine
 10
-39.97249999999998
 20
-4.762500000000006
 30
0.0
 11
-52.16327283782714
 21
-4.762500000000053
 31
0.0
  0
LINE
  5
21B
330
216
100
AcDbEntity
  8
치수문자_일반주서
 62
     0
370
    -2
100
AcDbLine
 10
-52.16327283782717
 20
1.460499999999957
 30
0.0
 11
-52.16327283782716
 21
-1.460500000000053
 31
0.0
  0
SOLID
  5
21C
330
216
100
AcDbEntity
  8
치수문자_일반주서
 62
     0
100
AcDbTrace
 10
-51.61293950449383
 20
1.460499999999959
 30
0.0
 11
-52.7136061711605
 21
1.460499999999955
 31
0.0
 12
-52.16327283782718
 22
4.762499999999957
 32
0.0
 13
-52.16327283782718
 23
4.762499999999957
 33
0.0
  0
SOLID
  5
21D
330
216
100
AcDbEntity
  8
치수문자_일반주서
 62
     0
100
AcDbTrace
 10
-52.71360617116049
 20
-1.460500000000055
 30
0.0
 11
-51.61293950449382
 21
-1.460500000000051
 31
0.0
 12
-52.16327283782714
 22
-4.762500000000053
 32
0.0
 13
-52.16327283782714
 23
-4.762500000000053
 33
0.0
  0
MTEXT
  5
21E
330
216
100
AcDbEntity
  8
치수문자_일반주서
 62
     0
100
AcDbMText
 10
-56.53827283782717
 20
-0.0000000000000127
 30
0.0
 40
3.5
 41
0.0
 71
     2
 72
     1
  1
\A1;%%c9.53 [3/8]
  7
SLDTEXTSTYLE0
 11
-3.729883127349603E-15
 21
1.0
 31
0.0
 73
     1
 44
1.0
  0
POINT
  5
21F
330
216
100
AcDbEntity
  8
Defpoints
 62
     0
100
AcDbPoint
 10
-39.90999999999998
 20
4.762500000000003
 30
0.0
  0
POINT
  5
220
330
216
100
AcDbEntity
  8
Defpoints
 62
     0
100
AcDbPoint
 10
-39.90999999999998
 20
-4.762500000000006
 30
0.0
  0
POINT
  5
221
330
216
100
AcDbEntity
  8
Defpoints
 62
     0
100
AcDbPoint
 10
-52.16327283782715
 20
-4.762500000000053
 30
0.0
  0
ENDBLK
  5
218
330
216
100
AcDbEntity
  8
0
100
AcDbBlockEnd
  0
BLOCK
  5
223
330
222
100
AcDbEntity
  8
0
100
AcDbBlockBegin
  2
*D14
 70
     1
 10
0.0
 20
0.0
 30
0.0
  3
*D14
  1
*D15
  0
LINE
  5
225
330
222
100
AcDbEntity
  8
치수문자_일반주서
 62
     0
370
    -2
100
AcDbLine
 10
27.46250000000005
 20
5.357812497618756
 30
0.0
 11
42.59963090357316
 21
5.357812497618752
 31
0.0
  0
LINE
  5
226
330
222
100
AcDbEntity
  8
치수문자_일반주서
 62
     0
370
    -2
100
AcDbLine
 10
27.46250000000005
 20
-5.357812497618742
 30
0.0
 11
42.59963090357316
 21
-5.357812497618742
 31
0.0
  0
LINE
  5
227
330
222
100
AcDbEntity
  8
치수문자_일반주서
 62
     0
370
    -2
100
AcDbLine
 10
42.59963090357316
 20
5.357812497618752
 30
0.0
 11
42.59963090357316
 21
42.52951441088325
 31
0.0
  0
LINE
  5
228
330
222
100
AcDbEntity
  8
치수문자_일반주서
 62
     0
370
    -2
100
AcDbLine
 10
42.59963090357316
 20
5.357812497618752
 30
0.0
 11
42.59963090357316
 21
-5.357812497618742
 31
0.0
  0
LINE
  5
229
330
222
100
AcDbEntity
  8
치수문자_일반주서
 62
     0
370
    -2
100
AcDbLine
 10
42.59963090357316
 20
8.659812497618752
 30
0.0
 11
42.59963090357316
 21
11.96181249761875
 31
0.0
  0
LINE
  5
22A
330
222
100
AcDbEntity
  8
치수문자_일반주서
 62
     0
370
    -2
100
AcDbLine
 10
42.59963090357316
 20
-8.659812497618741
 30
0.0
 11
42.59963090357316
 21
-11.96181249761874
 31
0.0
  0
SOLID
  5
22B
330
222
100
AcDbEntity
  8
치수문자_일반주서
 62
     0
100
AcDbTrace
 10
42.04929757023982
 20
8.659812497618752
 30
0.0
 11
43.14996423690649
 21
8.659812497618752
 31
0.0
 12
42.59963090357316
 22
5.357812497618752
 32
0.0
 13
42.59963090357316
 23
5.357812497618752
 33
0.0
  0
SOLID
  5
22C
330
222
100
AcDbEntity
  8
치수문자_일반주서
 62
     0
100
AcDbTrace
 10
43.14996423690649
 20
-8.659812497618741
 30
0.0
 11
42.04929757023982
 21
-8.659812497618741
 31
0.0
 12
42.59963090357316
 22
-5.357812497618742
 32
0.0
 13
42.59963090357316
 23
-5.357812497618742
 33
0.0
  0
MTEXT
  5
22D
330
222
100
AcDbEntity
  8
치수문자_일반주서
 62
     0
100
AcDbMText
 10
39.97463090357316
 20
27.43576441088325
 30
0.0
 40
3.5
 41
0.0
 71
     5
 72
     1
  1
\A1;10.72 [27/64]
  7
SLDTEXTSTYLE0
 11
0.0
 21
1.0
 31
0.0
 73
     1
 44
1.0
  0
POINT
  5
22E
330
222
100
AcDbEntity
  8
Defpoints
 62
     0
100
AcDbPoint
 10
27.40000000000005
 20
5.357812497618756
 30
0.0
  0
POINT
  5
22F
330
222
100
AcDbEntity
  8
Defpoints
 62
     0
100
AcDbPoint
 10
27.40000000000005
 20
-5.357812497618742
 30
0.0
  0
POINT
  5
230
330
222
100
AcDbEntity
  8
Defpoints
 62
     0
100
AcDbPoint
 10
42.59963090357316
 20
-5.357812497618743
 30
0.0
  0
ENDBLK
  5
224
330
222
100
AcDbEntity
  8
0
100
AcDbBlockEnd
  0
BLOCK
  5
271
330
270
100
AcDbEntity
  8
0
100
AcDbBlockBegin
  2
*D15
 70
     1
 10
0.0
 20
0.0
 30
0.0
  3
*D15
  1
*D17
  0
LINE
  5
272
330
270
100
AcDbEntity
  8
치수문자_일반주서
 62
     0
370
    -2
100
AcDbLine
 10
83.93827283782726
 20
17.47187500000001
 30
0.0
 11
83.93827283782726
 21
27.24058684580216
 31
0.0
  0
LINE
  5
273
330
270
100
AcDbEntity
  8
치수문자_일반주서
 62
     0
370
    -2
100
AcDbLine
 10
58.53827283782721
 20
17.2488095041741
 30
0.0
 11
58.53827283782721
 21
27.24058684580216
 31
0.0
  0
LINE
  5
274
330
270
100
AcDbEntity
  8
치수문자_일반주서
 62
     0
370
    -2
100
AcDbLine
 10
80.63627283782725
 20
27.24058684580216
 30
0.0
 11
61.84027283782721
 21
27.24058684580216
 31
0.0
  0
SOLID
  5
275
330
270
100
AcDbEntity
  8
치수문자_일반주서
 62
     0
100
AcDbTrace
 10
80.63627283782725
 20
26.69025351246883
 30
0.0
 11
80.63627283782725
 21
27.7909201791355
 31
0.0
 12
83.93827283782726
 22
27.24058684580216
 32
0.0
 13
83.93827283782726
 23
27.24058684580216
 33
0.0
  0
SOLID
  5
276
330
270
100
AcDbEntity
  8
치수문자_일반주서
 62
     0
100
AcDbTrace
 10
61.84027283782721
 20
27.7909201791355
 30
0.0
 11
61.84027283782721
 21
26.69025351246883
 31
0.0
 12
58.53827283782721
 22
27.24058684580216
 32
0.0
 13
58.53827283782721
 23
27.24058684580216
 33
0.0
  0
MTEXT
  5
277
330
270
100
AcDbEntity
  8
치수문자_일반주서
 62
     0
100
AcDbMText
 10
71.23827283782718
 20
31.61558684580216
 30
0.0
 40
3.5
 41
0.0
 71
     2
 72
     1
  1
\A1;25.4 [1]
  7
SLDTEXTSTYLE0
 73
     1
 44
1.0
  0
POINT
  5
278
330
270
100
AcDbEntity
  8
Defpoints
 62
     0
100
AcDbPoint
 10
83.93827283782726
 20
17.40937500000001
 30
0.0
  0
POINT
  5
279
330
270
100
AcDbEntity
  8
Defpoints
 62
     0
100
AcDbPoint
 10
58.53827283782721
 20
17.1863095041741
 30
0.0
  0
POINT
  5
27A
330
270
100
AcDbEntity
  8
Defpoints
 62
     0
100
AcDbPoint
 10
58.53827283782721
 20
27.24058684580216
 30
0.0
  0
ENDBLK
  5
27B
330
270
100
AcDbEntity
  8
0
100
AcDbBlockEnd
  0
BLOCK
  5
288
330
287
100
AcDbEntity
  8
0
100
AcDbBlockBegin
  2
*D16
 70
     1
 10
0.0
 20
0.0
 30
0.0
  3
*D16
  1
*D18
  0
LINE
  5
289
330
287
100
AcDbEntity
  8
치수문자_일반주서
 62
     0
370
    -2
100
AcDbLine
 10
83.93827283782726
 20
17.47187500000001
 30
0.0
 11
83.93827283782726
 21
45.89702942590523
 31
0.0
  0
LINE
  5
28A
330
287
100
AcDbEntity
  8
치수문자_일반주서
 62
     0
370
    -2
100
AcDbLine
 10
15.67577283782724
 20
16.12250000000001
 30
0.0
 11
15.67577283782724
 21
45.89702942590523
 31
0.0
  0
LINE
  5
28B
330
287
100
AcDbEntity
  8
치수문자_일반주서
 62
     0
370
    -2
100
AcDbLine
 10
80.63627283782725
 20
45.89702942590523
 30
0.0
 11
18.97777283782724
 21
45.89702942590523
 31
0.0
  0
SOLID
  5
28C
330
287
100
AcDbEntity
  8
치수문자_일반주서
 62
     0
100
AcDbTrace
 10
80.63627283782725
 20
45.3466960925719
 30
0.0
 11
80.63627283782725
 21
46.44736275923857
 31
0.0
 12
83.93827283782726
 22
45.89702942590523
 32
0.0
 13
83.93827283782726
 23
45.89702942590523
 33
0.0
  0
SOLID
  5
28D
330
287
100
AcDbEntity
  8
치수문자_일반주서
 62
     0
100
AcDbTrace
 10
18.97777283782724
 20
46.44736275923857
 30
0.0
 11
18.97777283782724
 21
45.3466960925719
 31
0.0
 12
15.67577283782724
 22
45.89702942590523
 32
0.0
 13
15.67577283782724
 23
45.89702942590523
 33
0.0
  0
MTEXT
  5
28E
330
287
100
AcDbEntity
  8
치수문자_일반주서
 62
     0
100
AcDbMText
 10
47.42577283782724
 20
50.27202942590523
 30
0.0
 40
3.5
 41
0.0
 71
     2
 72
     1
  1
\A1;68.26 [2 11/16]
  7
SLDTEXTSTYLE0
 73
     1
 44
1.0
  0
POINT
  5
28F
330
287
100
AcDbEntity
  8
Defpoints
 62
     0
100
AcDbPoint
 10
83.93827283782726
 20
17.40937500000001
 30
0.0
  0
POINT
  5
290
330
287
100
AcDbEntity
  8
Defpoints
 62
     0
100
AcDbPoint
 10
15.67577283782724
 20
16.06000000000001
 30
0.0
  0
POINT
  5
291
330
287
100
AcDbEntity
  8
Defpoints
 62
     0
100
AcDbPoint
 10
15.67577283782724
 20
45.89702942590523
 30
0.0
  0
ENDBLK
  5
292
330
287
100
AcDbEntity
  8
0
100
AcDbBlockEnd
  0
BLOCK
  5
295
330
294
100
AcDbEntity
  8
0
100
AcDbBlockBegin
  2
*D17
 70
     1
 10
0.0
 20
0.0
 30
0.0
  3
*D17
  1
*D19
  0
LINE
  5
296
330
294
100
AcDbEntity
  8
치수문자_일반주서
 62
     0
370
    -2
100
AcDbLine
 10
16.56577283782723
 20
17.01250000000001
 30
0.0
 11
4.375000000000027
 21
17.01249999999997
 31
0.0
  0
LINE
  5
297
330
294
100
AcDbEntity
  8
치수문자_일반주서
 62
     0
370
    -2
100
AcDbLine
 10
16.56577283782723
 20
7.487500000000004
 30
0.0
 11
4.37500000000006
 21
7.487499999999958
 31
0.0
  0
LINE
  5
298
330
294
100
AcDbEntity
  8
치수문자_일반주서
 62
     0
370
    -2
100
AcDbLine
 10
4.375000000000038
 20
13.71049999999997
 30
0.0
 11
4.375000000000048
 21
10.78949999999996
 31
0.0
  0
SOLID
  5
299
330
294
100
AcDbEntity
  8
치수문자_일반주서
 62
     0
100
AcDbTrace
 10
4.925333333333372
 20
13.71049999999997
 30
0.0
 11
3.824666666666705
 21
13.71049999999997
 31
0.0
 12
4.375000000000027
 22
17.01249999999997
 32
0.0
 13
4.375000000000027
 23
17.01249999999997
 33
0.0
  0
SOLID
  5
29A
330
294
100
AcDbEntity
  8
치수문자_일반주서
 62
     0
100
AcDbTrace
 10
3.824666666666715
 20
10.78949999999996
 30
0.0
 11
4.925333333333382
 21
10.78949999999996
 31
0.0
 12
4.37500000000006
 22
7.487499999999958
 32
0.0
 13
4.37500000000006
 23
7.487499999999958
 33
0.0
  0
MTEXT
  5
29B
330
294
100
AcDbEntity
  8
치수문자_일반주서
 62
     0
100
AcDbMText
 10
0.0000000000000426
 20
12.25
 30
0.0
 40
3.5
 41
0.0
 71
     2
 72
     1
  1
\A1;%%c9.53 [3/8]
  7
SLDTEXTSTYLE0
 11
-3.450141892798383E-15
 21
1.0
 31
0.0
 73
     1
 44
1.0
  0
POINT
  5
29C
330
294
100
AcDbEntity
  8
Defpoints
 62
     0
100
AcDbPoint
 10
16.62827283782723
 20
17.01250000000001
 30
0.0
  0
POINT
  5
29D
330
294
100
AcDbEntity
  8
Defpoints
 62
     0
100
AcDbPoint
 10
16.62827283782723
 20
7.487500000000004
 30
0.0
  0
POINT
  5
29E
330
294
100
AcDbEntity
  8
Defpoints
 62
     0
100
AcDbPoint
 10
4.375000000000057
 20
7.487499999999958
 30
0.0
  0
ENDBLK
  5
29F
330
294
100
AcDbEntity
  8
0
100
AcDbBlockEnd
  0
BLOCK
  5
2AD
330
2AC
100
AcDbEntity
  8
0
100
AcDbBlockBegin
  2
*D18
 70
     1
 10
0.0
 20
0.0
 30
0.0
  3
*D18
  1
*D20
  0
LINE
  5
2AE
330
2AC
100
AcDbEntity
  8
치수문자_일반주서
 62
     0
370
    -2
100
AcDbLine
 10
84.00077283782726
 20
17.40937500000001
 30
0.0
 11
98.57495445518065
 21
17.40937500000001
 31
0.0
  0
LINE
  5
2AF
330
2AC
100
AcDbEntity
  8
치수문자_일반주서
 62
     0
370
    -2
100
AcDbLine
 10
84.00077283782726
 20
7.090625000000017
 30
0.0
 11
98.57495445518065
 21
7.090625000000014
 31
0.0
  0
LINE
  5
2B0
330
2AC
100
AcDbEntity
  8
치수문자_일반주서
 62
     0
370
    -2
100
AcDbLine
 10
98.57495445518065
 20
17.40937500000001
 30
0.0
 11
98.57495445518065
 21
53.32587500000001
 31
0.0
  0
LINE
  5
2B1
330
2AC
100
AcDbEntity
  8
치수문자_일반주서
 62
     0
370
    -2
100
AcDbLine
 10
98.57495445518065
 20
17.40937500000001
 30
0.0
 11
98.57495445518065
 21
7.090625000000014
 31
0.0
  0
LINE
  5
2B2
330
2AC
100
AcDbEntity
  8
치수문자_일반주서
 62
     0
370
    -2
100
AcDbLine
 10
98.57495445518065
 20
20.71137500000001
 30
0.0
 11
98.57495445518065
 21
24.01337500000001
 31
0.0
  0
LINE
  5
2B3
330
2AC
100
AcDbEntity
  8
치수문자_일반주서
 62
     0
370
    -2
100
AcDbLine
 10
98.57495445518065
 20
3.788625000000014
 30
0.0
 11
98.57495445518065
 21
0.4866250000000143
 31
0.0
  0
SOLID
  5
2B4
330
2AC
100
AcDbEntity
  8
치수문자_일반주서
 62
     0
100
AcDbTrace
 10
98.02462112184732
 20
20.71137500000001
 30
0.0
 11
99.12528778851397
 21
20.71137500000001
 31
0.0
 12
98.57495445518065
 22
17.40937500000001
 32
0.0
 13
98.57495445518065
 23
17.40937500000001
 33
0.0
  0
SOLID
  5
2B5
330
2AC
100
AcDbEntity
  8
치수문자_일반주서
 62
     0
100
AcDbTrace
 10
99.12528778851397
 20
3.788625000000014
 30
0.0
 11
98.02462112184732
 21
3.788625000000014
 31
0.0
 12
98.57495445518065
 22
7.090625000000014
 32
0.0
 13
98.57495445518065
 23
7.090625000000014
 33
0.0
  0
MTEXT
  5
2B6
330
2AC
100
AcDbEntity
  8
치수문자_일반주서
 62
     0
100
AcDbMText
 10
95.94995445518065
 20
38.66962500000001
 30
0.0
 40
3.5
 41
0.0
 71
     5
 72
     1
  1
\A1;10.32 [13/32]
  7
SLDTEXTSTYLE0
 11
0.0
 21
1.0
 31
0.0
 73
     1
 44
1.0
  0
POINT
  5
2B7
330
2AC
100
AcDbEntity
  8
Defpoints
 62
     0
100
AcDbPoint
 10
83.93827283782726
 20
17.40937500000001
 30
0.0
  0
POINT
  5
2B8
330
2AC
100
AcDbEntity
  8
Defpoints
 62
     0
100
AcDbPoint
 10
83.93827283782726
 20
7.090625000000017
 30
0.0
  0
POINT
  5
2B9
330
2AC
100
AcDbEntity
  8
Defpoints
 62
     0
100
AcDbPoint
 10
98.57495445518065
 20
7.090625000000016
 30
0.0
  0
ENDBLK
  5
2BA
330
2AC
100
AcDbEntity
  8
0
100
AcDbBlockEnd
  0
ENDSEC
  0
SECTION
  2
ENTITIES
  0
LINE
  5
AC
330
1F
100
AcDbEntity
  8
참조1
100
AcDbLine
 10
-4.250092335746109
 20
0.0010749287238892
 30
0.0
 11
-4.250092335746102
 21
-39.99892507127612
 31
0.0
  0
LINE
  5
AD
330
1F
100
AcDbEntity
  8
참조1
100
AcDbLine
 10
-4.250092335746102
 20
-39.99892507127612
 30
0.0
 11
-19.40894915005478
 21
-39.9989250712761
 31
0.0
  0
INSERT
  5
AF
330
1F
100
AcDbEntity
  8
0
  6
Continuous
 62
     7
100
AcDbBlockReference
 66
     1
  2
블럭10
 10
-18.19036526787131
 20
-52.04609937292005
 30
0.0
  0
ATTRIB
  5
B0
330
AF
100
AcDbEntity
  8
FORMAT
 62
     2
100
AcDbText
 10
-27.3716605566126
 20
-49.97073246008787
 30
0.0
 40
4.233333333333333
  1
E1031027 [ 4 FLUTE ]
 41
0.75
  7
SLDTEXTSTYLE0
 11
-27.3716605566126
 21
-52.08739912675453
 31
0.0
100
AcDbAttribute
  2
AUTOATTR0
 70
     0
 74
     1
  0
SEQEND
  5
B1
330
AF
100
AcDbEntity
  8
0
  6
Continuous
 62
     7
  0
HATCH
  5
B2
330
1F
100
AcDbEntity
  8
중심선
100
AcDbHatch
 10
0.0
 20
0.0
 30
0.0
210
0.0
220
0.0
230
1.0
  2
SOLID
 70
     1
 71
     0
 91
        1
 92
        0
 93
        4
 72
     1
 10
-12.47545596349048
 20
-35.7989250712761
 11
-15.92173120732776
 21
-35.7989250712761
 72
     1
 10
-15.92173120732776
 20
-35.7989250712761
 11
-18.04996106653178
 21
-38.3352506518487
 72
     1
 10
-18.04996106653178
 20
-38.3352506518487
 11
-14.60365273758135
 21
-38.33521122254621
 72
     1
 10
-14.60365273758135
 20
-38.33521122254621
 11
-12.47545596349048
 21
-35.7989250712761
 97
        0
 75
     0
 76
     1
 98
        1
 10
0.0
 20
0.0
  0
HATCH
  5
B3
330
1F
100
AcDbEntity
  8
중심선
100
AcDbHatch
 10
0.0
 20
0.0
 30
0.0
210
0.0
220
0.0
230
1.0
  2
SOLID
 70
     1
 71
     0
 91
        1
 92
        0
 93
        4
 72
     1
 10
-7.4626919724545
 20
-35.7989250712761
 11
-10.90896721629178
 21
-35.7989250712761
 72
     1
 10
-10.90896721629178
 20
-35.7989250712761
 11
-15.4401052246492
 21
-41.19892507127612
 72
     1
 10
-15.4401052246492
 20
-41.19892507127612
 11
-11.99382998081192
 21
-41.19892507127612
 72
     1
 10
-11.99382998081192
 20
-41.19892507127612
 11
-7.4626919724545
 21
-35.7989250712761
 97
        0
 75
     0
 76
     1
 98
        1
 10
0.0
 20
0.0
  0
HATCH
  5
B4
330
1F
100
AcDbEntity
  8
중심선
100
AcDbHatch
 10
0.0
 20
0.0
 30
0.0
210
0.0
220
0.0
230
1.0
  2
SOLID
 70
     1
 71
     0
 91
        1
 92
        0
 93
        4
 72
     1
 10
-2.449927981418631
 20
-35.7989250712761
 11
-5.896203225255747
 21
-35.7989250712761
 72
     1
 10
-5.896203225255747
 20
-35.7989250712761
 11
-12.944640127145
 21
-44.19892507127612
 72
     1
 10
-12.944640127145
 20
-44.19892507127612
 11
-9.498364883307714
 21
-44.19892507127612
 72
     1
 10
-9.498364883307714
 20
-44.19892507127612
 11
-2.449927981418631
 21
-35.7989250712761
 97
        0
 75
     0
 76
     1
 98
        1
 10
0.0
 20
0.0
  0
HATCH
  5
B5
330
1F
100
AcDbEntity
  8
중심선
100
AcDbHatch
 10
0.0
 20
0.0
 30
0.0
210
0.0
220
0.0
230
1.0
  2
SOLID
 70
     1
 71
     0
 91
        1
 92
        0
 93
        6
 72
     3
 10
2.349962449593568
 20
-39.99892507132738
 11
3.960054785062284
 21
1.540850780301639E-10
 40
0.3939339440162633
 50
17.09539180608434
 51
320.0019657685073
 73
     0
 72
     1
 10
4.032962105294163
 20
-38.58681907591438
 11
6.338263978995201
 21
-36.65249236586649
 72
     3
 10
2.349962449540721
 20
-39.99892507127625
 11
6.600054785286829
 21
-1.249000902703301E-13
 40
0.6363583540795982
 50
39.99873849337408
 51
368.4976242363724
 73
     1
 72
     1
 10
8.77529494144133
 20
-39.03892507120613
 11
1.030029756376644
 21
-39.0389250712061
 72
     1
 10
1.030029756376644
 20
-39.0389250712061
 11
1.03000471193071
 21
-40.95892507120602
 72
     1
 10
1.03000471193071
 20
-40.95892507120602
 11
5.471384481402747
 21
-40.95892507120599
 97
        0
 75
     0
 76
     1
 98
        1
 10
0.0
 20
0.0
  0
LINE
  5
108
330
1F
100
AcDbEntity
  8
참조1
100
AcDbLine
 10
78.56339147959949
 20
7.441074928723896
 30
0.0
 11
78.56339147959949
 21
-7.438925071276109
 31
0.0
  0
LINE
  5
109
330
1F
100
AcDbEntity
  8
참조1
100
AcDbLine
 10
91.26339147959949
 20
5.441074928723896
 30
0.0
 11
78.56339147959949
 21
5.441074928723896
 31
0.0
  0
SOLID
  5
10A
330
1F
100
AcDbEntity
  8
참조1
100
AcDbTrace
 10
78.56339147959949
 20
5.441074928723896
 30
0.0
 11
84.91339147959948
 21
4.425074928723896
 31
0.0
 12
84.91339147959948
 22
6.457074928723896
 32
0.0
 13
84.91339147959948
 23
6.457074928723896
 33
0.0
  0
LINE
  5
10B
330
1F
100
AcDbEntity
  8
참조1
100
AcDbLine
 10
91.26339147959949
 20
-5.438925071276109
 30
0.0
 11
78.56339147959949
 21
-5.438925071276109
 31
0.0
  0
SOLID
  5
10C
330
1F
100
AcDbEntity
  8
참조1
100
AcDbTrace
 10
78.56339147959949
 20
-5.438925071276109
 30
0.0
 11
84.91339147959948
 21
-6.454925071276109
 31
0.0
 12
84.91339147959948
 22
-4.422925071276109
 32
0.0
 13
84.91339147959948
 23
-4.422925071276109
 33
0.0
  0
MTEXT
  5
10D
330
1F
100
AcDbEntity
  8
참조1
100
AcDbMText
 10
87.94774161222547
 20
11.01136670591222
 30
0.0
 40
3.5
 41
0.0
 71
     1
 72
     1
  1
A
  7
SLDTEXTSTYLE0
 73
     1
 44
1.0
  0
MTEXT
  5
10E
330
1F
100
AcDbEntity
  8
참조1
100
AcDbMText
 10
87.94774161222547
 20
0.1313667059122192
 30
0.0
 40
3.5
 41
0.0
 71
     1
 72
     1
  1
A
  7
SLDTEXTSTYLE0
 73
     1
 44
1.0
  0
LINE
  5
1D6
330
1F
100
AcDbEntity
  8
0
  6
Continuous
 62
     1
370
    15
100
AcDbLine
 10
13.61895059770085
 20
-5.357812497618745
 30
0.0
 11
16.88628216716045
 21
-5.357812497618745
 31
0.0
  0
LINE
  5
1D7
330
1F
100
AcDbEntity
  8
0
  6
Continuous
 62
     1
370
    15
100
AcDbLine
 10
2.309262372918525
 20
5.351717638920555
 30
0.0
 11
1.999999999999986
 21
5.351717638920555
 31
0.0
  0
LINE
  5
1D8
330
1F
100
AcDbEntity
  8
0
  6
Continuous
 62
     1
370
    15
100
AcDbLine
 10
16.88628216716045
 20
5.357812497618756
 30
0.0
 11
13.6189505977009
 21
5.357812497618756
 31
0.0
  0
SPLINE
  5
1DA
330
1F
100
AcDbEntity
  8
0
  6
Continuous
 62
     1
370
    15
100
AcDbSpline
210
0.0
220
0.0
230
1.0
 70
     8
 71
     3
 72
    28
 73
    24
 74
     0
 42
0.000000001
 43
0.00000001
 40
0.0453806464681662
 40
0.0453806464681662
 40
0.0453806464681662
 40
0.0453806464681662
 40
0.0481322390801562
 40
0.0960936984463085
 40
0.1442276071971675
 40
0.1921874492519229
 40
0.2403228796584882
 40
0.2882812544461388
 40
0.3364180584737876
 40
0.3843751160542695
 40
0.4347993518890994
 40
0.4850511632383225
 40
0.5354643551432685
 40
0.5857287316691524
 40
0.636125729208071
 40
0.6864074208406886
 40
0.7367830805172797
 40
0.7870868309898402
 40
0.8374360184471592
 40
0.8877665636004184
 40
0.9380864843820174
 40
0.988446221670269
 40
1.0
 40
1.0
 40
1.0
 40
1.0
 10
2.000000000000014
 20
0.178757768682253
 30
0.0
 10
2.019735618387031
 20
0.1673818825178124
 30
0.0
 10
2.383456295700157
 20
-0.0423476056943279
 30
0.0
 10
3.091813787559701
 20
-0.4536909469999841
 30
0.0
 10
4.126211005634943
 20
-1.043364852597723
 30
0.0
 10
5.159651417473427
 20
-1.624674203986917
 30
0.0
 10
6.194087443160569
 20
-2.181429269789145
 30
0.0
 10
7.227512803284739
 20
-2.715370232884887
 30
0.0
 10
8.261951958044065
 20
-3.211622104206246
 30
0.0
 10
9.31177521519389
 20
-3.679061211805728
 30
0.0
 10
10.3790829632154
 20
-4.10230208461952
 30
0.0
 10
11.46178843499997
 20
-4.479161071393232
 30
0.0
 10
12.54542472720651
 20
-4.792710154810745
 30
0.0
 10
13.62819758167568
 20
-5.04282068388742
 30
0.0
 10
14.71172687900467
 20
-5.223063705131448
 30
0.0
 10
15.79458496033818
 20
-5.332992598778748
 30
0.0
 10
16.87797537455945
 20
-5.369962128453572
 30
0.0
 10
17.9609409658482
 20
-5.334032540759239
 30
0.0
 10
19.04416124000782
 20
-5.225232067588259
 30
0.0
 10
20.12726653069929
 20
-5.04653956870742
 30
0.0
 10
21.21031187258161
 20
-4.794421914316288
 30
0.0
 10
22.0156212239521
 20
-4.571561508237156
 30
0.0
 10
22.4596596145979
 20
-4.416951084285504
 30
0.0
 10
22.54252231564477
 20
-4.388098990393349
 30
0.0
  0
SPLINE
  5
1DB
330
1F
100
AcDbEntity
  8
외형선
  6
Continuous
370
    15
100
AcDbSpline
210
0.0
220
0.0
230
1.0
 70
    24
 71
     3
 72
    25
 73
    21
 74
     0
 42
0.000000001
 43
0.00000001
 40
0.0
 40
0.0
 40
0.0
 40
0.0
 40
0.0915460998983641
 40
0.1852185845933008
 40
0.2361557153356786
 40
0.2870928460780565
 40
0.3395098106759176
 40
0.3919267752737786
 40
0.4428639060161578
 40
0.493801036758537
 40
0.5462180013563993
 40
0.5986349659542618
 40
0.6495720966966406
 40
0.7005092274390194
 40
0.7529261920368816
 40
0.8053431566347438
 40
0.8562802873771234
 40
0.907217418119503
 40
0.9596343827173655
 40
1.0
 40
1.0
 40
1.0
 40
1.0
 10
2.000000000000028
 20
5.04219365286249
 30
0.0
 10
2.000000000000014
 20
4.904889294930381
 30
0.0
 10
1.999999999999986
 20
4.627091345450161
 30
0.0
 10
2.0
 20
4.242909995671972
 30
0.0
 10
2.000000000000014
 20
3.918601873977654
 30
0.0
 10
2.000000000000071
 20
3.659549556151667
 30
0.0
 10
2.000000000000043
 20
3.396993101948954
 30
0.0
 10
2.000000000000071
 20
3.135218703988183
 30
0.0
 10
2.000000000000014
 20
2.878618542285881
 30
0.0
 10
2.000000000000014
 20
2.626388674417477
 30
0.0
 10
2.0
 20
2.378053487590222
 30
0.0
 10
2.0
 20
2.137867647145075
 30
0.0
 10
2.000000000000014
 20
1.909735589277968
 30
0.0
 10
2.000000000000099
 20
1.692700401351157
 30
0.0
 10
2.000000000000014
 20
1.486593220763609
 30
0.0
 10
2.000000000000014
 20
1.295106206207958
 30
0.0
 10
2.000000000000014
 20
1.12103260068271
 30
0.0
 10
2.0
 20
0.9641518647812539
 30
0.0
 10
2.0
 20
0.8326517548777836
 30
0.0
 10
1.999999999999986
 20
0.7626958094788456
 30
0.0
 10
1.999999999999986
 20
0.7322610569489392
 30
0.0
  0
SPLINE
  5
1DC
330
1F
100
AcDbEntity
  8
0
  6
Continuous
 62
     1
370
    15
100
AcDbSpline
210
0.0
220
0.0
230
1.0
 70
     8
 71
     3
 72
    54
 73
    50
 74
     0
 42
0.000000001
 43
0.00000001
 40
0.0
 40
0.0
 40
0.0
 40
0.0
 40
0.0624999999999985
 40
0.0624999999999985
 40
0.0937499999999978
 40
0.0937499999999978
 40
0.1249999999999971
 40
0.1249999999999971
 40
0.1874999999999968
 40
0.1874999999999968
 40
0.2187499999999973
 40
0.2187499999999973
 40
0.2499999999999972
 40
0.2499999999999972
 40
0.3124999999999968
 40
0.3124999999999968
 40
0.3749999999999966
 40
0.3749999999999966
 40
0.4062499999999968
 40
0.4062499999999968
 40
0.4374999999999969
 40
0.4374999999999969
 40
0.4999999999999967
 40
0.4999999999999967
 40
0.5312499999999968
 40
0.5312499999999968
 40
0.562499999999997
 40
0.562499999999997
 40
0.6249999999999972
 40
0.6249999999999972
 40
0.6562499999999974
 40
0.6562499999999974
 40
0.6874999999999976
 40
0.6874999999999976
 40
0.7187499999999978
 40
0.7187499999999978
 40
0.7499999999999979
 40
0.7499999999999979
 40
0.781249999999998
 40
0.781249999999998
 40
0.8124999999999982
 40
0.8124999999999982
 40
0.8437499999999983
 40
0.8437499999999983
 40
0.8749999999999984
 40
0.8749999999999984
 40
0.9374999999999989
 40
0.9374999999999989
 40
0.9630421282152115
 40
0.9630421282152115
 40
0.9630421282152115
 40
0.9630421282152115
 10
27.40000000000005
 20
-5.357812497618742
 30
0.0
 10
26.85395610296889
 20
-5.310983928955174
 30
0.0
 10
26.29970157685976
 20
-5.255545099394329
 30
0.0
 10
25.47551000055917
 20
-5.131612573118566
 30
0.0
 10
25.20310244787278
 20
-5.083637258520291
 30
0.0
 10
24.65390436494651
 20
-4.974215913578647
 30
0.0
 10
24.37801804151373
 20
-4.912797043447792
 30
0.0
 10
23.55138679020759
 20
-4.709438256422782
 30
0.0
 10
23.00618440698013
 20
-4.548870586183359
 30
0.0
 10
22.17982615625168
 20
-4.272644429328871
 30
0.0
 10
21.90385756832485
 20
-4.174751916899925
 30
0.0
 10
21.3541516547444
 20
-3.968514557765946
 30
0.0
 10
21.08168426918751
 20
-3.860354784291975
 30
0.0
 10
20.25830871108231
 20
-3.5203275911839
 30
0.0
 10
19.70390589939943
 20
-3.273051364220976
 30
0.0
 10
18.61015973680252
 20
-2.749060357527807
 30
0.0
 10
18.05772005620913
 20
-2.470303982023704
 30
0.0
 10
17.23282109010766
 20
-2.035499453400664
 30
0.0
 10
16.96023404538606
 20
-1.888122055532428
 30
0.0
 10
16.41161609613575
 20
-1.58818750225997
 30
0.0
 10
16.13584875695078
 20
-1.435667372410762
 30
0.0
 10
15.30905421105309
 20
-0.9731242902490749
 30
0.0
 10
14.76364785734775
 20
-0.6591026564958753
 30
0.0
 10
13.93767219240677
 20
-0.1838629904645437
 30
0.0
 10
13.66165809633263
 20
-0.024866604383238
 30
0.0
 10
13.11151687901643
 20
0.2924115261333036
 30
0.0
 10
12.83875036198718
 20
0.4504316173615273
 30
0.0
 10
12.01629909091001
 20
0.922895248534676
 30
0.0
 10
11.46182259039647
 20
1.235820633029995
 30
0.0
 10
10.64037611383164
 20
1.691120230342403
 30
0.0
 10
10.36708781317525
 20
1.840773554464487
 30
0.0
 10
9.816592260792376
 20
2.135553742479583
 30
0.0
 10
9.540569201241468
 20
2.280459352906863
 30
0.0
 10
8.99023759093599
 20
2.563589237050255
 30
0.0
 10
8.71723180817925
 20
2.701601439458077
 30
0.0
 10
8.169266040162697
 20
2.970513899638032
 30
0.0
 10
7.893654352075842
 20
3.101506866954271
 30
0.0
 10
7.342422310584126
 20
3.354971732746229
 30
0.0
 10
7.06680624654841
 20
3.477441658552124
 30
0.0
 10
6.518823146194237
 20
3.712462867785387
 30
0.0
 10
6.245830864302505
 20
3.825122256125777
 30
0.0
 10
5.69550842222317
 20
4.040675445569839
 30
0.0
 10
5.419485594597333
 20
4.143377747836059
 30
0.0
 10
4.868981792585132
 20
4.337415357154356
 30
0.0
 10
4.59567697697149
 20
4.428630126536927
 30
0.0
 10
3.774257855012891
 20
4.684688227141972
 30
0.0
 10
3.219782295705457
 20
4.832225819119621
 30
0.0
 10
2.447381980213194
 20
5.002496765526136
 30
0.0
 10
2.224235959944238
 20
5.047491601009153
 30
0.0
 10
1.999999999999986
 20
5.088088309324203
 30
0.0
  0
LINE
  5
1DD
330
1F
100
AcDbEntity
  8
0
  6
Continuous
 62
     1
370
    15
100
AcDbLine
 10
27.40000000000005
 20
-4.852470851902641
 30
0.0
 11
27.40000000000005
 21
0.4590646038553423
 31
0.0
  0
SPLINE
  5
1DE
330
1F
100
AcDbEntity
  8
0
  6
Continuous
 62
     1
370
    15
100
AcDbSpline
210
0.0
220
0.0
230
1.0
 70
     8
 71
     3
 72
    31
 73
    27
 74
     0
 42
0.000000001
 43
0.00000001
 40
0.0
 40
0.0
 40
0.0
 40
0.0
 40
0.0311645175801537
 40
0.0724466759960725
 40
0.1135795457065866
 40
0.1548630091740491
 40
0.1959946204795296
 40
0.2372792620362986
 40
0.2784097436359976
 40
0.3216562063845261
 40
0.3647547888732893
 40
0.4079917797697529
 40
0.4511011388114055
 40
0.4943242405723067
 40
0.5374484499553864
 40
0.5806532512492006
 40
0.6237963794474906
 40
0.6669784767810827
 40
0.7101445854993846
 40
0.7533015822007045
 40
0.7964927276212508
 40
0.8371711085855862
 40
0.8778956742062008
 40
0.9185850961324636
 40
0.9592985643543784
 40
1.0
 40
1.0
 40
1.0
 40
1.0
 10
2.309262372918525
 20
5.351717638920555
 30
0.0
 10
2.569755724840093
 20
5.350460319786151
 30
0.0
 10
3.17531226577664
 20
5.347537489624575
 30
0.0
 10
4.126202556253745
 20
5.265198783587138
 30
0.0
 10
5.159653687485005
 20
5.117552229292478
 30
0.0
 10
6.194086836542411
 20
4.905669900832486
 30
0.0
 10
7.227512966247403
 20
4.631651453063679
 30
0.0
 10
8.261951914564989
 20
4.302393352626176
 30
0.0
 10
9.311775227492134
 20
3.91095183268521
 30
0.0
 10
10.37908295987513
 20
3.465238549793586
 30
0.0
 10
11.46178843585444
 20
2.962094428310667
 30
0.0
 10
12.54542472713716
 20
2.42211965808491
 30
0.0
 10
13.62819758110199
 20
1.845771490119727
 30
0.0
 10
14.71172688137445
 20
1.247517911968902
 30
0.0
 10
15.79458495145063
 20
0.6294173550216762
 30
0.0
 10
16.87797540779586
 20
0.0051610112948346
 30
0.0
 10
17.96094084196081
 20
-0.620996450124796
 30
0.0
 10
19.04416170277561
 20
-1.237525218463762
 30
0.0
 10
20.12726480453846
 20
-1.837691288381887
 30
0.0
 10
21.21031831540883
 20
-2.41305233590252
 30
0.0
 10
22.27302007765597
 20
-2.944528577795705
 30
0.0
 10
23.31472839008292
 20
-3.429022054953286
 30
0.0
 10
24.33614828033707
 20
-3.861787515028471
 30
0.0
 10
25.35735186342153
 20
-4.247441968276384
 30
0.0
 10
26.37871510083583
 20
-4.58545425685044
 30
0.0
 10
27.05960524394284
 20
-4.763474090264047
 30
0.0
 10
27.40000000000005
 20
-4.852470851902641
 30
0.0
  0
SPLINE
  5
1DF
330
1F
100
AcDbEntity
  8
0
  6
Continuous
 62
     1
370
    15
100
AcDbSpline
210
0.0
220
0.0
230
1.0
 70
     8
 71
     3
 72
    26
 73
    22
 74
     0
 42
0.000000001
 43
0.00000001
 40
0.0
 40
0.0
 40
0.0
 40
0.0
 40
0.0531999175456968
 40
0.1064056455340973
 40
0.1595997538700687
 40
0.2128111295819583
 40
0.265999593884841
 40
0.3192164545283213
 40
0.3723994400348837
 40
0.425621622747457
 40
0.4813385918869055
 40
0.5370676875143887
 40
0.5928170516368105
 40
0.6485164482959813
 40
0.7042951568889619
 40
0.7599700983222364
 40
0.8157724663926583
 40
0.871428205092298
 40
0.9272485375133329
 40
0.9828903328440103
 40
1.0
 40
1.0
 40
1.0
 40
1.0
 10
27.40000000000005
 20
0.4590646038553423
 30
0.0
 10
27.05536560996056
 20
0.6567697682549216
 30
0.0
 10
26.36605918925234
 20
1.052201690217814
 30
0.0
 10
25.33208844784487
 20
1.630634027329574
 30
0.0
 10
24.29817826982467
 20
2.189509017577493
 30
0.0
 10
23.26417923631574
 20
2.720758079297099
 30
0.0
 10
22.23029821524507
 20
3.218753434258172
 30
0.0
 10
21.19627436340339
 20
3.676301822023579
 30
0.0
 10
20.16241161746468
 20
4.088826022352428
 30
0.0
 10
19.11194788737878
 20
4.455838677379752
 30
0.0
 10
18.0453173489163
 20
4.770702779804108
 30
0.0
 10
16.96222010788163
 20
5.02532697960984
 30
0.0
 10
15.87899846845183
 20
5.211486401111063
 30
0.0
 10
14.79603286389757
 20
5.326926792987877
 30
0.0
 10
13.71264309043251
 20
5.369710032942599
 30
0.0
 10
12.62978481393968
 20
5.339450680049904
 30
0.0
 10
11.54625502908185
 20
5.236604563630664
 30
0.0
 10
10.4634861642822
 20
5.062832998167657
 30
0.0
 10
9.379833904138039
 20
4.817174040047892
 30
0.0
 10
8.547784191059364
 20
4.588928980625163
 30
0.0
 10
8.076256796362841
 20
4.425803156076856
 30
0.0
 10
7.965363124917147
 20
4.387439273521515
 30
0.0
  0
SPLINE
  5
1E0
330
1F
100
AcDbEntity
  8
0
  6
Continuous
 62
     1
370
    15
100
AcDbSpline
210
0.0
220
0.0
230
1.0
 70
     8
 71
     3
 72
    19
 73
    15
 74
     0
 42
0.000000001
 43
0.00000001
 40
0.0
 40
0.0
 40
0.0
 40
0.0
 40
0.0785014937884842
 40
0.1646020116535806
 40
0.2504762870634705
 40
0.3366045231051312
 40
0.422457284530401
 40
0.5086044395486001
 40
0.5944438096510799
 40
0.6756829431764588
 40
0.7566076455643792
 40
0.8378418274850593
 40
0.9187726453994052
 40
0.9224693269698285
 40
0.9224693269698285
 40
0.9224693269698285
 40
0.9224693269698285
 10
13.61895059770087
 20
-5.354943434341134
 30
0.0
 10
13.28947788566795
 20
-5.350220558350625
 30
0.0
 10
12.59863916950663
 20
-5.340317627192118
 30
0.0
 10
11.54626788426727
 20
-5.235725853679366
 30
0.0
 10
10.4634792117529
 20
-5.062400080582254
 30
0.0
 10
9.379848860243513
 20
-4.819792818516316
 30
0.0
 10
8.29713681445294
 20
-4.510168940025807
 30
0.0
 10
7.213427003962423
 20
-4.141503619396758
 30
0.0
 10
6.151394553085552
 20
-3.721637077492119
 30
0.0
 10
5.10897348039255
 20
-3.266089684392128
 30
0.0
 10
4.088213483545317
 20
-2.776396300032122
 30
0.0
 10
3.066470615393044
 20
-2.256807455368985
 30
0.0
 10
2.370780467120909
 20
-1.882107534201111
 30
0.0
 10
2.015519006569676
 20
-1.686984848029088
 30
0.0
 10
2.000000000000028
 20
-1.678454362350553
 30
0.0
  0
LINE
  5
1E1
330
1F
100
AcDbEntity
  8
외형선
  6
Continuous
370
    15
100
AcDbLine
 10
2.000000000000028
 20
-1.093358842127437
 30
0.0
 11
2.000000000000014
 21
0.7122384765573138
 31
0.0
  0
LINE
  5
1E2
330
1F
100
AcDbEntity
  8
0
  6
Continuous
 62
     1
370
    15
100
AcDbLine
 10
27.40000000000005
 20
-5.357812497618742
 30
0.0
 11
27.40000000000005
 21
-4.852470851902641
 31
0.0
  0
LINE
  5
1E3
330
1F
100
AcDbEntity
  8
외형선
  6
Continuous
370
    15
100
AcDbLine
 10
2.000000000000028
 20
5.04219365286249
 30
0.0
 11
1.999999999999986
 21
5.351717638920555
 31
0.0
  0
SPLINE
  5
1E4
330
1F
100
AcDbEntity
  8
0
  6
Continuous
 62
     1
370
    15
100
AcDbSpline
210
0.0
220
0.0
230
1.0
 70
     8
 71
     3
 72
    17
 73
    13
 74
     0
 42
0.000000001
 43
0.00000001
 40
0.0
 40
0.0
 40
0.0
 40
0.0
 40
0.102203961912946
 40
0.2052564414330822
 40
0.3082707647136771
 40
0.4112633425024734
 40
0.5143374149477595
 40
0.6114148678758837
 40
0.7086025387794943
 40
0.8057063405552465
 40
0.902867527926957
 40
1.0
 40
1.0
 40
1.0
 40
1.0
 10
16.88628216716045
 20
5.357547073182246
 30
0.0
 10
17.24440683377055
 20
5.350724028948136
 30
0.0
 10
17.96362938915836
 20
5.337021294210448
 30
0.0
 10
19.04415088507885
 20
5.224547666824403
 30
0.0
 10
20.12726770233526
 20
5.046013203172013
 30
0.0
 10
21.21031753678353
 20
4.797211776539889
 30
0.0
 10
22.2730202728777
 20
4.4899406545142
 30
0.0
 10
23.31472833903963
 20
4.130801053655432
 30
0.0
 10
24.33614829400251
 20
3.729739635556427
 30
0.0
 10
25.35735185977633
 20
3.282290529160761
 30
0.0
 10
26.37871510174703
 20
2.797644974706248
 30
0.0
 10
27.05960524424655
 20
2.44685984857859
 30
0.0
 10
27.40000000000005
 20
2.271493207358258
 30
0.0
  0
LINE
  5
1E5
330
1F
100
AcDbEntity
  8
0
  6
Continuous
 62
     1
370
    15
100
AcDbLine
 10
27.40000000000005
 20
0.4590646038553423
 30
0.0
 11
27.40000000000005
 21
2.271493207358258
 31
0.0
  0
SPLINE
  5
1E6
330
1F
100
AcDbEntity
  8
0
  6
Continuous
 62
     1
370
    15
100
AcDbSpline
210
0.0
220
0.0
230
1.0
 70
     8
 71
     3
 72
    14
 73
    10
 74
     0
 42
0.000000001
 43
0.00000001
 40
0.1406722671774077
 40
0.1406722671774077
 40
0.1406722671774077
 40
0.1406722671774077
 40
0.1492017341072201
 40
0.2978740802207235
 40
0.447080990022426
 40
0.5957483227463676
 40
0.7449599494213017
 40
0.8936227338674023
 40
1.0
 40
1.0
 40
1.0
 40
1.0
 10
2.000000000000014
 20
-5.354515079326088
 30
0.0
 10
2.019735618180022
 20
-5.355007802664122
 30
0.0
 10
2.383456335445885
 20
-5.363288630134544
 30
0.0
 10
3.091814049725585
 20
-5.348937112055324
 30
0.0
 10
4.126210019955309
 20
-5.266673552856052
 30
0.0
 10
5.159655087791251
 20
-5.11746361087539
 30
0.0
 10
6.194073709003575
 20
-4.904541671331785
 30
0.0
 10
7.128538529638305
 20
-4.661946533236094
 30
0.0
 10
7.719057514858591
 20
-4.468235988210509
 30
0.0
 10
7.965363124917062
 20
-4.387439273521501
 30
0.0
  0
SPLINE
  5
1E7
330
1F
100
AcDbEntity
  8
외형선
  6
Continuous
370
    15
100
AcDbSpline
210
0.0
220
0.0
230
1.0
 70
    24
 71
     3
 72
    21
 73
    17
 74
     0
 42
0.000000001
 43
0.00000001
 40
0.0
 40
0.0
 40
0.0
 40
0.0
 40
0.0288318747941533
 40
0.104695547020876
 40
0.18031807183968
 40
0.255940596658485
 40
0.3318042688852085
 40
0.4074267937040135
 40
0.4830493185228176
 40
0.5589129907495403
 40
0.6345355155683442
 40
0.7101580403871488
 40
0.7860217126138719
 40
0.8616442374326762
 40
0.930822118716338
 40
0.9999999999999999
 40
0.9999999999999999
 40
0.9999999999999999
 40
0.9999999999999999
 10
2.000000000000014
 20
-1.113391422519065
 30
0.0
 10
2.000000000000014
 20
-1.134672294870683
 30
0.0
 10
2.000000000000014
 20
-1.211948316213071
 30
0.0
 10
1.999999999999986
 20
-1.37963375707206
 30
0.0
 10
1.999999999999986
 20
-1.612699876150412
 30
0.0
 10
2.000000000000014
 20
-1.876020175926815
 30
0.0
 10
1.999999999999986
 20
-2.162491523040142
 30
0.0
 10
2.0
 20
-2.469405166609651
 30
0.0
 10
2.0
 20
-2.793263431670457
 30
0.0
 10
1.999999999999986
 20
-3.1294073897751
 30
0.0
 10
2.000000000000014
 20
-3.473780298423119
 30
0.0
 10
2.000000000000028
 20
-3.822124976176774
 30
0.0
 10
2.000000000000014
 20
-4.169985070380854
 30
0.0
 10
2.000000000000043
 20
-4.503038367705621
 30
0.0
 10
2.000000000000028
 20
-4.818551781448662
 30
0.0
 10
2.000000000000014
 20
-5.012835378070324
 30
0.0
 10
2.000000000000014
 20
-5.10997717638115
 30
0.0
  0
SPLINE
  5
1E8
330
1F
100
AcDbEntity
  8
0
  6
Continuous
 62
     1
370
    15
100
AcDbSpline
210
0.0
220
0.0
230
1.0
 70
     8
 71
     3
 72
    12
 73
     8
 74
     0
 42
0.000000001
 43
0.00000001
 40
0.0
 40
0.0
 40
0.0
 40
0.0
 40
0.2128506523434261
 40
0.425724552025886
 40
0.638551961963366
 40
0.8514484579520661
 40
1.0
 40
1.0
 40
1.0
 40
1.0
 10
27.40000000000005
 20
5.357812497618756
 30
0.0
 10
27.0553655571767
 20
5.314647991751418
 30
0.0
 10
26.36605903089502
 20
5.26772214769619
 30
0.0
 10
25.33208908129713
 20
5.114812764381227
 30
0.0
 10
24.29817589464103
 20
4.90113403278102
 30
0.0
 10
23.36823528430769
 20
4.660047401498442
 30
0.0
 10
22.78303415050455
 20
4.467311518020242
 30
0.0
 10
22.54252231564477
 20
4.38809899039336
 30
0.0
  0
LINE
  5
1E9
330
1F
100
AcDbEntity
  8
0
  6
Continuous
 62
     1
370
    15
100
AcDbLine
 10
27.40000000000005
 20
2.266450592720258
 30
0.0
 11
27.40000000000005
 21
5.357812497618756
 31
0.0
  0
LINE
  5
1EA
330
1F
100
AcDbEntity
  8
외형선
  6
Continuous
370
    15
100
AcDbLine
 10
2.000000000000014
 20
-5.354515079326092
 30
0.0
 11
2.000000000000014
 21
-5.10997717638115
 31
0.0
  0
DIMENSION
  5
1EB
330
1F
100
AcDbEntity
  8
치수문자_일반주서
100
AcDbDimension
  2
*D11
 10
1.999999999999986
 20
15.56714787141427
 30
0.0
 11
14.21153846739996
 21
15.56714787141427
 31
0.0
 70
   160
  1
<>
 71
     2
 42
25.40000000000006
  3
SLDDIMSTYLE2
100
AcDbAlignedDimension
 13
27.40000000000005
 23
5.357812497618756
 33
0.0
 14
1.999999999999986
 24
5.351717638920555
 34
0.0
 50
0.0000000000001282
100
AcDbRotatedDimension
1001
ACAD
1000
DSTYLE
1002
{
1070
   171
1070
     6
1070
   273
1070
     7
1002
}
  0
LINE
  5
1EC
330
1F
100
AcDbEntity
  8
외형선
  6
Continuous
370
    15
100
AcDbLine
 10
-39.90999999999998
 20
-4.762499999999999
 30
0.0
 11
2.000000000000043
 21
-4.762499999999999
 31
0.0
  0
LINE
  5
1ED
330
1F
100
AcDbEntity
  8
외형선
  6
Continuous
370
    15
100
AcDbLine
 10
2.0
 20
4.762499999999999
 30
0.0
 11
-16.18004999999987
 21
4.762499999999999
 31
0.0
  0
LINE
  5
1EE
330
1F
100
AcDbEntity
  8
외형선
  6
Continuous
370
    15
100
AcDbLine
 10
-39.90999999999998
 20
4.762499999999999
 30
0.0
 11
-40.86249999999997
 21
3.810000000000002
 31
0.0
  0
LINE
  5
1EF
330
1F
100
AcDbEntity
  8
외형선
  6
Continuous
370
    15
100
AcDbLine
 10
-40.86249999999997
 20
-3.809999999999999
 30
0.0
 11
-39.90999999999998
 21
-4.762499999999999
 31
0.0
  0
LINE
  5
1F0
330
1F
100
AcDbEntity
  8
외형선
  6
Continuous
370
    15
100
AcDbLine
 10
-39.90999999999998
 20
0.0000000000000036
 30
0.0
 11
-39.90999999999998
 21
4.762499999999999
 31
0.0
  0
LINE
  5
1F1
330
1F
100
AcDbEntity
  8
외형선
  6
Continuous
370
    15
100
AcDbLine
 10
-39.90999999999998
 20
-4.762499999999999
 30
0.0
 11
-39.90999999999998
 21
0.0000000000000036
 31
0.0
  0
LINE
  5
1F2
330
1F
100
AcDbEntity
  8
외형선
  6
Continuous
370
    15
100
AcDbLine
 10
-40.86249999999997
 20
0.0000000000000036
 30
0.0
 11
-40.86249999999997
 21
3.810000000000002
 31
0.0
  0
LINE
  5
1F3
330
1F
100
AcDbEntity
  8
외형선
  6
Continuous
370
    15
100
AcDbLine
 10
-40.86249999999997
 20
-3.809999999999999
 30
0.0
 11
-40.86249999999997
 21
0.0000000000000036
 31
0.0
  0
LINE
  5
1F4
330
1F
100
AcDbEntity
  8
중심선
 48
0.8
100
AcDbLine
 10
-43.86249999999997
 20
-0.0000000000000036
 30
0.0
 11
30.40000000000005
 21
0.0000000000000036
 31
0.0
  0
CIRCLE
  5
1F5
330
1F
100
AcDbEntity
  8
해칭선
100
AcDbCircle
 10
0.0
 20
0.0
 30
0.0
 40
2.999999999999999
  0
DIMENSION
  5
1F6
330
1F
100
AcDbEntity
  8
치수문자_일반주서
100
AcDbDimension
  2
*D12
 10
-40.86249999999997
 20
34.94114592675679
 30
0.0
 11
-10.51682690622498
 21
34.94114592675679
 31
0.0
 70
   160
  1
<>
 71
     2
 42
68.26250000000002
  3
SLDDIMSTYLE2
100
AcDbAlignedDimension
 13
27.40000000000005
 23
5.357812497618756
 33
0.0
 14
-40.86249999999997
 24
3.810000000000002
 34
0.0
 50
0.0000000000000064
100
AcDbRotatedDimension
1001
ACAD
1000
DSTYLE
1002
{
1070
   171
1070
     6
1070
   273
1070
     7
1002
}
  0
DIMENSION
  5
1F7
330
1F
100
AcDbEntity
  8
치수문자_일반주서
100
AcDbDimension
  2
*D13
 10
-52.16327283782714
 20
-4.762500000000053
 30
0.0
 11
-52.16327283782717
 21
0.0000000000000036
 31
0.0
 70
   160
  1
%%c<>
 71
     2
 42
9.52500000000001
 52
-270.0
  3
SLDDIMSTYLE2
100
AcDbAlignedDimension
 13
-39.90999999999998
 23
4.762500000000003
 33
0.0
 14
-39.90999999999998
 24
-4.762500000000006
 34
0.0
 50
90.0000000000002
100
AcDbRotatedDimension
1001
ACAD
1000
DSTYLE
1002
{
1070
   171
1070
     6
1070
   273
1070
     7
1002
}
  0
INSERT
  5
1F8
330
1F
100
AcDbEntity
  8
해칭선
100
AcDbBlockReference
  2
SW_DOWELSYMBOL_0
 10
0.0
 20
0.0
 30
0.0
  0
LINE
  5
1F9
330
1F
100
AcDbEntity
  8
외형선
  6
Continuous
370
    15
100
AcDbLine
 10
-24.5874500000001
 20
3.492500000000007
 30
0.0
 11
-17.45004999999998
 21
3.492500000000007
 31
0.0
  0
LINE
  5
1FA
330
1F
100
AcDbEntity
  8
외형선
  6
Continuous
370
    15
100
AcDbLine
 10
-24.5874500000001
 20
3.492500000000007
 30
0.0
 11
-25.85745000000007
 21
4.762499999999989
 31
0.0
  0
LINE
  5
1FB
330
1F
100
AcDbEntity
  8
외형선
  6
Continuous
370
    15
100
AcDbLine
 10
-17.45004999999998
 20
3.492500000000007
 30
0.0
 11
-16.18004999999987
 21
4.762499999999989
 31
0.0
  0
LINE
  5
1FC
330
1F
100
AcDbEntity
  8
외형선
  6
Continuous
370
    15
100
AcDbLine
 10
-25.85745000000007
 20
4.762499999999999
 30
0.0
 11
-39.90999999999998
 21
4.762499999999999
 31
0.0
  0
DIMENSION
  5
1FD
330
1F
100
AcDbEntity
  8
치수문자_일반주서
100
AcDbDimension
  2
*D14
 10
42.59963090357316
 20
-5.357812497618742
 30
0.0
 11
42.59963090357316
 21
27.43576441088325
 31
0.0
 70
   160
 71
     5
 42
10.7156249952375
  3
SLDDIMSTYLE2
100
AcDbAlignedDimension
 13
27.40000000000005
 23
5.357812497618756
 33
0.0
 14
27.40000000000005
 24
-5.357812497618742
 34
0.0
 50
90.0
100
AcDbRotatedDimension
1001
ACAD
1000
DSTYLE
1002
{
1070
   171
1070
     6
1070
   273
1070
     7
1002
}
  0
ENDSEC
  0
SECTION
  2
OBJECTS
  0
DICTIONARY
  5
C
330
0
100
AcDbDictionary
281
     1
  3
ACAD_GROUP
350
D
  3
ACAD_IMAGE_VARS
350
139
  3
ACAD_LAYOUT
350
1A
  3
ACAD_MLINESTYLE
350
17
  3
ACAD_PLOTSETTINGS
350
19
  3
ACAD_PLOTSTYLENAME
350
E
  3
ACAD_SCALELIST
350
47
  3
APPDATA
350
137
  3
DWGPROPS
350
2E3
  0
DICTIONARY
  5
1C5
330
2
100
AcDbDictionary
280
     1
281
     1
  3
ACAD_LAYERSTATES
360
1C6
  0
DICTIONARY
  5
D
102
{ACAD_REACTORS
330
C
102
}
330
C
100
AcDbDictionary
281
     1
  0
RASTERVARIABLES
  5
139
102
{ACAD_REACTORS
330
C
102
}
330
C
100
AcDbRasterVariables
 90
        0
 70
     1
 71
     1
 72
     1
  0
DICTIONARY
  5
1A
102
{ACAD_REACTORS
330
C
102
}
330
C
100
AcDbDictionary
281
     1
  3
Layout1
350
1E
  3
Layout2
350
26
  3
Model
350
22
  0
DICTIONARY
  5
17
102
{ACAD_REACTORS
330
C
102
}
330
C
100
AcDbDictionary
281
     1
  3
Standard
350
18
  0
DICTIONARY
  5
19
102
{ACAD_REACTORS
330
C
102
}
330
C
100
AcDbDictionary
281
     1
  0
ACDBDICTIONARYWDFLT
  5
E
102
{ACAD_REACTORS
330
C
102
}
330
C
100
AcDbDictionary
281
     1
  3
Normal
350
F
100
AcDbDictionaryWithDefault
340
F
  0
DICTIONARY
  5
47
102
{ACAD_REACTORS
330
C
102
}
330
C
100
AcDbDictionary
281
     1
  3
A0
350
48
  3
A1
350
49
  3
A2
350
4A
  3
A3
350
4B
  3
A4
350
4C
  3
A5
350
4D
  3
A6
350
4E
  3
A7
350
4F
  3
A8
350
50
  3
A9
350
51
  3
B0
350
52
  3
B1
350
53
  3
B2
350
54
  3
B3
350
55
  3
B4
350
56
  3
B5
350
57
  3
B6
350
58
  3
B7
350
59
  3
B8
350
5A
  3
B9
350
5B
  3
C0
350
5C
  3
C1
350
5D
  3
C2
350
5E
  3
C3
350
5F
  3
C4
350
60
  3
C5
350
61
  3
C6
350
62
  3
C7
350
63
  3
C8
350
64
  3
C9
350
65
  3
D0
350
66
  3
D1
350
67
  3
D2
350
68
  0
DICTIONARY
  5
137
102
{ACAD_REACTORS
330
C
102
}
330
C
100
AcDbDictionary
281
     1
  0
XRECORD
  5
2E3
102
{ACAD_REACTORS
330
C
102
}
330
C
100
AcDbXrecord
280
     1
  1
DWGPROPS COOKIE
  2

  3

  4

  6

  7

  8
12016016
  9

300
=
301
=
302
=
303
=
304
=
305
=
306
=
307
=
308
=
309
=
 40
0.0
 41
2458312.37216169
 42
2458323.357584456
  1

 90
        0
  0
DICTIONARY
  5
1C6
102
{ACAD_REACTORS
330
1C5
102
}
330
1C5
100
AcDbDictionary
281
     1
  0
LAYOUT
  5
1E
102
{ACAD_REACTORS
330
1A
102
}
330
1A
100
AcDbPlotSettings
  1

  2
none_device
  4

  6

 40
0.0
 41
0.0
 42
0.0
 43
0.0
 44
0.0
 45
0.0
 46
0.0
 47
0.0
 48
0.0
 49
0.0
140
0.0
141
0.0
142
1.0
143
1.0
 70
   688
 72
     1
 73
     0
 74
     5
  7

 75
    16
147
1.0
148
0.0
149
0.0
100
AcDbLayout
  1
Layout1
 70
     1
 71
     1
 10
0.0
 20
0.0
 11
420.0
 21
297.0
 12
0.0
 22
0.0
 32
0.0
 14
1.000000000000000E+20
 24
1.000000000000000E+20
 34
1.000000000000000E+20
 15
-1.000000000000000E+20
 25
-1.000000000000000E+20
 35
-1.000000000000000E+20
146
0.0
 13
0.0
 23
0.0
 33
0.0
 16
1.0
 26
0.0
 36
0.0
 17
0.0
 27
1.0
 37
0.0
 76
     0
330
1B
  0
LAYOUT
  5
26
102
{ACAD_REACTORS
330
1A
102
}
330
1A
100
AcDbPlotSettings
  1

  2
none_device
  4

  6

 40
0.0
 41
0.0
 42
0.0
 43
0.0
 44
0.0
 45
0.0
 46
0.0
 47
0.0
 48
0.0
 49
0.0
140
0.0
141
0.0
142
1.0
143
1.0
 70
   688
 72
     1
 73
     0
 74
     5
  7

 75
    16
147
1.0
148
0.0
149
0.0
100
AcDbLayout
  1
Layout2
 70
     1
 71
     2
 10
0.0
 20
0.0
 11
0.0
 21
0.0
 12
0.0
 22
0.0
 32
0.0
 14
0.0
 24
0.0
 34
0.0
 15
0.0
 25
0.0
 35
0.0
146
0.0
 13
0.0
 23
0.0
 33
0.0
 16
1.0
 26
0.0
 36
0.0
 17
0.0
 27
1.0
 37
0.0
 76
     0
330
23
  0
LAYOUT
  5
22
102
{ACAD_REACTORS
330
1A
102
}
330
1A
100
AcDbPlotSettings
  1

  2
none_device
  4
ANSI_A_(11.00_x_8.50_Inches)
  6

 40
6.35
 41
19.05
 42
6.35000508
 43
19.05000254
 44
279.4
 45
215.9
 46
107.1300962393278
 47
100.5026560646533
 48
0.0
 49
0.0
140
0.0
141
0.0
142
0.0709734699818263
143
1.0
 70
  1696
 72
     0
 73
     0
 74
     0
  7

 75
     0
147
0.0235690232323232
148
0.0
149
0.0
100
AcDbLayout
  1
Model
 70
     1
 71
     0
 10
0.0
 20
0.0
 11
420.0
 21
297.0
 12
0.0
 22
0.0
 32
0.0
 14
-56.53827283782721
 24
-49.97073246008787
 34
0.0
 15
91.26339147959949
 25
42.52951441088325
 35
0.0
146
0.0
 13
0.0
 23
0.0
 33
0.0
 16
1.0
 26
0.0
 36
0.0
 17
0.0
 27
1.0
 37
0.0
 76
     0
330
1F
331
29
  0
MLINESTYLE
  5
18
102
{ACAD_REACTORS
330
17
102
}
330
17
100
AcDbMlineStyle
  2
Standard
 70
     0
  3

 62
   256
 51
90.0
 52
90.0
 71
     2
 49
0.5
 62
   256
  6
BYLAYER
 49
-0.5
 62
   256
  6
BYLAYER
  0
ACDBPLACEHOLDER
  5
F
102
{ACAD_REACTORS
330
E
102
}
330
E
  0
SCALE
  5
48
102
{ACAD_REACTORS
330
47
102
}
330
47
100
AcDbScale
 70
     0
300
1:1
140
1.0
141
1.0
290
     1
  0
SCALE
  5
49
102
{ACAD_REACTORS
330
47
102
}
330
47
100
AcDbScale
 70
     0
300
1:2
140
1.0
141
2.0
290
     0
  0
SCALE
  5
4A
102
{ACAD_REACTORS
330
47
102
}
330
47
100
AcDbScale
 70
     0
300
1:4
140
1.0
141
4.0
290
     0
  0
SCALE
  5
4B
102
{ACAD_REACTORS
330
47
102
}
330
47
100
AcDbScale
 70
     0
300
1:5
140
1.0
141
5.0
290
     0
  0
SCALE
  5
4C
102
{ACAD_REACTORS
330
47
102
}
330
47
100
AcDbScale
 70
     0
300
1:8
140
1.0
141
8.0
290
     0
  0
SCALE
  5
4D
102
{ACAD_REACTORS
330
47
102
}
330
47
100
AcDbScale
 70
     0
300
1:10
140
1.0
141
10.0
290
     0
  0
SCALE
  5
4E
102
{ACAD_REACTORS
330
47
102
}
330
47
100
AcDbScale
 70
     0
300
1:16
140
1.0
141
16.0
290
     0
  0
SCALE
  5
4F
102
{ACAD_REACTORS
330
47
102
}
330
47
100
AcDbScale
 70
     0
300
1:20
140
1.0
141
20.0
290
     0
  0
SCALE
  5
50
102
{ACAD_REACTORS
330
47
102
}
330
47
100
AcDbScale
 70
     0
300
1:30
140
1.0
141
30.0
290
     0
  0
SCALE
  5
51
102
{ACAD_REACTORS
330
47
102
}
330
47
100
AcDbScale
 70
     0
300
1:40
140
1.0
141
40.0
290
     0
  0
SCALE
  5
52
102
{ACAD_REACTORS
330
47
102
}
330
47
100
AcDbScale
 70
     0
300
1:50
140
1.0
141
50.0
290
     0
  0
SCALE
  5
53
102
{ACAD_REACTORS
330
47
102
}
330
47
100
AcDbScale
 70
     0
300
1:100
140
1.0
141
100.0
290
     0
  0
SCALE
  5
54
102
{ACAD_REACTORS
330
47
102
}
330
47
100
AcDbScale
 70
     0
300
2:1
140
2.0
141
1.0
290
     0
  0
SCALE
  5
55
102
{ACAD_REACTORS
330
47
102
}
330
47
100
AcDbScale
 70
     0
300
4:1
140
4.0
141
1.0
290
     0
  0
SCALE
  5
56
102
{ACAD_REACTORS
330
47
102
}
330
47
100
AcDbScale
 70
     0
300
8:1
140
8.0
141
1.0
290
     0
  0
SCALE
  5
57
102
{ACAD_REACTORS
330
47
102
}
330
47
100
AcDbScale
 70
     0
300
10:1
140
10.0
141
1.0
290
     0
  0
SCALE
  5
58
102
{ACAD_REACTORS
330
47
102
}
330
47
100
AcDbScale
 70
     0
300
100:1
140
100.0
141
1.0
290
     0
  0
SCALE
  5
59
102
{ACAD_REACTORS
330
47
102
}
330
47
100
AcDbScale
 70
     0
300
1/128" = 1'-0"
140
0.0078125
141
12.0
290
     0
  0
SCALE
  5
5A
102
{ACAD_REACTORS
330
47
102
}
330
47
100
AcDbScale
 70
     0
300
1/64" = 1'-0"
140
0.015625
141
12.0
290
     0
  0
SCALE
  5
5B
102
{ACAD_REACTORS
330
47
102
}
330
47
100
AcDbScale
 70
     0
300
1/32" = 1'-0"
140
0.03125
141
12.0
290
     0
  0
SCALE
  5
5C
102
{ACAD_REACTORS
330
47
102
}
330
47
100
AcDbScale
 70
     0
300
1/16" = 1'-0"
140
0.0625
141
12.0
290
     0
  0
SCALE
  5
5D
102
{ACAD_REACTORS
330
47
102
}
330
47
100
AcDbScale
 70
     0
300
3/32" = 1'-0"
140
0.09375
141
12.0
290
     0
  0
SCALE
  5
5E
102
{ACAD_REACTORS
330
47
102
}
330
47
100
AcDbScale
 70
     0
300
1/8" = 1'-0"
140
0.125
141
12.0
290
     0
  0
SCALE
  5
5F
102
{ACAD_REACTORS
330
47
102
}
330
47
100
AcDbScale
 70
     0
300
3/16" = 1'-0"
140
0.1875
141
12.0
290
     0
  0
SCALE
  5
60
102
{ACAD_REACTORS
330
47
102
}
330
47
100
AcDbScale
 70
     0
300
1/4" = 1'-0"
140
0.25
141
12.0
290
     0
  0
SCALE
  5
61
102
{ACAD_REACTORS
330
47
102
}
330
47
100
AcDbScale
 70
     0
300
3/8" = 1'-0"
140
0.375
141
12.0
290
     0
  0
SCALE
  5
62
102
{ACAD_REACTORS
330
47
102
}
330
47
100
AcDbScale
 70
     0
300
1/2" = 1'-0"
140
0.5
141
12.0
290
     0
  0
SCALE
  5
63
102
{ACAD_REACTORS
330
47
102
}
330
47
100
AcDbScale
 70
     0
300
3/4" = 1'-0"
140
0.75
141
12.0
290
     0
  0
SCALE
  5
64
102
{ACAD_REACTORS
330
47
102
}
330
47
100
AcDbScale
 70
     0
300
1" = 1'-0"
140
1.0
141
12.0
290
     0
  0
SCALE
  5
65
102
{ACAD_REACTORS
330
47
102
}
330
47
100
AcDbScale
 70
     0
300
1-1/2" = 1'-0"
140
1.5
141
12.0
290
     0
  0
SCALE
  5
66
102
{ACAD_REACTORS
330
47
102
}
330
47
100
AcDbScale
 70
     0
300
3" = 1'-0"
140
3.0
141
12.0
290
     0
  0
SCALE
  5
67
102
{ACAD_REACTORS
330
47
102
}
330
47
100
AcDbScale
 70
     0
300
6" = 1'-0"
140
6.0
141
12.0
290
     0
  0
SCALE
  5
68
102
{ACAD_REACTORS
330
47
102
}
330
47
100
AcDbScale
 70
     0
300
1'-0" = 1'-0"
140
12.0
141
12.0
290
     0
  0
ENDSEC
  0
EOF
