  0
SECTION
  2
HEADER
  9
$ACADVER
  1
AC1015
  9
$ACADMAINTVER
 70
     6
  9
$DWGCODEPAGE
  3
ANSI_949
  9
$INSBASE
 10
0.0
 20
0.0
 30
0.0
  9
$EXTMIN
 10
-56.53827283782724
 20
-49.97073246008787
 30
0.0
  9
$EXTMAX
 10
91.26339147959949
 20
41.075875
 30
0.0
  9
$LIMMIN
 10
0.0
 20
0.0
  9
$LIMMAX
 10
420.0
 20
297.0
  9
$ORTHOMODE
 70
     1
  9
$REGENMODE
 70
     1
  9
$FILLMODE
 70
     1
  9
$QTEXTMODE
 70
     0
  9
$MIRRTEXT
 70
     1
  9
$LTSCALE
 40
1.0
  9
$ATTMODE
 70
     1
  9
$TEXTSIZE
 40
3.5
  9
$TRACEWID
 40
1.0
  9
$TEXTSTYLE
  7
Standard
  9
$CLAYER
  8
0
  9
$CELTYPE
  6
ByLayer
  9
$CECOLOR
 62
   256
  9
$CELTSCALE
 40
1.0
  9
$DISPSILH
 70
     0
  9
$DIMSCALE
 40
1.0
  9
$DIMASZ
 40
3.302
  9
$DIMEXO
 40
1.0
  9
$DIMDLI
 40
3.75
  9
$DIMRND
 40
0.0
  9
$DIMDLE
 40
0.0
  9
$DIMEXE
 40
1.0
  9
$DIMTP
 40
0.0
  9
$DIMTM
 40
0.0
  9
$DIMTXT
 40
3.5
  9
$DIMCEN
 40
2.5
  9
$DIMTSZ
 40
0.0
  9
$DIMTOL
 70
     0
  9
$DIMLIM
 70
     0
  9
$DIMTIH
 70
     1
  9
$DIMTOH
 70
     1
  9
$DIMSE1
 70
     0
  9
$DIMSE2
 70
     0
  9
$DIMTAD
 70
     1
  9
$DIMZIN
 70
     0
  9
$DIMBLK
  1

  9
$DIMASO
 70
     1
  9
$DIMSHO
 70
     1
  9
$DIMPOST
  1

  9
$DIMAPOST
  1

  9
$DIMALT
 70
     0
  9
$DIMALTD
 70
     3
  9
$DIMALTF
 40
0.0393700787401575
  9
$DIMLFAC
 40
1.0
  9
$DIMTOFL
 70
     1
  9
$DIMTVP
 40
0.0
  9
$DIMTIX
 70
     0
  9
$DIMSOXD
 70
     0
  9
$DIMSAH
 70
     0
  9
$DIMBLK1
  1

  9
$DIMBLK2
  1

  9
$DIMSTYLE
  2
ISO-25
  9
$DIMCLRD
 70
     0
  9
$DIMCLRE
 70
     0
  9
$DIMCLRT
 70
     0
  9
$DIMTFAC
 40
1.0
  9
$DIMGAP
 40
1.524
  9
$DIMJUST
 70
     0
  9
$DIMSD1
 70
     0
  9
$DIMSD2
 70
     0
  9
$DIMTOLJ
 70
     0
  9
$DIMTZIN
 70
     0
  9
$DIMALTZ
 70
     0
  9
$DIMALTTZ
 70
     0
  9
$DIMUPT
 70
     0
  9
$DIMDEC
 70
     2
  9
$DIMTDEC
 70
     2
  9
$DIMALTU
 70
     2
  9
$DIMALTTD
 70
     3
  9
$DIMTXSTY
  7
Standard
  9
$DIMAUNIT
 70
     0
  9
$DIMADEC
 70
     2
  9
$DIMALTRND
 40
0.0
  9
$DIMAZIN
 70
     0
  9
$DIMDSEP
 70
    44
  9
$DIMATFIT
 70
     3
  9
$DIMFRAC
 70
     0
  9
$DIMLDRBLK
  1

  9
$DIMLUNIT
 70
     2
  9
$DIMLWD
 70
    -2
  9
$DIMLWE
 70
    -2
  9
$DIMTMOVE
 70
     0
  9
$LUNITS
 70
     2
  9
$LUPREC
 70
     2
  9
$SKETCHINC
 40
1.0
  9
$FILLETRAD
 40
10.0
  9
$AUNITS
 70
     0
  9
$AUPREC
 70
     2
  9
$MENU
  1
.
  9
$ELEVATION
 40
0.0
  9
$PELEVATION
 40
0.0
  9
$THICKNESS
 40
0.0
  9
$LIMCHECK
 70
     0
  9
$CHAMFERA
 40
0.0
  9
$CHAMFERB
 40
0.0
  9
$CHAMFERC
 40
0.0
  9
$CHAMFERD
 40
0.0
  9
$SKPOLY
 70
     0
  9
$TDCREATE
 40
2458312.746949167
  9
$TDUCREATE
 40
2458312.371949167
  9
$TDUPDATE
 40
2458323.732637546
  9
$TDUUPDATE
 40
2458323.357637546
  9
$TDINDWG
 40
0.0039993866
  9
$TDUSRTIMER
 40
2458323.357592592
  9
$USRTIMER
 70
     1
  9
$ANGBASE
 50
0.0
  9
$ANGDIR
 70
     0
  9
$PDMODE
 70
     0
  9
$PDSIZE
 40
-1.0
  9
$PLINEWID
 40
0.0
  9
$SPLFRAME
 70
     0
  9
$SPLINETYPE
 70
     6
  9
$SPLINESEGS
 70
     8
  9
$HANDSEED
  5
335
  9
$SURFTAB1
 70
     6
  9
$SURFTAB2
 70
     6
  9
$SURFTYPE
 70
     6
  9
$SURFU
 70
     6
  9
$SURFV
 70
     6
  9
$UCSBASE
  2

  9
$UCSNAME
  2

  9
$UCSORG
 10
0.0
 20
0.0
 30
0.0
  9
$UCSXDIR
 10
1.0
 20
0.0
 30
0.0
  9
$UCSYDIR
 10
0.0
 20
1.0
 30
0.0
  9
$UCSORTHOREF
  2

  9
$UCSORTHOVIEW
 70
     0
  9
$UCSORGTOP
 10
0.0
 20
0.0
 30
0.0
  9
$UCSORGBOTTOM
 10
0.0
 20
0.0
 30
0.0
  9
$UCSORGLEFT
 10
0.0
 20
0.0
 30
0.0
  9
$UCSORGRIGHT
 10
0.0
 20
0.0
 30
0.0
  9
$UCSORGFRONT
 10
0.0
 20
0.0
 30
0.0
  9
$UCSORGBACK
 10
0.0
 20
0.0
 30
0.0
  9
$PUCSBASE
  2

  9
$PUCSNAME
  2

  9
$PUCSORG
 10
0.0
 20
0.0
 30
0.0
  9
$PUCSXDIR
 10
1.0
 20
0.0
 30
0.0
  9
$PUCSYDIR
 10
0.0
 20
1.0
 30
0.0
  9
$PUCSORTHOREF
  2

  9
$PUCSORTHOVIEW
 70
     0
  9
$PUCSORGTOP
 10
0.0
 20
0.0
 30
0.0
  9
$PUCSORGBOTTOM
 10
0.0
 20
0.0
 30
0.0
  9
$PUCSORGLEFT
 10
0.0
 20
0.0
 30
0.0
  9
$PUCSORGRIGHT
 10
0.0
 20
0.0
 30
0.0
  9
$PUCSORGFRONT
 10
0.0
 20
0.0
 30
0.0
  9
$PUCSORGBACK
 10
0.0
 20
0.0
 30
0.0
  9
$USERI1
 70
     0
  9
$USERI2
 70
     0
  9
$USERI3
 70
     0
  9
$USERI4
 70
     0
  9
$USERI5
 70
     0
  9
$USERR1
 40
0.0
  9
$USERR2
 40
0.0
  9
$USERR3
 40
0.0
  9
$USERR4
 40
0.0
  9
$USERR5
 40
0.0
  9
$WORLDVIEW
 70
     1
  9
$SHADEDGE
 70
     3
  9
$SHADEDIF
 70
    70
  9
$TILEMODE
 70
     1
  9
$MAXACTVP
 70
    64
  9
$PINSBASE
 10
0.0
 20
0.0
 30
0.0
  9
$PLIMCHECK
 70
     0
  9
$PEXTMIN
 10
1.000000000000000E+20
 20
1.000000000000000E+20
 30
1.000000000000000E+20
  9
$PEXTMAX
 10
-1.000000000000000E+20
 20
-1.000000000000000E+20
 30
-1.000000000000000E+20
  9
$PLIMMIN
 10
0.0
 20
0.0
  9
$PLIMMAX
 10
0.0
 20
0.0
  9
$UNITMODE
 70
     0
  9
$VISRETAIN
 70
     1
  9
$PLINEGEN
 70
     0
  9
$PSLTSCALE
 70
     1
  9
$TREEDEPTH
 70
  3020
  9
$CMLSTYLE
  2
Standard
  9
$CMLJUST
 70
     0
  9
$CMLSCALE
 40
20.0
  9
$PROXYGRAPHICS
 70
     1
  9
$MEASUREMENT
 70
     1
  9
$CELWEIGHT
370
    -1
  9
$ENDCAPS
280
     0
  9
$JOINSTYLE
280
     0
  9
$LWDISPLAY
290
     1
  9
$INSUNITS
 70
     4
  9
$HYPERLINKBASE
  1

  9
$STYLESHEET
  1

  9
$XEDIT
290
     1
  9
$CEPSNTYPE
380
     0
  9
$PSTYLEMODE
290
     1
  9
$FINGERPRINTGUID
  2
{BAF10102-040F-4F6B-8258-3D812FFEB8AB}
  9
$VERSIONGUID
  2
{FAEB1C32-E019-11D5-929B-00C0DF256EC4}
  9
$EXTNAMES
290
     1
  9
$PSVPSCALE
 40
0.0
  9
$OLESTARTUP
290
     0
  0
ENDSEC
  0
SECTION
  2
CLASSES
  0
CLASS
  1
ACDBDICTIONARYWDFLT
  2
AcDbDictionaryWithDefault
  3
ObjectDBX Classes
 90
        0
280
     0
281
     0
  0
CLASS
  1
VISUALSTYLE
  2
AcDbVisualStyle
  3
ObjectDBX Classes
 90
     4095
280
     0
281
     0
  0
CLASS
  1
MATERIAL
  2
AcDbMaterial
  3
ObjectDBX Classes
 90
     1153
280
     0
281
     0
  0
CLASS
  1
SCALE
  2
AcDbScale
  3
ObjectDBX Classes
 90
     1153
280
     0
281
     0
  0
CLASS
  1
SUN
  2
AcDbSun
  3
SCENEOE
 90
     1153
280
     0
281
     0
  0
CLASS
  1
ACDBPLACEHOLDER
  2
AcDbPlaceHolder
  3
ObjectDBX Classes
 90
        0
280
     0
281
     0
  0
CLASS
  1
LAYOUT
  2
AcDbLayout
  3
ObjectDBX Classes
 90
        0
280
     0
281
     0
  0
CLASS
  1
TABLESTYLE
  2
AcDbTableStyle
  3
ObjectDBX Classes
 90
     4095
280
     0
281
     0
  0
CLASS
  1
MLEADERSTYLE
  2
AcDbMLeaderStyle
  3
ACDB_MLEADERSTYLE_CLASS
 90
     4095
280
     0
281
     0
  0
CLASS
  1
RASTERVARIABLES
  2
AcDbRasterVariables
  3
ISM
 90
        0
280
     0
281
     0
  0
CLASS
  1
DIMASSOC
  2
AcDbDimAssoc
  3
"AcDbDimAssoc|Product Desc:     AcDim ARX App For Dimension|Company:          Autodesk, Inc.|WEB Address:      www.autodesk.com"
 90
        0
280
     0
281
     0
  0
ENDSEC
  0
SECTION
  2
TABLES
  0
TABLE
  2
VPORT
  5
8
330
0
100
AcDbSymbolTable
 70
     1
  0
VPORT
  5
29
330
8
100
AcDbSymbolTableRecord
100
AcDbViewportTableRecord
  2
*Active
 70
     0
 10
0.0
 20
0.0
 11
1.0
 21
1.0
 12
12.78586614696173
 22
-2.356461863430614
 13
0.0
 23
0.0
 14
10.0
 24
10.0
 15
10.0
 25
10.0
 16
0.0
 26
0.0
 36
1.0
 17
0.0
 27
0.0
 37
0.0
 40
149.8327974506709
 41
1.632093933463796
 42
50.0
 43
0.0
 44
0.0
 50
0.0
 51
0.0
 71
    16
 72
  2000
 73
     1
 74
     3
 75
     0
 76
     0
 77
     0
 78
     0
281
     0
 65
     1
110
0.0
120
0.0
130
0.0
111
1.0
121
0.0
131
0.0
112
0.0
122
1.0
132
0.0
 79
     0
146
0.0
  0
ENDTAB
  0
TABLE
  2
LTYPE
  5
5
330
0
100
AcDbSymbolTable
 70
     6
  0
LTYPE
  5
14
330
5
100
AcDbSymbolTableRecord
100
AcDbLinetypeTableRecord
  2
ByBlock
 70
     0
  3

 72
    65
 73
     0
 40
0.0
  0
LTYPE
  5
15
330
5
100
AcDbSymbolTableRecord
100
AcDbLinetypeTableRecord
  2
ByLayer
 70
     0
  3

 72
    65
 73
     0
 40
0.0
  0
LTYPE
  5
16
330
5
100
AcDbSymbolTableRecord
100
AcDbLinetypeTableRecord
  2
Continuous
 70
     0
  3
Solid line
 72
    65
 73
     0
 40
0.0
  0
LTYPE
  5
6A
330
5
100
AcDbSymbolTableRecord
100
AcDbLinetypeTableRecord
  2
HIDDEN
 70
     0
  3
Hidden __ __ __ __ __ __ __ __ __ __ __ __ __ __
 72
    65
 73
     2
 40
1.905
 49
1.27
 74
     0
 49
-0.635
 74
     0
  0
LTYPE
  5
6B
330
5
100
AcDbSymbolTableRecord
100
AcDbLinetypeTableRecord
  2
PHANTOM
 70
     0
  3
Phantom ______  __  __  ______  __  __  ______
 72
    65
 73
     6
 40
12.7
 49
6.35
 74
     0
 49
-1.27
 74
     0
 49
1.27
 74
     0
 49
-1.27
 74
     0
 49
1.27
 74
     0
 49
-1.27
 74
     0
  0
LTYPE
  5
6C
330
5
100
AcDbSymbolTableRecord
100
AcDbLinetypeTableRecord
  2
CENTER
 70
     0
  3
Center ____ _ ____ _ ____ _ ____ _ ____ _ ____
 72
    65
 73
     4
 40
10.16
 49
6.35
 74
     0
 49
-1.27
 74
     0
 49
1.27
 74
     0
 49
-1.27
 74
     0
  0
LTYPE
  5
6D
330
5
100
AcDbSymbolTableRecord
100
AcDbLinetypeTableRecord
  2
CENTERX2
 70
     0
  3
Center (2x) ________  __  ________  __  _____
 72
    65
 73
     4
 40
20.32
 49
12.7
 74
     0
 49
-2.54
 74
     0
 49
2.54
 74
     0
 49
-2.54
 74
     0
  0
LTYPE
  5
6E
330
5
100
AcDbSymbolTableRecord
100
AcDbLinetypeTableRecord
  2
DOT2
 70
     0
  3
Dot (.5x) ........................................
 72
    65
 73
     2
 40
0.635
 49
0.0
 74
     0
 49
-0.635
 74
     0
  0
ENDTAB
  0
TABLE
  2
LAYER
  5
2
102
{ACAD_XDICTIONARY
360
1D0
102
}
330
0
100
AcDbSymbolTable
 70
    18
  0
LAYER
  5
10
330
2
100
AcDbSymbolTableRecord
100
AcDbLayerTableRecord
  2
0
 70
     0
 62
     7
  6
Continuous
370
    -3
390
F
  0
LAYER
  5
6F
330
2
100
AcDbSymbolTableRecord
100
AcDbLayerTableRecord
  2
FORMAT
 70
     0
 62
     2
  6
Continuous
370
    -3
390
F
  0
LAYER
  5
70
330
2
100
AcDbSymbolTableRecord
100
AcDbLayerTableRecord
  2
외형선
 70
     0
 62
     4
  6
Continuous
370
    30
390
F
  0
LAYER
  5
71
330
2
100
AcDbSymbolTableRecord
100
AcDbLayerTableRecord
  2
숨은선
 70
     0
 62
     2
  6
HIDDEN
370
    15
390
F
  0
LAYER
  5
72
330
2
100
AcDbSymbolTableRecord
100
AcDbLayerTableRecord
  2
중심선
 70
     0
 62
     1
  6
CENTERX2
370
    -3
390
F
  0
LAYER
  5
73
330
2
100
AcDbSymbolTableRecord
100
AcDbLayerTableRecord
  2
파단선
 70
     0
 62
     4
  6
Continuous
370
    -3
390
F
  0
LAYER
  5
74
330
2
100
AcDbSymbolTableRecord
100
AcDbLayerTableRecord
  2
해칭선
 70
     0
 62
   100
  6
Continuous
370
    -3
390
F
  0
LAYER
  5
75
330
2
100
AcDbSymbolTableRecord
100
AcDbLayerTableRecord
  2
가는실선
 70
     0
 62
     4
  6
Continuous
370
    -3
390
F
  0
LAYER
  5
76
330
2
100
AcDbSymbolTableRecord
100
AcDbLayerTableRecord
  2
치수_보조선
 70
     0
 62
     4
  6
Continuous
370
    -3
390
F
  0
LAYER
  5
77
330
2
100
AcDbSymbolTableRecord
100
AcDbLayerTableRecord
  2
치수문자_일반주서
 70
     0
 62
     7
  6
Continuous
370
    15
390
F
  0
LAYER
  5
78
330
2
100
AcDbSymbolTableRecord
100
AcDbLayerTableRecord
  2
개별주서
 70
     0
 62
   100
  6
Continuous
370
    30
390
F
  0
LAYER
  5
79
330
2
100
AcDbSymbolTableRecord
100
AcDbLayerTableRecord
  2
중간선
 70
     0
 62
     2
  6
Continuous
370
    15
390
F
  0
LAYER
  5
7A
330
2
100
AcDbSymbolTableRecord
100
AcDbLayerTableRecord
  2
윤곽선
 70
     0
 62
     3
  6
Continuous
370
    40
390
F
  0
LAYER
  5
7B
330
2
100
AcDbSymbolTableRecord
100
AcDbLayerTableRecord
  2
중심마크
 70
     0
 62
   100
  6
Continuous
370
    30
390
F
  0
LAYER
  5
7C
330
2
100
AcDbSymbolTableRecord
100
AcDbLayerTableRecord
  2
가상선
 70
     0
 62
     4
  6
PHANTOM
370
    -3
390
F
  0
LAYER
  5
7D
330
2
100
AcDbSymbolTableRecord
100
AcDbLayerTableRecord
  2
특수지정선
 70
     0
 62
     5
  6
CENTERX2
370
    60
390
F
  0
LAYER
  5
7E
330
2
100
AcDbSymbolTableRecord
100
AcDbLayerTableRecord
  2
참조1
 70
     0
 62
    -4
  6
Continuous
370
    -3
390
F
  0
LAYER
  5
13B
330
2
100
AcDbSymbolTableRecord
100
AcDbLayerTableRecord
  2
Defpoints
 70
     0
 62
     7
  6
Continuous
290
     0
370
    -3
390
F
  0
ENDTAB
  0
TABLE
  2
STYLE
  5
3
330
0
100
AcDbSymbolTable
 70
     2
  0
STYLE
  5
11
330
3
100
AcDbSymbolTableRecord
100
AcDbTextStyleTableRecord
  2
Standard
 70
     0
 40
0.0
 41
1.0
 50
0.0
 71
     0
 42
3.5
  3
txt
  4

  0
STYLE
  5
94
330
3
100
AcDbSymbolTableRecord
100
AcDbTextStyleTableRecord
  2
SLDTEXTSTYLE0
 70
     0
 40
0.0
 41
0.75
 50
0.0
 71
     0
 42
3.5
  3
TXT
  4

  0
ENDTAB
  0
TABLE
  2
VIEW
  5
6
330
0
100
AcDbSymbolTable
 70
     0
  0
ENDTAB
  0
TABLE
  2
UCS
  5
7
330
0
100
AcDbSymbolTable
 70
     0
  0
ENDTAB
  0
TABLE
  2
APPID
  5
9
330
0
100
AcDbSymbolTable
 70
     1
  0
APPID
  5
12
330
9
100
AcDbSymbolTableRecord
100
AcDbRegAppTableRecord
  2
ACAD
 70
     0
  0
ENDTAB
  0
TABLE
  2
DIMSTYLE
  5
A
330
0
100
AcDbSymbolTable
 70
     4
100
AcDbDimStyleTable
  0
DIMSTYLE
105
27
330
A
100
AcDbSymbolTableRecord
100
AcDbDimStyleTableRecord
  2
ISO-25
 70
     0
 41
2.5
 42
0.625
 43
3.75
 44
1.25
 73
     0
 74
     0
 77
     1
 78
     8
140
2.5
141
2.5
143
0.03937007874016
147
0.625
171
     3
172
     1
178
     0
271
     2
272
     2
274
     3
278
    44
283
     0
284
     8
340
11
  0
DIMSTYLE
105
B7
330
A
100
AcDbSymbolTableRecord
100
AcDbDimStyleTableRecord
  2
SLDDIMSTYLE0
 70
     0
 41
3.302
 44
0.0
 45
0.000000001
 73
     0
 74
     0
 77
     1
 78
    12
 79
     3
140
3.5
143
0.0393700787401575
147
0.875
148
0.000000001
170
     1
173
     1
178
     0
271
     2
272
     2
276
     2
284
    12
340
94
  0
DIMSTYLE
105
CB
330
A
100
AcDbSymbolTableRecord
100
AcDbDimStyleTableRecord
  2
SLDDIMSTYLE1
 70
     0
 41
3.302
 44
0.0
 45
0.000000001
 73
     0
 74
     0
 77
     1
 78
     4
 79
     1
140
3.5
143
0.0393700787401575
147
0.875
148
0.000000001
170
     1
172
     1
173
     1
178
     0
271
     2
272
     2
276
     2
284
    12
289
     0
340
94
  0
DIMSTYLE
105
F4
102
{ACAD_REACTORS
330
233
330
234
330
CA
330
2DC
102
}
330
A
100
AcDbSymbolTableRecord
100
AcDbDimStyleTableRecord
  2
SLDDIMSTYLE2
 70
     0
 41
3.302
 44
0.0
 45
0.000000001
 73
     0
 74
     0
 77
     1
 78
    12
 79
     3
140
3.5
143
0.0393700787401575
147
0.875
148
0.000000001
170
     1
172
     1
173
     1
178
     0
271
     2
272
     2
276
     2
284
    12
289
     0
340
94
  0
ENDTAB
  0
TABLE
  2
BLOCK_RECORD
  5
1
330
0
100
AcDbSymbolTable
 70
    18
  0
BLOCK_RECORD
  5
1F
330
1
100
AcDbSymbolTableRecord
100
AcDbBlockTableRecord
  2
*Model_Space
340
22
  0
BLOCK_RECORD
  5
1B
330
1
100
AcDbSymbolTableRecord
100
AcDbBlockTableRecord
  2
*Paper_Space
340
1E
  0
BLOCK_RECORD
  5
23
330
1
100
AcDbSymbolTableRecord
100
AcDbBlockTableRecord
  2
*Paper_Space0
340
26
  0
BLOCK_RECORD
  5
7F
330
1
100
AcDbSymbolTableRecord
100
AcDbBlockTableRecord
  2
블럭10
340
0
102
{BLKREFS
331
AF
102
}
  0
BLOCK_RECORD
  5
B8
330
1
100
AcDbSymbolTableRecord
100
AcDbBlockTableRecord
  2
_D
340
0
  0
BLOCK_RECORD
  5
CC
330
1
100
AcDbSymbolTableRecord
100
AcDbBlockTableRecord
  2
_D_1
340
0
  0
BLOCK_RECORD
  5
E1
330
1
100
AcDbSymbolTableRecord
100
AcDbBlockTableRecord
  2
_D_2
340
0
  0
BLOCK_RECORD
  5
F5
330
1
100
AcDbSymbolTableRecord
100
AcDbBlockTableRecord
  2
_D_3
340
0
  0
BLOCK_RECORD
  5
10F
330
1
100
AcDbSymbolTableRecord
100
AcDbBlockTableRecord
  2
SW_DOWELSYMBOL_0
340
0
102
{BLKREFS
331
236
102
}
  0
BLOCK_RECORD
  5
1D4
330
1
100
AcDbSymbolTableRecord
100
AcDbBlockTableRecord
  2
*D7
340
0
  0
BLOCK_RECORD
  5
1E3
330
1
100
AcDbSymbolTableRecord
100
AcDbBlockTableRecord
  2
*D8
340
0
  0
BLOCK_RECORD
  5
1EF
330
1
100
AcDbSymbolTableRecord
100
AcDbBlockTableRecord
  2
*D9
340
0
  0
BLOCK_RECORD
  5
1FB
330
1
100
AcDbSymbolTableRecord
100
AcDbBlockTableRecord
  2
*D10
340
0
  0
BLOCK_RECORD
  5
23B
330
1
100
AcDbSymbolTableRecord
100
AcDbBlockTableRecord
  2
*D11
340
0
  0
BLOCK_RECORD
  5
24A
330
1
100
AcDbSymbolTableRecord
100
AcDbBlockTableRecord
  2
*D12
340
0
  0
BLOCK_RECORD
  5
256
330
1
100
AcDbSymbolTableRecord
100
AcDbBlockTableRecord
  2
*D13
340
0
  0
BLOCK_RECORD
  5
262
330
1
100
AcDbSymbolTableRecord
100
AcDbBlockTableRecord
  2
*D14
340
0
  0
BLOCK_RECORD
  5
27B
330
1
100
AcDbSymbolTableRecord
100
AcDbBlockTableRecord
  2
*D15
340
0
  0
BLOCK_RECORD
  5
290
330
1
100
AcDbSymbolTableRecord
100
AcDbBlockTableRecord
  2
*D16
340
0
  0
BLOCK_RECORD
  5
2DF
330
1
100
AcDbSymbolTableRecord
100
AcDbBlockTableRecord
  2
*D17
340
0
  0
ENDTAB
  0
ENDSEC
  0
SECTION
  2
BLOCKS
  0
BLOCK
  5
20
330
1F
100
AcDbEntity
  8
0
100
AcDbBlockBegin
  2
*Model_Space
 70
     0
 10
0.0
 20
0.0
 30
0.0
  3
*Model_Space
  1
*Model_Space
  0
ENDBLK
  5
21
330
1F
100
AcDbEntity
  8
0
100
AcDbBlockEnd
  0
BLOCK
  5
1C
330
1B
100
AcDbEntity
 67
     1
  8
0
100
AcDbBlockBegin
  2
*Paper_Space
 70
     0
 10
0.0
 20
0.0
 30
0.0
  3
*Paper_Space
  1
*Paper_Space
  0
ENDBLK
  5
1D
330
1B
100
AcDbEntity
 67
     1
  8
0
100
AcDbBlockEnd
  0
BLOCK
  5
24
330
23
100
AcDbEntity
  8
0
100
AcDbBlockBegin
  2
*Paper_Space0
 70
     0
 10
0.0
 20
0.0
 30
0.0
  3
*Paper_Space0
  1
*Paper_Space0
  0
ENDBLK
  5
25
330
23
100
AcDbEntity
  8
0
100
AcDbBlockEnd
  0
BLOCK
  5
80
330
7F
100
AcDbEntity
  8
0
100
AcDbBlockBegin
  2
블럭10
 70
     2
 10
0.0
 20
0.0
 30
0.0
  3
블럭10
  1
블럭10
  0
ELLIPSE
  5
82
330
7F
100
AcDbEntity
  8
중심선
100
AcDbEllipse
 10
20.54032771741204
 20
12.0471743016438
 30
0.0
 11
6.600054785286829
 21
-1.261213355974178E-13
 31
0.0
210
0.0
220
0.0
230
1.0
 40
0.636358354079598
 41
0.9219305317359503
 42
6.513795318482858
  0
ELLIPSE
  5
83
330
7F
100
AcDbEntity
  8
중심선
100
AcDbEllipse
 10
20.54032771746488
 20
12.04717430159265
 30
0.0
 11
3.960054785062283
 21
1.540847449632565E-10
 31
0.0
210
0.0
220
0.0
230
1.0
 40
0.3939339440162632
 41
1.131841032648279
 42
5.62031148352944
  0
LINE
  5
84
330
7F
100
AcDbEntity
  8
중심선
100
AcDbLine
 10
2.268634060543552
 20
16.24717430164393
 30
0.0
 11
5.714909304380834
 21
16.24717430164393
 31
0.0
  0
LINE
  5
85
330
7F
100
AcDbEntity
  8
중심선
100
AcDbLine
 10
5.245725140726316
 20
7.84717430164391
 30
0.0
 11
8.692000384563599
 21
7.84717430164391
 31
0.0
  0
LINE
  5
86
330
7F
100
AcDbEntity
  8
중심선
100
AcDbLine
 10
15.74043728645272
 20
16.24717430164393
 30
0.0
 11
8.692000384563599
 21
7.84717430164391
 31
0.0
  0
LINE
  5
87
330
7F
100
AcDbEntity
  8
중심선
100
AcDbLine
 10
0.1404042013395286
 20
13.71084872107135
 30
0.0
 11
3.58671253028996
 21
13.71088815037384
 31
0.0
  0
LINE
  5
88
330
7F
100
AcDbEntity
  8
중심선
100
AcDbLine
 10
2.750260043222114
 20
10.84717430164391
 30
0.0
 11
6.196535287059397
 21
10.84717430164391
 31
0.0
  0
LINE
  5
89
330
7F
100
AcDbEntity
  8
중심선
100
AcDbLine
 10
12.29416204261559
 20
16.24717430164393
 30
0.0
 11
5.245725140726316
 21
7.84717430164391
 31
0.0
  0
LINE
  5
8A
330
7F
100
AcDbEntity
  8
중심선
100
AcDbLine
 10
10.72767329541681
 20
16.24717430164393
 30
0.0
 11
6.196535287059397
 21
10.84717430164391
 31
0.0
  0
LINE
  5
8B
330
7F
100
AcDbEntity
  8
중심선
100
AcDbLine
 10
7.28139805157953
 20
16.24717430164393
 30
0.0
 11
2.750260043222114
 21
10.84717430164391
 31
0.0
  0
LINE
  5
8C
330
7F
100
AcDbEntity
  8
중심선
100
AcDbLine
 10
5.714909304380834
 20
16.24717430164393
 30
0.0
 11
3.58671253028996
 21
13.71088815037384
 31
0.0
  0
LINE
  5
8D
330
7F
100
AcDbEntity
  8
중심선
100
AcDbLine
 10
2.268634060543552
 20
16.24717430164393
 30
0.0
 11
0.1404042013395286
 21
13.71084872107135
 31
0.0
  0
LINE
  5
8E
330
7F
100
AcDbEntity
  8
중심선
100
AcDbLine
 10
7.28139805157953
 20
16.24717430164393
 30
0.0
 11
10.72767329541681
 21
16.24717430164393
 31
0.0
  0
LINE
  5
8F
330
7F
100
AcDbEntity
  8
중심선
100
AcDbLine
 10
12.29416204261559
 20
16.24717430164393
 30
0.0
 11
15.74043728645272
 21
16.24717430164393
 31
0.0
  0
LINE
  5
90
330
7F
100
AcDbEntity
  8
중심선
100
AcDbLine
 10
19.22036997980202
 20
11.08717430171403
 30
0.0
 11
23.66174974927406
 21
11.08717430171406
 31
0.0
  0
LINE
  5
91
330
7F
100
AcDbEntity
  8
중심선
100
AcDbLine
 10
19.22039502424796
 20
13.00717430171391
 30
0.0
 11
19.22036997980202
 21
11.08717430171403
 31
0.0
  0
LINE
  5
92
330
7F
100
AcDbEntity
  8
중심선
100
AcDbLine
 10
19.22039502424796
 20
13.00717430171391
 30
0.0
 11
26.96566020931264
 21
13.00717430171391
 31
0.0
  0
LINE
  5
93
330
7F
100
AcDbEntity
  8
중심선
100
AcDbLine
 10
22.22332737316547
 20
13.45928029700563
 30
0.0
 11
24.52862924686651
 21
15.39360700705356
 31
0.0
  0
ATTDEF
  5
95
330
7F
100
AcDbEntity
  8
FORMAT
 62
     2
100
AcDbText
 10
4.408487351596664
 20
2.075366912832191
 30
0.0
 40
4.233333333333333
  1
E2031026
 41
0.75
  7
SLDTEXTSTYLE0
 11
4.408487351596664
 21
-0.0412997538344756
 31
0.0
100
AcDbAttributeDefinition
  3

  2
AUTOATTR0
 70
     0
 74
     1
  0
ENDBLK
  5
81
330
7F
100
AcDbEntity
  8
0
100
AcDbBlockEnd
  0
BLOCK
  5
B9
330
B8
100
AcDbEntity
  8
0
100
AcDbBlockBegin
  2
_D
 70
     0
 10
0.0
 20
0.0
 30
0.0
  3
_D
  1
_D
  0
SOLID
  5
BB
330
B8
100
AcDbEntity
  8
치수문자_일반주서
100
AcDbTrace
 10
-1.841524023601865
 20
5.218258589704702
 30
0.0
 11
-2.349524023601865
 21
1.916258589704702
 31
0.0
 12
-1.333524023601865
 22
1.916258589704702
 32
0.0
 13
-1.333524023601865
 23
1.916258589704702
 33
0.0
  0
SOLID
  5
BC
330
B8
100
AcDbEntity
  8
치수문자_일반주서
100
AcDbTrace
 10
-1.841524023601868
 20
-5.100491410295307
 30
0.0
 11
-1.333524023601868
 21
-1.798491410295307
 31
0.0
 12
-2.349524023601868
 22
-1.798491410295307
 32
0.0
 13
-2.349524023601868
 23
-1.798491410295307
 33
0.0
  0
LINE
  5
BD
330
B8
100
AcDbEntity
  8
치수문자_일반주서
100
AcDbLine
 10
-12.63440573964458
 20
10.23472747827022
 30
0.0
 11
-12.63440573964457
 21
9.52378999270572
 31
0.0
  0
LINE
  5
BE
330
B8
100
AcDbEntity
  8
치수문자_일반주서
100
AcDbLine
 10
-12.63440573964457
 20
9.52378999270572
 30
0.0
 11
-7.078155748585271
 21
9.523789992705758
 31
0.0
  0
LINE
  5
BF
330
B8
100
AcDbEntity
  8
치수문자_일반주서
100
AcDbLine
 10
-7.078155748585271
 20
9.523789992705758
 30
0.0
 11
-7.078155748585276
 21
10.23472747827026
 31
0.0
  0
LINE
  5
C0
330
B8
100
AcDbEntity
  8
치수문자_일반주서
100
AcDbLine
 10
-12.63440573964466
 20
21.06346034040748
 30
0.0
 11
-12.63440573964466
 21
21.77439782597198
 31
0.0
  0
LINE
  5
C1
330
B8
100
AcDbEntity
  8
치수문자_일반주서
100
AcDbLine
 10
-12.63440573964466
 20
21.77439782597198
 30
0.0
 11
-7.078155748585358
 21
21.77439782597202
 31
0.0
  0
LINE
  5
C2
330
B8
100
AcDbEntity
  8
치수문자_일반주서
100
AcDbLine
 10
-7.078155748585358
 20
21.77439782597202
 30
0.0
 11
-7.078155748585353
 21
21.06346034040752
 31
0.0
  0
LINE
  5
C3
330
B8
100
AcDbEntity
  8
치수문자_일반주서
100
AcDbLine
 10
3.481157664253888
 20
5.218258589704702
 30
0.0
 11
-2.841524023601865
 21
5.218258589704702
 31
0.0
  0
LINE
  5
C4
330
B8
100
AcDbEntity
  8
치수문자_일반주서
100
AcDbLine
 10
3.481157664253888
 20
-5.100491410295314
 30
0.0
 11
-2.841524023601868
 21
-5.100491410295307
 31
0.0
  0
LINE
  5
C5
330
B8
100
AcDbEntity
  8
치수문자_일반주서
100
AcDbLine
 10
-1.841524023601865
 20
5.218258589704702
 30
0.0
 11
-1.84152402360186
 21
24.10706285215994
 31
0.0
  0
LINE
  5
C6
330
B8
100
AcDbEntity
  8
치수문자_일반주서
100
AcDbLine
 10
-1.841524023601865
 20
5.218258589704702
 30
0.0
 11
-1.841524023601868
 21
-5.100491410295307
 31
0.0
  0
MTEXT
  5
C7
330
B8
100
AcDbEntity
  8
치수문자_일반주서
100
AcDbMText
 10
-11.58989266316418
 20
11.1233993788816
 30
0.0
 40
3.5
 41
0.0
 71
     1
 72
     1
  1
0.41
  7
SLDTEXTSTYLE0
 11
-7.044195017643634E-15
 21
1.0
 31
0.0
 73
     1
 44
1.0
  0
MTEXT
  5
C8
330
B8
100
AcDbEntity
  8
치수문자_일반주서
100
AcDbMText
 10
-6.353261112803678
 20
7.191124966517865
 30
0.0
 40
3.5
 41
0.0
 71
     1
 72
     1
  1
%%c
  7
SLDTEXTSTYLE0
 11
-7.044195017643634E-15
 21
1.0
 31
0.0
 73
     1
 44
1.0
  0
MTEXT
  5
C9
330
B8
100
AcDbEntity
  8
치수문자_일반주서
100
AcDbMText
 10
-6.353261112803716
 20
12.46956236489195
 30
0.0
 40
3.5
 41
0.0
 71
     1
 72
     1
  1
10.32
  7
SLDTEXTSTYLE0
 11
-7.044195017643634E-15
 21
1.0
 31
0.0
 73
     1
 44
1.0
  0
ENDBLK
  5
BA
330
B8
100
AcDbEntity
  8
0
100
AcDbBlockEnd
  0
BLOCK
  5
CD
330
CC
100
AcDbEntity
  8
0
100
AcDbBlockBegin
  2
_D_1
 70
     0
 10
0.0
 20
0.0
 30
0.0
  3
_D_1
  1
_D_1
  0
LINE
  5
CF
330
CC
100
AcDbEntity
  8
치수문자_일반주서
 62
     0
370
    -2
100
AcDbLine
 10
27.40000000000001
 20
5.221875000000002
 30
0.0
 11
27.40000000000001
 21
14.99058684580215
 31
0.0
  0
LINE
  5
D0
330
CC
100
AcDbEntity
  8
치수문자_일반주서
 62
     0
370
    -2
100
AcDbLine
 10
1.99999999999998
 20
4.998809504174084
 30
0.0
 11
1.99999999999998
 21
14.99058684580215
 31
0.0
  0
LINE
  5
D1
330
CC
100
AcDbEntity
  8
치수문자_일반주서
 62
     0
370
    -2
100
AcDbLine
 10
24.09800000000001
 20
14.99058684580215
 30
0.0
 11
5.30199999999998
 21
14.99058684580215
 31
0.0
  0
SOLID
  5
D2
330
CC
100
AcDbEntity
  8
치수문자_일반주서
 62
     0
100
AcDbTrace
 10
24.09800000000001
 20
14.44025351246882
 30
0.0
 11
24.09800000000001
 21
15.54092017913548
 31
0.0
 12
27.40000000000001
 22
14.99058684580215
 32
0.0
 13
27.40000000000001
 23
14.99058684580215
 33
0.0
  0
SOLID
  5
D3
330
CC
100
AcDbEntity
  8
치수문자_일반주서
 62
     0
100
AcDbTrace
 10
5.30199999999998
 20
15.54092017913548
 30
0.0
 11
5.30199999999998
 21
14.44025351246882
 31
0.0
 12
1.99999999999998
 22
14.99058684580215
 32
0.0
 13
1.99999999999998
 23
14.99058684580215
 33
0.0
  0
MTEXT
  5
D4
330
CC
100
AcDbEntity
  8
치수문자_일반주서
 62
     0
100
AcDbMText
 10
14.69999999999996
 20
19.36558684580215
 30
0.0
 40
3.5
 41
0.0
 71
     2
 72
     1
  1
\A1;25.4 [1]
  7
SLDTEXTSTYLE0
 73
     1
 44
1.0
  0
POINT
  5
D5
330
CC
100
AcDbEntity
  8
Defpoints
 62
     0
100
AcDbPoint
 10
27.40000000000001
 20
5.159375000000002
 30
0.0
  0
POINT
  5
D6
330
CC
100
AcDbEntity
  8
Defpoints
 62
     0
100
AcDbPoint
 10
1.99999999999998
 20
4.936309504174084
 30
0.0
  0
POINT
  5
D7
330
CC
100
AcDbEntity
  8
Defpoints
 62
     0
100
AcDbPoint
 10
1.99999999999998
 20
14.99058684580215
 30
0.0
  0
ENDBLK
  5
CE
330
CC
100
AcDbEntity
  8
0
100
AcDbBlockEnd
  0
BLOCK
  5
E2
330
E1
100
AcDbEntity
  8
0
100
AcDbBlockBegin
  2
_D_2
 70
     0
 10
0.0
 20
0.0
 30
0.0
  3
_D_2
  1
_D_2
  0
LINE
  5
E4
330
E1
100
AcDbEntity
  8
치수문자_일반주서
 62
     0
370
    -2
100
AcDbLine
 10
29.88115766425389
 20
5.064077696114738
 30
0.0
 11
29.88115766425389
 21
27.04947043550682
 31
0.0
  0
LINE
  5
E5
330
E1
100
AcDbEntity
  8
치수문자_일반주서
 62
     0
370
    -2
100
AcDbLine
 10
-38.38134233574612
 20
3.9313835897047
 30
0.0
 11
-38.38134233574613
 21
27.04947043550682
 31
0.0
  0
LINE
  5
E6
330
E1
100
AcDbEntity
  8
치수문자_일반주서
 62
     0
370
    -2
100
AcDbLine
 10
26.57915766425389
 20
27.04947043550682
 30
0.0
 11
-35.07934233574613
 21
27.04947043550682
 31
0.0
  0
SOLID
  5
E7
330
E1
100
AcDbEntity
  8
치수문자_일반주서
 62
     0
100
AcDbTrace
 10
26.57915766425389
 20
26.49913710217348
 30
0.0
 11
26.57915766425389
 21
27.59980376884015
 31
0.0
 12
29.88115766425389
 22
27.04947043550682
 32
0.0
 13
29.88115766425389
 23
27.04947043550682
 33
0.0
  0
SOLID
  5
E8
330
E1
100
AcDbEntity
  8
치수문자_일반주서
 62
     0
100
AcDbTrace
 10
-35.07934233574613
 20
27.59980376884015
 30
0.0
 11
-35.07934233574613
 21
26.49913710217348
 31
0.0
 12
-38.38134233574613
 22
27.04947043550682
 32
0.0
 13
-38.38134233574613
 23
27.04947043550682
 33
0.0
  0
MTEXT
  5
E9
330
E1
100
AcDbEntity
  8
치수문자_일반주서
 62
     0
100
AcDbMText
 10
-3.317948997529442
 20
31.42447043550682
 30
0.0
 40
3.5
 41
0.0
 71
     2
 72
     1
  1
\A1;68.26 [2 11/16]
  7
SLDTEXTSTYLE0
 73
     1
 44
1.0
  0
POINT
  5
EA
330
E1
100
AcDbEntity
  8
Defpoints
 62
     0
100
AcDbPoint
 10
29.88115766425389
 20
5.001577696114738
 30
0.0
  0
POINT
  5
EB
330
E1
100
AcDbEntity
  8
Defpoints
 62
     0
100
AcDbPoint
 10
-38.38134233574612
 20
3.8688835897047
 30
0.0
  0
POINT
  5
EC
330
E1
100
AcDbEntity
  8
Defpoints
 62
     0
100
AcDbPoint
 10
-38.38134233574612
 20
27.04947043550682
 30
0.0
  0
ENDBLK
  5
E3
330
E1
100
AcDbEntity
  8
0
100
AcDbBlockEnd
  0
BLOCK
  5
F6
330
F5
100
AcDbEntity
  8
0
100
AcDbBlockBegin
  2
_D_3
 70
     0
 10
0.0
 20
0.0
 30
0.0
  3
_D_3
  1
_D_3
  0
LINE
  5
F8
330
F5
100
AcDbEntity
  8
치수문자_일반주서
 62
     0
370
    -2
100
AcDbLine
 10
-37.49134233574613
 20
4.821383589704697
 30
0.0
 11
-51.38134233574615
 21
4.82138358970465
 31
0.0
  0
LINE
  5
F9
330
F5
100
AcDbEntity
  8
치수문자_일반주서
 62
     0
370
    -2
100
AcDbLine
 10
-37.49134233574613
 20
-4.703616410295309
 30
0.0
 11
-51.38134233574611
 21
-4.703616410295356
 31
0.0
  0
LINE
  5
FA
330
F5
100
AcDbEntity
  8
치수문자_일반주서
 62
     0
370
    -2
100
AcDbLine
 10
-51.38134233574613
 20
1.51938358970465
 30
0.0
 11
-51.38134233574613
 21
-1.401616410295357
 31
0.0
  0
SOLID
  5
FB
330
F5
100
AcDbEntity
  8
치수문자_일반주서
 62
     0
100
AcDbTrace
 10
-50.8310090024128
 20
1.519383589704652
 30
0.0
 11
-51.93167566907947
 21
1.519383589704648
 31
0.0
 12
-51.38134233574615
 22
4.82138358970465
 32
0.0
 13
-51.38134233574615
 23
4.82138358970465
 33
0.0
  0
SOLID
  5
FC
330
F5
100
AcDbEntity
  8
치수문자_일반주서
 62
     0
100
AcDbTrace
 10
-51.93167566907946
 20
-1.401616410295359
 30
0.0
 11
-50.83100900241279
 21
-1.401616410295355
 31
0.0
 12
-51.38134233574611
 22
-4.703616410295356
 32
0.0
 13
-51.38134233574611
 23
-4.703616410295356
 33
0.0
  0
MTEXT
  5
FD
330
F5
100
AcDbEntity
  8
치수문자_일반주서
 62
     0
100
AcDbMText
 10
-55.75634233574613
 20
0.0588835897046785
 30
0.0
 40
3.5
 41
0.0
 71
     2
 72
     1
  1
\A1;%%c9.53 [3/8]
  7
SLDTEXTSTYLE0
 11
-3.729883127349604E-15
 21
1.0
 31
0.0
 73
     1
 44
1.0
  0
POINT
  5
FE
330
F5
100
AcDbEntity
  8
Defpoints
 62
     0
100
AcDbPoint
 10
-37.42884233574613
 20
4.821383589704697
 30
0.0
  0
POINT
  5
FF
330
F5
100
AcDbEntity
  8
Defpoints
 62
     0
100
AcDbPoint
 10
-37.42884233574613
 20
-4.703616410295309
 30
0.0
  0
POINT
  5
100
330
F5
100
AcDbEntity
  8
Defpoints
 62
     0
100
AcDbPoint
 10
-51.38134233574613
 20
-4.703616410295358
 30
0.0
  0
ENDBLK
  5
F7
330
F5
100
AcDbEntity
  8
0
100
AcDbBlockEnd
  0
BLOCK
  5
110
330
10F
100
AcDbEntity
  8
0
100
AcDbBlockBegin
  2
SW_DOWELSYMBOL_0
 70
     0
 10
0.0
 20
0.0
 30
0.0
  3
SW_DOWELSYMBOL_0
  1
SW_DOWELSYMBOL_0
  0
CIRCLE
  5
112
330
10F
100
AcDbEntity
  8
해칭선
 62
     0
100
AcDbCircle
 10
0.0
 20
0.0
 30
0.0
 40
2.999999999999999
  0
HATCH
  5
113
330
10F
100
AcDbEntity
  8
0
  6
Continuous
 62
     0
370
     0
100
AcDbHatch
 10
0.0
 20
0.0
 30
0.0
210
0.0
220
0.0
230
1.0
  2
SOLID
 70
     1
 71
     0
 91
        1
 92
        0
 93
        3
 72
     2
 10
0.0
 20
0.0
 40
2.999999999999999
 50
0.0
 51
90.0
 73
     1
 72
     1
 10
0.0
 20
2.999999999999999
 11
0.0
 21
0.0
 72
     1
 10
0.0
 20
0.0
 11
2.999999999999999
 21
0.0
 97
        0
 75
     0
 76
     1
 98
        1
 10
0.0
 20
0.0
  0
HATCH
  5
114
330
10F
100
AcDbEntity
  8
0
  6
Continuous
 62
     0
370
     0
100
AcDbHatch
 10
0.0
 20
0.0
 30
0.0
210
0.0
220
0.0
230
1.0
  2
SOLID
 70
     1
 71
     0
 91
        1
 92
        0
 93
        3
 72
     2
 10
0.0
 20
0.0
 40
2.999999999999999
 50
180.0
 51
270.0000000000007
 73
     1
 72
     1
 10
0.0
 20
-2.999999999999999
 11
0.0
 21
0.0
 72
     1
 10
0.0
 20
0.0
 11
-2.999999999999999
 21
0.0
 97
        0
 75
     0
 76
     1
 98
        1
 10
0.0
 20
0.0
  0
ENDBLK
  5
111
330
10F
100
AcDbEntity
  8
0
100
AcDbBlockEnd
  0
BLOCK
  5
1D5
330
1D4
100
AcDbEntity
  8
0
100
AcDbBlockBegin
  2
*D7
 70
     1
 10
0.0
 20
0.0
 30
0.0
  3
*D7
  1
*D8
  0
LINE
  5
1D7
330
1D4
100
AcDbEntity
  8
치수문자_일반주서
 62
     0
370
    -2
100
AcDbLine
 10
79.17577283782724
 20
17.07500000000002
 30
0.0
 11
79.17577283782724
 21
27.78016747178395
 31
0.0
  0
LINE
  5
1D8
330
1D4
100
AcDbEntity
  8
치수문자_일반주서
 62
     0
370
    -2
100
AcDbLine
 10
60.12577283782726
 20
16.70955620290995
 30
0.0
 11
60.12577283782726
 21
27.78016747178395
 31
0.0
  0
LINE
  5
1D9
330
1D4
100
AcDbEntity
  8
치수문자_일반주서
 62
     0
370
    -2
100
AcDbLine
 10
60.12577283782726
 20
27.78016747178395
 30
0.0
 11
27.84340433742974
 21
27.78016747178395
 31
0.0
  0
LINE
  5
1DA
330
1D4
100
AcDbEntity
  8
치수문자_일반주서
 62
     0
370
    -2
100
AcDbLine
 10
79.17577283782724
 20
27.78016747178395
 30
0.0
 11
60.12577283782726
 21
27.78016747178395
 31
0.0
  0
LINE
  5
1DB
330
1D4
100
AcDbEntity
  8
치수문자_일반주서
 62
     0
370
    -2
100
AcDbLine
 10
82.47777283782725
 20
27.78016747178395
 30
0.0
 11
85.77977283782724
 21
27.78016747178395
 31
0.0
  0
LINE
  5
1DC
330
1D4
100
AcDbEntity
  8
치수문자_일반주서
 62
     0
370
    -2
100
AcDbLine
 10
56.82377283782726
 20
27.78016747178395
 30
0.0
 11
53.52177283782726
 21
27.78016747178395
 31
0.0
  0
SOLID
  5
1DD
330
1D4
100
AcDbEntity
  8
치수문자_일반주서
 62
     0
100
AcDbTrace
 10
82.47777283782725
 20
28.33050080511729
 30
0.0
 11
82.47777283782725
 21
27.22983413845062
 31
0.0
 12
79.17577283782724
 22
27.78016747178395
 32
0.0
 13
79.17577283782724
 23
27.78016747178395
 33
0.0
  0
SOLID
  5
1DE
330
1D4
100
AcDbEntity
  8
치수문자_일반주서
 62
     0
100
AcDbTrace
 10
56.82377283782726
 20
27.22983413845062
 30
0.0
 11
56.82377283782726
 21
28.33050080511729
 31
0.0
 12
60.12577283782726
 22
27.78016747178395
 32
0.0
 13
60.12577283782726
 23
27.78016747178395
 33
0.0
  0
MTEXT
  5
1DF
330
1D4
100
AcDbEntity
  8
치수문자_일반주서
 62
     0
100
AcDbMText
 10
40.31215433742974
 20
32.15516747178395
 30
0.0
 40
3.5
 41
0.0
 71
     2
 72
     1
  1
\A1;19.05 [3/4]
  7
SLDTEXTSTYLE0
 73
     1
 44
1.0
  0
POINT
  5
1E0
330
1D4
100
AcDbEntity
  8
Defpoints
 62
     0
100
AcDbPoint
 10
79.17577283782724
 20
17.01250000000002
 30
0.0
  0
POINT
  5
1E1
330
1D4
100
AcDbEntity
  8
Defpoints
 62
     0
100
AcDbPoint
 10
60.12577283782726
 20
16.64705620290995
 30
0.0
  0
POINT
  5
1E2
330
1D4
100
AcDbEntity
  8
Defpoints
 62
     0
100
AcDbPoint
 10
60.12577283782726
 20
27.78016747178395
 30
0.0
  0
ENDBLK
  5
1D6
330
1D4
100
AcDbEntity
  8
0
100
AcDbBlockEnd
  0
BLOCK
  5
1E4
330
1E3
100
AcDbEntity
  8
0
100
AcDbBlockBegin
  2
*D8
 70
     1
 10
0.0
 20
0.0
 30
0.0
  3
*D8
  1
*D9
  0
LINE
  5
1E6
330
1E3
100
AcDbEntity
  8
치수문자_일반주서
 62
     0
370
    -2
100
AcDbLine
 10
79.17577283782724
 20
17.07500000000002
 30
0.0
 11
79.17577283782724
 21
45.89702942590523
 31
0.0
  0
LINE
  5
1E7
330
1E3
100
AcDbEntity
  8
치수문자_일반주서
 62
     0
370
    -2
100
AcDbLine
 10
15.67577283782724
 20
16.12250000000001
 30
0.0
 11
15.67577283782724
 21
45.89702942590523
 31
0.0
  0
LINE
  5
1E8
330
1E3
100
AcDbEntity
  8
치수문자_일반주서
 62
     0
370
    -2
100
AcDbLine
 10
75.87377283782723
 20
45.89702942590523
 30
0.0
 11
18.97777283782724
 21
45.89702942590523
 31
0.0
  0
SOLID
  5
1E9
330
1E3
100
AcDbEntity
  8
치수문자_일반주서
 62
     0
100
AcDbTrace
 10
75.87377283782723
 20
45.3466960925719
 30
0.0
 11
75.87377283782723
 21
46.44736275923857
 31
0.0
 12
79.17577283782724
 22
45.89702942590523
 32
0.0
 13
79.17577283782724
 23
45.89702942590523
 33
0.0
  0
SOLID
  5
1EA
330
1E3
100
AcDbEntity
  8
치수문자_일반주서
 62
     0
100
AcDbTrace
 10
18.97777283782724
 20
46.44736275923857
 30
0.0
 11
18.97777283782724
 21
45.3466960925719
 31
0.0
 12
15.67577283782724
 22
45.89702942590523
 32
0.0
 13
15.67577283782724
 23
45.89702942590523
 33
0.0
  0
MTEXT
  5
1EB
330
1E3
100
AcDbEntity
  8
치수문자_일반주서
 62
     0
100
AcDbMText
 10
47.42577283782725
 20
50.27202942590523
 30
0.0
 40
3.5
 41
0.0
 71
     2
 72
     1
  1
\A1;63.5 [2 1/2]
  7
SLDTEXTSTYLE0
 73
     1
 44
1.0
  0
POINT
  5
1EC
330
1E3
100
AcDbEntity
  8
Defpoints
 62
     0
100
AcDbPoint
 10
79.17577283782724
 20
17.01250000000002
 30
0.0
  0
POINT
  5
1ED
330
1E3
100
AcDbEntity
  8
Defpoints
 62
     0
100
AcDbPoint
 10
15.67577283782724
 20
16.06000000000001
 30
0.0
  0
POINT
  5
1EE
330
1E3
100
AcDbEntity
  8
Defpoints
 62
     0
100
AcDbPoint
 10
15.67577283782724
 20
45.89702942590523
 30
0.0
  0
ENDBLK
  5
1E5
330
1E3
100
AcDbEntity
  8
0
100
AcDbBlockEnd
  0
BLOCK
  5
1F0
330
1EF
100
AcDbEntity
  8
0
100
AcDbBlockBegin
  2
*D9
 70
     1
 10
0.0
 20
0.0
 30
0.0
  3
*D9
  1
*D10
  0
LINE
  5
1F2
330
1EF
100
AcDbEntity
  8
치수문자_일반주서
 62
     0
370
    -2
100
AcDbLine
 10
16.56577283782724
 20
17.01250000000001
 30
0.0
 11
4.375000000000027
 21
17.01249999999997
 31
0.0
  0
LINE
  5
1F3
330
1EF
100
AcDbEntity
  8
치수문자_일반주서
 62
     0
370
    -2
100
AcDbLine
 10
16.56577283782724
 20
7.487500000000009
 30
0.0
 11
4.37500000000006
 21
7.487499999999963
 31
0.0
  0
LINE
  5
1F4
330
1EF
100
AcDbEntity
  8
치수문자_일반주서
 62
     0
370
    -2
100
AcDbLine
 10
4.375000000000038
 20
13.71049999999997
 30
0.0
 11
4.375000000000048
 21
10.78949999999996
 31
0.0
  0
SOLID
  5
1F5
330
1EF
100
AcDbEntity
  8
치수문자_일반주서
 62
     0
100
AcDbTrace
 10
4.925333333333372
 20
13.71049999999997
 30
0.0
 11
3.824666666666705
 21
13.71049999999997
 31
0.0
 12
4.375000000000027
 22
17.01249999999997
 32
0.0
 13
4.375000000000027
 23
17.01249999999997
 33
0.0
  0
SOLID
  5
1F6
330
1EF
100
AcDbEntity
  8
치수문자_일반주서
 62
     0
100
AcDbTrace
 10
3.824666666666715
 20
10.78949999999996
 30
0.0
 11
4.925333333333382
 21
10.78949999999996
 31
0.0
 12
4.37500000000006
 22
7.487499999999963
 32
0.0
 13
4.37500000000006
 23
7.487499999999963
 33
0.0
  0
MTEXT
  5
1F7
330
1EF
100
AcDbEntity
  8
치수문자_일반주서
 62
     0
100
AcDbMText
 10
0.0000000000000426
 20
12.25
 30
0.0
 40
3.5
 41
0.0
 71
     2
 72
     1
  1
\A1;%%c9.53 [3/8]
  7
SLDTEXTSTYLE0
 11
-3.450141892798385E-15
 21
1.0
 31
0.0
 73
     1
 44
1.0
  0
POINT
  5
1F8
330
1EF
100
AcDbEntity
  8
Defpoints
 62
     0
100
AcDbPoint
 10
16.62827283782724
 20
17.01250000000001
 30
0.0
  0
POINT
  5
1F9
330
1EF
100
AcDbEntity
  8
Defpoints
 62
     0
100
AcDbPoint
 10
16.62827283782724
 20
7.487500000000009
 30
0.0
  0
POINT
  5
1FA
330
1EF
100
AcDbEntity
  8
Defpoints
 62
     0
100
AcDbPoint
 10
4.375000000000064
 20
7.487499999999963
 30
0.0
  0
ENDBLK
  5
1F1
330
1EF
100
AcDbEntity
  8
0
100
AcDbBlockEnd
  0
BLOCK
  5
1FC
330
1FB
100
AcDbEntity
  8
0
100
AcDbBlockBegin
  2
*D10
 70
     1
 10
0.0
 20
0.0
 30
0.0
  3
*D10
  1
*D11
  0
LINE
  5
1FE
330
1FB
100
AcDbEntity
  8
치수문자_일반주서
 62
     0
370
    -2
100
AcDbLine
 10
79.23827283782724
 20
17.01250000000002
 30
0.0
 11
114.6245847746888
 21
17.01250000000015
 31
0.0
  0
LINE
  5
1FF
330
1FB
100
AcDbEntity
  8
치수문자_일반주서
 62
     0
370
    -2
100
AcDbLine
 10
79.23827283782724
 20
7.487500000000017
 30
0.0
 11
114.6245847746889
 21
7.48750000000015
 31
0.0
  0
LINE
  5
200
330
1FB
100
AcDbEntity
  8
치수문자_일반주서
 62
     0
370
    -2
100
AcDbLine
 10
114.6245847746888
 20
17.01250000000015
 30
0.0
 11
114.6245847746887
 21
49.91148634215377
 31
0.0
  0
LINE
  5
201
330
1FB
100
AcDbEntity
  8
치수문자_일반주서
 62
     0
370
    -2
100
AcDbLine
 10
114.6245847746888
 20
17.01250000000015
 30
0.0
 11
114.6245847746889
 21
7.48750000000015
 31
0.0
  0
LINE
  5
202
330
1FB
100
AcDbEntity
  8
치수문자_일반주서
 62
     0
370
    -2
100
AcDbLine
 10
114.6245847746888
 20
20.31450000000015
 30
0.0
 11
114.6245847746888
 21
23.61650000000015
 31
0.0
  0
LINE
  5
203
330
1FB
100
AcDbEntity
  8
치수문자_일반주서
 62
     0
370
    -2
100
AcDbLine
 10
114.6245847746889
 20
4.18550000000015
 30
0.0
 11
114.6245847746889
 21
0.8835000000001507
 31
0.0
  0
SOLID
  5
204
330
1FB
100
AcDbEntity
  8
치수문자_일반주서
 62
     0
100
AcDbTrace
 10
114.0742514413555
 20
20.31450000000015
 30
0.0
 11
115.1749181080222
 21
20.31450000000015
 31
0.0
 12
114.6245847746888
 22
17.01250000000015
 32
0.0
 13
114.6245847746888
 23
17.01250000000015
 33
0.0
  0
SOLID
  5
205
330
1FB
100
AcDbEntity
  8
치수문자_일반주서
 62
     0
100
AcDbTrace
 10
115.1749181080222
 20
4.185500000000152
 30
0.0
 11
114.0742514413556
 21
4.185500000000149
 31
0.0
 12
114.6245847746889
 22
7.48750000000015
 32
0.0
 13
114.6245847746889
 23
7.48750000000015
 33
0.0
  0
MTEXT
  5
206
330
1FB
100
AcDbEntity
  8
치수문자_일반주서
 62
     0
100
AcDbMText
 10
110.2495847746888
 20
36.78648634215376
 30
0.0
 40
3.5
 41
0.0
 71
     2
 72
     1
  1
\A1;%%c9.53 [3/8]
  7
SLDTEXTSTYLE0
 11
-2.983906501879686E-15
 21
1.0
 31
0.0
 73
     1
 44
1.0
  0
POINT
  5
207
330
1FB
100
AcDbEntity
  8
Defpoints
 62
     0
100
AcDbPoint
 10
79.17577283782724
 20
17.01250000000002
 30
0.0
  0
POINT
  5
208
330
1FB
100
AcDbEntity
  8
Defpoints
 62
     0
100
AcDbPoint
 10
79.17577283782724
 20
7.487500000000017
 30
0.0
  0
POINT
  5
209
330
1FB
100
AcDbEntity
  8
Defpoints
 62
     0
100
AcDbPoint
 10
114.6245847746889
 20
7.487500000000149
 30
0.0
  0
ENDBLK
  5
1FD
330
1FB
100
AcDbEntity
  8
0
100
AcDbBlockEnd
  0
BLOCK
  5
23C
330
23B
100
AcDbEntity
  8
0
100
AcDbBlockBegin
  2
*D11
 70
     1
 10
0.0
 20
0.0
 30
0.0
  3
*D11
  1
*D12
  0
LINE
  5
23E
330
23B
100
AcDbEntity
  8
치수문자_일반주서
 62
     0
370
    -2
100
AcDbLine
 10
125.0591616232154
 20
-16.41340440103567
 30
0.0
 11
125.0591616232154
 21
-5.708236929251733
 31
0.0
  0
LINE
  5
23F
330
23B
100
AcDbEntity
  8
치수문자_일반주서
 62
     0
370
    -2
100
AcDbLine
 10
106.0091616232154
 20
-16.77884819812573
 30
0.0
 11
106.0091616232154
 21
-5.708236929251733
 31
0.0
  0
LINE
  5
240
330
23B
100
AcDbEntity
  8
치수문자_일반주서
 62
     0
370
    -2
100
AcDbLine
 10
106.0091616232154
 20
-5.708236929251733
 30
0.0
 11
73.72679312281787
 21
-5.708236929251733
 31
0.0
  0
LINE
  5
241
330
23B
100
AcDbEntity
  8
치수문자_일반주서
 62
     0
370
    -2
100
AcDbLine
 10
125.0591616232154
 20
-5.708236929251733
 30
0.0
 11
106.0091616232154
 21
-5.708236929251733
 31
0.0
  0
LINE
  5
242
330
23B
100
AcDbEntity
  8
치수문자_일반주서
 62
     0
370
    -2
100
AcDbLine
 10
128.3611616232154
 20
-5.708236929251733
 30
0.0
 11
131.6631616232154
 21
-5.708236929251733
 31
0.0
  0
LINE
  5
243
330
23B
100
AcDbEntity
  8
치수문자_일반주서
 62
     0
370
    -2
100
AcDbLine
 10
102.7071616232154
 20
-5.708236929251733
 30
0.0
 11
99.4051616232154
 21
-5.708236929251733
 31
0.0
  0
SOLID
  5
244
330
23B
100
AcDbEntity
  8
치수문자_일반주서
 62
     0
100
AcDbTrace
 10
128.3611616232154
 20
-5.157903595918399
 30
0.0
 11
128.3611616232154
 21
-6.258570262585066
 31
0.0
 12
125.0591616232154
 22
-5.708236929251733
 32
0.0
 13
125.0591616232154
 23
-5.708236929251733
 33
0.0
  0
SOLID
  5
245
330
23B
100
AcDbEntity
  8
치수문자_일반주서
 62
     0
100
AcDbTrace
 10
102.7071616232154
 20
-6.258570262585066
 30
0.0
 11
102.7071616232154
 21
-5.157903595918399
 31
0.0
 12
106.0091616232154
 22
-5.708236929251733
 32
0.0
 13
106.0091616232154
 23
-5.708236929251733
 33
0.0
  0
MTEXT
  5
246
330
23B
100
AcDbEntity
  8
치수문자_일반주서
 62
     0
100
AcDbMText
 10
86.19554312281787
 20
-1.333236929251733
 30
0.0
 40
3.5
 41
0.0
 71
     2
 72
     1
  1
\A1;19.05 [3/4]
  7
SLDTEXTSTYLE0
 73
     1
 44
1.0
  0
POINT
  5
247
330
23B
100
AcDbEntity
  8
Defpoints
 62
     0
100
AcDbPoint
 10
125.0591616232154
 20
-16.47590440103567
 30
0.0
  0
POINT
  5
248
330
23B
100
AcDbEntity
  8
Defpoints
 62
     0
100
AcDbPoint
 10
106.0091616232154
 20
-16.84134819812573
 30
0.0
  0
POINT
  5
249
330
23B
100
AcDbEntity
  8
Defpoints
 62
     0
100
AcDbPoint
 10
106.0091616232154
 20
-5.708236929251733
 30
0.0
  0
ENDBLK
  5
23D
330
23B
100
AcDbEntity
  8
0
100
AcDbBlockEnd
  0
BLOCK
  5
24B
330
24A
100
AcDbEntity
  8
0
100
AcDbBlockBegin
  2
*D12
 70
     1
 10
0.0
 20
0.0
 30
0.0
  3
*D12
  1
*D13
  0
LINE
  5
24D
330
24A
100
AcDbEntity
  8
치수문자_일반주서
 62
     0
370
    -2
100
AcDbLine
 10
27.40000000000001
 20
5.221875000000002
 30
0.0
 11
27.40000000000001
 21
33.64702942590522
 31
0.0
  0
LINE
  5
24E
330
24A
100
AcDbEntity
  8
치수문자_일반주서
 62
     0
370
    -2
100
AcDbLine
 10
-40.8625
 20
3.872500000000001
 30
0.0
 11
-40.8625
 21
33.64702942590522
 31
0.0
  0
LINE
  5
24F
330
24A
100
AcDbEntity
  8
치수문자_일반주서
 62
     0
370
    -2
100
AcDbLine
 10
24.09800000000001
 20
33.64702942590522
 30
0.0
 11
-37.5605
 21
33.64702942590522
 31
0.0
  0
SOLID
  5
250
330
24A
100
AcDbEntity
  8
치수문자_일반주서
 62
     0
100
AcDbTrace
 10
24.09800000000001
 20
33.09669609257188
 30
0.0
 11
24.09800000000001
 21
34.19736275923855
 31
0.0
 12
27.40000000000001
 22
33.64702942590522
 32
0.0
 13
27.40000000000001
 23
33.64702942590522
 33
0.0
  0
SOLID
  5
251
330
24A
100
AcDbEntity
  8
치수문자_일반주서
 62
     0
100
AcDbTrace
 10
-37.5605
 20
34.19736275923855
 30
0.0
 11
-37.5605
 21
33.09669609257188
 31
0.0
 12
-40.8625
 22
33.64702942590522
 32
0.0
 13
-40.8625
 23
33.64702942590522
 33
0.0
  0
MTEXT
  5
252
330
24A
100
AcDbEntity
  8
치수문자_일반주서
 62
     0
100
AcDbMText
 10
-9.112499999999999
 20
38.02202942590522
 30
0.0
 40
3.5
 41
0.0
 71
     2
 72
     1
  1
\A1;68.26 [2 11/16]
  7
SLDTEXTSTYLE0
 73
     1
 44
1.0
  0
POINT
  5
253
330
24A
100
AcDbEntity
  8
Defpoints
 62
     0
100
AcDbPoint
 10
27.40000000000001
 20
5.159375000000002
 30
0.0
  0
POINT
  5
254
330
24A
100
AcDbEntity
  8
Defpoints
 62
     0
100
AcDbPoint
 10
-40.8625
 20
3.810000000000001
 30
0.0
  0
POINT
  5
255
330
24A
100
AcDbEntity
  8
Defpoints
 62
     0
100
AcDbPoint
 10
-40.8625
 20
33.64702942590522
 30
0.0
  0
ENDBLK
  5
24C
330
24A
100
AcDbEntity
  8
0
100
AcDbBlockEnd
  0
BLOCK
  5
257
330
256
100
AcDbEntity
  8
0
100
AcDbBlockBegin
  2
*D13
 70
     1
 10
0.0
 20
0.0
 30
0.0
  3
*D13
  1
*D14
  0
LINE
  5
259
330
256
100
AcDbEntity
  8
치수문자_일반주서
 62
     0
370
    -2
100
AcDbLine
 10
-39.9725
 20
4.762500000000001
 30
0.0
 11
-52.16327283782721
 21
4.762499999999954
 31
0.0
  0
LINE
  5
25A
330
256
100
AcDbEntity
  8
치수문자_일반주서
 62
     0
370
    -2
100
AcDbLine
 10
-39.9725
 20
-4.762500000000006
 30
0.0
 11
-52.16327283782717
 21
-4.762500000000053
 31
0.0
  0
LINE
  5
25B
330
256
100
AcDbEntity
  8
치수문자_일반주서
 62
     0
370
    -2
100
AcDbLine
 10
-52.16327283782719
 20
1.460499999999954
 30
0.0
 11
-52.16327283782719
 21
-1.460500000000053
 31
0.0
  0
SOLID
  5
25C
330
256
100
AcDbEntity
  8
치수문자_일반주서
 62
     0
100
AcDbTrace
 10
-51.61293950449386
 20
1.460499999999956
 30
0.0
 11
-52.71360617116053
 21
1.460499999999952
 31
0.0
 12
-52.16327283782721
 22
4.762499999999954
 32
0.0
 13
-52.16327283782721
 23
4.762499999999954
 33
0.0
  0
SOLID
  5
25D
330
256
100
AcDbEntity
  8
치수문자_일반주서
 62
     0
100
AcDbTrace
 10
-52.71360617116052
 20
-1.460500000000055
 30
0.0
 11
-51.61293950449385
 21
-1.460500000000051
 31
0.0
 12
-52.16327283782717
 22
-4.762500000000053
 32
0.0
 13
-52.16327283782717
 23
-4.762500000000053
 33
0.0
  0
MTEXT
  5
25E
330
256
100
AcDbEntity
  8
치수문자_일반주서
 62
     0
100
AcDbMText
 10
-56.53827283782719
 20
-0.0000000000000137
 30
0.0
 40
3.5
 41
0.0
 71
     2
 72
     1
  1
\A1;%%c9.53 [3/8]
  7
SLDTEXTSTYLE0
 11
-3.729883127349605E-15
 21
1.0
 31
0.0
 73
     1
 44
1.0
  0
POINT
  5
25F
330
256
100
AcDbEntity
  8
Defpoints
 62
     0
100
AcDbPoint
 10
-39.91
 20
4.762500000000001
 30
0.0
  0
POINT
  5
260
330
256
100
AcDbEntity
  8
Defpoints
 62
     0
100
AcDbPoint
 10
-39.91
 20
-4.762500000000006
 30
0.0
  0
POINT
  5
261
330
256
100
AcDbEntity
  8
Defpoints
 62
     0
100
AcDbPoint
 10
-52.16327283782717
 20
-4.762500000000052
 30
0.0
  0
ENDBLK
  5
258
330
256
100
AcDbEntity
  8
0
100
AcDbBlockEnd
  0
BLOCK
  5
263
330
262
100
AcDbEntity
  8
0
100
AcDbBlockBegin
  2
*D14
 70
     1
 10
0.0
 20
0.0
 30
0.0
  3
*D14
  1
*D15
  0
LINE
  5
265
330
262
100
AcDbEntity
  8
치수문자_일반주서
 62
     0
370
    -2
100
AcDbLine
 10
125.1216616232154
 20
-16.47590440103567
 30
0.0
 11
160.507973560077
 21
-16.47590440103554
 31
0.0
  0
LINE
  5
266
330
262
100
AcDbEntity
  8
치수문자_일반주서
 62
     0
370
    -2
100
AcDbLine
 10
125.1216616232154
 20
-26.00090440103567
 30
0.0
 11
160.507973560077
 21
-26.00090440103553
 31
0.0
  0
LINE
  5
267
330
262
100
AcDbEntity
  8
치수문자_일반주서
 62
     0
370
    -2
100
AcDbLine
 10
160.507973560077
 20
-16.47590440103554
 30
0.0
 11
160.5079735600769
 21
16.42308194111808
 31
0.0
  0
LINE
  5
268
330
262
100
AcDbEntity
  8
치수문자_일반주서
 62
     0
370
    -2
100
AcDbLine
 10
160.507973560077
 20
-16.47590440103554
 30
0.0
 11
160.507973560077
 21
-26.00090440103553
 31
0.0
  0
LINE
  5
269
330
262
100
AcDbEntity
  8
치수문자_일반주서
 62
     0
370
    -2
100
AcDbLine
 10
160.507973560077
 20
-13.17390440103554
 30
0.0
 11
160.507973560077
 21
-9.871904401035536
 31
0.0
  0
LINE
  5
26A
330
262
100
AcDbEntity
  8
치수문자_일반주서
 62
     0
370
    -2
100
AcDbLine
 10
160.507973560077
 20
-29.30290440103553
 30
0.0
 11
160.507973560077
 21
-32.60490440103553
 31
0.0
  0
SOLID
  5
26B
330
262
100
AcDbEntity
  8
치수문자_일반주서
 62
     0
100
AcDbTrace
 10
159.9576402267436
 20
-13.17390440103554
 30
0.0
 11
161.0583068934103
 21
-13.17390440103553
 31
0.0
 12
160.507973560077
 22
-16.47590440103554
 32
0.0
 13
160.507973560077
 23
-16.47590440103554
 33
0.0
  0
SOLID
  5
26C
330
262
100
AcDbEntity
  8
치수문자_일반주서
 62
     0
100
AcDbTrace
 10
161.0583068934103
 20
-29.30290440103553
 30
0.0
 11
159.9576402267437
 21
-29.30290440103553
 31
0.0
 12
160.507973560077
 22
-26.00090440103553
 32
0.0
 13
160.507973560077
 23
-26.00090440103553
 33
0.0
  0
MTEXT
  5
26D
330
262
100
AcDbEntity
  8
치수문자_일반주서
 62
     0
100
AcDbMText
 10
156.1329735600769
 20
3.298081941118071
 30
0.0
 40
3.5
 41
0.0
 71
     2
 72
     1
  1
\A1;%%c9.53 [3/8]
  7
SLDTEXTSTYLE0
 11
-2.983906501879685E-15
 21
1.0
 31
0.0
 73
     1
 44
1.0
  0
POINT
  5
26E
330
262
100
AcDbEntity
  8
Defpoints
 62
     0
100
AcDbPoint
 10
125.0591616232154
 20
-16.47590440103567
 30
0.0
  0
POINT
  5
26F
330
262
100
AcDbEntity
  8
Defpoints
 62
     0
100
AcDbPoint
 10
125.0591616232154
 20
-26.00090440103567
 30
0.0
  0
POINT
  5
270
330
262
100
AcDbEntity
  8
Defpoints
 62
     0
100
AcDbPoint
 10
160.507973560077
 20
-26.00090440103554
 30
0.0
  0
ENDBLK
  5
264
330
262
100
AcDbEntity
  8
0
100
AcDbBlockEnd
  0
BLOCK
  5
27C
330
27B
100
AcDbEntity
  8
0
100
AcDbBlockBegin
  2
*D15
 70
     1
 10
0.0
 20
0.0
 30
0.0
  3
*D15
  1
*D16
  0
LINE
  5
27E
330
27B
100
AcDbEntity
  8
0
 62
     0
370
    -2
100
AcDbLine
 10
30.88115766425389
 20
5.064077696114738
 30
0.0
 11
51.07147927670842
 21
5.064077696114735
 31
0.0
  0
LINE
  5
27F
330
27B
100
AcDbEntity
  8
0
 62
     0
370
    -2
100
AcDbLine
 10
30.88115766425389
 20
-5.081518280961752
 30
0.0
 11
51.07147927670842
 21
-5.081518280961753
 31
0.0
  0
LINE
  5
280
330
27B
100
AcDbEntity
  8
0
 62
     0
370
    -2
100
AcDbLine
 10
50.07147927670842
 20
-8.383518280961752
 30
0.0
 11
36.88081261004174
 21
-8.383518280961752
 31
0.0
  0
LINE
  5
281
330
27B
100
AcDbEntity
  8
0
 62
     0
370
    -2
100
AcDbLine
 10
50.07147927670842
 20
1.762077696114735
 30
0.0
 11
50.07147927670842
 21
-1.779518280961753
 31
0.0
  0
LINE
  5
282
330
27B
100
AcDbEntity
  8
0
 62
     0
370
    -2
100
AcDbLine
 10
50.07147927670842
 20
-5.081518280961753
 30
0.0
 11
50.07147927670842
 21
-8.383518280961752
 31
0.0
  0
SOLID
  5
283
330
27B
100
AcDbEntity
  8
0
 62
     0
100
AcDbTrace
 10
50.62181261004175
 20
1.762077696114735
 30
0.0
 11
49.52114594337508
 21
1.762077696114735
 31
0.0
 12
50.07147927670842
 22
5.064077696114735
 32
0.0
 13
50.07147927670842
 23
5.064077696114735
 33
0.0
  0
SOLID
  5
284
330
27B
100
AcDbEntity
  8
0
 62
     0
100
AcDbTrace
 10
49.52114594337508
 20
-1.779518280961753
 30
0.0
 11
50.62181261004175
 21
-1.779518280961753
 31
0.0
 12
50.07147927670842
 22
-5.081518280961753
 32
0.0
 13
50.07147927670842
 23
-5.081518280961753
 33
0.0
  0
MTEXT
  5
285
330
27B
100
AcDbEntity
  8
0
 62
     0
100
AcDbMText
 10
42.71414594337508
 20
-4.817851614295085
 30
0.0
 40
3.5
 41
0.0
 71
     5
 72
     1
  1
10,15
 73
     1
 44
1.0
  0
POINT
  5
286
330
27B
100
AcDbEntity
  8
Defpoints
 62
     0
100
AcDbPoint
 10
29.88115766425389
 20
5.064077696114738
 30
0.0
  0
POINT
  5
287
330
27B
100
AcDbEntity
  8
Defpoints
 62
     0
100
AcDbPoint
 10
29.88115766425389
 20
-5.081518280961752
 30
0.0
  0
POINT
  5
288
330
27B
100
AcDbEntity
  8
Defpoints
 62
     0
100
AcDbPoint
 10
50.07147927670842
 20
-5.081518280961753
 30
0.0
  0
ENDBLK
  5
27D
330
27B
100
AcDbEntity
  8
0
100
AcDbBlockEnd
  0
BLOCK
  5
291
330
290
100
AcDbEntity
  8
0
100
AcDbBlockBegin
  2
*D16
 70
     1
 10
0.0
 20
0.0
 30
0.0
  3
*D16
  1
*D17
  0
LINE
  5
293
330
290
100
AcDbEntity
  8
0
 62
     0
370
    -2
100
AcDbLine
 10
37.36886223627672
 20
5.218258589704694
 30
0.0
 11
46.55008401728894
 21
5.218258589704694
 31
0.0
  0
LINE
  5
294
330
290
100
AcDbEntity
  8
0
 62
     0
370
    -2
100
AcDbLine
 10
34.89069739658649
 20
-5.100491410295307
 30
0.0
 11
46.55008401728894
 21
-5.100491410295308
 31
0.0
  0
LINE
  5
295
330
290
100
AcDbEntity
  8
0
 62
     0
370
    -2
100
AcDbLine
 10
45.55008401728894
 20
-8.402491410295308
 30
0.0
 11
31.19275068395561
 21
-8.402491410295308
 31
0.0
  0
LINE
  5
296
330
290
100
AcDbEntity
  8
0
 62
     0
370
    -2
100
AcDbLine
 10
45.55008401728894
 20
1.916258589704694
 30
0.0
 11
45.55008401728894
 21
-1.798491410295308
 31
0.0
  0
LINE
  5
297
330
290
100
AcDbEntity
  8
0
 62
     0
370
    -2
100
AcDbLine
 10
45.55008401728894
 20
-5.100491410295308
 30
0.0
 11
45.55008401728894
 21
-8.402491410295308
 31
0.0
  0
SOLID
  5
298
330
290
100
AcDbEntity
  8
0
 62
     0
100
AcDbTrace
 10
46.10041735062227
 20
1.916258589704694
 30
0.0
 11
44.9997506839556
 21
1.916258589704694
 31
0.0
 12
45.55008401728894
 22
5.218258589704694
 32
0.0
 13
45.55008401728894
 23
5.218258589704694
 33
0.0
  0
SOLID
  5
299
330
290
100
AcDbEntity
  8
0
 62
     0
100
AcDbTrace
 10
44.9997506839556
 20
-1.798491410295308
 30
0.0
 11
46.10041735062227
 21
-1.798491410295308
 31
0.0
 12
45.55008401728894
 22
-5.100491410295308
 32
0.0
 13
45.55008401728894
 23
-5.100491410295308
 33
0.0
  0
MTEXT
  5
29A
330
290
100
AcDbEntity
  8
0
 62
     0
100
AcDbMText
 10
37.60941735062227
 20
-4.836824743628641
 30
0.0
 40
3.5
 41
0.0
 71
     5
 72
     1
  1
10,32
 73
     1
 44
1.0
  0
POINT
  5
29B
330
290
100
AcDbEntity
  8
Defpoints
 62
     0
100
AcDbPoint
 10
36.36886223627672
 20
5.218258589704694
 30
0.0
  0
POINT
  5
29C
330
290
100
AcDbEntity
  8
Defpoints
 62
     0
100
AcDbPoint
 10
33.89069739658649
 20
-5.100491410295307
 30
0.0
  0
POINT
  5
29D
330
290
100
AcDbEntity
  8
Defpoints
 62
     0
100
AcDbPoint
 10
45.55008401728894
 20
-5.100491410295308
 30
0.0
  0
ENDBLK
  5
292
330
290
100
AcDbEntity
  8
0
100
AcDbBlockEnd
  0
BLOCK
  5
2E0
330
2DF
100
AcDbEntity
  8
0
100
AcDbBlockBegin
  2
*D17
 70
     1
 10
0.0
 20
0.0
 30
0.0
  3
*D17
  1
*D18
  0
LINE
  5
2E2
330
2DF
100
AcDbEntity
  8
치수문자_일반주서
 62
     0
370
    -2
100
AcDbLine
 10
27.46250000000001
 20
5.159375000000002
 30
0.0
 11
42.03668161735342
 21
5.159375000000004
 31
0.0
  0
LINE
  5
2E3
330
2DF
100
AcDbEntity
  8
치수문자_일반주서
 62
     0
370
    -2
100
AcDbLine
 10
27.46250000000001
 20
-5.159374999999997
 30
0.0
 11
42.03668161735342
 21
-5.159374999999997
 31
0.0
  0
LINE
  5
2E4
330
2DF
100
AcDbEntity
  8
치수문자_일반주서
 62
     0
370
    -2
100
AcDbLine
 10
42.03668161735342
 20
5.159375000000004
 30
0.0
 11
42.03668161735342
 21
41.075875
 31
0.0
  0
LINE
  5
2E5
330
2DF
100
AcDbEntity
  8
치수문자_일반주서
 62
     0
370
    -2
100
AcDbLine
 10
42.03668161735342
 20
5.159375000000004
 30
0.0
 11
42.03668161735342
 21
-5.159374999999997
 31
0.0
  0
LINE
  5
2E6
330
2DF
100
AcDbEntity
  8
치수문자_일반주서
 62
     0
370
    -2
100
AcDbLine
 10
42.03668161735342
 20
8.461375000000004
 30
0.0
 11
42.03668161735342
 21
11.763375
 31
0.0
  0
LINE
  5
2E7
330
2DF
100
AcDbEntity
  8
치수문자_일반주서
 62
     0
370
    -2
100
AcDbLine
 10
42.03668161735342
 20
-8.461374999999997
 30
0.0
 11
42.03668161735342
 21
-11.763375
 31
0.0
  0
SOLID
  5
2E8
330
2DF
100
AcDbEntity
  8
치수문자_일반주서
 62
     0
100
AcDbTrace
 10
41.48634828402009
 20
8.461375000000004
 30
0.0
 11
42.58701495068676
 21
8.461375000000004
 31
0.0
 12
42.03668161735342
 22
5.159375000000004
 32
0.0
 13
42.03668161735342
 23
5.159375000000004
 33
0.0
  0
SOLID
  5
2E9
330
2DF
100
AcDbEntity
  8
치수문자_일반주서
 62
     0
100
AcDbTrace
 10
42.58701495068676
 20
-8.461374999999997
 30
0.0
 11
41.48634828402009
 21
-8.461374999999997
 31
0.0
 12
42.03668161735342
 22
-5.159374999999997
 32
0.0
 13
42.03668161735342
 23
-5.159374999999997
 33
0.0
  0
MTEXT
  5
2EA
330
2DF
100
AcDbEntity
  8
치수문자_일반주서
 62
     0
100
AcDbMText
 10
39.41168161735342
 20
26.419625
 30
0.0
 40
3.5
 41
0.0
 71
     5
 72
     1
  1
\A1;10.32 [13/32]
  7
SLDTEXTSTYLE0
 11
0.0
 21
1.0
 31
0.0
 73
     1
 44
1.0
  0
POINT
  5
2EB
330
2DF
100
AcDbEntity
  8
Defpoints
 62
     0
100
AcDbPoint
 10
27.40000000000001
 20
5.159375000000002
 30
0.0
  0
POINT
  5
2EC
330
2DF
100
AcDbEntity
  8
Defpoints
 62
     0
100
AcDbPoint
 10
27.40000000000001
 20
-5.159374999999997
 30
0.0
  0
POINT
  5
2ED
330
2DF
100
AcDbEntity
  8
Defpoints
 62
     0
100
AcDbPoint
 10
42.03668161735342
 20
-5.159374999999998
 30
0.0
  0
ENDBLK
  5
2E1
330
2DF
100
AcDbEntity
  8
0
100
AcDbBlockEnd
  0
ENDSEC
  0
SECTION
  2
ENTITIES
  0
LINE
  5
96
330
1F
100
AcDbEntity
  8
0
  6
Continuous
 62
     1
370
    15
100
AcDbLine
 10
14.12935982892498
 20
-5.159374999999998
 30
0.0
 11
17.27567911943258
 21
-5.159374999999998
 31
0.0
  0
LINE
  5
97
330
1F
100
AcDbEntity
  8
0
  6
Continuous
 62
     1
370
    15
100
AcDbLine
 10
3.238548940960899
 20
5.159375000000002
 30
0.0
 11
2.0
 21
5.159375000000002
 31
0.0
  0
LINE
  5
98
330
1F
100
AcDbEntity
  8
0
  6
Continuous
 62
     1
370
    15
100
AcDbLine
 10
17.2756791194326
 20
5.159375000000002
 30
0.0
 11
14.12935982892504
 21
5.159375000000002
 31
0.0
  0
LINE
  5
99
330
1F
100
AcDbEntity
  8
0
  6
Continuous
 62
     1
370
    15
100
AcDbLine
 10
2.0
 20
-5.159374999999998
 30
0.0
 11
3.23854894096085
 21
-5.159374999999998
 31
0.0
  0
SPLINE
  5
9A
330
1F
100
AcDbEntity
  8
0
  6
Continuous
 62
     1
370
    15
100
AcDbSpline
210
0.0
220
0.0
230
1.0
 70
     8
 71
     3
 72
    28
 73
    24
 74
     0
 42
0.000000001
 43
0.00000001
 40
0.0
 40
0.0
 40
0.0
 40
0.0
 40
0.0481322390801562
 40
0.0960936984463085
 40
0.1442276071971675
 40
0.1921874492519229
 40
0.2403228796584882
 40
0.2882812544461388
 40
0.3364180584737876
 40
0.3843751160542695
 40
0.4347993518890994
 40
0.4850511632383225
 40
0.5354643551432685
 40
0.5857287316691524
 40
0.636125729208071
 40
0.6864074208406886
 40
0.7367830805172797
 40
0.7870868309898402
 40
0.8374360184471592
 40
0.8877665636004184
 40
0.9380864843820174
 40
0.988446221670269
 40
1.0
 40
1.0
 40
1.0
 40
1.0
 10
1.999999999999994
 20
0.7122384765573129
 30
0.0
 10
2.332671010644368
 20
0.5216249498695159
 30
0.0
 10
2.996832670056292
 20
0.1410742191457484
 30
0.0
 10
3.992116970209533
 20
-0.4368875787867507
 30
0.0
 10
4.988203180650608
 20
-1.004721710355463
 30
0.0
 10
5.983368022122562
 20
-1.564501086016071
 30
0.0
 10
6.979491602856621
 20
-2.100635594063906
 30
0.0
 10
7.974641950085132
 20
-2.614800966162396
 30
0.0
 10
8.970768543999803
 20
-3.092673138758317
 30
0.0
 10
9.981709458741532
 20
-3.542799687017132
 30
0.0
 10
11.00948729062646
 20
-3.950364972130072
 30
0.0
 10
12.05209256021571
 20
-4.313266218814198
 30
0.0
 10
13.09559417539689
 20
-4.615202373350439
 30
0.0
 10
14.1382643320158
 20
-4.856049549605394
 30
0.0
 10
15.18166291509265
 20
-5.029616903473079
 30
0.0
 10
16.22441514202541
 20
-5.135474356661971
 30
0.0
 10
17.26767998581325
 20
-5.171074644512808
 30
0.0
 10
18.31053574085107
 20
-5.136475782273259
 30
0.0
 10
19.35363674606099
 20
-5.031704956210192
 30
0.0
 10
20.39662702644967
 20
-4.859630697952166
 30
0.0
 10
21.43955957835545
 20
-4.616850734356509
 30
0.0
 10
22.21504265779758
 20
-4.402244417296042
 30
0.0
 10
22.64263518231322
 20
-4.253360305276424
 30
0.0
 10
22.72242889446787
 20
-4.225576807442002
 30
0.0
  0
SPLINE
  5
9B
330
1F
100
AcDbEntity
  8
외형선
  6
Continuous
370
    15
100
AcDbSpline
210
0.0
220
0.0
230
1.0
 70
    24
 71
     3
 72
    25
 73
    21
 74
     0
 42
0.000000001
 43
0.00000001
 40
0.0
 40
0.0
 40
0.0
 40
0.0
 40
0.0915460998983641
 40
0.1852185845933008
 40
0.2361557153356786
 40
0.2870928460780565
 40
0.3395098106759176
 40
0.3919267752737786
 40
0.4428639060161578
 40
0.493801036758537
 40
0.5462180013563993
 40
0.5986349659542618
 40
0.6495720966966406
 40
0.7005092274390194
 40
0.7529261920368816
 40
0.8053431566347438
 40
0.8562802873771234
 40
0.907217418119503
 40
0.9596343827173655
 40
1.0
 40
1.0
 40
1.0
 40
1.0
 10
2.000000000000007
 20
5.042193652862487
 30
0.0
 10
1.999999999999994
 20
4.904889294930379
 30
0.0
 10
1.999999999999959
 20
4.627091345450159
 30
0.0
 10
1.99999999999998
 20
4.242909995671972
 30
0.0
 10
1.999999999999994
 20
3.91860187397765
 30
0.0
 10
2.000000000000056
 20
3.659549556151666
 30
0.0
 10
2.000000000000028
 20
3.396993101948953
 30
0.0
 10
2.000000000000042
 20
3.135218703988183
 30
0.0
 10
1.999999999999994
 20
2.878618542285881
 30
0.0
 10
1.999999999999994
 20
2.626388674417475
 30
0.0
 10
1.99999999999998
 20
2.37805348759022
 30
0.0
 10
1.99999999999998
 20
2.137867647145074
 30
0.0
 10
1.999999999999994
 20
1.909735589277967
 30
0.0
 10
2.00000000000007
 20
1.692700401351153
 30
0.0
 10
2.0
 20
1.486593220763607
 30
0.0
 10
1.999999999999987
 20
1.295106206207956
 30
0.0
 10
2.0
 20
1.121032600682708
 30
0.0
 10
1.99999999999998
 20
0.9641518647812504
 30
0.0
 10
1.99999999999998
 20
0.8326517548777816
 30
0.0
 10
1.999999999999973
 20
0.7626958094788421
 30
0.0
 10
1.999999999999973
 20
0.7322610569489382
 30
0.0
  0
SPLINE
  5
9C
330
1F
100
AcDbEntity
  8
0
  6
Continuous
 62
     1
370
    15
100
AcDbSpline
210
0.0
220
0.0
230
1.0
 70
     8
 71
     3
 72
    56
 73
    52
 74
     0
 42
0.000000001
 43
0.00000001
 40
0.0
 40
0.0
 40
0.0
 40
0.0
 40
0.0624999999999985
 40
0.0624999999999985
 40
0.0937499999999978
 40
0.0937499999999978
 40
0.1249999999999971
 40
0.1249999999999971
 40
0.1874999999999968
 40
0.1874999999999968
 40
0.2187499999999973
 40
0.2187499999999973
 40
0.2499999999999972
 40
0.2499999999999972
 40
0.3124999999999968
 40
0.3124999999999968
 40
0.3749999999999966
 40
0.3749999999999966
 40
0.4062499999999968
 40
0.4062499999999968
 40
0.4374999999999969
 40
0.4374999999999969
 40
0.4999999999999967
 40
0.4999999999999967
 40
0.5312499999999968
 40
0.5312499999999968
 40
0.562499999999997
 40
0.562499999999997
 40
0.6249999999999972
 40
0.6249999999999972
 40
0.6562499999999974
 40
0.6562499999999974
 40
0.6874999999999976
 40
0.6874999999999976
 40
0.7187499999999978
 40
0.7187499999999978
 40
0.7499999999999979
 40
0.7499999999999979
 40
0.781249999999998
 40
0.781249999999998
 40
0.8124999999999982
 40
0.8124999999999982
 40
0.8437499999999983
 40
0.8437499999999983
 40
0.8749999999999984
 40
0.8749999999999984
 40
0.9374999999999989
 40
0.9374999999999989
 40
0.9687499999999994
 40
0.9687499999999994
 40
1.0
 40
1.0
 40
1.0
 40
1.0
 10
27.40000000000001
 20
-5.159374999999997
 30
0.0
 10
26.8741799507734
 20
-5.114280822748368
 30
0.0
 10
26.34045336983849
 20
-5.060895283147533
 30
0.0
 10
25.54678740712222
 20
-4.941552850384499
 30
0.0
 10
25.28446902293725
 20
-4.895354399269329
 30
0.0
 10
24.75561160951393
 20
-4.789985696686101
 30
0.0
 10
24.48994329794209
 20
-4.73084159949677
 30
0.0
 10
23.69392801855276
 20
-4.535014619311577
 30
0.0
 10
23.16891831595223
 20
-4.380393899753039
 30
0.0
 10
22.37316592600819
 20
-4.114398341182354
 30
0.0
 10
22.10741839677538
 20
-4.020131477319991
 30
0.0
 10
21.57807196124043
 20
-3.82153253880641
 30
0.0
 10
21.31569596021718
 20
-3.71737868282222
 30
0.0
 10
20.52281579280051
 20
-3.389945089313361
 30
0.0
 10
19.98894641835007
 20
-3.151827241021013
 30
0.0
 10
18.9357093724183
 20
-2.647243308425552
 30
0.0
 10
18.40373042049935
 20
-2.378811243006004
 30
0.0
 10
17.60938326760414
 20
-1.960110585627357
 30
0.0
 10
17.34689203923704
 20
-1.818191609839317
 30
0.0
 10
16.81859327305748
 20
-1.52936574359673
 30
0.0
 10
16.55303953890948
 20
-1.382494507380362
 30
0.0
 10
15.7568670128764
 20
-0.9370826502859633
 30
0.0
 10
15.23166089426004
 20
-0.6346914472781172
 30
0.0
 10
14.43627692025967
 20
-0.17705325015566
 30
0.0
 10
14.17048556836643
 20
-0.0239456190463554
 30
0.0
 10
13.64071995145612
 20
0.2815814697349926
 30
0.0
 10
13.37805589790381
 20
0.433748965059432
 30
0.0
 10
12.58606578466269
 20
0.8887139434283754
 30
0.0
 10
12.05212545059754
 20
1.190049499002238
 30
0.0
 10
11.26110291725762
 20
1.628486148460899
 30
0.0
 10
10.99793640539745
 20
1.772596756938806
 30
0.0
 10
10.46782957694131
 20
2.056459160338764
 30
0.0
 10
10.20202959355193
 20
2.195997896367791
 30
0.0
 10
9.672080635244443
 20
2.468641488627047
 30
0.0
 10
9.409186177658164
 20
2.601542128041795
 30
0.0
 10
8.881515437852133
 20
2.860494867589432
 30
0.0
 10
8.616111589946852
 20
2.986636243579651
 30
0.0
 10
8.085295549755942
 20
3.230713521858166
 30
0.0
 10
7.819887487973963
 20
3.34864752453848
 30
0.0
 10
7.292200057768746
 20
3.574964244641465
 30
0.0
 10
7.029318601015424
 20
3.683451063091542
 30
0.0
 10
6.499378471370171
 20
3.891020801166965
 30
0.0
 10
6.233578711316049
 20
3.989919314504315
 30
0.0
 10
5.703463938772398
 20
4.176770345782758
 30
0.0
 10
5.440281523620068
 20
4.26460679041242
 30
0.0
 10
4.649285331752842
 20
4.511181257771311
 30
0.0
 10
4.115345904034284
 20
4.653254494553674
 30
0.0
 10
3.323332063818656
 20
4.827849123058746
 30
0.0
 10
3.060678107211694
 20
4.879700822956305
 30
0.0
 10
2.530922202563282
 20
4.970728061199502
 30
0.0
 10
2.265131520651025
 20
5.009800249435546
 30
0.0
 10
2.000000000000021
 20
5.042193652862484
 30
0.0
  0
LINE
  5
9D
330
1F
100
AcDbEntity
  8
0
  6
Continuous
 62
     1
370
    15
100
AcDbLine
 10
27.40000000000001
 20
-4.67274971131636
 30
0.0
 11
27.40000000000001
 21
0.442062211316429
 31
0.0
  0
SPLINE
  5
9E
330
1F
100
AcDbEntity
  8
0
  6
Continuous
 62
     1
370
    15
100
AcDbSpline
210
0.0
220
0.0
230
1.0
 70
     8
 71
     3
 72
    31
 73
    27
 74
     0
 42
0.000000001
 43
0.00000001
 40
0.0
 40
0.0
 40
0.0
 40
0.0
 40
0.0311645175801537
 40
0.0724466759960725
 40
0.1135795457065866
 40
0.1548630091740491
 40
0.1959946204795296
 40
0.2372792620362986
 40
0.2784097436359976
 40
0.3216562063845261
 40
0.3647547888732893
 40
0.4079917797697529
 40
0.4511011388114055
 40
0.4943242405723067
 40
0.5374484499553864
 40
0.5806532512492006
 40
0.6237963794474906
 40
0.6669784767810827
 40
0.7101445854993846
 40
0.7533015822007045
 40
0.7964927276212508
 40
0.8371711085855862
 40
0.8778956742062008
 40
0.9185850961324636
 40
0.9592985643543784
 40
1.0
 40
1.0
 40
1.0
 40
1.0
 10
3.238548940960899
 20
5.153505876806538
 30
0.0
 10
3.489394391070924
 20
5.15229512504694
 30
0.0
 10
4.072522912231936
 20
5.14948054785306
 30
0.0
 10
4.988195044209469
 20
5.070191423485474
 30
0.0
 10
5.98337020805964
 20
4.92801326002743
 30
0.0
 10
6.979491018705797
 20
4.723978425123417
 30
0.0
 10
7.974642107012134
 20
4.460108808636179
 30
0.0
 10
8.970768502131083
 20
4.14304545251841
 30
0.0
 10
9.981709470584272
 20
3.7661017664818
 30
0.0
 10
11.00948728740992
 20
3.336896382765772
 30
0.0
 10
12.05209256103852
 20
2.85238722852985
 30
0.0
 10
13.09559417533012
 20
2.33241152363691
 30
0.0
 10
14.13826433146337
 20
1.777409583868214
 30
0.0
 10
15.18166291737464
 20
1.20131354539286
 30
0.0
 10
16.22441513346698
 20
0.6061056014013633
 30
0.0
 10
17.26768001781869
 20
0.0049698627305665
 30
0.0
 10
18.31053562155213
 20
-0.597996581867432
 30
0.0
 10
19.35363719168923
 20
-1.191690951642898
 30
0.0
 10
20.39662536422069
 20
-1.769628648857953
 30
0.0
 10
21.43956578255941
 20
-2.323680028198138
 30
0.0
 10
22.46290822073372
 20
-2.83547196506348
 30
0.0
 10
23.46603474425732
 20
-3.302021239570734
 30
0.0
 10
24.44962426864292
 20
-3.718758349457976
 30
0.0
 10
25.43300549723541
 20
-4.090129304602504
 30
0.0
 10
26.41654046703443
 20
-4.415622619670331
 30
0.0
 10
27.07221245698445
 20
-4.587049125996661
 30
0.0
 10
27.40000000000001
 20
-4.67274971131636
 30
0.0
  0
SPLINE
  5
9F
330
1F
100
AcDbEntity
  8
0
  6
Continuous
 62
     1
370
    15
100
AcDbSpline
210
0.0
220
0.0
230
1.0
 70
     8
 71
     3
 72
    26
 73
    22
 74
     0
 42
0.000000001
 43
0.00000001
 40
0.0
 40
0.0
 40
0.0
 40
0.0
 40
0.0531999175456968
 40
0.1064056455340973
 40
0.1595997538700687
 40
0.2128111295819583
 40
0.265999593884841
 40
0.3192164545283213
 40
0.3723994400348837
 40
0.425621622747457
 40
0.4813385918869055
 40
0.5370676875143887
 40
0.5928170516368105
 40
0.6485164482959813
 40
0.7042951568889619
 40
0.7599700983222364
 40
0.8157724663926583
 40
0.871428205092298
 40
0.9272485375133329
 40
0.9828903328440103
 40
1.0
 40
1.0
 40
1.0
 40
1.0
 10
27.40000000000001
 20
0.442062211316429
 30
0.0
 10
27.06812984648118
 20
0.6324449623043433
 30
0.0
 10
26.40435329291157
 20
1.013231257697106
 30
0.0
 10
25.40867776370632
 20
1.570240175163396
 30
0.0
 10
24.41306055479991
 20
2.108416091937619
 30
0.0
 10
23.41735778134879
 20
2.619989262709792
 30
0.0
 10
22.42176864950495
 20
3.099540345478036
 30
0.0
 10
21.42604197691856
 20
3.540142496855359
 30
0.0
 10
20.4304704433499
 20
3.937388023274509
 30
0.0
 10
19.41891277689165
 20
4.290807617161598
 30
0.0
 10
18.39178707273053
 20
4.59401008629759
 30
0.0
 10
17.34880454386323
 20
4.839203760293564
 30
0.0
 10
16.30570222394872
 20
5.018468388485523
 30
0.0
 10
15.26284645613666
 20
5.129633210342235
 30
0.0
 10
14.21958222937334
 20
5.1708318858725
 30
0.0
 10
13.1768298145094
 20
5.141693249740658
 30
0.0
 10
12.13343076196034
 20
5.042656248700339
 30
0.0
 10
11.09076444724541
 20
4.875320667068995
 30
0.0
 10
10.04724745553168
 20
4.638760188774453
 30
0.0
 10
9.246014398136873
 20
4.4189686499734
 30
0.0
 10
8.791950980819893
 20
4.261884522560771
 30
0.0
 10
8.685164482343254
 20
4.224941524528096
 30
0.0
  0
SPLINE
  5
A0
330
1F
100
AcDbEntity
  8
0
  6
Continuous
 62
     1
370
    15
100
AcDbSpline
210
0.0
220
0.0
230
1.0
 70
     8
 71
     3
 72
    19
 73
    15
 74
     0
 42
0.000000001
 43
0.00000001
 40
0.0
 40
0.0
 40
0.0
 40
0.0
 40
0.0785014937884842
 40
0.1646020116535806
 40
0.2504762870634705
 40
0.3366045231051312
 40
0.422457284530401
 40
0.5086044395486001
 40
0.5944438096510799
 40
0.6756829431764588
 40
0.7566076455643792
 40
0.8378418274850593
 40
0.9187726453994052
 40
1.0
 40
1.0
 40
1.0
 40
1.0
 10
14.12935982892499
 20
-5.156612198324031
 30
0.0
 10
13.8120898097893
 20
-5.152064243664486
 30
0.0
 10
13.14683771244941
 20
-5.142528087729831
 30
0.0
 10
12.13344314102776
 20
-5.041810083561676
 30
0.0
 10
11.0907577522172
 20
-4.874903783468056
 30
0.0
 10
10.04726185770735
 20
-4.641281975448876
 30
0.0
 10
9.004650257593783
 20
-4.34312564788106
 30
0.0
 10
7.961077847028003
 20
-3.988114598228635
 30
0.0
 10
6.938379930914241
 20
-3.583798668807434
 30
0.0
 10
5.934567045652642
 20
-3.145123401182849
 30
0.0
 10
4.951612974177676
 20
-2.673566808626594
 30
0.0
 10
3.967712434038212
 20
-2.1732219950249
 30
0.0
 10
2.984638218347232
 20
-1.643736516415703
 30
0.0
 10
2.328612628133087
 20
-1.277041590413627
 30
0.0
 10
2.000000000000014
 20
-1.093358842127443
 30
0.0
  0
LINE
  5
A1
330
1F
100
AcDbEntity
  8
외형선
  6
Continuous
370
    15
100
AcDbLine
 10
2.000000000000007
 20
-1.093358842127439
 30
0.0
 11
1.999999999999994
 21
0.7122384765573111
 31
0.0
  0
LINE
  5
A2
330
1F
100
AcDbEntity
  8
0
  6
Continuous
 62
     1
370
    15
100
AcDbLine
 10
27.40000000000001
 20
-5.159374999999997
 30
0.0
 11
27.40000000000001
 21
-4.67274971131636
 31
0.0
  0
LINE
  5
A3
330
1F
100
AcDbEntity
  8
외형선
  6
Continuous
370
    15
100
AcDbLine
 10
2.000000000000007
 20
5.042193652862487
 30
0.0
 11
2.0
 21
5.159375000000002
 31
0.0
  0
SPLINE
  5
A4
330
1F
100
AcDbEntity
  8
0
  6
Continuous
 62
     1
370
    15
100
AcDbSpline
210
0.0
220
0.0
230
1.0
 70
     8
 71
     3
 72
    17
 73
    13
 74
     0
 42
0.000000001
 43
0.00000001
 40
0.0
 40
0.0
 40
0.0
 40
0.0
 40
0.102203961912946
 40
0.2052564414330822
 40
0.3082707647136771
 40
0.4112633425024734
 40
0.5143374149477595
 40
0.6114148678758837
 40
0.7086025387794943
 40
0.8057063405552465
 40
0.902867527926957
 40
1.0
 40
1.0
 40
1.0
 40
1.0
 10
17.2756791194326
 20
5.159119406098066
 30
0.0
 10
17.62053990965482
 20
5.152549067203039
 30
0.0
 10
18.31312459292868
 20
5.139353841153474
 30
0.0
 10
19.35362677464791
 20
5.03104590362248
 30
0.0
 10
20.39662815469171
 20
4.859123827436361
 30
0.0
 10
21.43956503277208
 20
4.619537268350796
 30
0.0
 10
22.46290840872499
 20
4.323646558120478
 30
0.0
 10
23.46603469510453
 20
3.977808423806477
 30
0.0
 10
24.44962428180224
 20
3.591601132132086
 30
0.0
 10
25.43300549372518
 20
3.160724214670682
 30
0.0
 10
26.4165404679119
 20
2.694028495358918
 30
0.0
 10
27.07221245727691
 20
2.35623541078956
 30
0.0
 10
27.40000000000001
 20
2.18736383028011
 30
0.0
  0
LINE
  5
A5
330
1F
100
AcDbEntity
  8
0
  6
Continuous
 62
     1
370
    15
100
AcDbLine
 10
27.40000000000001
 20
0.442062211316429
 30
0.0
 11
27.40000000000001
 21
2.18736383028011
 31
0.0
  0
SPLINE
  5
A6
330
1F
100
AcDbEntity
  8
0
  6
Continuous
 62
     1
370
    15
100
AcDbSpline
210
0.0
220
0.0
230
1.0
 70
     8
 71
     3
 72
    14
 73
    10
 74
     0
 42
0.000000001
 43
0.00000001
 40
0.0
 40
0.0
 40
0.0
 40
0.0
 40
0.1492017341072201
 40
0.2978740802207235
 40
0.447080990022426
 40
0.5957483227463676
 40
0.7449599494213017
 40
0.8936227338674023
 40
1.0
 40
1.0
 40
1.0
 40
1.0
 10
1.999999999999994
 20
-5.109977176381152
 30
0.0
 10
2.332670989525552
 20
-5.130339889744892
 30
0.0
 10
2.996832606774801
 20
-5.170993066802898
 30
0.0
 10
3.992117222665575
 20
-5.15082833241661
 30
0.0
 10
4.988202231477652
 20
-5.071611571670992
 30
0.0
 10
5.983371556502691
 20
-4.927927923773903
 30
0.0
 10
6.979478377372088
 20
-4.722891981900042
 30
0.0
 10
7.879333390235093
 20
-4.489281848815179
 30
0.0
 10
8.447981302181454
 20
-4.302745768337268
 30
0.0
 10
8.685164482343174
 20
-4.22494152452809
 30
0.0
  0
SPLINE
  5
A7
330
1F
100
AcDbEntity
  8
외형선
  6
Continuous
370
    15
100
AcDbSpline
210
0.0
220
0.0
230
1.0
 70
    24
 71
     3
 72
    21
 73
    17
 74
     0
 42
0.000000001
 43
0.00000001
 40
0.0
 40
0.0
 40
0.0
 40
0.0
 40
0.0288318747941533
 40
0.104695547020876
 40
0.18031807183968
 40
0.255940596658485
 40
0.3318042688852085
 40
0.4074267937040135
 40
0.4830493185228176
 40
0.5589129907495403
 40
0.6345355155683442
 40
0.7101580403871488
 40
0.7860217126138719
 40
0.8616442374326762
 40
0.930822118716338
 40
0.9999999999999999
 40
0.9999999999999999
 40
0.9999999999999999
 40
0.9999999999999999
 10
1.999999999999994
 20
-1.113391422519066
 30
0.0
 10
1.999999999999994
 20
-1.134672294870684
 30
0.0
 10
1.999999999999994
 20
-1.211948316213072
 30
0.0
 10
1.999999999999965
 20
-1.379633757072062
 30
0.0
 10
1.999999999999973
 20
-1.612699876150416
 30
0.0
 10
2.0
 20
-1.876020175926819
 30
0.0
 10
1.999999999999973
 20
-2.162491523040146
 30
0.0
 10
1.99999999999998
 20
-2.469405166609653
 30
0.0
 10
1.99999999999998
 20
-2.793263431670457
 30
0.0
 10
1.999999999999973
 20
-3.129407389775104
 30
0.0
 10
1.999999999999994
 20
-3.473780298423122
 30
0.0
 10
2.000000000000007
 20
-3.822124976176775
 30
0.0
 10
2.0
 20
-4.169985070380855
 30
0.0
 10
2.000000000000028
 20
-4.503038367705623
 30
0.0
 10
2.000000000000007
 20
-4.818551781448664
 30
0.0
 10
2.0
 20
-5.012835378070325
 30
0.0
 10
1.999999999999994
 20
-5.109977176381153
 30
0.0
  0
SPLINE
  5
A8
330
1F
100
AcDbEntity
  8
0
  6
Continuous
 62
     1
370
    15
100
AcDbSpline
210
0.0
220
0.0
230
1.0
 70
     8
 71
     3
 72
    12
 73
     8
 74
     0
 42
0.000000001
 43
0.00000001
 40
0.0
 40
0.0
 40
0.0
 40
0.0
 40
0.2128506523434261
 40
0.425724552025886
 40
0.638551961963366
 40
0.8514484579520661
 40
1.0
 40
1.0
 40
1.0
 40
1.0
 10
27.40000000000001
 20
5.159375000000002
 30
0.0
 10
27.06812979565228
 20
5.117809179516687
 30
0.0
 10
26.40435314041932
 20
5.072621329665643
 30
0.0
 10
25.40867837369739
 20
4.925375256778381
 30
0.0
 10
24.41305826758603
 20
4.71961055218303
 30
0.0
 10
23.51755990168186
 20
4.487453055289218
 30
0.0
 10
22.95403288369504
 20
4.301855537783276
 30
0.0
 10
22.72242889446787
 20
4.225576807442009
 30
0.0
  0
LINE
  5
A9
330
1F
100
AcDbEntity
  8
0
  6
Continuous
 62
     1
370
    15
100
AcDbLine
 10
27.40000000000001
 20
2.182507979145063
 30
0.0
 11
27.40000000000001
 21
5.159375000000002
 31
0.0
  0
LINE
  5
AA
330
1F
100
AcDbEntity
  8
외형선
  6
Continuous
370
    15
100
AcDbLine
 10
2.0
 20
-5.159374999999998
 30
0.0
 11
1.999999999999994
 21
-5.109977176381153
 31
0.0
  0
LINE
  5
AC
330
1F
100
AcDbEntity
  8
참조1
100
AcDbLine
 10
-4.250092335746109
 20
0.0010749287238892
 30
0.0
 11
-4.250092335746102
 21
-39.99892507127612
 31
0.0
  0
LINE
  5
AD
330
1F
100
AcDbEntity
  8
참조1
100
AcDbLine
 10
-4.250092335746102
 20
-39.99892507127612
 30
0.0
 11
-19.40894915005478
 21
-39.9989250712761
 31
0.0
  0
INSERT
  5
AF
330
1F
100
AcDbEntity
  8
0
  6
Continuous
 62
     7
100
AcDbBlockReference
 66
     1
  2
블럭10
 10
-18.19036526787131
 20
-52.04609937292005
 30
0.0
  0
ATTRIB
  5
B0
330
AF
100
AcDbEntity
  8
FORMAT
 62
     2
100
AcDbText
 10
-27.3716605566126
 20
-49.97073246008787
 30
0.0
 40
4.233333333333333
  1
E1031026 [ 4 FLUTE ]
 41
0.75
  7
SLDTEXTSTYLE0
 11
-27.3716605566126
 21
-52.08739912675453
 31
0.0
100
AcDbAttribute
  2
AUTOATTR0
 70
     0
 74
     1
  0
SEQEND
  5
B1
330
AF
100
AcDbEntity
  8
0
  6
Continuous
 62
     7
  0
HATCH
  5
B2
330
1F
100
AcDbEntity
  8
중심선
100
AcDbHatch
 10
0.0
 20
0.0
 30
0.0
210
0.0
220
0.0
230
1.0
  2
SOLID
 70
     1
 71
     0
 91
        1
 92
        0
 93
        4
 72
     1
 10
-12.47545596349048
 20
-35.7989250712761
 11
-15.92173120732776
 21
-35.7989250712761
 72
     1
 10
-15.92173120732776
 20
-35.7989250712761
 11
-18.04996106653178
 21
-38.3352506518487
 72
     1
 10
-18.04996106653178
 20
-38.3352506518487
 11
-14.60365273758135
 21
-38.33521122254621
 72
     1
 10
-14.60365273758135
 20
-38.33521122254621
 11
-12.47545596349048
 21
-35.7989250712761
 97
        0
 75
     0
 76
     1
 98
        1
 10
0.0
 20
0.0
  0
HATCH
  5
B3
330
1F
100
AcDbEntity
  8
중심선
100
AcDbHatch
 10
0.0
 20
0.0
 30
0.0
210
0.0
220
0.0
230
1.0
  2
SOLID
 70
     1
 71
     0
 91
        1
 92
        0
 93
        4
 72
     1
 10
-7.4626919724545
 20
-35.7989250712761
 11
-10.90896721629178
 21
-35.7989250712761
 72
     1
 10
-10.90896721629178
 20
-35.7989250712761
 11
-15.4401052246492
 21
-41.19892507127612
 72
     1
 10
-15.4401052246492
 20
-41.19892507127612
 11
-11.99382998081192
 21
-41.19892507127612
 72
     1
 10
-11.99382998081192
 20
-41.19892507127612
 11
-7.4626919724545
 21
-35.7989250712761
 97
        0
 75
     0
 76
     1
 98
        1
 10
0.0
 20
0.0
  0
HATCH
  5
B4
330
1F
100
AcDbEntity
  8
중심선
100
AcDbHatch
 10
0.0
 20
0.0
 30
0.0
210
0.0
220
0.0
230
1.0
  2
SOLID
 70
     1
 71
     0
 91
        1
 92
        0
 93
        4
 72
     1
 10
-2.449927981418631
 20
-35.7989250712761
 11
-5.896203225255747
 21
-35.7989250712761
 72
     1
 10
-5.896203225255747
 20
-35.7989250712761
 11
-12.944640127145
 21
-44.19892507127612
 72
     1
 10
-12.944640127145
 20
-44.19892507127612
 11
-9.498364883307714
 21
-44.19892507127612
 72
     1
 10
-9.498364883307714
 20
-44.19892507127612
 11
-2.449927981418631
 21
-35.7989250712761
 97
        0
 75
     0
 76
     1
 98
        1
 10
0.0
 20
0.0
  0
HATCH
  5
B5
330
1F
100
AcDbEntity
  8
중심선
100
AcDbHatch
 10
0.0
 20
0.0
 30
0.0
210
0.0
220
0.0
230
1.0
  2
SOLID
 70
     1
 71
     0
 91
        1
 92
        0
 93
        6
 72
     3
 10
2.349962449593568
 20
-39.99892507132738
 11
3.960054785062284
 21
1.540850780301639E-10
 40
0.3939339440162633
 50
17.09539180608434
 51
320.0019657685073
 73
     0
 72
     1
 10
4.032962105294163
 20
-38.58681907591438
 11
6.338263978995201
 21
-36.65249236586649
 72
     3
 10
2.349962449540721
 20
-39.99892507127625
 11
6.600054785286829
 21
-1.249000902703301E-13
 40
0.6363583540795982
 50
39.99873849337408
 51
368.4976242363724
 73
     1
 72
     1
 10
8.77529494144133
 20
-39.03892507120613
 11
1.030029756376644
 21
-39.0389250712061
 72
     1
 10
1.030029756376644
 20
-39.0389250712061
 11
1.03000471193071
 21
-40.95892507120602
 72
     1
 10
1.03000471193071
 20
-40.95892507120602
 11
5.471384481402747
 21
-40.95892507120599
 97
        0
 75
     0
 76
     1
 98
        1
 10
0.0
 20
0.0
  0
DIMENSION
  5
CA
330
1F
100
AcDbEntity
  8
치수문자_일반주서
100
AcDbDimension
  2
_D_1
 10
1.99999999999998
 20
14.99058684580215
 30
0.0
 11
14.69999999999996
 21
14.99058684580215
 31
0.0
 70
   160
  1
<>
 71
     2
 42
25.40000000000003
  3
SLDDIMSTYLE2
100
AcDbAlignedDimension
 13
27.40000000000001
 23
5.159375000000002
 33
0.0
 14
1.99999999999998
 24
4.936309504174084
 34
0.0
 50
0.0000000000001282
100
AcDbRotatedDimension
1001
ACAD
1000
DSTYLE
1002
{
1070
   171
1070
     6
1070
   273
1070
     7
1002
}
  0
LINE
  5
108
330
1F
100
AcDbEntity
  8
참조1
100
AcDbLine
 10
78.56339147959949
 20
7.441074928723896
 30
0.0
 11
78.56339147959949
 21
-7.438925071276109
 31
0.0
  0
LINE
  5
109
330
1F
100
AcDbEntity
  8
참조1
100
AcDbLine
 10
91.26339147959949
 20
5.441074928723896
 30
0.0
 11
78.56339147959949
 21
5.441074928723896
 31
0.0
  0
SOLID
  5
10A
330
1F
100
AcDbEntity
  8
참조1
100
AcDbTrace
 10
78.56339147959949
 20
5.441074928723896
 30
0.0
 11
84.91339147959948
 21
4.425074928723896
 31
0.0
 12
84.91339147959948
 22
6.457074928723896
 32
0.0
 13
84.91339147959948
 23
6.457074928723896
 33
0.0
  0
LINE
  5
10B
330
1F
100
AcDbEntity
  8
참조1
100
AcDbLine
 10
91.26339147959949
 20
-5.438925071276109
 30
0.0
 11
78.56339147959949
 21
-5.438925071276109
 31
0.0
  0
SOLID
  5
10C
330
1F
100
AcDbEntity
  8
참조1
100
AcDbTrace
 10
78.56339147959949
 20
-5.438925071276109
 30
0.0
 11
84.91339147959948
 21
-6.454925071276109
 31
0.0
 12
84.91339147959948
 22
-4.422925071276109
 32
0.0
 13
84.91339147959948
 23
-4.422925071276109
 33
0.0
  0
MTEXT
  5
10D
330
1F
100
AcDbEntity
  8
참조1
100
AcDbMText
 10
87.94774161222547
 20
11.01136670591222
 30
0.0
 40
3.5
 41
0.0
 71
     1
 72
     1
  1
A
  7
SLDTEXTSTYLE0
 73
     1
 44
1.0
  0
MTEXT
  5
10E
330
1F
100
AcDbEntity
  8
참조1
100
AcDbMText
 10
87.94774161222547
 20
0.1313667059122192
 30
0.0
 40
3.5
 41
0.0
 71
     1
 72
     1
  1
A
  7
SLDTEXTSTYLE0
 73
     1
 44
1.0
  0
LINE
  5
20B
330
1F
100
AcDbEntity
  8
외형선
  6
Continuous
370
    15
100
AcDbLine
 10
-39.91
 20
-4.762500000000001
 30
0.0
 11
2.000000000000012
 21
-4.762500000000001
 31
0.0
  0
LINE
  5
20C
330
1F
100
AcDbEntity
  8
외형선
  6
Continuous
370
    15
100
AcDbLine
 10
1.999999999999977
 20
4.762499999999998
 30
0.0
 11
-16.18004999999989
 21
4.762499999999998
 31
0.0
  0
LINE
  5
20D
330
1F
100
AcDbEntity
  8
외형선
  6
Continuous
370
    15
100
AcDbLine
 10
-39.91
 20
4.762499999999998
 30
0.0
 11
-40.8625
 21
3.810000000000001
 31
0.0
  0
LINE
  5
20E
330
1F
100
AcDbEntity
  8
외형선
  6
Continuous
370
    15
100
AcDbLine
 10
-40.8625
 20
-3.81
 30
0.0
 11
-39.91
 21
-4.762500000000001
 31
0.0
  0
LINE
  5
21C
330
1F
100
AcDbEntity
  8
외형선
  6
Continuous
370
    15
100
AcDbLine
 10
-39.91
 20
0.0000000000000026
 30
0.0
 11
-39.91
 21
4.762499999999998
 31
0.0
  0
LINE
  5
21D
330
1F
100
AcDbEntity
  8
외형선
  6
Continuous
370
    15
100
AcDbLine
 10
-39.91
 20
-4.762500000000001
 30
0.0
 11
-39.91
 21
0.0000000000000026
 31
0.0
  0
LINE
  5
21E
330
1F
100
AcDbEntity
  8
외형선
  6
Continuous
370
    15
100
AcDbLine
 10
-40.8625
 20
0.0000000000000026
 30
0.0
 11
-40.8625
 21
3.810000000000001
 31
0.0
  0
LINE
  5
21F
330
1F
100
AcDbEntity
  8
외형선
  6
Continuous
370
    15
100
AcDbLine
 10
-40.8625
 20
-3.81
 30
0.0
 11
-40.8625
 21
0.0000000000000026
 31
0.0
  0
LINE
  5
230
330
1F
100
AcDbEntity
  8
중심선
 48
0.8
100
AcDbLine
 10
-43.8625
 20
-0.0000000000000045
 30
0.0
 11
30.40000000000001
 21
0.0000000000000031
 31
0.0
  0
CIRCLE
  5
231
330
1F
100
AcDbEntity
  8
해칭선
100
AcDbCircle
 10
0.0
 20
0.0
 30
0.0
 40
2.999999999999999
  0
DIMENSION
  5
233
330
1F
100
AcDbEntity
  8
치수문자_일반주서
100
AcDbDimension
  2
*D12
 10
-40.8625
 20
33.64702942590522
 30
0.0
 11
-9.112499999999999
 21
33.64702942590522
 31
0.0
 70
   160
  1
<>
 71
     2
 42
68.2625
  3
SLDDIMSTYLE2
100
AcDbAlignedDimension
 13
27.40000000000001
 23
5.159375000000002
 33
0.0
 14
-40.8625
 24
3.810000000000001
 34
0.0
 50
0.0000000000000064
100
AcDbRotatedDimension
1001
ACAD
1000
DSTYLE
1002
{
1070
   171
1070
     6
1070
   273
1070
     7
1002
}
  0
DIMENSION
  5
234
330
1F
100
AcDbEntity
  8
치수문자_일반주서
100
AcDbDimension
  2
*D13
 10
-52.16327283782717
 20
-4.762500000000053
 30
0.0
 11
-52.16327283782719
 21
0.0000000000000026
 31
0.0
 70
   160
  1
%%c<>
 71
     2
 42
9.525000000000006
 52
-270.0
  3
SLDDIMSTYLE2
100
AcDbAlignedDimension
 13
-39.91
 23
4.762500000000001
 33
0.0
 14
-39.91
 24
-4.762500000000006
 34
0.0
 50
90.0000000000002
100
AcDbRotatedDimension
1001
ACAD
1000
DSTYLE
1002
{
1070
   171
1070
     6
1070
   273
1070
     7
1002
}
  0
INSERT
  5
236
330
1F
100
AcDbEntity
  8
해칭선
100
AcDbBlockReference
  2
SW_DOWELSYMBOL_0
 10
0.0
 20
0.0
 30
0.0
  0
LINE
  5
237
330
1F
100
AcDbEntity
  8
외형선
  6
Continuous
370
    15
100
AcDbLine
 10
-24.58745000000012
 20
3.492500000000006
 30
0.0
 11
-17.45005
 21
3.492500000000006
 31
0.0
  0
LINE
  5
238
330
1F
100
AcDbEntity
  8
외형선
  6
Continuous
370
    15
100
AcDbLine
 10
-24.58745000000012
 20
3.492500000000006
 30
0.0
 11
-25.8574500000001
 21
4.762499999999987
 31
0.0
  0
LINE
  5
239
330
1F
100
AcDbEntity
  8
외형선
  6
Continuous
370
    15
100
AcDbLine
 10
-17.45005
 20
3.492500000000006
 30
0.0
 11
-16.18004999999989
 21
4.762499999999987
 31
0.0
  0
LINE
  5
23A
330
1F
100
AcDbEntity
  8
외형선
  6
Continuous
370
    15
100
AcDbLine
 10
-25.8574500000001
 20
4.762499999999998
 30
0.0
 11
-39.91
 21
4.762499999999998
 31
0.0
  0
DIMENSION
  5
2DC
330
1F
100
AcDbEntity
  8
치수문자_일반주서
100
AcDbDimension
  2
*D17
 10
42.03668161735342
 20
-5.159374999999997
 30
0.0
 11
42.03668161735342
 21
26.419625
 31
0.0
 70
   160
 71
     5
 42
10.31875
  3
SLDDIMSTYLE2
100
AcDbAlignedDimension
 13
27.40000000000001
 23
5.159375000000002
 33
0.0
 14
27.40000000000001
 24
-5.159374999999997
 34
0.0
 50
90.0
100
AcDbRotatedDimension
1001
ACAD
1000
DSTYLE
1002
{
1070
   171
1070
     6
1070
   273
1070
     7
1002
}
  0
ENDSEC
  0
SECTION
  2
OBJECTS
  0
DICTIONARY
  5
C
330
0
100
AcDbDictionary
281
     1
  3
ACAD_GROUP
350
D
  3
ACAD_IMAGE_VARS
350
139
  3
ACAD_LAYOUT
350
1A
  3
ACAD_MLINESTYLE
350
17
  3
ACAD_PLOTSETTINGS
350
19
  3
ACAD_PLOTSTYLENAME
350
E
  3
ACAD_SCALELIST
350
47
  3
APPDATA
350
137
  3
DWGPROPS
350
334
  0
DICTIONARY
  5
1D0
330
2
100
AcDbDictionary
280
     1
281
     1
  3
ACAD_LAYERSTATES
360
1D1
  0
DICTIONARY
  5
D
102
{ACAD_REACTORS
330
C
102
}
330
C
100
AcDbDictionary
281
     1
  0
RASTERVARIABLES
  5
139
102
{ACAD_REACTORS
330
C
102
}
330
C
100
AcDbRasterVariables
 90
        0
 70
     1
 71
     1
 72
     1
  0
DICTIONARY
  5
1A
102
{ACAD_REACTORS
330
C
102
}
330
C
100
AcDbDictionary
281
     1
  3
Layout1
350
1E
  3
Layout2
350
26
  3
Model
350
22
  0
DICTIONARY
  5
17
102
{ACAD_REACTORS
330
C
102
}
330
C
100
AcDbDictionary
281
     1
  3
Standard
350
18
  0
DICTIONARY
  5
19
102
{ACAD_REACTORS
330
C
102
}
330
C
100
AcDbDictionary
281
     1
  0
ACDBDICTIONARYWDFLT
  5
E
102
{ACAD_REACTORS
330
C
102
}
330
C
100
AcDbDictionary
281
     1
  3
Normal
350
F
100
AcDbDictionaryWithDefault
340
F
  0
DICTIONARY
  5
47
102
{ACAD_REACTORS
330
C
102
}
330
C
100
AcDbDictionary
281
     1
  3
A0
350
48
  3
A1
350
49
  3
A2
350
4A
  3
A3
350
4B
  3
A4
350
4C
  3
A5
350
4D
  3
A6
350
4E
  3
A7
350
4F
  3
A8
350
50
  3
A9
350
51
  3
B0
350
52
  3
B1
350
53
  3
B2
350
54
  3
B3
350
55
  3
B4
350
56
  3
B5
350
57
  3
B6
350
58
  3
B7
350
59
  3
B8
350
5A
  3
B9
350
5B
  3
C0
350
5C
  3
C1
350
5D
  3
C2
350
5E
  3
C3
350
5F
  3
C4
350
60
  3
C5
350
61
  3
C6
350
62
  3
C7
350
63
  3
C8
350
64
  3
C9
350
65
  3
D0
350
66
  3
D1
350
67
  3
D2
350
68
  0
DICTIONARY
  5
137
102
{ACAD_REACTORS
330
C
102
}
330
C
100
AcDbDictionary
281
     1
  0
XRECORD
  5
334
102
{ACAD_REACTORS
330
C
102
}
330
C
100
AcDbXrecord
280
     1
  1
DWGPROPS COOKIE
  2

  3

  4

  6

  7

  8
12016016
  9

300
=
301
=
302
=
303
=
304
=
305
=
306
=
307
=
308
=
309
=
 40
0.0
 41
2458312.371949167
 42
2458323.357637546
  1

 90
        0
  0
DICTIONARY
  5
1D1
102
{ACAD_REACTORS
330
1D0
102
}
330
1D0
100
AcDbDictionary
281
     1
  0
LAYOUT
  5
1E
102
{ACAD_REACTORS
330
1A
102
}
330
1A
100
AcDbPlotSettings
  1

  2
none_device
  4

  6

 40
0.0
 41
0.0
 42
0.0
 43
0.0
 44
0.0
 45
0.0
 46
0.0
 47
0.0
 48
0.0
 49
0.0
140
0.0
141
0.0
142
1.0
143
1.0
 70
   688
 72
     1
 73
     0
 74
     5
  7

 75
    16
147
1.0
148
0.0
149
0.0
100
AcDbLayout
  1
Layout1
 70
     1
 71
     1
 10
0.0
 20
0.0
 11
420.0
 21
297.0
 12
0.0
 22
0.0
 32
0.0
 14
1.000000000000000E+20
 24
1.000000000000000E+20
 34
1.000000000000000E+20
 15
-1.000000000000000E+20
 25
-1.000000000000000E+20
 35
-1.000000000000000E+20
146
0.0
 13
0.0
 23
0.0
 33
0.0
 16
1.0
 26
0.0
 36
0.0
 17
0.0
 27
1.0
 37
0.0
 76
     0
330
1B
  0
LAYOUT
  5
26
102
{ACAD_REACTORS
330
1A
102
}
330
1A
100
AcDbPlotSettings
  1

  2
none_device
  4

  6

 40
0.0
 41
0.0
 42
0.0
 43
0.0
 44
0.0
 45
0.0
 46
0.0
 47
0.0
 48
0.0
 49
0.0
140
0.0
141
0.0
142
1.0
143
1.0
 70
   688
 72
     1
 73
     0
 74
     5
  7

 75
    16
147
1.0
148
0.0
149
0.0
100
AcDbLayout
  1
Layout2
 70
     1
 71
     2
 10
0.0
 20
0.0
 11
0.0
 21
0.0
 12
0.0
 22
0.0
 32
0.0
 14
0.0
 24
0.0
 34
0.0
 15
0.0
 25
0.0
 35
0.0
146
0.0
 13
0.0
 23
0.0
 33
0.0
 16
1.0
 26
0.0
 36
0.0
 17
0.0
 27
1.0
 37
0.0
 76
     0
330
23
  0
LAYOUT
  5
22
102
{ACAD_REACTORS
330
1A
102
}
330
1A
100
AcDbPlotSettings
  1

  2
none_device
  4
ANSI_A_(11.00_x_8.50_Inches)
  6

 40
6.35
 41
19.05
 42
6.35000508
 43
19.05000254
 44
279.4
 45
215.9
 46
107.1300962393278
 47
100.5026560646533
 48
0.0
 49
0.0
140
0.0
141
0.0
142
0.0709734699818263
143
1.0
 70
  1696
 72
     0
 73
     0
 74
     0
  7

 75
     0
147
0.0235690232323232
148
0.0
149
0.0
100
AcDbLayout
  1
Model
 70
     1
 71
     0
 10
0.0
 20
0.0
 11
420.0
 21
297.0
 12
0.0
 22
0.0
 32
0.0
 14
-56.53827283782724
 24
-49.97073246008787
 34
0.0
 15
91.26339147959949
 25
41.075875
 35
0.0
146
0.0
 13
0.0
 23
0.0
 33
0.0
 16
1.0
 26
0.0
 36
0.0
 17
0.0
 27
1.0
 37
0.0
 76
     0
330
1F
331
29
  0
MLINESTYLE
  5
18
102
{ACAD_REACTORS
330
17
102
}
330
17
100
AcDbMlineStyle
  2
Standard
 70
     0
  3

 62
   256
 51
90.0
 52
90.0
 71
     2
 49
0.5
 62
   256
  6
BYLAYER
 49
-0.5
 62
   256
  6
BYLAYER
  0
ACDBPLACEHOLDER
  5
F
102
{ACAD_REACTORS
330
E
102
}
330
E
  0
SCALE
  5
48
102
{ACAD_REACTORS
330
47
102
}
330
47
100
AcDbScale
 70
     0
300
1:1
140
1.0
141
1.0
290
     1
  0
SCALE
  5
49
102
{ACAD_REACTORS
330
47
102
}
330
47
100
AcDbScale
 70
     0
300
1:2
140
1.0
141
2.0
290
     0
  0
SCALE
  5
4A
102
{ACAD_REACTORS
330
47
102
}
330
47
100
AcDbScale
 70
     0
300
1:4
140
1.0
141
4.0
290
     0
  0
SCALE
  5
4B
102
{ACAD_REACTORS
330
47
102
}
330
47
100
AcDbScale
 70
     0
300
1:5
140
1.0
141
5.0
290
     0
  0
SCALE
  5
4C
102
{ACAD_REACTORS
330
47
102
}
330
47
100
AcDbScale
 70
     0
300
1:8
140
1.0
141
8.0
290
     0
  0
SCALE
  5
4D
102
{ACAD_REACTORS
330
47
102
}
330
47
100
AcDbScale
 70
     0
300
1:10
140
1.0
141
10.0
290
     0
  0
SCALE
  5
4E
102
{ACAD_REACTORS
330
47
102
}
330
47
100
AcDbScale
 70
     0
300
1:16
140
1.0
141
16.0
290
     0
  0
SCALE
  5
4F
102
{ACAD_REACTORS
330
47
102
}
330
47
100
AcDbScale
 70
     0
300
1:20
140
1.0
141
20.0
290
     0
  0
SCALE
  5
50
102
{ACAD_REACTORS
330
47
102
}
330
47
100
AcDbScale
 70
     0
300
1:30
140
1.0
141
30.0
290
     0
  0
SCALE
  5
51
102
{ACAD_REACTORS
330
47
102
}
330
47
100
AcDbScale
 70
     0
300
1:40
140
1.0
141
40.0
290
     0
  0
SCALE
  5
52
102
{ACAD_REACTORS
330
47
102
}
330
47
100
AcDbScale
 70
     0
300
1:50
140
1.0
141
50.0
290
     0
  0
SCALE
  5
53
102
{ACAD_REACTORS
330
47
102
}
330
47
100
AcDbScale
 70
     0
300
1:100
140
1.0
141
100.0
290
     0
  0
SCALE
  5
54
102
{ACAD_REACTORS
330
47
102
}
330
47
100
AcDbScale
 70
     0
300
2:1
140
2.0
141
1.0
290
     0
  0
SCALE
  5
55
102
{ACAD_REACTORS
330
47
102
}
330
47
100
AcDbScale
 70
     0
300
4:1
140
4.0
141
1.0
290
     0
  0
SCALE
  5
56
102
{ACAD_REACTORS
330
47
102
}
330
47
100
AcDbScale
 70
     0
300
8:1
140
8.0
141
1.0
290
     0
  0
SCALE
  5
57
102
{ACAD_REACTORS
330
47
102
}
330
47
100
AcDbScale
 70
     0
300
10:1
140
10.0
141
1.0
290
     0
  0
SCALE
  5
58
102
{ACAD_REACTORS
330
47
102
}
330
47
100
AcDbScale
 70
     0
300
100:1
140
100.0
141
1.0
290
     0
  0
SCALE
  5
59
102
{ACAD_REACTORS
330
47
102
}
330
47
100
AcDbScale
 70
     0
300
1/128" = 1'-0"
140
0.0078125
141
12.0
290
     0
  0
SCALE
  5
5A
102
{ACAD_REACTORS
330
47
102
}
330
47
100
AcDbScale
 70
     0
300
1/64" = 1'-0"
140
0.015625
141
12.0
290
     0
  0
SCALE
  5
5B
102
{ACAD_REACTORS
330
47
102
}
330
47
100
AcDbScale
 70
     0
300
1/32" = 1'-0"
140
0.03125
141
12.0
290
     0
  0
SCALE
  5
5C
102
{ACAD_REACTORS
330
47
102
}
330
47
100
AcDbScale
 70
     0
300
1/16" = 1'-0"
140
0.0625
141
12.0
290
     0
  0
SCALE
  5
5D
102
{ACAD_REACTORS
330
47
102
}
330
47
100
AcDbScale
 70
     0
300
3/32" = 1'-0"
140
0.09375
141
12.0
290
     0
  0
SCALE
  5
5E
102
{ACAD_REACTORS
330
47
102
}
330
47
100
AcDbScale
 70
     0
300
1/8" = 1'-0"
140
0.125
141
12.0
290
     0
  0
SCALE
  5
5F
102
{ACAD_REACTORS
330
47
102
}
330
47
100
AcDbScale
 70
     0
300
3/16" = 1'-0"
140
0.1875
141
12.0
290
     0
  0
SCALE
  5
60
102
{ACAD_REACTORS
330
47
102
}
330
47
100
AcDbScale
 70
     0
300
1/4" = 1'-0"
140
0.25
141
12.0
290
     0
  0
SCALE
  5
61
102
{ACAD_REACTORS
330
47
102
}
330
47
100
AcDbScale
 70
     0
300
3/8" = 1'-0"
140
0.375
141
12.0
290
     0
  0
SCALE
  5
62
102
{ACAD_REACTORS
330
47
102
}
330
47
100
AcDbScale
 70
     0
300
1/2" = 1'-0"
140
0.5
141
12.0
290
     0
  0
SCALE
  5
63
102
{ACAD_REACTORS
330
47
102
}
330
47
100
AcDbScale
 70
     0
300
3/4" = 1'-0"
140
0.75
141
12.0
290
     0
  0
SCALE
  5
64
102
{ACAD_REACTORS
330
47
102
}
330
47
100
AcDbScale
 70
     0
300
1" = 1'-0"
140
1.0
141
12.0
290
     0
  0
SCALE
  5
65
102
{ACAD_REACTORS
330
47
102
}
330
47
100
AcDbScale
 70
     0
300
1-1/2" = 1'-0"
140
1.5
141
12.0
290
     0
  0
SCALE
  5
66
102
{ACAD_REACTORS
330
47
102
}
330
47
100
AcDbScale
 70
     0
300
3" = 1'-0"
140
3.0
141
12.0
290
     0
  0
SCALE
  5
67
102
{ACAD_REACTORS
330
47
102
}
330
47
100
AcDbScale
 70
     0
300
6" = 1'-0"
140
6.0
141
12.0
290
     0
  0
SCALE
  5
68
102
{ACAD_REACTORS
330
47
102
}
330
47
100
AcDbScale
 70
     0
300
1'-0" = 1'-0"
140
12.0
141
12.0
290
     0
  0
ENDSEC
  0
EOF
