  0
SECTION
  2
HEADER
  9
$ACADVER
  1
AC1015
  9
$ACADMAINTVER
 70
     6
  9
$DWGCODEPAGE
  3
ANSI_949
  9
$INSBASE
 10
0.0
 20
0.0
 30
0.0
  9
$EXTMIN
 10
-54.16345750931944
 20
-49.97073246008785
 30
0.0
  9
$EXTMAX
 10
89.03783746512288
 20
38.62173021385198
 30
0.0
  9
$LIMMIN
 10
0.0
 20
0.0
  9
$LIMMAX
 10
420.0
 20
297.0
  9
$ORTHOMODE
 70
     0
  9
$REGENMODE
 70
     1
  9
$FILLMODE
 70
     1
  9
$QTEXTMODE
 70
     0
  9
$MIRRTEXT
 70
     1
  9
$LTSCALE
 40
1.0
  9
$ATTMODE
 70
     1
  9
$TEXTSIZE
 40
3.5
  9
$TRACEWID
 40
1.0
  9
$TEXTSTYLE
  7
Standard
  9
$CLAYER
  8
0
  9
$CELTYPE
  6
ByLayer
  9
$CECOLOR
 62
   256
  9
$CELTSCALE
 40
1.0
  9
$DISPSILH
 70
     0
  9
$DIMSCALE
 40
1.0
  9
$DIMASZ
 40
3.302
  9
$DIMEXO
 40
1.0
  9
$DIMDLI
 40
3.75
  9
$DIMRND
 40
0.0
  9
$DIMDLE
 40
0.0
  9
$DIMEXE
 40
1.0
  9
$DIMTP
 40
0.0
  9
$DIMTM
 40
0.0
  9
$DIMTXT
 40
3.5
  9
$DIMCEN
 40
2.5
  9
$DIMTSZ
 40
0.0
  9
$DIMTOL
 70
     0
  9
$DIMLIM
 70
     0
  9
$DIMTIH
 70
     1
  9
$DIMTOH
 70
     1
  9
$DIMSE1
 70
     0
  9
$DIMSE2
 70
     0
  9
$DIMTAD
 70
     1
  9
$DIMZIN
 70
     0
  9
$DIMBLK
  1

  9
$DIMASO
 70
     1
  9
$DIMSHO
 70
     1
  9
$DIMPOST
  1

  9
$DIMAPOST
  1

  9
$DIMALT
 70
     0
  9
$DIMALTD
 70
     3
  9
$DIMALTF
 40
0.0393700787401575
  9
$DIMLFAC
 40
1.0
  9
$DIMTOFL
 70
     1
  9
$DIMTVP
 40
0.0
  9
$DIMTIX
 70
     0
  9
$DIMSOXD
 70
     0
  9
$DIMSAH
 70
     0
  9
$DIMBLK1
  1

  9
$DIMBLK2
  1

  9
$DIMSTYLE
  2
ISO-25
  9
$DIMCLRD
 70
     0
  9
$DIMCLRE
 70
     0
  9
$DIMCLRT
 70
     0
  9
$DIMTFAC
 40
1.0
  9
$DIMGAP
 40
1.524
  9
$DIMJUST
 70
     0
  9
$DIMSD1
 70
     0
  9
$DIMSD2
 70
     0
  9
$DIMTOLJ
 70
     0
  9
$DIMTZIN
 70
     0
  9
$DIMALTZ
 70
     0
  9
$DIMALTTZ
 70
     0
  9
$DIMUPT
 70
     0
  9
$DIMDEC
 70
     2
  9
$DIMTDEC
 70
     2
  9
$DIMALTU
 70
     2
  9
$DIMALTTD
 70
     3
  9
$DIMTXSTY
  7
Standard
  9
$DIMAUNIT
 70
     0
  9
$DIMADEC
 70
     2
  9
$DIMALTRND
 40
0.0
  9
$DIMAZIN
 70
     0
  9
$DIMDSEP
 70
    44
  9
$DIMATFIT
 70
     3
  9
$DIMFRAC
 70
     0
  9
$DIMLDRBLK
  1

  9
$DIMLUNIT
 70
     2
  9
$DIMLWD
 70
    -2
  9
$DIMLWE
 70
    -2
  9
$DIMTMOVE
 70
     0
  9
$LUNITS
 70
     2
  9
$LUPREC
 70
     2
  9
$SKETCHINC
 40
1.0
  9
$FILLETRAD
 40
10.0
  9
$AUNITS
 70
     0
  9
$AUPREC
 70
     2
  9
$MENU
  1
.
  9
$ELEVATION
 40
0.0
  9
$PELEVATION
 40
0.0
  9
$THICKNESS
 40
0.0
  9
$LIMCHECK
 70
     0
  9
$CHAMFERA
 40
0.0
  9
$CHAMFERB
 40
0.0
  9
$CHAMFERC
 40
0.0
  9
$CHAMFERD
 40
0.0
  9
$SKPOLY
 70
     0
  9
$TDCREATE
 40
2458312.668267465
  9
$TDUCREATE
 40
2458312.293267465
  9
$TDUPDATE
 40
2458323.732911041
  9
$TDUUPDATE
 40
2458323.357911041
  9
$TDINDWG
 40
0.0012126852
  9
$TDUSRTIMER
 40
2458323.357872048
  9
$USRTIMER
 70
     1
  9
$ANGBASE
 50
0.0
  9
$ANGDIR
 70
     0
  9
$PDMODE
 70
     0
  9
$PDSIZE
 40
-1.0
  9
$PLINEWID
 40
0.0
  9
$SPLFRAME
 70
     0
  9
$SPLINETYPE
 70
     6
  9
$SPLINESEGS
 70
     8
  9
$HANDSEED
  5
2BF
  9
$SURFTAB1
 70
     6
  9
$SURFTAB2
 70
     6
  9
$SURFTYPE
 70
     6
  9
$SURFU
 70
     6
  9
$SURFV
 70
     6
  9
$UCSBASE
  2

  9
$UCSNAME
  2

  9
$UCSORG
 10
0.0
 20
0.0
 30
0.0
  9
$UCSXDIR
 10
1.0
 20
0.0
 30
0.0
  9
$UCSYDIR
 10
0.0
 20
1.0
 30
0.0
  9
$UCSORTHOREF
  2

  9
$UCSORTHOVIEW
 70
     0
  9
$UCSORGTOP
 10
0.0
 20
0.0
 30
0.0
  9
$UCSORGBOTTOM
 10
0.0
 20
0.0
 30
0.0
  9
$UCSORGLEFT
 10
0.0
 20
0.0
 30
0.0
  9
$UCSORGRIGHT
 10
0.0
 20
0.0
 30
0.0
  9
$UCSORGFRONT
 10
0.0
 20
0.0
 30
0.0
  9
$UCSORGBACK
 10
0.0
 20
0.0
 30
0.0
  9
$PUCSBASE
  2

  9
$PUCSNAME
  2

  9
$PUCSORG
 10
0.0
 20
0.0
 30
0.0
  9
$PUCSXDIR
 10
1.0
 20
0.0
 30
0.0
  9
$PUCSYDIR
 10
0.0
 20
1.0
 30
0.0
  9
$PUCSORTHOREF
  2

  9
$PUCSORTHOVIEW
 70
     0
  9
$PUCSORGTOP
 10
0.0
 20
0.0
 30
0.0
  9
$PUCSORGBOTTOM
 10
0.0
 20
0.0
 30
0.0
  9
$PUCSORGLEFT
 10
0.0
 20
0.0
 30
0.0
  9
$PUCSORGRIGHT
 10
0.0
 20
0.0
 30
0.0
  9
$PUCSORGFRONT
 10
0.0
 20
0.0
 30
0.0
  9
$PUCSORGBACK
 10
0.0
 20
0.0
 30
0.0
  9
$USERI1
 70
     0
  9
$USERI2
 70
     0
  9
$USERI3
 70
     0
  9
$USERI4
 70
     0
  9
$USERI5
 70
     0
  9
$USERR1
 40
0.0
  9
$USERR2
 40
0.0
  9
$USERR3
 40
0.0
  9
$USERR4
 40
0.0
  9
$USERR5
 40
0.0
  9
$WORLDVIEW
 70
     1
  9
$SHADEDGE
 70
     3
  9
$SHADEDIF
 70
    70
  9
$TILEMODE
 70
     1
  9
$MAXACTVP
 70
    64
  9
$PINSBASE
 10
0.0
 20
0.0
 30
0.0
  9
$PLIMCHECK
 70
     0
  9
$PEXTMIN
 10
1.000000000000000E+20
 20
1.000000000000000E+20
 30
1.000000000000000E+20
  9
$PEXTMAX
 10
-1.000000000000000E+20
 20
-1.000000000000000E+20
 30
-1.000000000000000E+20
  9
$PLIMMIN
 10
0.0
 20
0.0
  9
$PLIMMAX
 10
0.0
 20
0.0
  9
$UNITMODE
 70
     0
  9
$VISRETAIN
 70
     1
  9
$PLINEGEN
 70
     0
  9
$PSLTSCALE
 70
     1
  9
$TREEDEPTH
 70
  3020
  9
$CMLSTYLE
  2
Standard
  9
$CMLJUST
 70
     0
  9
$CMLSCALE
 40
20.0
  9
$PROXYGRAPHICS
 70
     1
  9
$MEASUREMENT
 70
     1
  9
$CELWEIGHT
370
    -1
  9
$ENDCAPS
280
     0
  9
$JOINSTYLE
280
     0
  9
$LWDISPLAY
290
     1
  9
$INSUNITS
 70
     4
  9
$HYPERLINKBASE
  1

  9
$STYLESHEET
  1

  9
$XEDIT
290
     1
  9
$CEPSNTYPE
380
     0
  9
$PSTYLEMODE
290
     1
  9
$FINGERPRINTGUID
  2
{E74D80E4-BDAF-4FF0-ABFC-C33301AC0D26}
  9
$VERSIONGUID
  2
{FAEB1C32-E019-11D5-929B-00C0DF256EC4}
  9
$EXTNAMES
290
     1
  9
$PSVPSCALE
 40
0.0
  9
$OLESTARTUP
290
     0
  0
ENDSEC
  0
SECTION
  2
CLASSES
  0
CLASS
  1
ACDBDICTIONARYWDFLT
  2
AcDbDictionaryWithDefault
  3
ObjectDBX Classes
 90
        0
280
     0
281
     0
  0
CLASS
  1
VISUALSTYLE
  2
AcDbVisualStyle
  3
ObjectDBX Classes
 90
     4095
280
     0
281
     0
  0
CLASS
  1
MATERIAL
  2
AcDbMaterial
  3
ObjectDBX Classes
 90
     1153
280
     0
281
     0
  0
CLASS
  1
SCALE
  2
AcDbScale
  3
ObjectDBX Classes
 90
     1153
280
     0
281
     0
  0
CLASS
  1
SUN
  2
AcDbSun
  3
SCENEOE
 90
     1153
280
     0
281
     0
  0
CLASS
  1
ACDBPLACEHOLDER
  2
AcDbPlaceHolder
  3
ObjectDBX Classes
 90
        0
280
     0
281
     0
  0
CLASS
  1
LAYOUT
  2
AcDbLayout
  3
ObjectDBX Classes
 90
        0
280
     0
281
     0
  0
CLASS
  1
TABLESTYLE
  2
AcDbTableStyle
  3
ObjectDBX Classes
 90
     4095
280
     0
281
     0
  0
CLASS
  1
MLEADERSTYLE
  2
AcDbMLeaderStyle
  3
ACDB_MLEADERSTYLE_CLASS
 90
     4095
280
     0
281
     0
  0
CLASS
  1
RASTERVARIABLES
  2
AcDbRasterVariables
  3
ISM
 90
        0
280
     0
281
     0
  0
ENDSEC
  0
SECTION
  2
TABLES
  0
TABLE
  2
VPORT
  5
8
330
0
100
AcDbSymbolTable
 70
     1
  0
VPORT
  5
29
330
8
100
AcDbSymbolTableRecord
100
AcDbViewportTableRecord
  2
*Active
 70
     0
 10
0.0
 20
0.0
 11
1.0
 21
1.0
 12
-9.863356217418207
 22
7.240580873238066
 13
0.0
 23
0.0
 14
10.0
 24
10.0
 15
10.0
 25
10.0
 16
0.0
 26
0.0
 36
1.0
 17
0.0
 27
0.0
 37
0.0
 40
152.5817269112635
 41
1.632093933463796
 42
50.0
 43
0.0
 44
0.0
 50
0.0
 51
0.0
 71
    16
 72
  2000
 73
     1
 74
     3
 75
     0
 76
     0
 77
     0
 78
     0
281
     0
 65
     1
110
0.0
120
0.0
130
0.0
111
1.0
121
0.0
131
0.0
112
0.0
122
1.0
132
0.0
 79
     0
146
0.0
  0
ENDTAB
  0
TABLE
  2
LTYPE
  5
5
330
0
100
AcDbSymbolTable
 70
     6
  0
LTYPE
  5
14
330
5
100
AcDbSymbolTableRecord
100
AcDbLinetypeTableRecord
  2
ByBlock
 70
     0
  3

 72
    65
 73
     0
 40
0.0
  0
LTYPE
  5
15
330
5
100
AcDbSymbolTableRecord
100
AcDbLinetypeTableRecord
  2
ByLayer
 70
     0
  3

 72
    65
 73
     0
 40
0.0
  0
LTYPE
  5
16
330
5
100
AcDbSymbolTableRecord
100
AcDbLinetypeTableRecord
  2
Continuous
 70
     0
  3
Solid line
 72
    65
 73
     0
 40
0.0
  0
LTYPE
  5
6A
330
5
100
AcDbSymbolTableRecord
100
AcDbLinetypeTableRecord
  2
HIDDEN
 70
     0
  3
Hidden __ __ __ __ __ __ __ __ __ __ __ __ __ __
 72
    65
 73
     2
 40
1.905
 49
1.27
 74
     0
 49
-0.635
 74
     0
  0
LTYPE
  5
6B
330
5
100
AcDbSymbolTableRecord
100
AcDbLinetypeTableRecord
  2
PHANTOM
 70
     0
  3
Phantom ______  __  __  ______  __  __  ______
 72
    65
 73
     6
 40
12.7
 49
6.35
 74
     0
 49
-1.27
 74
     0
 49
1.27
 74
     0
 49
-1.27
 74
     0
 49
1.27
 74
     0
 49
-1.27
 74
     0
  0
LTYPE
  5
6C
330
5
100
AcDbSymbolTableRecord
100
AcDbLinetypeTableRecord
  2
CENTER
 70
     0
  3
Center ____ _ ____ _ ____ _ ____ _ ____ _ ____
 72
    65
 73
     4
 40
10.16
 49
6.35
 74
     0
 49
-1.27
 74
     0
 49
1.27
 74
     0
 49
-1.27
 74
     0
  0
LTYPE
  5
6D
330
5
100
AcDbSymbolTableRecord
100
AcDbLinetypeTableRecord
  2
CENTERX2
 70
     0
  3
Center (2x) ________  __  ________  __  _____
 72
    65
 73
     4
 40
20.32
 49
12.7
 74
     0
 49
-2.54
 74
     0
 49
2.54
 74
     0
 49
-2.54
 74
     0
  0
LTYPE
  5
6E
330
5
100
AcDbSymbolTableRecord
100
AcDbLinetypeTableRecord
  2
DOT2
 70
     0
  3
Dot (.5x) ........................................
 72
    65
 73
     2
 40
0.635
 49
0.0
 74
     0
 49
-0.635
 74
     0
  0
ENDTAB
  0
TABLE
  2
LAYER
  5
2
102
{ACAD_XDICTIONARY
360
1EE
102
}
330
0
100
AcDbSymbolTable
 70
    18
  0
LAYER
  5
10
330
2
100
AcDbSymbolTableRecord
100
AcDbLayerTableRecord
  2
0
 70
     0
 62
     7
  6
Continuous
370
    -3
390
F
  0
LAYER
  5
6F
330
2
100
AcDbSymbolTableRecord
100
AcDbLayerTableRecord
  2
FORMAT
 70
     0
 62
     2
  6
Continuous
370
    -3
390
F
  0
LAYER
  5
70
330
2
100
AcDbSymbolTableRecord
100
AcDbLayerTableRecord
  2
외형선
 70
     0
 62
     4
  6
Continuous
370
    30
390
F
  0
LAYER
  5
71
330
2
100
AcDbSymbolTableRecord
100
AcDbLayerTableRecord
  2
숨은선
 70
     0
 62
     2
  6
HIDDEN
370
    15
390
F
  0
LAYER
  5
72
330
2
100
AcDbSymbolTableRecord
100
AcDbLayerTableRecord
  2
중심선
 70
     0
 62
     1
  6
CENTERX2
370
    -3
390
F
  0
LAYER
  5
73
330
2
100
AcDbSymbolTableRecord
100
AcDbLayerTableRecord
  2
파단선
 70
     0
 62
     4
  6
Continuous
370
    -3
390
F
  0
LAYER
  5
74
330
2
100
AcDbSymbolTableRecord
100
AcDbLayerTableRecord
  2
해칭선
 70
     0
 62
   100
  6
Continuous
370
    -3
390
F
  0
LAYER
  5
75
330
2
100
AcDbSymbolTableRecord
100
AcDbLayerTableRecord
  2
가는실선
 70
     0
 62
     4
  6
Continuous
370
    -3
390
F
  0
LAYER
  5
76
330
2
100
AcDbSymbolTableRecord
100
AcDbLayerTableRecord
  2
치수_보조선
 70
     0
 62
     4
  6
Continuous
370
    -3
390
F
  0
LAYER
  5
77
330
2
100
AcDbSymbolTableRecord
100
AcDbLayerTableRecord
  2
치수문자_일반주서
 70
     0
 62
     7
  6
Continuous
370
    15
390
F
  0
LAYER
  5
78
330
2
100
AcDbSymbolTableRecord
100
AcDbLayerTableRecord
  2
개별주서
 70
     0
 62
   100
  6
Continuous
370
    30
390
F
  0
LAYER
  5
79
330
2
100
AcDbSymbolTableRecord
100
AcDbLayerTableRecord
  2
중간선
 70
     0
 62
     2
  6
Continuous
370
    15
390
F
  0
LAYER
  5
7A
330
2
100
AcDbSymbolTableRecord
100
AcDbLayerTableRecord
  2
윤곽선
 70
     0
 62
     3
  6
Continuous
370
    40
390
F
  0
LAYER
  5
7B
330
2
100
AcDbSymbolTableRecord
100
AcDbLayerTableRecord
  2
중심마크
 70
     0
 62
   100
  6
Continuous
370
    30
390
F
  0
LAYER
  5
7C
330
2
100
AcDbSymbolTableRecord
100
AcDbLayerTableRecord
  2
가상선
 70
     0
 62
     4
  6
PHANTOM
370
    -3
390
F
  0
LAYER
  5
7D
330
2
100
AcDbSymbolTableRecord
100
AcDbLayerTableRecord
  2
특수지정선
 70
     0
 62
     5
  6
CENTERX2
370
    60
390
F
  0
LAYER
  5
7E
330
2
100
AcDbSymbolTableRecord
100
AcDbLayerTableRecord
  2
참조1
 70
     0
 62
    -4
  6
Continuous
370
    -3
390
F
  0
LAYER
  5
153
330
2
100
AcDbSymbolTableRecord
100
AcDbLayerTableRecord
  2
Defpoints
 70
     0
 62
     7
  6
Continuous
290
     0
370
    -3
390
F
  0
ENDTAB
  0
TABLE
  2
STYLE
  5
3
330
0
100
AcDbSymbolTable
 70
     2
  0
STYLE
  5
11
330
3
100
AcDbSymbolTableRecord
100
AcDbTextStyleTableRecord
  2
Standard
 70
     0
 40
0.0
 41
1.0
 50
0.0
 71
     0
 42
3.5
  3
txt
  4

  0
STYLE
  5
94
330
3
100
AcDbSymbolTableRecord
100
AcDbTextStyleTableRecord
  2
SLDTEXTSTYLE0
 70
     0
 40
0.0
 41
0.75
 50
0.0
 71
     0
 42
3.5
  3
TXT
  4

  0
ENDTAB
  0
TABLE
  2
VIEW
  5
6
330
0
100
AcDbSymbolTable
 70
     0
  0
ENDTAB
  0
TABLE
  2
UCS
  5
7
330
0
100
AcDbSymbolTable
 70
     0
  0
ENDTAB
  0
TABLE
  2
APPID
  5
9
330
0
100
AcDbSymbolTable
 70
     1
  0
APPID
  5
12
330
9
100
AcDbSymbolTableRecord
100
AcDbRegAppTableRecord
  2
ACAD
 70
     0
  0
ENDTAB
  0
TABLE
  2
DIMSTYLE
  5
A
330
0
100
AcDbSymbolTable
 70
     4
100
AcDbDimStyleTable
  0
DIMSTYLE
105
27
330
A
100
AcDbSymbolTableRecord
100
AcDbDimStyleTableRecord
  2
ISO-25
 70
     0
 41
2.5
 42
0.625
 43
3.75
 44
1.25
 73
     0
 74
     0
 77
     1
 78
     8
140
2.5
141
2.5
143
0.03937007874016
147
0.625
171
     3
172
     1
178
     0
271
     2
272
     2
274
     3
278
    44
283
     0
284
     8
340
11
  0
DIMSTYLE
105
D0
330
A
100
AcDbSymbolTableRecord
100
AcDbDimStyleTableRecord
  2
SLDDIMSTYLE0
 70
     0
 41
3.302
 44
0.0
 45
0.000000001
 73
     0
 74
     0
 77
     1
 78
    12
 79
     3
140
3.5
143
0.0393700787401575
147
0.875
148
0.000000001
170
     1
173
     1
178
     0
271
     2
272
     2
276
     2
284
    12
340
94
  0
DIMSTYLE
105
E5
330
A
100
AcDbSymbolTableRecord
100
AcDbDimStyleTableRecord
  2
SLDDIMSTYLE1
 70
     0
 41
3.302
 44
0.0
 45
0.000000001
 73
     0
 74
     0
 77
     1
 78
     4
 79
     1
140
3.5
143
0.0393700787401575
147
0.875
148
0.000000001
170
     1
173
     1
178
     0
271
     2
272
     2
276
     2
284
    12
340
94
  0
DIMSTYLE
105
F9
102
{ACAD_REACTORS
330
F8
330
CF
330
E4
330
10D
102
}
330
A
100
AcDbSymbolTableRecord
100
AcDbDimStyleTableRecord
  2
SLDDIMSTYLE2
 70
     0
 41
3.302
 44
0.0
 45
0.000000001
 73
     0
 74
     0
 77
     1
 78
    12
 79
     3
140
3.5
143
0.0393700787401575
147
0.875
148
0.000000001
170
     1
172
     1
173
     1
178
     0
271
     2
272
     2
276
     2
284
    12
289
     0
340
94
  0
ENDTAB
  0
TABLE
  2
BLOCK_RECORD
  5
1
330
0
100
AcDbSymbolTable
 70
    15
  0
BLOCK_RECORD
  5
1F
330
1
100
AcDbSymbolTableRecord
100
AcDbBlockTableRecord
  2
*Model_Space
340
22
  0
BLOCK_RECORD
  5
1B
330
1
100
AcDbSymbolTableRecord
100
AcDbBlockTableRecord
  2
*Paper_Space
340
1E
  0
BLOCK_RECORD
  5
23
330
1
100
AcDbSymbolTableRecord
100
AcDbBlockTableRecord
  2
*Paper_Space0
340
26
  0
BLOCK_RECORD
  5
7F
330
1
100
AcDbSymbolTableRecord
100
AcDbBlockTableRecord
  2
블럭10
340
0
102
{BLKREFS
331
C8
102
}
  0
BLOCK_RECORD
  5
D1
330
1
100
AcDbSymbolTableRecord
100
AcDbBlockTableRecord
  2
_D
340
0
  0
BLOCK_RECORD
  5
E6
330
1
100
AcDbSymbolTableRecord
100
AcDbBlockTableRecord
  2
_D_1
340
0
  0
BLOCK_RECORD
  5
FA
330
1
100
AcDbSymbolTableRecord
100
AcDbBlockTableRecord
  2
_D_2
340
0
  0
BLOCK_RECORD
  5
10E
330
1
100
AcDbSymbolTableRecord
100
AcDbBlockTableRecord
  2
_D_3
340
0
  0
BLOCK_RECORD
  5
127
330
1
100
AcDbSymbolTableRecord
100
AcDbBlockTableRecord
  2
SW_DOWELSYMBOL_0
340
0
102
{BLKREFS
331
12D
102
}
  0
BLOCK_RECORD
  5
1F2
330
1
100
AcDbSymbolTableRecord
100
AcDbBlockTableRecord
  2
*D7
340
0
  0
BLOCK_RECORD
  5
201
330
1
100
AcDbSymbolTableRecord
100
AcDbBlockTableRecord
  2
*D8
340
0
  0
BLOCK_RECORD
  5
20D
330
1
100
AcDbSymbolTableRecord
100
AcDbBlockTableRecord
  2
*D9
340
0
  0
BLOCK_RECORD
  5
219
330
1
100
AcDbSymbolTableRecord
100
AcDbBlockTableRecord
  2
*D10
340
0
  0
BLOCK_RECORD
  5
25F
330
1
100
AcDbSymbolTableRecord
100
AcDbBlockTableRecord
  2
*D11
340
0
  0
BLOCK_RECORD
  5
26E
330
1
100
AcDbSymbolTableRecord
100
AcDbBlockTableRecord
  2
*D12
340
0
  0
BLOCK_RECORD
  5
27A
330
1
100
AcDbSymbolTableRecord
100
AcDbBlockTableRecord
  2
*D13
340
0
  0
BLOCK_RECORD
  5
286
330
1
100
AcDbSymbolTableRecord
100
AcDbBlockTableRecord
  2
*D14
340
0
  0
ENDTAB
  0
ENDSEC
  0
SECTION
  2
BLOCKS
  0
BLOCK
  5
20
330
1F
100
AcDbEntity
  8
0
100
AcDbBlockBegin
  2
*Model_Space
 70
     0
 10
0.0
 20
0.0
 30
0.0
  3
*Model_Space
  1
*Model_Space
  0
ENDBLK
  5
21
330
1F
100
AcDbEntity
  8
0
100
AcDbBlockEnd
  0
BLOCK
  5
1C
330
1B
100
AcDbEntity
 67
     1
  8
0
100
AcDbBlockBegin
  2
*Paper_Space
 70
     0
 10
0.0
 20
0.0
 30
0.0
  3
*Paper_Space
  1
*Paper_Space
  0
ENDBLK
  5
1D
330
1B
100
AcDbEntity
 67
     1
  8
0
100
AcDbBlockEnd
  0
BLOCK
  5
24
330
23
100
AcDbEntity
  8
0
100
AcDbBlockBegin
  2
*Paper_Space0
 70
     0
 10
0.0
 20
0.0
 30
0.0
  3
*Paper_Space0
  1
*Paper_Space0
  0
ENDBLK
  5
25
330
23
100
AcDbEntity
  8
0
100
AcDbBlockEnd
  0
BLOCK
  5
80
330
7F
100
AcDbEntity
  8
0
100
AcDbBlockBegin
  2
블럭10
 70
     2
 10
0.0
 20
0.0
 30
0.0
  3
블럭10
  1
블럭10
  0
ELLIPSE
  5
82
330
7F
100
AcDbEntity
  8
중심선
100
AcDbEllipse
 10
20.54032771741204
 20
12.0471743016438
 30
0.0
 11
6.600054785286829
 21
-1.261213355974178E-13
 31
0.0
210
0.0
220
0.0
230
1.0
 40
0.636358354079598
 41
0.9219305317359503
 42
6.513795318482858
  0
ELLIPSE
  5
83
330
7F
100
AcDbEntity
  8
중심선
100
AcDbEllipse
 10
20.54032771746488
 20
12.04717430159265
 30
0.0
 11
3.960054785062283
 21
1.540847449632565E-10
 31
0.0
210
0.0
220
0.0
230
1.0
 40
0.3939339440162632
 41
1.131841032648279
 42
5.62031148352944
  0
LINE
  5
84
330
7F
100
AcDbEntity
  8
중심선
100
AcDbLine
 10
2.268634060543552
 20
16.24717430164393
 30
0.0
 11
5.714909304380834
 21
16.24717430164393
 31
0.0
  0
LINE
  5
85
330
7F
100
AcDbEntity
  8
중심선
100
AcDbLine
 10
5.245725140726316
 20
7.84717430164391
 30
0.0
 11
8.692000384563599
 21
7.84717430164391
 31
0.0
  0
LINE
  5
86
330
7F
100
AcDbEntity
  8
중심선
100
AcDbLine
 10
15.74043728645272
 20
16.24717430164393
 30
0.0
 11
8.692000384563599
 21
7.84717430164391
 31
0.0
  0
LINE
  5
87
330
7F
100
AcDbEntity
  8
중심선
100
AcDbLine
 10
0.1404042013395286
 20
13.71084872107135
 30
0.0
 11
3.58671253028996
 21
13.71088815037384
 31
0.0
  0
LINE
  5
88
330
7F
100
AcDbEntity
  8
중심선
100
AcDbLine
 10
2.750260043222114
 20
10.84717430164391
 30
0.0
 11
6.196535287059397
 21
10.84717430164391
 31
0.0
  0
LINE
  5
89
330
7F
100
AcDbEntity
  8
중심선
100
AcDbLine
 10
12.29416204261559
 20
16.24717430164393
 30
0.0
 11
5.245725140726316
 21
7.84717430164391
 31
0.0
  0
LINE
  5
8A
330
7F
100
AcDbEntity
  8
중심선
100
AcDbLine
 10
10.72767329541681
 20
16.24717430164393
 30
0.0
 11
6.196535287059397
 21
10.84717430164391
 31
0.0
  0
LINE
  5
8B
330
7F
100
AcDbEntity
  8
중심선
100
AcDbLine
 10
7.28139805157953
 20
16.24717430164393
 30
0.0
 11
2.750260043222114
 21
10.84717430164391
 31
0.0
  0
LINE
  5
8C
330
7F
100
AcDbEntity
  8
중심선
100
AcDbLine
 10
5.714909304380834
 20
16.24717430164393
 30
0.0
 11
3.58671253028996
 21
13.71088815037384
 31
0.0
  0
LINE
  5
8D
330
7F
100
AcDbEntity
  8
중심선
100
AcDbLine
 10
2.268634060543552
 20
16.24717430164393
 30
0.0
 11
0.1404042013395286
 21
13.71084872107135
 31
0.0
  0
LINE
  5
8E
330
7F
100
AcDbEntity
  8
중심선
100
AcDbLine
 10
7.28139805157953
 20
16.24717430164393
 30
0.0
 11
10.72767329541681
 21
16.24717430164393
 31
0.0
  0
LINE
  5
8F
330
7F
100
AcDbEntity
  8
중심선
100
AcDbLine
 10
12.29416204261559
 20
16.24717430164393
 30
0.0
 11
15.74043728645272
 21
16.24717430164393
 31
0.0
  0
LINE
  5
90
330
7F
100
AcDbEntity
  8
중심선
100
AcDbLine
 10
19.22036997980202
 20
11.08717430171403
 30
0.0
 11
23.66174974927406
 21
11.08717430171406
 31
0.0
  0
LINE
  5
91
330
7F
100
AcDbEntity
  8
중심선
100
AcDbLine
 10
19.22039502424796
 20
13.00717430171391
 30
0.0
 11
19.22036997980202
 21
11.08717430171403
 31
0.0
  0
LINE
  5
92
330
7F
100
AcDbEntity
  8
중심선
100
AcDbLine
 10
19.22039502424796
 20
13.00717430171391
 30
0.0
 11
26.96566020931264
 21
13.00717430171391
 31
0.0
  0
LINE
  5
93
330
7F
100
AcDbEntity
  8
중심선
100
AcDbLine
 10
22.22332737316547
 20
13.45928029700563
 30
0.0
 11
24.52862924686651
 21
15.39360700705356
 31
0.0
  0
ATTDEF
  5
95
330
7F
100
AcDbEntity
  8
FORMAT
 62
     2
100
AcDbText
 10
4.408487351596664
 20
2.075366912832191
 30
0.0
 40
4.233333333333333
  1
E2031020
 41
0.75
  7
SLDTEXTSTYLE0
 11
4.408487351596664
 21
-0.0412997538344756
 31
0.0
100
AcDbAttributeDefinition
  3

  2
AUTOATTR0
 70
     0
 74
     1
  0
ENDBLK
  5
81
330
7F
100
AcDbEntity
  8
0
100
AcDbBlockEnd
  0
BLOCK
  5
D2
330
D1
100
AcDbEntity
  8
0
100
AcDbBlockBegin
  2
_D
 70
     0
 10
0.0
 20
0.0
 30
0.0
  3
_D
  1
_D
  0
LINE
  5
D4
330
D1
100
AcDbEntity
  8
치수문자_일반주서
 62
     0
370
    -2
100
AcDbLine
 10
25.01231532850781
 20
4.032324928723897
 30
0.0
 11
25.01231532850781
 21
12.7902787438509
 31
0.0
  0
LINE
  5
D5
330
D1
100
AcDbEntity
  8
치수문자_일반주서
 62
     0
370
    -2
100
AcDbLine
 10
5.962315328507811
 20
4.032324928723893
 30
0.0
 11
5.962315328507811
 21
12.7902787438509
 31
0.0
  0
LINE
  5
D6
330
D1
100
AcDbEntity
  8
치수문자_일반주서
 62
     0
370
    -2
100
AcDbLine
 10
5.962315328507811
 20
12.7902787438509
 30
0.0
 11
-25.71409167591528
 21
12.7902787438509
 31
0.0
  0
LINE
  5
D7
330
D1
100
AcDbEntity
  8
치수문자_일반주서
 62
     0
370
    -2
100
AcDbLine
 10
25.01231532850781
 20
12.7902787438509
 30
0.0
 11
5.962315328507811
 21
12.7902787438509
 31
0.0
  0
LINE
  5
D8
330
D1
100
AcDbEntity
  8
치수문자_일반주서
 62
     0
370
    -2
100
AcDbLine
 10
28.31431532850781
 20
12.7902787438509
 30
0.0
 11
31.61631532850781
 21
12.7902787438509
 31
0.0
  0
LINE
  5
D9
330
D1
100
AcDbEntity
  8
치수문자_일반주서
 62
     0
370
    -2
100
AcDbLine
 10
2.660315328507812
 20
12.7902787438509
 30
0.0
 11
-0.6416846714921878
 21
12.7902787438509
 31
0.0
  0
SOLID
  5
DA
330
D1
100
AcDbEntity
  8
치수문자_일반주서
 62
     0
100
AcDbTrace
 10
28.31431532850781
 20
13.34061207718423
 30
0.0
 11
28.31431532850781
 21
12.23994541051757
 31
0.0
 12
25.01231532850781
 22
12.7902787438509
 32
0.0
 13
25.01231532850781
 23
12.7902787438509
 33
0.0
  0
SOLID
  5
DB
330
D1
100
AcDbEntity
  8
치수문자_일반주서
 62
     0
100
AcDbTrace
 10
2.660315328507812
 20
12.23994541051757
 30
0.0
 11
2.660315328507812
 21
13.34061207718423
 31
0.0
 12
5.962315328507811
 22
12.7902787438509
 32
0.0
 13
5.962315328507811
 23
12.7902787438509
 33
0.0
  0
MTEXT
  5
DC
330
D1
100
AcDbEntity
  8
치수문자_일반주서
 62
     0
100
AcDbMText
 10
-13.24534167591528
 20
17.1652787438509
 30
0.0
 40
3.5
 41
0.0
 71
     2
 72
     1
  1
\A1;19.05 [3/4]
  7
SLDTEXTSTYLE0
 73
     1
 44
1.0
  0
POINT
  5
DD
330
D1
100
AcDbEntity
  8
Defpoints
 62
     0
100
AcDbPoint
 10
25.01231532850781
 20
3.969824928723897
 30
0.0
  0
POINT
  5
295
330
D1
100
AcDbEntity
  8
Defpoints
 62
     0
100
AcDbPoint
 10
5.962315328507811
 20
3.969824928723893
 30
0.0
  0
POINT
  5
296
330
D1
100
AcDbEntity
  8
Defpoints
 62
     0
100
AcDbPoint
 10
5.962315328507811
 20
12.7902787438509
 30
0.0
  0
ENDBLK
  5
D3
330
D1
100
AcDbEntity
  8
0
100
AcDbBlockEnd
  0
BLOCK
  5
E7
330
E6
100
AcDbEntity
  8
0
100
AcDbBlockBegin
  2
_D_1
 70
     0
 10
0.0
 20
0.0
 30
0.0
  3
_D_1
  1
_D_1
  0
LINE
  5
E9
330
E6
100
AcDbEntity
  8
치수문자_일반주서
 62
     0
370
    -2
100
AcDbLine
 10
25.01231532850781
 20
4.032324928723897
 30
0.0
 11
25.01231532850781
 21
32.85727329760351
 31
0.0
  0
LINE
  5
EA
330
E6
100
AcDbEntity
  8
치수문자_일반주서
 62
     0
370
    -2
100
AcDbLine
 10
-38.48768467149219
 20
3.873574928723895
 30
0.0
 11
-38.48768467149219
 21
32.85727329760351
 31
0.0
  0
LINE
  5
EB
330
E6
100
AcDbEntity
  8
치수문자_일반주서
 62
     0
370
    -2
100
AcDbLine
 10
21.71031532850781
 20
32.85727329760351
 30
0.0
 11
-35.18568467149219
 21
32.85727329760351
 31
0.0
  0
SOLID
  5
EC
330
E6
100
AcDbEntity
  8
치수문자_일반주서
 62
     0
100
AcDbTrace
 10
21.71031532850781
 20
32.30693996427017
 30
0.0
 11
21.71031532850781
 21
33.40760663093684
 31
0.0
 12
25.01231532850781
 22
32.85727329760351
 32
0.0
 13
25.01231532850781
 23
32.85727329760351
 33
0.0
  0
SOLID
  5
ED
330
E6
100
AcDbEntity
  8
치수문자_일반주서
 62
     0
100
AcDbTrace
 10
-35.18568467149219
 20
33.40760663093684
 30
0.0
 11
-35.18568467149219
 21
32.30693996427017
 31
0.0
 12
-38.48768467149219
 22
32.85727329760351
 32
0.0
 13
-38.48768467149219
 23
32.85727329760351
 33
0.0
  0
MTEXT
  5
EE
330
E6
100
AcDbEntity
  8
치수문자_일반주서
 62
     0
100
AcDbMText
 10
-6.737684671492191
 20
37.23227329760351
 30
0.0
 40
3.5
 41
0.0
 71
     2
 72
     1
  1
\A1;63.5 [2 1/2]
  7
SLDTEXTSTYLE0
 73
     1
 44
1.0
  0
POINT
  5
EF
330
E6
100
AcDbEntity
  8
Defpoints
 62
     0
100
AcDbPoint
 10
25.01231532850781
 20
3.969824928723897
 30
0.0
  0
POINT
  5
F0
330
E6
100
AcDbEntity
  8
Defpoints
 62
     0
100
AcDbPoint
 10
-38.48768467149219
 20
3.811074928723895
 30
0.0
  0
POINT
  5
F1
330
E6
100
AcDbEntity
  8
Defpoints
 62
     0
100
AcDbPoint
 10
-38.48768467149219
 20
32.85727329760351
 30
0.0
  0
ENDBLK
  5
E8
330
E6
100
AcDbEntity
  8
0
100
AcDbBlockEnd
  0
BLOCK
  5
FB
330
FA
100
AcDbEntity
  8
0
100
AcDbBlockBegin
  2
_D_2
 70
     0
 10
0.0
 20
0.0
 30
0.0
  3
_D_2
  1
_D_2
  0
LINE
  5
FD
330
FA
100
AcDbEntity
  8
치수문자_일반주서
 62
     0
370
    -2
100
AcDbLine
 10
-37.5976846714922
 20
4.763574928723896
 30
0.0
 11
-49.78845750931941
 21
4.76357492872385
 31
0.0
  0
LINE
  5
FE
330
FA
100
AcDbEntity
  8
치수문자_일반주서
 62
     0
370
    -2
100
AcDbLine
 10
-37.5976846714922
 20
-4.761425071276109
 30
0.0
 11
-49.78845750931937
 21
-4.761425071276156
 31
0.0
  0
LINE
  5
FF
330
FA
100
AcDbEntity
  8
치수문자_일반주서
 62
     0
370
    -2
100
AcDbLine
 10
-49.78845750931939
 20
1.46157492872385
 30
0.0
 11
-49.78845750931939
 21
-1.459425071276156
 31
0.0
  0
SOLID
  5
100
330
FA
100
AcDbEntity
  8
치수문자_일반주서
 62
     0
100
AcDbTrace
 10
-49.23812417598606
 20
1.461574928723852
 30
0.0
 11
-50.33879084265273
 21
1.461574928723848
 31
0.0
 12
-49.78845750931941
 22
4.76357492872385
 32
0.0
 13
-49.78845750931941
 23
4.76357492872385
 33
0.0
  0
SOLID
  5
101
330
FA
100
AcDbEntity
  8
치수문자_일반주서
 62
     0
100
AcDbTrace
 10
-50.33879084265272
 20
-1.459425071276158
 30
0.0
 11
-49.23812417598605
 21
-1.459425071276154
 31
0.0
 12
-49.78845750931937
 22
-4.761425071276156
 32
0.0
 13
-49.78845750931937
 23
-4.761425071276156
 33
0.0
  0
MTEXT
  5
102
330
FA
100
AcDbEntity
  8
치수문자_일반주서
 62
     0
100
AcDbMText
 10
-54.16345750931939
 20
0.0010749287238796
 30
0.0
 40
3.5
 41
0.0
 71
     2
 72
     1
  1
\A1;%%c9.53 [3/8]
  7
SLDTEXTSTYLE0
 11
-3.729883127349605E-15
 21
1.0
 31
0.0
 73
     1
 44
1.0
  0
POINT
  5
103
330
FA
100
AcDbEntity
  8
Defpoints
 62
     0
100
AcDbPoint
 10
-37.5351846714922
 20
4.763574928723896
 30
0.0
  0
POINT
  5
104
330
FA
100
AcDbEntity
  8
Defpoints
 62
     0
100
AcDbPoint
 10
-37.5351846714922
 20
-4.761425071276109
 30
0.0
  0
POINT
  5
105
330
FA
100
AcDbEntity
  8
Defpoints
 62
     0
100
AcDbPoint
 10
-49.78845750931937
 20
-4.761425071276156
 30
0.0
  0
ENDBLK
  5
FC
330
FA
100
AcDbEntity
  8
0
100
AcDbBlockEnd
  0
BLOCK
  5
10F
330
10E
100
AcDbEntity
  8
0
100
AcDbBlockBegin
  2
_D_3
 70
     0
 10
0.0
 20
0.0
 30
0.0
  3
_D_3
  1
_D_3
  0
LINE
  5
111
330
10E
100
AcDbEntity
  8
치수문자_일반주서
 62
     0
370
    -2
100
AcDbLine
 10
25.07481532850781
 20
3.969824928723898
 30
0.0
 11
39.49836916871421
 21
3.969824928723952
 31
0.0
  0
LINE
  5
112
330
10E
100
AcDbEntity
  8
치수문자_일반주서
 62
     0
370
    -2
100
AcDbLine
 10
25.07481532850781
 20
-3.967675071276102
 30
0.0
 11
39.49836916871423
 21
-3.967675071276048
 31
0.0
  0
LINE
  5
113
330
10E
100
AcDbEntity
  8
치수문자_일반주서
 62
     0
370
    -2
100
AcDbLine
 10
39.49836916871421
 20
3.969824928723952
 30
0.0
 11
39.49836916871408
 21
38.62173021385198
 31
0.0
  0
LINE
  5
114
330
10E
100
AcDbEntity
  8
치수문자_일반주서
 62
     0
370
    -2
100
AcDbLine
 10
39.49836916871421
 20
3.969824928723952
 30
0.0
 11
39.49836916871423
 21
-3.967675071276048
 31
0.0
  0
LINE
  5
115
330
10E
100
AcDbEntity
  8
치수문자_일반주서
 62
     0
370
    -2
100
AcDbLine
 10
39.49836916871419
 20
7.271824928723952
 30
0.0
 11
39.49836916871418
 21
10.57382492872395
 31
0.0
  0
LINE
  5
116
330
10E
100
AcDbEntity
  8
치수문자_일반주서
 62
     0
370
    -2
100
AcDbLine
 10
39.49836916871425
 20
-7.269675071276048
 30
0.0
 11
39.49836916871426
 21
-10.57167507127605
 31
0.0
  0
SOLID
  5
117
330
10E
100
AcDbEntity
  8
치수문자_일반주서
 62
     0
100
AcDbTrace
 10
38.94803583538086
 20
7.27182492872395
 30
0.0
 11
40.04870250204753
 21
7.271824928723953
 31
0.0
 12
39.49836916871421
 22
3.969824928723952
 32
0.0
 13
39.49836916871421
 23
3.969824928723952
 33
0.0
  0
SOLID
  5
118
330
10E
100
AcDbEntity
  8
치수문자_일반주서
 62
     0
100
AcDbTrace
 10
40.04870250204758
 20
-7.269675071276046
 30
0.0
 11
38.94803583538091
 21
-7.269675071276049
 31
0.0
 12
39.49836916871423
 22
-3.967675071276048
 32
0.0
 13
39.49836916871423
 23
-3.967675071276048
 33
0.0
  0
MTEXT
  5
119
330
10E
100
AcDbEntity
  8
치수문자_일반주서
 62
     0
100
AcDbMText
 10
35.12336916871413
 20
24.62173021385196
 30
0.0
 40
3.5
 41
0.0
 71
     2
 72
     1
  1
\A1;%%c7.94 [5/16]
  7
SLDTEXTSTYLE0
 11
-3.580687802255623E-15
 21
1.0
 31
0.0
 73
     1
 44
1.0
  0
POINT
  5
11A
330
10E
100
AcDbEntity
  8
Defpoints
 62
     0
100
AcDbPoint
 10
25.01231532850781
 20
3.969824928723897
 30
0.0
  0
POINT
  5
11B
330
10E
100
AcDbEntity
  8
Defpoints
 62
     0
100
AcDbPoint
 10
25.01231532850781
 20
-3.967675071276103
 30
0.0
  0
POINT
  5
297
330
10E
100
AcDbEntity
  8
Defpoints
 62
     0
100
AcDbPoint
 10
39.49836916871423
 20
-3.967675071276048
 30
0.0
  0
ENDBLK
  5
110
330
10E
100
AcDbEntity
  8
0
100
AcDbBlockEnd
  0
BLOCK
  5
128
330
127
100
AcDbEntity
  8
0
100
AcDbBlockBegin
  2
SW_DOWELSYMBOL_0
 70
     0
 10
0.0
 20
0.0
 30
0.0
  3
SW_DOWELSYMBOL_0
  1
SW_DOWELSYMBOL_0
  0
CIRCLE
  5
12A
330
127
100
AcDbEntity
  8
해칭선
 62
     0
100
AcDbCircle
 10
0.0
 20
0.0
 30
0.0
 40
2.999999999999999
  0
HATCH
  5
12B
330
127
100
AcDbEntity
  8
0
  6
Continuous
 62
     0
370
     0
100
AcDbHatch
 10
0.0
 20
0.0
 30
0.0
210
0.0
220
0.0
230
1.0
  2
SOLID
 70
     1
 71
     0
 91
        1
 92
        0
 93
        3
 72
     2
 10
0.0
 20
0.0
 40
2.999999999999999
 50
0.0
 51
90.0
 73
     1
 72
     1
 10
0.0
 20
2.999999999999999
 11
0.0
 21
0.0
 72
     1
 10
0.0
 20
0.0
 11
2.999999999999999
 21
0.0
 97
        0
 75
     0
 76
     1
 98
        1
 10
0.0
 20
0.0
  0
HATCH
  5
12C
330
127
100
AcDbEntity
  8
0
  6
Continuous
 62
     0
370
     0
100
AcDbHatch
 10
0.0
 20
0.0
 30
0.0
210
0.0
220
0.0
230
1.0
  2
SOLID
 70
     1
 71
     0
 91
        1
 92
        0
 93
        3
 72
     2
 10
0.0
 20
0.0
 40
2.999999999999999
 50
180.0
 51
270.0000000000007
 73
     1
 72
     1
 10
0.0
 20
-2.999999999999999
 11
0.0
 21
0.0
 72
     1
 10
0.0
 20
0.0
 11
-2.999999999999999
 21
0.0
 97
        0
 75
     0
 76
     1
 98
        1
 10
0.0
 20
0.0
  0
ENDBLK
  5
129
330
127
100
AcDbEntity
  8
0
100
AcDbBlockEnd
  0
BLOCK
  5
1F3
330
1F2
100
AcDbEntity
  8
0
100
AcDbBlockBegin
  2
*D7
 70
     1
 10
0.0
 20
0.0
 30
0.0
  3
*D7
  1
*D8
  0
LINE
  5
1F5
330
1F2
100
AcDbEntity
  8
치수문자_일반주서
 62
     0
370
    -2
100
AcDbLine
 10
79.17577283782725
 20
16.47968750000001
 30
0.0
 11
79.17577283782725
 21
29.06454400418545
 31
0.0
  0
LINE
  5
1F6
330
1F2
100
AcDbEntity
  8
치수문자_일반주서
 62
     0
370
    -2
100
AcDbLine
 10
60.12577283782726
 20
16.47101233214063
 30
0.0
 11
60.12577283782726
 21
29.06454400418545
 31
0.0
  0
LINE
  5
1F7
330
1F2
100
AcDbEntity
  8
치수문자_일반주서
 62
     0
370
    -2
100
AcDbLine
 10
60.12577283782726
 20
29.06454400418545
 30
0.0
 11
28.58427283782726
 21
29.06454400418545
 31
0.0
  0
LINE
  5
1F8
330
1F2
100
AcDbEntity
  8
치수문자_일반주서
 62
     0
370
    -2
100
AcDbLine
 10
79.17577283782725
 20
29.06454400418545
 30
0.0
 11
60.12577283782726
 21
29.06454400418545
 31
0.0
  0
LINE
  5
1F9
330
1F2
100
AcDbEntity
  8
치수문자_일반주서
 62
     0
370
    -2
100
AcDbLine
 10
82.47777283782725
 20
29.06454400418545
 30
0.0
 11
85.77977283782724
 21
29.06454400418545
 31
0.0
  0
LINE
  5
1FA
330
1F2
100
AcDbEntity
  8
치수문자_일반주서
 62
     0
370
    -2
100
AcDbLine
 10
56.82377283782726
 20
29.06454400418545
 30
0.0
 11
53.52177283782726
 21
29.06454400418545
 31
0.0
  0
SOLID
  5
1FB
330
1F2
100
AcDbEntity
  8
치수문자_일반주서
 62
     0
100
AcDbTrace
 10
82.47777283782725
 20
29.61487733751878
 30
0.0
 11
82.47777283782725
 21
28.51421067085212
 31
0.0
 12
79.17577283782725
 22
29.06454400418545
 32
0.0
 13
79.17577283782725
 23
29.06454400418545
 33
0.0
  0
SOLID
  5
1FC
330
1F2
100
AcDbEntity
  8
치수문자_일반주서
 62
     0
100
AcDbTrace
 10
56.82377283782726
 20
28.51421067085212
 30
0.0
 11
56.82377283782726
 21
29.61487733751878
 31
0.0
 12
60.12577283782726
 22
29.06454400418545
 32
0.0
 13
60.12577283782726
 23
29.06454400418545
 33
0.0
  0
MTEXT
  5
1FD
330
1F2
100
AcDbEntity
  8
치수문자_일반주서
 62
     0
100
AcDbMText
 10
41.05302283782726
 20
33.43954400418545
 30
0.0
 40
3.5
 41
0.0
 71
     2
 72
     1
  1
\A1;19.05 [3/4]
  7
SLDTEXTSTYLE0
 73
     1
 44
1.0
  0
POINT
  5
1FE
330
1F2
100
AcDbEntity
  8
Defpoints
 62
     0
100
AcDbPoint
 10
79.17577283782725
 20
16.41718750000001
 30
0.0
  0
POINT
  5
1FF
330
1F2
100
AcDbEntity
  8
Defpoints
 62
     0
100
AcDbPoint
 10
60.12577283782726
 20
16.40851233214063
 30
0.0
  0
POINT
  5
200
330
1F2
100
AcDbEntity
  8
Defpoints
 62
     0
100
AcDbPoint
 10
60.12577283782726
 20
29.06454400418545
 30
0.0
  0
ENDBLK
  5
1F4
330
1F2
100
AcDbEntity
  8
0
100
AcDbBlockEnd
  0
BLOCK
  5
202
330
201
100
AcDbEntity
  8
0
100
AcDbBlockBegin
  2
*D8
 70
     1
 10
0.0
 20
0.0
 30
0.0
  3
*D8
  1
*D9
  0
LINE
  5
204
330
201
100
AcDbEntity
  8
치수문자_일반주서
 62
     0
370
    -2
100
AcDbLine
 10
79.17577283782725
 20
16.47968750000001
 30
0.0
 11
79.17577283782725
 21
45.30390613313602
 31
0.0
  0
LINE
  5
205
330
201
100
AcDbEntity
  8
치수문자_일반주서
 62
     0
370
    -2
100
AcDbLine
 10
15.67577283782725
 20
16.12250000000001
 30
0.0
 11
15.67577283782725
 21
45.30390613313602
 31
0.0
  0
LINE
  5
206
330
201
100
AcDbEntity
  8
치수문자_일반주서
 62
     0
370
    -2
100
AcDbLine
 10
75.87377283782726
 20
45.30390613313602
 30
0.0
 11
18.97777283782725
 21
45.30390613313602
 31
0.0
  0
SOLID
  5
207
330
201
100
AcDbEntity
  8
치수문자_일반주서
 62
     0
100
AcDbTrace
 10
75.87377283782726
 20
44.75357279980269
 30
0.0
 11
75.87377283782726
 21
45.85423946646936
 31
0.0
 12
79.17577283782725
 22
45.30390613313602
 32
0.0
 13
79.17577283782725
 23
45.30390613313602
 33
0.0
  0
SOLID
  5
208
330
201
100
AcDbEntity
  8
치수문자_일반주서
 62
     0
100
AcDbTrace
 10
18.97777283782725
 20
45.85423946646936
 30
0.0
 11
18.97777283782725
 21
44.75357279980269
 31
0.0
 12
15.67577283782725
 22
45.30390613313602
 32
0.0
 13
15.67577283782725
 23
45.30390613313602
 33
0.0
  0
MTEXT
  5
209
330
201
100
AcDbEntity
  8
치수문자_일반주서
 62
     0
100
AcDbMText
 10
47.42577283782725
 20
49.67890613313602
 30
0.0
 40
3.5
 41
0.0
 71
     2
 72
     1
  1
\A1;63.5 [2 1/2]
  7
SLDTEXTSTYLE0
 73
     1
 44
1.0
  0
POINT
  5
20A
330
201
100
AcDbEntity
  8
Defpoints
 62
     0
100
AcDbPoint
 10
79.17577283782725
 20
16.41718750000001
 30
0.0
  0
POINT
  5
20B
330
201
100
AcDbEntity
  8
Defpoints
 62
     0
100
AcDbPoint
 10
15.67577283782725
 20
16.06000000000001
 30
0.0
  0
POINT
  5
20C
330
201
100
AcDbEntity
  8
Defpoints
 62
     0
100
AcDbPoint
 10
15.67577283782725
 20
45.30390613313602
 30
0.0
  0
ENDBLK
  5
203
330
201
100
AcDbEntity
  8
0
100
AcDbBlockEnd
  0
BLOCK
  5
20E
330
20D
100
AcDbEntity
  8
0
100
AcDbBlockBegin
  2
*D9
 70
     1
 10
0.0
 20
0.0
 30
0.0
  3
*D9
  1
*D10
  0
LINE
  5
210
330
20D
100
AcDbEntity
  8
치수문자_일반주서
 62
     0
370
    -2
100
AcDbLine
 10
16.56577283782725
 20
17.01250000000001
 30
0.0
 11
4.375000000000034
 21
17.01249999999997
 31
0.0
  0
LINE
  5
211
330
20D
100
AcDbEntity
  8
치수문자_일반주서
 62
     0
370
    -2
100
AcDbLine
 10
16.56577283782725
 20
7.487500000000008
 30
0.0
 11
4.375000000000067
 21
7.487499999999962
 31
0.0
  0
LINE
  5
212
330
20D
100
AcDbEntity
  8
치수문자_일반주서
 62
     0
370
    -2
100
AcDbLine
 10
4.375000000000045
 20
13.71049999999997
 30
0.0
 11
4.375000000000055
 21
10.78949999999996
 31
0.0
  0
SOLID
  5
213
330
20D
100
AcDbEntity
  8
치수문자_일반주서
 62
     0
100
AcDbTrace
 10
4.925333333333379
 20
13.71049999999997
 30
0.0
 11
3.824666666666712
 21
13.71049999999997
 31
0.0
 12
4.375000000000034
 22
17.01249999999997
 32
0.0
 13
4.375000000000034
 23
17.01249999999997
 33
0.0
  0
SOLID
  5
214
330
20D
100
AcDbEntity
  8
치수문자_일반주서
 62
     0
100
AcDbTrace
 10
3.824666666666722
 20
10.78949999999996
 30
0.0
 11
4.925333333333389
 21
10.78949999999996
 31
0.0
 12
4.375000000000067
 22
7.487499999999962
 32
0.0
 13
4.375000000000067
 23
7.487499999999962
 33
0.0
  0
MTEXT
  5
215
330
20D
100
AcDbEntity
  8
치수문자_일반주서
 62
     0
100
AcDbMText
 10
0.0000000000000497
 20
12.25
 30
0.0
 40
3.5
 41
0.0
 71
     2
 72
     1
  1
\A1;%%c9.53 [3/8]
  7
SLDTEXTSTYLE0
 11
-3.450141892798385E-15
 21
1.0
 31
0.0
 73
     1
 44
1.0
  0
POINT
  5
216
330
20D
100
AcDbEntity
  8
Defpoints
 62
     0
100
AcDbPoint
 10
16.62827283782725
 20
17.01250000000001
 30
0.0
  0
POINT
  5
217
330
20D
100
AcDbEntity
  8
Defpoints
 62
     0
100
AcDbPoint
 10
16.62827283782725
 20
7.487500000000008
 30
0.0
  0
POINT
  5
218
330
20D
100
AcDbEntity
  8
Defpoints
 62
     0
100
AcDbPoint
 10
4.375000000000071
 20
7.487499999999962
 30
0.0
  0
ENDBLK
  5
20F
330
20D
100
AcDbEntity
  8
0
100
AcDbBlockEnd
  0
BLOCK
  5
21A
330
219
100
AcDbEntity
  8
0
100
AcDbBlockBegin
  2
*D10
 70
     1
 10
0.0
 20
0.0
 30
0.0
  3
*D10
  1
*D11
  0
LINE
  5
21C
330
219
100
AcDbEntity
  8
치수문자_일반주서
 62
     0
370
    -2
100
AcDbLine
 10
79.23827283782725
 20
16.41718750000001
 30
0.0
 11
97.78356947852876
 21
16.41718750000008
 31
0.0
  0
LINE
  5
21D
330
219
100
AcDbEntity
  8
치수문자_일반주서
 62
     0
370
    -2
100
AcDbLine
 10
79.23827283782725
 20
8.082812500000017
 30
0.0
 11
97.78356947852879
 21
8.082812500000088
 31
0.0
  0
LINE
  5
21E
330
219
100
AcDbEntity
  8
치수문자_일반주서
 62
     0
370
    -2
100
AcDbLine
 10
97.78356947852876
 20
16.41718750000008
 30
0.0
 11
97.78356947852863
 21
53.69336304938451
 31
0.0
  0
LINE
  5
21F
330
219
100
AcDbEntity
  8
치수문자_일반주서
 62
     0
370
    -2
100
AcDbLine
 10
97.78356947852876
 20
16.41718750000008
 30
0.0
 11
97.78356947852879
 21
8.082812500000088
 31
0.0
  0
LINE
  5
220
330
219
100
AcDbEntity
  8
치수문자_일반주서
 62
     0
370
    -2
100
AcDbLine
 10
97.78356947852875
 20
19.71918750000008
 30
0.0
 11
97.78356947852873
 21
23.02118750000008
 31
0.0
  0
LINE
  5
221
330
219
100
AcDbEntity
  8
치수문자_일반주서
 62
     0
370
    -2
100
AcDbLine
 10
97.7835694785288
 20
4.780812500000089
 30
0.0
 11
97.78356947852882
 21
1.478812500000089
 31
0.0
  0
SOLID
  5
222
330
219
100
AcDbEntity
  8
치수문자_일반주서
 62
     0
100
AcDbTrace
 10
97.23323614519542
 20
19.71918750000008
 30
0.0
 11
98.33390281186207
 21
19.71918750000009
 31
0.0
 12
97.78356947852876
 22
16.41718750000008
 32
0.0
 13
97.78356947852876
 23
16.41718750000008
 33
0.0
  0
SOLID
  5
223
330
219
100
AcDbEntity
  8
치수문자_일반주서
 62
     0
100
AcDbTrace
 10
98.33390281186213
 20
4.78081250000009
 30
0.0
 11
97.23323614519548
 21
4.780812500000087
 31
0.0
 12
97.78356947852879
 22
8.082812500000088
 32
0.0
 13
97.78356947852879
 23
8.082812500000088
 33
0.0
  0
MTEXT
  5
224
330
219
100
AcDbEntity
  8
치수문자_일반주서
 62
     0
100
AcDbMText
 10
93.40856947852869
 20
38.38086304938449
 30
0.0
 40
3.5
 41
0.0
 71
     2
 72
     1
  1
\A1;%%c8.33 [21/64]
  7
SLDTEXTSTYLE0
 11
-3.410178859291071E-15
 21
1.0
 31
0.0
 73
     1
 44
1.0
  0
POINT
  5
225
330
219
100
AcDbEntity
  8
Defpoints
 62
     0
100
AcDbPoint
 10
79.17577283782725
 20
16.41718750000001
 30
0.0
  0
POINT
  5
226
330
219
100
AcDbEntity
  8
Defpoints
 62
     0
100
AcDbPoint
 10
79.17577283782725
 20
8.082812500000017
 30
0.0
  0
POINT
  5
227
330
219
100
AcDbEntity
  8
Defpoints
 62
     0
100
AcDbPoint
 10
97.78356947852879
 20
8.082812500000086
 30
0.0
  0
ENDBLK
  5
21B
330
219
100
AcDbEntity
  8
0
100
AcDbBlockEnd
  0
BLOCK
  5
260
330
25F
100
AcDbEntity
  8
0
100
AcDbBlockBegin
  2
*D11
 70
     1
 10
0.0
 20
0.0
 30
0.0
  3
*D11
  1
*D12
  0
LINE
  5
262
330
25F
100
AcDbEntity
  8
치수문자_일반주서
 62
     0
370
    -2
100
AcDbLine
 10
163.5218106982938
 20
-21.44426789069006
 30
0.0
 11
163.5218106982938
 21
-8.859411386504618
 31
0.0
  0
LINE
  5
263
330
25F
100
AcDbEntity
  8
치수문자_일반주서
 62
     0
370
    -2
100
AcDbLine
 10
144.4718106982938
 20
-21.45294305854944
 30
0.0
 11
144.4718106982938
 21
-8.859411386504618
 31
0.0
  0
LINE
  5
264
330
25F
100
AcDbEntity
  8
치수문자_일반주서
 62
     0
370
    -2
100
AcDbLine
 10
144.4718106982938
 20
-8.859411386504618
 30
0.0
 11
112.9303106982938
 21
-8.859411386504618
 31
0.0
  0
LINE
  5
265
330
25F
100
AcDbEntity
  8
치수문자_일반주서
 62
     0
370
    -2
100
AcDbLine
 10
163.5218106982938
 20
-8.859411386504618
 30
0.0
 11
144.4718106982938
 21
-8.859411386504618
 31
0.0
  0
LINE
  5
266
330
25F
100
AcDbEntity
  8
치수문자_일반주서
 62
     0
370
    -2
100
AcDbLine
 10
166.8238106982938
 20
-8.859411386504618
 30
0.0
 11
170.1258106982937
 21
-8.859411386504618
 31
0.0
  0
LINE
  5
267
330
25F
100
AcDbEntity
  8
치수문자_일반주서
 62
     0
370
    -2
100
AcDbLine
 10
141.1698106982938
 20
-8.859411386504618
 30
0.0
 11
137.8678106982938
 21
-8.859411386504618
 31
0.0
  0
SOLID
  5
268
330
25F
100
AcDbEntity
  8
치수문자_일반주서
 62
     0
100
AcDbTrace
 10
166.8238106982938
 20
-8.309078053171286
 30
0.0
 11
166.8238106982938
 21
-9.409744719837951
 31
0.0
 12
163.5218106982938
 22
-8.859411386504618
 32
0.0
 13
163.5218106982938
 23
-8.859411386504618
 33
0.0
  0
SOLID
  5
269
330
25F
100
AcDbEntity
  8
치수문자_일반주서
 62
     0
100
AcDbTrace
 10
141.1698106982938
 20
-9.409744719837951
 30
0.0
 11
141.1698106982938
 21
-8.309078053171286
 31
0.0
 12
144.4718106982938
 22
-8.859411386504618
 32
0.0
 13
144.4718106982938
 23
-8.859411386504618
 33
0.0
  0
MTEXT
  5
26A
330
25F
100
AcDbEntity
  8
치수문자_일반주서
 62
     0
100
AcDbMText
 10
125.3990606982938
 20
-4.484411386504618
 30
0.0
 40
3.5
 41
0.0
 71
     2
 72
     1
  1
\A1;19.05 [3/4]
  7
SLDTEXTSTYLE0
 73
     1
 44
1.0
  0
POINT
  5
26B
330
25F
100
AcDbEntity
  8
Defpoints
 62
     0
100
AcDbPoint
 10
163.5218106982938
 20
-21.50676789069006
 30
0.0
  0
POINT
  5
26C
330
25F
100
AcDbEntity
  8
Defpoints
 62
     0
100
AcDbPoint
 10
144.4718106982938
 20
-21.51544305854944
 30
0.0
  0
POINT
  5
26D
330
25F
100
AcDbEntity
  8
Defpoints
 62
     0
100
AcDbPoint
 10
144.4718106982938
 20
-8.859411386504618
 30
0.0
  0
ENDBLK
  5
261
330
25F
100
AcDbEntity
  8
0
100
AcDbBlockEnd
  0
BLOCK
  5
26F
330
26E
100
AcDbEntity
  8
0
100
AcDbBlockBegin
  2
*D12
 70
     1
 10
0.0
 20
0.0
 30
0.0
  3
*D12
  1
*D13
  0
LINE
  5
271
330
26E
100
AcDbEntity
  8
치수문자_일반주서
 62
     0
370
    -2
100
AcDbLine
 10
163.5218106982938
 20
-21.44426789069006
 30
0.0
 11
163.5218106982938
 21
7.379950742445956
 31
0.0
  0
LINE
  5
272
330
26E
100
AcDbEntity
  8
치수문자_일반주서
 62
     0
370
    -2
100
AcDbLine
 10
100.0218106982938
 20
-21.80145539069006
 30
0.0
 11
100.0218106982938
 21
7.379950742445956
 31
0.0
  0
LINE
  5
273
330
26E
100
AcDbEntity
  8
치수문자_일반주서
 62
     0
370
    -2
100
AcDbLine
 10
160.2198106982938
 20
7.379950742445956
 30
0.0
 11
103.3238106982938
 21
7.379950742445956
 31
0.0
  0
SOLID
  5
274
330
26E
100
AcDbEntity
  8
치수문자_일반주서
 62
     0
100
AcDbTrace
 10
160.2198106982938
 20
6.829617409112623
 30
0.0
 11
160.2198106982938
 21
7.93028407577929
 31
0.0
 12
163.5218106982938
 22
7.379950742445956
 32
0.0
 13
163.5218106982938
 23
7.379950742445956
 33
0.0
  0
SOLID
  5
275
330
26E
100
AcDbEntity
  8
치수문자_일반주서
 62
     0
100
AcDbTrace
 10
103.3238106982938
 20
7.93028407577929
 30
0.0
 11
103.3238106982938
 21
6.829617409112623
 31
0.0
 12
100.0218106982938
 22
7.379950742445956
 32
0.0
 13
100.0218106982938
 23
7.379950742445956
 33
0.0
  0
MTEXT
  5
276
330
26E
100
AcDbEntity
  8
치수문자_일반주서
 62
     0
100
AcDbMText
 10
131.7718106982938
 20
11.75495074244596
 30
0.0
 40
3.5
 41
0.0
 71
     2
 72
     1
  1
\A1;63.5 [2 1/2]
  7
SLDTEXTSTYLE0
 73
     1
 44
1.0
  0
POINT
  5
277
330
26E
100
AcDbEntity
  8
Defpoints
 62
     0
100
AcDbPoint
 10
163.5218106982938
 20
-21.50676789069006
 30
0.0
  0
POINT
  5
278
330
26E
100
AcDbEntity
  8
Defpoints
 62
     0
100
AcDbPoint
 10
100.0218106982938
 20
-21.86395539069006
 30
0.0
  0
POINT
  5
279
330
26E
100
AcDbEntity
  8
Defpoints
 62
     0
100
AcDbPoint
 10
100.0218106982938
 20
7.379950742445956
 30
0.0
  0
ENDBLK
  5
270
330
26E
100
AcDbEntity
  8
0
100
AcDbBlockEnd
  0
BLOCK
  5
27B
330
27A
100
AcDbEntity
  8
0
100
AcDbBlockBegin
  2
*D13
 70
     1
 10
0.0
 20
0.0
 30
0.0
  3
*D13
  1
*D14
  0
LINE
  5
27D
330
27A
100
AcDbEntity
  8
치수문자_일반주서
 62
     0
370
    -2
100
AcDbLine
 10
100.9118106982937
 20
-20.91145539069005
 30
0.0
 11
88.72103786046655
 21
-20.9114553906901
 31
0.0
  0
LINE
  5
27E
330
27A
100
AcDbEntity
  8
치수문자_일반주서
 62
     0
370
    -2
100
AcDbLine
 10
100.9118106982937
 20
-30.43645539069006
 30
0.0
 11
88.72103786046658
 21
-30.43645539069011
 31
0.0
  0
LINE
  5
27F
330
27A
100
AcDbEntity
  8
치수문자_일반주서
 62
     0
370
    -2
100
AcDbLine
 10
88.72103786046657
 20
-24.2134553906901
 30
0.0
 11
88.72103786046657
 21
-27.13445539069011
 31
0.0
  0
SOLID
  5
280
330
27A
100
AcDbEntity
  8
치수문자_일반주서
 62
     0
100
AcDbTrace
 10
89.2713711937999
 20
-24.2134553906901
 30
0.0
 11
88.17070452713324
 21
-24.2134553906901
 31
0.0
 12
88.72103786046655
 22
-20.9114553906901
 32
0.0
 13
88.72103786046655
 23
-20.9114553906901
 33
0.0
  0
SOLID
  5
281
330
27A
100
AcDbEntity
  8
치수문자_일반주서
 62
     0
100
AcDbTrace
 10
88.17070452713324
 20
-27.13445539069011
 30
0.0
 11
89.2713711937999
 21
-27.13445539069011
 31
0.0
 12
88.72103786046658
 22
-30.43645539069011
 32
0.0
 13
88.72103786046658
 23
-30.43645539069011
 33
0.0
  0
MTEXT
  5
282
330
27A
100
AcDbEntity
  8
치수문자_일반주서
 62
     0
100
AcDbMText
 10
84.34603786046657
 20
-25.67395539069007
 30
0.0
 40
3.5
 41
0.0
 71
     2
 72
     1
  1
\A1;%%c9.53 [3/8]
  7
SLDTEXTSTYLE0
 11
-2.983906501879684E-15
 21
1.0
 31
0.0
 73
     1
 44
1.0
  0
POINT
  5
283
330
27A
100
AcDbEntity
  8
Defpoints
 62
     0
100
AcDbPoint
 10
100.9743106982937
 20
-20.91145539069005
 30
0.0
  0
POINT
  5
284
330
27A
100
AcDbEntity
  8
Defpoints
 62
     0
100
AcDbPoint
 10
100.9743106982937
 20
-30.43645539069006
 30
0.0
  0
POINT
  5
285
330
27A
100
AcDbEntity
  8
Defpoints
 62
     0
100
AcDbPoint
 10
88.72103786046658
 20
-30.43645539069011
 30
0.0
  0
ENDBLK
  5
27C
330
27A
100
AcDbEntity
  8
0
100
AcDbBlockEnd
  0
BLOCK
  5
287
330
286
100
AcDbEntity
  8
0
100
AcDbBlockBegin
  2
*D14
 70
     1
 10
0.0
 20
0.0
 30
0.0
  3
*D14
  1
*D15
  0
LINE
  5
289
330
286
100
AcDbEntity
  8
치수문자_일반주서
 62
     0
370
    -2
100
AcDbLine
 10
163.5843106982938
 20
-21.50676789069006
 30
0.0
 11
182.1296073389953
 21
-21.50676789068999
 31
0.0
  0
LINE
  5
28A
330
286
100
AcDbEntity
  8
치수문자_일반주서
 62
     0
370
    -2
100
AcDbLine
 10
163.5843106982938
 20
-29.84114289069005
 30
0.0
 11
182.1296073389953
 21
-29.84114289068998
 31
0.0
  0
LINE
  5
28B
330
286
100
AcDbEntity
  8
치수문자_일반주서
 62
     0
370
    -2
100
AcDbLine
 10
182.1296073389953
 20
-21.50676789068999
 30
0.0
 11
182.1296073389951
 21
15.76940765869444
 31
0.0
  0
LINE
  5
28C
330
286
100
AcDbEntity
  8
치수문자_일반주서
 62
     0
370
    -2
100
AcDbLine
 10
182.1296073389953
 20
-21.50676789068999
 30
0.0
 11
182.1296073389953
 21
-29.84114289068998
 31
0.0
  0
LINE
  5
28D
330
286
100
AcDbEntity
  8
치수문자_일반주서
 62
     0
370
    -2
100
AcDbLine
 10
182.1296073389953
 20
-18.20476789068999
 30
0.0
 11
182.1296073389953
 21
-14.90276789068999
 31
0.0
  0
LINE
  5
28E
330
286
100
AcDbEntity
  8
치수문자_일반주서
 62
     0
370
    -2
100
AcDbLine
 10
182.1296073389953
 20
-33.14314289068998
 30
0.0
 11
182.1296073389953
 21
-36.44514289068998
 31
0.0
  0
SOLID
  5
28F
330
286
100
AcDbEntity
  8
치수문자_일반주서
 62
     0
100
AcDbTrace
 10
181.5792740056619
 20
-18.20476789068999
 30
0.0
 11
182.6799406723286
 21
-18.20476789068998
 31
0.0
 12
182.1296073389953
 22
-21.50676789068999
 32
0.0
 13
182.1296073389953
 23
-21.50676789068999
 33
0.0
  0
SOLID
  5
290
330
286
100
AcDbEntity
  8
치수문자_일반주서
 62
     0
100
AcDbTrace
 10
182.6799406723286
 20
-33.14314289068998
 30
0.0
 11
181.579274005662
 21
-33.14314289068998
 31
0.0
 12
182.1296073389953
 22
-29.84114289068998
 32
0.0
 13
182.1296073389953
 23
-29.84114289068998
 33
0.0
  0
MTEXT
  5
291
330
286
100
AcDbEntity
  8
치수문자_일반주서
 62
     0
100
AcDbMText
 10
177.7546073389952
 20
0.4569076586944255
 30
0.0
 40
3.5
 41
0.0
 71
     2
 72
     1
  1
\A1;%%c8.33 [21/64]
  7
SLDTEXTSTYLE0
 11
-3.410178859291072E-15
 21
1.0
 31
0.0
 73
     1
 44
1.0
  0
POINT
  5
292
330
286
100
AcDbEntity
  8
Defpoints
 62
     0
100
AcDbPoint
 10
163.5218106982938
 20
-21.50676789069006
 30
0.0
  0
POINT
  5
293
330
286
100
AcDbEntity
  8
Defpoints
 62
     0
100
AcDbPoint
 10
163.5218106982938
 20
-29.84114289069005
 30
0.0
  0
POINT
  5
294
330
286
100
AcDbEntity
  8
Defpoints
 62
     0
100
AcDbPoint
 10
182.1296073389953
 20
-29.84114289068998
 30
0.0
  0
ENDBLK
  5
288
330
286
100
AcDbEntity
  8
0
100
AcDbBlockEnd
  0
ENDSEC
  0
SECTION
  2
ENTITIES
  0
LINE
  5
96
330
1F
100
AcDbEntity
  8
외형선
  6
Continuous
370
    15
100
AcDbLine
 10
1.999999999999996
 20
-4.761425071276113
 30
0.0
 11
4.962315328507808
 21
-3.967675071276107
 31
0.0
  0
LINE
  5
97
330
1F
100
AcDbEntity
  8
외형선
  6
Continuous
370
    15
100
AcDbLine
 10
4.962315328507808
 20
3.969824928723893
 30
0.0
 11
1.999999999999996
 21
4.7635749287239
 31
0.0
  0
LINE
  5
98
330
1F
100
AcDbEntity
  8
외형선
  6
Continuous
370
    15
100
AcDbLine
 10
-37.5351846714922
 20
-4.761425071276109
 30
0.0
 11
1.999999999999996
 21
-4.761425071276109
 31
0.0
  0
LINE
  5
99
330
1F
100
AcDbEntity
  8
외형선
  6
Continuous
370
    15
100
AcDbLine
 10
1.999999999999996
 20
4.763574928723896
 30
0.0
 11
-13.80523467149206
 21
4.763574928723896
 31
0.0
  0
LINE
  5
9A
330
1F
100
AcDbEntity
  8
외형선
  6
Continuous
370
    15
100
AcDbLine
 10
-37.5351846714922
 20
4.763574928723893
 30
0.0
 11
-38.48768467149219
 21
3.811074928723895
 31
0.0
  0
LINE
  5
9B
330
1F
100
AcDbEntity
  8
외형선
  6
Continuous
370
    15
100
AcDbLine
 10
-38.48768467149219
 20
-3.808925071276108
 30
0.0
 11
-37.5351846714922
 21
-4.761425071276106
 31
0.0
  0
LINE
  5
9C
330
1F
100
AcDbEntity
  8
외형선
  6
Continuous
370
    15
100
AcDbLine
 10
4.962315328507808
 20
-3.967675071276107
 30
0.0
 11
5.962315328507808
 21
-3.967675071276107
 31
0.0
  0
LINE
  5
9D
330
1F
100
AcDbEntity
  8
외형선
  6
Continuous
370
    15
100
AcDbLine
 10
5.962315328507808
 20
3.969824928723893
 30
0.0
 11
4.962315328507808
 21
3.969824928723893
 31
0.0
  0
LINE
  5
9E
330
1F
100
AcDbEntity
  8
0
  6
Continuous
 62
     1
370
    15
100
AcDbLine
 10
6.425947593877929
 20
3.969824928723894
 30
0.0
 11
5.962315328507808
 21
3.969824928723894
 31
0.0
  0
LINE
  5
9F
330
1F
100
AcDbEntity
  8
0
  6
Continuous
 62
     1
370
    15
100
AcDbLine
 10
23.53384010285421
 20
1.177202305268323
 30
0.0
 11
23.50698038108035
 21
1.191698329869075
 31
0.0
  0
LINE
  5
A0
330
1F
100
AcDbEntity
  8
0
  6
Continuous
 62
     1
370
    15
100
AcDbLine
 10
14.80400672098011
 20
-3.967675071276108
 30
0.0
 11
17.22443435004458
 21
-3.967675071276108
 31
0.0
  0
LINE
  5
A1
330
1F
100
AcDbEntity
  8
0
  6
Continuous
 62
     1
370
    15
100
AcDbLine
 10
17.2244343500446
 20
3.969824928723894
 30
0.0
 11
14.80400672098015
 21
3.969824928723894
 31
0.0
  0
LINE
  5
A2
330
1F
100
AcDbEntity
  8
0
  6
Continuous
 62
     1
370
    15
100
AcDbLine
 10
5.962315328507808
 20
-3.967675071276108
 30
0.0
 11
6.425947593877881
 21
-3.967675071276108
 31
0.0
  0
LINE
  5
A3
330
1F
100
AcDbEntity
  8
외형선
  6
Continuous
370
    15
100
AcDbLine
 10
4.962315328507808
 20
0.0010749287238931
 30
0.0
 11
4.962315328507808
 21
3.969824928723893
 31
0.0
  0
LINE
  5
A4
330
1F
100
AcDbEntity
  8
외형선
  6
Continuous
370
    15
100
AcDbLine
 10
4.962315328507808
 20
-3.967675071276107
 30
0.0
 11
4.962315328507808
 21
0.0010749287238931
 31
0.0
  0
LINE
  5
A5
330
1F
100
AcDbEntity
  8
외형선
  6
Continuous
370
    15
100
AcDbLine
 10
1.999999999999996
 20
0.0010749287238931
 30
0.0
 11
1.999999999999996
 21
4.7635749287239
 31
0.0
  0
LINE
  5
A6
330
1F
100
AcDbEntity
  8
외형선
  6
Continuous
370
    15
100
AcDbLine
 10
1.999999999999996
 20
-4.761425071276113
 30
0.0
 11
1.999999999999996
 21
0.0010749287238931
 31
0.0
  0
LINE
  5
A7
330
1F
100
AcDbEntity
  8
외형선
  6
Continuous
370
    15
100
AcDbLine
 10
-37.5351846714922
 20
0.0010749287238931
 30
0.0
 11
-37.5351846714922
 21
4.763574928723896
 31
0.0
  0
LINE
  5
A8
330
1F
100
AcDbEntity
  8
외형선
  6
Continuous
370
    15
100
AcDbLine
 10
-37.5351846714922
 20
-4.761425071276109
 30
0.0
 11
-37.5351846714922
 21
0.0010749287238931
 31
0.0
  0
LINE
  5
A9
330
1F
100
AcDbEntity
  8
외형선
  6
Continuous
370
    15
100
AcDbLine
 10
-38.48768467149219
 20
0.0010749287238931
 30
0.0
 11
-38.48768467149219
 21
3.811074928723895
 31
0.0
  0
LINE
  5
AA
330
1F
100
AcDbEntity
  8
외형선
  6
Continuous
370
    15
100
AcDbLine
 10
-38.48768467149219
 20
-3.808925071276108
 30
0.0
 11
-38.48768467149219
 21
0.0010749287238931
 31
0.0
  0
SPLINE
  5
AB
330
1F
100
AcDbEntity
  8
외형선
  6
Continuous
370
    15
100
AcDbSpline
210
0.0
220
0.0
230
1.0
 70
     8
 71
     3
 72
     8
 73
     4
 74
     0
 42
0.000000001
 43
0.00000001
 40
0.0
 40
0.0
 40
0.0
 40
0.0
 40
1.0
 40
1.0
 40
1.0
 40
1.0
 10
5.962315328507803
 20
3.810282993220973
 30
0.0
 10
5.795447465380773
 20
3.837259423341489
 30
0.0
 10
5.628509097442775
 20
3.860884342302643
 30
0.0
 10
5.462159047295247
 20
3.881074928049174
 30
0.0
  0
LINE
  5
AC
330
1F
100
AcDbEntity
  8
외형선
  6
Continuous
370
    15
100
AcDbLine
 10
5.462159047295239
 20
0.5554411021290742
 30
0.0
 11
5.462159047295239
 21
3.881081680717677
 31
0.0
  0
SPLINE
  5
AD
330
1F
100
AcDbEntity
  8
외형선
  6
Continuous
370
    15
100
AcDbSpline
210
0.0
220
0.0
230
1.0
 70
     8
 71
     3
 72
     8
 73
     4
 74
     0
 42
0.000000001
 43
0.00000001
 40
0.0
 40
0.0
 40
0.0
 40
0.0
 40
1.0
 40
1.0
 40
1.0
 40
1.0
 10
5.962315328507815
 20
0.2688406406351384
 30
0.0
 10
5.795447465380786
 20
0.3647315157429568
 30
0.0
 10
5.628509097442782
 20
0.460399842281597
 30
0.0
 10
5.462159047295247
 20
0.5554688796264158
 30
0.0
  0
SPLINE
  5
AE
330
1F
100
AcDbEntity
  8
외형선
  6
Continuous
370
    15
100
AcDbSpline
210
0.0
220
0.0
230
1.0
 70
     8
 71
     3
 72
     8
 73
     4
 74
     0
 42
0.000000001
 43
0.00000001
 40
0.0
 40
0.0
 40
0.0
 40
0.0
 40
1.0
 40
1.0
 40
1.0
 40
1.0
 10
5.962315328507803
 20
-1.112886688150938
 30
0.0
 10
5.795447465380773
 20
-1.020640390244646
 30
0.0
 10
5.628509097442775
 20
-0.9274000834306799
 30
0.0
 10
5.462159047295247
 20
-0.8335366981636121
 30
0.0
  0
LINE
  5
AF
330
1F
100
AcDbEntity
  8
외형선
  6
Continuous
370
    15
100
AcDbLine
 10
5.462159047295239
 20
-3.928766634021872
 30
0.0
 11
5.462159047295239
 21
-0.8335053052755855
 31
0.0
  0
SPLINE
  5
B0
330
1F
100
AcDbEntity
  8
외형선
  6
Continuous
370
    15
100
AcDbSpline
210
0.0
220
0.0
230
1.0
 70
     8
 71
     3
 72
     8
 73
     4
 74
     0
 42
0.000000001
 43
0.00000001
 40
0.0
 40
0.0
 40
0.0
 40
0.0
 40
1.0
 40
1.0
 40
1.0
 40
1.0
 10
5.962315328507815
 20
-3.958631889466648
 30
0.0
 10
5.795447465380786
 20
-3.952147498167503
 30
0.0
 10
5.628509097442782
 20
-3.942174388924154
 30
0.0
 10
5.462159047295247
 20
-3.928762715467364
 30
0.0
  0
LINE
  5
B1
330
1F
100
AcDbEntity
  8
외형선
  6
Continuous
370
    15
100
AcDbLine
 10
5.962315328507808
 20
-3.967675071276107
 30
0.0
 11
5.962315328507815
 21
-3.958631889466649
 31
0.0
  0
LINE
  5
B2
330
1F
100
AcDbEntity
  8
외형선
  6
Continuous
370
    15
100
AcDbLine
 10
5.962315328507829
 20
-1.11288668815097
 30
0.0
 11
5.962315328507815
 21
0.2688406406351398
 31
0.0
  0
LINE
  5
B3
330
1F
100
AcDbEntity
  8
외형선
  6
Continuous
370
    15
100
AcDbLine
 10
5.962315328507829
 20
3.810282993221013
 30
0.0
 11
5.962315328507808
 21
3.969824928723893
 31
0.0
  0
SPLINE
  5
B4
330
1F
100
AcDbEntity
  8
외형선
  6
Continuous
370
    15
100
AcDbSpline
210
0.0
220
0.0
230
1.0
 70
    24
 71
     3
 72
    20
 73
    16
 74
     0
 42
0.000000001
 43
0.00000001
 40
0.0
 40
0.0
 40
0.0
 40
0.0
 40
0.0661293595514543
 40
0.1441551799243094
 40
0.2221810002971825
 40
0.3002068206700556
 40
0.3782326410429191
 40
0.4562584614157826
 40
0.5342842817886463
 40
0.61231010216151
 40
0.6903359225343688
 40
0.7683617429072276
 40
0.8463875632800988
 40
0.9244133836529698
 40
1.0
 40
1.0
 40
1.0
 40
1.0
 10
5.962315328507795
 20
0.1101968282353321
 30
0.0
 10
5.962315328507795
 20
0.113022380242245
 30
0.0
 10
5.962315328507808
 20
0.1191817920482082
 30
0.0
 10
5.962315328507795
 20
0.2092755906574153
 30
0.0
 10
5.962315328507836
 20
0.3632297480275229
 30
0.0
 10
5.962315328507829
 20
0.5780942791228925
 30
0.0
 10
5.962315328507829
 20
0.8477644733289438
 30
0.0
 10
5.962315328507808
 20
1.163144853473072
 30
0.0
 10
5.962315328507803
 20
1.5168411535462
 30
0.0
 10
5.962315328507781
 20
1.897533840749208
 30
0.0
 10
5.962315328507774
 20
2.295253520249913
 30
0.0
 10
5.962315328507795
 20
2.698489705046383
 30
0.0
 10
5.962315328507795
 20
3.094913426083929
 30
0.0
 10
5.962315328507822
 20
3.473016219233582
 30
0.0
 10
5.962315328507829
 20
3.699057166103202
 30
0.0
 10
5.962315328507829
 20
3.810282993221013
 30
0.0
  0
SPLINE
  5
B5
330
1F
100
AcDbEntity
  8
외형선
  6
Continuous
370
    15
100
AcDbSpline
210
0.0
220
0.0
230
1.0
 70
    24
 71
     3
 72
    15
 73
    11
 74
     0
 42
0.000000001
 43
0.00000001
 40
0.0
 40
0.0
 40
0.0
 40
0.0
 40
0.1301152438054827
 40
0.2602304876109655
 40
0.3876217803170653
 40
0.5150130730231653
 40
0.6424043657292946
 40
0.7697956584354241
 40
0.8971869511415377
 40
1.0
 40
1.0
 40
1.0
 40
1.0
 10
5.962315328507815
 20
-3.958631889466649
 30
0.0
 10
5.962315328507815
 20
-3.828727695390029
 30
0.0
 10
5.962315328507815
 20
-3.568919307236792
 30
0.0
 10
5.962315328507781
 20
-3.161244509095924
 30
0.0
 10
5.962315328507808
 20
-2.756344206232763
 30
0.0
 10
5.962315328507795
 20
-2.363280833690132
 30
0.0
 10
5.962315328507822
 20
-1.991043125103834
 30
0.0
 10
5.962315328507836
 20
-1.65102877495742
 30
0.0
 10
5.962315328507836
 20
-1.366270326888984
 30
0.0
 10
5.962315328507822
 20
-1.221746534857339
 30
0.0
 10
5.962315328507815
 20
-1.157199830002116
 30
0.0
  0
LINE
  5
B6
330
1F
100
AcDbEntity
  8
0
  6
Continuous
 62
     1
370
    15
100
AcDbLine
 10
25.01231532850781
 20
-3.967675071276103
 30
0.0
 11
25.01231532850781
 21
-3.593347926134849
 31
0.0
  0
SPLINE
  5
B7
330
1F
100
AcDbEntity
  8
0
  6
Continuous
 62
     1
370
    15
100
AcDbSpline
210
0.0
220
0.0
230
1.0
 70
     8
 71
     3
 72
    48
 73
    44
 74
     0
 42
0.000000001
 43
0.00000001
 40
0.0
 40
0.0
 40
0.0
 40
0.0
 40
0.0624999999999995
 40
0.0624999999999995
 40
0.1249999999999991
 40
0.1249999999999991
 40
0.1562499999999988
 40
0.1562499999999988
 40
0.1874999999999986
 40
0.1874999999999986
 40
0.2499999999999989
 40
0.2499999999999989
 40
0.2812499999999994
 40
0.2812499999999994
 40
0.3124999999999999
 40
0.3124999999999999
 40
0.3750000000000011
 40
0.3750000000000011
 40
0.4375000000000022
 40
0.4375000000000022
 40
0.5000000000000033
 40
0.5000000000000033
 40
0.5625000000000044
 40
0.5625000000000044
 40
0.5937500000000047
 40
0.5937500000000047
 40
0.6250000000000048
 40
0.6250000000000048
 40
0.6875000000000051
 40
0.6875000000000051
 40
0.7187500000000049
 40
0.7187500000000049
 40
0.7500000000000047
 40
0.7500000000000047
 40
0.8125000000000033
 40
0.8125000000000033
 40
0.8750000000000019
 40
0.8750000000000019
 40
0.9375000000000006
 40
0.9375000000000006
 40
0.9687500000000003
 40
0.9687500000000003
 40
1.0
 40
1.0
 40
1.0
 40
1.0
 10
25.01231532850781
 20
-3.967675071276103
 30
0.0
 10
24.61832995809853
 20
-3.933495221713802
 30
0.0
 10
24.2181196406329
 20
-3.89398439810028
 30
0.0
 10
23.42309844564559
 20
-3.776531056478464
 30
0.0
 10
23.02969193249414
 20
-3.698851728736232
 30
0.0
 10
22.43231122873213
 20
-3.554723051880217
 30
0.0
 10
22.23297663084275
 20
-3.502139887542685
 30
0.0
 10
21.83613189390608
 20
-3.388515540174361
 30
0.0
 10
21.6395861439171
 20
-3.327588443415226
 30
0.0
 10
21.04528970613838
 20
-3.1321122506075
 30
0.0
 10
20.64472350750691
 20
-2.984899902223273
 30
0.0
 10
20.05074742115662
 20
-2.74368552940064
 30
0.0
 10
19.85411931979481
 20
-2.659949253505694
 30
0.0
 10
19.45710537539088
 20
-2.485509429683627
 30
0.0
 10
19.25773943964744
 20
-2.39493979711991
 30
0.0
 10
18.66042627431813
 20
-2.114682183314655
 30
0.0
 10
18.26714655257118
 20
-1.91710781378897
 30
0.0
 10
17.47187621911377
 20
-1.503361516684879
 30
0.0
 10
17.07232871990045
 20
-1.287543747285465
 30
0.0
 10
16.28377546493653
 20
-0.8471509735132461
 30
0.0
 10
15.88348393818902
 20
-0.6204839001677022
 30
0.0
 10
15.08873230310134
 20
-0.1642746310288231
 30
0.0
 10
14.69516634530711
 20
0.0650671540799627
 30
0.0
 10
14.09773351496515
 20
0.4082433884279308
 30
0.0
 10
13.89843541000806
 20
0.5222969253096008
 30
0.0
 10
13.50177003416874
 20
0.7484493508358775
 30
0.0
 10
13.3052690394101
 20
0.8603877252757112
 30
0.0
 10
12.71066739760043
 20
1.193529845214667
 30
0.0
 10
12.31011167155596
 20
1.411506367920677
 30
0.0
 10
11.71647105665962
 20
1.725003502683429
 30
0.0
 10
11.51972301480676
 20
1.827288897833035
 30
0.0
 10
11.12255003106091
 20
2.027673040678085
 30
0.0
 10
10.92315791524994
 20
2.125586599264679
 30
0.0
 10
10.32592769439702
 20
2.410820541230051
 30
0.0
 10
9.93274209993695
 20
2.589094474369835
 30
0.0
 10
9.137243070823844
 20
2.919409655680733
 30
0.0
 10
8.738326261967794
 20
3.070858374809099
 30
0.0
 10
7.94921036198023
 20
3.340666125230283
 30
0.0
 10
7.548848074447488
 20
3.460145136410234
 30
0.0
 10
6.953001816782303
 20
3.612053530730933
 30
0.0
 10
6.756198253266991
 20
3.65809379756863
 30
0.0
 10
6.360525605880603
 20
3.741114065544624
 30
0.0
 10
6.161471842036278
 20
3.77808666931793
 30
0.0
 10
5.962315328507822
 20
3.810282993220973
 30
0.0
  0
SPLINE
  5
B8
330
1F
100
AcDbEntity
  8
0
  6
Continuous
 62
     1
370
    15
100
AcDbSpline
210
0.0
220
0.0
230
1.0
 70
     8
 71
     3
 72
    22
 73
    18
 74
     0
 42
0.000000001
 43
0.00000001
 40
0.0
 40
0.0
 40
0.0
 40
0.0
 40
0.0392781541184304
 40
0.1036321739654614
 40
0.1679504758172424
 40
0.2321708244105134
 40
0.2964380018960379
 40
0.3596747574892314
 40
0.4227769431343718
 40
0.4858557807459201
 40
0.5490698038676846
 40
0.6242591952571209
 40
0.6993998195544748
 40
0.7745178817006177
 40
0.8496397437324809
 40
0.924791741205091
 40
1.0
 40
1.0
 40
1.0
 40
1.0
 10
6.425947593877929
 20
3.955603504074715
 30
0.0
 10
6.669215818894411
 20
3.956854163124919
 30
0.0
 10
7.311058990525222
 20
3.960153924001446
 30
0.0
 10
8.351930996620732
 20
3.831207596653197
 30
0.0
 10
9.547071385368145
 20
3.586937160287495
 30
0.0
 10
10.74115983822766
 20
3.22914876682766
 30
0.0
 10
11.9287297524207
 20
2.778049824536684
 30
0.0
 10
13.11019419264526
 20
2.248485813706098
 30
0.0
 10
14.28336814458065
 20
1.655754426573061
 30
0.0
 10
15.45629521255795
 20
1.014653183427123
 30
0.0
 10
16.70495821900725
 20
0.3029429769834376
 30
0.0
 10
18.02813957063769
 20
-0.4648290277925458
 30
0.0
 10
19.42489832454734
 20
-1.256139720428002
 30
0.0
 10
20.82115369359244
 20
-1.996427060575177
 30
0.0
 10
22.21749934975729
 20
-2.651664074612631
 30
0.0
 10
23.61449439475317
 20
-3.208438326655348
 30
0.0
 10
24.54625880237577
 20
-3.465012724911011
 30
0.0
 10
25.01231532850782
 20
-3.593347926134849
 30
0.0
  0
LINE
  5
B9
330
1F
100
AcDbEntity
  8
0
  6
Continuous
 62
     1
370
    15
100
AcDbLine
 10
25.01231532850781
 20
-3.593347926134849
 30
0.0
 11
25.01231532850781
 21
0.3411227835826828
 31
0.0
  0
SPLINE
  5
BA
330
1F
100
AcDbEntity
  8
0
  6
Continuous
 62
     1
370
    15
100
AcDbSpline
210
0.0
220
0.0
230
1.0
 70
     8
 71
     3
 72
    19
 73
    15
 74
     0
 42
0.000000001
 43
0.00000001
 40
0.0
 40
0.0
 40
0.0
 40
0.0
 40
0.0831527254187065
 40
0.1661594452554141
 40
0.2492071897666839
 40
0.3324187307341838
 40
0.4154845919194912
 40
0.4970008318820256
 40
0.5786607856309125
 40
0.6603363237173271
 40
0.7418552678089815
 40
0.8389569505976225
 40
0.9361093344096417
 40
1.0
 40
1.0
 40
1.0
 40
1.0
 10
25.01231532850781
 20
0.3411227835826831
 30
0.0
 10
24.61364389080595
 20
0.5692371683897299
 30
0.0
 10
23.81700103160729
 20
1.025065398233799
 30
0.0
 10
22.62285131446546
 20
1.676230934399231
 30
0.0
 10
21.42829356496208
 20
2.277504848410596
 30
0.0
 10
20.23258580221172
 20
2.808956392736159
 30
0.0
 10
19.04498845622717
 20
3.254143029588169
 30
0.0
 10
17.86511544500832
 20
3.60054401431802
 30
0.0
 10
16.69124254837945
 20
3.839880585746621
 30
0.0
 10
15.51723829542243
 20
3.967459317107811
 30
0.0
 10
14.2701170170567
 20
3.981767163785611
 30
0.0
 10
12.94804620333154
 20
3.848942151319312
 30
0.0
 10
11.71058518565835
 20
3.602121954917057
 30
0.0
 10
10.93841213379456
 20
3.346878034865586
 30
0.0
 10
10.63206764753703
 20
3.245615024754328
 30
0.0
  0
SPLINE
  5
BB
330
1F
100
AcDbEntity
  8
0
  6
Continuous
 62
     1
370
    15
100
AcDbSpline
210
0.0
220
0.0
230
1.0
 70
     8
 71
     3
 72
    20
 73
    16
 74
     0
 42
0.000000001
 43
0.00000001
 40
0.0
 40
0.0
 40
0.0
 40
0.0
 40
0.077371725477721
 40
0.1548942470035527
 40
0.2323737417058507
 40
0.3097352393722306
 40
0.3871531483368696
 40
0.463329784362867
 40
0.539344313938957
 40
0.6153307178681793
 40
0.6914799697694572
 40
0.7820550609037319
 40
0.8725714059339605
 40
0.9630605720116222
 40
1.0
 40
1.0
 40
1.0
 40
1.0
 10
5.962315328507815
 20
0.2688406406351417
 30
0.0
 10
6.360105345122271
 20
0.0386539419688301
 30
0.0
 10
7.156460663665211
 20
-0.4221680849409702
 30
0.0
 10
8.351922049018983
 20
-1.101605414291871
 30
0.0
 10
9.54707377831881
 20
-1.747668661332709
 30
0.0
 10
10.74115919643818
 20
-2.341711500966323
 30
0.0
 10
11.92872992192271
 20
-2.861819421953792
 30
0.0
 10
13.11019414567954
 20
-3.293421836696
 30
0.0
 10
14.28336816447192
 20
-3.627545971513839
 30
0.0
 10
15.45629517986743
 20
-3.856107358059078
 30
0.0
 10
16.70495833919882
 20
-3.979174738209514
 30
0.0
 10
18.02813903111264
 20
-3.969242034213042
 30
0.0
 10
19.42490032381039
 20
-3.787011002991608
 30
0.0
 10
20.54573113825335
 20
-3.540046891760852
 30
0.0
 10
21.20108265000695
 20
-3.310796105212745
 30
0.0
 10
21.39105814297169
 20
-3.244340118759783
 30
0.0
  0
SPLINE
  5
BC
330
1F
100
AcDbEntity
  8
외형선
  6
Continuous
370
    15
100
AcDbSpline
210
0.0
220
0.0
230
1.0
 70
    24
 71
     3
 72
    20
 73
    16
 74
     0
 42
0.000000001
 43
0.00000001
 40
0.0
 40
0.0
 40
0.0
 40
0.0
 40
0.1206555877733718
 40
0.1986211224199881
 40
0.2765866570666037
 40
0.3545521917132196
 40
0.4325177263598345
 40
0.5104832610064503
 40
0.5884487956530661
 40
0.6664143302996818
 40
0.7443798649462976
 40
0.8223453995929126
 40
0.9003109342395276
 40
0.9782764688861438
 40
1.0
 40
1.0
 40
1.0
 40
1.0
 10
5.962315328507836
 20
3.810282993220974
 30
0.0
 10
5.962315328507836
 20
3.629153765702156
 30
0.0
 10
5.962315328507829
 20
3.33098199316538
 30
0.0
 10
5.962315328507808
 20
2.865384950221818
 30
0.0
 10
5.962315328507788
 20
2.464101629230263
 30
0.0
 10
5.962315328507803
 20
2.062686676616192
 30
0.0
 10
5.962315328507815
 20
1.673284662932568
 30
0.0
 10
5.962315328507808
 20
1.307394133717346
 30
0.0
 10
5.962315328507808
 20
0.9743420860121423
 30
0.0
 10
5.962315328507808
 20
0.685012321192178
 30
0.0
 10
5.962315328507781
 20
0.4461529583140129
 30
0.0
 10
5.962315328507808
 20
0.2650442270114858
 30
0.0
 10
5.962315328507836
 20
0.1508513715736893
 30
0.0
 10
5.962315328507829
 20
0.1009595839978415
 30
0.0
 10
5.962315328507795
 20
0.110664077004192
 30
0.0
 10
5.962315328507803
 20
0.1127788109939176
 30
0.0
  0
SPLINE
  5
BD
330
1F
100
AcDbEntity
  8
0
  6
Continuous
 62
     1
370
    15
100
AcDbSpline
210
0.0
220
0.0
230
1.0
 70
     8
 71
     3
 72
    14
 73
    10
 74
     0
 42
0.000000001
 43
0.00000001
 40
0.0
 40
0.0
 40
0.0
 40
0.0
 40
0.0519685547284166
 40
0.2099080091509821
 40
0.3679299306507501
 40
0.5260682609744591
 40
0.6841264366181683
 40
0.8420853099908507
 40
1.0
 40
1.0
 40
1.0
 40
1.0
 10
14.80400672098011
 20
-3.953914272925317
 30
0.0
 10
14.65089937222682
 20
-3.957294932133793
 30
0.0
 10
14.03247811862186
 20
-3.970949871120988
 30
0.0
 10
12.94804810478988
 20
-3.84448186932029
 30
0.0
 10
11.55079544449885
 20
-3.557069194170083
 30
0.0
 10
10.15279285896483
 20
-3.114531926209832
 30
0.0
 10
8.755243601720455
 20
-2.545133071569099
 30
0.0
 10
7.35853164420719
 20
-1.873593052650421
 30
0.0
 10
6.42767736545439
 20
-1.36643182963167
 30
0.0
 10
5.962315328507822
 20
-1.112886688150946
 30
0.0
  0
SPLINE
  5
BE
330
1F
100
AcDbEntity
  8
0
  6
Continuous
 62
     1
370
    15
100
AcDbSpline
210
0.0
220
0.0
230
1.0
 70
     8
 71
     3
 72
    13
 73
     9
 74
     0
 42
0.000000001
 43
0.00000001
 40
0.0
 40
0.0
 40
0.0
 40
0.0
 40
0.1032241956695403
 40
0.2825613689059255
 40
0.4618446933427012
 40
0.6411370869184418
 40
0.8205014043676977
 40
1.0
 40
1.0
 40
1.0
 40
1.0
 10
17.2244343500446
 20
3.949810677816263
 30
0.0
 10
17.49243269061246
 20
3.952393714147675
 30
0.0
 10
18.22603954978143
 20
3.959464404086245
 30
0.0
 10
19.42489176897988
 20
3.78952878309404
 30
0.0
 10
20.82115544939744
 20
3.463933858127017
 30
0.0
 10
22.21749888133459
 20
2.987021383546116
 30
0.0
 10
23.61449451198073
 20
2.394044005550547
 30
0.0
 10
24.54625884146137
 20
1.92051538997899
 30
0.0
 10
25.01231532850782
 20
1.683662490477822
 30
0.0
  0
LINE
  5
BF
330
1F
100
AcDbEntity
  8
0
  6
Continuous
 62
     1
370
    15
100
AcDbLine
 10
25.01231532850781
 20
0.3411227835826826
 30
0.0
 11
25.01231532850781
 21
1.683662490477822
 31
0.0
  0
SPLINE
  5
C0
330
1F
100
AcDbEntity
  8
0
  6
Continuous
 62
     1
370
    15
100
AcDbSpline
210
0.0
220
0.0
230
1.0
 70
     8
 71
     3
 72
    11
 73
     7
 74
     0
 42
0.000000001
 43
0.00000001
 40
0.0
 40
0.0
 40
0.0
 40
0.0
 40
0.255622446058632
 40
0.5117430954911195
 40
0.7677215919367129
 40
1.0
 40
1.0
 40
1.0
 40
1.0
 10
5.962315328507815
 20
-3.958631889466651
 30
0.0
 10
6.360105253139482
 20
-3.962713564292677
 30
0.0
 10
7.156460387537528
 20
-3.970884869052744
 30
0.0
 10
8.351923155785585
 20
-3.829372773651437
 30
0.0
 10
9.510779933781079
 20
-3.597071706908896
 30
0.0
 10
10.27059899973069
 20
-3.357457032335886
 30
0.0
 10
10.63206764753698
 20
-3.243465167306542
 30
0.0
  0
SPLINE
  5
C1
330
1F
100
AcDbEntity
  8
외형선
  6
Continuous
370
    15
100
AcDbSpline
210
0.0
220
0.0
230
1.0
 70
    24
 71
     3
 72
    16
 73
    12
 74
     0
 42
0.000000001
 43
0.00000001
 40
0.0
 40
0.0
 40
0.0
 40
0.0
 40
0.0508462156653579
 40
0.176222193636643
 40
0.3052340834626675
 40
0.4306100614339516
 40
0.5596219512599746
 40
0.6849979292311791
 40
0.8140098190572861
 40
0.9062966883517716
 40
0.9999999999999999
 40
0.9999999999999999
 40
0.9999999999999999
 40
0.9999999999999999
 10
5.962315328507808
 20
-1.157199830002116
 30
0.0
 10
5.962315328507808
 20
-1.186426640277888
 30
0.0
 10
5.962315328507808
 20
-1.287720562596427
 30
0.0
 10
5.962315328507858
 20
-1.519826730686943
 30
0.0
 10
5.96231532850776
 20
-1.840161796618516
 30
0.0
 10
5.962315328507808
 20
-2.202698156950233
 30
0.0
 10
5.962315328507829
 20
-2.586155744548424
 30
0.0
 10
5.962315328507829
 20
-2.98788065922347
 30
0.0
 10
5.96231532850776
 20
-3.353668623205981
 30
0.0
 10
5.962315328507781
 20
-3.680660469125801
 30
0.0
 10
5.962315328507803
 20
-3.865505508912659
 30
0.0
 10
5.962315328507815
 20
-3.958631889466652
 30
0.0
  0
SPLINE
  5
C2
330
1F
100
AcDbEntity
  8
0
  6
Continuous
 62
     1
370
    15
100
AcDbSpline
210
0.0
220
0.0
230
1.0
 70
     8
 71
     3
 72
    11
 73
     7
 74
     0
 42
0.000000001
 43
0.00000001
 40
0.0
 40
0.0
 40
0.0
 40
0.0
 40
0.3301802480138421
 40
0.6597807416175544
 40
0.98954413471919
 40
0.9999999999999999
 40
0.9999999999999999
 40
0.9999999999999999
 40
0.9999999999999999
 10
25.01231532850781
 20
3.969824928723897
 30
0.0
 10
24.61364576648271
 20
3.924591050444672
 30
0.0
 10
23.81700665534409
 20
3.863366522093918
 30
0.0
 10
22.6228288609697
 20
3.612685224111632
 30
0.0
 10
21.81449899750465
 20
3.402984772488093
 30
0.0
 10
21.40368361946155
 20
3.251156085653725
 30
0.0
 10
21.39105814297169
 20
3.246489976207569
 30
0.0
  0
LINE
  5
C3
330
1F
100
AcDbEntity
  8
0
  6
Continuous
 62
     1
370
    15
100
AcDbLine
 10
25.01231532850781
 20
1.683662490477822
 30
0.0
 11
25.01231532850781
 21
3.969824928723897
 31
0.0
  0
LINE
  5
C4
330
1F
100
AcDbEntity
  8
중심선
 48
0.8
100
AcDbLine
 10
-41.4876846714922
 20
0.0010749287238892
 30
0.0
 11
28.01231532850781
 21
0.0010749287238978
 31
0.0
  0
LINE
  5
C5
330
1F
100
AcDbEntity
  8
참조1
100
AcDbLine
 10
-4.094396350222712
 20
0.0010749287238892
 30
0.0
 11
-4.094396350222707
 21
-39.99892507127611
 31
0.0
  0
LINE
  5
C6
330
1F
100
AcDbEntity
  8
참조1
100
AcDbLine
 10
-4.094396350222707
 20
-39.99892507127611
 30
0.0
 11
-21.63450316453139
 21
-39.9989250712761
 31
0.0
  0
CIRCLE
  5
C7
330
1F
100
AcDbEntity
  8
해칭선
100
AcDbCircle
 10
0.0
 20
0.0
 30
0.0
 40
2.999999999999999
  0
INSERT
  5
C8
330
1F
100
AcDbEntity
  8
0
  6
Continuous
 62
     7
100
AcDbBlockReference
 66
     1
  2
블럭10
 10
-18.03466928234792
 20
-52.04609937292004
 30
0.0
  0
ATTRIB
  5
C9
330
C8
100
AcDbEntity
  8
FORMAT
 62
     2
100
AcDbText
 10
-27.2159645710892
 20
-49.97073246008785
 30
0.0
 40
4.233333333333333
  1
E1031020 [ 4 FLUTE ]
 41
0.75
  7
SLDTEXTSTYLE0
 11
-27.2159645710892
 21
-52.08739912675452
 31
0.0
100
AcDbAttribute
  2
AUTOATTR0
 70
     0
 74
     1
  0
SEQEND
  5
CA
330
C8
100
AcDbEntity
  8
0
  6
Continuous
 62
     7
  0
HATCH
  5
CB
330
1F
100
AcDbEntity
  8
중심선
100
AcDbHatch
 10
0.0
 20
0.0
 30
0.0
210
0.0
220
0.0
230
1.0
  2
SOLID
 70
     1
 71
     0
 91
        1
 92
        0
 93
        4
 72
     1
 10
-12.31975997796708
 20
-35.7989250712761
 11
-15.76603522180436
 21
-35.7989250712761
 72
     1
 10
-15.76603522180436
 20
-35.7989250712761
 11
-17.89426508100839
 21
-38.3352506518487
 72
     1
 10
-17.89426508100839
 20
-38.3352506518487
 11
-14.44795675205796
 21
-38.33521122254621
 72
     1
 10
-14.44795675205796
 20
-38.33521122254621
 11
-12.31975997796708
 21
-35.7989250712761
 97
        0
 75
     0
 76
     1
 98
        1
 10
0.0
 20
0.0
  0
HATCH
  5
CC
330
1F
100
AcDbEntity
  8
중심선
100
AcDbHatch
 10
0.0
 20
0.0
 30
0.0
210
0.0
220
0.0
230
1.0
  2
SOLID
 70
     1
 71
     0
 91
        1
 92
        0
 93
        4
 72
     1
 10
-7.306995986931103
 20
-35.7989250712761
 11
-10.75327123076839
 21
-35.7989250712761
 72
     1
 10
-10.75327123076839
 20
-35.7989250712761
 11
-15.2844092391258
 21
-41.19892507127612
 72
     1
 10
-15.2844092391258
 20
-41.19892507127612
 11
-11.83813399528852
 21
-41.19892507127612
 72
     1
 10
-11.83813399528852
 20
-41.19892507127612
 11
-7.306995986931103
 21
-35.7989250712761
 97
        0
 75
     0
 76
     1
 98
        1
 10
0.0
 20
0.0
  0
HATCH
  5
CD
330
1F
100
AcDbEntity
  8
중심선
100
AcDbHatch
 10
0.0
 20
0.0
 30
0.0
210
0.0
220
0.0
230
1.0
  2
SOLID
 70
     1
 71
     0
 91
        1
 92
        0
 93
        4
 72
     1
 10
-2.294231995895235
 20
-35.7989250712761
 11
-5.74050723973235
 21
-35.7989250712761
 72
     1
 10
-5.74050723973235
 20
-35.7989250712761
 11
-12.7889441416216
 21
-44.19892507127612
 72
     1
 10
-12.7889441416216
 20
-44.19892507127612
 11
-9.342668897784318
 21
-44.19892507127612
 72
     1
 10
-9.342668897784318
 20
-44.19892507127612
 11
-2.294231995895235
 21
-35.7989250712761
 97
        0
 75
     0
 76
     1
 98
        1
 10
0.0
 20
0.0
  0
HATCH
  5
CE
330
1F
100
AcDbEntity
  8
중심선
100
AcDbHatch
 10
0.0
 20
0.0
 30
0.0
210
0.0
220
0.0
230
1.0
  2
SOLID
 70
     1
 71
     0
 91
        1
 92
        0
 93
        6
 72
     3
 10
2.505658435116964
 20
-39.99892507132738
 11
3.960054785062284
 21
1.540850780301639E-10
 40
0.3939339440162633
 50
17.09539180608433
 51
320.0019657685086
 73
     0
 72
     1
 10
4.18865809081756
 20
-38.58681907591443
 11
6.493959964518598
 21
-36.65249236586649
 72
     3
 10
2.505658435064118
 20
-39.99892507127625
 11
6.600054785286829
 21
-1.249000902703301E-13
 40
0.6363583540795982
 50
39.99873849337408
 51
368.4976242363724
 73
     1
 72
     1
 10
8.930990926964727
 20
-39.03892507120613
 11
1.18572574190004
 21
-39.03892507120613
 72
     1
 10
1.18572574190004
 20
-39.03892507120613
 11
1.185700697454106
 21
-40.95892507120602
 72
     1
 10
1.185700697454106
 20
-40.95892507120602
 11
5.627080466926143
 21
-40.95892507120599
 97
        0
 75
     0
 76
     1
 98
        1
 10
0.0
 20
0.0
  0
DIMENSION
  5
CF
330
1F
100
AcDbEntity
  8
치수문자_일반주서
100
AcDbDimension
  2
_D
 10
5.962315328507811
 20
12.7902787438509
 30
0.0
 11
-13.24534167591528
 21
12.7902787438509
 31
0.0
 70
   160
  1
<>
 71
     2
 42
19.05
  3
SLDDIMSTYLE2
100
AcDbAlignedDimension
 13
25.01231532850781
 23
3.969824928723897
 33
0.0
 14
5.962315328507811
 24
3.969824928723893
 34
0.0
 50
0.0000000000000107
100
AcDbRotatedDimension
1001
ACAD
1000
DSTYLE
1002
{
1070
   171
1070
     6
1070
   273
1070
     7
1002
}
  0
DIMENSION
  5
E4
330
1F
100
AcDbEntity
  8
치수문자_일반주서
100
AcDbDimension
  2
_D_1
 10
-38.48768467149219
 20
32.85727329760351
 30
0.0
 11
-6.737684671492191
 21
32.85727329760351
 31
0.0
 70
   160
  1
<>
 71
     2
 42
63.5
  3
SLDDIMSTYLE2
100
AcDbAlignedDimension
 13
25.01231532850781
 23
3.969824928723897
 33
0.0
 14
-38.48768467149219
 24
3.811074928723895
 34
0.0
100
AcDbRotatedDimension
1001
ACAD
1000
DSTYLE
1002
{
1070
   171
1070
     6
1070
   273
1070
     7
1002
}
  0
DIMENSION
  5
F8
330
1F
100
AcDbEntity
  8
치수문자_일반주서
100
AcDbDimension
  2
_D_2
 10
-49.78845750931937
 20
-4.761425071276156
 30
0.0
 11
-49.78845750931939
 21
0.0010749287238959
 31
0.0
 70
   160
  1
%%c<>
 71
     2
 42
9.525000000000006
 52
-270.0
  3
SLDDIMSTYLE2
100
AcDbAlignedDimension
 13
-37.5351846714922
 23
4.763574928723896
 33
0.0
 14
-37.5351846714922
 24
-4.761425071276109
 34
0.0
 50
90.0000000000002
100
AcDbRotatedDimension
1001
ACAD
1000
DSTYLE
1002
{
1070
   171
1070
     6
1070
   273
1070
     7
1002
}
  0
DIMENSION
  5
10D
330
1F
100
AcDbEntity
  8
치수문자_일반주서
100
AcDbDimension
  2
_D_3
 10
39.49836916871423
 20
-3.967675071276048
 30
0.0
 11
39.49836916871413
 21
24.62173021385198
 31
0.0
 70
   160
  1
%%c<>
 71
     2
 42
7.9375
 52
-270.0
  3
SLDDIMSTYLE2
100
AcDbAlignedDimension
 13
25.01231532850781
 23
3.969824928723897
 33
0.0
 14
25.01231532850781
 24
-3.967675071276103
 34
0.0
 50
90.0000000000002
100
AcDbRotatedDimension
1001
ACAD
1000
DSTYLE
1002
{
1070
   171
1070
     6
1070
   273
1070
     7
1002
}
  0
LINE
  5
120
330
1F
100
AcDbEntity
  8
참조1
100
AcDbLine
 10
76.33783746512287
 20
7.441074928723896
 30
0.0
 11
76.33783746512287
 21
-7.438925071276109
 31
0.0
  0
LINE
  5
121
330
1F
100
AcDbEntity
  8
참조1
100
AcDbLine
 10
89.03783746512288
 20
5.441074928723896
 30
0.0
 11
76.33783746512287
 21
5.441074928723896
 31
0.0
  0
SOLID
  5
122
330
1F
100
AcDbEntity
  8
참조1
100
AcDbTrace
 10
76.33783746512287
 20
5.441074928723896
 30
0.0
 11
82.68783746512287
 21
4.425074928723896
 31
0.0
 12
82.68783746512287
 22
6.457074928723896
 32
0.0
 13
82.68783746512287
 23
6.457074928723896
 33
0.0
  0
LINE
  5
123
330
1F
100
AcDbEntity
  8
참조1
100
AcDbLine
 10
89.03783746512288
 20
-5.438925071276109
 30
0.0
 11
76.33783746512287
 21
-5.438925071276109
 31
0.0
  0
SOLID
  5
124
330
1F
100
AcDbEntity
  8
참조1
100
AcDbTrace
 10
76.33783746512287
 20
-5.438925071276109
 30
0.0
 11
82.68783746512287
 21
-6.454925071276109
 31
0.0
 12
82.68783746512287
 22
-4.422925071276109
 32
0.0
 13
82.68783746512287
 23
-4.422925071276109
 33
0.0
  0
MTEXT
  5
125
330
1F
100
AcDbEntity
  8
참조1
100
AcDbMText
 10
85.72218759774887
 20
11.01136670591222
 30
0.0
 40
3.5
 41
0.0
 71
     1
 72
     1
  1
A
  7
SLDTEXTSTYLE0
 73
     1
 44
1.0
  0
MTEXT
  5
126
330
1F
100
AcDbEntity
  8
참조1
100
AcDbMText
 10
85.72218759774887
 20
0.1313667059122201
 30
0.0
 40
3.5
 41
0.0
 71
     1
 72
     1
  1
A
  7
SLDTEXTSTYLE0
 73
     1
 44
1.0
  0
INSERT
  5
12D
330
1F
100
AcDbEntity
  8
해칭선
100
AcDbBlockReference
  2
SW_DOWELSYMBOL_0
 10
0.0
 20
0.0
 30
0.0
  0
LINE
  5
25A
330
1F
100
AcDbEntity
  8
외형선
  6
Continuous
370
    15
100
AcDbLine
 10
-22.2126346714923
 20
3.493574928723909
 30
0.0
 11
-15.07523467149217
 21
3.493574928723909
 31
0.0
  0
LINE
  5
25B
330
1F
100
AcDbEntity
  8
외형선
  6
Continuous
370
    15
100
AcDbLine
 10
-22.2126346714923
 20
3.493574928723909
 30
0.0
 11
-23.48263467149228
 21
4.763574928723891
 31
0.0
  0
LINE
  5
25C
330
1F
100
AcDbEntity
  8
외형선
  6
Continuous
370
    15
100
AcDbLine
 10
-15.07523467149217
 20
3.493574928723909
 30
0.0
 11
-13.80523467149207
 21
4.763574928723891
 31
0.0
  0
LINE
  5
298
330
1F
100
AcDbEntity
  8
외형선
  6
Continuous
370
    15
100
AcDbLine
 10
-23.48263467149228
 20
4.763574928723896
 30
0.0
 11
-37.5351846714922
 21
4.763574928723896
 31
0.0
  0
ENDSEC
  0
SECTION
  2
OBJECTS
  0
DICTIONARY
  5
C
330
0
100
AcDbDictionary
281
     1
  3
ACAD_GROUP
350
D
  3
ACAD_IMAGE_VARS
350
151
  3
ACAD_LAYOUT
350
1A
  3
ACAD_MLINESTYLE
350
17
  3
ACAD_PLOTSETTINGS
350
19
  3
ACAD_PLOTSTYLENAME
350
E
  3
ACAD_SCALELIST
350
47
  3
APPDATA
350
14F
  3
DWGPROPS
350
2BE
  0
DICTIONARY
  5
1EE
330
2
100
AcDbDictionary
280
     1
281
     1
  3
ACAD_LAYERSTATES
360
1EF
  0
DICTIONARY
  5
D
102
{ACAD_REACTORS
330
C
102
}
330
C
100
AcDbDictionary
281
     1
  0
RASTERVARIABLES
  5
151
102
{ACAD_REACTORS
330
C
102
}
330
C
100
AcDbRasterVariables
 90
        0
 70
     1
 71
     1
 72
     1
  0
DICTIONARY
  5
1A
102
{ACAD_REACTORS
330
C
102
}
330
C
100
AcDbDictionary
281
     1
  3
Layout1
350
1E
  3
Layout2
350
26
  3
Model
350
22
  0
DICTIONARY
  5
17
102
{ACAD_REACTORS
330
C
102
}
330
C
100
AcDbDictionary
281
     1
  3
Standard
350
18
  0
DICTIONARY
  5
19
102
{ACAD_REACTORS
330
C
102
}
330
C
100
AcDbDictionary
281
     1
  0
ACDBDICTIONARYWDFLT
  5
E
102
{ACAD_REACTORS
330
C
102
}
330
C
100
AcDbDictionary
281
     1
  3
Normal
350
F
100
AcDbDictionaryWithDefault
340
F
  0
DICTIONARY
  5
47
102
{ACAD_REACTORS
330
C
102
}
330
C
100
AcDbDictionary
281
     1
  3
A0
350
48
  3
A1
350
49
  3
A2
350
4A
  3
A3
350
4B
  3
A4
350
4C
  3
A5
350
4D
  3
A6
350
4E
  3
A7
350
4F
  3
A8
350
50
  3
A9
350
51
  3
B0
350
52
  3
B1
350
53
  3
B2
350
54
  3
B3
350
55
  3
B4
350
56
  3
B5
350
57
  3
B6
350
58
  3
B7
350
59
  3
B8
350
5A
  3
B9
350
5B
  3
C0
350
5C
  3
C1
350
5D
  3
C2
350
5E
  3
C3
350
5F
  3
C4
350
60
  3
C5
350
61
  3
C6
350
62
  3
C7
350
63
  3
C8
350
64
  3
C9
350
65
  3
D0
350
66
  3
D1
350
67
  3
D2
350
68
  0
DICTIONARY
  5
14F
102
{ACAD_REACTORS
330
C
102
}
330
C
100
AcDbDictionary
281
     1
  0
XRECORD
  5
2BE
102
{ACAD_REACTORS
330
C
102
}
330
C
100
AcDbXrecord
280
     1
  1
DWGPROPS COOKIE
  2

  3

  4

  6

  7

  8
12016016
  9

300
=
301
=
302
=
303
=
304
=
305
=
306
=
307
=
308
=
309
=
 40
0.0
 41
2458312.293267465
 42
2458323.357911041
  1

 90
        0
  0
DICTIONARY
  5
1EF
102
{ACAD_REACTORS
330
1EE
102
}
330
1EE
100
AcDbDictionary
281
     1
  0
LAYOUT
  5
1E
102
{ACAD_REACTORS
330
1A
102
}
330
1A
100
AcDbPlotSettings
  1

  2
none_device
  4

  6

 40
0.0
 41
0.0
 42
0.0
 43
0.0
 44
0.0
 45
0.0
 46
0.0
 47
0.0
 48
0.0
 49
0.0
140
0.0
141
0.0
142
1.0
143
1.0
 70
   688
 72
     1
 73
     0
 74
     5
  7

 75
    16
147
1.0
148
0.0
149
0.0
100
AcDbLayout
  1
Layout1
 70
     1
 71
     1
 10
0.0
 20
0.0
 11
420.0
 21
297.0
 12
0.0
 22
0.0
 32
0.0
 14
1.000000000000000E+20
 24
1.000000000000000E+20
 34
1.000000000000000E+20
 15
-1.000000000000000E+20
 25
-1.000000000000000E+20
 35
-1.000000000000000E+20
146
0.0
 13
0.0
 23
0.0
 33
0.0
 16
1.0
 26
0.0
 36
0.0
 17
0.0
 27
1.0
 37
0.0
 76
     0
330
1B
  0
LAYOUT
  5
26
102
{ACAD_REACTORS
330
1A
102
}
330
1A
100
AcDbPlotSettings
  1

  2
none_device
  4

  6

 40
0.0
 41
0.0
 42
0.0
 43
0.0
 44
0.0
 45
0.0
 46
0.0
 47
0.0
 48
0.0
 49
0.0
140
0.0
141
0.0
142
1.0
143
1.0
 70
   688
 72
     1
 73
     0
 74
     5
  7

 75
    16
147
1.0
148
0.0
149
0.0
100
AcDbLayout
  1
Layout2
 70
     1
 71
     2
 10
0.0
 20
0.0
 11
0.0
 21
0.0
 12
0.0
 22
0.0
 32
0.0
 14
0.0
 24
0.0
 34
0.0
 15
0.0
 25
0.0
 35
0.0
146
0.0
 13
0.0
 23
0.0
 33
0.0
 16
1.0
 26
0.0
 36
0.0
 17
0.0
 27
1.0
 37
0.0
 76
     0
330
23
  0
LAYOUT
  5
22
102
{ACAD_REACTORS
330
1A
102
}
330
1A
100
AcDbPlotSettings
  1

  2
none_device
  4
ANSI_A_(11.00_x_8.50_Inches)
  6

 40
6.35
 41
19.05
 42
6.35000508
 43
19.05000254
 44
279.4
 45
215.9
 46
104.0853757014623
 47
95.54767085405607
 48
0.0
 49
0.0
140
0.0
141
0.0
142
0.0740937858640012
143
1.0
 70
  1696
 72
     0
 73
     0
 74
     0
  7

 75
     0
147
0.0235690232323232
148
0.0
149
0.0
100
AcDbLayout
  1
Model
 70
     1
 71
     0
 10
0.0
 20
0.0
 11
420.0
 21
297.0
 12
0.0
 22
0.0
 32
0.0
 14
-54.16345750931944
 24
-49.97073246008785
 34
0.0
 15
89.03783746512288
 25
38.62173021385198
 35
0.0
146
0.0
 13
0.0
 23
0.0
 33
0.0
 16
1.0
 26
0.0
 36
0.0
 17
0.0
 27
1.0
 37
0.0
 76
     0
330
1F
331
29
  0
MLINESTYLE
  5
18
102
{ACAD_REACTORS
330
17
102
}
330
17
100
AcDbMlineStyle
  2
Standard
 70
     0
  3

 62
   256
 51
90.0
 52
90.0
 71
     2
 49
0.5
 62
   256
  6
BYLAYER
 49
-0.5
 62
   256
  6
BYLAYER
  0
ACDBPLACEHOLDER
  5
F
102
{ACAD_REACTORS
330
E
102
}
330
E
  0
SCALE
  5
48
102
{ACAD_REACTORS
330
47
102
}
330
47
100
AcDbScale
 70
     0
300
1:1
140
1.0
141
1.0
290
     1
  0
SCALE
  5
49
102
{ACAD_REACTORS
330
47
102
}
330
47
100
AcDbScale
 70
     0
300
1:2
140
1.0
141
2.0
290
     0
  0
SCALE
  5
4A
102
{ACAD_REACTORS
330
47
102
}
330
47
100
AcDbScale
 70
     0
300
1:4
140
1.0
141
4.0
290
     0
  0
SCALE
  5
4B
102
{ACAD_REACTORS
330
47
102
}
330
47
100
AcDbScale
 70
     0
300
1:5
140
1.0
141
5.0
290
     0
  0
SCALE
  5
4C
102
{ACAD_REACTORS
330
47
102
}
330
47
100
AcDbScale
 70
     0
300
1:8
140
1.0
141
8.0
290
     0
  0
SCALE
  5
4D
102
{ACAD_REACTORS
330
47
102
}
330
47
100
AcDbScale
 70
     0
300
1:10
140
1.0
141
10.0
290
     0
  0
SCALE
  5
4E
102
{ACAD_REACTORS
330
47
102
}
330
47
100
AcDbScale
 70
     0
300
1:16
140
1.0
141
16.0
290
     0
  0
SCALE
  5
4F
102
{ACAD_REACTORS
330
47
102
}
330
47
100
AcDbScale
 70
     0
300
1:20
140
1.0
141
20.0
290
     0
  0
SCALE
  5
50
102
{ACAD_REACTORS
330
47
102
}
330
47
100
AcDbScale
 70
     0
300
1:30
140
1.0
141
30.0
290
     0
  0
SCALE
  5
51
102
{ACAD_REACTORS
330
47
102
}
330
47
100
AcDbScale
 70
     0
300
1:40
140
1.0
141
40.0
290
     0
  0
SCALE
  5
52
102
{ACAD_REACTORS
330
47
102
}
330
47
100
AcDbScale
 70
     0
300
1:50
140
1.0
141
50.0
290
     0
  0
SCALE
  5
53
102
{ACAD_REACTORS
330
47
102
}
330
47
100
AcDbScale
 70
     0
300
1:100
140
1.0
141
100.0
290
     0
  0
SCALE
  5
54
102
{ACAD_REACTORS
330
47
102
}
330
47
100
AcDbScale
 70
     0
300
2:1
140
2.0
141
1.0
290
     0
  0
SCALE
  5
55
102
{ACAD_REACTORS
330
47
102
}
330
47
100
AcDbScale
 70
     0
300
4:1
140
4.0
141
1.0
290
     0
  0
SCALE
  5
56
102
{ACAD_REACTORS
330
47
102
}
330
47
100
AcDbScale
 70
     0
300
8:1
140
8.0
141
1.0
290
     0
  0
SCALE
  5
57
102
{ACAD_REACTORS
330
47
102
}
330
47
100
AcDbScale
 70
     0
300
10:1
140
10.0
141
1.0
290
     0
  0
SCALE
  5
58
102
{ACAD_REACTORS
330
47
102
}
330
47
100
AcDbScale
 70
     0
300
100:1
140
100.0
141
1.0
290
     0
  0
SCALE
  5
59
102
{ACAD_REACTORS
330
47
102
}
330
47
100
AcDbScale
 70
     0
300
1/128" = 1'-0"
140
0.0078125
141
12.0
290
     0
  0
SCALE
  5
5A
102
{ACAD_REACTORS
330
47
102
}
330
47
100
AcDbScale
 70
     0
300
1/64" = 1'-0"
140
0.015625
141
12.0
290
     0
  0
SCALE
  5
5B
102
{ACAD_REACTORS
330
47
102
}
330
47
100
AcDbScale
 70
     0
300
1/32" = 1'-0"
140
0.03125
141
12.0
290
     0
  0
SCALE
  5
5C
102
{ACAD_REACTORS
330
47
102
}
330
47
100
AcDbScale
 70
     0
300
1/16" = 1'-0"
140
0.0625
141
12.0
290
     0
  0
SCALE
  5
5D
102
{ACAD_REACTORS
330
47
102
}
330
47
100
AcDbScale
 70
     0
300
3/32" = 1'-0"
140
0.09375
141
12.0
290
     0
  0
SCALE
  5
5E
102
{ACAD_REACTORS
330
47
102
}
330
47
100
AcDbScale
 70
     0
300
1/8" = 1'-0"
140
0.125
141
12.0
290
     0
  0
SCALE
  5
5F
102
{ACAD_REACTORS
330
47
102
}
330
47
100
AcDbScale
 70
     0
300
3/16" = 1'-0"
140
0.1875
141
12.0
290
     0
  0
SCALE
  5
60
102
{ACAD_REACTORS
330
47
102
}
330
47
100
AcDbScale
 70
     0
300
1/4" = 1'-0"
140
0.25
141
12.0
290
     0
  0
SCALE
  5
61
102
{ACAD_REACTORS
330
47
102
}
330
47
100
AcDbScale
 70
     0
300
3/8" = 1'-0"
140
0.375
141
12.0
290
     0
  0
SCALE
  5
62
102
{ACAD_REACTORS
330
47
102
}
330
47
100
AcDbScale
 70
     0
300
1/2" = 1'-0"
140
0.5
141
12.0
290
     0
  0
SCALE
  5
63
102
{ACAD_REACTORS
330
47
102
}
330
47
100
AcDbScale
 70
     0
300
3/4" = 1'-0"
140
0.75
141
12.0
290
     0
  0
SCALE
  5
64
102
{ACAD_REACTORS
330
47
102
}
330
47
100
AcDbScale
 70
     0
300
1" = 1'-0"
140
1.0
141
12.0
290
     0
  0
SCALE
  5
65
102
{ACAD_REACTORS
330
47
102
}
330
47
100
AcDbScale
 70
     0
300
1-1/2" = 1'-0"
140
1.5
141
12.0
290
     0
  0
SCALE
  5
66
102
{ACAD_REACTORS
330
47
102
}
330
47
100
AcDbScale
 70
     0
300
3" = 1'-0"
140
3.0
141
12.0
290
     0
  0
SCALE
  5
67
102
{ACAD_REACTORS
330
47
102
}
330
47
100
AcDbScale
 70
     0
300
6" = 1'-0"
140
6.0
141
12.0
290
     0
  0
SCALE
  5
68
102
{ACAD_REACTORS
330
47
102
}
330
47
100
AcDbScale
 70
     0
300
1'-0" = 1'-0"
140
12.0
141
12.0
290
     0
  0
ENDSEC
  0
EOF
