  0
SECTION
  2
HEADER
  9
$ACADVER
  1
AC1015
  9
$ACADMAINTVER
 70
     6
  9
$DWGCODEPAGE
  3
ANSI_949
  9
$INSBASE
 10
0.0
 20
0.0
 30
0.0
  9
$EXTMIN
 10
-43.12500000000009
 20
-49.97180738881175
 30
0.0
  9
$EXTMAX
 10
98.68848381534559
 20
27.88124999999998
 30
0.0
  9
$LIMMIN
 10
0.0
 20
0.0
  9
$LIMMAX
 10
420.0
 20
297.0
  9
$ORTHOMODE
 70
     1
  9
$REGENMODE
 70
     1
  9
$FILLMODE
 70
     1
  9
$QTEXTMODE
 70
     0
  9
$MIRRTEXT
 70
     1
  9
$LTSCALE
 40
1.0
  9
$ATTMODE
 70
     1
  9
$TEXTSIZE
 40
3.5
  9
$TRACEWID
 40
1.0
  9
$TEXTSTYLE
  7
Standard
  9
$CLAYER
  8
0
  9
$CELTYPE
  6
ByLayer
  9
$CECOLOR
 62
   256
  9
$CELTSCALE
 40
1.0
  9
$DISPSILH
 70
     0
  9
$DIMSCALE
 40
1.0
  9
$DIMASZ
 40
3.302
  9
$DIMEXO
 40
1.0
  9
$DIMDLI
 40
3.75
  9
$DIMRND
 40
0.0
  9
$DIMDLE
 40
0.0
  9
$DIMEXE
 40
1.0
  9
$DIMTP
 40
0.0
  9
$DIMTM
 40
0.0
  9
$DIMTXT
 40
3.5
  9
$DIMCEN
 40
2.5
  9
$DIMTSZ
 40
0.0
  9
$DIMTOL
 70
     0
  9
$DIMLIM
 70
     0
  9
$DIMTIH
 70
     1
  9
$DIMTOH
 70
     1
  9
$DIMSE1
 70
     0
  9
$DIMSE2
 70
     0
  9
$DIMTAD
 70
     1
  9
$DIMZIN
 70
     0
  9
$DIMBLK
  1

  9
$DIMASO
 70
     1
  9
$DIMSHO
 70
     1
  9
$DIMPOST
  1

  9
$DIMAPOST
  1

  9
$DIMALT
 70
     0
  9
$DIMALTD
 70
     3
  9
$DIMALTF
 40
0.0393700787401575
  9
$DIMLFAC
 40
1.0
  9
$DIMTOFL
 70
     1
  9
$DIMTVP
 40
0.0
  9
$DIMTIX
 70
     0
  9
$DIMSOXD
 70
     0
  9
$DIMSAH
 70
     0
  9
$DIMBLK1
  1

  9
$DIMBLK2
  1

  9
$DIMSTYLE
  2
ISO-25
  9
$DIMCLRD
 70
     0
  9
$DIMCLRE
 70
     0
  9
$DIMCLRT
 70
     0
  9
$DIMTFAC
 40
1.0
  9
$DIMGAP
 40
1.524
  9
$DIMJUST
 70
     0
  9
$DIMSD1
 70
     0
  9
$DIMSD2
 70
     0
  9
$DIMTOLJ
 70
     0
  9
$DIMTZIN
 70
     0
  9
$DIMALTZ
 70
     0
  9
$DIMALTTZ
 70
     0
  9
$DIMUPT
 70
     0
  9
$DIMDEC
 70
     2
  9
$DIMTDEC
 70
     2
  9
$DIMALTU
 70
     2
  9
$DIMALTTD
 70
     3
  9
$DIMTXSTY
  7
Standard
  9
$DIMAUNIT
 70
     0
  9
$DIMADEC
 70
     2
  9
$DIMALTRND
 40
0.0
  9
$DIMAZIN
 70
     0
  9
$DIMDSEP
 70
    44
  9
$DIMATFIT
 70
     3
  9
$DIMFRAC
 70
     0
  9
$DIMLDRBLK
  1

  9
$DIMLUNIT
 70
     2
  9
$DIMLWD
 70
    -2
  9
$DIMLWE
 70
    -2
  9
$DIMTMOVE
 70
     0
  9
$LUNITS
 70
     2
  9
$LUPREC
 70
     2
  9
$SKETCHINC
 40
1.0
  9
$FILLETRAD
 40
10.0
  9
$AUNITS
 70
     0
  9
$AUPREC
 70
     2
  9
$MENU
  1
.
  9
$ELEVATION
 40
0.0
  9
$PELEVATION
 40
0.0
  9
$THICKNESS
 40
0.0
  9
$LIMCHECK
 70
     0
  9
$CHAMFERA
 40
0.0
  9
$CHAMFERB
 40
0.0
  9
$CHAMFERC
 40
0.0
  9
$CHAMFERD
 40
0.0
  9
$SKPOLY
 70
     0
  9
$TDCREATE
 40
2458319.740076609
  9
$TDUCREATE
 40
2458319.365076609
  9
$TDUPDATE
 40
2458323.558658507
  9
$TDUUPDATE
 40
2458323.183658507
  9
$TDINDWG
 40
0.0022091088
  9
$TDUSRTIMER
 40
0.0022090972
  9
$USRTIMER
 70
     1
  9
$ANGBASE
 50
0.0
  9
$ANGDIR
 70
     0
  9
$PDMODE
 70
     0
  9
$PDSIZE
 40
-1.0
  9
$PLINEWID
 40
0.0
  9
$SPLFRAME
 70
     0
  9
$SPLINETYPE
 70
     6
  9
$SPLINESEGS
 70
     8
  9
$HANDSEED
  5
1FA
  9
$SURFTAB1
 70
     6
  9
$SURFTAB2
 70
     6
  9
$SURFTYPE
 70
     6
  9
$SURFU
 70
     6
  9
$SURFV
 70
     6
  9
$UCSBASE
  2

  9
$UCSNAME
  2

  9
$UCSORG
 10
0.0
 20
0.0
 30
0.0
  9
$UCSXDIR
 10
1.0
 20
0.0
 30
0.0
  9
$UCSYDIR
 10
0.0
 20
1.0
 30
0.0
  9
$UCSORTHOREF
  2

  9
$UCSORTHOVIEW
 70
     0
  9
$UCSORGTOP
 10
0.0
 20
0.0
 30
0.0
  9
$UCSORGBOTTOM
 10
0.0
 20
0.0
 30
0.0
  9
$UCSORGLEFT
 10
0.0
 20
0.0
 30
0.0
  9
$UCSORGRIGHT
 10
0.0
 20
0.0
 30
0.0
  9
$UCSORGFRONT
 10
0.0
 20
0.0
 30
0.0
  9
$UCSORGBACK
 10
0.0
 20
0.0
 30
0.0
  9
$PUCSBASE
  2

  9
$PUCSNAME
  2

  9
$PUCSORG
 10
0.0
 20
0.0
 30
0.0
  9
$PUCSXDIR
 10
1.0
 20
0.0
 30
0.0
  9
$PUCSYDIR
 10
0.0
 20
1.0
 30
0.0
  9
$PUCSORTHOREF
  2

  9
$PUCSORTHOVIEW
 70
     0
  9
$PUCSORGTOP
 10
0.0
 20
0.0
 30
0.0
  9
$PUCSORGBOTTOM
 10
0.0
 20
0.0
 30
0.0
  9
$PUCSORGLEFT
 10
0.0
 20
0.0
 30
0.0
  9
$PUCSORGRIGHT
 10
0.0
 20
0.0
 30
0.0
  9
$PUCSORGFRONT
 10
0.0
 20
0.0
 30
0.0
  9
$PUCSORGBACK
 10
0.0
 20
0.0
 30
0.0
  9
$USERI1
 70
     0
  9
$USERI2
 70
     0
  9
$USERI3
 70
     0
  9
$USERI4
 70
     0
  9
$USERI5
 70
     0
  9
$USERR1
 40
0.0
  9
$USERR2
 40
0.0
  9
$USERR3
 40
0.0
  9
$USERR4
 40
0.0
  9
$USERR5
 40
0.0
  9
$WORLDVIEW
 70
     1
  9
$SHADEDGE
 70
     3
  9
$SHADEDIF
 70
    70
  9
$TILEMODE
 70
     1
  9
$MAXACTVP
 70
    64
  9
$PINSBASE
 10
0.0
 20
0.0
 30
0.0
  9
$PLIMCHECK
 70
     0
  9
$PEXTMIN
 10
1.000000000000000E+20
 20
1.000000000000000E+20
 30
1.000000000000000E+20
  9
$PEXTMAX
 10
-1.000000000000000E+20
 20
-1.000000000000000E+20
 30
-1.000000000000000E+20
  9
$PLIMMIN
 10
0.0
 20
0.0
  9
$PLIMMAX
 10
0.0
 20
0.0
  9
$UNITMODE
 70
     0
  9
$VISRETAIN
 70
     1
  9
$PLINEGEN
 70
     0
  9
$PSLTSCALE
 70
     1
  9
$TREEDEPTH
 70
  3020
  9
$CMLSTYLE
  2
Standard
  9
$CMLJUST
 70
     0
  9
$CMLSCALE
 40
20.0
  9
$PROXYGRAPHICS
 70
     1
  9
$MEASUREMENT
 70
     1
  9
$CELWEIGHT
370
    -1
  9
$ENDCAPS
280
     0
  9
$JOINSTYLE
280
     0
  9
$LWDISPLAY
290
     1
  9
$INSUNITS
 70
     4
  9
$HYPERLINKBASE
  1

  9
$STYLESHEET
  1

  9
$XEDIT
290
     1
  9
$CEPSNTYPE
380
     0
  9
$PSTYLEMODE
290
     1
  9
$FINGERPRINTGUID
  2
{7422A28C-4B63-4372-9FED-75460FE89ED9}
  9
$VERSIONGUID
  2
{FAEB1C32-E019-11D5-929B-00C0DF256EC4}
  9
$EXTNAMES
290
     1
  9
$PSVPSCALE
 40
0.0
  9
$OLESTARTUP
290
     0
  0
ENDSEC
  0
SECTION
  2
CLASSES
  0
CLASS
  1
ACDBDICTIONARYWDFLT
  2
AcDbDictionaryWithDefault
  3
ObjectDBX Classes
 90
        0
280
     0
281
     0
  0
CLASS
  1
VISUALSTYLE
  2
AcDbVisualStyle
  3
ObjectDBX Classes
 90
     4095
280
     0
281
     0
  0
CLASS
  1
MATERIAL
  2
AcDbMaterial
  3
ObjectDBX Classes
 90
     1153
280
     0
281
     0
  0
CLASS
  1
SCALE
  2
AcDbScale
  3
ObjectDBX Classes
 90
     1153
280
     0
281
     0
  0
CLASS
  1
SUN
  2
AcDbSun
  3
SCENEOE
 90
     1153
280
     0
281
     0
  0
CLASS
  1
ACDBPLACEHOLDER
  2
AcDbPlaceHolder
  3
ObjectDBX Classes
 90
        0
280
     0
281
     0
  0
CLASS
  1
LAYOUT
  2
AcDbLayout
  3
ObjectDBX Classes
 90
        0
280
     0
281
     0
  0
CLASS
  1
TABLESTYLE
  2
AcDbTableStyle
  3
ObjectDBX Classes
 90
     4095
280
     0
281
     0
  0
CLASS
  1
MLEADERSTYLE
  2
AcDbMLeaderStyle
  3
ACDB_MLEADERSTYLE_CLASS
 90
     4095
280
     0
281
     0
  0
ENDSEC
  0
SECTION
  2
TABLES
  0
TABLE
  2
VPORT
  5
8
330
0
100
AcDbSymbolTable
 70
     1
  0
VPORT
  5
29
330
8
100
AcDbSymbolTableRecord
100
AcDbViewportTableRecord
  2
*Active
 70
     0
 10
0.0
 20
0.0
 11
1.0
 21
1.0
 12
27.78174190767275
 22
-11.04527869440589
 13
0.0
 23
0.0
 14
10.0
 24
10.0
 15
10.0
 25
10.0
 16
0.0
 26
0.0
 36
1.0
 17
0.0
 27
0.0
 37
0.0
 40
81.13797430955613
 41
1.782762691853601
 42
50.0
 43
0.0
 44
0.0
 50
0.0
 51
0.0
 71
    16
 72
  2000
 73
     1
 74
     3
 75
     0
 76
     0
 77
     0
 78
     0
281
     0
 65
     1
110
0.0
120
0.0
130
0.0
111
1.0
121
0.0
131
0.0
112
0.0
122
1.0
132
0.0
 79
     0
146
0.0
  0
ENDTAB
  0
TABLE
  2
LTYPE
  5
5
330
0
100
AcDbSymbolTable
 70
     6
  0
LTYPE
  5
14
330
5
100
AcDbSymbolTableRecord
100
AcDbLinetypeTableRecord
  2
ByBlock
 70
     0
  3

 72
    65
 73
     0
 40
0.0
  0
LTYPE
  5
15
330
5
100
AcDbSymbolTableRecord
100
AcDbLinetypeTableRecord
  2
ByLayer
 70
     0
  3

 72
    65
 73
     0
 40
0.0
  0
LTYPE
  5
16
330
5
100
AcDbSymbolTableRecord
100
AcDbLinetypeTableRecord
  2
Continuous
 70
     0
  3
Solid line
 72
    65
 73
     0
 40
0.0
  0
LTYPE
  5
6A
330
5
100
AcDbSymbolTableRecord
100
AcDbLinetypeTableRecord
  2
HIDDEN
 70
     0
  3
Hidden __ __ __ __ __ __ __ __ __ __ __ __ __ __
 72
    65
 73
     2
 40
1.905
 49
1.27
 74
     0
 49
-0.635
 74
     0
  0
LTYPE
  5
6B
330
5
100
AcDbSymbolTableRecord
100
AcDbLinetypeTableRecord
  2
PHANTOM
 70
     0
  3
Phantom ______  __  __  ______  __  __  ______
 72
    65
 73
     6
 40
12.7
 49
6.35
 74
     0
 49
-1.27
 74
     0
 49
1.27
 74
     0
 49
-1.27
 74
     0
 49
1.27
 74
     0
 49
-1.27
 74
     0
  0
LTYPE
  5
6C
330
5
100
AcDbSymbolTableRecord
100
AcDbLinetypeTableRecord
  2
CENTER
 70
     0
  3
Center ____ _ ____ _ ____ _ ____ _ ____ _ ____
 72
    65
 73
     4
 40
10.16
 49
6.35
 74
     0
 49
-1.27
 74
     0
 49
1.27
 74
     0
 49
-1.27
 74
     0
  0
LTYPE
  5
6D
330
5
100
AcDbSymbolTableRecord
100
AcDbLinetypeTableRecord
  2
CENTERX2
 70
     0
  3
Center (2x) ________  __  ________  __  _____
 72
    65
 73
     4
 40
20.32
 49
12.7
 74
     0
 49
-2.54
 74
     0
 49
2.54
 74
     0
 49
-2.54
 74
     0
  0
LTYPE
  5
6E
330
5
100
AcDbSymbolTableRecord
100
AcDbLinetypeTableRecord
  2
DOT2
 70
     0
  3
Dot (.5x) ........................................
 72
    65
 73
     2
 40
0.635
 49
0.0
 74
     0
 49
-0.635
 74
     0
  0
ENDTAB
  0
TABLE
  2
LAYER
  5
2
330
0
100
AcDbSymbolTable
 70
    18
  0
LAYER
  5
10
330
2
100
AcDbSymbolTableRecord
100
AcDbLayerTableRecord
  2
0
 70
     0
 62
     7
  6
Continuous
370
    -3
390
F
  0
LAYER
  5
6F
330
2
100
AcDbSymbolTableRecord
100
AcDbLayerTableRecord
  2
FORMAT
 70
     0
 62
     2
  6
Continuous
370
    -3
390
F
  0
LAYER
  5
70
330
2
100
AcDbSymbolTableRecord
100
AcDbLayerTableRecord
  2
외형선
 70
     0
 62
     4
  6
Continuous
370
    30
390
F
  0
LAYER
  5
71
330
2
100
AcDbSymbolTableRecord
100
AcDbLayerTableRecord
  2
숨은선
 70
     0
 62
     2
  6
HIDDEN
370
    15
390
F
  0
LAYER
  5
72
330
2
100
AcDbSymbolTableRecord
100
AcDbLayerTableRecord
  2
중심선
 70
     0
 62
     1
  6
CENTERX2
370
    -3
390
F
  0
LAYER
  5
73
330
2
100
AcDbSymbolTableRecord
100
AcDbLayerTableRecord
  2
파단선
 70
     0
 62
     4
  6
Continuous
370
    -3
390
F
  0
LAYER
  5
74
330
2
100
AcDbSymbolTableRecord
100
AcDbLayerTableRecord
  2
해칭선
 70
     0
 62
   100
  6
Continuous
370
    -3
390
F
  0
LAYER
  5
75
330
2
100
AcDbSymbolTableRecord
100
AcDbLayerTableRecord
  2
가는실선
 70
     0
 62
     4
  6
Continuous
370
    -3
390
F
  0
LAYER
  5
76
330
2
100
AcDbSymbolTableRecord
100
AcDbLayerTableRecord
  2
치수_보조선
 70
     0
 62
     4
  6
Continuous
370
    -3
390
F
  0
LAYER
  5
77
330
2
100
AcDbSymbolTableRecord
100
AcDbLayerTableRecord
  2
치수문자_일반주서
 70
     0
 62
     7
  6
Continuous
370
    15
390
F
  0
LAYER
  5
78
330
2
100
AcDbSymbolTableRecord
100
AcDbLayerTableRecord
  2
개별주서
 70
     0
 62
   100
  6
Continuous
370
    30
390
F
  0
LAYER
  5
79
330
2
100
AcDbSymbolTableRecord
100
AcDbLayerTableRecord
  2
중간선
 70
     0
 62
     2
  6
Continuous
370
    15
390
F
  0
LAYER
  5
7A
330
2
100
AcDbSymbolTableRecord
100
AcDbLayerTableRecord
  2
윤곽선
 70
     0
 62
     3
  6
Continuous
370
    40
390
F
  0
LAYER
  5
7B
330
2
100
AcDbSymbolTableRecord
100
AcDbLayerTableRecord
  2
중심마크
 70
     0
 62
   100
  6
Continuous
370
    30
390
F
  0
LAYER
  5
7C
330
2
100
AcDbSymbolTableRecord
100
AcDbLayerTableRecord
  2
가상선
 70
     0
 62
     4
  6
PHANTOM
370
    -3
390
F
  0
LAYER
  5
7D
330
2
100
AcDbSymbolTableRecord
100
AcDbLayerTableRecord
  2
특수지정선
 70
     0
 62
     5
  6
CENTERX2
370
    60
390
F
  0
LAYER
  5
7E
330
2
100
AcDbSymbolTableRecord
100
AcDbLayerTableRecord
  2
참조1
 70
     0
 62
    -4
  6
Continuous
370
    -3
390
F
  0
LAYER
  5
150
330
2
100
AcDbSymbolTableRecord
100
AcDbLayerTableRecord
  2
Defpoints
 70
     0
 62
     7
  6
Continuous
290
     0
370
    -3
390
F
  0
ENDTAB
  0
TABLE
  2
STYLE
  5
3
330
0
100
AcDbSymbolTable
 70
     2
  0
STYLE
  5
11
330
3
100
AcDbSymbolTableRecord
100
AcDbTextStyleTableRecord
  2
Standard
 70
     0
 40
0.0
 41
1.0
 50
0.0
 71
     0
 42
3.5
  3
txt
  4

  0
STYLE
  5
94
330
3
100
AcDbSymbolTableRecord
100
AcDbTextStyleTableRecord
  2
SLDTEXTSTYLE0
 70
     0
 40
0.0
 41
0.75
 50
0.0
 71
     0
 42
3.5
  3
TXT
  4

  0
ENDTAB
  0
TABLE
  2
VIEW
  5
6
330
0
100
AcDbSymbolTable
 70
     0
  0
ENDTAB
  0
TABLE
  2
UCS
  5
7
330
0
100
AcDbSymbolTable
 70
     0
  0
ENDTAB
  0
TABLE
  2
APPID
  5
9
330
0
100
AcDbSymbolTable
 70
     2
  0
APPID
  5
12
330
9
100
AcDbSymbolTableRecord
100
AcDbRegAppTableRecord
  2
ACAD
 70
     0
  0
APPID
  5
1A6
330
9
100
AcDbSymbolTableRecord
100
AcDbRegAppTableRecord
  2
PE_URL
 70
     0
  0
ENDTAB
  0
TABLE
  2
DIMSTYLE
  5
A
330
0
100
AcDbSymbolTable
 70
     3
100
AcDbDimStyleTable
  0
DIMSTYLE
105
27
330
A
100
AcDbSymbolTableRecord
100
AcDbDimStyleTableRecord
  2
ISO-25
 70
     0
 41
2.5
 42
0.625
 43
3.75
 44
1.25
 73
     0
 74
     0
 77
     1
 78
     8
140
2.5
141
2.5
143
0.03937007874016
147
0.625
171
     3
172
     1
178
     0
271
     2
272
     2
274
     3
278
    44
283
     0
284
     8
340
11
  0
DIMSTYLE
105
CE
102
{ACAD_REACTORS
330
CD
330
F7
330
10B
330
175
330
E3
102
}
330
A
100
AcDbSymbolTableRecord
100
AcDbDimStyleTableRecord
  2
SLDDIMSTYLE0
 70
     0
 41
3.302
 44
0.0
 45
0.000000001
 73
     0
 74
     0
 77
     1
 78
    12
 79
     3
140
3.5
143
0.0393700787401575
147
0.875
148
0.000000001
170
     1
172
     1
173
     1
178
     0
271
     2
272
     2
276
     2
284
    12
289
     0
340
94
  0
DIMSTYLE
105
E4
330
A
100
AcDbSymbolTableRecord
100
AcDbDimStyleTableRecord
  2
SLDDIMSTYLE1
 70
     0
 41
3.302
 44
0.0
 45
0.000000001
 73
     0
 74
     0
 77
     1
 78
     4
 79
     1
140
3.5
143
0.0393700787401575
147
0.875
148
0.000000001
170
     1
173
     1
178
     0
271
     2
272
     2
276
     2
284
    12
340
94
  0
ENDTAB
  0
TABLE
  2
BLOCK_RECORD
  5
1
330
0
100
AcDbSymbolTable
 70
    10
  0
BLOCK_RECORD
  5
1F
330
1
100
AcDbSymbolTableRecord
100
AcDbBlockTableRecord
  2
*Model_Space
340
22
  0
BLOCK_RECORD
  5
1B
330
1
100
AcDbSymbolTableRecord
100
AcDbBlockTableRecord
  2
*Paper_Space
340
1E
  0
BLOCK_RECORD
  5
23
330
1
100
AcDbSymbolTableRecord
100
AcDbBlockTableRecord
  2
*Paper_Space0
340
26
  0
BLOCK_RECORD
  5
7F
330
1
100
AcDbSymbolTableRecord
100
AcDbBlockTableRecord
  2
블럭10
340
0
102
{BLKREFS
331
C6
102
}
  0
BLOCK_RECORD
  5
CF
330
1
100
AcDbSymbolTableRecord
100
AcDbBlockTableRecord
  2
_D
340
0
  0
BLOCK_RECORD
  5
E5
330
1
100
AcDbSymbolTableRecord
100
AcDbBlockTableRecord
  2
_D_1
340
0
  0
BLOCK_RECORD
  5
F8
330
1
100
AcDbSymbolTableRecord
100
AcDbBlockTableRecord
  2
_D_2
340
0
  0
BLOCK_RECORD
  5
10C
330
1
100
AcDbSymbolTableRecord
100
AcDbBlockTableRecord
  2
_D_3
340
0
  0
BLOCK_RECORD
  5
126
330
1
100
AcDbSymbolTableRecord
100
AcDbBlockTableRecord
  2
SW_DOWELSYMBOL_0
340
0
102
{BLKREFS
331
12C
102
}
  0
BLOCK_RECORD
  5
187
330
1
100
AcDbSymbolTableRecord
100
AcDbBlockTableRecord
  2
*D8
340
0
  0
BLOCK_RECORD
  5
198
330
1
100
AcDbSymbolTableRecord
100
AcDbBlockTableRecord
  2
*D9
340
0
  0
ENDTAB
  0
ENDSEC
  0
SECTION
  2
BLOCKS
  0
BLOCK
  5
20
330
1F
100
AcDbEntity
  8
0
100
AcDbBlockBegin
  2
*Model_Space
 70
     0
 10
0.0
 20
0.0
 30
0.0
  3
*Model_Space
  1

  0
ENDBLK
  5
21
330
1F
100
AcDbEntity
  8
0
100
AcDbBlockEnd
  0
BLOCK
  5
1C
330
1B
100
AcDbEntity
 67
     1
  8
0
100
AcDbBlockBegin
  2
*Paper_Space
 70
     0
 10
0.0
 20
0.0
 30
0.0
  3
*Paper_Space
  1

  0
ENDBLK
  5
1D
330
1B
100
AcDbEntity
 67
     1
  8
0
100
AcDbBlockEnd
  0
BLOCK
  5
24
330
23
100
AcDbEntity
  8
0
100
AcDbBlockBegin
  2
*Paper_Space0
 70
     0
 10
0.0
 20
0.0
 30
0.0
  3
*Paper_Space0
  1

  0
ENDBLK
  5
25
330
23
100
AcDbEntity
  8
0
100
AcDbBlockEnd
  0
BLOCK
  5
80
330
7F
100
AcDbEntity
  8
0
100
AcDbBlockBegin
  2
블럭10
 70
     2
 10
0.0
 20
0.0
 30
0.0
  3
블럭10
  1

  0
ELLIPSE
  5
82
330
7F
100
AcDbEntity
  8
중심선
100
AcDbEllipse
 10
20.54032771741204
 20
12.0471743016438
 30
0.0
 11
6.600054785286829
 21
-1.261213355974178E-13
 31
0.0
210
0.0
220
0.0
230
1.0
 40
0.636358354079598
 41
0.9219305317359503
 42
6.513795318482858
  0
ELLIPSE
  5
83
330
7F
100
AcDbEntity
  8
중심선
100
AcDbEllipse
 10
20.54032771746488
 20
12.04717430159265
 30
0.0
 11
3.960054785062283
 21
1.540847449632565E-10
 31
0.0
210
0.0
220
0.0
230
1.0
 40
0.3939339440162632
 41
1.131841032648279
 42
5.62031148352944
  0
LINE
  5
84
330
7F
100
AcDbEntity
  8
중심선
100
AcDbLine
 10
2.268634060543552
 20
16.24717430164393
 30
0.0
 11
5.714909304380834
 21
16.24717430164393
 31
0.0
  0
LINE
  5
85
330
7F
100
AcDbEntity
  8
중심선
100
AcDbLine
 10
5.245725140726316
 20
7.84717430164391
 30
0.0
 11
8.692000384563599
 21
7.84717430164391
 31
0.0
  0
LINE
  5
86
330
7F
100
AcDbEntity
  8
중심선
100
AcDbLine
 10
15.74043728645272
 20
16.24717430164393
 30
0.0
 11
8.692000384563599
 21
7.84717430164391
 31
0.0
  0
LINE
  5
87
330
7F
100
AcDbEntity
  8
중심선
100
AcDbLine
 10
0.1404042013395286
 20
13.71084872107135
 30
0.0
 11
3.58671253028996
 21
13.71088815037384
 31
0.0
  0
LINE
  5
88
330
7F
100
AcDbEntity
  8
중심선
100
AcDbLine
 10
2.750260043222114
 20
10.84717430164391
 30
0.0
 11
6.196535287059397
 21
10.84717430164391
 31
0.0
  0
LINE
  5
89
330
7F
100
AcDbEntity
  8
중심선
100
AcDbLine
 10
12.29416204261559
 20
16.24717430164393
 30
0.0
 11
5.245725140726316
 21
7.84717430164391
 31
0.0
  0
LINE
  5
8A
330
7F
100
AcDbEntity
  8
중심선
100
AcDbLine
 10
10.72767329541681
 20
16.24717430164393
 30
0.0
 11
6.196535287059397
 21
10.84717430164391
 31
0.0
  0
LINE
  5
8B
330
7F
100
AcDbEntity
  8
중심선
100
AcDbLine
 10
7.28139805157953
 20
16.24717430164393
 30
0.0
 11
2.750260043222114
 21
10.84717430164391
 31
0.0
  0
LINE
  5
8C
330
7F
100
AcDbEntity
  8
중심선
100
AcDbLine
 10
5.714909304380834
 20
16.24717430164393
 30
0.0
 11
3.58671253028996
 21
13.71088815037384
 31
0.0
  0
LINE
  5
8D
330
7F
100
AcDbEntity
  8
중심선
100
AcDbLine
 10
2.268634060543552
 20
16.24717430164393
 30
0.0
 11
0.1404042013395286
 21
13.71084872107135
 31
0.0
  0
LINE
  5
8E
330
7F
100
AcDbEntity
  8
중심선
100
AcDbLine
 10
7.28139805157953
 20
16.24717430164393
 30
0.0
 11
10.72767329541681
 21
16.24717430164393
 31
0.0
  0
LINE
  5
8F
330
7F
100
AcDbEntity
  8
중심선
100
AcDbLine
 10
12.29416204261559
 20
16.24717430164393
 30
0.0
 11
15.74043728645272
 21
16.24717430164393
 31
0.0
  0
LINE
  5
90
330
7F
100
AcDbEntity
  8
중심선
100
AcDbLine
 10
19.22036997980202
 20
11.08717430171403
 30
0.0
 11
23.66174974927406
 21
11.08717430171406
 31
0.0
  0
LINE
  5
91
330
7F
100
AcDbEntity
  8
중심선
100
AcDbLine
 10
19.22039502424796
 20
13.00717430171391
 30
0.0
 11
19.22036997980202
 21
11.08717430171403
 31
0.0
  0
LINE
  5
92
330
7F
100
AcDbEntity
  8
중심선
100
AcDbLine
 10
19.22039502424796
 20
13.00717430171391
 30
0.0
 11
26.96566020931264
 21
13.00717430171391
 31
0.0
  0
LINE
  5
93
330
7F
100
AcDbEntity
  8
중심선
100
AcDbLine
 10
22.22332737316547
 20
13.45928029700563
 30
0.0
 11
24.52862924686651
 21
15.39360700705356
 31
0.0
  0
ATTDEF
  5
95
330
7F
100
AcDbEntity
  8
FORMAT
 62
     2
100
AcDbText
 10
4.408487351596664
 20
2.075366912832191
 30
0.0
 40
4.233333333333333
  1
E1015004
 41
0.75
  7
SLDTEXTSTYLE0
 11
4.408487351596664
 21
-0.0412997538344756
 31
0.0
100
AcDbAttributeDefinition
  3

  2
AUTOATTR0
 70
     0
 74
     1
  0
ENDBLK
  5
81
330
7F
100
AcDbEntity
  8
0
100
AcDbBlockEnd
  0
BLOCK
  5
D0
330
CF
100
AcDbEntity
  8
0
100
AcDbBlockBegin
  2
_D
 70
     0
 10
0.0
 20
0.0
 30
0.0
  3
_D
  1

  0
LINE
  5
D2
330
CF
100
AcDbEntity
  8
치수문자_일반주서
 62
     0
370
    -2
100
AcDbLine
 10
31.75
 20
0.8562500000000033
 30
0.0
 11
31.75
 21
10.38125
 31
0.0
  0
LINE
  5
D3
330
CF
100
AcDbEntity
  8
치수문자_일반주서
 62
     0
370
    -2
100
AcDbLine
 10
26.19374999990217
 20
0.8392282380891914
 30
0.0
 11
26.19374999990217
 21
10.38125
 31
0.0
  0
LINE
  5
D4
330
CF
100
AcDbEntity
  8
치수문자_일반주서
 62
     0
370
    -2
100
AcDbLine
 10
31.75
 20
10.38125
 30
0.0
 11
56.00000000000002
 21
10.38125
 31
0.0
  0
LINE
  5
D5
330
CF
100
AcDbEntity
  8
치수문자_일반주서
 62
     0
370
    -2
100
AcDbLine
 10
31.75
 20
10.38125
 30
0.0
 11
26.19374999990217
 21
10.38125
 31
0.0
  0
LINE
  5
D6
330
CF
100
AcDbEntity
  8
치수문자_일반주서
 62
     0
370
    -2
100
AcDbLine
 10
34.25
 20
10.38125
 30
0.0
 11
36.75
 21
10.38125
 31
0.0
  0
LINE
  5
D7
330
CF
100
AcDbEntity
  8
치수문자_일반주서
 62
     0
370
    -2
100
AcDbLine
 10
23.69374999990217
 20
10.38125
 30
0.0
 11
21.19374999990217
 21
10.38125
 31
0.0
  0
SOLID
  5
D8
330
CF
100
AcDbEntity
  8
치수문자_일반주서
 62
     0
100
AcDbTrace
 10
34.25
 20
10.79791666666667
 30
0.0
 11
34.25
 21
9.964583333333335
 31
0.0
 12
31.75
 22
10.38125
 32
0.0
 13
31.75
 23
10.38125
 33
0.0
  0
SOLID
  5
D9
330
CF
100
AcDbEntity
  8
치수문자_일반주서
 62
     0
100
AcDbTrace
 10
23.69374999990217
 20
9.964583333333335
 30
0.0
 11
23.69374999990217
 21
10.79791666666667
 31
0.0
 12
26.19374999990217
 22
10.38125
 32
0.0
 13
26.19374999990217
 23
10.38125
 33
0.0
  0
MTEXT
  5
DA
330
CF
100
AcDbEntity
  8
치수문자_일반주서
 62
     0
100
AcDbMText
 10
46.37500000000002
 20
13.75625
 30
0.0
 40
2.5
 41
0.0
 71
     2
 72
     1
  1
\A1;5.56 [7/32]
  7
SLDTEXTSTYLE0
 73
     1
 44
1.0
  0
POINT
  5
DB
330
CF
100
AcDbEntity
  8
Defpoints
 62
     0
100
AcDbPoint
 10
31.75
 20
0.7937500000000033
 30
0.0
  0
POINT
  5
DC
330
CF
100
AcDbEntity
  8
Defpoints
 62
     0
100
AcDbPoint
 10
26.19374999990217
 20
0.7767282380891914
 30
0.0
  0
POINT
  5
DD
330
CF
100
AcDbEntity
  8
Defpoints
 62
     0
100
AcDbPoint
 10
26.19374999990217
 20
10.38125
 30
0.0
  0
ENDBLK
  5
D1
330
CF
100
AcDbEntity
  8
0
100
AcDbBlockEnd
  0
BLOCK
  5
E6
330
E5
100
AcDbEntity
  8
0
100
AcDbBlockBegin
  2
_D_1
 70
     0
 10
0.0
 20
0.0
 30
0.0
  3
_D_1
  1

  0
LINE
  5
E8
330
E5
100
AcDbEntity
  8
치수문자_일반주서
 62
     0
370
    -2
100
AcDbLine
 10
31.75
 20
0.8562500000000033
 30
0.0
 11
31.75
 21
18.38125
 31
0.0
  0
LINE
  5
E9
330
E5
100
AcDbEntity
  8
치수문자_일반주서
 62
     0
370
    -2
100
AcDbLine
 10
-31.75000000000001
 20
0.8562500000000017
 30
0.0
 11
-31.75000000000001
 21
18.38125
 31
0.0
  0
LINE
  5
EA
330
E5
100
AcDbEntity
  8
치수문자_일반주서
 62
     0
370
    -2
100
AcDbLine
 10
29.25
 20
18.38125
 30
0.0
 11
-29.25000000000001
 21
18.38125
 31
0.0
  0
SOLID
  5
EB
330
E5
100
AcDbEntity
  8
치수문자_일반주서
 62
     0
100
AcDbTrace
 10
29.25
 20
17.96458333333334
 30
0.0
 11
29.25
 21
18.79791666666667
 31
0.0
 12
31.75
 22
18.38125
 32
0.0
 13
31.75
 23
18.38125
 33
0.0
  0
SOLID
  5
EC
330
E5
100
AcDbEntity
  8
치수문자_일반주서
 62
     0
100
AcDbTrace
 10
-29.25000000000001
 20
18.79791666666667
 30
0.0
 11
-29.25000000000001
 21
17.96458333333334
 31
0.0
 12
-31.75000000000001
 22
18.38125
 32
0.0
 13
-31.75000000000001
 23
18.38125
 33
0.0
  0
MTEXT
  5
ED
330
E5
100
AcDbEntity
  8
치수문자_일반주서
 62
     0
100
AcDbMText
 10
0.2779156695830451
 20
21.75625
 30
0.0
 40
2.5
 41
0.0
 71
     2
 72
     1
  1
\A1;63.5 [2 1/2]
  7
SLDTEXTSTYLE0
 73
     1
 44
1.0
  0
POINT
  5
EE
330
E5
100
AcDbEntity
  8
Defpoints
 62
     0
100
AcDbPoint
 10
31.75
 20
0.7937500000000033
 30
0.0
  0
POINT
  5
EF
330
E5
100
AcDbEntity
  8
Defpoints
 62
     0
100
AcDbPoint
 10
-31.75000000000001
 20
0.7937500000000017
 30
0.0
  0
POINT
  5
F0
330
E5
100
AcDbEntity
  8
Defpoints
 62
     0
100
AcDbPoint
 10
-31.75000000000001
 20
18.38125
 30
0.0
  0
ENDBLK
  5
E7
330
E5
100
AcDbEntity
  8
0
100
AcDbBlockEnd
  0
BLOCK
  5
F9
330
F8
100
AcDbEntity
  8
0
100
AcDbBlockBegin
  2
_D_2
 70
     0
 10
0.0
 20
0.0
 30
0.0
  3
_D_2
  1

  0
LINE
  5
FB
330
F8
100
AcDbEntity
  8
치수문자_일반주서
 62
     0
370
    -2
100
AcDbLine
 10
-19.33161934298442
 20
2.381249999999996
 30
0.0
 11
-39.75000000000001
 21
2.38124999999992
 31
0.0
  0
LINE
  5
FC
330
F8
100
AcDbEntity
  8
치수문자_일반주서
 62
     0
370
    -2
100
AcDbLine
 10
-19.33161934298442
 20
-2.381250000000002
 30
0.0
 11
-39.75
 21
-2.38125000000008
 31
0.0
  0
LINE
  5
FD
330
F8
100
AcDbEntity
  8
치수문자_일반주서
 62
     0
370
    -2
100
AcDbLine
 10
-39.75000000000001
 20
2.38124999999992
 30
0.0
 11
-39.75000000000009
 21
27.88124999999998
 31
0.0
  0
LINE
  5
FE
330
F8
100
AcDbEntity
  8
치수문자_일반주서
 62
     0
370
    -2
100
AcDbLine
 10
-39.75000000000001
 20
2.38124999999992
 30
0.0
 11
-39.75
 21
-2.38125000000008
 31
0.0
  0
LINE
  5
FF
330
F8
100
AcDbEntity
  8
치수문자_일반주서
 62
     0
370
    -2
100
AcDbLine
 10
-39.75000000000002
 20
4.88124999999992
 30
0.0
 11
-39.75000000000003
 21
7.38124999999992
 31
0.0
  0
LINE
  5
100
330
F8
100
AcDbEntity
  8
치수문자_일반주서
 62
     0
370
    -2
100
AcDbLine
 10
-39.74999999999999
 20
-4.88125000000008
 30
0.0
 11
-39.74999999999999
 21
-7.38125000000008
 31
0.0
  0
SOLID
  5
101
330
F8
100
AcDbEntity
  8
치수문자_일반주서
 62
     0
100
AcDbTrace
 10
-40.16666666666669
 20
4.881249999999919
 30
0.0
 11
-39.33333333333336
 21
4.881249999999921
 31
0.0
 12
-39.75000000000001
 22
2.38124999999992
 32
0.0
 13
-39.75000000000001
 23
2.38124999999992
 33
0.0
  0
SOLID
  5
102
330
F8
100
AcDbEntity
  8
치수문자_일반주서
 62
     0
100
AcDbTrace
 10
-39.33333333333333
 20
-4.881250000000079
 30
0.0
 11
-40.16666666666666
 21
-4.88125000000008
 31
0.0
 12
-39.75
 22
-2.38125000000008
 32
0.0
 13
-39.75
 23
-2.38125000000008
 33
0.0
  0
MTEXT
  5
103
330
F8
100
AcDbEntity
  8
치수문자_일반주서
 62
     0
100
AcDbMText
 10
-43.12500000000006
 20
17.63124999999997
 30
0.0
 40
2.5
 41
0.0
 71
     2
 72
     1
  1
\A1;%%c4.76 [3/16]
  7
SLDTEXTSTYLE0
 11
-2.983906501879687E-15
 21
1.0
 31
0.0
 73
     1
 44
1.0
  0
POINT
  5
1AA
330
F8
100
AcDbEntity
  8
Defpoints
 62
     0
100
AcDbPoint
 10
-19.26911934298442
 20
2.381249999999996
 30
0.0
  0
POINT
  5
1AB
330
F8
100
AcDbEntity
  8
Defpoints
 62
     0
100
AcDbPoint
 10
-19.26911934298442
 20
-2.381250000000001
 30
0.0
  0
POINT
  5
1AC
330
F8
100
AcDbEntity
  8
Defpoints
 62
     0
100
AcDbPoint
 10
-39.75
 20
-2.381250000000078
 30
0.0
  0
ENDBLK
  5
FA
330
F8
100
AcDbEntity
  8
0
100
AcDbBlockEnd
  0
BLOCK
  5
10D
330
10C
100
AcDbEntity
  8
0
100
AcDbBlockBegin
  2
_D_3
 70
     0
 10
0.0
 20
0.0
 30
0.0
  3
_D_3
  1

  0
LINE
  5
10F
330
10C
100
AcDbEntity
  8
치수문자_일반주서
 62
     0
370
    -2
100
AcDbLine
 10
31.8125
 20
0.7937500000000035
 30
0.0
 11
61.25037199130571
 21
0.793750000000113
 31
0.0
  0
LINE
  5
110
330
10C
100
AcDbEntity
  8
치수문자_일반주서
 62
     0
370
    -2
100
AcDbLine
 10
31.8125
 20
-0.7937499999999964
 30
0.0
 11
61.25037199130572
 21
-0.7937499999998856
 31
0.0
  0
LINE
  5
111
330
10C
100
AcDbEntity
  8
치수문자_일반주서
 62
     0
370
    -2
100
AcDbLine
 10
61.25037199130571
 20
0.793750000000113
 30
0.0
 11
61.25037199130561
 21
25.04375000000012
 31
0.0
  0
LINE
  5
112
330
10C
100
AcDbEntity
  8
치수문자_일반주서
 62
     0
370
    -2
100
AcDbLine
 10
61.25037199130571
 20
0.793750000000113
 30
0.0
 11
61.25037199130572
 21
-0.7937499999998856
 31
0.0
  0
LINE
  5
113
330
10C
100
AcDbEntity
  8
치수문자_일반주서
 62
     0
370
    -2
100
AcDbLine
 10
61.2503719913057
 20
3.293750000000113
 30
0.0
 11
61.25037199130568
 21
5.793750000000113
 31
0.0
  0
LINE
  5
114
330
10C
100
AcDbEntity
  8
치수문자_일반주서
 62
     0
370
    -2
100
AcDbLine
 10
61.25037199130573
 20
-3.293749999999886
 30
0.0
 11
61.25037199130575
 21
-5.793749999999886
 31
0.0
  0
SOLID
  5
115
330
10C
100
AcDbEntity
  8
치수문자_일반주서
 62
     0
100
AcDbTrace
 10
60.83370532463903
 20
3.293750000000111
 30
0.0
 11
61.66703865797236
 21
3.293750000000115
 31
0.0
 12
61.25037199130571
 22
0.793750000000113
 32
0.0
 13
61.25037199130571
 23
0.793750000000113
 33
0.0
  0
SOLID
  5
116
330
10C
100
AcDbEntity
  8
치수문자_일반주서
 62
     0
100
AcDbTrace
 10
61.6670386579724
 20
-3.293749999999884
 30
0.0
 11
60.83370532463907
 21
-3.293749999999887
 31
0.0
 12
61.25037199130572
 22
-0.7937499999998856
 32
0.0
 13
61.25037199130572
 23
-0.7937499999998856
 33
0.0
  0
MTEXT
  5
117
330
10C
100
AcDbEntity
  8
치수문자_일반주서
 62
     0
100
AcDbMText
 10
57.87537199130565
 20
15.41875000000011
 30
0.0
 40
2.5
 41
0.0
 71
     2
 72
     1
  1
\A1;%%c1.59 [1/16]
  7
SLDTEXTSTYLE0
 11
-4.475859752819529E-15
 21
1.0
 31
0.0
 73
     1
 44
1.0
  0
POINT
  5
118
330
10C
100
AcDbEntity
  8
Defpoints
 62
     0
100
AcDbPoint
 10
31.75
 20
0.7937500000000033
 30
0.0
  0
POINT
  5
119
330
10C
100
AcDbEntity
  8
Defpoints
 62
     0
100
AcDbPoint
 10
31.75
 20
-0.7937499999999966
 30
0.0
  0
POINT
  5
11A
330
10C
100
AcDbEntity
  8
Defpoints
 62
     0
100
AcDbPoint
 10
61.25037199130572
 20
-0.7937499999998864
 30
0.0
  0
ENDBLK
  5
10E
330
10C
100
AcDbEntity
  8
0
100
AcDbBlockEnd
  0
BLOCK
  5
127
330
126
100
AcDbEntity
  8
0
100
AcDbBlockBegin
  2
SW_DOWELSYMBOL_0
 70
     0
 10
0.0
 20
0.0
 30
0.0
  3
SW_DOWELSYMBOL_0
  1

  0
CIRCLE
  5
129
330
126
100
AcDbEntity
  8
해칭선
 62
     0
100
AcDbCircle
 10
0.0
 20
0.0
 30
0.0
 40
3.000000000000003
  0
HATCH
  5
12A
330
126
100
AcDbEntity
  8
0
  6
Continuous
 62
     0
370
     0
100
AcDbHatch
 10
0.0
 20
0.0
 30
0.0
210
0.0
220
0.0
230
1.0
  2
SOLID
 70
     1
 71
     0
 91
        1
 92
        0
 93
        3
 72
     2
 10
-0.0000000000000087
 20
0.0
 40
3.000000000000003
 50
0.0
 51
90.0
 73
     1
 72
     1
 10
-0.0000000000000087
 20
3.000000000000003
 11
-0.0000000000000087
 21
0.0
 72
     1
 10
-0.0000000000000087
 20
0.0
 11
2.999999999999994
 21
0.0
 97
        0
 75
     0
 76
     1
 98
        1
 10
0.0
 20
0.0
  0
HATCH
  5
12B
330
126
100
AcDbEntity
  8
0
  6
Continuous
 62
     0
370
     0
100
AcDbHatch
 10
0.0
 20
0.0
 30
0.0
210
0.0
220
0.0
230
1.0
  2
SOLID
 70
     1
 71
     0
 91
        1
 92
        0
 93
        3
 72
     2
 10
-0.0000000000000087
 20
0.0
 40
3.000000000000003
 50
180.0
 51
270.0000000000008
 73
     1
 72
     1
 10
-0.0000000000000087
 20
-3.000000000000003
 11
-0.0000000000000087
 21
0.0
 72
     1
 10
-0.0000000000000087
 20
0.0
 11
-3.000000000000012
 21
0.0
 97
        0
 75
     0
 76
     1
 98
        1
 10
0.0
 20
0.0
  0
ENDBLK
  5
128
330
126
100
AcDbEntity
  8
0
100
AcDbBlockEnd
  0
BLOCK
  5
188
330
187
100
AcDbEntity
  8
0
100
AcDbBlockBegin
  2
*D8
 70
     1
 10
0.0
 20
0.0
 30
0.0
  3
*D8
  1

  0
LINE
  5
18A
330
187
100
AcDbEntity
  8
치수문자_일반주서
 62
     0
370
    -2
100
AcDbLine
 10
4.999999999999998
 20
1.518600912039116
 30
0.0
 11
4.999999999999998
 21
12.30201921462676
 31
0.0
  0
LINE
  5
18B
330
187
100
AcDbEntity
  8
치수문자_일반주서
 62
     0
370
    -2
100
AcDbLine
 10
10.99999999999999
 20
1.555798244697894
 30
0.0
 11
10.99999999999999
 21
12.30201921462676
 31
0.0
  0
LINE
  5
18C
330
187
100
AcDbEntity
  8
치수문자_일반주서
 62
     0
370
    -2
100
AcDbLine
 10
4.999999999999998
 20
12.30201921462676
 30
0.0
 11
10.99999999999999
 21
12.30201921462676
 31
0.0
  0
LINE
  5
18D
330
187
100
AcDbEntity
  8
치수문자_일반주서
 62
     0
370
    -2
100
AcDbLine
 10
2.499999999999998
 20
12.30201921462676
 30
0.0
 11
-0.0000000000000018
 21
12.30201921462676
 31
0.0
  0
LINE
  5
18E
330
187
100
AcDbEntity
  8
치수문자_일반주서
 62
     0
370
    -2
100
AcDbLine
 10
13.49999999999999
 20
12.30201921462676
 30
0.0
 11
15.99999999999999
 21
12.30201921462676
 31
0.0
  0
SOLID
  5
18F
330
187
100
AcDbEntity
  8
치수문자_일반주서
 62
     0
100
AcDbTrace
 10
2.499999999999998
 20
11.8853525479601
 30
0.0
 11
2.499999999999998
 21
12.71868588129343
 31
0.0
 12
4.999999999999998
 22
12.30201921462676
 32
0.0
 13
4.999999999999998
 23
12.30201921462676
 33
0.0
  0
SOLID
  5
190
330
187
100
AcDbEntity
  8
치수문자_일반주서
 62
     0
100
AcDbTrace
 10
13.49999999999999
 20
12.71868588129343
 30
0.0
 11
13.49999999999999
 21
11.8853525479601
 31
0.0
 12
10.99999999999999
 22
12.30201921462676
 32
0.0
 13
10.99999999999999
 23
12.30201921462676
 33
0.0
  0
MTEXT
  5
191
330
187
100
AcDbEntity
  8
치수문자_일반주서
 62
     0
100
AcDbMText
 10
7.999999999999995
 20
15.67701921462676
 30
0.0
 40
2.5
 41
0.0
 71
     2
 72
     1
  1
\A1;6 [0.24]
  7
SLDTEXTSTYLE0
 73
     1
 44
1.0
  0
POINT
  5
192
330
187
100
AcDbEntity
  8
Defpoints
 62
     0
100
AcDbPoint
 10
4.999999999999998
 20
1.456100912039116
 30
0.0
  0
POINT
  5
193
330
187
100
AcDbEntity
  8
Defpoints
 62
     0
100
AcDbPoint
 10
10.99999999999999
 20
1.493298244697894
 30
0.0
  0
POINT
  5
194
330
187
100
AcDbEntity
  8
Defpoints
 62
     0
100
AcDbPoint
 10
10.99999999999999
 20
12.30201921462676
 30
0.0
  0
ENDBLK
  5
189
330
187
100
AcDbEntity
  8
0
100
AcDbBlockEnd
  0
BLOCK
  5
199
330
198
100
AcDbEntity
  8
0
100
AcDbBlockBegin
  2
*D9
 70
     1
 10
0.0
 20
0.0
 30
0.0
  3
*D9
  1

  0
LINE
  5
19B
330
198
100
AcDbEntity
  8
치수문자_일반주서
 62
     0
370
    -2
100
AcDbLine
 10
61.3603125949119
 20
-8.202461612599112
 30
0.0
 11
61.3603125949119
 21
2.580956689988534
 31
0.0
  0
LINE
  5
19C
330
198
100
AcDbEntity
  8
치수문자_일반주서
 62
     0
370
    -2
100
AcDbLine
 10
67.3603125949119
 20
-8.165264279940335
 30
0.0
 11
67.3603125949119
 21
2.580956689988534
 31
0.0
  0
LINE
  5
19D
330
198
100
AcDbEntity
  8
치수문자_일반주서
 62
     0
370
    -2
100
AcDbLine
 10
61.3603125949119
 20
2.580956689988534
 30
0.0
 11
67.3603125949119
 21
2.580956689988534
 31
0.0
  0
LINE
  5
19E
330
198
100
AcDbEntity
  8
치수문자_일반주서
 62
     0
370
    -2
100
AcDbLine
 10
58.8603125949119
 20
2.580956689988534
 30
0.0
 11
56.3603125949119
 21
2.580956689988534
 31
0.0
  0
LINE
  5
19F
330
198
100
AcDbEntity
  8
치수문자_일반주서
 62
     0
370
    -2
100
AcDbLine
 10
69.8603125949119
 20
2.580956689988534
 30
0.0
 11
72.3603125949119
 21
2.580956689988534
 31
0.0
  0
SOLID
  5
1A0
330
198
100
AcDbEntity
  8
치수문자_일반주서
 62
     0
100
AcDbTrace
 10
58.8603125949119
 20
2.164290023321868
 30
0.0
 11
58.8603125949119
 21
2.997623356655201
 31
0.0
 12
61.3603125949119
 22
2.580956689988534
 32
0.0
 13
61.3603125949119
 23
2.580956689988534
 33
0.0
  0
SOLID
  5
1A1
330
198
100
AcDbEntity
  8
치수문자_일반주서
 62
     0
100
AcDbTrace
 10
69.8603125949119
 20
2.997623356655201
 30
0.0
 11
69.8603125949119
 21
2.164290023321868
 31
0.0
 12
67.3603125949119
 22
2.580956689988534
 32
0.0
 13
67.3603125949119
 23
2.580956689988534
 33
0.0
  0
MTEXT
  5
1A2
330
198
100
AcDbEntity
  8
치수문자_일반주서
 62
     0
100
AcDbMText
 10
64.3603125949119
 20
5.955956689988534
 30
0.0
 40
2.5
 41
0.0
 71
     2
 72
     1
  1
\A1;6 [0.24]
  7
SLDTEXTSTYLE0
 73
     1
 44
1.0
  0
POINT
  5
1A3
330
198
100
AcDbEntity
  8
Defpoints
 62
     0
100
AcDbPoint
 10
61.3603125949119
 20
-8.264961612599112
 30
0.0
  0
POINT
  5
1A4
330
198
100
AcDbEntity
  8
Defpoints
 62
     0
100
AcDbPoint
 10
67.3603125949119
 20
-8.227764279940335
 30
0.0
  0
POINT
  5
1A5
330
198
100
AcDbEntity
  8
Defpoints
 62
     0
100
AcDbPoint
 10
67.3603125949119
 20
2.580956689988534
 30
0.0
  0
ENDBLK
  5
19A
330
198
100
AcDbEntity
  8
0
100
AcDbBlockEnd
  0
ENDSEC
  0
SECTION
  2
ENTITIES
  0
LINE
  5
96
330
1F
100
AcDbEntity
  8
외형선
  6
Continuous
370
    15
100
AcDbLine
 10
19.26911934298442
 20
-2.381249999999997
 30
0.0
 11
25.19375
 21
-0.7937499999999968
 31
0.0
  0
LINE
  5
97
330
1F
100
AcDbEntity
  8
외형선
  6
Continuous
370
    15
100
AcDbLine
 10
25.19375
 20
0.7937500000000033
 30
0.0
 11
19.26911934298442
 21
2.381250000000002
 31
0.0
  0
LINE
  5
98
330
1F
100
AcDbEntity
  8
외형선
  6
Continuous
370
    15
100
AcDbLine
 10
19.26911934298442
 20
2.381250000000002
 30
0.0
 11
-19.26911934298442
 21
2.381249999999998
 31
0.0
  0
LINE
  5
99
330
1F
100
AcDbEntity
  8
외형선
  6
Continuous
370
    15
100
AcDbLine
 10
-19.26911934298442
 20
-2.381250000000002
 30
0.0
 11
19.26911934298442
 21
-2.381249999999998
 31
0.0
  0
LINE
  5
9C
330
1F
100
AcDbEntity
  8
외형선
  6
Continuous
370
    15
100
AcDbLine
 10
25.39345613540599
 20
0.7937500000000032
 30
0.0
 11
25.19375
 21
0.7937500000000032
 31
0.0
  0
LINE
  5
9D
330
1F
100
AcDbEntity
  8
외형선
  6
Continuous
370
    15
100
AcDbLine
 10
25.19375
 20
-0.7937499999999967
 30
0.0
 11
25.39345613540599
 21
-0.7937499999999967
 31
0.0
  0
LINE
  5
9E
330
1F
100
AcDbEntity
  8
0
  6
Continuous
 62
     1
370
    25
100
AcDbLine
 10
30.79719529693077
 20
-0.7937499999999966
 30
0.0
 11
30.95625
 21
-0.7937499999999966
 31
0.0
1001
PE_URL
1000

  0
LINE
  5
9F
330
1F
100
AcDbEntity
  8
0
  6
Continuous
 62
     1
370
    25
100
AcDbLine
 10
28.20256089313892
 20
0.7937500000000033
 30
0.0
 11
26.47846806264269
 21
0.7937500000000033
 31
0.0
1001
PE_URL
1000

  0
LINE
  5
A0
330
1F
100
AcDbEntity
  8
0
  6
Continuous
 62
     1
370
    25
100
AcDbLine
 10
26.47904778717095
 20
-0.7937499999999966
 30
0.0
 11
28.20256089313892
 21
-0.7937499999999966
 31
0.0
1001
PE_URL
1000

  0
LINE
  5
A1
330
1F
100
AcDbEntity
  8
0
  6
Continuous
 62
     1
370
    25
100
AcDbLine
 10
30.95625
 20
0.7937500000000033
 30
0.0
 11
30.79805237282873
 21
0.7937500000000033
 31
0.0
1001
PE_URL
1000

  0
ARC
  5
A2
330
1F
100
AcDbEntity
  8
0
  6
Continuous
 62
     1
370
    25
100
AcDbCircle
 10
30.95625
 20
0.0000000000000034
 30
0.0
 40
0.7937499999999997
100
AcDbArc
 50
270.0000000000007
 51
0.0
1001
PE_URL
1000

  0
ARC
  5
A3
330
1F
100
AcDbEntity
  8
0
  6
Continuous
 62
     1
370
    25
100
AcDbCircle
 10
30.95625
 20
0.0000000000000034
 30
0.0
 40
0.7937499999999997
100
AcDbArc
 50
0.0
 51
90.0
1001
PE_URL
1000

  0
LINE
  5
A4
330
1F
100
AcDbEntity
  8
외형선
  6
Continuous
370
    15
100
AcDbLine
 10
25.19375
 20
0.7937500000000033
 30
0.0
 11
25.19375
 21
-0.7937499999999971
 31
0.0
  0
LINE
  5
A5
330
1F
100
AcDbEntity
  8
외형선
  6
Continuous
370
    15
100
AcDbLine
 10
19.26911934298442
 20
2.381250000000002
 30
0.0
 11
19.26911934298442
 21
-2.381250000000001
 31
0.0
  0
SPLINE
  5
A8
330
1F
100
AcDbEntity
  8
외형선
  6
Continuous
370
    15
100
AcDbSpline
210
0.0
220
0.0
230
1.0
 70
     8
 71
     3
 72
    10
 73
     6
 74
     0
 42
0.000000001
 43
0.00000001
 40
0.0
 40
0.0
 40
0.0
 40
0.0
 40
0.4999999999999999
 40
0.4999999999999999
 40
1.0
 40
1.0
 40
1.0
 40
1.0
 10
26.19374999999968
 20
-0.0858726260560296
 30
0.0
 10
26.06006041083311
 20
-0.0093784164500036
 30
0.0
 10
25.92494773514237
 20
0.0685902958987894
 30
0.0
 10
25.66297342283019
 20
0.2189138947239158
 30
0.0
 10
25.52666198395128
 20
0.2930302848323836
 30
0.0
 10
25.39345613540599
 20
0.3614526005244249
 30
0.0
  0
SPLINE
  5
A9
330
1F
100
AcDbEntity
  8
외형선
  6
Continuous
370
    15
100
AcDbSpline
210
0.0
220
0.0
230
1.0
 70
     8
 71
     3
 72
    10
 73
     6
 74
     0
 42
0.000000001
 43
0.00000001
 40
0.0
 40
0.0
 40
0.0
 40
0.0
 40
0.5
 40
0.5
 40
1.0
 40
1.0
 40
1.0
 40
1.0
 10
26.19374999986403
 20
0.4235148916709716
 30
0.0
 10
26.06006041071846
 20
0.4560747421986863
 30
0.0
 10
25.92494773505555
 20
0.482673153877576
 30
0.0
 10
25.66297342278411
 20
0.5212817018462457
 30
0.0
 10
25.52666198392876
 20
0.533713047259741
 30
0.0
 10
25.39345613540599
 20
0.5383810957377684
 30
0.0
  0
SPLINE
  5
AA
330
1F
100
AcDbEntity
  8
외형선
  6
Continuous
370
    15
100
AcDbSpline
210
0.0
220
0.0
230
1.0
 70
    24
 71
     3
 72
    12
 73
     8
 74
     0
 42
0.000000001
 43
0.00000001
 40
0.0
 40
0.0
 40
0.0
 40
0.0
 40
0.5
 40
0.5
 40
0.75
 40
0.75
 40
1.0
 40
1.0
 40
1.0
 40
1.0
 10
26.19375000000037
 20
0.4235148916377672
 30
0.0
 10
26.19375000000037
 20
0.3294497755204059
 30
0.0
 10
26.19375000000037
 20
0.2133736810933084
 30
0.0
 10
26.19375000000037
 20
0.0606194341659633
 30
0.0
 10
26.19375000000037
 20
0.0143894619159232
 30
0.0
 10
26.19375000000037
 20
-0.054843412180964
 30
0.0
 10
26.19375000000037
 20
-0.0775289364029573
 30
0.0
 10
26.19375000000037
 20
-0.0858726260563687
 30
0.0
  0
SPLINE
  5
AB
330
1F
100
AcDbEntity
  8
외형선
  6
Continuous
370
    15
100
AcDbSpline
210
0.0
220
0.0
230
1.0
 70
     8
 71
     3
 72
    10
 73
     6
 74
     0
 42
0.000000001
 43
0.00000001
 40
0.0
 40
0.0
 40
0.0
 40
0.0
 40
0.5
 40
0.5
 40
1.0
 40
1.0
 40
1.0
 40
1.0
 10
25.3936607479981
 20
-0.559516391595019
 30
0.0
 10
25.52683568176618
 20
-0.6140150600322465
 30
0.0
 10
25.6631102474059
 20
-0.6608872274170179
 30
0.0
 10
25.92501211063246
 20
-0.7338674523864946
 30
0.0
 10
26.06009463636513
 20
-0.7608826497228067
 30
0.0
 10
26.19375
 20
-0.7767282381053133
 30
0.0
  0
LINE
  5
AC
330
1F
100
AcDbEntity
  8
외형선
  6
Continuous
370
    15
100
AcDbLine
 10
25.39345613540599
 20
-0.7937499999999967
 30
0.0
 11
25.39345613540599
 21
-0.5591500431332979
 31
0.0
  0
SPLINE
  5
AD
330
1F
100
AcDbEntity
  8
외형선
  6
Continuous
370
    15
100
AcDbSpline
210
0.0
220
0.0
230
1.0
 70
     8
 71
     3
 72
    10
 73
     6
 74
     0
 42
0.000000001
 43
0.00000001
 40
0.0
 40
0.0
 40
0.0
 40
0.0
 40
0.5
 40
0.5
 40
1.0
 40
1.0
 40
1.0
 40
1.0
 10
25.3936607479981
 20
0.5595163915950258
 30
0.0
 10
25.52683568176618
 20
0.6140150600322531
 30
0.0
 10
25.6631102474059
 20
0.660887227417025
 30
0.0
 10
25.92501211063246
 20
0.7338674523865018
 30
0.0
 10
26.06009463636513
 20
0.7608826497228132
 30
0.0
 10
26.19375
 20
0.7767282381053201
 30
0.0
  0
LINE
  5
AE
330
1F
100
AcDbEntity
  8
외형선
  6
Continuous
370
    15
100
AcDbLine
 10
25.39345613540599
 20
0.3614021865502469
 30
0.0
 11
25.39345613540599
 21
0.7937500000000032
 31
0.0
  0
LINE
  5
AF
330
1F
100
AcDbEntity
  8
외형선
  6
Continuous
370
    15
100
AcDbLine
 10
26.19375
 20
-0.085872626056212
 30
0.0
 11
26.19375
 21
-0.7767282381053124
 31
0.0
  0
SPLINE
  5
B0
330
1F
100
AcDbEntity
  8
외형선
  6
Continuous
370
    15
100
AcDbSpline
210
0.0
220
0.0
230
1.0
 70
    24
 71
     3
 72
    13
 73
     9
 74
     0
 42
0.000000001
 43
0.00000001
 40
0.0
 40
0.0
 40
0.0
 40
0.0
 40
0.1619737744173994
 40
0.3272183701080394
 40
0.5198632348945164
 40
0.7180948138105637
 40
0.910739678593127
 40
1.0
 40
1.0
 40
1.0
 40
1.0
 10
26.19375
 20
0.7767282381201531
 30
0.0
 10
26.19375
 20
0.7553314916680725
 30
0.0
 10
26.19375
 20
0.7121059230545853
 30
0.0
 10
26.19375
 20
0.648208428443814
 30
0.0
 10
26.19375
 20
0.5856579373417817
 30
0.0
 10
26.19375
 20
0.5297794212654117
 30
0.0
 10
26.19375
 20
0.4903249622328264
 30
0.0
 10
26.19375
 20
0.4747862428912587
 30
0.0
 10
26.19375
 20
0.4698661805773022
 30
0.0
  0
SPLINE
  5
B1
330
1F
100
AcDbEntity
  8
0
  6
Continuous
 62
     1
370
    25
100
AcDbSpline
210
0.0
220
0.0
230
1.0
 70
     8
 71
     3
 72
    13
 73
     9
 74
     0
 42
0.000000001
 43
0.00000001
 40
0.0
 40
0.0
 40
0.0
 40
0.0
 40
0.1441688499348878
 40
0.2890493510216
 40
0.4813956753824997
 40
0.6737362491027408
 40
0.8660713192584591
 40
1.0
 40
1.0
 40
1.0
 40
1.0
 10
30.95625
 20
-0.331805400319561
 30
0.0
 10
30.82407009112097
 20
-0.2595951709405521
 30
0.0
 10
30.55905780242732
 20
-0.1148182656066322
 30
0.0
 10
30.11701789857172
 20
0.1434745409020244
 30
0.0
 10
29.63087786870506
 20
0.4136753292270066
 30
0.0
 10
29.10113447462861
 20
0.6434902378010825
 30
0.0
 10
28.62503518050993
 20
0.7793511922872325
 30
0.0
 10
28.32551255436752
 20
0.780768845423765
 30
0.0
 10
28.20256089313892
 20
0.7813507807868039
 30
0.0
1001
PE_URL
1000

  0
SPLINE
  5
B2
330
1F
100
AcDbEntity
  8
0
  6
Continuous
 62
     1
370
    25
100
AcDbSpline
210
0.0
220
0.0
230
1.0
 70
     8
 71
     3
 72
    13
 73
     9
 74
     0
 42
0.000000001
 43
0.00000001
 40
0.0
 40
0.0
 40
0.0
 40
0.0
 40
0.2641165189392299
 40
0.4441921582550978
 40
0.6252422203990835
 40
0.8058043024550537
 40
0.9857167054099149
 40
1.0
 40
1.0
 40
1.0
 40
1.0
 10
31.53750762877421
 20
0.0833500437314181
 30
0.0
 10
31.34351706397557
 20
0.157209442654347
 30
0.0
 10
31.01726300003019
 20
0.2814264584879863
 30
0.0
 10
30.55870613181641
 20
0.417698635880366
 30
0.0
 10
30.16094011545562
 20
0.5022893703610266
 30
0.0
 10
29.76351569941274
 20
0.5408212273185485
 30
0.0
 10
29.48863961144241
 20
0.5483662969211642
 30
0.0
 10
29.34614474197528
 20
0.5309543131524318
 30
0.0
 10
29.33566409681215
 20
0.5296736437209733
 30
0.0
1001
PE_URL
1000

  0
SPLINE
  5
B3
330
1F
100
AcDbEntity
  8
0
  6
Continuous
 62
     1
370
    25
100
AcDbSpline
210
0.0
220
0.0
230
1.0
 70
     8
 71
     3
 72
    18
 73
    14
 74
     0
 42
0.000000001
 43
0.00000001
 40
0.0
 40
0.0
 40
0.0
 40
0.0
 40
0.2500000000000001
 40
0.2500000000000001
 40
0.5000000000000001
 40
0.5000000000000001
 40
0.625
 40
0.625
 40
0.7499999999999999
 40
0.7499999999999999
 40
0.875
 40
0.875
 40
1.0
 40
1.0
 40
1.0
 40
1.0
 10
30.95625
 20
-0.3318054003195604
 30
0.0
 10
31.04456756378585
 20
-0.3778327824717647
 30
0.0
 10
31.13099175824961
 20
-0.4153638588685726
 30
0.0
 10
31.3029312823376
 20
-0.4530848913587724
 30
0.0
 10
31.3892430639059
 20
-0.4520401155009539
 30
0.0
 10
31.5060178838503
 20
-0.3887418509727613
 30
0.0
 10
31.54220840655999
 20
-0.3568244623680471
 30
0.0
 10
31.59724748764704
 20
-0.2721039480785039
 30
0.0
 10
31.61383151461625
 20
-0.221877005807164
 30
0.0
 10
31.62220552721126
 20
-0.1236993027694561
 30
0.0
 10
31.61467020148716
 20
-0.077410644253387
 30
0.0
 10
31.58551192743661
 20
0.0073585254712538
 30
0.0
 10
31.56391821735922
 20
0.0462716933615837
 30
0.0
 10
31.53750762876347
 20
0.0833500437355632
 30
0.0
1001
PE_URL
1000

  0
SPLINE
  5
B4
330
1F
100
AcDbEntity
  8
0
  6
Continuous
 62
     1
370
    25
100
AcDbSpline
210
0.0
220
0.0
230
1.0
 70
     8
 71
     3
 72
    16
 73
    12
 74
     0
 42
0.000000001
 43
0.00000001
 40
0.0
 40
0.0
 40
0.0
 40
0.0
 40
0.0846253568944786
 40
0.1990743586822394
 40
0.3141118762554875
 40
0.4286353726914394
 40
0.5428773026554027
 40
0.6574487063891785
 40
0.772471920136987
 40
0.8863086295008429
 40
1.0
 40
1.0
 40
1.0
 40
1.0
 10
29.66040049083991
 20
-0.5355132170153758
 30
0.0
 10
29.5626358066784
 20
-0.5368212140959066
 30
0.0
 10
29.33265223537727
 20
-0.5398981722266661
 30
0.0
 10
28.96976365423732
 20
-0.4920407909337274
 30
0.0
 10
28.57195459443157
 20
-0.4049573250681626
 30
0.0
 10
28.17471753130699
 20
-0.2823998442086156
 30
0.0
 10
27.77810910570859
 20
-0.1367765520475614
 30
0.0
 10
27.38080699957635
 20
0.0204136037572565
 30
0.0
 10
26.9836744956868
 20
0.1743050915946466
 30
0.0
 10
26.58795476252434
 20
0.316868593099657
 30
0.0
 10
26.32509561828226
 20
0.3879812671065867
 30
0.0
 10
26.19374999986403
 20
0.4235148916709713
 30
0.0
1001
PE_URL
1000

  0
SPLINE
  5
B5
330
1F
100
AcDbEntity
  8
0
  6
Continuous
 62
     1
370
    25
100
AcDbSpline
210
0.0
220
0.0
230
1.0
 70
     8
 71
     3
 72
    26
 73
    22
 74
     0
 42
0.000000001
 43
0.00000001
 40
0.0
 40
0.0
 40
0.0
 40
0.0
 40
0.0301497034910172
 40
0.0908161963204641
 40
0.1213534339371971
 40
0.1710472563202429
 40
0.272103774236313
 40
0.3235868610770565
 40
0.3736110257285934
 40
0.4239884196020668
 40
0.4754491013623498
 40
0.5272948149486667
 40
0.5773139063629736
 40
0.6276860964263742
 40
0.679142688807633
 40
0.7309849137796973
 40
0.7808988585151502
 40
0.8824307155786479
 40
0.9341695930940145
 40
0.959154103566768
 40
1.0
 40
1.0
 40
1.0
 40
1.0
 10
26.19375
 20
0.7767282381053194
 30
0.0
 10
26.2399668026085
 20
0.7814423605684123
 30
0.0
 10
26.37917992025155
 20
0.7956421244637527
 30
0.0
 10
26.56524791943039
 20
0.7951648046849003
 30
0.0
 10
26.781867387456
 20
0.77707007097317
 30
0.0
 10
27.05909960317482
 20
0.731777761520127
 30
0.0
 10
27.37054668198184
 20
0.6393560222161914
 30
0.0
 10
27.68104789487747
 20
0.511125726464275
 30
0.0
 10
27.91455274497515
 20
0.4011830862432699
 30
0.0
 10
28.1468289511287
 20
0.2780429272599234
 30
0.0
 10
28.38348539054858
 20
0.147849033768062
 30
0.0
 10
28.61783048437074
 20
0.0106330393000455
 30
0.0
 10
28.85216786263146
 20
-0.1230306630329768
 30
0.0
 10
29.08461058222113
 20
-0.2550834799913518
 30
0.0
 10
29.32061528740262
 20
-0.3799871252889268
 30
0.0
 10
29.55585634510218
 20
-0.4935594917951109
 30
0.0
 10
29.8672847166488
 20
-0.6258581154924642
 30
0.0
 10
30.17943882167795
 20
-0.7237832098894894
 30
0.0
 10
30.45342089353893
 20
-0.7708314799528474
 30
0.0
 10
30.63375593107046
 20
-0.7903468266011896
 30
0.0
 10
30.73461506868819
 20
-0.7913944367536305
 30
0.0
 10
30.79719529693077
 20
-0.7920444490777241
 30
0.0
1001
PE_URL
1000

  0
SPLINE
  5
B6
330
1F
100
AcDbEntity
  8
외형선
  6
Continuous
370
    15
100
AcDbSpline
210
0.0
220
0.0
230
1.0
 70
    24
 71
     3
 72
    13
 73
     9
 74
     0
 42
0.000000001
 43
0.00000001
 40
0.0
 40
0.0
 40
0.0
 40
0.0
 40
0.1619737744173994
 40
0.3272183701080395
 40
0.5198632348945165
 40
0.718094813810564
 40
0.9107396785931277
 40
1.0
 40
1.0
 40
1.0
 40
1.0
 10
26.19375
 20
0.7767282381201532
 30
0.0
 10
26.19375
 20
0.7553314916680725
 30
0.0
 10
26.19375
 20
0.7121059230545853
 30
0.0
 10
26.19375
 20
0.648208428443814
 30
0.0
 10
26.19375
 20
0.5856579373417817
 30
0.0
 10
26.19375
 20
0.5297794212654111
 30
0.0
 10
26.19375
 20
0.4903249622328266
 30
0.0
 10
26.19375
 20
0.4747862428912585
 30
0.0
 10
26.19375
 20
0.4698661805773021
 30
0.0
  0
SPLINE
  5
B7
330
1F
100
AcDbEntity
  8
0
  6
Continuous
 62
     1
370
    25
100
AcDbSpline
210
0.0
220
0.0
230
1.0
 70
     8
 71
     3
 72
    14
 73
    10
 74
     0
 42
0.000000001
 43
0.00000001
 40
0.0
 40
0.0
 40
0.0
 40
0.0
 40
0.0746248311231876
 40
0.2431738401222255
 40
0.41171824396916
 40
0.5802582616632829
 40
0.7487941133608009
 40
0.8744704390892408
 40
1.0
 40
1.0
 40
1.0
 40
1.0
 10
29.33566409681215
 20
-0.5296736437209655
 30
0.0
 10
29.25748654084676
 20
-0.5649663242802773
 30
0.0
 10
29.00273572654888
 20
-0.6799716989074925
 30
0.0
 10
28.57142351956568
 20
-0.7817793922052547
 30
0.0
 10
28.04171013963892
 20
-0.8087790937945282
 30
0.0
 10
27.51208182324759
 20
-0.712836393088492
 30
0.0
 10
27.02712629176322
 20
-0.5302672539834001
 30
0.0
 10
26.58793542086834
 20
-0.3105330715031115
 30
0.0
 10
26.32509395268814
 20
-0.1607302675505906
 30
0.0
 10
26.19374999999968
 20
-0.0858726260560296
 30
0.0
1001
PE_URL
1000

  0
SPLINE
  5
B8
330
1F
100
AcDbEntity
  8
외형선
  6
Continuous
370
    15
100
AcDbSpline
210
0.0
220
0.0
230
1.0
 70
    24
 71
     3
 72
    12
 73
     8
 74
     0
 42
0.000000001
 43
0.00000001
 40
0.0
 40
0.0
 40
0.0
 40
0.0
 40
0.5
 40
0.5
 40
0.75
 40
0.75
 40
1.0
 40
1.0
 40
1.0
 40
1.0
 10
26.19375000000019
 20
0.4235148916378109
 30
0.0
 10
26.19375000000019
 20
0.3294497755204495
 30
0.0
 10
26.19375000000019
 20
0.2133736810933554
 30
0.0
 10
26.19375000000019
 20
0.0606194341660254
 30
0.0
 10
26.19375000000019
 20
0.0143894619159918
 30
0.0
 10
26.19375000000019
 20
-0.0548434121808797
 30
0.0
 10
26.19375000000019
 20
-0.077528936402864
 30
0.0
 10
26.19375000000019
 20
-0.0858726260562664
 30
0.0
  0
LINE
  5
B9
330
1F
100
AcDbEntity
  8
0
  6
Continuous
 62
     1
370
    25
100
AcDbLine
 10
26.19375
 20
-0.7767282381053124
 30
0.0
 11
26.47904778717095
 21
-0.7774386316704405
 31
0.0
1001
PE_URL
1000

  0
SPLINE
  5
BA
330
1F
100
AcDbEntity
  8
0
  6
Continuous
 62
     1
370
    25
100
AcDbSpline
210
0.0
220
0.0
230
1.0
 70
     8
 71
     3
 72
    10
 73
     6
 74
     0
 42
0.000000001
 43
0.00000001
 40
0.0
 40
0.0
 40
0.0
 40
0.0
 40
0.27169705845813
 40
0.6407444666908796
 40
1.0
 40
1.0
 40
1.0
 40
1.0
 10
29.67052094916593
 20
0.5355861253151848
 30
0.0
 10
29.78699148152919
 20
0.5834627925939494
 30
0.0
 10
30.06166449259456
 20
0.6963705650098817
 30
0.0
 10
30.4902580822858
 20
0.792044798544159
 30
0.0
 10
30.80231788619885
 20
0.7896513023644738
 30
0.0
 10
30.95624999999998
 20
0.7884706442928672
 30
0.0
1001
PE_URL
1000

  0
SPLINE
  5
BB
330
1F
100
AcDbEntity
  8
0
  6
Continuous
 62
     1
370
    25
100
AcDbSpline
210
0.0
220
0.0
230
1.0
 70
     8
 71
     3
 72
     8
 73
     4
 74
     0
 42
0.000000001
 43
0.00000001
 40
0.0
 40
0.0
 40
0.0
 40
0.0
 40
1.0
 40
1.0
 40
1.0
 40
1.0
 10
31.53750762876347
 20
0.0833500437355639
 30
0.0
 10
31.57396960831869
 20
0.1053769935627967
 30
0.0
 10
31.59416675377478
 20
0.1524478564115699
 30
0.0
 10
31.59509395390987
 20
0.2055760650343262
 30
0.0
1001
PE_URL
1000

  0
ARC
  5
BC
330
1F
100
AcDbEntity
  8
0
  6
Continuous
 62
     1
370
    25
100
AcDbCircle
 10
31.3702383388128
 20
-0.1379829822488585
 30
0.0
 40
0.4106006169133053
100
AcDbArc
 50
23.84138871527406
 51
56.7956944502082
1001
PE_URL
1000

  0
ARC
  5
BD
330
1F
100
AcDbEntity
  8
0
  6
Continuous
 62
     1
370
    25
100
AcDbCircle
 10
31.03616425058232
 20
0.0147437392166255
 30
0.0
 40
0.7097608125160145
100
AcDbArc
 50
1.06891290214318
 51
71.18739922808875
1001
PE_URL
1000

  0
SPLINE
  5
BE
330
1F
100
AcDbEntity
  8
0
  6
Continuous
 62
     1
370
    25
100
AcDbSpline
210
0.0
220
0.0
230
1.0
 70
     8
 71
     3
 72
     8
 73
     4
 74
     0
 42
0.000000001
 43
0.00000001
 40
0.0
 40
0.0
 40
0.0
 40
0.0
 40
1.0
 40
1.0
 40
1.0
 40
1.0
 10
31.2650435731228
 20
0.6865879672165429
 30
0.0
 10
31.16693449399109
 20
0.7464542051279496
 30
0.0
 10
31.06277157043756
 20
0.7814342145610093
 30
0.0
 10
30.95625
 20
0.7884706442928646
 30
0.0
1001
PE_URL
1000

  0
SPLINE
  5
BF
330
1F
100
AcDbEntity
  8
0
  6
Continuous
 62
     1
370
    25
100
AcDbSpline
210
0.0
220
0.0
230
1.0
 70
     8
 71
     3
 72
     8
 73
     4
 74
     0
 42
0.000000001
 43
0.00000001
 40
0.0
 40
0.0
 40
0.0
 40
0.0
 40
1.0
 40
1.0
 40
1.0
 40
1.0
 10
31.10432476607294
 20
0.3553090268680221
 30
0.0
 10
31.26568198112739
 20
0.3104680054127693
 30
0.0
 10
31.43020311811981
 20
0.2599378600050692
 30
0.0
 10
31.59509395390775
 20
0.205576065033928
 30
0.0
1001
PE_URL
1000

  0
SPLINE
  5
C0
330
1F
100
AcDbEntity
  8
0
  6
Continuous
 62
     1
370
    25
100
AcDbSpline
210
0.0
220
0.0
230
1.0
 70
     8
 71
     3
 72
    10
 73
     6
 74
     0
 42
0.000000001
 43
0.00000001
 40
0.0
 40
0.0
 40
0.0
 40
0.0
 40
0.5000000000000002
 40
0.5000000000000002
 40
1.0
 40
1.0
 40
1.0
 40
1.0
 10
31.2650435731228
 20
0.6865879672165434
 30
0.0
 10
31.27630913406297
 20
0.6199186467491815
 30
0.0
 10
31.27467584626573
 20
0.5475788240007886
 30
0.0
 10
31.21895229067253
 20
0.4243498863253451
 30
0.0
 10
31.16426653401
 20
0.3790710383202796
 30
0.0
 10
31.10432476607279
 20
0.3553090268682835
 30
0.0
1001
PE_URL
1000

  0
LINE
  5
C1
330
1F
100
AcDbEntity
  8
중심선
 62
     1
100
AcDbLine
 10
-33.25000000000001
 20
-0.0000000000000043
 30
0.0
 11
33.25000000000001
 21
0.0000000000000043
 31
0.0
  0
LINE
  5
C2
330
1F
100
AcDbEntity
  8
참조1
100
AcDbLine
 10
0.0
 20
-0.0000000000000041
 30
0.0
 11
0.0000000000000071
 21
-40.00000000000001
 31
0.0
  0
LINE
  5
C3
330
1F
100
AcDbEntity
  8
참조1
100
AcDbLine
 10
31.75000000000001
 20
-0.0000000000000041
 30
0.0
 11
31.75000000000001
 21
0.6309734778393062
 31
0.0
  0
LINE
  5
C4
330
1F
100
AcDbEntity
  8
참조1
100
AcDbLine
 10
0.0000000000000071
 20
-40.00000000000001
 30
0.0
 11
-11.98385681430867
 21
-40.0
 31
0.0
  0
CIRCLE
  5
C5
330
1F
100
AcDbEntity
  8
해칭선
100
AcDbCircle
 10
0.0
 20
0.0000000000000002
 30
0.0
 40
3.000000000000003
  0
INSERT
  5
C6
330
1F
100
AcDbEntity
  8
0
  6
Continuous
 62
     7
100
AcDbBlockReference
 66
     1
  2
블럭10
 10
-13.94027293212521
 20
-52.04717430164393
 30
0.0
  0
ATTRIB
  5
C7
330
C6
100
AcDbEntity
  8
FORMAT
 62
     2
100
AcDbText
 10
-23.12156822086649
 20
-49.97180738881175
 30
0.0
 40
4.233333333333333
  1
E1015004 [ 2 FLUTE ]
 41
0.75
  7
SLDTEXTSTYLE0
 11
-23.12156822086649
 21
-52.08847405547841
 31
0.0
100
AcDbAttribute
  2
AUTOATTR0
 70
     0
 74
     1
  0
SEQEND
  5
C8
330
C6
100
AcDbEntity
  8
0
  6
Continuous
 62
     7
  0
HATCH
  5
C9
330
1F
100
AcDbEntity
  8
중심선
100
AcDbHatch
 10
0.0
 20
0.0
 30
0.0
210
0.0
220
0.0
230
1.0
  2
SOLID
 70
     1
 71
     0
 91
        1
 92
        0
 93
        4
 72
     1
 10
-8.225363627744375
 20
-35.8
 11
-11.67163887158166
 21
-35.8
 72
     1
 10
-11.67163887158166
 20
-35.8
 11
-13.79986873078568
 21
-38.3363255805726
 72
     1
 10
-13.79986873078568
 20
-38.3363255805726
 11
-10.35356040183522
 21
-38.33628615127011
 72
     1
 10
-10.35356040183522
 20
-38.33628615127011
 11
-8.225363627744375
 21
-35.8
 97
        0
 75
     0
 76
     1
 98
        1
 10
17.26911934298444
 20
-0.0010749287238932
  0
HATCH
  5
CA
330
1F
100
AcDbEntity
  8
중심선
100
AcDbHatch
 10
0.0
 20
0.0
 30
0.0
210
0.0
220
0.0
230
1.0
  2
SOLID
 70
     1
 71
     0
 91
        1
 92
        0
 93
        4
 72
     1
 10
-3.212599636708369
 20
-35.8
 11
-6.658874880545682
 21
-35.8
 72
     1
 10
-6.658874880545682
 20
-35.8
 11
-11.19001288890309
 21
-41.20000000000002
 72
     1
 10
-11.19001288890309
 20
-41.20000000000002
 11
-7.743737645065814
 21
-41.20000000000002
 72
     1
 10
-7.743737645065814
 20
-41.20000000000002
 11
-3.212599636708369
 21
-35.8
 97
        0
 75
     0
 76
     1
 98
        1
 10
17.26911934298444
 20
-0.0010749287238932
  0
HATCH
  5
CB
330
1F
100
AcDbEntity
  8
중심선
100
AcDbHatch
 10
0.0
 20
0.0
 30
0.0
210
0.0
220
0.0
230
1.0
  2
SOLID
 70
     1
 71
     0
 91
        1
 92
        0
 93
        4
 72
     1
 10
1.800164354327471
 20
-35.79999999999998
 11
-1.646110889509647
 21
-35.8
 72
     1
 10
-1.646110889509647
 20
-35.8
 11
-8.694547791398893
 21
-44.20000000000002
 72
     1
 10
-8.694547791398893
 20
-44.20000000000002
 11
-5.248272547561612
 21
-44.20000000000002
 72
     1
 10
-5.248272547561612
 20
-44.20000000000002
 11
1.800164354327471
 21
-35.79999999999998
 97
        0
 75
     0
 76
     1
 98
        1
 10
17.26911934298444
 20
-0.0010749287238932
  0
HATCH
  5
CC
330
1F
100
AcDbEntity
  8
중심선
100
AcDbHatch
 10
0.0
 20
0.0
 30
0.0
210
0.0
220
0.0
230
1.0
  2
SOLID
 70
     1
 71
     0
 91
        1
 92
        0
 93
        6
 72
     3
 10
6.600054785339669
 20
-40.00000000005127
 11
3.960054785062283
 21
1.540882976769353E-10
 40
0.3939339440162628
 50
17.09539180608437
 51
320.0019657685081
 73
     0
 72
     1
 10
8.283054441040266
 20
-38.5878940046383
 11
10.58835631474133
 21
-36.65356729459035
 72
     3
 10
6.600054785286822
 20
-40.00000000000015
 11
6.600054785286829
 21
-1.278976924368180E-13
 40
0.636358354079598
 50
39.99873849337413
 51
368.4976242363725
 73
     1
 72
     1
 10
13.02538727718743
 20
-39.03999999993002
 11
5.280122092122745
 21
-39.03999999993002
 72
     1
 10
5.280122092122745
 20
-39.03999999993002
 11
5.280097047676811
 21
-40.95999999992991
 72
     1
 10
5.280097047676811
 20
-40.95999999992991
 11
9.721476817148847
 21
-40.95999999992988
 97
        0
 75
     0
 76
     1
 98
        1
 10
17.26911934298444
 20
-0.0010749287238932
  0
DIMENSION
  5
CD
330
1F
100
AcDbEntity
  8
치수문자_일반주서
100
AcDbDimension
  2
_D
 10
26.19374999990217
 20
10.38125
 30
0.0
 11
46.37500000000002
 21
10.38125
 31
0.0
 70
   160
  1
<>
 71
     2
 42
5.55625000009783
  3
SLDDIMSTYLE0
100
AcDbAlignedDimension
 13
31.75
 23
0.7937500000000033
 33
0.0
 14
26.19374999990217
 24
0.7767282380891914
 34
0.0
 50
0.0000000000000183
100
AcDbRotatedDimension
1001
PE_URL
1000

1001
ACAD
1000
DSTYLE
1002
{
1070
   171
1070
     8
1070
   273
1070
     7
1070
    41
1040
2.5
1070
   140
1040
2.5
1002
}
  0
DIMENSION
  5
E3
330
1F
100
AcDbEntity
  8
치수문자_일반주서
100
AcDbDimension
  2
_D_1
 10
-31.75000000000001
 20
18.38125
 30
0.0
 11
0.2779156695830451
 21
18.38125
 31
0.0
 70
   160
  1
<>
 71
     2
 42
63.50000000000001
  3
SLDDIMSTYLE0
100
AcDbAlignedDimension
 13
31.75
 23
0.7937500000000033
 33
0.0
 14
-31.75000000000001
 24
0.7937500000000017
 34
0.0
 50
0.0000000000000096
100
AcDbRotatedDimension
1001
PE_URL
1000

1001
ACAD
1000
DSTYLE
1002
{
1070
   171
1070
     8
1070
   273
1070
     7
1070
    41
1040
2.5
1070
   140
1040
2.5
1002
}
  0
DIMENSION
  5
F7
330
1F
100
AcDbEntity
  8
치수문자_일반주서
100
AcDbDimension
  2
_D_2
 10
-39.75
 20
-2.38125000000008
 30
0.0
 11
-39.75000000000006
 21
17.63124999999998
 31
0.0
 70
   160
  1
%%c<>
 71
     2
 42
4.762499999999998
 52
-270.0
  3
SLDDIMSTYLE0
100
AcDbAlignedDimension
 13
-19.26911934298442
 23
2.381249999999996
 33
0.0
 14
-19.26911934298442
 24
-2.381250000000001
 34
0.0
 50
90.0000000000002
100
AcDbRotatedDimension
1001
PE_URL
1000

1001
ACAD
1000
DSTYLE
1002
{
1070
   171
1070
     8
1070
   273
1070
     7
1070
    41
1040
2.5
1070
   140
1040
2.5
1002
}
  0
DIMENSION
  5
10B
330
1F
100
AcDbEntity
  8
치수문자_일반주서
100
AcDbDimension
  2
_D_3
 10
61.25037199130572
 20
-0.7937499999998856
 30
0.0
 11
61.25037199130565
 21
15.41875000000012
 31
0.0
 70
   160
  1
%%c<>
 71
     2
 42
1.5875
 52
-270.0
  3
SLDDIMSTYLE0
100
AcDbAlignedDimension
 13
31.75
 23
0.7937500000000033
 33
0.0
 14
31.75
 24
-0.7937499999999966
 34
0.0
 50
90.0000000000002
100
AcDbRotatedDimension
1001
PE_URL
1000

1001
ACAD
1000
DSTYLE
1002
{
1070
   171
1070
     8
1070
   273
1070
     7
1070
    41
1040
2.5
1070
   140
1040
2.5
1002
}
  0
LINE
  5
11F
330
1F
100
AcDbEntity
  8
참조1
100
AcDbLine
 10
85.98848381534559
 20
7.440000000000002
 30
0.0
 11
85.98848381534559
 21
-7.440000000000002
 31
0.0
  0
LINE
  5
120
330
1F
100
AcDbEntity
  8
참조1
100
AcDbLine
 10
98.68848381534559
 20
5.440000000000002
 30
0.0
 11
85.98848381534559
 21
5.440000000000002
 31
0.0
  0
SOLID
  5
121
330
1F
100
AcDbEntity
  8
참조1
100
AcDbTrace
 10
85.98848381534559
 20
5.440000000000002
 30
0.0
 11
92.33848381534558
 21
4.424000000000002
 31
0.0
 12
92.33848381534558
 22
6.456000000000002
 32
0.0
 13
92.33848381534558
 23
6.456000000000002
 33
0.0
  0
LINE
  5
122
330
1F
100
AcDbEntity
  8
참조1
100
AcDbLine
 10
98.68848381534559
 20
-5.440000000000002
 30
0.0
 11
85.98848381534559
 21
-5.440000000000002
 31
0.0
  0
SOLID
  5
123
330
1F
100
AcDbEntity
  8
참조1
100
AcDbTrace
 10
85.98848381534559
 20
-5.440000000000002
 30
0.0
 11
92.33848381534558
 21
-6.456000000000002
 31
0.0
 12
92.33848381534558
 22
-4.424000000000002
 32
0.0
 13
92.33848381534558
 23
-4.424000000000002
 33
0.0
  0
MTEXT
  5
124
330
1F
100
AcDbEntity
  8
참조1
100
AcDbMText
 10
95.38597390781587
 20
10.98821664464994
 30
0.0
 40
3.5
 41
0.0
 71
     1
 72
     1
  1
A
  7
SLDTEXTSTYLE0
 73
     1
 44
1.0
  0
MTEXT
  5
125
330
1F
100
AcDbEntity
  8
참조1
100
AcDbMText
 10
95.38597390781587
 20
0.1082166446499318
 30
0.0
 40
3.5
 41
0.0
 71
     1
 72
     1
  1
A
  7
SLDTEXTSTYLE0
 73
     1
 44
1.0
  0
INSERT
  5
12C
330
1F
100
AcDbEntity
  8
해칭선
100
AcDbBlockReference
  2
SW_DOWELSYMBOL_0
 10
0.0
 20
0.0000000000000002
 30
0.0
  0
LINE
  5
1D3
330
1F
100
AcDbEntity
  8
외형선
  6
Continuous
370
    15
100
AcDbLine
 10
-19.26911934298442
 20
2.381249999999996
 30
0.0
 11
-25.19375
 21
0.7937499999999957
 31
0.0
  0
LINE
  5
1D4
330
1F
100
AcDbEntity
  8
외형선
  6
Continuous
370
    15
100
AcDbLine
 10
-25.19375
 20
-0.7937500000000028
 30
0.0
 11
-19.26911934298442
 21
-2.381250000000001
 31
0.0
  0
LINE
  5
1D5
330
1F
100
AcDbEntity
  8
외형선
  6
Continuous
370
    15
100
AcDbLine
 10
-25.39345613540599
 20
-0.7937500000000028
 30
0.0
 11
-25.19375
 21
-0.7937500000000028
 31
0.0
  0
LINE
  5
1D6
330
1F
100
AcDbEntity
  8
외형선
  6
Continuous
370
    15
100
AcDbLine
 10
-25.19375
 20
0.7937499999999957
 30
0.0
 11
-25.39345613540599
 21
0.7937499999999957
 31
0.0
  0
LINE
  5
1D7
330
1F
100
AcDbEntity
  8
0
  6
Continuous
 62
     1
370
    25
100
AcDbLine
 10
-30.79719529693077
 20
0.793749999999994
 30
0.0
 11
-30.95625
 21
0.793749999999994
 31
0.0
1001
PE_URL
1000

  0
LINE
  5
1D8
330
1F
100
AcDbEntity
  8
0
  6
Continuous
 62
     1
370
    25
100
AcDbLine
 10
-28.20256089313892
 20
-0.7937500000000028
 30
0.0
 11
-26.47846806264269
 21
-0.7937500000000028
 31
0.0
1001
PE_URL
1000

  0
LINE
  5
1D9
330
1F
100
AcDbEntity
  8
0
  6
Continuous
 62
     1
370
    25
100
AcDbLine
 10
-26.47904778717095
 20
0.793749999999994
 30
0.0
 11
-28.20256089313892
 21
0.793749999999994
 31
0.0
1001
PE_URL
1000

  0
LINE
  5
1DA
330
1F
100
AcDbEntity
  8
0
  6
Continuous
 62
     1
370
    25
100
AcDbLine
 10
-30.95625
 20
-0.7937500000000028
 30
0.0
 11
-30.79805237282873
 21
-0.7937500000000028
 31
0.0
1001
PE_URL
1000

  0
ARC
  5
1DB
330
1F
100
AcDbEntity
  8
0
  6
Continuous
 62
     1
370
    25
100
AcDbCircle
 10
-30.95625
 20
-0.0000000000000036
 30
0.0
 40
0.7937499999999997
100
AcDbArc
 50
90.00000000000078
 51
180.0
1001
PE_URL
1000

  0
ARC
  5
1DC
330
1F
100
AcDbEntity
  8
0
  6
Continuous
 62
     1
370
    25
100
AcDbCircle
 10
-30.95625
 20
-0.0000000000000036
 30
0.0
 40
0.7937499999999997
100
AcDbArc
 50
180.0
 51
270.0
1001
PE_URL
1000

  0
LINE
  5
1DD
330
1F
100
AcDbEntity
  8
외형선
  6
Continuous
370
    15
100
AcDbLine
 10
-25.19375
 20
-0.7937500000000028
 30
0.0
 11
-25.19375
 21
0.7937499999999957
 31
0.0
  0
LINE
  5
1DE
330
1F
100
AcDbEntity
  8
외형선
  6
Continuous
370
    15
100
AcDbLine
 10
-19.26911934298442
 20
-2.381250000000001
 30
0.0
 11
-19.26911934298442
 21
2.38125
 31
0.0
  0
SPLINE
  5
1DF
330
1F
100
AcDbEntity
  8
외형선
  6
Continuous
370
    15
100
AcDbSpline
210
0.0
220
0.0
230
1.0
 70
     8
 71
     3
 72
    10
 73
     6
 74
     0
 42
0.000000001
 43
0.00000001
 40
0.0
 40
0.0
 40
0.0
 40
0.0
 40
0.4999999999999999
 40
0.4999999999999999
 40
1.0
 40
1.0
 40
1.0
 40
1.0
 10
-26.19374999999968
 20
0.0858726260560303
 30
0.0
 10
-26.06006041083311
 20
0.009378416450005
 30
0.0
 10
-25.92494773514237
 20
-0.0685902958987903
 30
0.0
 10
-25.66297342283019
 20
-0.2189138947239151
 30
0.0
 10
-25.52666198395128
 20
-0.2930302848323834
 30
0.0
 10
-25.39345613540599
 20
-0.3614526005244265
 30
0.0
  0
SPLINE
  5
1E0
330
1F
100
AcDbEntity
  8
외형선
  6
Continuous
370
    15
100
AcDbSpline
210
0.0
220
0.0
230
1.0
 70
     8
 71
     3
 72
    10
 73
     6
 74
     0
 42
0.000000001
 43
0.00000001
 40
0.0
 40
0.0
 40
0.0
 40
0.0
 40
0.5
 40
0.5
 40
1.0
 40
1.0
 40
1.0
 40
1.0
 10
-26.19374999986403
 20
-0.4235148916709726
 30
0.0
 10
-26.06006041071846
 20
-0.4560747421986875
 30
0.0
 10
-25.92494773505555
 20
-0.4826731538775775
 30
0.0
 10
-25.66297342278411
 20
-0.5212817018462452
 30
0.0
 10
-25.52666198392876
 20
-0.5337130472597416
 30
0.0
 10
-25.39345613540599
 20
-0.538381095737769
 30
0.0
  0
SPLINE
  5
1E1
330
1F
100
AcDbEntity
  8
외형선
  6
Continuous
370
    15
100
AcDbSpline
210
0.0
220
0.0
230
1.0
 70
    24
 71
     3
 72
    12
 73
     8
 74
     0
 42
0.000000001
 43
0.00000001
 40
0.0
 40
0.0
 40
0.0
 40
0.0
 40
0.5
 40
0.5
 40
0.75
 40
0.75
 40
1.0
 40
1.0
 40
1.0
 40
1.0
 10
-26.19375000000037
 20
-0.4235148916377689
 30
0.0
 10
-26.19375000000037
 20
-0.3294497755204056
 30
0.0
 10
-26.19375000000037
 20
-0.2133736810933087
 30
0.0
 10
-26.19375000000037
 20
-0.0606194341659645
 30
0.0
 10
-26.19375000000037
 20
-0.0143894619159219
 30
0.0
 10
-26.19375000000037
 20
0.0548434121809649
 30
0.0
 10
-26.19375000000037
 20
0.0775289364029561
 30
0.0
 10
-26.19375000000037
 20
0.0858726260563678
 30
0.0
  0
SPLINE
  5
1E2
330
1F
100
AcDbEntity
  8
외형선
  6
Continuous
370
    15
100
AcDbSpline
210
0.0
220
0.0
230
1.0
 70
     8
 71
     3
 72
    10
 73
     6
 74
     0
 42
0.000000001
 43
0.00000001
 40
0.0
 40
0.0
 40
0.0
 40
0.0
 40
0.5
 40
0.5
 40
1.0
 40
1.0
 40
1.0
 40
1.0
 10
-25.3936607479981
 20
0.5595163915950163
 30
0.0
 10
-25.52683568176618
 20
0.6140150600322443
 30
0.0
 10
-25.6631102474059
 20
0.6608872274170157
 30
0.0
 10
-25.92501211063246
 20
0.7338674523864928
 30
0.0
 10
-26.06009463636513
 20
0.7608826497228041
 30
0.0
 10
-26.19375
 20
0.7767282381053118
 30
0.0
  0
LINE
  5
1E3
330
1F
100
AcDbEntity
  8
외형선
  6
Continuous
370
    15
100
AcDbLine
 10
-25.39345613540599
 20
0.7937499999999957
 30
0.0
 11
-25.39345613540599
 21
0.5591500431332967
 31
0.0
  0
SPLINE
  5
1E4
330
1F
100
AcDbEntity
  8
외형선
  6
Continuous
370
    15
100
AcDbSpline
210
0.0
220
0.0
230
1.0
 70
     8
 71
     3
 72
    10
 73
     6
 74
     0
 42
0.000000001
 43
0.00000001
 40
0.0
 40
0.0
 40
0.0
 40
0.0
 40
0.5
 40
0.5
 40
1.0
 40
1.0
 40
1.0
 40
1.0
 10
-25.3936607479981
 20
-0.5595163915950252
 30
0.0
 10
-25.52683568176618
 20
-0.6140150600322514
 30
0.0
 10
-25.6631102474059
 20
-0.6608872274170245
 30
0.0
 10
-25.92501211063246
 20
-0.7338674523865016
 30
0.0
 10
-26.06009463636513
 20
-0.7608826497228129
 30
0.0
 10
-26.19375
 20
-0.7767282381053207
 30
0.0
  0
LINE
  5
1E5
330
1F
100
AcDbEntity
  8
외형선
  6
Continuous
370
    15
100
AcDbLine
 10
-25.39345613540599
 20
-0.3614021865502473
 30
0.0
 11
-25.39345613540599
 21
-0.7937500000000028
 31
0.0
  0
LINE
  5
1E6
330
1F
100
AcDbEntity
  8
외형선
  6
Continuous
370
    15
100
AcDbLine
 10
-26.19375
 20
0.0858726260562115
 30
0.0
 11
-26.19375
 21
0.77672823810531
 31
0.0
  0
SPLINE
  5
1E7
330
1F
100
AcDbEntity
  8
외형선
  6
Continuous
370
    15
100
AcDbSpline
210
0.0
220
0.0
230
1.0
 70
    24
 71
     3
 72
    13
 73
     9
 74
     0
 42
0.000000001
 43
0.00000001
 40
0.0
 40
0.0
 40
0.0
 40
0.0
 40
0.1619737744173994
 40
0.3272183701080394
 40
0.5198632348945164
 40
0.7180948138105637
 40
0.910739678593127
 40
1.0
 40
1.0
 40
1.0
 40
1.0
 10
-26.19375
 20
-0.7767282381201532
 30
0.0
 10
-26.19375
 20
-0.7553314916680733
 30
0.0
 10
-26.19375
 20
-0.7121059230545868
 30
0.0
 10
-26.19375
 20
-0.6482084284438123
 30
0.0
 10
-26.19375
 20
-0.5856579373417823
 30
0.0
 10
-26.19375
 20
-0.5297794212654132
 30
0.0
 10
-26.19375
 20
-0.4903249622328261
 30
0.0
 10
-26.19375
 20
-0.474786242891259
 30
0.0
 10
-26.19375
 20
-0.4698661805773021
 30
0.0
  0
SPLINE
  5
1E8
330
1F
100
AcDbEntity
  8
0
  6
Continuous
 62
     1
370
    25
100
AcDbSpline
210
0.0
220
0.0
230
1.0
 70
     8
 71
     3
 72
    13
 73
     9
 74
     0
 42
0.000000001
 43
0.00000001
 40
0.0
 40
0.0
 40
0.0
 40
0.0
 40
0.1441688499348878
 40
0.2890493510216
 40
0.4813956753824997
 40
0.6737362491027408
 40
0.8660713192584591
 40
1.0
 40
1.0
 40
1.0
 40
1.0
 10
-30.95625
 20
0.3318054003195599
 30
0.0
 10
-30.82407009112097
 20
0.2595951709405497
 30
0.0
 10
-30.55905780242732
 20
0.1148182656066332
 30
0.0
 10
-30.11701789857172
 20
-0.1434745409020231
 30
0.0
 10
-29.63087786870506
 20
-0.4136753292270079
 30
0.0
 10
-29.10113447462861
 20
-0.6434902378010818
 30
0.0
 10
-28.62503518050993
 20
-0.7793511922872334
 30
0.0
 10
-28.32551255436752
 20
-0.7807688454237649
 30
0.0
 10
-28.20256089313892
 20
-0.7813507807868021
 30
0.0
1001
PE_URL
1000

  0
SPLINE
  5
1E9
330
1F
100
AcDbEntity
  8
0
  6
Continuous
 62
     1
370
    25
100
AcDbSpline
210
0.0
220
0.0
230
1.0
 70
     8
 71
     3
 72
    13
 73
     9
 74
     0
 42
0.000000001
 43
0.00000001
 40
0.0
 40
0.0
 40
0.0
 40
0.0
 40
0.2641165189392299
 40
0.4441921582550978
 40
0.6252422203990835
 40
0.8058043024550537
 40
0.9857167054099149
 40
1.0
 40
1.0
 40
1.0
 40
1.0
 10
-31.53750762877421
 20
-0.0833500437314179
 30
0.0
 10
-31.34351706397557
 20
-0.1572094426543487
 30
0.0
 10
-31.01726300003019
 20
-0.2814264584879851
 30
0.0
 10
-30.55870613181641
 20
-0.4176986358803667
 30
0.0
 10
-30.16094011545562
 20
-0.5022893703610265
 30
0.0
 10
-29.76351569941274
 20
-0.5408212273185491
 30
0.0
 10
-29.48863961144241
 20
-0.5483662969211629
 30
0.0
 10
-29.34614474197528
 20
-0.5309543131524315
 30
0.0
 10
-29.33566409681215
 20
-0.5296736437209724
 30
0.0
1001
PE_URL
1000

  0
SPLINE
  5
1EA
330
1F
100
AcDbEntity
  8
0
  6
Continuous
 62
     1
370
    25
100
AcDbSpline
210
0.0
220
0.0
230
1.0
 70
     8
 71
     3
 72
    18
 73
    14
 74
     0
 42
0.000000001
 43
0.00000001
 40
0.0
 40
0.0
 40
0.0
 40
0.0
 40
0.2500000000000001
 40
0.2500000000000001
 40
0.5000000000000001
 40
0.5000000000000001
 40
0.625
 40
0.625
 40
0.7499999999999999
 40
0.7499999999999999
 40
0.875
 40
0.875
 40
1.0
 40
1.0
 40
1.0
 40
1.0
 10
-30.95625
 20
0.3318054003195581
 30
0.0
 10
-31.04456756378585
 20
0.3778327824717636
 30
0.0
 10
-31.13099175824961
 20
0.4153638588685702
 30
0.0
 10
-31.3029312823376
 20
0.4530848913587704
 30
0.0
 10
-31.3892430639059
 20
0.4520401155009512
 30
0.0
 10
-31.5060178838503
 20
0.3887418509727603
 30
0.0
 10
-31.54220840655999
 20
0.3568244623680457
 30
0.0
 10
-31.59724748764704
 20
0.2721039480785024
 30
0.0
 10
-31.61383151461625
 20
0.2218770058071655
 30
0.0
 10
-31.62220552721126
 20
0.123699302769456
 30
0.0
 10
-31.61467020148716
 20
0.0774106442533871
 30
0.0
 10
-31.58551192743661
 20
-0.007358525471254
 30
0.0
 10
-31.56391821735922
 20
-0.0462716933615823
 30
0.0
 10
-31.53750762876347
 20
-0.0833500437355639
 30
0.0
1001
PE_URL
1000

  0
SPLINE
  5
1EB
330
1F
100
AcDbEntity
  8
0
  6
Continuous
 62
     1
370
    25
100
AcDbSpline
210
0.0
220
0.0
230
1.0
 70
     8
 71
     3
 72
    16
 73
    12
 74
     0
 42
0.000000001
 43
0.00000001
 40
0.0
 40
0.0
 40
0.0
 40
0.0
 40
0.0846253568944786
 40
0.1990743586822394
 40
0.3141118762554875
 40
0.4286353726914394
 40
0.5428773026554027
 40
0.6574487063891785
 40
0.772471920136987
 40
0.8863086295008429
 40
1.0
 40
1.0
 40
1.0
 40
1.0
 10
-29.66040049083991
 20
0.5355132170153745
 30
0.0
 10
-29.5626358066784
 20
0.5368212140959052
 30
0.0
 10
-29.33265223537727
 20
0.539898172226664
 30
0.0
 10
-28.96976365423732
 20
0.492040790933725
 30
0.0
 10
-28.57195459443157
 20
0.4049573250681604
 30
0.0
 10
-28.17471753130699
 20
0.282399844208614
 30
0.0
 10
-27.77810910570859
 20
0.1367765520475608
 30
0.0
 10
-27.38080699957635
 20
-0.0204136037572553
 30
0.0
 10
-26.9836744956868
 20
-0.1743050915946469
 30
0.0
 10
-26.58795476252434
 20
-0.316868593099656
 30
0.0
 10
-26.32509561828226
 20
-0.3879812671065856
 30
0.0
 10
-26.19374999986403
 20
-0.4235148916709726
 30
0.0
1001
PE_URL
1000

  0
SPLINE
  5
1EC
330
1F
100
AcDbEntity
  8
0
  6
Continuous
 62
     1
370
    25
100
AcDbSpline
210
0.0
220
0.0
230
1.0
 70
     8
 71
     3
 72
    26
 73
    22
 74
     0
 42
0.000000001
 43
0.00000001
 40
0.0
 40
0.0
 40
0.0
 40
0.0
 40
0.0301497034910172
 40
0.0908161963204641
 40
0.1213534339371971
 40
0.1710472563202429
 40
0.272103774236313
 40
0.3235868610770565
 40
0.3736110257285934
 40
0.4239884196020668
 40
0.4754491013623498
 40
0.5272948149486667
 40
0.5773139063629736
 40
0.6276860964263742
 40
0.679142688807633
 40
0.7309849137796973
 40
0.7808988585151502
 40
0.8824307155786479
 40
0.9341695930940145
 40
0.959154103566768
 40
1.0
 40
1.0
 40
1.0
 40
1.0
 10
-26.19375
 20
-0.7767282381053207
 30
0.0
 10
-26.2399668026085
 20
-0.7814423605684127
 30
0.0
 10
-26.37917992025155
 20
-0.7956421244637539
 30
0.0
 10
-26.56524791943039
 20
-0.7951648046849016
 30
0.0
 10
-26.781867387456
 20
-0.7770700709731706
 30
0.0
 10
-27.05909960317482
 20
-0.731777761520128
 30
0.0
 10
-27.37054668198184
 20
-0.6393560222161909
 30
0.0
 10
-27.68104789487747
 20
-0.5111257264642752
 30
0.0
 10
-27.91455274497515
 20
-0.4011830862432681
 30
0.0
 10
-28.1468289511287
 20
-0.278042927259925
 30
0.0
 10
-28.38348539054858
 20
-0.1478490337680611
 30
0.0
 10
-28.61783048437074
 20
-0.0106330393000462
 30
0.0
 10
-28.85216786263146
 20
0.1230306630329778
 30
0.0
 10
-29.08461058222113
 20
0.2550834799913506
 30
0.0
 10
-29.32061528740262
 20
0.3799871252889258
 30
0.0
 10
-29.55585634510218
 20
0.4935594917951089
 30
0.0
 10
-29.8672847166488
 20
0.6258581154924627
 30
0.0
 10
-30.17943882167795
 20
0.7237832098894881
 30
0.0
 10
-30.45342089353893
 20
0.7708314799528448
 30
0.0
 10
-30.63375593107046
 20
0.790346826601187
 30
0.0
 10
-30.73461506868819
 20
0.7913944367536292
 30
0.0
 10
-30.79719529693077
 20
0.7920444490777232
 30
0.0
1001
PE_URL
1000

  0
SPLINE
  5
1ED
330
1F
100
AcDbEntity
  8
외형선
  6
Continuous
370
    15
100
AcDbSpline
210
0.0
220
0.0
230
1.0
 70
    24
 71
     3
 72
    13
 73
     9
 74
     0
 42
0.000000001
 43
0.00000001
 40
0.0
 40
0.0
 40
0.0
 40
0.0
 40
0.1619737744173994
 40
0.3272183701080395
 40
0.5198632348945165
 40
0.718094813810564
 40
0.9107396785931277
 40
1.0
 40
1.0
 40
1.0
 40
1.0
 10
-26.19375
 20
-0.7767282381201532
 30
0.0
 10
-26.19375
 20
-0.7553314916680733
 30
0.0
 10
-26.19375
 20
-0.7121059230545868
 30
0.0
 10
-26.19375
 20
-0.6482084284438123
 30
0.0
 10
-26.19375
 20
-0.5856579373417823
 30
0.0
 10
-26.19375
 20
-0.5297794212654097
 30
0.0
 10
-26.19375
 20
-0.4903249622328261
 30
0.0
 10
-26.19375
 20
-0.474786242891259
 30
0.0
 10
-26.19375
 20
-0.4698661805773021
 30
0.0
  0
SPLINE
  5
1EE
330
1F
100
AcDbEntity
  8
0
  6
Continuous
 62
     1
370
    25
100
AcDbSpline
210
0.0
220
0.0
230
1.0
 70
     8
 71
     3
 72
    14
 73
    10
 74
     0
 42
0.000000001
 43
0.00000001
 40
0.0
 40
0.0
 40
0.0
 40
0.0
 40
0.0746248311231876
 40
0.2431738401222255
 40
0.41171824396916
 40
0.5802582616632829
 40
0.7487941133608009
 40
0.8744704390892408
 40
1.0
 40
1.0
 40
1.0
 40
1.0
 10
-29.33566409681215
 20
0.5296736437209635
 30
0.0
 10
-29.25748654084676
 20
0.5649663242802756
 30
0.0
 10
-29.00273572654888
 20
0.6799716989074902
 30
0.0
 10
-28.57142351956568
 20
0.7817793922052534
 30
0.0
 10
-28.04171013963892
 20
0.8087790937945272
 30
0.0
 10
-27.51208182324759
 20
0.7128363930884909
 30
0.0
 10
-27.02712629176322
 20
0.5302672539833981
 30
0.0
 10
-26.58793542086834
 20
0.3105330715031105
 30
0.0
 10
-26.32509395268814
 20
0.1607302675505906
 30
0.0
 10
-26.19374999999968
 20
0.0858726260560303
 30
0.0
1001
PE_URL
1000

  0
SPLINE
  5
1EF
330
1F
100
AcDbEntity
  8
외형선
  6
Continuous
370
    15
100
AcDbSpline
210
0.0
220
0.0
230
1.0
 70
    24
 71
     3
 72
    12
 73
     8
 74
     0
 42
0.000000001
 43
0.00000001
 40
0.0
 40
0.0
 40
0.0
 40
0.0
 40
0.5
 40
0.5
 40
0.75
 40
0.75
 40
1.0
 40
1.0
 40
1.0
 40
1.0
 10
-26.19375000000019
 20
-0.4235148916378115
 30
0.0
 10
-26.19375000000019
 20
-0.3294497755204482
 30
0.0
 10
-26.19375000000019
 20
-0.2133736810933549
 30
0.0
 10
-26.19375000000019
 20
-0.0606194341660249
 30
0.0
 10
-26.19375000000019
 20
-0.014389461915993
 30
0.0
 10
-26.19375000000019
 20
0.0548434121808796
 30
0.0
 10
-26.19375000000019
 20
0.0775289364028637
 30
0.0
 10
-26.19375000000019
 20
0.0858726260562648
 30
0.0
  0
LINE
  5
1F0
330
1F
100
AcDbEntity
  8
0
  6
Continuous
 62
     1
370
    25
100
AcDbLine
 10
-26.19375
 20
0.77672823810531
 30
0.0
 11
-26.47904778717095
 21
0.7774386316704387
 31
0.0
1001
PE_URL
1000

  0
SPLINE
  5
1F1
330
1F
100
AcDbEntity
  8
0
  6
Continuous
 62
     1
370
    25
100
AcDbSpline
210
0.0
220
0.0
230
1.0
 70
     8
 71
     3
 72
    10
 73
     6
 74
     0
 42
0.000000001
 43
0.00000001
 40
0.0
 40
0.0
 40
0.0
 40
0.0
 40
0.27169705845813
 40
0.6407444666908796
 40
1.0
 40
1.0
 40
1.0
 40
1.0
 10
-29.67052094916593
 20
-0.5355861253151843
 30
0.0
 10
-29.78699148152919
 20
-0.5834627925939486
 30
0.0
 10
-30.06166449259456
 20
-0.6963705650098824
 30
0.0
 10
-30.4902580822858
 20
-0.7920447985441577
 30
0.0
 10
-30.80231788619885
 20
-0.7896513023644722
 30
0.0
 10
-30.95624999999998
 20
-0.7884706442928682
 30
0.0
1001
PE_URL
1000

  0
SPLINE
  5
1F2
330
1F
100
AcDbEntity
  8
0
  6
Continuous
 62
     1
370
    25
100
AcDbSpline
210
0.0
220
0.0
230
1.0
 70
     8
 71
     3
 72
     8
 73
     4
 74
     0
 42
0.000000001
 43
0.00000001
 40
0.0
 40
0.0
 40
0.0
 40
0.0
 40
1.0
 40
1.0
 40
1.0
 40
1.0
 10
-31.53750762876347
 20
-0.0833500437355639
 30
0.0
 10
-31.57396960831869
 20
-0.1053769935627962
 30
0.0
 10
-31.59416675377478
 20
-0.1524478564115697
 30
0.0
 10
-31.59509395390987
 20
-0.2055760650343252
 30
0.0
1001
PE_URL
1000

  0
ARC
  5
1F3
330
1F
100
AcDbEntity
  8
0
  6
Continuous
 62
     1
370
    25
100
AcDbCircle
 10
-31.3702383388128
 20
0.1379829822488574
 30
0.0
 40
0.4106006169133053
100
AcDbArc
 50
203.8413887152741
 51
236.7956944502081
1001
PE_URL
1000

  0
ARC
  5
1F4
330
1F
100
AcDbEntity
  8
0
  6
Continuous
 62
     1
370
    25
100
AcDbCircle
 10
-31.03616425058232
 20
-0.0147437392166268
 30
0.0
 40
0.7097608125160145
100
AcDbArc
 50
181.0689129021432
 51
251.1873992280887
1001
PE_URL
1000

  0
SPLINE
  5
1F5
330
1F
100
AcDbEntity
  8
0
  6
Continuous
 62
     1
370
    25
100
AcDbSpline
210
0.0
220
0.0
230
1.0
 70
     8
 71
     3
 72
     8
 73
     4
 74
     0
 42
0.000000001
 43
0.00000001
 40
0.0
 40
0.0
 40
0.0
 40
0.0
 40
1.0
 40
1.0
 40
1.0
 40
1.0
 10
-31.2650435731228
 20
-0.6865879672165427
 30
0.0
 10
-31.16693449399109
 20
-0.7464542051279501
 30
0.0
 10
-31.06277157043756
 20
-0.7814342145610098
 30
0.0
 10
-30.95625
 20
-0.7884706442928646
 30
0.0
1001
PE_URL
1000

  0
SPLINE
  5
1F6
330
1F
100
AcDbEntity
  8
0
  6
Continuous
 62
     1
370
    25
100
AcDbSpline
210
0.0
220
0.0
230
1.0
 70
     8
 71
     3
 72
     8
 73
     4
 74
     0
 42
0.000000001
 43
0.00000001
 40
0.0
 40
0.0
 40
0.0
 40
0.0
 40
1.0
 40
1.0
 40
1.0
 40
1.0
 10
-31.10432476607294
 20
-0.3553090268680208
 30
0.0
 10
-31.26568198112739
 20
-0.3104680054127691
 30
0.0
 10
-31.43020311811981
 20
-0.2599378600050706
 30
0.0
 10
-31.59509395390775
 20
-0.2055760650339273
 30
0.0
1001
PE_URL
1000

  0
SPLINE
  5
1F7
330
1F
100
AcDbEntity
  8
0
  6
Continuous
 62
     1
370
    25
100
AcDbSpline
210
0.0
220
0.0
230
1.0
 70
     8
 71
     3
 72
    10
 73
     6
 74
     0
 42
0.000000001
 43
0.00000001
 40
0.0
 40
0.0
 40
0.0
 40
0.0
 40
0.5000000000000002
 40
0.5000000000000002
 40
1.0
 40
1.0
 40
1.0
 40
1.0
 10
-31.2650435731228
 20
-0.6865879672165427
 30
0.0
 10
-31.27630913406297
 20
-0.6199186467491806
 30
0.0
 10
-31.27467584626573
 20
-0.5475788240007873
 30
0.0
 10
-31.21895229067253
 20
-0.424349886325345
 30
0.0
 10
-31.16426653401
 20
-0.37907103832028
 30
0.0
 10
-31.10432476607279
 20
-0.3553090268682837
 30
0.0
1001
PE_URL
1000

  0
ENDSEC
  0
SECTION
  2
OBJECTS
  0
DICTIONARY
  5
C
330
0
100
AcDbDictionary
281
     1
  3
ACAD_GROUP
350
D
  3
ACAD_LAYOUT
350
1A
  3
ACAD_MLINESTYLE
350
17
  3
ACAD_PLOTSETTINGS
350
19
  3
ACAD_PLOTSTYLENAME
350
E
  3
ACAD_SCALELIST
350
47
  3
APPDATA
350
14E
  3
DWGPROPS
350
1F9
  0
DICTIONARY
  5
D
102
{ACAD_REACTORS
330
C
102
}
330
C
100
AcDbDictionary
281
     1
  0
DICTIONARY
  5
1A
102
{ACAD_REACTORS
330
C
102
}
330
C
100
AcDbDictionary
281
     1
  3
Layout1
350
1E
  3
Layout2
350
26
  3
Model
350
22
  0
DICTIONARY
  5
17
102
{ACAD_REACTORS
330
C
102
}
330
C
100
AcDbDictionary
281
     1
  3
Standard
350
18
  0
DICTIONARY
  5
19
102
{ACAD_REACTORS
330
C
102
}
330
C
100
AcDbDictionary
281
     1
  0
ACDBDICTIONARYWDFLT
  5
E
102
{ACAD_REACTORS
330
C
102
}
330
C
100
AcDbDictionary
281
     1
  3
Normal
350
F
100
AcDbDictionaryWithDefault
340
F
  0
DICTIONARY
  5
47
102
{ACAD_REACTORS
330
C
102
}
330
C
100
AcDbDictionary
281
     1
  3
A0
350
48
  3
A1
350
49
  3
A2
350
4A
  3
A3
350
4B
  3
A4
350
4C
  3
A5
350
4D
  3
A6
350
4E
  3
A7
350
4F
  3
A8
350
50
  3
A9
350
51
  3
B0
350
52
  3
B1
350
53
  3
B2
350
54
  3
B3
350
55
  3
B4
350
56
  3
B5
350
57
  3
B6
350
58
  3
B7
350
59
  3
B8
350
5A
  3
B9
350
5B
  3
C0
350
5C
  3
C1
350
5D
  3
C2
350
5E
  3
C3
350
5F
  3
C4
350
60
  3
C5
350
61
  3
C6
350
62
  3
C7
350
63
  3
C8
350
64
  3
C9
350
65
  3
D0
350
66
  3
D1
350
67
  3
D2
350
68
  0
DICTIONARY
  5
14E
102
{ACAD_REACTORS
330
C
102
}
330
C
100
AcDbDictionary
281
     1
  0
XRECORD
  5
1F9
102
{ACAD_REACTORS
330
C
102
}
330
C
100
AcDbXrecord
280
     1
  1
DWGPROPS COOKIE
  2

  3

  4

  6

  7

  8
120170442
  9

300
=
301
=
302
=
303
=
304
=
305
=
306
=
307
=
308
=
309
=
 40
0.0
 41
2458319.365076609
 42
2458323.183658507
  1

 90
        0
  0
LAYOUT
  5
1E
102
{ACAD_REACTORS
330
1A
102
}
330
1A
100
AcDbPlotSettings
  1

  2
none_device
  4

  6

 40
0.0
 41
0.0
 42
0.0
 43
0.0
 44
0.0
 45
0.0
 46
0.0
 47
0.0
 48
0.0
 49
0.0
140
0.0
141
0.0
142
1.0
143
1.0
 70
   688
 72
     1
 73
     0
 74
     5
  7

 75
    16
147
1.0
148
0.0
149
0.0
100
AcDbLayout
  1
Layout1
 70
     1
 71
     1
 10
0.0
 20
0.0
 11
420.0
 21
297.0
 12
0.0
 22
0.0
 32
0.0
 14
1.000000000000000E+20
 24
1.000000000000000E+20
 34
1.000000000000000E+20
 15
-1.000000000000000E+20
 25
-1.000000000000000E+20
 35
-1.000000000000000E+20
146
0.0
 13
0.0
 23
0.0
 33
0.0
 16
1.0
 26
0.0
 36
0.0
 17
0.0
 27
1.0
 37
0.0
 76
     0
330
1B
  0
LAYOUT
  5
26
102
{ACAD_REACTORS
330
1A
102
}
330
1A
100
AcDbPlotSettings
  1

  2
none_device
  4

  6

 40
0.0
 41
0.0
 42
0.0
 43
0.0
 44
0.0
 45
0.0
 46
0.0
 47
0.0
 48
0.0
 49
0.0
140
0.0
141
0.0
142
1.0
143
1.0
 70
   688
 72
     1
 73
     0
 74
     5
  7

 75
    16
147
1.0
148
0.0
149
0.0
100
AcDbLayout
  1
Layout2
 70
     1
 71
     2
 10
0.0
 20
0.0
 11
0.0
 21
0.0
 12
0.0
 22
0.0
 32
0.0
 14
0.0
 24
0.0
 34
0.0
 15
0.0
 25
0.0
 35
0.0
146
0.0
 13
0.0
 23
0.0
 33
0.0
 16
1.0
 26
0.0
 36
0.0
 17
0.0
 27
1.0
 37
0.0
 76
     0
330
23
  0
LAYOUT
  5
22
102
{ACAD_REACTORS
330
1A
102
}
330
1A
100
AcDbPlotSettings
  1

  2
none_device
  4
ANSI_A_(11.00_x_8.50_Inches)
  6

 40
6.35
 41
19.05
 42
6.35000508
 43
19.05000254
 44
279.4
 45
215.9
 46
125.6315662702557
 47
98.43465438167888
 48
0.0
 49
0.0
140
0.0
141
0.0
142
0.0706082058113122
143
1.0
 70
  1696
 72
     0
 73
     0
 74
     0
  7

 75
     0
147
0.0235690232323232
148
0.0
149
0.0
100
AcDbLayout
  1
Model
 70
     1
 71
     0
 10
0.0
 20
0.0
 11
420.0
 21
297.0
 12
0.0
 22
0.0
 32
0.0
 14
-43.12500000000009
 24
-49.97180738881175
 34
0.0
 15
98.68848381534559
 25
27.88124999999998
 35
0.0
146
0.0
 13
0.0
 23
0.0
 33
0.0
 16
1.0
 26
0.0
 36
0.0
 17
0.0
 27
1.0
 37
0.0
 76
     0
330
1F
331
29
  0
MLINESTYLE
  5
18
102
{ACAD_REACTORS
330
17
102
}
330
17
100
AcDbMlineStyle
  2
Standard
 70
     0
  3

 62
   256
 51
90.0
 52
90.0
 71
     2
 49
0.5
 62
   256
  6
BYLAYER
 49
-0.5
 62
   256
  6
BYLAYER
  0
ACDBPLACEHOLDER
  5
F
102
{ACAD_REACTORS
330
E
102
}
330
E
  0
SCALE
  5
48
102
{ACAD_REACTORS
330
47
102
}
330
47
100
AcDbScale
 70
     0
300
1:1
140
1.0
141
1.0
290
     1
  0
SCALE
  5
49
102
{ACAD_REACTORS
330
47
102
}
330
47
100
AcDbScale
 70
     0
300
1:2
140
1.0
141
2.0
290
     0
  0
SCALE
  5
4A
102
{ACAD_REACTORS
330
47
102
}
330
47
100
AcDbScale
 70
     0
300
1:4
140
1.0
141
4.0
290
     0
  0
SCALE
  5
4B
102
{ACAD_REACTORS
330
47
102
}
330
47
100
AcDbScale
 70
     0
300
1:5
140
1.0
141
5.0
290
     0
  0
SCALE
  5
4C
102
{ACAD_REACTORS
330
47
102
}
330
47
100
AcDbScale
 70
     0
300
1:8
140
1.0
141
8.0
290
     0
  0
SCALE
  5
4D
102
{ACAD_REACTORS
330
47
102
}
330
47
100
AcDbScale
 70
     0
300
1:10
140
1.0
141
10.0
290
     0
  0
SCALE
  5
4E
102
{ACAD_REACTORS
330
47
102
}
330
47
100
AcDbScale
 70
     0
300
1:16
140
1.0
141
16.0
290
     0
  0
SCALE
  5
4F
102
{ACAD_REACTORS
330
47
102
}
330
47
100
AcDbScale
 70
     0
300
1:20
140
1.0
141
20.0
290
     0
  0
SCALE
  5
50
102
{ACAD_REACTORS
330
47
102
}
330
47
100
AcDbScale
 70
     0
300
1:30
140
1.0
141
30.0
290
     0
  0
SCALE
  5
51
102
{ACAD_REACTORS
330
47
102
}
330
47
100
AcDbScale
 70
     0
300
1:40
140
1.0
141
40.0
290
     0
  0
SCALE
  5
52
102
{ACAD_REACTORS
330
47
102
}
330
47
100
AcDbScale
 70
     0
300
1:50
140
1.0
141
50.0
290
     0
  0
SCALE
  5
53
102
{ACAD_REACTORS
330
47
102
}
330
47
100
AcDbScale
 70
     0
300
1:100
140
1.0
141
100.0
290
     0
  0
SCALE
  5
54
102
{ACAD_REACTORS
330
47
102
}
330
47
100
AcDbScale
 70
     0
300
2:1
140
2.0
141
1.0
290
     0
  0
SCALE
  5
55
102
{ACAD_REACTORS
330
47
102
}
330
47
100
AcDbScale
 70
     0
300
4:1
140
4.0
141
1.0
290
     0
  0
SCALE
  5
56
102
{ACAD_REACTORS
330
47
102
}
330
47
100
AcDbScale
 70
     0
300
8:1
140
8.0
141
1.0
290
     0
  0
SCALE
  5
57
102
{ACAD_REACTORS
330
47
102
}
330
47
100
AcDbScale
 70
     0
300
10:1
140
10.0
141
1.0
290
     0
  0
SCALE
  5
58
102
{ACAD_REACTORS
330
47
102
}
330
47
100
AcDbScale
 70
     0
300
100:1
140
100.0
141
1.0
290
     0
  0
SCALE
  5
59
102
{ACAD_REACTORS
330
47
102
}
330
47
100
AcDbScale
 70
     0
300
1/128" = 1'-0"
140
0.0078125
141
12.0
290
     0
  0
SCALE
  5
5A
102
{ACAD_REACTORS
330
47
102
}
330
47
100
AcDbScale
 70
     0
300
1/64" = 1'-0"
140
0.015625
141
12.0
290
     0
  0
SCALE
  5
5B
102
{ACAD_REACTORS
330
47
102
}
330
47
100
AcDbScale
 70
     0
300
1/32" = 1'-0"
140
0.03125
141
12.0
290
     0
  0
SCALE
  5
5C
102
{ACAD_REACTORS
330
47
102
}
330
47
100
AcDbScale
 70
     0
300
1/16" = 1'-0"
140
0.0625
141
12.0
290
     0
  0
SCALE
  5
5D
102
{ACAD_REACTORS
330
47
102
}
330
47
100
AcDbScale
 70
     0
300
3/32" = 1'-0"
140
0.09375
141
12.0
290
     0
  0
SCALE
  5
5E
102
{ACAD_REACTORS
330
47
102
}
330
47
100
AcDbScale
 70
     0
300
1/8" = 1'-0"
140
0.125
141
12.0
290
     0
  0
SCALE
  5
5F
102
{ACAD_REACTORS
330
47
102
}
330
47
100
AcDbScale
 70
     0
300
3/16" = 1'-0"
140
0.1875
141
12.0
290
     0
  0
SCALE
  5
60
102
{ACAD_REACTORS
330
47
102
}
330
47
100
AcDbScale
 70
     0
300
1/4" = 1'-0"
140
0.25
141
12.0
290
     0
  0
SCALE
  5
61
102
{ACAD_REACTORS
330
47
102
}
330
47
100
AcDbScale
 70
     0
300
3/8" = 1'-0"
140
0.375
141
12.0
290
     0
  0
SCALE
  5
62
102
{ACAD_REACTORS
330
47
102
}
330
47
100
AcDbScale
 70
     0
300
1/2" = 1'-0"
140
0.5
141
12.0
290
     0
  0
SCALE
  5
63
102
{ACAD_REACTORS
330
47
102
}
330
47
100
AcDbScale
 70
     0
300
3/4" = 1'-0"
140
0.75
141
12.0
290
     0
  0
SCALE
  5
64
102
{ACAD_REACTORS
330
47
102
}
330
47
100
AcDbScale
 70
     0
300
1" = 1'-0"
140
1.0
141
12.0
290
     0
  0
SCALE
  5
65
102
{ACAD_REACTORS
330
47
102
}
330
47
100
AcDbScale
 70
     0
300
1-1/2" = 1'-0"
140
1.5
141
12.0
290
     0
  0
SCALE
  5
66
102
{ACAD_REACTORS
330
47
102
}
330
47
100
AcDbScale
 70
     0
300
3" = 1'-0"
140
3.0
141
12.0
290
     0
  0
SCALE
  5
67
102
{ACAD_REACTORS
330
47
102
}
330
47
100
AcDbScale
 70
     0
300
6" = 1'-0"
140
6.0
141
12.0
290
     0
  0
SCALE
  5
68
102
{ACAD_REACTORS
330
47
102
}
330
47
100
AcDbScale
 70
     0
300
1'-0" = 1'-0"
140
12.0
141
12.0
290
     0
  0
ENDSEC
  0
EOF
