  0
SECTION
  2
HEADER
  9
$ACADVER
  1
AC1015
  9
$ACADMAINTVER
 70
     6
  9
$DWGCODEPAGE
  3
ANSI_949
  9
$INSBASE
 10
0.0
 20
0.0
 30
0.0
  9
$EXTMIN
 10
-42.95000000000011
 20
-49.97180738881175
 30
0.0
  9
$EXTMAX
 10
90.75098381534558
 20
37.67009665355937
 30
0.0
  9
$LIMMIN
 10
0.0
 20
0.0
  9
$LIMMAX
 10
420.0
 20
297.0
  9
$ORTHOMODE
 70
     1
  9
$REGENMODE
 70
     1
  9
$FILLMODE
 70
     1
  9
$QTEXTMODE
 70
     0
  9
$MIRRTEXT
 70
     1
  9
$LTSCALE
 40
1.0
  9
$ATTMODE
 70
     1
  9
$TEXTSIZE
 40
3.5
  9
$TRACEWID
 40
1.0
  9
$TEXTSTYLE
  7
Standard
  9
$CLAYER
  8
0
  9
$CELTYPE
  6
ByLayer
  9
$CECOLOR
 62
   256
  9
$CELTSCALE
 40
1.0
  9
$DISPSILH
 70
     0
  9
$DIMSCALE
 40
1.0
  9
$DIMASZ
 40
3.302
  9
$DIMEXO
 40
1.0
  9
$DIMDLI
 40
3.75
  9
$DIMRND
 40
0.0
  9
$DIMDLE
 40
0.0
  9
$DIMEXE
 40
1.0
  9
$DIMTP
 40
0.0
  9
$DIMTM
 40
0.0
  9
$DIMTXT
 40
3.5
  9
$DIMCEN
 40
2.5
  9
$DIMTSZ
 40
0.0
  9
$DIMTOL
 70
     0
  9
$DIMLIM
 70
     0
  9
$DIMTIH
 70
     1
  9
$DIMTOH
 70
     1
  9
$DIMSE1
 70
     0
  9
$DIMSE2
 70
     0
  9
$DIMTAD
 70
     1
  9
$DIMZIN
 70
     0
  9
$DIMBLK
  1

  9
$DIMASO
 70
     1
  9
$DIMSHO
 70
     1
  9
$DIMPOST
  1

  9
$DIMAPOST
  1

  9
$DIMALT
 70
     0
  9
$DIMALTD
 70
     3
  9
$DIMALTF
 40
0.0393700787401575
  9
$DIMLFAC
 40
1.0
  9
$DIMTOFL
 70
     1
  9
$DIMTVP
 40
0.0
  9
$DIMTIX
 70
     0
  9
$DIMSOXD
 70
     0
  9
$DIMSAH
 70
     0
  9
$DIMBLK1
  1

  9
$DIMBLK2
  1

  9
$DIMSTYLE
  2
ISO-25
  9
$DIMCLRD
 70
     0
  9
$DIMCLRE
 70
     0
  9
$DIMCLRT
 70
     0
  9
$DIMTFAC
 40
1.0
  9
$DIMGAP
 40
1.524
  9
$DIMJUST
 70
     0
  9
$DIMSD1
 70
     0
  9
$DIMSD2
 70
     0
  9
$DIMTOLJ
 70
     0
  9
$DIMTZIN
 70
     0
  9
$DIMALTZ
 70
     0
  9
$DIMALTTZ
 70
     0
  9
$DIMUPT
 70
     0
  9
$DIMDEC
 70
     2
  9
$DIMTDEC
 70
     2
  9
$DIMALTU
 70
     2
  9
$DIMALTTD
 70
     3
  9
$DIMTXSTY
  7
Standard
  9
$DIMAUNIT
 70
     0
  9
$DIMADEC
 70
     2
  9
$DIMALTRND
 40
0.0
  9
$DIMAZIN
 70
     0
  9
$DIMDSEP
 70
    44
  9
$DIMATFIT
 70
     3
  9
$DIMFRAC
 70
     0
  9
$DIMLDRBLK
  1

  9
$DIMLUNIT
 70
     2
  9
$DIMLWD
 70
    -2
  9
$DIMLWE
 70
    -2
  9
$DIMTMOVE
 70
     0
  9
$LUNITS
 70
     2
  9
$LUPREC
 70
     2
  9
$SKETCHINC
 40
1.0
  9
$FILLETRAD
 40
10.0
  9
$AUNITS
 70
     0
  9
$AUPREC
 70
     2
  9
$MENU
  1
.
  9
$ELEVATION
 40
0.0
  9
$PELEVATION
 40
0.0
  9
$THICKNESS
 40
0.0
  9
$LIMCHECK
 70
     0
  9
$CHAMFERA
 40
0.0
  9
$CHAMFERB
 40
0.0
  9
$CHAMFERC
 40
0.0
  9
$CHAMFERD
 40
0.0
  9
$SKPOLY
 70
     0
  9
$TDCREATE
 40
2458319.73922963
  9
$TDUCREATE
 40
2458319.36422963
  9
$TDUPDATE
 40
2458323.498419977
  9
$TDUUPDATE
 40
2458323.123419977
  9
$TDINDWG
 40
0.0009216088
  9
$TDUSRTIMER
 40
0.0023411111
  9
$USRTIMER
 70
     1
  9
$ANGBASE
 50
0.0
  9
$ANGDIR
 70
     0
  9
$PDMODE
 70
     0
  9
$PDSIZE
 40
-1.0
  9
$PLINEWID
 40
0.0
  9
$SPLFRAME
 70
     0
  9
$SPLINETYPE
 70
     6
  9
$SPLINESEGS
 70
     8
  9
$HANDSEED
  5
201
  9
$SURFTAB1
 70
     6
  9
$SURFTAB2
 70
     6
  9
$SURFTYPE
 70
     6
  9
$SURFU
 70
     6
  9
$SURFV
 70
     6
  9
$UCSBASE
  2

  9
$UCSNAME
  2

  9
$UCSORG
 10
0.0
 20
0.0
 30
0.0
  9
$UCSXDIR
 10
1.0
 20
0.0
 30
0.0
  9
$UCSYDIR
 10
0.0
 20
1.0
 30
0.0
  9
$UCSORTHOREF
  2

  9
$UCSORTHOVIEW
 70
     0
  9
$UCSORGTOP
 10
0.0
 20
0.0
 30
0.0
  9
$UCSORGBOTTOM
 10
0.0
 20
0.0
 30
0.0
  9
$UCSORGLEFT
 10
0.0
 20
0.0
 30
0.0
  9
$UCSORGRIGHT
 10
0.0
 20
0.0
 30
0.0
  9
$UCSORGFRONT
 10
0.0
 20
0.0
 30
0.0
  9
$UCSORGBACK
 10
0.0
 20
0.0
 30
0.0
  9
$PUCSBASE
  2

  9
$PUCSNAME
  2

  9
$PUCSORG
 10
0.0
 20
0.0
 30
0.0
  9
$PUCSXDIR
 10
1.0
 20
0.0
 30
0.0
  9
$PUCSYDIR
 10
0.0
 20
1.0
 30
0.0
  9
$PUCSORTHOREF
  2

  9
$PUCSORTHOVIEW
 70
     0
  9
$PUCSORGTOP
 10
0.0
 20
0.0
 30
0.0
  9
$PUCSORGBOTTOM
 10
0.0
 20
0.0
 30
0.0
  9
$PUCSORGLEFT
 10
0.0
 20
0.0
 30
0.0
  9
$PUCSORGRIGHT
 10
0.0
 20
0.0
 30
0.0
  9
$PUCSORGFRONT
 10
0.0
 20
0.0
 30
0.0
  9
$PUCSORGBACK
 10
0.0
 20
0.0
 30
0.0
  9
$USERI1
 70
     0
  9
$USERI2
 70
     0
  9
$USERI3
 70
     0
  9
$USERI4
 70
     0
  9
$USERI5
 70
     0
  9
$USERR1
 40
0.0
  9
$USERR2
 40
0.0
  9
$USERR3
 40
0.0
  9
$USERR4
 40
0.0
  9
$USERR5
 40
0.0
  9
$WORLDVIEW
 70
     1
  9
$SHADEDGE
 70
     3
  9
$SHADEDIF
 70
    70
  9
$TILEMODE
 70
     1
  9
$MAXACTVP
 70
    64
  9
$PINSBASE
 10
0.0
 20
0.0
 30
0.0
  9
$PLIMCHECK
 70
     0
  9
$PEXTMIN
 10
1.000000000000000E+20
 20
1.000000000000000E+20
 30
1.000000000000000E+20
  9
$PEXTMAX
 10
-1.000000000000000E+20
 20
-1.000000000000000E+20
 30
-1.000000000000000E+20
  9
$PLIMMIN
 10
0.0
 20
0.0
  9
$PLIMMAX
 10
0.0
 20
0.0
  9
$UNITMODE
 70
     0
  9
$VISRETAIN
 70
     1
  9
$PLINEGEN
 70
     0
  9
$PSLTSCALE
 70
     1
  9
$TREEDEPTH
 70
  3020
  9
$CMLSTYLE
  2
Standard
  9
$CMLJUST
 70
     0
  9
$CMLSCALE
 40
20.0
  9
$PROXYGRAPHICS
 70
     1
  9
$MEASUREMENT
 70
     1
  9
$CELWEIGHT
370
    -1
  9
$ENDCAPS
280
     0
  9
$JOINSTYLE
280
     0
  9
$LWDISPLAY
290
     1
  9
$INSUNITS
 70
     4
  9
$HYPERLINKBASE
  1

  9
$STYLESHEET
  1

  9
$XEDIT
290
     1
  9
$CEPSNTYPE
380
     0
  9
$PSTYLEMODE
290
     1
  9
$FINGERPRINTGUID
  2
{52EDF99E-4A88-4F31-B1C6-B98C3870C2CD}
  9
$VERSIONGUID
  2
{FAEB1C32-E019-11D5-929B-00C0DF256EC4}
  9
$EXTNAMES
290
     1
  9
$PSVPSCALE
 40
0.0
  9
$OLESTARTUP
290
     0
  0
ENDSEC
  0
SECTION
  2
CLASSES
  0
CLASS
  1
ACDBDICTIONARYWDFLT
  2
AcDbDictionaryWithDefault
  3
ObjectDBX Classes
 90
        0
280
     0
281
     0
  0
CLASS
  1
VISUALSTYLE
  2
AcDbVisualStyle
  3
ObjectDBX Classes
 90
     4095
280
     0
281
     0
  0
CLASS
  1
MATERIAL
  2
AcDbMaterial
  3
ObjectDBX Classes
 90
     1153
280
     0
281
     0
  0
CLASS
  1
SCALE
  2
AcDbScale
  3
ObjectDBX Classes
 90
     1153
280
     0
281
     0
  0
CLASS
  1
SUN
  2
AcDbSun
  3
SCENEOE
 90
     1153
280
     0
281
     0
  0
CLASS
  1
ACDBPLACEHOLDER
  2
AcDbPlaceHolder
  3
ObjectDBX Classes
 90
        0
280
     0
281
     0
  0
CLASS
  1
LAYOUT
  2
AcDbLayout
  3
ObjectDBX Classes
 90
        0
280
     0
281
     0
  0
CLASS
  1
TABLESTYLE
  2
AcDbTableStyle
  3
ObjectDBX Classes
 90
     4095
280
     0
281
     0
  0
CLASS
  1
MLEADERSTYLE
  2
AcDbMLeaderStyle
  3
ACDB_MLEADERSTYLE_CLASS
 90
     4095
280
     0
281
     0
  0
CLASS
  1
DICTIONARYVAR
  2
AcDbDictionaryVar
  3
ObjectDBX Classes
 90
        0
280
     0
281
     0
  0
ENDSEC
  0
SECTION
  2
TABLES
  0
TABLE
  2
VPORT
  5
8
330
0
100
AcDbSymbolTable
 70
     1
  0
VPORT
  5
29
330
8
100
AcDbSymbolTableRecord
100
AcDbViewportTableRecord
  2
*Active
 70
     0
 10
0.0
 20
0.0
 11
1.0
 21
1.0
 12
23.90049190767274
 22
-6.150855367626193
 13
0.0
 23
0.0
 14
10.0
 24
10.0
 15
10.0
 25
10.0
 16
0.0
 26
0.0
 36
1.0
 17
0.0
 27
0.0
 37
0.0
 40
89.39474212321855
 41
1.782762691853601
 42
50.0
 43
0.0
 44
0.0
 50
0.0
 51
0.0
 71
    16
 72
  2000
 73
     1
 74
     3
 75
     0
 76
     0
 77
     0
 78
     0
281
     0
 65
     1
110
0.0
120
0.0
130
0.0
111
1.0
121
0.0
131
0.0
112
0.0
122
1.0
132
0.0
 79
     0
146
0.0
  0
ENDTAB
  0
TABLE
  2
LTYPE
  5
5
330
0
100
AcDbSymbolTable
 70
     6
  0
LTYPE
  5
14
330
5
100
AcDbSymbolTableRecord
100
AcDbLinetypeTableRecord
  2
ByBlock
 70
     0
  3

 72
    65
 73
     0
 40
0.0
  0
LTYPE
  5
15
330
5
100
AcDbSymbolTableRecord
100
AcDbLinetypeTableRecord
  2
ByLayer
 70
     0
  3

 72
    65
 73
     0
 40
0.0
  0
LTYPE
  5
16
330
5
100
AcDbSymbolTableRecord
100
AcDbLinetypeTableRecord
  2
Continuous
 70
     0
  3
Solid line
 72
    65
 73
     0
 40
0.0
  0
LTYPE
  5
6A
330
5
100
AcDbSymbolTableRecord
100
AcDbLinetypeTableRecord
  2
HIDDEN
 70
     0
  3
Hidden __ __ __ __ __ __ __ __ __ __ __ __ __ __
 72
    65
 73
     2
 40
1.905
 49
1.27
 74
     0
 49
-0.635
 74
     0
  0
LTYPE
  5
6B
330
5
100
AcDbSymbolTableRecord
100
AcDbLinetypeTableRecord
  2
PHANTOM
 70
     0
  3
Phantom ______  __  __  ______  __  __  ______
 72
    65
 73
     6
 40
12.7
 49
6.35
 74
     0
 49
-1.27
 74
     0
 49
1.27
 74
     0
 49
-1.27
 74
     0
 49
1.27
 74
     0
 49
-1.27
 74
     0
  0
LTYPE
  5
6C
330
5
100
AcDbSymbolTableRecord
100
AcDbLinetypeTableRecord
  2
CENTER
 70
     0
  3
Center ____ _ ____ _ ____ _ ____ _ ____ _ ____
 72
    65
 73
     4
 40
10.16
 49
6.35
 74
     0
 49
-1.27
 74
     0
 49
1.27
 74
     0
 49
-1.27
 74
     0
  0
LTYPE
  5
6D
330
5
100
AcDbSymbolTableRecord
100
AcDbLinetypeTableRecord
  2
CENTERX2
 70
     0
  3
Center (2x) ________  __  ________  __  _____
 72
    65
 73
     4
 40
20.32
 49
12.7
 74
     0
 49
-2.54
 74
     0
 49
2.54
 74
     0
 49
-2.54
 74
     0
  0
LTYPE
  5
6E
330
5
100
AcDbSymbolTableRecord
100
AcDbLinetypeTableRecord
  2
DOT2
 70
     0
  3
Dot (.5x) ........................................
 72
    65
 73
     2
 40
0.635
 49
0.0
 74
     0
 49
-0.635
 74
     0
  0
ENDTAB
  0
TABLE
  2
LAYER
  5
2
102
{ACAD_XDICTIONARY
360
184
102
}
330
0
100
AcDbSymbolTable
 70
    18
  0
LAYER
  5
10
330
2
100
AcDbSymbolTableRecord
100
AcDbLayerTableRecord
  2
0
 70
     0
 62
     7
  6
Continuous
370
    -3
390
F
  0
LAYER
  5
6F
330
2
100
AcDbSymbolTableRecord
100
AcDbLayerTableRecord
  2
FORMAT
 70
     0
 62
     2
  6
Continuous
370
    -3
390
F
  0
LAYER
  5
70
330
2
100
AcDbSymbolTableRecord
100
AcDbLayerTableRecord
  2
외형선
 70
     0
 62
     4
  6
Continuous
370
    30
390
F
  0
LAYER
  5
71
330
2
100
AcDbSymbolTableRecord
100
AcDbLayerTableRecord
  2
숨은선
 70
     0
 62
     2
  6
HIDDEN
370
    15
390
F
  0
LAYER
  5
72
330
2
100
AcDbSymbolTableRecord
100
AcDbLayerTableRecord
  2
중심선
 70
     0
 62
     1
  6
CENTERX2
370
    -3
390
F
  0
LAYER
  5
73
330
2
100
AcDbSymbolTableRecord
100
AcDbLayerTableRecord
  2
파단선
 70
     0
 62
     4
  6
Continuous
370
    -3
390
F
  0
LAYER
  5
74
330
2
100
AcDbSymbolTableRecord
100
AcDbLayerTableRecord
  2
해칭선
 70
     0
 62
   100
  6
Continuous
370
    -3
390
F
  0
LAYER
  5
75
330
2
100
AcDbSymbolTableRecord
100
AcDbLayerTableRecord
  2
가는실선
 70
     0
 62
     4
  6
Continuous
370
    -3
390
F
  0
LAYER
  5
76
330
2
100
AcDbSymbolTableRecord
100
AcDbLayerTableRecord
  2
치수_보조선
 70
     0
 62
     4
  6
Continuous
370
    -3
390
F
  0
LAYER
  5
77
330
2
100
AcDbSymbolTableRecord
100
AcDbLayerTableRecord
  2
치수문자_일반주서
 70
     0
 62
     7
  6
Continuous
370
    15
390
F
  0
LAYER
  5
78
330
2
100
AcDbSymbolTableRecord
100
AcDbLayerTableRecord
  2
개별주서
 70
     0
 62
   100
  6
Continuous
370
    30
390
F
  0
LAYER
  5
79
330
2
100
AcDbSymbolTableRecord
100
AcDbLayerTableRecord
  2
중간선
 70
     0
 62
     2
  6
Continuous
370
    15
390
F
  0
LAYER
  5
7A
330
2
100
AcDbSymbolTableRecord
100
AcDbLayerTableRecord
  2
윤곽선
 70
     0
 62
     3
  6
Continuous
370
    40
390
F
  0
LAYER
  5
7B
330
2
100
AcDbSymbolTableRecord
100
AcDbLayerTableRecord
  2
중심마크
 70
     0
 62
   100
  6
Continuous
370
    30
390
F
  0
LAYER
  5
7C
330
2
100
AcDbSymbolTableRecord
100
AcDbLayerTableRecord
  2
가상선
 70
     0
 62
     4
  6
PHANTOM
370
    -3
390
F
  0
LAYER
  5
7D
330
2
100
AcDbSymbolTableRecord
100
AcDbLayerTableRecord
  2
특수지정선
 70
     0
 62
     5
  6
CENTERX2
370
    60
390
F
  0
LAYER
  5
7E
330
2
100
AcDbSymbolTableRecord
100
AcDbLayerTableRecord
  2
참조1
 70
     0
 62
    -4
  6
Continuous
370
    -3
390
F
  0
LAYER
  5
14D
330
2
100
AcDbSymbolTableRecord
100
AcDbLayerTableRecord
  2
Defpoints
 70
     0
 62
     7
  6
Continuous
290
     0
370
    -3
390
F
  0
ENDTAB
  0
TABLE
  2
STYLE
  5
3
330
0
100
AcDbSymbolTable
 70
     2
  0
STYLE
  5
11
330
3
100
AcDbSymbolTableRecord
100
AcDbTextStyleTableRecord
  2
Standard
 70
     0
 40
0.0
 41
1.0
 50
0.0
 71
     0
 42
3.5
  3
txt
  4

  0
STYLE
  5
94
330
3
100
AcDbSymbolTableRecord
100
AcDbTextStyleTableRecord
  2
SLDTEXTSTYLE0
 70
     0
 40
0.0
 41
0.75
 50
0.0
 71
     0
 42
3.5
  3
TXT
  4

  0
ENDTAB
  0
TABLE
  2
VIEW
  5
6
330
0
100
AcDbSymbolTable
 70
     0
  0
ENDTAB
  0
TABLE
  2
UCS
  5
7
330
0
100
AcDbSymbolTable
 70
     0
  0
ENDTAB
  0
TABLE
  2
APPID
  5
9
330
0
100
AcDbSymbolTable
 70
     4
  0
APPID
  5
12
330
9
100
AcDbSymbolTableRecord
100
AcDbRegAppTableRecord
  2
ACAD
 70
     0
  0
APPID
  5
154
330
9
100
AcDbSymbolTableRecord
100
AcDbRegAppTableRecord
  2
PE_URL
 70
     0
  0
APPID
  5
1FF
330
9
100
AcDbSymbolTableRecord
100
AcDbRegAppTableRecord
  2
ACAD_DSTYLE_DIMFLIPARROW_SYMBOL
 70
     0
  0
APPID
  5
200
330
9
100
AcDbSymbolTableRecord
100
AcDbRegAppTableRecord
  2
ACAD_DSTYLE_DIMFLIPARROW_WHICH_SYMBOL
 70
     0
  0
ENDTAB
  0
TABLE
  2
DIMSTYLE
  5
A
330
0
100
AcDbSymbolTable
 70
     3
100
AcDbDimStyleTable
  0
DIMSTYLE
105
27
330
A
100
AcDbSymbolTableRecord
100
AcDbDimStyleTableRecord
  2
ISO-25
 70
     0
 41
2.5
 42
0.625
 43
3.75
 44
1.25
 73
     0
 74
     0
 77
     1
 78
     8
140
2.5
141
2.5
143
0.03937007874016
147
0.625
171
     3
172
     1
178
     0
271
     2
272
     2
274
     3
278
    44
283
     0
284
     8
340
11
  0
DIMSTYLE
105
CC
102
{ACAD_REACTORS
330
CB
330
E0
330
173
330
108
330
F3
102
}
330
A
100
AcDbSymbolTableRecord
100
AcDbDimStyleTableRecord
  2
SLDDIMSTYLE0
 70
     0
 41
3.302
 44
0.0
 45
0.000000001
 73
     0
 74
     0
 77
     1
 78
    12
 79
     3
140
3.5
143
0.0393700787401575
147
0.875
148
0.000000001
170
     1
173
     1
178
     0
271
     2
272
     2
276
     2
284
    12
340
94
  0
DIMSTYLE
105
F4
330
A
100
AcDbSymbolTableRecord
100
AcDbDimStyleTableRecord
  2
SLDDIMSTYLE1
 70
     0
 41
3.302
 44
0.0
 45
0.000000001
 73
     0
 74
     0
 77
     1
 78
    12
 79
     3
140
3.5
143
0.0393700787401575
147
0.875
148
0.000000001
170
     1
172
     1
173
     1
178
     0
271
     2
272
     2
276
     2
284
    12
289
     0
340
94
  0
ENDTAB
  0
TABLE
  2
BLOCK_RECORD
  5
1
330
0
100
AcDbSymbolTable
 70
    10
  0
BLOCK_RECORD
  5
1F
330
1
100
AcDbSymbolTableRecord
100
AcDbBlockTableRecord
  2
*Model_Space
340
22
  0
BLOCK_RECORD
  5
1B
330
1
100
AcDbSymbolTableRecord
100
AcDbBlockTableRecord
  2
*Paper_Space
340
1E
  0
BLOCK_RECORD
  5
23
330
1
100
AcDbSymbolTableRecord
100
AcDbBlockTableRecord
  2
*Paper_Space0
340
26
  0
BLOCK_RECORD
  5
7F
330
1
100
AcDbSymbolTableRecord
100
AcDbBlockTableRecord
  2
블럭10
340
0
102
{BLKREFS
331
C4
102
}
  0
BLOCK_RECORD
  5
CD
330
1
100
AcDbSymbolTableRecord
100
AcDbBlockTableRecord
  2
_D
340
0
  0
BLOCK_RECORD
  5
E1
330
1
100
AcDbSymbolTableRecord
100
AcDbBlockTableRecord
  2
_D_1
340
0
  0
BLOCK_RECORD
  5
F5
330
1
100
AcDbSymbolTableRecord
100
AcDbBlockTableRecord
  2
_D_2
340
0
  0
BLOCK_RECORD
  5
109
330
1
100
AcDbSymbolTableRecord
100
AcDbBlockTableRecord
  2
_D_3
340
0
  0
BLOCK_RECORD
  5
123
330
1
100
AcDbSymbolTableRecord
100
AcDbBlockTableRecord
  2
SW_DOWELSYMBOL_0
340
0
102
{BLKREFS
331
129
102
}
  0
BLOCK_RECORD
  5
188
330
1
100
AcDbSymbolTableRecord
100
AcDbBlockTableRecord
  2
*D8
340
0
  0
BLOCK_RECORD
  5
19A
330
1
100
AcDbSymbolTableRecord
100
AcDbBlockTableRecord
  2
*D9
340
0
  0
ENDTAB
  0
ENDSEC
  0
SECTION
  2
BLOCKS
  0
BLOCK
  5
20
330
1F
100
AcDbEntity
  8
0
100
AcDbBlockBegin
  2
*Model_Space
 70
     0
 10
0.0
 20
0.0
 30
0.0
  3
*Model_Space
  1

  0
ENDBLK
  5
21
330
1F
100
AcDbEntity
  8
0
100
AcDbBlockEnd
  0
BLOCK
  5
1C
330
1B
100
AcDbEntity
 67
     1
  8
0
100
AcDbBlockBegin
  2
*Paper_Space
 70
     0
 10
0.0
 20
0.0
 30
0.0
  3
*Paper_Space
  1

  0
ENDBLK
  5
1D
330
1B
100
AcDbEntity
 67
     1
  8
0
100
AcDbBlockEnd
  0
BLOCK
  5
24
330
23
100
AcDbEntity
  8
0
100
AcDbBlockBegin
  2
*Paper_Space0
 70
     0
 10
0.0
 20
0.0
 30
0.0
  3
*Paper_Space0
  1

  0
ENDBLK
  5
25
330
23
100
AcDbEntity
  8
0
100
AcDbBlockEnd
  0
BLOCK
  5
80
330
7F
100
AcDbEntity
  8
0
100
AcDbBlockBegin
  2
블럭10
 70
     2
 10
0.0
 20
0.0
 30
0.0
  3
블럭10
  1

  0
ELLIPSE
  5
82
330
7F
100
AcDbEntity
  8
중심선
100
AcDbEllipse
 10
20.54032771741204
 20
12.0471743016438
 30
0.0
 11
6.600054785286829
 21
-1.261213355974178E-13
 31
0.0
210
0.0
220
0.0
230
1.0
 40
0.636358354079598
 41
0.9219305317359503
 42
6.513795318482858
  0
ELLIPSE
  5
83
330
7F
100
AcDbEntity
  8
중심선
100
AcDbEllipse
 10
20.54032771746488
 20
12.04717430159265
 30
0.0
 11
3.960054785062283
 21
1.540847449632565E-10
 31
0.0
210
0.0
220
0.0
230
1.0
 40
0.3939339440162632
 41
1.131841032648279
 42
5.62031148352944
  0
LINE
  5
84
330
7F
100
AcDbEntity
  8
중심선
100
AcDbLine
 10
2.268634060543552
 20
16.24717430164393
 30
0.0
 11
5.714909304380834
 21
16.24717430164393
 31
0.0
  0
LINE
  5
85
330
7F
100
AcDbEntity
  8
중심선
100
AcDbLine
 10
5.245725140726316
 20
7.84717430164391
 30
0.0
 11
8.692000384563599
 21
7.84717430164391
 31
0.0
  0
LINE
  5
86
330
7F
100
AcDbEntity
  8
중심선
100
AcDbLine
 10
15.74043728645272
 20
16.24717430164393
 30
0.0
 11
8.692000384563599
 21
7.84717430164391
 31
0.0
  0
LINE
  5
87
330
7F
100
AcDbEntity
  8
중심선
100
AcDbLine
 10
0.1404042013395286
 20
13.71084872107135
 30
0.0
 11
3.58671253028996
 21
13.71088815037384
 31
0.0
  0
LINE
  5
88
330
7F
100
AcDbEntity
  8
중심선
100
AcDbLine
 10
2.750260043222114
 20
10.84717430164391
 30
0.0
 11
6.196535287059397
 21
10.84717430164391
 31
0.0
  0
LINE
  5
89
330
7F
100
AcDbEntity
  8
중심선
100
AcDbLine
 10
12.29416204261559
 20
16.24717430164393
 30
0.0
 11
5.245725140726316
 21
7.84717430164391
 31
0.0
  0
LINE
  5
8A
330
7F
100
AcDbEntity
  8
중심선
100
AcDbLine
 10
10.72767329541681
 20
16.24717430164393
 30
0.0
 11
6.196535287059397
 21
10.84717430164391
 31
0.0
  0
LINE
  5
8B
330
7F
100
AcDbEntity
  8
중심선
100
AcDbLine
 10
7.28139805157953
 20
16.24717430164393
 30
0.0
 11
2.750260043222114
 21
10.84717430164391
 31
0.0
  0
LINE
  5
8C
330
7F
100
AcDbEntity
  8
중심선
100
AcDbLine
 10
5.714909304380834
 20
16.24717430164393
 30
0.0
 11
3.58671253028996
 21
13.71088815037384
 31
0.0
  0
LINE
  5
8D
330
7F
100
AcDbEntity
  8
중심선
100
AcDbLine
 10
2.268634060543552
 20
16.24717430164393
 30
0.0
 11
0.1404042013395286
 21
13.71084872107135
 31
0.0
  0
LINE
  5
8E
330
7F
100
AcDbEntity
  8
중심선
100
AcDbLine
 10
7.28139805157953
 20
16.24717430164393
 30
0.0
 11
10.72767329541681
 21
16.24717430164393
 31
0.0
  0
LINE
  5
8F
330
7F
100
AcDbEntity
  8
중심선
100
AcDbLine
 10
12.29416204261559
 20
16.24717430164393
 30
0.0
 11
15.74043728645272
 21
16.24717430164393
 31
0.0
  0
LINE
  5
90
330
7F
100
AcDbEntity
  8
중심선
100
AcDbLine
 10
19.22036997980202
 20
11.08717430171403
 30
0.0
 11
23.66174974927406
 21
11.08717430171406
 31
0.0
  0
LINE
  5
91
330
7F
100
AcDbEntity
  8
중심선
100
AcDbLine
 10
19.22039502424796
 20
13.00717430171391
 30
0.0
 11
19.22036997980202
 21
11.08717430171403
 31
0.0
  0
LINE
  5
92
330
7F
100
AcDbEntity
  8
중심선
100
AcDbLine
 10
19.22039502424796
 20
13.00717430171391
 30
0.0
 11
26.96566020931264
 21
13.00717430171391
 31
0.0
  0
LINE
  5
93
330
7F
100
AcDbEntity
  8
중심선
100
AcDbLine
 10
22.22332737316547
 20
13.45928029700563
 30
0.0
 11
24.52862924686651
 21
15.39360700705356
 31
0.0
  0
ATTDEF
  5
95
330
7F
100
AcDbEntity
  8
FORMAT
 62
     2
100
AcDbText
 10
4.408487351596664
 20
2.075366912832191
 30
0.0
 40
4.233333333333333
  1
E1013009
 41
0.75
  7
SLDTEXTSTYLE0
 11
4.408487351596664
 21
-0.0412997538344756
 31
0.0
100
AcDbAttributeDefinition
  3

  2
AUTOATTR0
 70
     0
 74
     1
  0
ENDBLK
  5
81
330
7F
100
AcDbEntity
  8
0
100
AcDbBlockEnd
  0
BLOCK
  5
CE
330
CD
100
AcDbEntity
  8
0
100
AcDbBlockBegin
  2
_D
 70
     0
 10
0.0
 20
0.0
 30
0.0
  3
_D
  1

  0
LINE
  5
D0
330
CD
100
AcDbEntity
  8
치수문자_일반주서
 62
     0
370
    -2
100
AcDbLine
 10
28.57499999999999
 20
1.848437500000004
 30
0.0
 11
28.57499999999999
 21
12.38125
 31
0.0
  0
LINE
  5
D1
330
CD
100
AcDbEntity
  8
치수문자_일반주서
 62
     0
370
    -2
100
AcDbLine
 10
18.25624999999999
 20
1.848437500000001
 30
0.0
 11
18.25624999999999
 21
12.38125
 31
0.0
  0
LINE
  5
D2
330
CD
100
AcDbEntity
  8
치수문자_일반주서
 62
     0
370
    -2
100
AcDbLine
 10
28.57499999999999
 20
12.38125
 30
0.0
 11
61.18950000000001
 21
12.38125
 31
0.0
  0
LINE
  5
D3
330
CD
100
AcDbEntity
  8
치수문자_일반주서
 62
     0
370
    -2
100
AcDbLine
 10
28.57499999999999
 20
12.38125
 30
0.0
 11
18.25624999999999
 21
12.38125
 31
0.0
  0
LINE
  5
D4
330
CD
100
AcDbEntity
  8
치수문자_일반주서
 62
     0
370
    -2
100
AcDbLine
 10
31.87699999999999
 20
12.38125
 30
0.0
 11
35.17899999999999
 21
12.38125
 31
0.0
  0
LINE
  5
D5
330
CD
100
AcDbEntity
  8
치수문자_일반주서
 62
     0
370
    -2
100
AcDbLine
 10
14.95424999999999
 20
12.38125
 30
0.0
 11
11.65225
 21
12.38125
 31
0.0
  0
SOLID
  5
D6
330
CD
100
AcDbEntity
  8
치수문자_일반주서
 62
     0
100
AcDbTrace
 10
31.87699999999999
 20
12.93158333333334
 30
0.0
 11
31.87699999999999
 21
11.83091666666667
 31
0.0
 12
28.57499999999999
 22
12.38125
 32
0.0
 13
28.57499999999999
 23
12.38125
 33
0.0
  0
SOLID
  5
D7
330
CD
100
AcDbEntity
  8
치수문자_일반주서
 62
     0
100
AcDbTrace
 10
14.95424999999999
 20
11.83091666666667
 30
0.0
 11
14.95424999999999
 21
12.93158333333334
 31
0.0
 12
18.25624999999999
 22
12.38125
 32
0.0
 13
18.25624999999999
 23
12.38125
 33
0.0
  0
MTEXT
  5
D8
330
CD
100
AcDbEntity
  8
치수문자_일반주서
 62
     0
100
AcDbMText
 10
46.53325000000001
 20
16.75625
 30
0.0
 40
3.5
 41
0.0
 71
     2
 72
     1
  1
\A1;10.32 [13/32]
  7
SLDTEXTSTYLE0
 73
     1
 44
1.0
  0
POINT
  5
D9
330
CD
100
AcDbEntity
  8
Defpoints
 62
     0
100
AcDbPoint
 10
28.57499999999999
 20
1.785937500000004
 30
0.0
  0
POINT
  5
1AD
330
CD
100
AcDbEntity
  8
Defpoints
 62
     0
100
AcDbPoint
 10
18.25624999999999
 20
1.785937500000001
 30
0.0
  0
POINT
  5
1AE
330
CD
100
AcDbEntity
  8
Defpoints
 62
     0
100
AcDbPoint
 10
18.25624999999999
 20
12.38125
 30
0.0
  0
ENDBLK
  5
CF
330
CD
100
AcDbEntity
  8
0
100
AcDbBlockEnd
  0
BLOCK
  5
E2
330
E1
100
AcDbEntity
  8
0
100
AcDbBlockBegin
  2
_D_1
 70
     0
 10
0.0
 20
0.0
 30
0.0
  3
_D_1
  1

  0
LINE
  5
E4
330
E1
100
AcDbEntity
  8
치수문자_일반주서
 62
     0
370
    -2
100
AcDbLine
 10
28.57499999999999
 20
1.848437500000004
 30
0.0
 11
28.57499999999999
 21
22.38125
 31
0.0
  0
LINE
  5
E5
330
E1
100
AcDbEntity
  8
치수문자_일반주서
 62
     0
370
    -2
100
AcDbLine
 10
-28.575
 20
1.848437500000004
 30
0.0
 11
-28.575
 21
22.38125
 31
0.0
  0
LINE
  5
E6
330
E1
100
AcDbEntity
  8
치수문자_일반주서
 62
     0
370
    -2
100
AcDbLine
 10
25.27299999999999
 20
22.38125
 30
0.0
 11
-25.273
 21
22.38125
 31
0.0
  0
SOLID
  5
E7
330
E1
100
AcDbEntity
  8
치수문자_일반주서
 62
     0
100
AcDbTrace
 10
25.27299999999999
 20
21.83091666666667
 30
0.0
 11
25.27299999999999
 21
22.93158333333334
 31
0.0
 12
28.57499999999999
 22
22.38125
 32
0.0
 13
28.57499999999999
 23
22.38125
 33
0.0
  0
SOLID
  5
E8
330
E1
100
AcDbEntity
  8
치수문자_일반주서
 62
     0
100
AcDbTrace
 10
-25.273
 20
22.93158333333334
 30
0.0
 11
-25.273
 21
21.83091666666667
 31
0.0
 12
-28.575
 22
22.38125
 32
0.0
 13
-28.575
 23
22.38125
 33
0.0
  0
MTEXT
  5
E9
330
E1
100
AcDbEntity
  8
치수문자_일반주서
 62
     0
100
AcDbMText
 10
0.2501241026247385
 20
26.75625
 30
0.0
 40
3.5
 41
0.0
 71
     2
 72
     1
  1
\A1;57.15 [2 1/4]
  7
SLDTEXTSTYLE0
 73
     1
 44
1.0
  0
POINT
  5
EA
330
E1
100
AcDbEntity
  8
Defpoints
 62
     0
100
AcDbPoint
 10
28.57499999999999
 20
1.785937500000004
 30
0.0
  0
POINT
  5
EB
330
E1
100
AcDbEntity
  8
Defpoints
 62
     0
100
AcDbPoint
 10
-28.575
 20
1.785937500000004
 30
0.0
  0
POINT
  5
EC
330
E1
100
AcDbEntity
  8
Defpoints
 62
     0
100
AcDbPoint
 10
-28.575
 20
22.38125
 30
0.0
  0
ENDBLK
  5
E3
330
E1
100
AcDbEntity
  8
0
100
AcDbBlockEnd
  0
BLOCK
  5
F6
330
F5
100
AcDbEntity
  8
0
100
AcDbBlockBegin
  2
_D_2
 70
     0
 10
0.0
 20
0.0
 30
0.0
  3
_D_2
  1

  0
LINE
  5
F8
330
F5
100
AcDbEntity
  8
치수문자_일반주서
 62
     0
370
    -2
100
AcDbLine
 10
-15.09701350361913
 20
2.381249999999999
 30
0.0
 11
-38.57500000000001
 21
2.381249999999909
 31
0.0
  0
LINE
  5
F9
330
F5
100
AcDbEntity
  8
치수문자_일반주서
 62
     0
370
    -2
100
AcDbLine
 10
-15.09701350361913
 20
-2.381250000000001
 30
0.0
 11
-38.575
 21
-2.38125000000009
 31
0.0
  0
LINE
  5
FA
330
F5
100
AcDbEntity
  8
치수문자_일반주서
 62
     0
370
    -2
100
AcDbLine
 10
-38.57500000000001
 20
2.381249999999909
 30
0.0
 11
-38.57500000000012
 21
36.98524999999997
 31
0.0
  0
LINE
  5
FB
330
F5
100
AcDbEntity
  8
치수문자_일반주서
 62
     0
370
    -2
100
AcDbLine
 10
-38.57500000000002
 20
5.683249999999909
 30
0.0
 11
-38.57500000000002
 21
8.985249999999908
 31
0.0
  0
LINE
  5
FC
330
F5
100
AcDbEntity
  8
치수문자_일반주서
 62
     0
370
    -2
100
AcDbLine
 10
-38.57499999999999
 20
-5.68325000000009
 30
0.0
 11
-38.57499999999998
 21
-8.98525000000009
 31
0.0
  0
SOLID
  5
FD
330
F5
100
AcDbEntity
  8
치수문자_일반주서
 62
     0
100
AcDbTrace
 10
-39.12533333333335
 20
5.683249999999907
 30
0.0
 11
-38.02466666666668
 21
5.68324999999991
 31
0.0
 12
-38.57500000000001
 22
2.381249999999909
 32
0.0
 13
-38.57500000000001
 23
2.381249999999909
 33
0.0
  0
SOLID
  5
FE
330
F5
100
AcDbEntity
  8
치수문자_일반주서
 62
     0
100
AcDbTrace
 10
-38.02466666666665
 20
-5.683250000000088
 30
0.0
 11
-39.12533333333332
 21
-5.683250000000092
 31
0.0
 12
-38.575
 22
-2.38125000000009
 32
0.0
 13
-38.575
 23
-2.38125000000009
 33
0.0
  0
MTEXT
  5
FF
330
F5
100
AcDbEntity
  8
치수문자_일반주서
 62
     0
100
AcDbMText
 10
-42.95000000000007
 20
22.98524999999995
 30
0.0
 40
3.5
 41
0.0
 71
     2
 72
     1
  1
\A1;%%c4.76 [3/16]
  7
SLDTEXTSTYLE0
 11
-2.983906501879686E-15
 21
1.0
 31
0.0
 73
     1
 44
1.0
  0
POINT
  5
100
330
F5
100
AcDbEntity
  8
Defpoints
 62
     0
100
AcDbPoint
 10
-15.03451350361913
 20
2.38125
 30
0.0
  0
POINT
  5
101
330
F5
100
AcDbEntity
  8
Defpoints
 62
     0
100
AcDbPoint
 10
-15.03451350361913
 20
-2.381250000000001
 30
0.0
  0
POINT
  5
1AC
330
F5
100
AcDbEntity
  8
Defpoints
 62
     0
100
AcDbPoint
 10
-38.575
 20
-2.381250000000089
 30
0.0
  0
ENDBLK
  5
F7
330
F5
100
AcDbEntity
  8
0
100
AcDbBlockEnd
  0
BLOCK
  5
10A
330
109
100
AcDbEntity
  8
0
100
AcDbBlockBegin
  2
_D_3
 70
     0
 10
0.0
 20
0.0
 30
0.0
  3
_D_3
  1

  0
LINE
  5
10C
330
109
100
AcDbEntity
  8
치수문자_일반주서
 62
     0
370
    -2
100
AcDbLine
 10
28.63749999999999
 20
1.785937500000004
 30
0.0
 11
67.79301092629031
 21
1.785937500000149
 31
0.0
  0
LINE
  5
10D
330
109
100
AcDbEntity
  8
치수문자_일반주서
 62
     0
370
    -2
100
AcDbLine
 10
28.63749999999999
 20
-1.785937499999996
 30
0.0
 11
67.79301092629032
 21
-1.78593749999985
 31
0.0
  0
LINE
  5
10E
330
109
100
AcDbEntity
  8
치수문자_일반주서
 62
     0
370
    -2
100
AcDbLine
 10
67.79301092629031
 20
1.785937500000149
 30
0.0
 11
67.79301092629017
 21
37.67009665355937
 31
0.0
  0
LINE
  5
10F
330
109
100
AcDbEntity
  8
치수문자_일반주서
 62
     0
370
    -2
100
AcDbLine
 10
67.7930109262903
 20
5.087937500000148
 30
0.0
 11
67.79301092629028
 21
8.389937500000148
 31
0.0
  0
LINE
  5
110
330
109
100
AcDbEntity
  8
치수문자_일반주서
 62
     0
370
    -2
100
AcDbLine
 10
67.79301092629034
 20
-5.08793749999985
 30
0.0
 11
67.79301092629035
 21
-8.38993749999985
 31
0.0
  0
SOLID
  5
111
330
109
100
AcDbEntity
  8
치수문자_일반주서
 62
     0
100
AcDbTrace
 10
67.24267759295697
 20
5.087937500000146
 30
0.0
 11
68.34334425962362
 21
5.08793750000015
 31
0.0
 12
67.79301092629031
 22
1.785937500000149
 32
0.0
 13
67.79301092629031
 23
1.785937500000149
 33
0.0
  0
SOLID
  5
112
330
109
100
AcDbEntity
  8
치수문자_일반주서
 62
     0
100
AcDbTrace
 10
68.34334425962366
 20
-5.087937499999848
 30
0.0
 11
67.24267759295701
 21
-5.087937499999851
 31
0.0
 12
67.79301092629032
 22
-1.78593749999985
 32
0.0
 13
67.79301092629032
 23
-1.78593749999985
 33
0.0
  0
MTEXT
  5
113
330
109
100
AcDbEntity
  8
치수문자_일반주서
 62
     0
100
AcDbMText
 10
63.41801092629022
 20
23.23259665355935
 30
0.0
 40
3.5
 41
0.0
 71
     2
 72
     1
  1
\A1;%%c3.57 [9/64]
  7
SLDTEXTSTYLE0
 11
-3.978542002506248E-15
 21
1.0
 31
0.0
 73
     1
 44
1.0
  0
POINT
  5
114
330
109
100
AcDbEntity
  8
Defpoints
 62
     0
100
AcDbPoint
 10
28.57499999999999
 20
1.785937500000004
 30
0.0
  0
POINT
  5
115
330
109
100
AcDbEntity
  8
Defpoints
 62
     0
100
AcDbPoint
 10
28.57499999999999
 20
-1.785937499999996
 30
0.0
  0
POINT
  5
116
330
109
100
AcDbEntity
  8
Defpoints
 62
     0
100
AcDbPoint
 10
67.79301092629032
 20
-1.78593749999985
 30
0.0
  0
ENDBLK
  5
10B
330
109
100
AcDbEntity
  8
0
100
AcDbBlockEnd
  0
BLOCK
  5
124
330
123
100
AcDbEntity
  8
0
100
AcDbBlockBegin
  2
SW_DOWELSYMBOL_0
 70
     0
 10
0.0
 20
0.0
 30
0.0
  3
SW_DOWELSYMBOL_0
  1

  0
CIRCLE
  5
126
330
123
100
AcDbEntity
  8
해칭선
 62
     0
100
AcDbCircle
 10
0.0
 20
0.0
 30
0.0
 40
3.000000000000001
  0
HATCH
  5
127
330
123
100
AcDbEntity
  8
0
  6
Continuous
 62
     0
370
     0
100
AcDbHatch
 10
0.0
 20
0.0
 30
0.0
210
0.0
220
0.0
230
1.0
  2
SOLID
 70
     1
 71
     0
 91
        1
 92
        0
 93
        3
 72
     2
 10
0.0
 20
0.0
 40
3.000000000000001
 50
0.0
 51
90.0
 73
     1
 72
     1
 10
0.0
 20
3.000000000000001
 11
0.0
 21
0.0
 72
     1
 10
0.0
 20
0.0
 11
3.000000000000001
 21
0.0
 97
        0
 75
     0
 76
     1
 98
        1
 10
0.0
 20
0.0
  0
HATCH
  5
128
330
123
100
AcDbEntity
  8
0
  6
Continuous
 62
     0
370
     0
100
AcDbHatch
 10
0.0
 20
0.0
 30
0.0
210
0.0
220
0.0
230
1.0
  2
SOLID
 70
     1
 71
     0
 91
        1
 92
        0
 93
        3
 72
     2
 10
0.0
 20
0.0
 40
3.000000000000001
 50
180.0
 51
270.0000000000008
 73
     1
 72
     1
 10
0.0
 20
-3.000000000000001
 11
0.0
 21
0.0
 72
     1
 10
0.0
 20
0.0
 11
-3.000000000000001
 21
0.0
 97
        0
 75
     0
 76
     1
 98
        1
 10
0.0
 20
0.0
  0
ENDBLK
  5
125
330
123
100
AcDbEntity
  8
0
100
AcDbBlockEnd
  0
BLOCK
  5
189
330
188
100
AcDbEntity
  8
0
100
AcDbBlockBegin
  2
*D8
 70
     1
 10
0.0
 20
0.0
 30
0.0
  3
*D8
  1

  0
LINE
  5
18B
330
188
100
AcDbEntity
  8
치수문자_일반주서
 62
     0
370
    -2
100
AcDbLine
 10
16.12899999999999
 20
2.314062027106202
 30
0.0
 11
16.12899999999999
 21
13.0453120271062
 31
0.0
  0
LINE
  5
18C
330
188
100
AcDbEntity
  8
치수문자_일반주서
 62
     0
370
    -2
100
AcDbLine
 10
6.604000000000001
 20
2.31406202710619
 30
0.0
 11
6.603999999999999
 21
13.0453120271062
 31
0.0
  0
LINE
  5
18D
330
188
100
AcDbEntity
  8
치수문자_일반주서
 62
     0
370
    -2
100
AcDbLine
 10
16.12899999999999
 20
13.0453120271062
 30
0.0
 11
43.27475
 21
13.0453120271062
 31
0.0
  0
LINE
  5
18E
330
188
100
AcDbEntity
  8
치수문자_일반주서
 62
     0
370
    -2
100
AcDbLine
 10
16.12899999999999
 20
13.0453120271062
 30
0.0
 11
6.603999999999999
 21
13.0453120271062
 31
0.0
  0
LINE
  5
18F
330
188
100
AcDbEntity
  8
치수문자_일반주서
 62
     0
370
    -2
100
AcDbLine
 10
19.43099999999999
 20
13.0453120271062
 30
0.0
 11
22.73299999999999
 21
13.0453120271062
 31
0.0
  0
LINE
  5
190
330
188
100
AcDbEntity
  8
치수문자_일반주서
 62
     0
370
    -2
100
AcDbLine
 10
3.302
 20
13.0453120271062
 30
0.0
 11
0.0
 21
13.0453120271062
 31
0.0
  0
SOLID
  5
191
330
188
100
AcDbEntity
  8
치수문자_일반주서
 62
     0
100
AcDbTrace
 10
19.43099999999999
 20
13.59564536043953
 30
0.0
 11
19.43099999999999
 21
12.49497869377287
 31
0.0
 12
16.12899999999999
 22
13.0453120271062
 32
0.0
 13
16.12899999999999
 23
13.0453120271062
 33
0.0
  0
SOLID
  5
192
330
188
100
AcDbEntity
  8
치수문자_일반주서
 62
     0
100
AcDbTrace
 10
3.302
 20
12.49497869377287
 30
0.0
 11
3.302
 21
13.59564536043953
 31
0.0
 12
6.603999999999999
 22
13.0453120271062
 32
0.0
 13
6.603999999999999
 23
13.0453120271062
 33
0.0
  0
MTEXT
  5
193
330
188
100
AcDbEntity
  8
치수문자_일반주서
 62
     0
100
AcDbMText
 10
31.46225
 20
17.4203120271062
 30
0.0
 40
3.5
 41
0.0
 71
     2
 72
     1
  1
\A1;9.53 [3/8]
  7
SLDTEXTSTYLE0
 73
     1
 44
1.0
  0
POINT
  5
194
330
188
100
AcDbEntity
  8
Defpoints
 62
     0
100
AcDbPoint
 10
16.12899999999999
 20
2.251562027106202
 30
0.0
  0
POINT
  5
195
330
188
100
AcDbEntity
  8
Defpoints
 62
     0
100
AcDbPoint
 10
6.604000000000001
 20
2.25156202710619
 30
0.0
  0
POINT
  5
196
330
188
100
AcDbEntity
  8
Defpoints
 62
     0
100
AcDbPoint
 10
6.604000000000001
 20
13.0453120271062
 30
0.0
  0
ENDBLK
  5
18A
330
188
100
AcDbEntity
  8
0
100
AcDbBlockEnd
  0
BLOCK
  5
19B
330
19A
100
AcDbEntity
  8
0
100
AcDbBlockBegin
  2
*D9
 70
     1
 10
0.0
 20
0.0
 30
0.0
  3
*D9
  1

  0
LINE
  5
19D
330
19A
100
AcDbEntity
  8
치수문자_일반주서
 62
     0
370
    -2
100
AcDbLine
 10
72.0518353711054
 20
-17.06356102477575
 30
0.0
 11
72.0518353711054
 21
-6.332311024775755
 31
0.0
  0
LINE
  5
19E
330
19A
100
AcDbEntity
  8
치수문자_일반주서
 62
     0
370
    -2
100
AcDbLine
 10
62.52683537110541
 20
-17.06356102477577
 30
0.0
 11
62.52683537110541
 21
-6.332311024775755
 31
0.0
  0
LINE
  5
19F
330
19A
100
AcDbEntity
  8
치수문자_일반주서
 62
     0
370
    -2
100
AcDbLine
 10
72.0518353711054
 20
-6.332311024775755
 30
0.0
 11
99.19758537110542
 21
-6.332311024775755
 31
0.0
  0
LINE
  5
1A0
330
19A
100
AcDbEntity
  8
치수문자_일반주서
 62
     0
370
    -2
100
AcDbLine
 10
72.0518353711054
 20
-6.332311024775755
 30
0.0
 11
62.52683537110541
 21
-6.332311024775755
 31
0.0
  0
LINE
  5
1A1
330
19A
100
AcDbEntity
  8
치수문자_일반주서
 62
     0
370
    -2
100
AcDbLine
 10
75.35383537110539
 20
-6.332311024775755
 30
0.0
 11
78.65583537110538
 21
-6.332311024775755
 31
0.0
  0
LINE
  5
1A2
330
19A
100
AcDbEntity
  8
치수문자_일반주서
 62
     0
370
    -2
100
AcDbLine
 10
59.22483537110541
 20
-6.332311024775755
 30
0.0
 11
55.92283537110541
 21
-6.332311024775755
 31
0.0
  0
SOLID
  5
1A3
330
19A
100
AcDbEntity
  8
치수문자_일반주서
 62
     0
100
AcDbTrace
 10
75.35383537110539
 20
-5.781977691442422
 30
0.0
 11
75.35383537110539
 21
-6.882644358109089
 31
0.0
 12
72.0518353711054
 22
-6.332311024775755
 32
0.0
 13
72.0518353711054
 23
-6.332311024775755
 33
0.0
  0
SOLID
  5
1A4
330
19A
100
AcDbEntity
  8
치수문자_일반주서
 62
     0
100
AcDbTrace
 10
59.22483537110541
 20
-6.882644358109089
 30
0.0
 11
59.22483537110541
 21
-5.781977691442422
 31
0.0
 12
62.52683537110541
 22
-6.332311024775755
 32
0.0
 13
62.52683537110541
 23
-6.332311024775755
 33
0.0
  0
MTEXT
  5
1A5
330
19A
100
AcDbEntity
  8
치수문자_일반주서
 62
     0
100
AcDbMText
 10
87.38508537110542
 20
-1.957311024775755
 30
0.0
 40
3.5
 41
0.0
 71
     2
 72
     1
  1
\A1;9.53 [3/8]
  7
SLDTEXTSTYLE0
 73
     1
 44
1.0
  0
POINT
  5
1A6
330
19A
100
AcDbEntity
  8
Defpoints
 62
     0
100
AcDbPoint
 10
72.0518353711054
 20
-17.12606102477575
 30
0.0
  0
POINT
  5
1A7
330
19A
100
AcDbEntity
  8
Defpoints
 62
     0
100
AcDbPoint
 10
62.52683537110541
 20
-17.12606102477577
 30
0.0
  0
POINT
  5
1A8
330
19A
100
AcDbEntity
  8
Defpoints
 62
     0
100
AcDbPoint
 10
62.52683537110541
 20
-6.332311024775755
 30
0.0
  0
ENDBLK
  5
19C
330
19A
100
AcDbEntity
  8
0
100
AcDbBlockEnd
  0
ENDSEC
  0
SECTION
  2
ENTITIES
  0
LINE
  5
96
330
1F
100
AcDbEntity
  8
외형선
  6
Continuous
370
    15
100
AcDbLine
 10
15.03451350361915
 20
2.381250000000004
 30
0.0
 11
-15.03451350361913
 21
2.38125
 31
0.0
  0
LINE
  5
97
330
1F
100
AcDbEntity
  8
외형선
  6
Continuous
370
    15
100
AcDbLine
 10
-15.03451350361913
 20
-2.381250000000001
 30
0.0
 11
15.03451350361915
 21
-2.381249999999997
 31
0.0
  0
LINE
  5
9A
330
1F
100
AcDbEntity
  8
외형선
  6
Continuous
370
    15
100
AcDbLine
 10
15.03451350361915
 20
-2.381249999999997
 30
0.0
 11
17.25624999999999
 21
-1.785937499999997
 31
0.0
  0
LINE
  5
9B
330
1F
100
AcDbEntity
  8
외형선
  6
Continuous
370
    15
100
AcDbLine
 10
17.25624999999999
 20
1.785937500000004
 30
0.0
 11
15.03451350361915
 21
2.381250000000003
 31
0.0
  0
LINE
  5
9C
330
1F
100
AcDbEntity
  8
외형선
  6
Continuous
370
    15
100
AcDbLine
 10
18.25624999999999
 20
1.785937500000004
 30
0.0
 11
17.25624999999999
 21
1.785937500000003
 31
0.0
  0
LINE
  5
9D
330
1F
100
AcDbEntity
  8
외형선
  6
Continuous
370
    15
100
AcDbLine
 10
17.25624999999999
 20
-1.785937499999997
 30
0.0
 11
18.25624999999999
 21
-1.785937499999996
 31
0.0
  0
LINE
  5
9E
330
1F
100
AcDbEntity
  8
0
  6
Continuous
 62
     1
370
    15
100
AcDbLine
 10
26.43177914348912
 20
-1.785937499999996
 30
0.0
 11
26.78906249999999
 21
-1.785937499999996
 31
0.0
1001
PE_URL
1000

  0
LINE
  5
9F
330
1F
100
AcDbEntity
  8
0
  6
Continuous
 62
     1
370
    15
100
AcDbLine
 10
20.59607666173986
 20
1.785937500000003
 30
0.0
 11
18.25624999999999
 21
1.785937500000003
 31
0.0
1001
PE_URL
1000

  0
ARC
  5
A0
330
1F
100
AcDbEntity
  8
0
  6
Continuous
 62
     1
370
    15
100
AcDbCircle
 10
26.78906249999999
 20
0.0000000000000035
 30
0.0
 40
1.7859375
100
AcDbArc
 50
270.0000000000008
 51
0.0
1001
PE_URL
1000

  0
ARC
  5
A1
330
1F
100
AcDbEntity
  8
0
  6
Continuous
 62
     1
370
    15
100
AcDbCircle
 10
26.78906249999999
 20
0.0000000000000035
 30
0.0
 40
1.7859375
100
AcDbArc
 50
0.0
 51
90.0
1001
PE_URL
1000

  0
LINE
  5
A2
330
1F
100
AcDbEntity
  8
0
  6
Continuous
 62
     1
370
    15
100
AcDbLine
 10
18.25624999999999
 20
-1.785937499999996
 30
0.0
 11
20.59607666173986
 21
-1.785937499999996
 31
0.0
1001
PE_URL
1000

  0
LINE
  5
A3
330
1F
100
AcDbEntity
  8
0
  6
Continuous
 62
     1
370
    15
100
AcDbLine
 10
26.78906249999999
 20
1.785937500000003
 30
0.0
 11
26.43177914348911
 21
1.785937500000003
 31
0.0
1001
PE_URL
1000

  0
LINE
  5
A4
330
1F
100
AcDbEntity
  8
외형선
  6
Continuous
370
    15
100
AcDbLine
 10
15.03451350361915
 20
2.381250000000003
 30
0.0
 11
15.03451350361915
 21
-2.381249999999999
 31
0.0
  0
LINE
  5
A7
330
1F
100
AcDbEntity
  8
외형선
  6
Continuous
370
    15
100
AcDbLine
 10
17.25624999999999
 20
1.785937500000004
 30
0.0
 11
17.25624999999999
 21
-1.785937499999998
 31
0.0
  0
LINE
  5
A8
330
1F
100
AcDbEntity
  8
외형선
  6
Continuous
370
    15
100
AcDbLine
 10
18.25624999999999
 20
1.785937500000004
 30
0.0
 11
18.25624999999999
 21
1.568368225468006
 31
0.0
  0
SPLINE
  5
A9
330
1F
100
AcDbEntity
  8
외형선
  6
Continuous
370
    15
100
AcDbSpline
210
0.0
220
0.0
230
1.0
 70
     8
 71
     3
 72
    10
 73
     6
 74
     0
 42
0.000000001
 43
0.00000001
 40
0.0
 40
0.0
 40
0.0
 40
0.0
 40
0.4999999999999999
 40
0.4999999999999999
 40
1.0
 40
1.0
 40
1.0
 40
1.0
 10
17.36623196063547
 20
1.746352001022353
 30
0.0
 10
17.5155524265337
 20
1.728374644043417
 30
0.0
 10
17.66503834656247
 20
1.70430559406438
 30
0.0
 10
17.95973695106673
 20
1.644884503300754
 30
0.0
 10
18.10706998984568
 20
1.609425821849158
 30
0.0
 10
18.25624999999862
 20
1.568368225468384
 30
0.0
  0
SPLINE
  5
AA
330
1F
100
AcDbEntity
  8
외형선
  6
Continuous
370
    15
100
AcDbSpline
210
0.0
220
0.0
230
1.0
 70
     8
 71
     3
 72
    10
 73
     6
 74
     0
 42
0.000000001
 43
0.00000001
 40
0.0
 40
0.0
 40
0.0
 40
0.0
 40
0.5
 40
0.5
 40
1.0
 40
1.0
 40
1.0
 40
1.0
 10
18.25624999999999
 20
-1.299216265704913
 30
0.0
 10
18.10706308347726
 20
-1.240319414473874
 30
0.0
 10
17.95972350468818
 20
-1.177170409342675
 30
0.0
 10
17.66501086321938
 20
-1.043247315114287
 30
0.0
 10
17.51551783030802
 20
-0.9721278754572935
 30
0.0
 10
17.3661904834077
 20
-0.8979041424016581
 30
0.0
  0
LINE
  5
AB
330
1F
100
AcDbEntity
  8
외형선
  6
Continuous
370
    15
100
AcDbLine
 10
18.25624999999999
 20
-1.299216265704911
 30
0.0
 11
18.25624999999999
 21
-1.785937499999996
 31
0.0
  0
LINE
  5
AC
330
1F
100
AcDbEntity
  8
외형선
  6
Continuous
370
    15
100
AcDbLine
 10
17.3661904834077
 20
-0.897999327435266
 30
0.0
 11
17.36619048340769
 21
1.746370258238734
 31
0.0
  0
SPLINE
  5
AD
330
1F
100
AcDbEntity
  8
외형선
  6
Continuous
370
    15
100
AcDbSpline
210
0.0
220
0.0
230
1.0
 70
    24
 71
     3
 72
    14
 73
    10
 74
     0
 42
0.000000001
 43
0.00000001
 40
0.0
 40
0.0
 40
0.0
 40
0.0
 40
0.2499999999999998
 40
0.2499999999999998
 40
0.4999999999999998
 40
0.4999999999999998
 40
0.75
 40
0.75
 40
1.0
 40
1.0
 40
1.0
 40
1.0
 10
18.25624999999999
 20
0.2345439048519195
 30
0.0
 10
18.25624999999999
 20
0.1536694851679484
 30
0.0
 10
18.25624999999999
 20
0.0553428815479389
 30
0.0
 10
18.25624999999999
 20
-0.1770823846618077
 30
0.0
 10
18.25624999999999
 20
-0.3114798244924337
 30
0.0
 10
18.25624999999999
 20
-0.6002648092042615
 30
0.0
 10
18.25624999999999
 20
-0.7543230842832954
 30
0.0
 10
18.25624999999999
 20
-1.047390179422694
 30
0.0
 10
18.25624999999999
 20
-1.185450835629891
 30
0.0
 10
18.25624999999999
 20
-1.299216265704174
 30
0.0
  0
SPLINE
  5
AE
330
1F
100
AcDbEntity
  8
외형선
  6
Continuous
370
    15
100
AcDbSpline
210
0.0
220
0.0
230
1.0
 70
     8
 71
     3
 72
    10
 73
     6
 74
     0
 42
0.000000001
 43
0.00000001
 40
0.0
 40
0.0
 40
0.0
 40
0.0
 40
0.5
 40
0.5
 40
1.0
 40
1.0
 40
1.0
 40
1.0
 10
18.25624999999998
 20
0.2345439048519211
 30
0.0
 10
18.10706308347726
 20
0.2919014288743991
 30
0.0
 10
17.95972350468818
 20
0.3482085945850725
 30
0.0
 10
17.66501086321937
 20
0.4580566367238969
 30
0.0
 10
17.51551783030802
 20
0.511852510956953
 30
0.0
 10
17.36619048340769
 20
0.5636665027015892
 30
0.0
  0
SPLINE
  5
AF
330
1F
100
AcDbEntity
  8
외형선
  6
Continuous
370
    15
100
AcDbSpline
210
0.0
220
0.0
230
1.0
 70
    24
 71
     3
 72
    14
 73
    10
 74
     0
 42
0.000000001
 43
0.00000001
 40
0.0
 40
0.0
 40
0.0
 40
0.0
 40
0.25
 40
0.25
 40
0.5
 40
0.5
 40
0.75
 40
0.75
 40
1.0
 40
1.0
 40
1.0
 40
1.0
 10
18.25624999999998
 20
1.568368225452442
 30
0.0
 10
18.25624999999998
 20
1.444113330579682
 30
0.0
 10
18.25624999999998
 20
1.306082943139287
 30
0.0
 10
18.25624999999999
 20
1.031601963850872
 30
0.0
 10
18.25624999999998
 20
0.8958047542458825
 30
0.0
 10
18.25624999999999
 20
0.651794212646741
 30
0.0
 10
18.25624999999999
 20
0.5436832316422125
 30
0.0
 10
18.25624999999999
 20
0.3635596140887497
 30
0.0
 10
18.25624999999998
 20
0.2912625976078936
 30
0.0
 10
18.25624999999999
 20
0.2345439048519189
 30
0.0
  0
SPLINE
  5
B0
330
1F
100
AcDbEntity
  8
0
  6
Continuous
 62
     1
370
    15
100
AcDbSpline
210
0.0
220
0.0
230
1.0
 70
     8
 71
     3
 72
    15
 73
    11
 74
     0
 42
0.000000001
 43
0.00000001
 40
0.0
 40
0.0
 40
0.0
 40
0.0
 40
0.1285593135129093
 40
0.2570195053637817
 40
0.3854951343152981
 40
0.5141005258317889
 40
0.6429067539181993
 40
0.7715671257109143
 40
0.8926911828656066
 40
1.0
 40
1.0
 40
1.0
 40
1.0
 10
26.78906249999999
 20
-0.7470697804944734
 30
0.0
 10
26.52365837776948
 20
-0.603096093190532
 30
0.0
 10
25.99305476490602
 20
-0.3152597250183967
 30
0.0
 10
25.1974155318897
 20
0.1507226787889361
 30
0.0
 10
24.40163566432818
 20
0.6032793237532463
 30
0.0
 10
23.60501280258719
 20
1.016958955087816
 30
0.0
 10
22.80760322853093
 20
1.3637300877696
 30
0.0
 10
22.02590375637761
 20
1.613246996703862
 30
0.0
 10
21.28898011177778
 20
1.762425211012097
 30
0.0
 10
20.81754051776757
 20
1.774826096111039
 30
0.0
 10
20.59607666173986
 20
1.780651546215489
 30
0.0
1001
PE_URL
1000

  0
SPLINE
  5
B1
330
1F
100
AcDbEntity
  8
0
  6
Continuous
 62
     1
370
    15
100
AcDbSpline
210
0.0
220
0.0
230
1.0
 70
     8
 71
     3
 72
    13
 73
     9
 74
     0
 42
0.000000001
 43
0.00000001
 40
0.0
 40
0.0
 40
0.0
 40
0.0
 40
0.1573760565304923
 40
0.3149844710500831
 40
0.4728651424550522
 40
0.6628386358681373
 40
0.8527982637167498
 40
1.0
 40
1.0
 40
1.0
 40
1.0
 10
28.09689216472282
 20
0.1872423267046869
 30
0.0
 10
27.83900860337272
 20
0.286401842772922
 30
0.0
 10
27.3228607283074
 20
0.4848672790464734
 30
0.0
 10
26.54788026776785
 20
0.7489447704470327
 30
0.0
 10
25.71927935286405
 20
0.9825012922313888
 30
0.0
 10
24.83773826548364
 20
1.152273527777672
 30
0.0
 10
23.97368192555764
 20
1.233970369218356
 30
0.0
 10
23.42103015006587
 20
1.202280372056806
 30
0.0
 10
23.17974716344052
 20
1.188444793306545
 30
0.0
1001
PE_URL
1000

  0
SPLINE
  5
B2
330
1F
100
AcDbEntity
  8
0
  6
Continuous
 62
     1
370
    15
100
AcDbSpline
210
0.0
220
0.0
230
1.0
 70
     8
 71
     3
 72
    22
 73
    18
 74
     0
 42
0.000000001
 43
0.00000001
 40
0.0
 40
0.0
 40
0.0
 40
0.0
 40
0.125
 40
0.125
 40
0.25
 40
0.25
 40
0.375
 40
0.375
 40
0.5
 40
0.5
 40
0.625
 40
0.625
 40
0.75
 40
0.75
 40
0.875
 40
0.875
 40
1.0
 40
1.0
 40
1.0
 40
1.0
 10
26.78906249999999
 20
-0.7470697804944727
 30
0.0
 10
26.88820791658417
 20
-0.7991407018168518
 30
0.0
 10
26.98589828978089
 20
-0.8455870293674237
 30
0.0
 10
27.18079740220216
 20
-0.9238375954969295
 30
0.0
 10
27.27903870100292
 20
-0.9559333460616717
 30
0.0
 10
27.4729197899743
 20
-0.9973604916357021
 30
0.0
 10
27.56781727391761
 20
-1.007132677320141
 30
0.0
 10
27.75822111854263
 20
-0.9933409974827523
 30
0.0
 10
27.8510867654841
 20
-0.969570189078168
 30
0.0
 10
28.02618337273097
 20
-0.8747685596379317
 30
0.0
 10
28.10759719318833
 20
-0.8029508432725719
 30
0.0
 10
28.23138578359422
 20
-0.6122954605983985
 30
0.0
 10
28.26865275663505
 20
-0.4993188831784193
 30
0.0
 10
28.28745233491629
 20
-0.2784516538521983
 30
0.0
 10
28.2704875267451
 20
-0.1743564893424952
 30
0.0
 10
28.20488052760408
 20
0.0162945304888069
 30
0.0
 10
28.15629395367886
 20
0.1038261699867458
 30
0.0
 10
28.0968921647178
 20
0.1872423267066275
 30
0.0
1001
PE_URL
1000

  0
SPLINE
  5
B3
330
1F
100
AcDbEntity
  8
0
  6
Continuous
 62
     1
370
    15
100
AcDbSpline
210
0.0
220
0.0
230
1.0
 70
     8
 71
     3
 72
    13
 73
     9
 74
     0
 42
0.000000001
 43
0.00000001
 40
0.0
 40
0.0
 40
0.0
 40
0.0
 40
0.1639761388948076
 40
0.3296440633446244
 40
0.4953039402105561
 40
0.6609571312922927
 40
0.8304789906189834
 40
1.0
 40
1.0
 40
1.0
 40
1.0
 10
23.89400683083066
 20
-1.213612805267991
 30
0.0
 10
23.58585410186566
 20
-1.210326291876969
 30
0.0
 10
22.96636935005112
 20
-1.203719357259806
 30
0.0
 10
22.03557541895276
 20
-1.055858539818188
 30
0.0
 10
21.10163003028129
 20
-0.8199356124611402
 30
0.0
 10
20.16046068319437
 20
-0.5056421309789424
 30
0.0
 10
19.21198266468002
 20
-0.1407115887363863
 30
0.0
 10
18.5748270224654
 20
0.1094589493731046
 30
0.0
 10
18.25624999999999
 20
0.2345439048519186
 30
0.0
1001
PE_URL
1000

  0
SPLINE
  5
B4
330
1F
100
AcDbEntity
  8
외형선
  6
Continuous
370
    15
100
AcDbSpline
210
0.0
220
0.0
230
1.0
 70
    24
 71
     3
 72
    14
 73
    10
 74
     0
 42
0.000000001
 43
0.00000001
 40
0.0
 40
0.0
 40
0.0
 40
0.0
 40
0.25
 40
0.25
 40
0.5
 40
0.5
 40
0.75
 40
0.75
 40
1.0
 40
1.0
 40
1.0
 40
1.0
 10
18.25624999999998
 20
1.568368225452442
 30
0.0
 10
18.25624999999998
 20
1.444113330579682
 30
0.0
 10
18.25624999999998
 20
1.306082943139287
 30
0.0
 10
18.25624999999999
 20
1.031601963850872
 30
0.0
 10
18.25624999999998
 20
0.8958047542458825
 30
0.0
 10
18.25624999999999
 20
0.651794212646741
 30
0.0
 10
18.25624999999999
 20
0.5436832316422125
 30
0.0
 10
18.25624999999999
 20
0.3635596140887497
 30
0.0
 10
18.25624999999998
 20
0.2912625976078936
 30
0.0
 10
18.25624999999999
 20
0.2345439048519189
 30
0.0
  0
SPLINE
  5
B5
330
1F
100
AcDbEntity
  8
0
  6
Continuous
 62
     1
370
    15
100
AcDbSpline
210
0.0
220
0.0
230
1.0
 70
     8
 71
     3
 72
    23
 73
    19
 74
     0
 42
0.000000001
 43
0.00000001
 40
0.0
 40
0.0
 40
0.0
 40
0.0
 40
0.0767658232392962
 40
0.1543254368991733
 40
0.2171274040019514
 40
0.2803629058285099
 40
0.3431648939057285
 40
0.406400975134483
 40
0.4691930910179938
 40
0.5324198915895177
 40
0.595128830306647
 40
0.6582717021006325
 40
0.7208788526837475
 40
0.7839188964467216
 40
0.8476928844291927
 40
0.9119257880310856
 40
0.9775752410047346
 40
1.0
 40
1.0
 40
1.0
 40
1.0
 10
18.25624999999999
 20
1.568368225468006
 30
0.0
 10
18.46545024373874
 20
1.50432273871299
 30
0.0
 10
18.88601394841963
 20
1.375569508332359
 30
0.0
 10
19.47842564829353
 20
1.125471980945632
 30
0.0
 10
20.03226349134926
 20
0.8562028967350342
 30
0.0
 10
20.54792928897616
 20
0.5848062933917891
 30
0.0
 10
21.06262411986453
 20
0.2933943770280016
 30
0.0
 10
21.57828791598894
 20
-0.0019049937160204
 30
0.0
 10
22.09299675822444
 20
-0.3013522766275216
 30
0.0
 10
22.60824160756358
 20
-0.5883733966813196
 30
0.0
 10
23.1226676951022
 20
-0.8625025240857488
 30
0.0
 10
23.63690982764533
 20
-1.109692233773949
 30
0.0
 10
24.15086811429455
 20
-1.32843133419254
 30
0.0
 10
24.66733686020256
 20
-1.509908644482803
 30
0.0
 10
25.18790980148385
 20
-1.651909071088005
 30
0.0
 10
25.71535962289333
 20
-1.744616294833752
 30
0.0
 10
26.1308552272725
 20
-1.788082578620997
 30
0.0
 10
26.37070937751585
 20
-1.781486692806678
 30
0.0
 10
26.43177914348912
 20
-1.779807300548266
 30
0.0
1001
PE_URL
1000

  0
SPLINE
  5
B6
330
1F
100
AcDbEntity
  8
0
  6
Continuous
 62
     1
370
    15
100
AcDbSpline
210
0.0
220
0.0
230
1.0
 70
     8
 71
     3
 72
    10
 73
     6
 74
     0
 42
0.000000001
 43
0.00000001
 40
0.0
 40
0.0
 40
0.0
 40
0.0
 40
0.5
 40
0.5
 40
1.0
 40
1.0
 40
1.0
 40
1.0
 10
28.0968921647178
 20
0.1872423267066277
 30
0.0
 10
28.13794686091706
 20
0.2120325506850415
 30
0.0
 10
28.17072730933508
 20
0.2497040940707429
 30
0.0
 10
28.21458100273696
 20
0.3451944630870873
 30
0.0
 10
28.2254490642509
 20
0.4027161593495014
 30
0.0
 10
28.22646581480551
 20
0.4625427239024151
 30
0.0
1001
PE_URL
1000

  0
ARC
  5
B7
330
1F
100
AcDbEntity
  8
0
  6
Continuous
 62
     1
370
    15
100
AcDbCircle
 10
27.72054234674074
 20
-0.3104575730933621
 30
0.0
 40
0.9238441506522029
100
AcDbArc
 50
23.84130656543774
 51
56.79552415731792
1001
PE_URL
1000

  0
ARC
  5
B8
330
1F
100
AcDbEntity
  8
0
  6
Continuous
 62
     1
370
    15
100
AcDbCircle
 10
26.96876842496114
 20
0.0331274100161389
 30
0.0
 40
1.597063808207707
100
AcDbArc
 50
1.070495324449979
 51
71.14225670173084
1001
PE_URL
1000

  0
SPLINE
  5
B9
330
1F
100
AcDbEntity
  8
0
  6
Continuous
 62
     1
370
    15
100
AcDbSpline
210
0.0
220
0.0
230
1.0
 70
     8
 71
     3
 72
    10
 73
     6
 74
     0
 42
0.000000001
 43
0.00000001
 40
0.0
 40
0.0
 40
0.0
 40
0.0
 40
0.5
 40
0.5
 40
1.0
 40
1.0
 40
1.0
 40
1.0
 10
27.48497070972261
 20
1.544467215848679
 30
0.0
 10
27.37451336910335
 20
1.611895198430126
 30
0.0
 10
27.2606931133317
 20
1.66483283957713
 30
0.0
 10
27.02839761046236
 20
1.74185970144074
 30
0.0
 10
26.90876487891345
 20
1.766003457661125
 30
0.0
 10
26.78906250000029
 20
1.773994516452514
 30
0.0
1001
PE_URL
1000

  0
SPLINE
  5
BA
330
1F
100
AcDbEntity
  8
0
  6
Continuous
 62
     1
370
    15
100
AcDbSpline
210
0.0
220
0.0
230
1.0
 70
     8
 71
     3
 72
    14
 73
    10
 74
     0
 42
0.000000001
 43
0.00000001
 40
0.0
 40
0.0
 40
0.0
 40
0.0
 40
0.0756102308991207
 40
0.237450975864791
 40
0.389811857230515
 40
0.542138971850253
 40
0.6947197236361771
 40
0.8475451479673103
 40
1.0
 40
1.0
 40
1.0
 40
1.0
 10
23.17974716344052
 20
-1.188444793306537
 30
0.0
 10
23.05561068668064
 20
-1.243608219899069
 30
0.0
 10
22.66576493172745
 20
-1.416846805744928
 30
0.0
 10
22.02590541182963
 20
-1.612457698317056
 30
0.0
 10
21.26051349612638
 20
-1.762659797278453
 30
0.0
 10
20.51033619591676
 20
-1.802941988685414
 30
0.0
 10
19.75913052247362
 20
-1.736992892989062
 30
0.0
 10
19.00725676123154
 20
-1.574701181519398
 30
0.0
 10
18.50638292088852
 20
-1.390970228798944
 30
0.0
 10
18.25624999999999
 20
-1.299216265704914
 30
0.0
1001
PE_URL
1000

  0
SPLINE
  5
BB
330
1F
100
AcDbEntity
  8
외형선
  6
Continuous
370
    15
100
AcDbSpline
210
0.0
220
0.0
230
1.0
 70
    24
 71
     3
 72
    14
 73
    10
 74
     0
 42
0.000000001
 43
0.00000001
 40
0.0
 40
0.0
 40
0.0
 40
0.0
 40
0.2500000000000001
 40
0.2500000000000001
 40
0.5000000000000002
 40
0.5000000000000002
 40
0.7500000000000001
 40
0.7500000000000001
 40
1.0
 40
1.0
 40
1.0
 40
1.0
 10
18.25624999999999
 20
0.2345439048519195
 30
0.0
 10
18.25624999999999
 20
0.1536694851679485
 30
0.0
 10
18.25624999999999
 20
0.0553428815479388
 30
0.0
 10
18.25624999999999
 20
-0.1770823846618076
 30
0.0
 10
18.25624999999999
 20
-0.3114798244924337
 30
0.0
 10
18.25624999999999
 20
-0.600264809204261
 30
0.0
 10
18.25624999999998
 20
-0.7543230842832939
 30
0.0
 10
18.25624999999999
 20
-1.047390179422693
 30
0.0
 10
18.25624999999999
 20
-1.185450835629889
 30
0.0
 10
18.25624999999999
 20
-1.299216265704172
 30
0.0
  0
SPLINE
  5
BC
330
1F
100
AcDbEntity
  8
0
  6
Continuous
 62
     1
370
    15
100
AcDbSpline
210
0.0
220
0.0
230
1.0
 70
     8
 71
     3
 72
    13
 73
     9
 74
     0
 42
0.000000001
 43
0.00000001
 40
0.0
 40
0.0
 40
0.0
 40
0.0
 40
0.08838744218265
 40
0.2663920456043107
 40
0.4464690690613439
 40
0.627841921137189
 40
0.8132146484367049
 40
1.0
 40
1.0
 40
1.0
 40
1.0
 10
23.89400683083066
 20
1.213612805268
 30
0.0
 10
23.97926899590657
 20
1.250485625495742
 30
0.0
 10
24.23624172875576
 20
1.361617091291191
 30
0.0
 10
24.66733180694903
 20
1.508920014209103
 30
0.0
 10
25.18790594360244
 20
1.651775772985917
 30
0.0
 10
25.71538050822813
 20
1.746174994178315
 30
0.0
 10
26.25005563088883
 20
1.794290013100178
 30
0.0
 10
26.60893946417587
 20
1.780776779683743
 30
0.0
 10
26.78906249999908
 20
1.773994516452595
 30
0.0
1001
PE_URL
1000

  0
SPLINE
  5
BD
330
1F
100
AcDbEntity
  8
0
  6
Continuous
 62
     1
370
    15
100
AcDbSpline
210
0.0
220
0.0
230
1.0
 70
     8
 71
     3
 72
     8
 73
     4
 74
     0
 42
0.000000001
 43
0.00000001
 40
0.0
 40
0.0
 40
0.0
 40
0.0
 40
1.0
 40
1.0
 40
1.0
 40
1.0
 10
27.12217688611652
 20
0.7994727820011193
 30
0.0
 10
27.4852500907096
 20
0.6985517106485667
 30
0.0
 10
27.85541955743984
 20
0.5848721072010632
 30
0.0
 10
28.22646581480553
 20
0.4625427239024282
 30
0.0
1001
PE_URL
1000

  0
SPLINE
  5
BE
330
1F
100
AcDbEntity
  8
0
  6
Continuous
 62
     1
370
    15
100
AcDbSpline
210
0.0
220
0.0
230
1.0
 70
     8
 71
     3
 72
    14
 73
    10
 74
     0
 42
0.000000001
 43
0.00000001
 40
0.0
 40
0.0
 40
0.0
 40
0.0
 40
0.25
 40
0.25
 40
0.5
 40
0.5
 40
0.75
 40
0.75
 40
1.0
 40
1.0
 40
1.0
 40
1.0
 10
27.48497070972262
 20
1.544467215848677
 30
0.0
 10
27.4976128913532
 20
1.469461388502371
 30
0.0
 10
27.5032769295917
 20
1.393067756793483
 30
0.0
 10
27.49215274423061
 20
1.23853164021359
 30
0.0
 10
27.47492416129228
 20
1.162359300733989
 30
0.0
 10
27.41189318368999
 20
1.0238480970976
 30
0.0
 10
27.36584231816471
 20
0.9621669288783241
 30
0.0
 10
27.25469772376379
 20
0.863714248042732
 30
0.0
 10
27.18960892305002
 20
0.8262706981444148
 30
0.0
 10
27.12217688611707
 20
0.7994727820011874
 30
0.0
1001
PE_URL
1000

  0
LINE
  5
BF
330
1F
100
AcDbEntity
  8
중심선
 62
     1
100
AcDbLine
 10
-31.575
 20
-0.0000000000000039
 30
0.0
 11
31.575
 21
0.0000000000000039
 31
0.0
  0
LINE
  5
C0
330
1F
100
AcDbEntity
  8
참조1
100
AcDbLine
 10
0.0000000000000036
 20
-0.0000000000000039
 30
0.0
 11
0.0000000000000071
 21
-40.00000000000001
 31
0.0
  0
LINE
  5
C1
330
1F
100
AcDbEntity
  8
참조1
100
AcDbLine
 10
28.575
 20
-0.0000000000000039
 30
0.0
 11
28.575
 21
0.6309734778393064
 31
0.0
  0
LINE
  5
C2
330
1F
100
AcDbEntity
  8
참조1
100
AcDbLine
 10
0.0000000000000071
 20
-40.00000000000001
 30
0.0
 11
-19.92135681430868
 21
-40.0
 31
0.0
  0
CIRCLE
  5
C3
330
1F
100
AcDbEntity
  8
해칭선
100
AcDbCircle
 10
0.0
 20
0.0
 30
0.0
 40
3.000000000000001
  0
INSERT
  5
C4
330
1F
100
AcDbEntity
  8
0
  6
Continuous
 62
     7
100
AcDbBlockReference
 66
     1
  2
블럭10
 10
-13.9402729321252
 20
-52.04717430164393
 30
0.0
  0
ATTRIB
  5
C5
330
C4
100
AcDbEntity
  8
FORMAT
 62
     2
100
AcDbText
 10
-23.12156822086648
 20
-49.97180738881175
 30
0.0
 40
4.233333333333333
  1
E1013009 [ 2 FLUTE ]
 41
0.75
  7
SLDTEXTSTYLE0
 11
-23.12156822086648
 21
-52.08847405547841
 31
0.0
100
AcDbAttribute
  2
AUTOATTR0
 70
     0
 74
     1
  0
SEQEND
  5
C6
330
C4
100
AcDbEntity
  8
0
  6
Continuous
 62
     7
  0
HATCH
  5
C7
330
1F
100
AcDbEntity
  8
중심선
100
AcDbHatch
 10
0.0
 20
0.0
 30
0.0
210
0.0
220
0.0
230
1.0
  2
SOLID
 70
     1
 71
     0
 91
        1
 92
        0
 93
        4
 72
     1
 10
-8.22536362774435
 20
-35.8
 11
-11.67163887158163
 21
-35.8
 72
     1
 10
-11.67163887158163
 20
-35.8
 11
-13.79986873078565
 21
-38.3363255805726
 72
     1
 10
-13.79986873078565
 20
-38.3363255805726
 11
-10.35356040183522
 21
-38.33628615127011
 72
     1
 10
-10.35356040183522
 20
-38.33628615127011
 11
-8.22536362774435
 21
-35.8
 97
        0
 75
     0
 76
     1
 98
        1
 10
9.331619342984425
 20
-0.0010749287238931
  0
HATCH
  5
C8
330
1F
100
AcDbEntity
  8
중심선
100
AcDbHatch
 10
0.0
 20
0.0
 30
0.0
210
0.0
220
0.0
230
1.0
  2
SOLID
 70
     1
 71
     0
 91
        1
 92
        0
 93
        4
 72
     1
 10
-3.212599636708342
 20
-35.79999999999998
 11
-6.658874880545653
 21
-35.8
 72
     1
 10
-6.658874880545653
 20
-35.8
 11
-11.19001288890307
 21
-41.20000000000002
 72
     1
 10
-11.19001288890307
 20
-41.20000000000002
 11
-7.743737645065785
 21
-41.20000000000002
 72
     1
 10
-7.743737645065785
 20
-41.20000000000002
 11
-3.212599636708342
 21
-35.79999999999998
 97
        0
 75
     0
 76
     1
 98
        1
 10
9.331619342984425
 20
-0.0010749287238931
  0
HATCH
  5
C9
330
1F
100
AcDbEntity
  8
중심선
100
AcDbHatch
 10
0.0
 20
0.0
 30
0.0
210
0.0
220
0.0
230
1.0
  2
SOLID
 70
     1
 71
     0
 91
        1
 92
        0
 93
        4
 72
     1
 10
1.800164354327525
 20
-35.80000000000003
 11
-1.646110889509618
 21
-35.8
 72
     1
 10
-1.646110889509618
 20
-35.8
 11
-8.694547791398868
 21
-44.20000000000002
 72
     1
 10
-8.694547791398868
 20
-44.20000000000002
 11
-5.248272547561585
 21
-44.20000000000002
 72
     1
 10
-5.248272547561585
 20
-44.20000000000002
 11
1.800164354327525
 21
-35.80000000000003
 97
        0
 75
     0
 76
     1
 98
        1
 10
9.331619342984425
 20
-0.0010749287238931
  0
HATCH
  5
CA
330
1F
100
AcDbEntity
  8
중심선
100
AcDbHatch
 10
0.0
 20
0.0
 30
0.0
210
0.0
220
0.0
230
1.0
  2
SOLID
 70
     1
 71
     0
 91
        1
 92
        0
 93
        6
 72
     3
 10
6.600054785339697
 20
-40.00000000005127
 11
3.960054785062283
 21
1.540882976769353E-10
 40
0.3939339440162628
 50
17.09539180608437
 51
320.0019657685079
 73
     0
 72
     1
 10
8.283054441040292
 20
-38.5878940046383
 11
10.58835631474136
 21
-36.65356729459038
 72
     3
 10
6.600054785286851
 20
-40.00000000000015
 11
6.600054785286829
 21
-1.278976924368180E-13
 40
0.636358354079598
 50
39.99873849337386
 51
368.4976242363725
 73
     1
 72
     1
 10
13.02538727718746
 20
-39.03999999993002
 11
5.280122092122772
 21
-39.03999999993002
 72
     1
 10
5.280122092122773
 20
-39.03999999993002
 11
5.280097047676839
 21
-40.95999999992991
 72
     1
 10
5.280097047676839
 20
-40.95999999992991
 11
9.721476817148876
 21
-40.95999999992988
 97
        0
 75
     0
 76
     1
 98
        1
 10
9.331619342984425
 20
-0.0010749287238931
  0
DIMENSION
  5
CB
330
1F
100
AcDbEntity
  8
치수문자_일반주서
100
AcDbDimension
  2
_D
 10
18.25624999999999
 20
12.38125
 30
0.0
 11
46.53325000000001
 21
12.38125
 31
0.0
 70
   160
  1
<>
 71
     2
 42
10.31874999999999
  3
SLDDIMSTYLE0
100
AcDbAlignedDimension
 13
28.57499999999999
 23
1.785937500000004
 33
0.0
 14
18.25624999999999
 24
1.785937500000001
 34
0.0
 50
0.0000000000000099
100
AcDbRotatedDimension
1001
PE_URL
1000

1001
ACAD
1000
DSTYLE
1002
{
1070
   171
1070
     8
1070
   273
1070
     7
1002
}
1001
ACAD_DSTYLE_DIMFLIPARROW_SYMBOL
1070
   385
1070
     0
1001
ACAD_DSTYLE_DIMFLIPARROW_WHICH_SYMBOL
1070
   386
1070
     3
  0
DIMENSION
  5
E0
330
1F
100
AcDbEntity
  8
치수문자_일반주서
100
AcDbDimension
  2
_D_1
 10
-28.575
 20
22.38125
 30
0.0
 11
0.2501241026247385
 21
22.38125
 31
0.0
 70
   160
  1
<>
 71
     2
 42
57.14999999999998
  3
SLDDIMSTYLE0
100
AcDbAlignedDimension
 13
28.57499999999999
 23
1.785937500000004
 33
0.0
 14
-28.575
 24
1.785937500000004
 34
0.0
100
AcDbRotatedDimension
1001
PE_URL
1000

1001
ACAD
1000
DSTYLE
1002
{
1070
   171
1070
     8
1070
   273
1070
     7
1002
}
  0
DIMENSION
  5
F3
330
1F
100
AcDbEntity
  8
치수문자_일반주서
100
AcDbDimension
  2
_D_2
 10
-38.575
 20
-2.38125000000009
 30
0.0
 11
-38.57500000000007
 21
22.98524999999997
 31
0.0
 70
   160
  1
%%c<>
 71
     2
 42
4.762500000000001
 52
-270.0
  3
SLDDIMSTYLE0
100
AcDbAlignedDimension
 13
-15.03451350361913
 23
2.38125
 33
0.0
 14
-15.03451350361913
 24
-2.381250000000001
 34
0.0
 50
90.0000000000002
100
AcDbRotatedDimension
1001
PE_URL
1000

1001
ACAD
1000
DSTYLE
1002
{
1070
   171
1070
     8
1070
   273
1070
     7
1002
}
  0
DIMENSION
  5
108
330
1F
100
AcDbEntity
  8
치수문자_일반주서
100
AcDbDimension
  2
_D_3
 10
67.79301092629032
 20
-1.78593749999985
 30
0.0
 11
67.79301092629022
 21
23.23259665355937
 31
0.0
 70
   160
  1
%%c<>
 71
     2
 42
3.571875
 52
-270.0
  3
SLDDIMSTYLE0
100
AcDbAlignedDimension
 13
28.57499999999999
 23
1.785937500000004
 33
0.0
 14
28.57499999999999
 24
-1.785937499999996
 34
0.0
 50
90.0000000000002
100
AcDbRotatedDimension
1001
PE_URL
1000

1001
ACAD
1000
DSTYLE
1002
{
1070
   171
1070
     8
1070
   273
1070
     7
1002
}
  0
LINE
  5
11C
330
1F
100
AcDbEntity
  8
참조1
100
AcDbLine
 10
78.05098381534557
 20
7.440000000000002
 30
0.0
 11
78.05098381534557
 21
-7.440000000000002
 31
0.0
  0
LINE
  5
11D
330
1F
100
AcDbEntity
  8
참조1
100
AcDbLine
 10
90.75098381534558
 20
5.440000000000002
 30
0.0
 11
78.05098381534557
 21
5.440000000000002
 31
0.0
  0
SOLID
  5
11E
330
1F
100
AcDbEntity
  8
참조1
100
AcDbTrace
 10
78.05098381534557
 20
5.440000000000002
 30
0.0
 11
84.40098381534557
 21
4.424000000000002
 31
0.0
 12
84.40098381534557
 22
6.456000000000002
 32
0.0
 13
84.40098381534557
 23
6.456000000000002
 33
0.0
  0
LINE
  5
11F
330
1F
100
AcDbEntity
  8
참조1
100
AcDbLine
 10
90.75098381534558
 20
-5.440000000000002
 30
0.0
 11
78.05098381534557
 21
-5.440000000000002
 31
0.0
  0
SOLID
  5
120
330
1F
100
AcDbEntity
  8
참조1
100
AcDbTrace
 10
78.05098381534557
 20
-5.440000000000002
 30
0.0
 11
84.40098381534557
 21
-6.456000000000002
 31
0.0
 12
84.40098381534557
 22
-4.424000000000002
 32
0.0
 13
84.40098381534557
 23
-4.424000000000002
 33
0.0
  0
MTEXT
  5
121
330
1F
100
AcDbEntity
  8
참조1
100
AcDbMText
 10
87.44847390781585
 20
10.98821664464994
 30
0.0
 40
3.5
 41
0.0
 71
     1
 72
     1
  1
A
  7
SLDTEXTSTYLE0
 73
     1
 44
1.0
  0
MTEXT
  5
122
330
1F
100
AcDbEntity
  8
참조1
100
AcDbMText
 10
87.44847390781585
 20
0.108216644649932
 30
0.0
 40
3.5
 41
0.0
 71
     1
 72
     1
  1
A
  7
SLDTEXTSTYLE0
 73
     1
 44
1.0
  0
INSERT
  5
129
330
1F
100
AcDbEntity
  8
해칭선
100
AcDbBlockReference
  2
SW_DOWELSYMBOL_0
 10
0.0
 20
0.0
 30
0.0
  0
LINE
  5
1DA
330
1F
100
AcDbEntity
  8
외형선
  6
Continuous
370
    15
100
AcDbLine
 10
-15.03451350361913
 20
2.38125
 30
0.0
 11
-17.25624999999997
 21
1.785937499999998
 31
0.0
  0
LINE
  5
1DB
330
1F
100
AcDbEntity
  8
외형선
  6
Continuous
370
    15
100
AcDbLine
 10
-17.25624999999997
 20
-1.785937500000003
 30
0.0
 11
-15.03451350361913
 21
-2.381249999999998
 31
0.0
  0
LINE
  5
1DC
330
1F
100
AcDbEntity
  8
외형선
  6
Continuous
370
    15
100
AcDbLine
 10
-18.25624999999997
 20
-1.785937500000003
 30
0.0
 11
-17.25624999999997
 21
-1.785937500000003
 31
0.0
  0
LINE
  5
1DD
330
1F
100
AcDbEntity
  8
외형선
  6
Continuous
370
    15
100
AcDbLine
 10
-17.25624999999997
 20
1.785937499999996
 30
0.0
 11
-18.25624999999997
 21
1.785937499999996
 31
0.0
  0
LINE
  5
1DE
330
1F
100
AcDbEntity
  8
0
  6
Continuous
 62
     1
370
    15
100
AcDbLine
 10
-26.4317791434891
 20
1.785937499999989
 30
0.0
 11
-26.78906249999998
 21
1.785937499999989
 31
0.0
1001
PE_URL
1000

  0
LINE
  5
1DF
330
1F
100
AcDbEntity
  8
0
  6
Continuous
 62
     1
370
    15
100
AcDbLine
 10
-20.59607666173984
 20
-1.785937500000006
 30
0.0
 11
-18.25624999999997
 21
-1.785937500000003
 31
0.0
1001
PE_URL
1000

  0
ARC
  5
1E0
330
1F
100
AcDbEntity
  8
0
  6
Continuous
 62
     1
370
    15
100
AcDbCircle
 10
-26.78906249999998
 20
-0.0000000000000107
 30
0.0
 40
1.7859375
100
AcDbArc
 50
90.0000000000008
 51
180.0
1001
PE_URL
1000

  0
ARC
  5
1E1
330
1F
100
AcDbEntity
  8
0
  6
Continuous
 62
     1
370
    15
100
AcDbCircle
 10
-26.78906249999998
 20
-0.0000000000000107
 30
0.0
 40
1.7859375
100
AcDbArc
 50
180.0
 51
270.0000000000001
1001
PE_URL
1000

  0
LINE
  5
1E2
330
1F
100
AcDbEntity
  8
0
  6
Continuous
 62
     1
370
    15
100
AcDbLine
 10
-18.25624999999997
 20
1.785937499999996
 30
0.0
 11
-20.59607666173984
 21
1.785937499999994
 31
0.0
1001
PE_URL
1000

  0
LINE
  5
1E3
330
1F
100
AcDbEntity
  8
0
  6
Continuous
 62
     1
370
    15
100
AcDbLine
 10
-26.78906249999997
 20
-1.78593750000001
 30
0.0
 11
-26.43177914348909
 21
-1.78593750000001
 31
0.0
1001
PE_URL
1000

  0
LINE
  5
1E4
330
1F
100
AcDbEntity
  8
외형선
  6
Continuous
370
    15
100
AcDbLine
 10
-15.03451350361913
 20
-2.381249999999998
 30
0.0
 11
-15.03451350361913
 21
2.38125
 31
0.0
  0
LINE
  5
1E5
330
1F
100
AcDbEntity
  8
외형선
  6
Continuous
370
    15
100
AcDbLine
 10
-17.25624999999997
 20
-1.785937500000003
 30
0.0
 11
-17.25624999999997
 21
1.785937499999998
 31
0.0
  0
LINE
  5
1E6
330
1F
100
AcDbEntity
  8
외형선
  6
Continuous
370
    15
100
AcDbLine
 10
-18.25624999999997
 20
-1.785937500000003
 30
0.0
 11
-18.25624999999997
 21
-1.568368225468006
 31
0.0
  0
SPLINE
  5
1E7
330
1F
100
AcDbEntity
  8
외형선
  6
Continuous
370
    15
100
AcDbSpline
210
0.0
220
0.0
230
1.0
 70
     8
 71
     3
 72
    10
 73
     6
 74
     0
 42
0.000000001
 43
0.00000001
 40
0.0
 40
0.0
 40
0.0
 40
0.0
 40
0.4999999999999999
 40
0.4999999999999999
 40
1.0
 40
1.0
 40
1.0
 40
1.0
 10
-17.36623196063545
 20
-1.746352001022352
 30
0.0
 10
-17.51555242653368
 20
-1.728374644043416
 30
0.0
 10
-17.66503834656245
 20
-1.70430559406438
 30
0.0
 10
-17.95973695106671
 20
-1.644884503300755
 30
0.0
 10
-18.10706998984566
 20
-1.609425821849158
 30
0.0
 10
-18.2562499999986
 20
-1.568368225468383
 30
0.0
  0
SPLINE
  5
1E8
330
1F
100
AcDbEntity
  8
외형선
  6
Continuous
370
    15
100
AcDbSpline
210
0.0
220
0.0
230
1.0
 70
     8
 71
     3
 72
    10
 73
     6
 74
     0
 42
0.000000001
 43
0.00000001
 40
0.0
 40
0.0
 40
0.0
 40
0.0
 40
0.5
 40
0.5
 40
1.0
 40
1.0
 40
1.0
 40
1.0
 10
-18.25624999999998
 20
1.299216265704914
 30
0.0
 10
-18.10706308347725
 20
1.240319414473873
 30
0.0
 10
-17.95972350468817
 20
1.177170409342676
 30
0.0
 10
-17.66501086321936
 20
1.043247315114286
 30
0.0
 10
-17.515517830308
 20
0.9721278754572928
 30
0.0
 10
-17.36619048340768
 20
0.8979041424016572
 30
0.0
  0
LINE
  5
1E9
330
1F
100
AcDbEntity
  8
외형선
  6
Continuous
370
    15
100
AcDbLine
 10
-18.25624999999997
 20
1.299216265704912
 30
0.0
 11
-18.25624999999997
 21
1.785937499999996
 31
0.0
  0
LINE
  5
1EA
330
1F
100
AcDbEntity
  8
외형선
  6
Continuous
370
    15
100
AcDbLine
 10
-17.36619048340768
 20
0.8979993274352651
 30
0.0
 11
-17.36619048340767
 21
-1.746370258238734
 31
0.0
  0
SPLINE
  5
1EB
330
1F
100
AcDbEntity
  8
외형선
  6
Continuous
370
    15
100
AcDbSpline
210
0.0
220
0.0
230
1.0
 70
    24
 71
     3
 72
    14
 73
    10
 74
     0
 42
0.000000001
 43
0.00000001
 40
0.0
 40
0.0
 40
0.0
 40
0.0
 40
0.2499999999999998
 40
0.2499999999999998
 40
0.4999999999999998
 40
0.4999999999999998
 40
0.75
 40
0.75
 40
1.0
 40
1.0
 40
1.0
 40
1.0
 10
-18.25624999999997
 20
-0.23454390485192
 30
0.0
 10
-18.25624999999997
 20
-0.1536694851679492
 30
0.0
 10
-18.25624999999997
 20
-0.0553428815479382
 30
0.0
 10
-18.25624999999997
 20
0.1770823846618068
 30
0.0
 10
-18.25624999999997
 20
0.3114798244924337
 30
0.0
 10
-18.25624999999997
 20
0.600264809204262
 30
0.0
 10
-18.25624999999997
 20
0.7543230842832962
 30
0.0
 10
-18.25624999999997
 20
1.047390179422694
 30
0.0
 10
-18.25624999999997
 20
1.18545083562989
 30
0.0
 10
-18.25624999999997
 20
1.299216265704175
 30
0.0
  0
SPLINE
  5
1EC
330
1F
100
AcDbEntity
  8
외형선
  6
Continuous
370
    15
100
AcDbSpline
210
0.0
220
0.0
230
1.0
 70
     8
 71
     3
 72
    10
 73
     6
 74
     0
 42
0.000000001
 43
0.00000001
 40
0.0
 40
0.0
 40
0.0
 40
0.0
 40
0.5
 40
0.5
 40
1.0
 40
1.0
 40
1.0
 40
1.0
 10
-18.25624999999997
 20
-0.2345439048519218
 30
0.0
 10
-18.10706308347724
 20
-0.2919014288743984
 30
0.0
 10
-17.95972350468816
 20
-0.3482085945850724
 30
0.0
 10
-17.66501086321936
 20
-0.4580566367238976
 30
0.0
 10
-17.515517830308
 20
-0.5118525109569525
 30
0.0
 10
-17.36619048340768
 20
-0.5636665027015901
 30
0.0
  0
SPLINE
  5
1ED
330
1F
100
AcDbEntity
  8
외형선
  6
Continuous
370
    15
100
AcDbSpline
210
0.0
220
0.0
230
1.0
 70
    24
 71
     3
 72
    14
 73
    10
 74
     0
 42
0.000000001
 43
0.00000001
 40
0.0
 40
0.0
 40
0.0
 40
0.0
 40
0.25
 40
0.25
 40
0.5
 40
0.5
 40
0.75
 40
0.75
 40
1.0
 40
1.0
 40
1.0
 40
1.0
 10
-18.25624999999997
 20
-1.568368225452442
 30
0.0
 10
-18.25624999999997
 20
-1.444113330579682
 30
0.0
 10
-18.25624999999997
 20
-1.306082943139288
 30
0.0
 10
-18.25624999999997
 20
-1.031601963850871
 30
0.0
 10
-18.25624999999997
 20
-0.8958047542458818
 30
0.0
 10
-18.25624999999997
 20
-0.6517942126467418
 30
0.0
 10
-18.25624999999997
 20
-0.5436832316422127
 30
0.0
 10
-18.25624999999997
 20
-0.36355961408875
 30
0.0
 10
-18.25624999999997
 20
-0.2912625976078935
 30
0.0
 10
-18.25624999999997
 20
-0.2345439048519182
 30
0.0
  0
SPLINE
  5
1EE
330
1F
100
AcDbEntity
  8
0
  6
Continuous
 62
     1
370
    15
100
AcDbSpline
210
0.0
220
0.0
230
1.0
 70
     8
 71
     3
 72
    15
 73
    11
 74
     0
 42
0.000000001
 43
0.00000001
 40
0.0
 40
0.0
 40
0.0
 40
0.0
 40
0.1285593135129093
 40
0.2570195053637817
 40
0.3854951343152981
 40
0.5141005258317889
 40
0.6429067539181993
 40
0.7715671257109143
 40
0.8926911828656066
 40
1.0
 40
1.0
 40
1.0
 40
1.0
 10
-26.78906249999998
 20
0.747069780494467
 30
0.0
 10
-26.52365837776946
 20
0.6030960931905245
 30
0.0
 10
-25.99305476490601
 20
0.3152597250183895
 30
0.0
 10
-25.19741553188969
 20
-0.1507226787889415
 30
0.0
 10
-24.40163566432816
 20
-0.6032793237532523
 30
0.0
 10
-23.60501280258717
 20
-1.016958955087821
 30
0.0
 10
-22.80760322853091
 20
-1.363730087769603
 30
0.0
 10
-22.02590375637759
 20
-1.613246996703865
 30
0.0
 10
-21.28898011177776
 20
-1.762425211012101
 30
0.0
 10
-20.81754051776755
 20
-1.774826096111042
 30
0.0
 10
-20.59607666173984
 20
-1.780651546215491
 30
0.0
1001
PE_URL
1000

  0
SPLINE
  5
1EF
330
1F
100
AcDbEntity
  8
0
  6
Continuous
 62
     1
370
    15
100
AcDbSpline
210
0.0
220
0.0
230
1.0
 70
     8
 71
     3
 72
    13
 73
     9
 74
     0
 42
0.000000001
 43
0.00000001
 40
0.0
 40
0.0
 40
0.0
 40
0.0
 40
0.1573760565304923
 40
0.3149844710500831
 40
0.4728651424550522
 40
0.6628386358681373
 40
0.8527982637167498
 40
1.0
 40
1.0
 40
1.0
 40
1.0
 10
-28.0968921647228
 20
-0.1872423267046965
 30
0.0
 10
-27.8390086033727
 20
-0.2864018427729302
 30
0.0
 10
-27.32286072830739
 20
-0.4848672790464796
 30
0.0
 10
-26.54788026776783
 20
-0.7489447704470393
 30
0.0
 10
-25.71927935286403
 20
-0.9825012922313956
 30
0.0
 10
-24.83773826548362
 20
-1.15227352777768
 30
0.0
 10
-23.97368192555762
 20
-1.233970369218358
 30
0.0
 10
-23.42103015006585
 20
-1.202280372056808
 30
0.0
 10
-23.1797471634405
 20
-1.188444793306548
 30
0.0
1001
PE_URL
1000

  0
SPLINE
  5
1F0
330
1F
100
AcDbEntity
  8
0
  6
Continuous
 62
     1
370
    15
100
AcDbSpline
210
0.0
220
0.0
230
1.0
 70
     8
 71
     3
 72
    22
 73
    18
 74
     0
 42
0.000000001
 43
0.00000001
 40
0.0
 40
0.0
 40
0.0
 40
0.0
 40
0.125
 40
0.125
 40
0.25
 40
0.25
 40
0.375
 40
0.375
 40
0.5
 40
0.5
 40
0.625
 40
0.625
 40
0.75
 40
0.75
 40
0.875
 40
0.875
 40
1.0
 40
1.0
 40
1.0
 40
1.0
 10
-26.78906249999998
 20
0.7470697804944653
 30
0.0
 10
-26.88820791658415
 20
0.7991407018168442
 30
0.0
 10
-26.98589828978088
 20
0.845587029367417
 30
0.0
 10
-27.18079740220215
 20
0.9238375954969218
 30
0.0
 10
-27.27903870100291
 20
0.9559333460616646
 30
0.0
 10
-27.47291978997428
 20
0.9973604916356944
 30
0.0
 10
-27.5678172739176
 20
1.007132677320135
 30
0.0
 10
-27.75822111854261
 20
0.9933409974827452
 30
0.0
 10
-27.85108676548408
 20
0.9695701890781585
 30
0.0
 10
-28.02618337273096
 20
0.8747685596379231
 30
0.0
 10
-28.10759719318831
 20
0.8029508432725638
 30
0.0
 10
-28.23138578359421
 20
0.6122954605983892
 30
0.0
 10
-28.26865275663503
 20
0.499318883178411
 30
0.0
 10
-28.28745233491628
 20
0.2784516538521888
 30
0.0
 10
-28.27048752674508
 20
0.174356489342486
 30
0.0
 10
-28.20488052760406
 20
-0.0162945304888158
 30
0.0
 10
-28.15629395367884
 20
-0.1038261699867551
 30
0.0
 10
-28.09689216471779
 20
-0.1872423267066363
 30
0.0
1001
PE_URL
1000

  0
SPLINE
  5
1F1
330
1F
100
AcDbEntity
  8
0
  6
Continuous
 62
     1
370
    15
100
AcDbSpline
210
0.0
220
0.0
230
1.0
 70
     8
 71
     3
 72
    13
 73
     9
 74
     0
 42
0.000000001
 43
0.00000001
 40
0.0
 40
0.0
 40
0.0
 40
0.0
 40
0.1639761388948076
 40
0.3296440633446244
 40
0.4953039402105561
 40
0.6609571312922927
 40
0.8304789906189834
 40
1.0
 40
1.0
 40
1.0
 40
1.0
 10
-23.89400683083065
 20
1.213612805267987
 30
0.0
 10
-23.58585410186565
 20
1.210326291876964
 30
0.0
 10
-22.96636935005111
 20
1.203719357259804
 30
0.0
 10
-22.03557541895275
 20
1.055858539818185
 30
0.0
 10
-21.10163003028127
 20
0.8199356124611388
 30
0.0
 10
-20.16046068319435
 20
0.5056421309789414
 30
0.0
 10
-19.21198266468001
 20
0.1407115887363837
 30
0.0
 10
-18.57482702246539
 20
-0.1094589493731046
 30
0.0
 10
-18.25624999999997
 20
-0.2345439048519182
 30
0.0
1001
PE_URL
1000

  0
SPLINE
  5
1F2
330
1F
100
AcDbEntity
  8
외형선
  6
Continuous
370
    15
100
AcDbSpline
210
0.0
220
0.0
230
1.0
 70
    24
 71
     3
 72
    14
 73
    10
 74
     0
 42
0.000000001
 43
0.00000001
 40
0.0
 40
0.0
 40
0.0
 40
0.0
 40
0.25
 40
0.25
 40
0.5
 40
0.5
 40
0.75
 40
0.75
 40
1.0
 40
1.0
 40
1.0
 40
1.0
 10
-18.25624999999997
 20
-1.568368225452442
 30
0.0
 10
-18.25624999999997
 20
-1.444113330579682
 30
0.0
 10
-18.25624999999997
 20
-1.306082943139288
 30
0.0
 10
-18.25624999999997
 20
-1.031601963850871
 30
0.0
 10
-18.25624999999997
 20
-0.8958047542458818
 30
0.0
 10
-18.25624999999997
 20
-0.6517942126467418
 30
0.0
 10
-18.25624999999997
 20
-0.5436832316422127
 30
0.0
 10
-18.25624999999997
 20
-0.36355961408875
 30
0.0
 10
-18.25624999999997
 20
-0.2912625976078935
 30
0.0
 10
-18.25624999999997
 20
-0.2345439048519182
 30
0.0
  0
SPLINE
  5
1F3
330
1F
100
AcDbEntity
  8
0
  6
Continuous
 62
     1
370
    15
100
AcDbSpline
210
0.0
220
0.0
230
1.0
 70
     8
 71
     3
 72
    23
 73
    19
 74
     0
 42
0.000000001
 43
0.00000001
 40
0.0
 40
0.0
 40
0.0
 40
0.0
 40
0.0767658232392962
 40
0.1543254368991733
 40
0.2171274040019514
 40
0.2803629058285099
 40
0.3431648939057285
 40
0.406400975134483
 40
0.4691930910179938
 40
0.5324198915895177
 40
0.595128830306647
 40
0.6582717021006325
 40
0.7208788526837475
 40
0.7839188964467216
 40
0.8476928844291927
 40
0.9119257880310856
 40
0.9775752410047346
 40
1.0
 40
1.0
 40
1.0
 40
1.0
 10
-18.25624999999997
 20
-1.568368225468006
 30
0.0
 10
-18.46545024373872
 20
-1.50432273871299
 30
0.0
 10
-18.88601394841961
 20
-1.375569508332358
 30
0.0
 10
-19.47842564829351
 20
-1.125471980945633
 30
0.0
 10
-20.03226349134924
 20
-0.8562028967350361
 30
0.0
 10
-20.54792928897615
 20
-0.5848062933917912
 30
0.0
 10
-21.06262411986452
 20
-0.2933943770280028
 30
0.0
 10
-21.57828791598893
 20
0.0019049937160176
 30
0.0
 10
-22.09299675822443
 20
0.3013522766275187
 30
0.0
 10
-22.60824160756357
 20
0.588373396681316
 30
0.0
 10
-23.12266769510219
 20
0.8625025240857447
 30
0.0
 10
-23.63690982764531
 20
1.109692233773943
 30
0.0
 10
-24.15086811429453
 20
1.328431334192535
 30
0.0
 10
-24.66733686020255
 20
1.509908644482797
 30
0.0
 10
-25.18790980148384
 20
1.651909071087999
 30
0.0
 10
-25.71535962289331
 20
1.744616294833746
 30
0.0
 10
-26.13085522727249
 20
1.78808257862099
 30
0.0
 10
-26.37070937751584
 20
1.781486692806672
 30
0.0
 10
-26.4317791434891
 20
1.779807300548258
 30
0.0
1001
PE_URL
1000

  0
SPLINE
  5
1F4
330
1F
100
AcDbEntity
  8
0
  6
Continuous
 62
     1
370
    15
100
AcDbSpline
210
0.0
220
0.0
230
1.0
 70
     8
 71
     3
 72
    10
 73
     6
 74
     0
 42
0.000000001
 43
0.00000001
 40
0.0
 40
0.0
 40
0.0
 40
0.0
 40
0.5
 40
0.5
 40
1.0
 40
1.0
 40
1.0
 40
1.0
 10
-28.09689216471779
 20
-0.1872423267066363
 30
0.0
 10
-28.13794686091704
 20
-0.2120325506850502
 30
0.0
 10
-28.17072730933507
 20
-0.2497040940707524
 30
0.0
 10
-28.21458100273695
 20
-0.3451944630870969
 30
0.0
 10
-28.22544906425089
 20
-0.4027161593495094
 30
0.0
 10
-28.2264658148055
 20
-0.4625427239024233
 30
0.0
1001
PE_URL
1000

  0
ARC
  5
1F5
330
1F
100
AcDbEntity
  8
0
  6
Continuous
 62
     1
370
    15
100
AcDbCircle
 10
-27.72054234674072
 20
0.3104575730933554
 30
0.0
 40
0.9238441506522029
100
AcDbArc
 50
203.8413065654377
 51
236.795524157318
1001
PE_URL
1000

  0
ARC
  5
1F6
330
1F
100
AcDbEntity
  8
0
  6
Continuous
 62
     1
370
    15
100
AcDbCircle
 10
-26.96876842496113
 20
-0.0331274100161458
 30
0.0
 40
1.597063808207707
100
AcDbArc
 50
181.0704953244501
 51
251.142256701731
1001
PE_URL
1000

  0
SPLINE
  5
1F7
330
1F
100
AcDbEntity
  8
0
  6
Continuous
 62
     1
370
    15
100
AcDbSpline
210
0.0
220
0.0
230
1.0
 70
     8
 71
     3
 72
    10
 73
     6
 74
     0
 42
0.000000001
 43
0.00000001
 40
0.0
 40
0.0
 40
0.0
 40
0.0
 40
0.5
 40
0.5
 40
1.0
 40
1.0
 40
1.0
 40
1.0
 10
-27.48497070972259
 20
-1.544467215848687
 30
0.0
 10
-27.37451336910334
 20
-1.611895198430133
 30
0.0
 10
-27.26069311333168
 20
-1.664832839577137
 30
0.0
 10
-27.02839761046234
 20
-1.741859701440745
 30
0.0
 10
-26.90876487891343
 20
-1.766003457661132
 30
0.0
 10
-26.78906250000027
 20
-1.773994516452522
 30
0.0
1001
PE_URL
1000

  0
SPLINE
  5
1F8
330
1F
100
AcDbEntity
  8
0
  6
Continuous
 62
     1
370
    15
100
AcDbSpline
210
0.0
220
0.0
230
1.0
 70
     8
 71
     3
 72
    14
 73
    10
 74
     0
 42
0.000000001
 43
0.00000001
 40
0.0
 40
0.0
 40
0.0
 40
0.0
 40
0.0756102308991207
 40
0.237450975864791
 40
0.389811857230515
 40
0.542138971850253
 40
0.6947197236361771
 40
0.8475451479673103
 40
1.0
 40
1.0
 40
1.0
 40
1.0
 10
-23.17974716344051
 20
1.188444793306534
 30
0.0
 10
-23.05561068668062
 20
1.243608219899066
 30
0.0
 10
-22.66576493172744
 20
1.416846805744925
 30
0.0
 10
-22.02590541182962
 20
1.612457698317051
 30
0.0
 10
-21.26051349612636
 20
1.762659797278451
 30
0.0
 10
-20.51033619591675
 20
1.802941988685413
 30
0.0
 10
-19.75913052247361
 20
1.736992892989059
 30
0.0
 10
-19.00725676123152
 20
1.574701181519396
 30
0.0
 10
-18.5063829208885
 20
1.390970228798944
 30
0.0
 10
-18.25624999999998
 20
1.299216265704914
 30
0.0
1001
PE_URL
1000

  0
SPLINE
  5
1F9
330
1F
100
AcDbEntity
  8
외형선
  6
Continuous
370
    15
100
AcDbSpline
210
0.0
220
0.0
230
1.0
 70
    24
 71
     3
 72
    14
 73
    10
 74
     0
 42
0.000000001
 43
0.00000001
 40
0.0
 40
0.0
 40
0.0
 40
0.0
 40
0.2500000000000001
 40
0.2500000000000001
 40
0.5000000000000002
 40
0.5000000000000002
 40
0.7500000000000001
 40
0.7500000000000001
 40
1.0
 40
1.0
 40
1.0
 40
1.0
 10
-18.25624999999997
 20
-0.23454390485192
 30
0.0
 10
-18.25624999999997
 20
-0.1536694851679492
 30
0.0
 10
-18.25624999999997
 20
-0.0553428815479382
 30
0.0
 10
-18.25624999999997
 20
0.1770823846618068
 30
0.0
 10
-18.25624999999997
 20
0.3114798244924337
 30
0.0
 10
-18.25624999999997
 20
0.6002648092042602
 30
0.0
 10
-18.25624999999997
 20
0.7543230842832944
 30
0.0
 10
-18.25624999999997
 20
1.047390179422694
 30
0.0
 10
-18.25624999999997
 20
1.18545083562989
 30
0.0
 10
-18.25624999999997
 20
1.299216265704173
 30
0.0
  0
SPLINE
  5
1FA
330
1F
100
AcDbEntity
  8
0
  6
Continuous
 62
     1
370
    15
100
AcDbSpline
210
0.0
220
0.0
230
1.0
 70
     8
 71
     3
 72
    13
 73
     9
 74
     0
 42
0.000000001
 43
0.00000001
 40
0.0
 40
0.0
 40
0.0
 40
0.0
 40
0.08838744218265
 40
0.2663920456043107
 40
0.4464690690613439
 40
0.627841921137189
 40
0.8132146484367049
 40
1.0
 40
1.0
 40
1.0
 40
1.0
 10
-23.89400683083064
 20
-1.213612805268003
 30
0.0
 10
-23.97926899590655
 20
-1.250485625495745
 30
0.0
 10
-24.23624172875574
 20
-1.361617091291194
 30
0.0
 10
-24.66733180694901
 20
-1.50892001420911
 30
0.0
 10
-25.18790594360243
 20
-1.651775772985925
 30
0.0
 10
-25.71538050822811
 20
-1.746174994178322
 30
0.0
 10
-26.25005563088881
 20
-1.794290013100184
 30
0.0
 10
-26.60893946417585
 20
-1.780776779683752
 30
0.0
 10
-26.78906249999906
 20
-1.773994516452603
 30
0.0
1001
PE_URL
1000

  0
SPLINE
  5
1FB
330
1F
100
AcDbEntity
  8
0
  6
Continuous
 62
     1
370
    15
100
AcDbSpline
210
0.0
220
0.0
230
1.0
 70
     8
 71
     3
 72
     8
 73
     4
 74
     0
 42
0.000000001
 43
0.00000001
 40
0.0
 40
0.0
 40
0.0
 40
0.0
 40
1.0
 40
1.0
 40
1.0
 40
1.0
 10
-27.1221768861165
 20
-0.7994727820011267
 30
0.0
 10
-27.48525009070958
 20
-0.698551710648573
 30
0.0
 10
-27.85541955743982
 20
-0.5848721072010719
 30
0.0
 10
-28.22646581480551
 20
-0.4625427239024376
 30
0.0
1001
PE_URL
1000

  0
SPLINE
  5
1FC
330
1F
100
AcDbEntity
  8
0
  6
Continuous
 62
     1
370
    15
100
AcDbSpline
210
0.0
220
0.0
230
1.0
 70
     8
 71
     3
 72
    14
 73
    10
 74
     0
 42
0.000000001
 43
0.00000001
 40
0.0
 40
0.0
 40
0.0
 40
0.0
 40
0.25
 40
0.25
 40
0.5
 40
0.5
 40
0.75
 40
0.75
 40
1.0
 40
1.0
 40
1.0
 40
1.0
 10
-27.4849707097226
 20
-1.544467215848684
 30
0.0
 10
-27.49761289135318
 20
-1.469461388502378
 30
0.0
 10
-27.50327692959168
 20
-1.393067756793489
 30
0.0
 10
-27.49215274423059
 20
-1.238531640213598
 30
0.0
 10
-27.47492416129226
 20
-1.162359300733996
 30
0.0
 10
-27.41189318368997
 20
-1.023848097097607
 30
0.0
 10
-27.36584231816469
 20
-0.9621669288783306
 30
0.0
 10
-27.25469772376377
 20
-0.86371424804274
 30
0.0
 10
-27.18960892305001
 20
-0.8262706981444214
 30
0.0
 10
-27.12217688611706
 20
-0.7994727820011942
 30
0.0
1001
PE_URL
1000

  0
ENDSEC
  0
SECTION
  2
OBJECTS
  0
DICTIONARY
  5
C
330
0
100
AcDbDictionary
281
     1
  3
ACAD_DETAILVIEWSTYLE
350
1B4
  3
ACAD_GROUP
350
D
  3
ACAD_LAYOUT
350
1A
  3
ACAD_MLINESTYLE
350
17
  3
ACAD_PLOTSETTINGS
350
19
  3
ACAD_PLOTSTYLENAME
350
E
  3
ACAD_SCALELIST
350
47
  3
ACAD_SECTIONVIEWSTYLE
350
1B5
  3
AcDbVariableDictionary
350
1AF
  3
APPDATA
350
14B
  3
DWGPROPS
350
1FE
  0
DICTIONARY
  5
184
330
2
100
AcDbDictionary
280
     1
281
     1
  3
ACAD_LAYERSTATES
360
185
  0
DICTIONARY
  5
1B4
102
{ACAD_REACTORS
330
C
102
}
330
C
100
AcDbDictionary
281
     1
  0
DICTIONARY
  5
D
102
{ACAD_REACTORS
330
C
102
}
330
C
100
AcDbDictionary
281
     1
  0
DICTIONARY
  5
1A
102
{ACAD_REACTORS
330
C
102
}
330
C
100
AcDbDictionary
281
     1
  3
Layout1
350
1E
  3
Layout2
350
26
  3
Model
350
22
  0
DICTIONARY
  5
17
102
{ACAD_REACTORS
330
C
102
}
330
C
100
AcDbDictionary
281
     1
  3
Standard
350
18
  0
DICTIONARY
  5
19
102
{ACAD_REACTORS
330
C
102
}
330
C
100
AcDbDictionary
281
     1
  0
ACDBDICTIONARYWDFLT
  5
E
102
{ACAD_REACTORS
330
C
102
}
330
C
100
AcDbDictionary
281
     1
  3
Normal
350
F
100
AcDbDictionaryWithDefault
340
F
  0
DICTIONARY
  5
47
102
{ACAD_REACTORS
330
C
102
}
330
C
100
AcDbDictionary
281
     1
  3
A0
350
48
  3
A1
350
49
  3
A2
350
4A
  3
A3
350
4B
  3
A4
350
4C
  3
A5
350
4D
  3
A6
350
4E
  3
A7
350
4F
  3
A8
350
50
  3
A9
350
51
  3
B0
350
52
  3
B1
350
53
  3
B2
350
54
  3
B3
350
55
  3
B4
350
56
  3
B5
350
57
  3
B6
350
58
  3
B7
350
59
  3
B8
350
5A
  3
B9
350
5B
  3
C0
350
5C
  3
C1
350
5D
  3
C2
350
5E
  3
C3
350
5F
  3
C4
350
60
  3
C5
350
61
  3
C6
350
62
  3
C7
350
63
  3
C8
350
64
  3
C9
350
65
  3
D0
350
66
  3
D1
350
67
  3
D2
350
68
  0
DICTIONARY
  5
1B5
102
{ACAD_REACTORS
330
C
102
}
330
C
100
AcDbDictionary
281
     1
  0
DICTIONARY
  5
1AF
102
{ACAD_REACTORS
330
C
102
}
330
C
100
AcDbDictionary
281
     1
  0
DICTIONARY
  5
14B
102
{ACAD_REACTORS
330
C
102
}
330
C
100
AcDbDictionary
281
     1
  0
XRECORD
  5
1FE
102
{ACAD_REACTORS
330
C
102
}
330
C
100
AcDbXrecord
280
     1
  1
DWGPROPS COOKIE
  2

  3

  4

  6

  7

  8
120170442
  9

300
=
301
=
302
=
303
=
304
=
305
=
306
=
307
=
308
=
309
=
 40
0.0
 41
2458319.36422963
 42
2458323.123419977
  1

 90
        0
  0
DICTIONARY
  5
185
102
{ACAD_REACTORS
330
184
102
}
330
184
100
AcDbDictionary
281
     1
  0
LAYOUT
  5
1E
102
{ACAD_REACTORS
330
1A
102
}
330
1A
100
AcDbPlotSettings
  1

  2
none_device
  4

  6

 40
0.0
 41
0.0
 42
0.0
 43
0.0
 44
0.0
 45
0.0
 46
0.0
 47
0.0
 48
0.0
 49
0.0
140
0.0
141
0.0
142
1.0
143
1.0
 70
   688
 72
     1
 73
     0
 74
     5
  7

 75
    16
147
1.0
148
0.0
149
0.0
100
AcDbLayout
  1
Layout1
 70
     1
 71
     1
 10
0.0
 20
0.0
 11
420.0
 21
297.0
 12
0.0
 22
0.0
 32
0.0
 14
1.000000000000000E+20
 24
1.000000000000000E+20
 34
1.000000000000000E+20
 15
-1.000000000000000E+20
 25
-1.000000000000000E+20
 35
-1.000000000000000E+20
146
0.0
 13
0.0
 23
0.0
 33
0.0
 16
1.0
 26
0.0
 36
0.0
 17
0.0
 27
1.0
 37
0.0
 76
     0
330
1B
  0
LAYOUT
  5
26
102
{ACAD_REACTORS
330
1A
102
}
330
1A
100
AcDbPlotSettings
  1

  2
none_device
  4

  6

 40
0.0
 41
0.0
 42
0.0
 43
0.0
 44
0.0
 45
0.0
 46
0.0
 47
0.0
 48
0.0
 49
0.0
140
0.0
141
0.0
142
1.0
143
1.0
 70
   688
 72
     1
 73
     0
 74
     5
  7

 75
    16
147
1.0
148
0.0
149
0.0
100
AcDbLayout
  1
Layout2
 70
     1
 71
     2
 10
0.0
 20
0.0
 11
0.0
 21
0.0
 12
0.0
 22
0.0
 32
0.0
 14
0.0
 24
0.0
 34
0.0
 15
0.0
 25
0.0
 35
0.0
146
0.0
 13
0.0
 23
0.0
 33
0.0
 16
1.0
 26
0.0
 36
0.0
 17
0.0
 27
1.0
 37
0.0
 76
     0
330
23
  0
LAYOUT
  5
22
102
{ACAD_REACTORS
330
1A
102
}
330
1A
100
AcDbPlotSettings
  1

  2
none_device
  4
ANSI_A_(11.00_x_8.50_Inches)
  6

 40
6.35
 41
19.05
 42
6.35000508
 43
19.05000254
 44
279.4
 45
215.9
 46
114.2936958359756
 47
99.17497509716168
 48
0.0
 49
0.0
140
0.0
141
0.0
142
0.0760905975572566
143
1.0
 70
  1696
 72
     0
 73
     0
 74
     0
  7

 75
     0
147
0.0235690232323232
148
0.0
149
0.0
100
AcDbLayout
  1
Model
 70
     1
 71
     0
 10
0.0
 20
0.0
 11
420.0
 21
297.0
 12
0.0
 22
0.0
 32
0.0
 14
-42.95000000000011
 24
-49.97180738881175
 34
0.0
 15
90.75098381534558
 25
37.67009665355937
 35
0.0
146
0.0
 13
0.0
 23
0.0
 33
0.0
 16
1.0
 26
0.0
 36
0.0
 17
0.0
 27
1.0
 37
0.0
 76
     0
330
1F
331
29
  0
MLINESTYLE
  5
18
102
{ACAD_REACTORS
330
17
102
}
330
17
100
AcDbMlineStyle
  2
Standard
 70
     0
  3

 62
   256
 51
90.0
 52
90.0
 71
     2
 49
0.5
 62
   256
  6
BYLAYER
 49
-0.5
 62
   256
  6
BYLAYER
  0
ACDBPLACEHOLDER
  5
F
102
{ACAD_REACTORS
330
E
102
}
330
E
  0
SCALE
  5
48
102
{ACAD_REACTORS
330
47
102
}
330
47
100
AcDbScale
 70
     0
300
1:1
140
1.0
141
1.0
290
     1
  0
SCALE
  5
49
102
{ACAD_REACTORS
330
47
102
}
330
47
100
AcDbScale
 70
     0
300
1:2
140
1.0
141
2.0
290
     0
  0
SCALE
  5
4A
102
{ACAD_REACTORS
330
47
102
}
330
47
100
AcDbScale
 70
     0
300
1:4
140
1.0
141
4.0
290
     0
  0
SCALE
  5
4B
102
{ACAD_REACTORS
330
47
102
}
330
47
100
AcDbScale
 70
     0
300
1:5
140
1.0
141
5.0
290
     0
  0
SCALE
  5
4C
102
{ACAD_REACTORS
330
47
102
}
330
47
100
AcDbScale
 70
     0
300
1:8
140
1.0
141
8.0
290
     0
  0
SCALE
  5
4D
102
{ACAD_REACTORS
330
47
102
}
330
47
100
AcDbScale
 70
     0
300
1:10
140
1.0
141
10.0
290
     0
  0
SCALE
  5
4E
102
{ACAD_REACTORS
330
47
102
}
330
47
100
AcDbScale
 70
     0
300
1:16
140
1.0
141
16.0
290
     0
  0
SCALE
  5
4F
102
{ACAD_REACTORS
330
47
102
}
330
47
100
AcDbScale
 70
     0
300
1:20
140
1.0
141
20.0
290
     0
  0
SCALE
  5
50
102
{ACAD_REACTORS
330
47
102
}
330
47
100
AcDbScale
 70
     0
300
1:30
140
1.0
141
30.0
290
     0
  0
SCALE
  5
51
102
{ACAD_REACTORS
330
47
102
}
330
47
100
AcDbScale
 70
     0
300
1:40
140
1.0
141
40.0
290
     0
  0
SCALE
  5
52
102
{ACAD_REACTORS
330
47
102
}
330
47
100
AcDbScale
 70
     0
300
1:50
140
1.0
141
50.0
290
     0
  0
SCALE
  5
53
102
{ACAD_REACTORS
330
47
102
}
330
47
100
AcDbScale
 70
     0
300
1:100
140
1.0
141
100.0
290
     0
  0
SCALE
  5
54
102
{ACAD_REACTORS
330
47
102
}
330
47
100
AcDbScale
 70
     0
300
2:1
140
2.0
141
1.0
290
     0
  0
SCALE
  5
55
102
{ACAD_REACTORS
330
47
102
}
330
47
100
AcDbScale
 70
     0
300
4:1
140
4.0
141
1.0
290
     0
  0
SCALE
  5
56
102
{ACAD_REACTORS
330
47
102
}
330
47
100
AcDbScale
 70
     0
300
8:1
140
8.0
141
1.0
290
     0
  0
SCALE
  5
57
102
{ACAD_REACTORS
330
47
102
}
330
47
100
AcDbScale
 70
     0
300
10:1
140
10.0
141
1.0
290
     0
  0
SCALE
  5
58
102
{ACAD_REACTORS
330
47
102
}
330
47
100
AcDbScale
 70
     0
300
100:1
140
100.0
141
1.0
290
     0
  0
SCALE
  5
59
102
{ACAD_REACTORS
330
47
102
}
330
47
100
AcDbScale
 70
     0
300
1/128" = 1'-0"
140
0.0078125
141
12.0
290
     0
  0
SCALE
  5
5A
102
{ACAD_REACTORS
330
47
102
}
330
47
100
AcDbScale
 70
     0
300
1/64" = 1'-0"
140
0.015625
141
12.0
290
     0
  0
SCALE
  5
5B
102
{ACAD_REACTORS
330
47
102
}
330
47
100
AcDbScale
 70
     0
300
1/32" = 1'-0"
140
0.03125
141
12.0
290
     0
  0
SCALE
  5
5C
102
{ACAD_REACTORS
330
47
102
}
330
47
100
AcDbScale
 70
     0
300
1/16" = 1'-0"
140
0.0625
141
12.0
290
     0
  0
SCALE
  5
5D
102
{ACAD_REACTORS
330
47
102
}
330
47
100
AcDbScale
 70
     0
300
3/32" = 1'-0"
140
0.09375
141
12.0
290
     0
  0
SCALE
  5
5E
102
{ACAD_REACTORS
330
47
102
}
330
47
100
AcDbScale
 70
     0
300
1/8" = 1'-0"
140
0.125
141
12.0
290
     0
  0
SCALE
  5
5F
102
{ACAD_REACTORS
330
47
102
}
330
47
100
AcDbScale
 70
     0
300
3/16" = 1'-0"
140
0.1875
141
12.0
290
     0
  0
SCALE
  5
60
102
{ACAD_REACTORS
330
47
102
}
330
47
100
AcDbScale
 70
     0
300
1/4" = 1'-0"
140
0.25
141
12.0
290
     0
  0
SCALE
  5
61
102
{ACAD_REACTORS
330
47
102
}
330
47
100
AcDbScale
 70
     0
300
3/8" = 1'-0"
140
0.375
141
12.0
290
     0
  0
SCALE
  5
62
102
{ACAD_REACTORS
330
47
102
}
330
47
100
AcDbScale
 70
     0
300
1/2" = 1'-0"
140
0.5
141
12.0
290
     0
  0
SCALE
  5
63
102
{ACAD_REACTORS
330
47
102
}
330
47
100
AcDbScale
 70
     0
300
3/4" = 1'-0"
140
0.75
141
12.0
290
     0
  0
SCALE
  5
64
102
{ACAD_REACTORS
330
47
102
}
330
47
100
AcDbScale
 70
     0
300
1" = 1'-0"
140
1.0
141
12.0
290
     0
  0
SCALE
  5
65
102
{ACAD_REACTORS
330
47
102
}
330
47
100
AcDbScale
 70
     0
300
1-1/2" = 1'-0"
140
1.5
141
12.0
290
     0
  0
SCALE
  5
66
102
{ACAD_REACTORS
330
47
102
}
330
47
100
AcDbScale
 70
     0
300
3" = 1'-0"
140
3.0
141
12.0
290
     0
  0
SCALE
  5
67
102
{ACAD_REACTORS
330
47
102
}
330
47
100
AcDbScale
 70
     0
300
6" = 1'-0"
140
6.0
141
12.0
290
     0
  0
SCALE
  5
68
102
{ACAD_REACTORS
330
47
102
}
330
47
100
AcDbScale
 70
     0
300
1'-0" = 1'-0"
140
12.0
141
12.0
290
     0
  0
ENDSEC
  0
EOF
