  0
SECTION
  2
HEADER
  9
$ACADVER
  1
AC1015
  9
$ACADMAINTVER
 70
     6
  9
$DWGCODEPAGE
  3
ANSI_949
  9
$INSBASE
 10
0.0
 20
0.0
 30
0.0
  9
$EXTMIN
 10
-42.95000000000012
 20
-49.97180738881175
 30
0.0
  9
$EXTMAX
 10
91.54473381534558
 20
36.98524999999997
 30
0.0
  9
$LIMMIN
 10
0.0
 20
0.0
  9
$LIMMAX
 10
420.0
 20
297.0
  9
$ORTHOMODE
 70
     1
  9
$REGENMODE
 70
     1
  9
$FILLMODE
 70
     1
  9
$QTEXTMODE
 70
     0
  9
$MIRRTEXT
 70
     1
  9
$LTSCALE
 40
1.0
  9
$ATTMODE
 70
     1
  9
$TEXTSIZE
 40
3.5
  9
$TRACEWID
 40
1.0
  9
$TEXTSTYLE
  7
Standard
  9
$CLAYER
  8
0
  9
$CELTYPE
  6
ByLayer
  9
$CECOLOR
 62
   256
  9
$CELTSCALE
 40
1.0
  9
$DISPSILH
 70
     0
  9
$DIMSCALE
 40
1.0
  9
$DIMASZ
 40
3.302
  9
$DIMEXO
 40
1.0
  9
$DIMDLI
 40
3.75
  9
$DIMRND
 40
0.0
  9
$DIMDLE
 40
0.0
  9
$DIMEXE
 40
1.0
  9
$DIMTP
 40
0.0
  9
$DIMTM
 40
0.0
  9
$DIMTXT
 40
3.5
  9
$DIMCEN
 40
2.5
  9
$DIMTSZ
 40
0.0
  9
$DIMTOL
 70
     0
  9
$DIMLIM
 70
     0
  9
$DIMTIH
 70
     1
  9
$DIMTOH
 70
     1
  9
$DIMSE1
 70
     0
  9
$DIMSE2
 70
     0
  9
$DIMTAD
 70
     1
  9
$DIMZIN
 70
     0
  9
$DIMBLK
  1

  9
$DIMASO
 70
     1
  9
$DIMSHO
 70
     1
  9
$DIMPOST
  1

  9
$DIMAPOST
  1

  9
$DIMALT
 70
     0
  9
$DIMALTD
 70
     3
  9
$DIMALTF
 40
0.0393700787401575
  9
$DIMLFAC
 40
1.0
  9
$DIMTOFL
 70
     1
  9
$DIMTVP
 40
0.0
  9
$DIMTIX
 70
     0
  9
$DIMSOXD
 70
     0
  9
$DIMSAH
 70
     0
  9
$DIMBLK1
  1

  9
$DIMBLK2
  1

  9
$DIMSTYLE
  2
ISO-25
  9
$DIMCLRD
 70
     0
  9
$DIMCLRE
 70
     0
  9
$DIMCLRT
 70
     0
  9
$DIMTFAC
 40
1.0
  9
$DIMGAP
 40
1.524
  9
$DIMJUST
 70
     0
  9
$DIMSD1
 70
     0
  9
$DIMSD2
 70
     0
  9
$DIMTOLJ
 70
     0
  9
$DIMTZIN
 70
     0
  9
$DIMALTZ
 70
     0
  9
$DIMALTTZ
 70
     0
  9
$DIMUPT
 70
     0
  9
$DIMDEC
 70
     2
  9
$DIMTDEC
 70
     2
  9
$DIMALTU
 70
     2
  9
$DIMALTTD
 70
     3
  9
$DIMTXSTY
  7
Standard
  9
$DIMAUNIT
 70
     0
  9
$DIMADEC
 70
     2
  9
$DIMALTRND
 40
0.0
  9
$DIMAZIN
 70
     0
  9
$DIMDSEP
 70
    44
  9
$DIMATFIT
 70
     3
  9
$DIMFRAC
 70
     0
  9
$DIMLDRBLK
  1

  9
$DIMLUNIT
 70
     2
  9
$DIMLWD
 70
    -2
  9
$DIMLWE
 70
    -2
  9
$DIMTMOVE
 70
     0
  9
$LUNITS
 70
     2
  9
$LUPREC
 70
     2
  9
$SKETCHINC
 40
1.0
  9
$FILLETRAD
 40
10.0
  9
$AUNITS
 70
     0
  9
$AUPREC
 70
     2
  9
$MENU
  1
.
  9
$ELEVATION
 40
0.0
  9
$PELEVATION
 40
0.0
  9
$THICKNESS
 40
0.0
  9
$LIMCHECK
 70
     0
  9
$CHAMFERA
 40
0.0
  9
$CHAMFERB
 40
0.0
  9
$CHAMFERC
 40
0.0
  9
$CHAMFERD
 40
0.0
  9
$SKPOLY
 70
     0
  9
$TDCREATE
 40
2458319.739017291
  9
$TDUCREATE
 40
2458319.364017291
  9
$TDUPDATE
 40
2458323.495247211
  9
$TDUUPDATE
 40
2458323.120247211
  9
$TDINDWG
 40
0.002038206
  9
$TDUSRTIMER
 40
0.0020381944
  9
$USRTIMER
 70
     1
  9
$ANGBASE
 50
0.0
  9
$ANGDIR
 70
     0
  9
$PDMODE
 70
     0
  9
$PDSIZE
 40
-1.0
  9
$PLINEWID
 40
0.0
  9
$SPLFRAME
 70
     0
  9
$SPLINETYPE
 70
     6
  9
$SPLINESEGS
 70
     8
  9
$HANDSEED
  5
1F1
  9
$SURFTAB1
 70
     6
  9
$SURFTAB2
 70
     6
  9
$SURFTYPE
 70
     6
  9
$SURFU
 70
     6
  9
$SURFV
 70
     6
  9
$UCSBASE
  2

  9
$UCSNAME
  2

  9
$UCSORG
 10
0.0
 20
0.0
 30
0.0
  9
$UCSXDIR
 10
1.0
 20
0.0
 30
0.0
  9
$UCSYDIR
 10
0.0
 20
1.0
 30
0.0
  9
$UCSORTHOREF
  2

  9
$UCSORTHOVIEW
 70
     0
  9
$UCSORGTOP
 10
0.0
 20
0.0
 30
0.0
  9
$UCSORGBOTTOM
 10
0.0
 20
0.0
 30
0.0
  9
$UCSORGLEFT
 10
0.0
 20
0.0
 30
0.0
  9
$UCSORGRIGHT
 10
0.0
 20
0.0
 30
0.0
  9
$UCSORGFRONT
 10
0.0
 20
0.0
 30
0.0
  9
$UCSORGBACK
 10
0.0
 20
0.0
 30
0.0
  9
$PUCSBASE
  2

  9
$PUCSNAME
  2

  9
$PUCSORG
 10
0.0
 20
0.0
 30
0.0
  9
$PUCSXDIR
 10
1.0
 20
0.0
 30
0.0
  9
$PUCSYDIR
 10
0.0
 20
1.0
 30
0.0
  9
$PUCSORTHOREF
  2

  9
$PUCSORTHOVIEW
 70
     0
  9
$PUCSORGTOP
 10
0.0
 20
0.0
 30
0.0
  9
$PUCSORGBOTTOM
 10
0.0
 20
0.0
 30
0.0
  9
$PUCSORGLEFT
 10
0.0
 20
0.0
 30
0.0
  9
$PUCSORGRIGHT
 10
0.0
 20
0.0
 30
0.0
  9
$PUCSORGFRONT
 10
0.0
 20
0.0
 30
0.0
  9
$PUCSORGBACK
 10
0.0
 20
0.0
 30
0.0
  9
$USERI1
 70
     0
  9
$USERI2
 70
     0
  9
$USERI3
 70
     0
  9
$USERI4
 70
     0
  9
$USERI5
 70
     0
  9
$USERR1
 40
0.0
  9
$USERR2
 40
0.0
  9
$USERR3
 40
0.0
  9
$USERR4
 40
0.0
  9
$USERR5
 40
0.0
  9
$WORLDVIEW
 70
     1
  9
$SHADEDGE
 70
     3
  9
$SHADEDIF
 70
    70
  9
$TILEMODE
 70
     1
  9
$MAXACTVP
 70
    64
  9
$PINSBASE
 10
0.0
 20
0.0
 30
0.0
  9
$PLIMCHECK
 70
     0
  9
$PEXTMIN
 10
1.000000000000000E+20
 20
1.000000000000000E+20
 30
1.000000000000000E+20
  9
$PEXTMAX
 10
-1.000000000000000E+20
 20
-1.000000000000000E+20
 30
-1.000000000000000E+20
  9
$PLIMMIN
 10
0.0
 20
0.0
  9
$PLIMMAX
 10
0.0
 20
0.0
  9
$UNITMODE
 70
     0
  9
$VISRETAIN
 70
     1
  9
$PLINEGEN
 70
     0
  9
$PSLTSCALE
 70
     1
  9
$TREEDEPTH
 70
  3020
  9
$CMLSTYLE
  2
Standard
  9
$CMLJUST
 70
     0
  9
$CMLSCALE
 40
20.0
  9
$PROXYGRAPHICS
 70
     1
  9
$MEASUREMENT
 70
     1
  9
$CELWEIGHT
370
    -1
  9
$ENDCAPS
280
     0
  9
$JOINSTYLE
280
     0
  9
$LWDISPLAY
290
     1
  9
$INSUNITS
 70
     4
  9
$HYPERLINKBASE
  1

  9
$STYLESHEET
  1

  9
$XEDIT
290
     1
  9
$CEPSNTYPE
380
     0
  9
$PSTYLEMODE
290
     1
  9
$FINGERPRINTGUID
  2
{4D88807A-882E-419F-8B9D-849BB267C60F}
  9
$VERSIONGUID
  2
{FAEB1C32-E019-11D5-929B-00C0DF256EC4}
  9
$EXTNAMES
290
     1
  9
$PSVPSCALE
 40
0.0
  9
$OLESTARTUP
290
     0
  0
ENDSEC
  0
SECTION
  2
CLASSES
  0
CLASS
  1
ACDBDICTIONARYWDFLT
  2
AcDbDictionaryWithDefault
  3
ObjectDBX Classes
 90
        0
280
     0
281
     0
  0
CLASS
  1
VISUALSTYLE
  2
AcDbVisualStyle
  3
ObjectDBX Classes
 90
     4095
280
     0
281
     0
  0
CLASS
  1
MATERIAL
  2
AcDbMaterial
  3
ObjectDBX Classes
 90
     1153
280
     0
281
     0
  0
CLASS
  1
SCALE
  2
AcDbScale
  3
ObjectDBX Classes
 90
     1153
280
     0
281
     0
  0
CLASS
  1
SUN
  2
AcDbSun
  3
SCENEOE
 90
     1153
280
     0
281
     0
  0
CLASS
  1
ACDBPLACEHOLDER
  2
AcDbPlaceHolder
  3
ObjectDBX Classes
 90
        0
280
     0
281
     0
  0
CLASS
  1
LAYOUT
  2
AcDbLayout
  3
ObjectDBX Classes
 90
        0
280
     0
281
     0
  0
CLASS
  1
TABLESTYLE
  2
AcDbTableStyle
  3
ObjectDBX Classes
 90
     4095
280
     0
281
     0
  0
CLASS
  1
MLEADERSTYLE
  2
AcDbMLeaderStyle
  3
ACDB_MLEADERSTYLE_CLASS
 90
     4095
280
     0
281
     0
  0
ENDSEC
  0
SECTION
  2
TABLES
  0
TABLE
  2
VPORT
  5
8
330
0
100
AcDbSymbolTable
 70
     1
  0
VPORT
  5
29
330
8
100
AcDbSymbolTableRecord
100
AcDbViewportTableRecord
  2
*Active
 70
     0
 10
0.0
 20
0.0
 11
1.0
 21
1.0
 12
24.29736690767273
 22
-6.493278694405895
 13
0.0
 23
0.0
 14
10.0
 24
10.0
 15
10.0
 25
10.0
 16
0.0
 26
0.0
 36
1.0
 17
0.0
 27
0.0
 37
0.0
 40
88.69619853658794
 41
1.782762691853601
 42
50.0
 43
0.0
 44
0.0
 50
0.0
 51
0.0
 71
    16
 72
  2000
 73
     1
 74
     3
 75
     0
 76
     0
 77
     0
 78
     0
281
     0
 65
     1
110
0.0
120
0.0
130
0.0
111
1.0
121
0.0
131
0.0
112
0.0
122
1.0
132
0.0
 79
     0
146
0.0
  0
ENDTAB
  0
TABLE
  2
LTYPE
  5
5
330
0
100
AcDbSymbolTable
 70
     6
  0
LTYPE
  5
14
330
5
100
AcDbSymbolTableRecord
100
AcDbLinetypeTableRecord
  2
ByBlock
 70
     0
  3

 72
    65
 73
     0
 40
0.0
  0
LTYPE
  5
15
330
5
100
AcDbSymbolTableRecord
100
AcDbLinetypeTableRecord
  2
ByLayer
 70
     0
  3

 72
    65
 73
     0
 40
0.0
  0
LTYPE
  5
16
330
5
100
AcDbSymbolTableRecord
100
AcDbLinetypeTableRecord
  2
Continuous
 70
     0
  3
Solid line
 72
    65
 73
     0
 40
0.0
  0
LTYPE
  5
6A
330
5
100
AcDbSymbolTableRecord
100
AcDbLinetypeTableRecord
  2
HIDDEN
 70
     0
  3
Hidden __ __ __ __ __ __ __ __ __ __ __ __ __ __
 72
    65
 73
     2
 40
1.905
 49
1.27
 74
     0
 49
-0.635
 74
     0
  0
LTYPE
  5
6B
330
5
100
AcDbSymbolTableRecord
100
AcDbLinetypeTableRecord
  2
PHANTOM
 70
     0
  3
Phantom ______  __  __  ______  __  __  ______
 72
    65
 73
     6
 40
12.7
 49
6.35
 74
     0
 49
-1.27
 74
     0
 49
1.27
 74
     0
 49
-1.27
 74
     0
 49
1.27
 74
     0
 49
-1.27
 74
     0
  0
LTYPE
  5
6C
330
5
100
AcDbSymbolTableRecord
100
AcDbLinetypeTableRecord
  2
CENTER
 70
     0
  3
Center ____ _ ____ _ ____ _ ____ _ ____ _ ____
 72
    65
 73
     4
 40
10.16
 49
6.35
 74
     0
 49
-1.27
 74
     0
 49
1.27
 74
     0
 49
-1.27
 74
     0
  0
LTYPE
  5
6D
330
5
100
AcDbSymbolTableRecord
100
AcDbLinetypeTableRecord
  2
CENTERX2
 70
     0
  3
Center (2x) ________  __  ________  __  _____
 72
    65
 73
     4
 40
20.32
 49
12.7
 74
     0
 49
-2.54
 74
     0
 49
2.54
 74
     0
 49
-2.54
 74
     0
  0
LTYPE
  5
6E
330
5
100
AcDbSymbolTableRecord
100
AcDbLinetypeTableRecord
  2
DOT2
 70
     0
  3
Dot (.5x) ........................................
 72
    65
 73
     2
 40
0.635
 49
0.0
 74
     0
 49
-0.635
 74
     0
  0
ENDTAB
  0
TABLE
  2
LAYER
  5
2
102
{ACAD_XDICTIONARY
360
180
102
}
330
0
100
AcDbSymbolTable
 70
    18
  0
LAYER
  5
10
330
2
100
AcDbSymbolTableRecord
100
AcDbLayerTableRecord
  2
0
 70
     0
 62
     7
  6
Continuous
370
    -3
390
F
  0
LAYER
  5
6F
330
2
100
AcDbSymbolTableRecord
100
AcDbLayerTableRecord
  2
FORMAT
 70
     0
 62
     2
  6
Continuous
370
    -3
390
F
  0
LAYER
  5
70
330
2
100
AcDbSymbolTableRecord
100
AcDbLayerTableRecord
  2
외형선
 70
     0
 62
     4
  6
Continuous
370
    30
390
F
  0
LAYER
  5
71
330
2
100
AcDbSymbolTableRecord
100
AcDbLayerTableRecord
  2
숨은선
 70
     0
 62
     2
  6
HIDDEN
370
    15
390
F
  0
LAYER
  5
72
330
2
100
AcDbSymbolTableRecord
100
AcDbLayerTableRecord
  2
중심선
 70
     0
 62
     1
  6
CENTERX2
370
    -3
390
F
  0
LAYER
  5
73
330
2
100
AcDbSymbolTableRecord
100
AcDbLayerTableRecord
  2
파단선
 70
     0
 62
     4
  6
Continuous
370
    -3
390
F
  0
LAYER
  5
74
330
2
100
AcDbSymbolTableRecord
100
AcDbLayerTableRecord
  2
해칭선
 70
     0
 62
   100
  6
Continuous
370
    -3
390
F
  0
LAYER
  5
75
330
2
100
AcDbSymbolTableRecord
100
AcDbLayerTableRecord
  2
가는실선
 70
     0
 62
     4
  6
Continuous
370
    -3
390
F
  0
LAYER
  5
76
330
2
100
AcDbSymbolTableRecord
100
AcDbLayerTableRecord
  2
치수_보조선
 70
     0
 62
     4
  6
Continuous
370
    -3
390
F
  0
LAYER
  5
77
330
2
100
AcDbSymbolTableRecord
100
AcDbLayerTableRecord
  2
치수문자_일반주서
 70
     0
 62
     7
  6
Continuous
370
    15
390
F
  0
LAYER
  5
78
330
2
100
AcDbSymbolTableRecord
100
AcDbLayerTableRecord
  2
개별주서
 70
     0
 62
   100
  6
Continuous
370
    30
390
F
  0
LAYER
  5
79
330
2
100
AcDbSymbolTableRecord
100
AcDbLayerTableRecord
  2
중간선
 70
     0
 62
     2
  6
Continuous
370
    15
390
F
  0
LAYER
  5
7A
330
2
100
AcDbSymbolTableRecord
100
AcDbLayerTableRecord
  2
윤곽선
 70
     0
 62
     3
  6
Continuous
370
    40
390
F
  0
LAYER
  5
7B
330
2
100
AcDbSymbolTableRecord
100
AcDbLayerTableRecord
  2
중심마크
 70
     0
 62
   100
  6
Continuous
370
    30
390
F
  0
LAYER
  5
7C
330
2
100
AcDbSymbolTableRecord
100
AcDbLayerTableRecord
  2
가상선
 70
     0
 62
     4
  6
PHANTOM
370
    -3
390
F
  0
LAYER
  5
7D
330
2
100
AcDbSymbolTableRecord
100
AcDbLayerTableRecord
  2
특수지정선
 70
     0
 62
     5
  6
CENTERX2
370
    60
390
F
  0
LAYER
  5
7E
330
2
100
AcDbSymbolTableRecord
100
AcDbLayerTableRecord
  2
참조1
 70
     0
 62
    -4
  6
Continuous
370
    -3
390
F
  0
LAYER
  5
14D
330
2
100
AcDbSymbolTableRecord
100
AcDbLayerTableRecord
  2
Defpoints
 70
     0
 62
     7
  6
Continuous
290
     0
370
    -3
390
F
  0
ENDTAB
  0
TABLE
  2
STYLE
  5
3
330
0
100
AcDbSymbolTable
 70
     2
  0
STYLE
  5
11
330
3
100
AcDbSymbolTableRecord
100
AcDbTextStyleTableRecord
  2
Standard
 70
     0
 40
0.0
 41
1.0
 50
0.0
 71
     0
 42
3.5
  3
txt
  4

  0
STYLE
  5
94
330
3
100
AcDbSymbolTableRecord
100
AcDbTextStyleTableRecord
  2
SLDTEXTSTYLE0
 70
     0
 40
0.0
 41
0.75
 50
0.0
 71
     0
 42
3.5
  3
TXT
  4

  0
ENDTAB
  0
TABLE
  2
VIEW
  5
6
330
0
100
AcDbSymbolTable
 70
     0
  0
ENDTAB
  0
TABLE
  2
UCS
  5
7
330
0
100
AcDbSymbolTable
 70
     0
  0
ENDTAB
  0
TABLE
  2
APPID
  5
9
330
0
100
AcDbSymbolTable
 70
     4
  0
APPID
  5
12
330
9
100
AcDbSymbolTableRecord
100
AcDbRegAppTableRecord
  2
ACAD
 70
     0
  0
APPID
  5
19F
330
9
100
AcDbSymbolTableRecord
100
AcDbRegAppTableRecord
  2
PE_URL
 70
     0
  0
APPID
  5
1EF
330
9
100
AcDbSymbolTableRecord
100
AcDbRegAppTableRecord
  2
ACAD_DSTYLE_DIMFLIPARROW_SYMBOL
 70
     0
  0
APPID
  5
1F0
330
9
100
AcDbSymbolTableRecord
100
AcDbRegAppTableRecord
  2
ACAD_DSTYLE_DIMFLIPARROW_WHICH_SYMBOL
 70
     0
  0
ENDTAB
  0
TABLE
  2
DIMSTYLE
  5
A
330
0
100
AcDbSymbolTable
 70
     3
100
AcDbDimStyleTable
  0
DIMSTYLE
105
27
330
A
100
AcDbSymbolTableRecord
100
AcDbDimStyleTableRecord
  2
ISO-25
 70
     0
 41
2.5
 42
0.625
 43
3.75
 44
1.25
 73
     0
 74
     0
 77
     1
 78
     8
140
2.5
141
2.5
143
0.03937007874016
147
0.625
171
     3
172
     1
178
     0
271
     2
272
     2
274
     3
278
    44
283
     0
284
     8
340
11
  0
DIMSTYLE
105
CC
102
{ACAD_REACTORS
330
CB
330
E0
330
172
330
108
330
F3
102
}
330
A
100
AcDbSymbolTableRecord
100
AcDbDimStyleTableRecord
  2
SLDDIMSTYLE0
 70
     0
 41
3.302
 44
0.0
 45
0.000000001
 73
     0
 74
     0
 77
     1
 78
    12
 79
     3
140
3.5
143
0.0393700787401575
147
0.875
148
0.000000001
170
     1
173
     1
178
     0
271
     2
272
     2
276
     2
284
    12
340
94
  0
DIMSTYLE
105
F4
330
A
100
AcDbSymbolTableRecord
100
AcDbDimStyleTableRecord
  2
SLDDIMSTYLE1
 70
     0
 41
3.302
 44
0.0
 45
0.000000001
 73
     0
 74
     0
 77
     1
 78
    12
 79
     3
140
3.5
143
0.0393700787401575
147
0.875
148
0.000000001
170
     1
172
     1
173
     1
178
     0
271
     2
272
     2
276
     2
284
    12
289
     0
340
94
  0
ENDTAB
  0
TABLE
  2
BLOCK_RECORD
  5
1
330
0
100
AcDbSymbolTable
 70
    10
  0
BLOCK_RECORD
  5
1F
330
1
100
AcDbSymbolTableRecord
100
AcDbBlockTableRecord
  2
*Model_Space
340
22
  0
BLOCK_RECORD
  5
1B
330
1
100
AcDbSymbolTableRecord
100
AcDbBlockTableRecord
  2
*Paper_Space
340
1E
  0
BLOCK_RECORD
  5
23
330
1
100
AcDbSymbolTableRecord
100
AcDbBlockTableRecord
  2
*Paper_Space0
340
26
  0
BLOCK_RECORD
  5
7F
330
1
100
AcDbSymbolTableRecord
100
AcDbBlockTableRecord
  2
블럭10
340
0
102
{BLKREFS
331
C4
102
}
  0
BLOCK_RECORD
  5
CD
330
1
100
AcDbSymbolTableRecord
100
AcDbBlockTableRecord
  2
_D
340
0
  0
BLOCK_RECORD
  5
E1
330
1
100
AcDbSymbolTableRecord
100
AcDbBlockTableRecord
  2
_D_1
340
0
  0
BLOCK_RECORD
  5
F5
330
1
100
AcDbSymbolTableRecord
100
AcDbBlockTableRecord
  2
_D_2
340
0
  0
BLOCK_RECORD
  5
109
330
1
100
AcDbSymbolTableRecord
100
AcDbBlockTableRecord
  2
_D_3
340
0
  0
BLOCK_RECORD
  5
123
330
1
100
AcDbSymbolTableRecord
100
AcDbBlockTableRecord
  2
SW_DOWELSYMBOL_0
340
0
102
{BLKREFS
331
129
102
}
  0
BLOCK_RECORD
  5
184
330
1
100
AcDbSymbolTableRecord
100
AcDbBlockTableRecord
  2
*D8
340
0
  0
BLOCK_RECORD
  5
193
330
1
100
AcDbSymbolTableRecord
100
AcDbBlockTableRecord
  2
*D9
340
0
  0
ENDTAB
  0
ENDSEC
  0
SECTION
  2
BLOCKS
  0
BLOCK
  5
20
330
1F
100
AcDbEntity
  8
0
100
AcDbBlockBegin
  2
*Model_Space
 70
     0
 10
0.0
 20
0.0
 30
0.0
  3
*Model_Space
  1

  0
ENDBLK
  5
21
330
1F
100
AcDbEntity
  8
0
100
AcDbBlockEnd
  0
BLOCK
  5
1C
330
1B
100
AcDbEntity
 67
     1
  8
0
100
AcDbBlockBegin
  2
*Paper_Space
 70
     0
 10
0.0
 20
0.0
 30
0.0
  3
*Paper_Space
  1

  0
ENDBLK
  5
1D
330
1B
100
AcDbEntity
 67
     1
  8
0
100
AcDbBlockEnd
  0
BLOCK
  5
24
330
23
100
AcDbEntity
  8
0
100
AcDbBlockBegin
  2
*Paper_Space0
 70
     0
 10
0.0
 20
0.0
 30
0.0
  3
*Paper_Space0
  1

  0
ENDBLK
  5
25
330
23
100
AcDbEntity
  8
0
100
AcDbBlockEnd
  0
BLOCK
  5
80
330
7F
100
AcDbEntity
  8
0
100
AcDbBlockBegin
  2
블럭10
 70
     2
 10
0.0
 20
0.0
 30
0.0
  3
블럭10
  1

  0
ELLIPSE
  5
82
330
7F
100
AcDbEntity
  8
중심선
100
AcDbEllipse
 10
20.54032771741204
 20
12.0471743016438
 30
0.0
 11
6.600054785286829
 21
-1.261213355974178E-13
 31
0.0
210
0.0
220
0.0
230
1.0
 40
0.636358354079598
 41
0.9219305317359503
 42
6.513795318482858
  0
ELLIPSE
  5
83
330
7F
100
AcDbEntity
  8
중심선
100
AcDbEllipse
 10
20.54032771746488
 20
12.04717430159265
 30
0.0
 11
3.960054785062283
 21
1.540847449632565E-10
 31
0.0
210
0.0
220
0.0
230
1.0
 40
0.3939339440162632
 41
1.131841032648279
 42
5.62031148352944
  0
LINE
  5
84
330
7F
100
AcDbEntity
  8
중심선
100
AcDbLine
 10
2.268634060543552
 20
16.24717430164393
 30
0.0
 11
5.714909304380834
 21
16.24717430164393
 31
0.0
  0
LINE
  5
85
330
7F
100
AcDbEntity
  8
중심선
100
AcDbLine
 10
5.245725140726316
 20
7.84717430164391
 30
0.0
 11
8.692000384563599
 21
7.84717430164391
 31
0.0
  0
LINE
  5
86
330
7F
100
AcDbEntity
  8
중심선
100
AcDbLine
 10
15.74043728645272
 20
16.24717430164393
 30
0.0
 11
8.692000384563599
 21
7.84717430164391
 31
0.0
  0
LINE
  5
87
330
7F
100
AcDbEntity
  8
중심선
100
AcDbLine
 10
0.1404042013395286
 20
13.71084872107135
 30
0.0
 11
3.58671253028996
 21
13.71088815037384
 31
0.0
  0
LINE
  5
88
330
7F
100
AcDbEntity
  8
중심선
100
AcDbLine
 10
2.750260043222114
 20
10.84717430164391
 30
0.0
 11
6.196535287059397
 21
10.84717430164391
 31
0.0
  0
LINE
  5
89
330
7F
100
AcDbEntity
  8
중심선
100
AcDbLine
 10
12.29416204261559
 20
16.24717430164393
 30
0.0
 11
5.245725140726316
 21
7.84717430164391
 31
0.0
  0
LINE
  5
8A
330
7F
100
AcDbEntity
  8
중심선
100
AcDbLine
 10
10.72767329541681
 20
16.24717430164393
 30
0.0
 11
6.196535287059397
 21
10.84717430164391
 31
0.0
  0
LINE
  5
8B
330
7F
100
AcDbEntity
  8
중심선
100
AcDbLine
 10
7.28139805157953
 20
16.24717430164393
 30
0.0
 11
2.750260043222114
 21
10.84717430164391
 31
0.0
  0
LINE
  5
8C
330
7F
100
AcDbEntity
  8
중심선
100
AcDbLine
 10
5.714909304380834
 20
16.24717430164393
 30
0.0
 11
3.58671253028996
 21
13.71088815037384
 31
0.0
  0
LINE
  5
8D
330
7F
100
AcDbEntity
  8
중심선
100
AcDbLine
 10
2.268634060543552
 20
16.24717430164393
 30
0.0
 11
0.1404042013395286
 21
13.71084872107135
 31
0.0
  0
LINE
  5
8E
330
7F
100
AcDbEntity
  8
중심선
100
AcDbLine
 10
7.28139805157953
 20
16.24717430164393
 30
0.0
 11
10.72767329541681
 21
16.24717430164393
 31
0.0
  0
LINE
  5
8F
330
7F
100
AcDbEntity
  8
중심선
100
AcDbLine
 10
12.29416204261559
 20
16.24717430164393
 30
0.0
 11
15.74043728645272
 21
16.24717430164393
 31
0.0
  0
LINE
  5
90
330
7F
100
AcDbEntity
  8
중심선
100
AcDbLine
 10
19.22036997980202
 20
11.08717430171403
 30
0.0
 11
23.66174974927406
 21
11.08717430171406
 31
0.0
  0
LINE
  5
91
330
7F
100
AcDbEntity
  8
중심선
100
AcDbLine
 10
19.22039502424796
 20
13.00717430171391
 30
0.0
 11
19.22036997980202
 21
11.08717430171403
 31
0.0
  0
LINE
  5
92
330
7F
100
AcDbEntity
  8
중심선
100
AcDbLine
 10
19.22039502424796
 20
13.00717430171391
 30
0.0
 11
26.96566020931264
 21
13.00717430171391
 31
0.0
  0
LINE
  5
93
330
7F
100
AcDbEntity
  8
중심선
100
AcDbLine
 10
22.22332737316547
 20
13.45928029700563
 30
0.0
 11
24.52862924686651
 21
15.39360700705356
 31
0.0
  0
ATTDEF
  5
95
330
7F
100
AcDbEntity
  8
FORMAT
 62
     2
100
AcDbText
 10
4.408487351596664
 20
2.075366912832191
 30
0.0
 40
4.233333333333333
  1
E1013008
 41
0.75
  7
SLDTEXTSTYLE0
 11
4.408487351596664
 21
-0.0412997538344756
 31
0.0
100
AcDbAttributeDefinition
  3

  2
AUTOATTR0
 70
     0
 74
     1
  0
ENDBLK
  5
81
330
7F
100
AcDbEntity
  8
0
100
AcDbBlockEnd
  0
BLOCK
  5
CE
330
CD
100
AcDbEntity
  8
0
100
AcDbBlockBegin
  2
_D
 70
     0
 10
0.0
 20
0.0
 30
0.0
  3
_D
  1

  0
LINE
  5
D0
330
CD
100
AcDbEntity
  8
치수문자_일반주서
 62
     0
370
    -2
100
AcDbLine
 10
28.57499999999999
 20
1.650000000000003
 30
0.0
 11
28.57499999999999
 21
12.38125
 31
0.0
  0
LINE
  5
D1
330
CD
100
AcDbEntity
  8
치수문자_일반주서
 62
     0
370
    -2
100
AcDbLine
 10
19.05
 20
1.649999999999992
 30
0.0
 11
19.05
 21
12.38125
 31
0.0
  0
LINE
  5
D2
330
CD
100
AcDbEntity
  8
치수문자_일반주서
 62
     0
370
    -2
100
AcDbLine
 10
28.57499999999999
 20
12.38125
 30
0.0
 11
55.72075
 21
12.38125
 31
0.0
  0
LINE
  5
D3
330
CD
100
AcDbEntity
  8
치수문자_일반주서
 62
     0
370
    -2
100
AcDbLine
 10
28.57499999999999
 20
12.38125
 30
0.0
 11
19.05
 21
12.38125
 31
0.0
  0
LINE
  5
D4
330
CD
100
AcDbEntity
  8
치수문자_일반주서
 62
     0
370
    -2
100
AcDbLine
 10
31.87699999999999
 20
12.38125
 30
0.0
 11
35.17899999999999
 21
12.38125
 31
0.0
  0
LINE
  5
D5
330
CD
100
AcDbEntity
  8
치수문자_일반주서
 62
     0
370
    -2
100
AcDbLine
 10
15.748
 20
12.38125
 30
0.0
 11
12.446
 21
12.38125
 31
0.0
  0
SOLID
  5
D6
330
CD
100
AcDbEntity
  8
치수문자_일반주서
 62
     0
100
AcDbTrace
 10
31.87699999999999
 20
12.93158333333334
 30
0.0
 11
31.87699999999999
 21
11.83091666666667
 31
0.0
 12
28.57499999999999
 22
12.38125
 32
0.0
 13
28.57499999999999
 23
12.38125
 33
0.0
  0
SOLID
  5
D7
330
CD
100
AcDbEntity
  8
치수문자_일반주서
 62
     0
100
AcDbTrace
 10
15.748
 20
11.83091666666667
 30
0.0
 11
15.748
 21
12.93158333333334
 31
0.0
 12
19.05
 22
12.38125
 32
0.0
 13
19.05
 23
12.38125
 33
0.0
  0
MTEXT
  5
D8
330
CD
100
AcDbEntity
  8
치수문자_일반주서
 62
     0
100
AcDbMText
 10
43.90825
 20
16.75625
 30
0.0
 40
3.5
 41
0.0
 71
     2
 72
     1
  1
\A1;9.53 [3/8]
  7
SLDTEXTSTYLE0
 73
     1
 44
1.0
  0
POINT
  5
D9
330
CD
100
AcDbEntity
  8
Defpoints
 62
     0
100
AcDbPoint
 10
28.57499999999999
 20
1.587500000000003
 30
0.0
  0
POINT
  5
1A4
330
CD
100
AcDbEntity
  8
Defpoints
 62
     0
100
AcDbPoint
 10
19.05
 20
1.587499999999992
 30
0.0
  0
POINT
  5
1A5
330
CD
100
AcDbEntity
  8
Defpoints
 62
     0
100
AcDbPoint
 10
19.05
 20
12.38125
 30
0.0
  0
ENDBLK
  5
CF
330
CD
100
AcDbEntity
  8
0
100
AcDbBlockEnd
  0
BLOCK
  5
E2
330
E1
100
AcDbEntity
  8
0
100
AcDbBlockBegin
  2
_D_1
 70
     0
 10
0.0
 20
0.0
 30
0.0
  3
_D_1
  1

  0
LINE
  5
E4
330
E1
100
AcDbEntity
  8
치수문자_일반주서
 62
     0
370
    -2
100
AcDbLine
 10
28.57499999999999
 20
1.650000000000003
 30
0.0
 11
28.57499999999999
 21
22.38125
 31
0.0
  0
LINE
  5
E5
330
E1
100
AcDbEntity
  8
치수문자_일반주서
 62
     0
370
    -2
100
AcDbLine
 10
-28.575
 20
1.65
 30
0.0
 11
-28.575
 21
22.38125
 31
0.0
  0
LINE
  5
E6
330
E1
100
AcDbEntity
  8
치수문자_일반주서
 62
     0
370
    -2
100
AcDbLine
 10
25.27299999999999
 20
22.38125
 30
0.0
 11
-25.273
 21
22.38125
 31
0.0
  0
SOLID
  5
E7
330
E1
100
AcDbEntity
  8
치수문자_일반주서
 62
     0
100
AcDbTrace
 10
25.27299999999999
 20
21.83091666666667
 30
0.0
 11
25.27299999999999
 21
22.93158333333334
 31
0.0
 12
28.57499999999999
 22
22.38125
 32
0.0
 13
28.57499999999999
 23
22.38125
 33
0.0
  0
SOLID
  5
E8
330
E1
100
AcDbEntity
  8
치수문자_일반주서
 62
     0
100
AcDbTrace
 10
-25.273
 20
22.93158333333334
 30
0.0
 11
-25.273
 21
21.83091666666667
 31
0.0
 12
-28.575
 22
22.38125
 32
0.0
 13
-28.575
 23
22.38125
 33
0.0
  0
MTEXT
  5
E9
330
E1
100
AcDbEntity
  8
치수문자_일반주서
 62
     0
100
AcDbMText
 10
0.0
 20
26.75625
 30
0.0
 40
3.5
 41
0.0
 71
     2
 72
     1
  1
\A1;57.15 [2 1/4]
  7
SLDTEXTSTYLE0
 73
     1
 44
1.0
  0
POINT
  5
EA
330
E1
100
AcDbEntity
  8
Defpoints
 62
     0
100
AcDbPoint
 10
28.57499999999999
 20
1.587500000000003
 30
0.0
  0
POINT
  5
EB
330
E1
100
AcDbEntity
  8
Defpoints
 62
     0
100
AcDbPoint
 10
-28.575
 20
1.5875
 30
0.0
  0
POINT
  5
EC
330
E1
100
AcDbEntity
  8
Defpoints
 62
     0
100
AcDbPoint
 10
-28.575
 20
22.38125
 30
0.0
  0
ENDBLK
  5
E3
330
E1
100
AcDbEntity
  8
0
100
AcDbBlockEnd
  0
BLOCK
  5
F6
330
F5
100
AcDbEntity
  8
0
100
AcDbBlockBegin
  2
_D_2
 70
     0
 10
0.0
 20
0.0
 30
0.0
  3
_D_2
  1

  0
LINE
  5
F8
330
F5
100
AcDbEntity
  8
치수문자_일반주서
 62
     0
370
    -2
100
AcDbLine
 10
-15.15018467149219
 20
2.381249999999999
 30
0.0
 11
-38.57500000000002
 21
2.381249999999913
 31
0.0
  0
LINE
  5
F9
330
F5
100
AcDbEntity
  8
치수문자_일반주서
 62
     0
370
    -2
100
AcDbLine
 10
-15.15018467149219
 20
-2.38125
 30
0.0
 11
-38.57500000000001
 21
-2.38125000000009
 31
0.0
  0
LINE
  5
FA
330
F5
100
AcDbEntity
  8
치수문자_일반주서
 62
     0
370
    -2
100
AcDbLine
 10
-38.57500000000002
 20
2.381249999999913
 30
0.0
 11
-38.57500000000013
 21
36.98524999999997
 31
0.0
  0
LINE
  5
FB
330
F5
100
AcDbEntity
  8
치수문자_일반주서
 62
     0
370
    -2
100
AcDbLine
 10
-38.57500000000003
 20
5.683249999999912
 30
0.0
 11
-38.57500000000004
 21
8.985249999999912
 31
0.0
  0
LINE
  5
FC
330
F5
100
AcDbEntity
  8
치수문자_일반주서
 62
     0
370
    -2
100
AcDbLine
 10
-38.575
 20
-5.68325000000009
 30
0.0
 11
-38.575
 21
-8.98525000000009
 31
0.0
  0
SOLID
  5
FD
330
F5
100
AcDbEntity
  8
치수문자_일반주서
 62
     0
100
AcDbTrace
 10
-39.12533333333337
 20
5.68324999999991
 30
0.0
 11
-38.0246666666667
 21
5.683249999999914
 31
0.0
 12
-38.57500000000002
 22
2.381249999999913
 32
0.0
 13
-38.57500000000002
 23
2.381249999999913
 33
0.0
  0
SOLID
  5
FE
330
F5
100
AcDbEntity
  8
치수문자_일반주서
 62
     0
100
AcDbTrace
 10
-38.02466666666667
 20
-5.683250000000088
 30
0.0
 11
-39.12533333333334
 21
-5.683250000000092
 31
0.0
 12
-38.57500000000001
 22
-2.38125000000009
 32
0.0
 13
-38.57500000000001
 23
-2.38125000000009
 33
0.0
  0
MTEXT
  5
FF
330
F5
100
AcDbEntity
  8
치수문자_일반주서
 62
     0
100
AcDbMText
 10
-42.95000000000009
 20
22.98524999999995
 30
0.0
 40
3.5
 41
0.0
 71
     2
 72
     1
  1
\A1;%%c4.76 [3/16]
  7
SLDTEXTSTYLE0
 11
-2.983906501879686E-15
 21
1.0
 31
0.0
 73
     1
 44
1.0
  0
POINT
  5
100
330
F5
100
AcDbEntity
  8
Defpoints
 62
     0
100
AcDbPoint
 10
-15.08768467149219
 20
2.38125
 30
0.0
  0
POINT
  5
101
330
F5
100
AcDbEntity
  8
Defpoints
 62
     0
100
AcDbPoint
 10
-15.08768467149219
 20
-2.38125
 30
0.0
  0
POINT
  5
1A3
330
F5
100
AcDbEntity
  8
Defpoints
 62
     0
100
AcDbPoint
 10
-38.57500000000001
 20
-2.381250000000088
 30
0.0
  0
ENDBLK
  5
F7
330
F5
100
AcDbEntity
  8
0
100
AcDbBlockEnd
  0
BLOCK
  5
10A
330
109
100
AcDbEntity
  8
0
100
AcDbBlockBegin
  2
_D_3
 70
     0
 10
0.0
 20
0.0
 30
0.0
  3
_D_3
  1

  0
LINE
  5
10C
330
109
100
AcDbEntity
  8
치수문자_일반주서
 62
     0
370
    -2
100
AcDbLine
 10
28.63749999999999
 20
1.587500000000004
 30
0.0
 11
62.14458922842506
 21
1.587500000000126
 31
0.0
  0
LINE
  5
10D
330
109
100
AcDbEntity
  8
치수문자_일반주서
 62
     0
370
    -2
100
AcDbLine
 10
28.63749999999999
 20
-1.587499999999996
 30
0.0
 11
62.14458922842508
 21
-1.587499999999871
 31
0.0
  0
LINE
  5
10E
330
109
100
AcDbEntity
  8
치수문자_일반주서
 62
     0
370
    -2
100
AcDbLine
 10
62.14458922842506
 20
1.587500000000126
 30
0.0
 11
62.14458922842492
 21
32.91025000000013
 31
0.0
  0
LINE
  5
10F
330
109
100
AcDbEntity
  8
치수문자_일반주서
 62
     0
370
    -2
100
AcDbLine
 10
62.14458922842505
 20
4.889500000000126
 30
0.0
 11
62.14458922842503
 21
8.191500000000126
 31
0.0
  0
LINE
  5
110
330
109
100
AcDbEntity
  8
치수문자_일반주서
 62
     0
370
    -2
100
AcDbLine
 10
62.14458922842509
 20
-4.88949999999987
 30
0.0
 11
62.1445892284251
 21
-8.19149999999987
 31
0.0
  0
SOLID
  5
111
330
109
100
AcDbEntity
  8
치수문자_일반주서
 62
     0
100
AcDbTrace
 10
61.59425589509171
 20
4.889500000000123
 30
0.0
 11
62.69492256175838
 21
4.889500000000129
 31
0.0
 12
62.14458922842506
 22
1.587500000000126
 32
0.0
 13
62.14458922842506
 23
1.587500000000126
 33
0.0
  0
SOLID
  5
112
330
109
100
AcDbEntity
  8
치수문자_일반주서
 62
     0
100
AcDbTrace
 10
62.69492256175842
 20
-4.889499999999868
 30
0.0
 11
61.59425589509176
 21
-4.889499999999873
 31
0.0
 12
62.14458922842508
 22
-1.587499999999871
 32
0.0
 13
62.14458922842508
 23
-1.587499999999871
 33
0.0
  0
MTEXT
  5
113
330
109
100
AcDbEntity
  8
치수문자_일반주서
 62
     0
100
AcDbMText
 10
57.76958922842498
 20
20.66025000000012
 30
0.0
 40
3.5
 41
0.0
 71
     2
 72
     1
  1
\A1;%%c3.18 [1/8]
  7
SLDTEXTSTYLE0
 11
-4.475859752819529E-15
 21
1.0
 31
0.0
 73
     1
 44
1.0
  0
POINT
  5
114
330
109
100
AcDbEntity
  8
Defpoints
 62
     0
100
AcDbPoint
 10
28.57499999999999
 20
1.587500000000003
 30
0.0
  0
POINT
  5
115
330
109
100
AcDbEntity
  8
Defpoints
 62
     0
100
AcDbPoint
 10
28.57499999999999
 20
-1.587499999999996
 30
0.0
  0
POINT
  5
116
330
109
100
AcDbEntity
  8
Defpoints
 62
     0
100
AcDbPoint
 10
62.14458922842508
 20
-1.587499999999871
 30
0.0
  0
ENDBLK
  5
10B
330
109
100
AcDbEntity
  8
0
100
AcDbBlockEnd
  0
BLOCK
  5
124
330
123
100
AcDbEntity
  8
0
100
AcDbBlockBegin
  2
SW_DOWELSYMBOL_0
 70
     0
 10
0.0
 20
0.0
 30
0.0
  3
SW_DOWELSYMBOL_0
  1

  0
CIRCLE
  5
126
330
123
100
AcDbEntity
  8
해칭선
 62
     0
100
AcDbCircle
 10
0.0
 20
0.0
 30
0.0
 40
3.000000000000001
  0
HATCH
  5
127
330
123
100
AcDbEntity
  8
0
  6
Continuous
 62
     0
370
     0
100
AcDbHatch
 10
0.0
 20
0.0
 30
0.0
210
0.0
220
0.0
230
1.0
  2
SOLID
 70
     1
 71
     0
 91
        1
 92
        0
 93
        3
 72
     2
 10
0.0
 20
0.0
 40
3.000000000000001
 50
0.0
 51
90.0
 73
     1
 72
     1
 10
0.0
 20
3.000000000000001
 11
0.0
 21
0.0
 72
     1
 10
0.0
 20
0.0
 11
3.000000000000001
 21
0.0
 97
        0
 75
     0
 76
     1
 98
        1
 10
0.0
 20
0.0
  0
HATCH
  5
128
330
123
100
AcDbEntity
  8
0
  6
Continuous
 62
     0
370
     0
100
AcDbHatch
 10
0.0
 20
0.0
 30
0.0
210
0.0
220
0.0
230
1.0
  2
SOLID
 70
     1
 71
     0
 91
        1
 92
        0
 93
        3
 72
     2
 10
0.0
 20
0.0
 40
3.000000000000001
 50
180.0
 51
270.0000000000008
 73
     1
 72
     1
 10
0.0
 20
-3.000000000000001
 11
0.0
 21
0.0
 72
     1
 10
0.0
 20
0.0
 11
-3.000000000000001
 21
0.0
 97
        0
 75
     0
 76
     1
 98
        1
 10
0.0
 20
0.0
  0
ENDBLK
  5
125
330
123
100
AcDbEntity
  8
0
100
AcDbBlockEnd
  0
BLOCK
  5
185
330
184
100
AcDbEntity
  8
0
100
AcDbBlockBegin
  2
*D8
 70
     1
 10
0.0
 20
0.0
 30
0.0
  3
*D8
  1

  0
LINE
  5
187
330
184
100
AcDbEntity
  8
치수문자_일반주서
 62
     0
370
    -2
100
AcDbLine
 10
0.0
 20
0.0625
 30
0.0
 11
0.0
 21
33.34302707304683
 31
0.0
  0
LINE
  5
188
330
184
100
AcDbEntity
  8
치수문자_일반주서
 62
     0
370
    -2
100
AcDbLine
 10
25.99995813577124
 20
7.726047483784873
 30
0.0
 11
25.99995813577124
 21
33.34302707304683
 31
0.0
  0
LINE
  5
189
330
184
100
AcDbEntity
  8
치수문자_일반주서
 62
     0
370
    -2
100
AcDbLine
 10
3.302
 20
33.34302707304683
 30
0.0
 11
22.69795813577124
 21
33.34302707304683
 31
0.0
  0
SOLID
  5
18A
330
184
100
AcDbEntity
  8
치수문자_일반주서
 62
     0
100
AcDbTrace
 10
3.302
 20
33.89336040638016
 30
0.0
 11
3.302
 21
32.79269373971349
 31
0.0
 12
0.0
 22
33.34302707304683
 32
0.0
 13
0.0
 23
33.34302707304683
 33
0.0
  0
SOLID
  5
18B
330
184
100
AcDbEntity
  8
치수문자_일반주서
 62
     0
100
AcDbTrace
 10
22.69795813577124
 20
32.79269373971349
 30
0.0
 11
22.69795813577124
 21
33.89336040638016
 31
0.0
 12
25.99995813577124
 22
33.34302707304683
 32
0.0
 13
25.99995813577124
 23
33.34302707304683
 33
0.0
  0
MTEXT
  5
18C
330
184
100
AcDbEntity
  8
치수문자_일반주서
 62
     0
100
AcDbMText
 10
13.04655386270326
 20
37.71802707304683
 30
0.0
 40
3.5
 41
0.0
 71
     2
 72
     1
  1
\A1;26 [1.02]
  7
SLDTEXTSTYLE0
 73
     1
 44
1.0
  0
POINT
  5
18D
330
184
100
AcDbEntity
  8
Defpoints
 62
     0
100
AcDbPoint
 10
0.0
 20
0.0
 30
0.0
  0
POINT
  5
18E
330
184
100
AcDbEntity
  8
Defpoints
 62
     0
100
AcDbPoint
 10
25.99995813577124
 20
7.663547483784873
 30
0.0
  0
POINT
  5
18F
330
184
100
AcDbEntity
  8
Defpoints
 62
     0
100
AcDbPoint
 10
25.99995813577124
 20
33.34302707304683
 30
0.0
  0
ENDBLK
  5
186
330
184
100
AcDbEntity
  8
0
100
AcDbBlockEnd
  0
BLOCK
  5
194
330
193
100
AcDbEntity
  8
0
100
AcDbBlockBegin
  2
*D9
 70
     1
 10
0.0
 20
0.0
 30
0.0
  3
*D9
  1

  0
LINE
  5
196
330
193
100
AcDbEntity
  8
치수문자_일반주서
 62
     0
370
    -2
100
AcDbLine
 10
55.63695531969444
 20
-27.19576440170155
 30
0.0
 11
55.63695531969444
 21
6.084762671345281
 31
0.0
  0
LINE
  5
197
330
193
100
AcDbEntity
  8
치수문자_일반주서
 62
     0
370
    -2
100
AcDbLine
 10
81.63691345546567
 20
-19.53221691791667
 30
0.0
 11
81.63691345546567
 21
6.084762671345281
 31
0.0
  0
LINE
  5
198
330
193
100
AcDbEntity
  8
치수문자_일반주서
 62
     0
370
    -2
100
AcDbLine
 10
58.93895531969444
 20
6.084762671345281
 30
0.0
 11
78.33491345546568
 21
6.084762671345281
 31
0.0
  0
SOLID
  5
199
330
193
100
AcDbEntity
  8
치수문자_일반주서
 62
     0
100
AcDbTrace
 10
58.93895531969444
 20
6.635096004678615
 30
0.0
 11
58.93895531969444
 21
5.534429338011948
 31
0.0
 12
55.63695531969444
 22
6.084762671345281
 32
0.0
 13
55.63695531969444
 23
6.084762671345281
 33
0.0
  0
SOLID
  5
19A
330
193
100
AcDbEntity
  8
치수문자_일반주서
 62
     0
100
AcDbTrace
 10
78.33491345546568
 20
5.534429338011948
 30
0.0
 11
78.33491345546568
 21
6.635096004678615
 31
0.0
 12
81.63691345546567
 22
6.084762671345281
 32
0.0
 13
81.63691345546567
 23
6.084762671345281
 33
0.0
  0
MTEXT
  5
19B
330
193
100
AcDbEntity
  8
치수문자_일반주서
 62
     0
100
AcDbMText
 10
68.6835091823977
 20
10.45976267134528
 30
0.0
 40
3.5
 41
0.0
 71
     2
 72
     1
  1
\A1;26 [1.02]
  7
SLDTEXTSTYLE0
 73
     1
 44
1.0
  0
POINT
  5
19C
330
193
100
AcDbEntity
  8
Defpoints
 62
     0
100
AcDbPoint
 10
55.63695531969444
 20
-27.25826440170155
 30
0.0
  0
POINT
  5
19D
330
193
100
AcDbEntity
  8
Defpoints
 62
     0
100
AcDbPoint
 10
81.63691345546567
 20
-19.59471691791667
 30
0.0
  0
POINT
  5
19E
330
193
100
AcDbEntity
  8
Defpoints
 62
     0
100
AcDbPoint
 10
81.63691345546567
 20
6.084762671345281
 30
0.0
  0
ENDBLK
  5
195
330
193
100
AcDbEntity
  8
0
100
AcDbBlockEnd
  0
ENDSEC
  0
SECTION
  2
ENTITIES
  0
LINE
  5
96
330
1F
100
AcDbEntity
  8
외형선
  6
Continuous
370
    15
100
AcDbLine
 10
15.0876846714922
 20
2.381250000000004
 30
0.0
 11
-15.08768467149219
 21
2.38125
 31
0.0
  0
LINE
  5
97
330
1F
100
AcDbEntity
  8
외형선
  6
Continuous
370
    15
100
AcDbLine
 10
-15.08768467149219
 20
-2.381250000000001
 30
0.0
 11
15.0876846714922
 21
-2.381249999999997
 31
0.0
  0
LINE
  5
9A
330
1F
100
AcDbEntity
  8
외형선
  6
Continuous
370
    15
100
AcDbLine
 10
15.0876846714922
 20
-2.381249999999997
 30
0.0
 11
18.04999999999999
 21
-1.587499999999997
 31
0.0
  0
LINE
  5
9B
330
1F
100
AcDbEntity
  8
외형선
  6
Continuous
370
    15
100
AcDbLine
 10
18.04999999999999
 20
1.587500000000003
 30
0.0
 11
15.0876846714922
 21
2.381250000000003
 31
0.0
  0
LINE
  5
9C
330
1F
100
AcDbEntity
  8
외형선
  6
Continuous
370
    15
100
AcDbLine
 10
19.04999999999999
 20
1.587500000000003
 30
0.0
 11
18.04999999999999
 21
1.587500000000003
 31
0.0
  0
LINE
  5
9D
330
1F
100
AcDbEntity
  8
외형선
  6
Continuous
370
    15
100
AcDbLine
 10
18.04999999999999
 20
-1.587499999999997
 30
0.0
 11
19.04999999999999
 21
-1.587499999999996
 31
0.0
  0
LINE
  5
9E
330
1F
100
AcDbEntity
  8
0
  6
Continuous
 62
     1
370
    15
100
AcDbLine
 10
26.66949820461236
 20
-1.587499999999996
 30
0.0
 11
26.98749999999999
 21
-1.587499999999996
 31
0.0
1001
PE_URL
1000

  0
LINE
  5
9F
330
1F
100
AcDbEntity
  8
0
  6
Continuous
 62
     1
370
    15
100
AcDbLine
 10
21.48236563653628
 20
1.587500000000003
 30
0.0
 11
19.04999999999999
 21
1.587500000000003
 31
0.0
1001
PE_URL
1000

  0
ARC
  5
A0
330
1F
100
AcDbEntity
  8
0
  6
Continuous
 62
     1
370
    15
100
AcDbCircle
 10
26.98749999999999
 20
0.0000000000000035
 30
0.0
 40
1.5875
100
AcDbArc
 50
270.0000000000007
 51
0.0
1001
PE_URL
1000

  0
ARC
  5
A1
330
1F
100
AcDbEntity
  8
0
  6
Continuous
 62
     1
370
    15
100
AcDbCircle
 10
26.98749999999999
 20
0.0000000000000035
 30
0.0
 40
1.5875
100
AcDbArc
 50
0.0
 51
90.0
1001
PE_URL
1000

  0
LINE
  5
A2
330
1F
100
AcDbEntity
  8
0
  6
Continuous
 62
     1
370
    15
100
AcDbLine
 10
19.04999999999999
 20
-1.587499999999996
 30
0.0
 11
21.48236563653628
 21
-1.587499999999996
 31
0.0
1001
PE_URL
1000

  0
LINE
  5
A3
330
1F
100
AcDbEntity
  8
0
  6
Continuous
 62
     1
370
    15
100
AcDbLine
 10
26.98749999999999
 20
1.587500000000003
 30
0.0
 11
26.66949820461236
 21
1.587500000000003
 31
0.0
1001
PE_URL
1000

  0
LINE
  5
A4
330
1F
100
AcDbEntity
  8
외형선
  6
Continuous
370
    15
100
AcDbLine
 10
15.0876846714922
 20
2.381250000000003
 30
0.0
 11
15.0876846714922
 21
-2.381249999999999
 31
0.0
  0
LINE
  5
A7
330
1F
100
AcDbEntity
  8
외형선
  6
Continuous
370
    15
100
AcDbLine
 10
18.04999999999999
 20
1.587500000000003
 30
0.0
 11
18.04999999999999
 21
-1.587499999999997
 31
0.0
  0
LINE
  5
A8
330
1F
100
AcDbEntity
  8
외형선
  6
Continuous
370
    15
100
AcDbLine
 10
19.04999999999999
 20
1.587500000000003
 30
0.0
 11
19.04999999999999
 21
1.479925009659197
 31
0.0
  0
SPLINE
  5
A9
330
1F
100
AcDbEntity
  8
외형선
  6
Continuous
370
    15
100
AcDbSpline
210
0.0
220
0.0
230
1.0
 70
     8
 71
     3
 72
     8
 73
     4
 74
     0
 42
0.000000001
 43
0.00000001
 40
0.0
 40
0.0
 40
0.0
 40
0.0
 40
1.0
 40
1.0
 40
1.0
 40
1.0
 10
19.04999999999999
 20
1.479925009659197
 30
0.0
 10
18.75635028734803
 20
1.541702107799181
 30
0.0
 10
18.45430538728299
 20
1.577835614509116
 30
0.0
 10
18.16004575186635
 20
1.585781892148996
 30
0.0
  0
SPLINE
  5
AA
330
1F
100
AcDbEntity
  8
외형선
  6
Continuous
370
    15
100
AcDbSpline
210
0.0
220
0.0
230
1.0
 70
     8
 71
     3
 72
     8
 73
     4
 74
     0
 42
0.000000001
 43
0.00000001
 40
0.0
 40
0.0
 40
0.0
 40
0.0
 40
1.0
 40
1.0
 40
1.0
 40
1.0
 10
19.04999999999997
 20
-1.005744305537556
 30
0.0
 10
18.7563849835912
 20
-0.8736677938550806
 30
0.0
 10
18.45437256988748
 20
-0.72257655070148
 30
0.0
 10
18.16015005637543
 20
-0.5628511651056887
 30
0.0
  0
LINE
  5
AB
330
1F
100
AcDbEntity
  8
외형선
  6
Continuous
370
    15
100
AcDbLine
 10
19.04999999999999
 20
-1.005744305537595
 30
0.0
 11
19.04999999999999
 21
-1.587499999999996
 31
0.0
  0
LINE
  5
AC
330
1F
100
AcDbEntity
  8
외형선
  6
Continuous
370
    15
100
AcDbLine
 10
18.16015005637578
 20
-0.5629441376446765
 30
0.0
 11
18.16015005637578
 21
1.585785452610138
 31
0.0
  0
SPLINE
  5
AD
330
1F
100
AcDbEntity
  8
외형선
  6
Continuous
370
    15
100
AcDbSpline
210
0.0
220
0.0
230
1.0
 70
    24
 71
     3
 72
    14
 73
    10
 74
     0
 42
0.000000001
 43
0.00000001
 40
0.0
 40
0.0
 40
0.0
 40
0.0
 40
0.2499999999999999
 40
0.2499999999999999
 40
0.4999999999999999
 40
0.4999999999999999
 40
0.7499999999999999
 40
0.7499999999999999
 40
1.0
 40
1.0
 40
1.0
 40
1.0
 10
19.04999999999999
 20
0.3427078579660263
 30
0.0
 10
19.04999999999999
 20
0.2636374348209868
 30
0.0
 10
19.04999999999999
 20
0.1696657557033067
 30
0.0
 10
19.04999999999999
 20
-0.0464606037911172
 30
0.0
 10
19.04999999999999
 20
-0.1688291152079243
 30
0.0
 10
19.04999999999999
 20
-0.4250636561127978
 30
0.0
 10
19.04999999999999
 20
-0.558559487705696
 30
0.0
 10
19.04999999999999
 20
-0.8051205019651947
 30
0.0
 10
19.04999999999999
 20
-0.9173510993002836
 30
0.0
 10
19.04999999999999
 20
-1.005744305537022
 30
0.0
  0
SPLINE
  5
AE
330
1F
100
AcDbEntity
  8
외형선
  6
Continuous
370
    15
100
AcDbSpline
210
0.0
220
0.0
230
1.0
 70
     8
 71
     3
 72
     8
 73
     4
 74
     0
 42
0.000000001
 43
0.00000001
 40
0.0
 40
0.0
 40
0.0
 40
0.0
 40
1.0
 40
1.0
 40
1.0
 40
1.0
 10
19.04999999998953
 20
0.3427078579699522
 30
0.0
 10
18.75638498358411
 20
0.4529607094598015
 30
0.0
 10
18.45437256988422
 20
0.5581541802018447
 30
0.0
 10
18.16015005637578
 20
0.6510241866219866
 30
0.0
  0
SPLINE
  5
AF
330
1F
100
AcDbEntity
  8
외형선
  6
Continuous
370
    15
100
AcDbSpline
210
0.0
220
0.0
230
1.0
 70
    24
 71
     3
 72
    14
 73
    10
 74
     0
 42
0.000000001
 43
0.00000001
 40
0.0
 40
0.0
 40
0.0
 40
0.0
 40
0.2500000000000002
 40
0.2500000000000002
 40
0.5000000000000003
 40
0.5000000000000003
 40
0.7500000000000002
 40
0.7500000000000002
 40
1.0
 40
1.0
 40
1.0
 40
1.0
 10
19.04999999999999
 20
1.479925009664807
 30
0.0
 10
19.04999999999999
 20
1.36373497793971
 30
0.0
 10
19.04999999999999
 20
1.238068803768905
 30
0.0
 10
19.04999999999999
 20
0.9943272787350805
 30
0.0
 10
19.04999999999999
 20
0.8768048593078449
 30
0.0
 10
19.04999999999999
 20
0.6706982966106041
 30
0.0
 10
19.04999999999999
 20
0.5821413333859549
 30
0.0
 10
19.04999999999999
 20
0.4388895272043927
 30
0.0
 10
19.04999999999999
 20
0.3839132044329388
 30
0.0
 10
19.04999999999999
 20
0.3427078579660252
 30
0.0
  0
SPLINE
  5
B0
330
1F
100
AcDbEntity
  8
0
  6
Continuous
 62
     1
370
    15
100
AcDbSpline
210
0.0
220
0.0
230
1.0
 70
     8
 71
     3
 72
    19
 73
    15
 74
     0
 42
0.000000001
 43
0.00000001
 40
0.0
 40
0.0
 40
0.0
 40
0.0
 40
0.1077274755737452
 40
0.2167265423073472
 40
0.2999599255089619
 40
0.3837755018142821
 40
0.4668336004619331
 40
0.5504694841928045
 40
0.6335275658979084
 40
0.717162750255552
 40
0.8002209384460378
 40
0.8838555485303939
 40
0.9669139673219996
 40
1.0
 40
1.0
 40
1.0
 40
1.0
 10
26.98749999999999
 20
-0.6640620271061989
 30
0.0
 10
26.78980162059115
 20
-0.5573668619539528
 30
0.0
 10
26.39207127407696
 20
-0.3427171256522023
 30
0.0
 10
25.84202151463963
 20
-0.0221052417206649
 30
0.0
 10
25.33461587302942
 20
0.2683990866382407
 30
0.0
 10
24.87657252570754
 20
0.527447315632198
 30
0.0
 10
24.41595517855216
 20
0.7691138583071291
 30
0.0
 10
23.95852126804528
 20
0.9914368532030309
 30
0.0
 10
23.49838111668662
 20
1.184482953362348
 30
0.0
 10
23.04073870035268
 20
1.345746168705413
 30
0.0
 10
22.58088322232821
 20
1.469518508747514
 30
0.0
 10
22.12291688353795
 20
1.550146816402367
 30
0.0
 10
21.75621749502944
 20
1.588213065733693
 30
0.0
 10
21.5430815927351
 20
1.583520962770529
 30
0.0
 10
21.48236563653628
 20
1.58218432490274
 30
0.0
1001
PE_URL
1000

  0
SPLINE
  5
B1
330
1F
100
AcDbEntity
  8
0
  6
Continuous
 62
     1
370
    15
100
AcDbSpline
210
0.0
220
0.0
230
1.0
 70
     8
 71
     3
 72
    13
 73
     9
 74
     0
 42
0.000000001
 43
0.00000001
 40
0.0
 40
0.0
 40
0.0
 40
0.0
 40
0.1668062543423934
 40
0.3337268207531582
 40
0.5008691645560694
 40
0.7003601525552349
 40
0.8998514316543642
 40
1.0
 40
1.0
 40
1.0
 40
1.0
 10
28.15001525756404
 20
0.1664376237248693
 30
0.0
 10
27.90817780522366
 20
0.2593480747661288
 30
0.0
 10
27.42433716971047
 20
0.4452326482371921
 30
0.0
 10
26.69812942967515
 20
0.6898549643568799
 30
0.0
 10
25.92440107229775
 20
0.9012443519576664
 30
0.0
 10
25.10340293861897
 20
1.043932334763694
 30
0.0
 10
24.37956941606881
 20
1.100707831514695
 30
0.0
 10
23.94503376687937
 20
1.064927727704025
 30
0.0
 10
23.79979900076741
 20
1.052968950517164
 30
0.0
1001
PE_URL
1000

  0
SPLINE
  5
B2
330
1F
100
AcDbEntity
  8
0
  6
Continuous
 62
     1
370
    15
100
AcDbSpline
210
0.0
220
0.0
230
1.0
 70
     8
 71
     3
 72
    22
 73
    18
 74
     0
 42
0.000000001
 43
0.00000001
 40
0.0
 40
0.0
 40
0.0
 40
0.0
 40
0.125
 40
0.125
 40
0.25
 40
0.25
 40
0.375
 40
0.375
 40
0.5
 40
0.5
 40
0.625
 40
0.625
 40
0.75
 40
0.75
 40
0.875
 40
0.875
 40
1.0
 40
1.0
 40
1.0
 40
1.0
 10
26.98749999999999
 20
-0.6640620271061974
 30
0.0
 10
27.07562925918593
 20
-0.7103472905038678
 30
0.0
 10
27.16246514647191
 20
-0.7516329149932666
 30
0.0
 10
27.33570880195748
 20
-0.8211889737750493
 30
0.0
 10
27.42303440089149
 20
-0.8497185298325974
 30
0.0
 10
27.59537314664382
 20
-0.8865426592317348
 30
0.0
 10
27.67972646570455
 20
-0.895229046506792
 30
0.0
 10
27.84897432759345
 20
-0.8829697755402248
 30
0.0
 10
27.93152156931919
 20
-0.8618401680694802
 30
0.0
 10
28.08716299798308
 20
-0.777572053011493
 30
0.0
 10
28.15953083838962
 20
-0.7137340829089516
 30
0.0
 10
28.26956514097264
 20
-0.5442626316430172
 30
0.0
 10
28.30269133923116
 20
-0.443839007269705
 30
0.0
 10
28.31940207548116
 20
-0.2475125812019546
 30
0.0
 10
28.30432224599775
 20
-0.1549835460825383
 30
0.0
 10
28.24600491342796
 20
0.0144840271007715
 30
0.0
 10
28.20281684771454
 20
0.0922899288771073
 30
0.0
 10
28.15001525752694
 20
0.1664376237392241
 30
0.0
1001
PE_URL
1000

  0
SPLINE
  5
B3
330
1F
100
AcDbEntity
  8
0
  6
Continuous
 62
     1
370
    15
100
AcDbSpline
210
0.0
220
0.0
230
1.0
 70
     8
 71
     3
 72
    14
 73
    10
 74
     0
 42
0.000000001
 43
0.00000001
 40
0.0
 40
0.0
 40
0.0
 40
0.0
 40
0.0317328867080705
 40
0.1937927435903325
 40
0.3558528324257964
 40
0.5179131509476421
 40
0.6799736968865547
 40
0.8399865233970641
 40
1.0
 40
1.0
 40
1.0
 40
1.0
 10
24.40544700881516
 20
-1.07107355118268
 30
0.0
 10
24.3487990482277
 20
-1.074906388915128
 30
0.0
 10
24.00284994495088
 20
-1.098313529486384
 30
0.0
 10
23.36759918380291
 20
-1.036430199959041
 30
0.0
 10
22.49969419814804
 20
-0.8840383808432272
 30
0.0
 10
21.63178821177463
 20
-0.6348716656377167
 30
0.0
 10
20.76753544622792
 20
-0.3273841534576875
 30
0.0
 10
19.90694141670834
 20
0.0135358942045323
 30
0.0
 10
19.33564752573295
 20
0.2329837214546251
 30
0.0
 10
19.04999999999009
 20
0.342707857969742
 30
0.0
1001
PE_URL
1000

  0
SPLINE
  5
B4
330
1F
100
AcDbEntity
  8
외형선
  6
Continuous
370
    15
100
AcDbSpline
210
0.0
220
0.0
230
1.0
 70
    24
 71
     3
 72
    14
 73
    10
 74
     0
 42
0.000000001
 43
0.00000001
 40
0.0
 40
0.0
 40
0.0
 40
0.0
 40
0.2500000000000002
 40
0.2500000000000002
 40
0.5000000000000003
 40
0.5000000000000003
 40
0.7500000000000002
 40
0.7500000000000002
 40
1.0
 40
1.0
 40
1.0
 40
1.0
 10
19.04999999999999
 20
1.479925009664807
 30
0.0
 10
19.04999999999999
 20
1.36373497793971
 30
0.0
 10
19.04999999999999
 20
1.238068803768905
 30
0.0
 10
19.04999999999999
 20
0.9943272787350805
 30
0.0
 10
19.04999999999999
 20
0.8768048593078449
 30
0.0
 10
19.04999999999999
 20
0.6706982966106041
 30
0.0
 10
19.04999999999999
 20
0.5821413333859549
 30
0.0
 10
19.04999999999999
 20
0.4388895272043927
 30
0.0
 10
19.04999999999999
 20
0.3839132044329388
 30
0.0
 10
19.04999999999999
 20
0.3427078579660252
 30
0.0
  0
SPLINE
  5
B5
330
1F
100
AcDbEntity
  8
0
  6
Continuous
 62
     1
370
    15
100
AcDbSpline
210
0.0
220
0.0
230
1.0
 70
     8
 71
     3
 72
    18
 73
    14
 74
     0
 42
0.000000001
 43
0.00000001
 40
0.0
 40
0.0
 40
0.0
 40
0.0
 40
0.0973178416901846
 40
0.1945419841110762
 40
0.2917124001416569
 40
0.3888695690923634
 40
0.4860540955017204
 40
0.5833063254474923
 40
0.6751554996864179
 40
0.766885865049411
 40
0.8584943855324032
 40
0.950079229623341
 40
1.0
 40
1.0
 40
1.0
 40
1.0
 10
19.04999999999217
 20
1.479925009660841
 30
0.0
 10
19.29723713274889
 20
1.417914910298094
 30
0.0
 10
19.79147335415573
 20
1.29395441594847
 30
0.0
 10
20.53237526159673
 20
0.9858974327173687
 30
0.0
 10
21.27280226661502
 20
0.6144302946647462
 30
0.0
 10
22.01310123245176
 20
0.1965821420041095
 30
0.0
 10
22.75366315763582
 20
-0.2348916128919898
 30
0.0
 10
23.48080058191315
 20
-0.6420547012657595
 30
0.0
 10
24.19439814802294
 20
-0.996550844819247
 30
0.0
 10
24.89335693643793
 20
-1.281758286823548
 30
0.0
 10
25.5914575372976
 20
-1.479665228335467
 30
0.0
 10
26.18333485556342
 20
-1.582475873894567
 30
0.0
 10
26.54271500838179
 20
-1.576811329486164
 30
0.0
 10
26.66949820461237
 20
-1.574812974708764
 30
0.0
1001
PE_URL
1000

  0
SPLINE
  5
B6
330
1F
100
AcDbEntity
  8
0
  6
Continuous
 62
     1
370
    15
100
AcDbSpline
210
0.0
220
0.0
230
1.0
 70
     8
 71
     3
 72
    10
 73
     6
 74
     0
 42
0.000000001
 43
0.00000001
 40
0.0
 40
0.0
 40
0.0
 40
0.0
 40
0.5
 40
0.5
 40
1.0
 40
1.0
 40
1.0
 40
1.0
 10
28.15001525752693
 20
0.1664376237392252
 30
0.0
 10
28.18650832081516
 20
0.1884733783867039
 30
0.0
 10
28.21564649718673
 20
0.2219591947295479
 30
0.0
 10
28.2546275579884
 20
0.3068395227440766
 30
0.0
 10
28.26428805711193
 20
0.3579699194217787
 30
0.0
 10
28.26519183538269
 20
0.4111490879132578
 30
0.0
1001
PE_URL
1000

  0
ARC
  5
B7
330
1F
100
AcDbEntity
  8
0
  6
Continuous
 62
     1
370
    15
100
AcDbCircle
 10
27.81548208599176
 20
-0.2759622871941076
 30
0.0
 40
0.821194800579742
100
AcDbArc
 50
23.84130656543811
 51
56.79552415731826
1001
PE_URL
1000

  0
ARC
  5
B8
330
1F
100
AcDbEntity
  8
0
  6
Continuous
 62
     1
370
    15
100
AcDbCircle
 10
27.14723859996545
 20
0.0294465866810043
 30
0.0
 40
1.419612273962418
100
AcDbArc
 50
1.070495324450279
 51
71.1422567017304
1001
PE_URL
1000

  0
SPLINE
  5
B9
330
1F
100
AcDbEntity
  8
0
  6
Continuous
 62
     1
370
    15
100
AcDbSpline
210
0.0
220
0.0
230
1.0
 70
     8
 71
     3
 72
    10
 73
     6
 74
     0
 42
0.000000001
 43
0.00000001
 40
0.0
 40
0.0
 40
0.0
 40
0.0
 40
0.5
 40
0.5
 40
1.0
 40
1.0
 40
1.0
 40
1.0
 10
27.60608507530899
 20
1.372859747421045
 30
0.0
 10
27.50790077253598
 20
1.432795731938092
 30
0.0
 10
27.40672721184972
 20
1.47985141295777
 30
0.0
 10
27.20024232040956
 20
1.54831973461437
 30
0.0
 10
27.09390211458749
 20
1.569780851254717
 30
0.0
 10
26.98749999999764
 20
1.576884014624631
 30
0.0
1001
PE_URL
1000

  0
SPLINE
  5
BA
330
1F
100
AcDbEntity
  8
0
  6
Continuous
 62
     1
370
    15
100
AcDbSpline
210
0.0
220
0.0
230
1.0
 70
     8
 71
     3
 72
    11
 73
     7
 74
     0
 42
0.000000001
 43
0.00000001
 40
0.0
 40
0.0
 40
0.0
 40
0.0
 40
0.1890321189579131
 40
0.4593276595475542
 40
0.7295533417533236
 40
1.0
 40
1.0
 40
1.0
 40
1.0
 10
24.40544700881502
 20
1.071073551182696
 30
0.0
 10
24.56818517304768
 20
1.139767014913539
 30
0.0
 10
24.96362135875057
 20
1.306684722315041
 30
0.0
 10
25.59144903798099
 20
1.479920209550368
 30
0.0
 10
26.28932157864129
 20
1.59432354953949
 30
0.0
 10
26.75471045713485
 20
1.582698776634373
 30
0.0
 10
26.98749999999999
 20
1.576884014624474
 30
0.0
1001
PE_URL
1000

  0
SPLINE
  5
BB
330
1F
100
AcDbEntity
  8
0
  6
Continuous
 62
     1
370
    15
100
AcDbSpline
210
0.0
220
0.0
230
1.0
 70
     8
 71
     3
 72
    17
 73
    13
 74
     0
 42
0.000000001
 43
0.00000001
 40
0.0
 40
0.0
 40
0.0
 40
0.0
 40
0.0631523544840502
 40
0.1600917682396021
 40
0.256362400421788
 40
0.3533011485517873
 40
0.4495720480178626
 40
0.5465102800222684
 40
0.6427814961190113
 40
0.7397194713019458
 40
0.8690454496141186
 40
1.0
 40
1.0
 40
1.0
 40
1.0
 10
23.79979900076741
 20
-1.052968950517156
 30
0.0
 10
23.69973028981945
 20
-1.096066091197184
 30
0.0
 10
23.44605523665633
 20
-1.205317717900655
 30
0.0
 10
23.04072857876287
 20
-1.345122183280281
 30
0.0
 10
22.58088768265339
 20
-1.469257799354877
 30
0.0
 10
22.12290917784794
 20
-1.551826911083682
 30
0.0
 10
21.66346139007772
 20
-1.591420502122953
 30
0.0
 10
21.20506739394373
 20
-1.58679800512294
 30
0.0
 10
20.74601464538696
 20
-1.537996286508196
 30
0.0
 10
20.23496093313409
 20
-1.435974368885179
 30
0.0
 10
19.6697726735552
 20
-1.267435670567326
 30
0.0
 10
19.25745085537041
 20
-1.093337869815056
 30
0.0
 10
19.04999999999999
 20
-1.005744305537596
 30
0.0
1001
PE_URL
1000

  0
SPLINE
  5
BC
330
1F
100
AcDbEntity
  8
외형선
  6
Continuous
370
    15
100
AcDbSpline
210
0.0
220
0.0
230
1.0
 70
    24
 71
     3
 72
    14
 73
    10
 74
     0
 42
0.000000001
 43
0.00000001
 40
0.0
 40
0.0
 40
0.0
 40
0.0
 40
0.2499999999999999
 40
0.2499999999999999
 40
0.4999999999999999
 40
0.4999999999999999
 40
0.7499999999999999
 40
0.7499999999999999
 40
1.0
 40
1.0
 40
1.0
 40
1.0
 10
19.04999999999999
 20
0.3427078579660263
 30
0.0
 10
19.04999999999999
 20
0.2636374348209868
 30
0.0
 10
19.04999999999999
 20
0.1696657557033067
 30
0.0
 10
19.04999999999999
 20
-0.0464606037911172
 30
0.0
 10
19.04999999999999
 20
-0.1688291152079243
 30
0.0
 10
19.04999999999999
 20
-0.4250636561127978
 30
0.0
 10
19.04999999999999
 20
-0.558559487705696
 30
0.0
 10
19.04999999999999
 20
-0.8051205019651947
 30
0.0
 10
19.04999999999999
 20
-0.9173510993002836
 30
0.0
 10
19.04999999999999
 20
-1.005744305537022
 30
0.0
  0
SPLINE
  5
BD
330
1F
100
AcDbEntity
  8
0
  6
Continuous
 62
     1
370
    15
100
AcDbSpline
210
0.0
220
0.0
230
1.0
 70
     8
 71
     3
 72
     8
 73
     4
 74
     0
 42
0.000000001
 43
0.00000001
 40
0.0
 40
0.0
 40
0.0
 40
0.0
 40
1.0
 40
1.0
 40
1.0
 40
1.0
 10
27.28360167654802
 20
0.7106424728898838
 30
0.0
 10
27.60633402611633
 20
0.6209346837539035
 30
0.0
 10
27.93537515846901
 20
0.5198855860925051
 30
0.0
 10
28.26519183538269
 20
0.4111490879132708
 30
0.0
1001
PE_URL
1000

  0
SPLINE
  5
BE
330
1F
100
AcDbEntity
  8
0
  6
Continuous
 62
     1
370
    15
100
AcDbSpline
210
0.0
220
0.0
230
1.0
 70
     8
 71
     3
 72
    14
 73
    10
 74
     0
 42
0.000000001
 43
0.00000001
 40
0.0
 40
0.0
 40
0.0
 40
0.0
 40
0.25
 40
0.25
 40
0.5
 40
0.5
 40
0.75
 40
0.75
 40
1.0
 40
1.0
 40
1.0
 40
1.0
 10
27.606085075309
 20
1.372859747421046
 30
0.0
 10
27.61732257009173
 20
1.306187900890986
 30
0.0
 10
27.62235727074817
 20
1.23828245048228
 30
0.0
 10
27.61246910598271
 20
1.100917013523048
 30
0.0
 10
27.59715481003738
 20
1.033208267318563
 30
0.0
 10
27.54112727439108
 20
0.9100871974201467
 30
0.0
 10
27.50019317170181
 20
0.8552594923361272
 30
0.0
 10
27.40139797667888
 20
0.7677459982601926
 30
0.0
 10
27.34354126493333
 20
0.7344628427950282
 30
0.0
 10
27.28360167654852
 20
0.7106424728899444
 30
0.0
1001
PE_URL
1000

  0
LINE
  5
BF
330
1F
100
AcDbEntity
  8
중심선
 62
     1
100
AcDbLine
 10
-31.575
 20
-0.0000000000000039
 30
0.0
 11
31.57500000000001
 21
0.0000000000000039
 31
0.0
  0
LINE
  5
C0
330
1F
100
AcDbEntity
  8
참조1
100
AcDbLine
 10
-0.0000000000000036
 20
-0.0000000000000039
 30
0.0
 11
0.0000000000000036
 21
-40.00000000000001
 31
0.0
  0
LINE
  5
C1
330
1F
100
AcDbEntity
  8
참조1
100
AcDbLine
 10
28.575
 20
-0.0000000000000039
 30
0.0
 11
28.575
 21
0.6309734778393064
 31
0.0
  0
LINE
  5
C2
330
1F
100
AcDbEntity
  8
참조1
100
AcDbLine
 10
0.0000000000000036
 20
-40.00000000000001
 30
0.0
 11
-19.12760681430868
 21
-40.0
 31
0.0
  0
CIRCLE
  5
C3
330
1F
100
AcDbEntity
  8
해칭선
100
AcDbCircle
 10
0.0
 20
0.0
 30
0.0
 40
3.000000000000001
  0
INSERT
  5
C4
330
1F
100
AcDbEntity
  8
0
  6
Continuous
 62
     7
100
AcDbBlockReference
 66
     1
  2
블럭10
 10
-13.94027293212521
 20
-52.04717430164393
 30
0.0
  0
ATTRIB
  5
C5
330
C4
100
AcDbEntity
  8
FORMAT
 62
     2
100
AcDbText
 10
-23.12156822086649
 20
-49.97180738881175
 30
0.0
 40
4.233333333333333
  1
E1013008 [ 2 FLUTE ]
 41
0.75
  7
SLDTEXTSTYLE0
 11
-23.12156822086649
 21
-52.08847405547841
 31
0.0
100
AcDbAttribute
  2
AUTOATTR0
 70
     0
 74
     1
  0
SEQEND
  5
C6
330
C4
100
AcDbEntity
  8
0
  6
Continuous
 62
     7
  0
HATCH
  5
C7
330
1F
100
AcDbEntity
  8
중심선
100
AcDbHatch
 10
0.0
 20
0.0
 30
0.0
210
0.0
220
0.0
230
1.0
  2
SOLID
 70
     1
 71
     0
 91
        1
 92
        0
 93
        4
 72
     1
 10
-8.225363627744358
 20
-35.8
 11
-11.67163887158164
 21
-35.8
 72
     1
 10
-11.67163887158164
 20
-35.8
 11
-13.79986873078566
 21
-38.3363255805726
 72
     1
 10
-13.79986873078566
 20
-38.3363255805726
 11
-10.35356040183523
 21
-38.33628615127011
 72
     1
 10
-10.35356040183523
 20
-38.33628615127011
 11
-8.225363627744358
 21
-35.8
 97
        0
 75
     0
 76
     1
 98
        1
 10
10.12536934298443
 20
-0.0010749287238931
  0
HATCH
  5
C8
330
1F
100
AcDbEntity
  8
중심선
100
AcDbHatch
 10
0.0
 20
0.0
 30
0.0
210
0.0
220
0.0
230
1.0
  2
SOLID
 70
     1
 71
     0
 91
        1
 92
        0
 93
        4
 72
     1
 10
-3.212599636708404
 20
-35.80000000000003
 11
-6.65887488054566
 21
-35.79999999999998
 72
     1
 10
-6.65887488054566
 20
-35.79999999999998
 11
-11.19001288890308
 21
-41.20000000000002
 72
     1
 10
-11.19001288890308
 20
-41.20000000000002
 11
-7.743737645065792
 21
-41.20000000000002
 72
     1
 10
-7.743737645065792
 20
-41.20000000000002
 11
-3.212599636708404
 21
-35.80000000000003
 97
        0
 75
     0
 76
     1
 98
        1
 10
10.12536934298443
 20
-0.0010749287238931
  0
HATCH
  5
C9
330
1F
100
AcDbEntity
  8
중심선
100
AcDbHatch
 10
0.0
 20
0.0
 30
0.0
210
0.0
220
0.0
230
1.0
  2
SOLID
 70
     1
 71
     0
 91
        1
 92
        0
 93
        4
 72
     1
 10
1.800164354327491
 20
-35.8
 11
-1.646110889509597
 21
-35.8
 72
     1
 10
-1.646110889509597
 20
-35.8
 11
-8.694547791398875
 21
-44.20000000000002
 72
     1
 10
-8.694547791398875
 20
-44.20000000000002
 11
-5.248272547561591
 21
-44.20000000000002
 72
     1
 10
-5.248272547561591
 20
-44.20000000000002
 11
1.800164354327491
 21
-35.8
 97
        0
 75
     0
 76
     1
 98
        1
 10
10.12536934298443
 20
-0.0010749287238931
  0
HATCH
  5
CA
330
1F
100
AcDbEntity
  8
중심선
100
AcDbHatch
 10
0.0
 20
0.0
 30
0.0
210
0.0
220
0.0
230
1.0
  2
SOLID
 70
     1
 71
     0
 91
        1
 92
        0
 93
        6
 72
     3
 10
6.60005478533969
 20
-40.00000000005127
 11
3.960054785062283
 21
1.540882976769353E-10
 40
0.3939339440162628
 50
17.09539180608437
 51
320.0019657685081
 73
     0
 72
     1
 10
8.283054441040285
 20
-38.5878940046383
 11
10.58835631474132
 21
-36.65356729459038
 72
     3
 10
6.600054785286844
 20
-40.00000000000015
 11
6.600054785286829
 21
-1.278976924368180E-13
 40
0.636358354079598
 50
39.99873849337411
 51
368.4976242363725
 73
     1
 72
     1
 10
13.02538727718745
 20
-39.03999999993002
 11
5.280122092122765
 21
-39.03999999993002
 72
     1
 10
5.280122092122766
 20
-39.03999999993002
 11
5.280097047676832
 21
-40.95999999992991
 72
     1
 10
5.280097047676832
 20
-40.95999999992991
 11
9.721476817148869
 21
-40.95999999992988
 97
        0
 75
     0
 76
     1
 98
        1
 10
10.12536934298443
 20
-0.0010749287238931
  0
DIMENSION
  5
CB
330
1F
100
AcDbEntity
  8
치수문자_일반주서
100
AcDbDimension
  2
_D
 10
19.05
 20
12.38125
 30
0.0
 11
43.90825
 21
12.38125
 31
0.0
 70
   160
  1
<>
 71
     2
 42
9.524999999999991
  3
SLDDIMSTYLE0
100
AcDbAlignedDimension
 13
28.57499999999999
 23
1.587500000000003
 33
0.0
 14
19.05
 24
1.587499999999992
 34
0.0
 50
0.0000000000000107
100
AcDbRotatedDimension
1001
PE_URL
1000

1001
ACAD
1000
DSTYLE
1002
{
1070
   171
1070
     8
1070
   273
1070
     7
1002
}
1001
ACAD_DSTYLE_DIMFLIPARROW_SYMBOL
1070
   385
1070
     0
1001
ACAD_DSTYLE_DIMFLIPARROW_WHICH_SYMBOL
1070
   386
1070
     3
  0
DIMENSION
  5
E0
330
1F
100
AcDbEntity
  8
치수문자_일반주서
100
AcDbDimension
  2
_D_1
 10
-28.575
 20
22.38125
 30
0.0
 11
0.0
 21
22.38125
 31
0.0
 70
   160
  1
<>
 71
     2
 42
57.14999999999999
  3
SLDDIMSTYLE0
100
AcDbAlignedDimension
 13
28.57499999999999
 23
1.587500000000003
 33
0.0
 14
-28.575
 24
1.5875
 34
0.0
100
AcDbRotatedDimension
1001
PE_URL
1000

1001
ACAD
1000
DSTYLE
1002
{
1070
   171
1070
     8
1070
   273
1070
     7
1002
}
  0
DIMENSION
  5
F3
330
1F
100
AcDbEntity
  8
치수문자_일반주서
100
AcDbDimension
  2
_D_2
 10
-38.57500000000001
 20
-2.38125000000009
 30
0.0
 11
-38.57500000000009
 21
22.98524999999997
 31
0.0
 70
   160
  1
%%c<>
 71
     2
 42
4.762499999999999
 52
-270.0
  3
SLDDIMSTYLE0
100
AcDbAlignedDimension
 13
-15.08768467149219
 23
2.38125
 33
0.0
 14
-15.08768467149219
 24
-2.38125
 34
0.0
 50
90.0000000000002
100
AcDbRotatedDimension
1001
PE_URL
1000

1001
ACAD
1000
DSTYLE
1002
{
1070
   171
1070
     8
1070
   273
1070
     7
1002
}
  0
DIMENSION
  5
108
330
1F
100
AcDbEntity
  8
치수문자_일반주서
100
AcDbDimension
  2
_D_3
 10
62.14458922842508
 20
-1.587499999999871
 30
0.0
 11
62.14458922842498
 21
20.66025000000013
 31
0.0
 70
   160
  1
%%c<>
 71
     2
 42
3.175
 52
-270.0
  3
SLDDIMSTYLE0
100
AcDbAlignedDimension
 13
28.57499999999999
 23
1.587500000000003
 33
0.0
 14
28.57499999999999
 24
-1.587499999999996
 34
0.0
 50
90.0000000000002
100
AcDbRotatedDimension
1001
PE_URL
1000

1001
ACAD
1000
DSTYLE
1002
{
1070
   171
1070
     8
1070
   273
1070
     7
1002
}
  0
LINE
  5
11C
330
1F
100
AcDbEntity
  8
참조1
100
AcDbLine
 10
78.84473381534558
 20
7.440000000000002
 30
0.0
 11
78.84473381534558
 21
-7.440000000000002
 31
0.0
  0
LINE
  5
11D
330
1F
100
AcDbEntity
  8
참조1
100
AcDbLine
 10
91.54473381534558
 20
5.440000000000002
 30
0.0
 11
78.84473381534558
 21
5.440000000000002
 31
0.0
  0
SOLID
  5
11E
330
1F
100
AcDbEntity
  8
참조1
100
AcDbTrace
 10
78.84473381534558
 20
5.440000000000002
 30
0.0
 11
85.19473381534557
 21
4.424000000000002
 31
0.0
 12
85.19473381534557
 22
6.456000000000002
 32
0.0
 13
85.19473381534557
 23
6.456000000000002
 33
0.0
  0
LINE
  5
11F
330
1F
100
AcDbEntity
  8
참조1
100
AcDbLine
 10
91.54473381534558
 20
-5.440000000000002
 30
0.0
 11
78.84473381534558
 21
-5.440000000000002
 31
0.0
  0
SOLID
  5
120
330
1F
100
AcDbEntity
  8
참조1
100
AcDbTrace
 10
78.84473381534558
 20
-5.440000000000002
 30
0.0
 11
85.19473381534557
 21
-6.456000000000002
 31
0.0
 12
85.19473381534557
 22
-4.424000000000002
 32
0.0
 13
85.19473381534557
 23
-4.424000000000002
 33
0.0
  0
MTEXT
  5
121
330
1F
100
AcDbEntity
  8
참조1
100
AcDbMText
 10
88.24222390781586
 20
10.98821664464994
 30
0.0
 40
3.5
 41
0.0
 71
     1
 72
     1
  1
A
  7
SLDTEXTSTYLE0
 73
     1
 44
1.0
  0
MTEXT
  5
122
330
1F
100
AcDbEntity
  8
참조1
100
AcDbMText
 10
88.24222390781586
 20
0.108216644649932
 30
0.0
 40
3.5
 41
0.0
 71
     1
 72
     1
  1
A
  7
SLDTEXTSTYLE0
 73
     1
 44
1.0
  0
INSERT
  5
129
330
1F
100
AcDbEntity
  8
해칭선
100
AcDbBlockReference
  2
SW_DOWELSYMBOL_0
 10
0.0
 20
0.0
 30
0.0
  0
LINE
  5
1CA
330
1F
100
AcDbEntity
  8
외형선
  6
Continuous
370
    15
100
AcDbLine
 10
-15.08768467149219
 20
2.38125
 30
0.0
 11
-18.04999999999999
 21
1.587499999999999
 31
0.0
  0
LINE
  5
1CB
330
1F
100
AcDbEntity
  8
외형선
  6
Continuous
370
    15
100
AcDbLine
 10
-18.04999999999999
 20
-1.5875
 30
0.0
 11
-15.08768467149219
 21
-2.38125
 31
0.0
  0
LINE
  5
1CC
330
1F
100
AcDbEntity
  8
외형선
  6
Continuous
370
    15
100
AcDbLine
 10
-19.04999999999999
 20
-1.5875
 30
0.0
 11
-18.04999999999999
 21
-1.5875
 31
0.0
  0
LINE
  5
1CD
330
1F
100
AcDbEntity
  8
외형선
  6
Continuous
370
    15
100
AcDbLine
 10
-18.04999999999999
 20
1.587499999999999
 30
0.0
 11
-19.04999999999999
 21
1.587499999999999
 31
0.0
  0
LINE
  5
1CE
330
1F
100
AcDbEntity
  8
0
  6
Continuous
 62
     1
370
    15
100
AcDbLine
 10
-26.66949820461236
 20
1.587499999999999
 30
0.0
 11
-26.98749999999999
 21
1.587499999999999
 31
0.0
1001
PE_URL
1000

  0
LINE
  5
1CF
330
1F
100
AcDbEntity
  8
0
  6
Continuous
 62
     1
370
    15
100
AcDbLine
 10
-21.48236563653628
 20
-1.5875
 30
0.0
 11
-19.04999999999999
 21
-1.5875
 31
0.0
1001
PE_URL
1000

  0
ARC
  5
1D0
330
1F
100
AcDbEntity
  8
0
  6
Continuous
 62
     1
370
    15
100
AcDbCircle
 10
-26.98749999999999
 20
-0.0000000000000018
 30
0.0
 40
1.5875
100
AcDbArc
 50
90.00000000000078
 51
180.0
1001
PE_URL
1000

  0
ARC
  5
1D1
330
1F
100
AcDbEntity
  8
0
  6
Continuous
 62
     1
370
    15
100
AcDbCircle
 10
-26.98749999999999
 20
-0.0000000000000018
 30
0.0
 40
1.5875
100
AcDbArc
 50
180.0
 51
270.0
1001
PE_URL
1000

  0
LINE
  5
1D2
330
1F
100
AcDbEntity
  8
0
  6
Continuous
 62
     1
370
    15
100
AcDbLine
 10
-19.04999999999999
 20
1.587499999999999
 30
0.0
 11
-21.48236563653628
 21
1.587499999999999
 31
0.0
1001
PE_URL
1000

  0
LINE
  5
1D3
330
1F
100
AcDbEntity
  8
0
  6
Continuous
 62
     1
370
    15
100
AcDbLine
 10
-26.98749999999999
 20
-1.5875
 30
0.0
 11
-26.66949820461236
 21
-1.5875
 31
0.0
1001
PE_URL
1000

  0
LINE
  5
1D4
330
1F
100
AcDbEntity
  8
외형선
  6
Continuous
370
    15
100
AcDbLine
 10
-15.08768467149219
 20
-2.38125
 30
0.0
 11
-15.0876846714922
 21
2.38125
 31
0.0
  0
LINE
  5
1D5
330
1F
100
AcDbEntity
  8
외형선
  6
Continuous
370
    15
100
AcDbLine
 10
-18.04999999999999
 20
-1.5875
 30
0.0
 11
-18.04999999999999
 21
1.587499999999999
 31
0.0
  0
LINE
  5
1D6
330
1F
100
AcDbEntity
  8
외형선
  6
Continuous
370
    15
100
AcDbLine
 10
-19.04999999999999
 20
-1.5875
 30
0.0
 11
-19.04999999999999
 21
-1.479925009659196
 31
0.0
  0
SPLINE
  5
1D7
330
1F
100
AcDbEntity
  8
외형선
  6
Continuous
370
    15
100
AcDbSpline
210
0.0
220
0.0
230
1.0
 70
     8
 71
     3
 72
     8
 73
     4
 74
     0
 42
0.000000001
 43
0.00000001
 40
0.0
 40
0.0
 40
0.0
 40
0.0
 40
1.0
 40
1.0
 40
1.0
 40
1.0
 10
-19.04999999999999
 20
-1.479925009659196
 30
0.0
 10
-18.75635028734802
 20
-1.54170210779918
 30
0.0
 10
-18.45430538728299
 20
-1.577835614509114
 30
0.0
 10
-18.16004575186635
 20
-1.585781892148995
 30
0.0
  0
SPLINE
  5
1D8
330
1F
100
AcDbEntity
  8
외형선
  6
Continuous
370
    15
100
AcDbSpline
210
0.0
220
0.0
230
1.0
 70
     8
 71
     3
 72
     8
 73
     4
 74
     0
 42
0.000000001
 43
0.00000001
 40
0.0
 40
0.0
 40
0.0
 40
0.0
 40
1.0
 40
1.0
 40
1.0
 40
1.0
 10
-19.04999999999997
 20
1.005744305537558
 30
0.0
 10
-18.7563849835912
 20
0.8736677938550823
 30
0.0
 10
-18.45437256988747
 20
0.722576550701481
 30
0.0
 10
-18.16015005637543
 20
0.5628511651056911
 30
0.0
  0
LINE
  5
1D9
330
1F
100
AcDbEntity
  8
외형선
  6
Continuous
370
    15
100
AcDbLine
 10
-19.04999999999999
 20
1.005744305537597
 30
0.0
 11
-19.04999999999999
 21
1.587499999999999
 31
0.0
  0
LINE
  5
1DA
330
1F
100
AcDbEntity
  8
외형선
  6
Continuous
370
    15
100
AcDbLine
 10
-18.16015005637577
 20
0.5629441376446778
 30
0.0
 11
-18.16015005637577
 21
-1.585785452610137
 31
0.0
  0
SPLINE
  5
1DB
330
1F
100
AcDbEntity
  8
외형선
  6
Continuous
370
    15
100
AcDbSpline
210
0.0
220
0.0
230
1.0
 70
    24
 71
     3
 72
    14
 73
    10
 74
     0
 42
0.000000001
 43
0.00000001
 40
0.0
 40
0.0
 40
0.0
 40
0.0
 40
0.2499999999999999
 40
0.2499999999999999
 40
0.4999999999999999
 40
0.4999999999999999
 40
0.7499999999999999
 40
0.7499999999999999
 40
1.0
 40
1.0
 40
1.0
 40
1.0
 10
-19.04999999999998
 20
-0.3427078579660243
 30
0.0
 10
-19.04999999999998
 20
-0.2636374348209856
 30
0.0
 10
-19.04999999999998
 20
-0.1696657557033046
 30
0.0
 10
-19.04999999999999
 20
0.0464606037911182
 30
0.0
 10
-19.04999999999998
 20
0.1688291152079255
 30
0.0
 10
-19.04999999999998
 20
0.4250636561127994
 30
0.0
 10
-19.04999999999998
 20
0.558559487705697
 30
0.0
 10
-19.04999999999998
 20
0.805120501965197
 30
0.0
 10
-19.04999999999999
 20
0.9173510993002854
 30
0.0
 10
-19.04999999999999
 20
1.005744305537023
 30
0.0
  0
SPLINE
  5
1DC
330
1F
100
AcDbEntity
  8
외형선
  6
Continuous
370
    15
100
AcDbSpline
210
0.0
220
0.0
230
1.0
 70
     8
 71
     3
 72
     8
 73
     4
 74
     0
 42
0.000000001
 43
0.00000001
 40
0.0
 40
0.0
 40
0.0
 40
0.0
 40
1.0
 40
1.0
 40
1.0
 40
1.0
 10
-19.04999999998953
 20
-0.3427078579699501
 30
0.0
 10
-18.75638498358411
 20
-0.4529607094598003
 30
0.0
 10
-18.45437256988422
 20
-0.5581541802018428
 30
0.0
 10
-18.16015005637577
 20
-0.651024186621985
 30
0.0
  0
SPLINE
  5
1DD
330
1F
100
AcDbEntity
  8
외형선
  6
Continuous
370
    15
100
AcDbSpline
210
0.0
220
0.0
230
1.0
 70
    24
 71
     3
 72
    14
 73
    10
 74
     0
 42
0.000000001
 43
0.00000001
 40
0.0
 40
0.0
 40
0.0
 40
0.0
 40
0.2500000000000002
 40
0.2500000000000002
 40
0.5000000000000003
 40
0.5000000000000003
 40
0.7500000000000002
 40
0.7500000000000002
 40
1.0
 40
1.0
 40
1.0
 40
1.0
 10
-19.04999999999999
 20
-1.479925009664806
 30
0.0
 10
-19.04999999999999
 20
-1.363734977939709
 30
0.0
 10
-19.04999999999999
 20
-1.238068803768902
 30
0.0
 10
-19.04999999999999
 20
-0.9943272787350796
 30
0.0
 10
-19.04999999999999
 20
-0.8768048593078426
 30
0.0
 10
-19.04999999999999
 20
-0.6706982966106025
 30
0.0
 10
-19.04999999999999
 20
-0.5821413333859535
 30
0.0
 10
-19.04999999999999
 20
-0.43888952720439
 30
0.0
 10
-19.04999999999999
 20
-0.3839132044329379
 30
0.0
 10
-19.04999999999999
 20
-0.3427078579660243
 30
0.0
  0
SPLINE
  5
1DE
330
1F
100
AcDbEntity
  8
0
  6
Continuous
 62
     1
370
    15
100
AcDbSpline
210
0.0
220
0.0
230
1.0
 70
     8
 71
     3
 72
    19
 73
    15
 74
     0
 42
0.000000001
 43
0.00000001
 40
0.0
 40
0.0
 40
0.0
 40
0.0
 40
0.1077274755737452
 40
0.2167265423073472
 40
0.2999599255089619
 40
0.3837755018142821
 40
0.4668336004619331
 40
0.5504694841928045
 40
0.6335275658979084
 40
0.717162750255552
 40
0.8002209384460378
 40
0.8838555485303939
 40
0.9669139673219996
 40
1.0
 40
1.0
 40
1.0
 40
1.0
 10
-26.98749999999999
 20
0.6640620271062012
 30
0.0
 10
-26.78980162059115
 20
0.5573668619539554
 30
0.0
 10
-26.39207127407695
 20
0.3427171256522037
 30
0.0
 10
-25.84202151463963
 20
0.0221052417206664
 30
0.0
 10
-25.33461587302942
 20
-0.2683990866382384
 30
0.0
 10
-24.87657252570753
 20
-0.5274473156321964
 30
0.0
 10
-24.41595517855216
 20
-0.7691138583071275
 30
0.0
 10
-23.95852126804527
 20
-0.9914368532030284
 30
0.0
 10
-23.49838111668661
 20
-1.184482953362346
 30
0.0
 10
-23.04073870035268
 20
-1.345746168705412
 30
0.0
 10
-22.58088322232821
 20
-1.469518508747511
 30
0.0
 10
-22.12291688353795
 20
-1.550146816402366
 30
0.0
 10
-21.75621749502943
 20
-1.588213065733692
 30
0.0
 10
-21.5430815927351
 20
-1.583520962770526
 30
0.0
 10
-21.48236563653628
 20
-1.582184324902739
 30
0.0
1001
PE_URL
1000

  0
SPLINE
  5
1DF
330
1F
100
AcDbEntity
  8
0
  6
Continuous
 62
     1
370
    15
100
AcDbSpline
210
0.0
220
0.0
230
1.0
 70
     8
 71
     3
 72
    13
 73
     9
 74
     0
 42
0.000000001
 43
0.00000001
 40
0.0
 40
0.0
 40
0.0
 40
0.0
 40
0.1668062543423934
 40
0.3337268207531582
 40
0.5008691645560694
 40
0.7003601525552349
 40
0.8998514316543642
 40
1.0
 40
1.0
 40
1.0
 40
1.0
 10
-28.15001525756404
 20
-0.1664376237248675
 30
0.0
 10
-27.90817780522366
 20
-0.2593480747661268
 30
0.0
 10
-27.42433716971047
 20
-0.4452326482371909
 30
0.0
 10
-26.69812942967515
 20
-0.6898549643568774
 30
0.0
 10
-25.92440107229775
 20
-0.901244351957665
 30
0.0
 10
-25.10340293861897
 20
-1.04393233476369
 30
0.0
 10
-24.3795694160688
 20
-1.100707831514692
 30
0.0
 10
-23.94503376687936
 20
-1.064927727704022
 30
0.0
 10
-23.7997990007674
 20
-1.052968950517164
 30
0.0
1001
PE_URL
1000

  0
SPLINE
  5
1E0
330
1F
100
AcDbEntity
  8
0
  6
Continuous
 62
     1
370
    15
100
AcDbSpline
210
0.0
220
0.0
230
1.0
 70
     8
 71
     3
 72
    22
 73
    18
 74
     0
 42
0.000000001
 43
0.00000001
 40
0.0
 40
0.0
 40
0.0
 40
0.0
 40
0.125
 40
0.125
 40
0.25
 40
0.25
 40
0.375
 40
0.375
 40
0.5
 40
0.5
 40
0.625
 40
0.625
 40
0.75
 40
0.75
 40
0.875
 40
0.875
 40
1.0
 40
1.0
 40
1.0
 40
1.0
 10
-26.98749999999999
 20
0.6640620271061994
 30
0.0
 10
-27.07562925918593
 20
0.7103472905038704
 30
0.0
 10
-27.16246514647191
 20
0.7516329149932677
 30
0.0
 10
-27.33570880195748
 20
0.8211889737750511
 30
0.0
 10
-27.42303440089149
 20
0.8497185298325984
 30
0.0
 10
-27.59537314664382
 20
0.8865426592317363
 30
0.0
 10
-27.67972646570454
 20
0.8952290465067936
 30
0.0
 10
-27.84897432759345
 20
0.8829697755402268
 30
0.0
 10
-27.93152156931919
 20
0.8618401680694827
 30
0.0
 10
-28.08716299798308
 20
0.7775720530114949
 30
0.0
 10
-28.15953083838962
 20
0.7137340829089531
 30
0.0
 10
-28.26956514097263
 20
0.5442626316430186
 30
0.0
 10
-28.30269133923115
 20
0.4438390072697072
 30
0.0
 10
-28.31940207548115
 20
0.2475125812019563
 30
0.0
 10
-28.30432224599775
 20
0.1549835460825406
 30
0.0
 10
-28.24600491342795
 20
-0.0144840271007691
 30
0.0
 10
-28.20281684771454
 20
-0.092289928877106
 30
0.0
 10
-28.15001525752693
 20
-0.1664376237392222
 30
0.0
1001
PE_URL
1000

  0
SPLINE
  5
1E1
330
1F
100
AcDbEntity
  8
0
  6
Continuous
 62
     1
370
    15
100
AcDbSpline
210
0.0
220
0.0
230
1.0
 70
     8
 71
     3
 72
    14
 73
    10
 74
     0
 42
0.000000001
 43
0.00000001
 40
0.0
 40
0.0
 40
0.0
 40
0.0
 40
0.0317328867080705
 40
0.1937927435903325
 40
0.3558528324257964
 40
0.5179131509476421
 40
0.6799736968865547
 40
0.8399865233970641
 40
1.0
 40
1.0
 40
1.0
 40
1.0
 10
-24.40544700881516
 20
1.071073551182682
 30
0.0
 10
-24.34879904822769
 20
1.07490638891513
 30
0.0
 10
-24.00284994495088
 20
1.098313529486386
 30
0.0
 10
-23.3675991838029
 20
1.036430199959042
 30
0.0
 10
-22.49969419814804
 20
0.8840383808432293
 30
0.0
 10
-21.63178821177463
 20
0.6348716656377178
 30
0.0
 10
-20.76753544622792
 20
0.3273841534576896
 30
0.0
 10
-19.90694141670834
 20
-0.0135358942045301
 30
0.0
 10
-19.33564752573295
 20
-0.2329837214546231
 30
0.0
 10
-19.04999999999009
 20
-0.3427078579697405
 30
0.0
1001
PE_URL
1000

  0
SPLINE
  5
1E2
330
1F
100
AcDbEntity
  8
외형선
  6
Continuous
370
    15
100
AcDbSpline
210
0.0
220
0.0
230
1.0
 70
    24
 71
     3
 72
    14
 73
    10
 74
     0
 42
0.000000001
 43
0.00000001
 40
0.0
 40
0.0
 40
0.0
 40
0.0
 40
0.2500000000000002
 40
0.2500000000000002
 40
0.5000000000000003
 40
0.5000000000000003
 40
0.7500000000000002
 40
0.7500000000000002
 40
1.0
 40
1.0
 40
1.0
 40
1.0
 10
-19.04999999999999
 20
-1.479925009664806
 30
0.0
 10
-19.04999999999999
 20
-1.363734977939709
 30
0.0
 10
-19.04999999999999
 20
-1.238068803768902
 30
0.0
 10
-19.04999999999999
 20
-0.9943272787350796
 30
0.0
 10
-19.04999999999999
 20
-0.8768048593078426
 30
0.0
 10
-19.04999999999999
 20
-0.6706982966106025
 30
0.0
 10
-19.04999999999999
 20
-0.5821413333859535
 30
0.0
 10
-19.04999999999999
 20
-0.43888952720439
 30
0.0
 10
-19.04999999999999
 20
-0.3839132044329379
 30
0.0
 10
-19.04999999999999
 20
-0.3427078579660243
 30
0.0
  0
SPLINE
  5
1E3
330
1F
100
AcDbEntity
  8
0
  6
Continuous
 62
     1
370
    15
100
AcDbSpline
210
0.0
220
0.0
230
1.0
 70
     8
 71
     3
 72
    18
 73
    14
 74
     0
 42
0.000000001
 43
0.00000001
 40
0.0
 40
0.0
 40
0.0
 40
0.0
 40
0.0973178416901846
 40
0.1945419841110762
 40
0.2917124001416569
 40
0.3888695690923634
 40
0.4860540955017204
 40
0.5833063254474923
 40
0.6751554996864179
 40
0.766885865049411
 40
0.8584943855324032
 40
0.950079229623341
 40
1.0
 40
1.0
 40
1.0
 40
1.0
 10
-19.04999999999217
 20
-1.479925009660841
 30
0.0
 10
-19.29723713274889
 20
-1.417914910298093
 30
0.0
 10
-19.79147335415572
 20
-1.293954415948468
 30
0.0
 10
-20.53237526159673
 20
-0.9858974327173673
 30
0.0
 10
-21.27280226661502
 20
-0.6144302946647446
 30
0.0
 10
-22.01310123245176
 20
-0.1965821420041074
 30
0.0
 10
-22.75366315763582
 20
0.2348916128919925
 30
0.0
 10
-23.48080058191315
 20
0.6420547012657618
 30
0.0
 10
-24.19439814802294
 20
0.9965508448192484
 30
0.0
 10
-24.89335693643792
 20
1.28175828682355
 30
0.0
 10
-25.59145753729759
 20
1.479665228335469
 30
0.0
 10
-26.18333485556341
 20
1.582475873894568
 30
0.0
 10
-26.54271500838178
 20
1.576811329486166
 30
0.0
 10
-26.66949820461236
 20
1.574812974708765
 30
0.0
1001
PE_URL
1000

  0
SPLINE
  5
1E4
330
1F
100
AcDbEntity
  8
0
  6
Continuous
 62
     1
370
    15
100
AcDbSpline
210
0.0
220
0.0
230
1.0
 70
     8
 71
     3
 72
    10
 73
     6
 74
     0
 42
0.000000001
 43
0.00000001
 40
0.0
 40
0.0
 40
0.0
 40
0.0
 40
0.5
 40
0.5
 40
1.0
 40
1.0
 40
1.0
 40
1.0
 10
-28.15001525752693
 20
-0.166437623739224
 30
0.0
 10
-28.18650832081516
 20
-0.1884733783867016
 30
0.0
 10
-28.21564649718673
 20
-0.2219591947295463
 30
0.0
 10
-28.2546275579884
 20
-0.3068395227440757
 30
0.0
 10
-28.26428805711192
 20
-0.3579699194217767
 30
0.0
 10
-28.26519183538268
 20
-0.4111490879132553
 30
0.0
1001
PE_URL
1000

  0
ARC
  5
1E5
330
1F
100
AcDbEntity
  8
0
  6
Continuous
 62
     1
370
    15
100
AcDbCircle
 10
-27.81548208599176
 20
0.2759622871941101
 30
0.0
 40
0.821194800579742
100
AcDbArc
 50
203.8413065654381
 51
236.7955241573182
1001
PE_URL
1000

  0
ARC
  5
1E6
330
1F
100
AcDbEntity
  8
0
  6
Continuous
 62
     1
370
    15
100
AcDbCircle
 10
-27.14723859996544
 20
-0.0294465866810025
 30
0.0
 40
1.419612273962418
100
AcDbArc
 50
181.0704953244502
 51
251.1422567017304
1001
PE_URL
1000

  0
SPLINE
  5
1E7
330
1F
100
AcDbEntity
  8
0
  6
Continuous
 62
     1
370
    15
100
AcDbSpline
210
0.0
220
0.0
230
1.0
 70
     8
 71
     3
 72
    10
 73
     6
 74
     0
 42
0.000000001
 43
0.00000001
 40
0.0
 40
0.0
 40
0.0
 40
0.0
 40
0.5
 40
0.5
 40
1.0
 40
1.0
 40
1.0
 40
1.0
 10
-27.60608507530899
 20
-1.372859747421044
 30
0.0
 10
-27.50790077253598
 20
-1.432795731938091
 30
0.0
 10
-27.40672721184972
 20
-1.479851412957769
 30
0.0
 10
-27.20024232040956
 20
-1.548319734614369
 30
0.0
 10
-27.09390211458748
 20
-1.569780851254714
 30
0.0
 10
-26.98749999999763
 20
-1.57688401462463
 30
0.0
1001
PE_URL
1000

  0
SPLINE
  5
1E8
330
1F
100
AcDbEntity
  8
0
  6
Continuous
 62
     1
370
    15
100
AcDbSpline
210
0.0
220
0.0
230
1.0
 70
     8
 71
     3
 72
    11
 73
     7
 74
     0
 42
0.000000001
 43
0.00000001
 40
0.0
 40
0.0
 40
0.0
 40
0.0
 40
0.1890321189579131
 40
0.4593276595475542
 40
0.7295533417533236
 40
1.0
 40
1.0
 40
1.0
 40
1.0
 10
-24.40544700881502
 20
-1.071073551182694
 30
0.0
 10
-24.56818517304768
 20
-1.139767014913536
 30
0.0
 10
-24.96362135875056
 20
-1.306684722315039
 30
0.0
 10
-25.59144903798099
 20
-1.479920209550366
 30
0.0
 10
-26.28932157864129
 20
-1.594323549539487
 30
0.0
 10
-26.75471045713485
 20
-1.582698776634372
 30
0.0
 10
-26.98749999999999
 20
-1.576884014624474
 30
0.0
1001
PE_URL
1000

  0
SPLINE
  5
1E9
330
1F
100
AcDbEntity
  8
0
  6
Continuous
 62
     1
370
    15
100
AcDbSpline
210
0.0
220
0.0
230
1.0
 70
     8
 71
     3
 72
    17
 73
    13
 74
     0
 42
0.000000001
 43
0.00000001
 40
0.0
 40
0.0
 40
0.0
 40
0.0
 40
0.0631523544840502
 40
0.1600917682396021
 40
0.256362400421788
 40
0.3533011485517873
 40
0.4495720480178626
 40
0.5465102800222684
 40
0.6427814961190113
 40
0.7397194713019458
 40
0.8690454496141186
 40
1.0
 40
1.0
 40
1.0
 40
1.0
 10
-23.7997990007674
 20
1.052968950517158
 30
0.0
 10
-23.69973028981944
 20
1.096066091197185
 30
0.0
 10
-23.44605523665633
 20
1.205317717900657
 30
0.0
 10
-23.04072857876286
 20
1.345122183280283
 30
0.0
 10
-22.58088768265339
 20
1.469257799354878
 30
0.0
 10
-22.12290917784794
 20
1.551826911083683
 30
0.0
 10
-21.66346139007772
 20
1.591420502122956
 30
0.0
 10
-21.20506739394373
 20
1.586798005122942
 30
0.0
 10
-20.74601464538696
 20
1.537996286508198
 30
0.0
 10
-20.23496093313408
 20
1.43597436888518
 30
0.0
 10
-19.6697726735552
 20
1.267435670567329
 30
0.0
 10
-19.25745085537041
 20
1.093337869815057
 30
0.0
 10
-19.04999999999999
 20
1.005744305537597
 30
0.0
1001
PE_URL
1000

  0
SPLINE
  5
1EA
330
1F
100
AcDbEntity
  8
외형선
  6
Continuous
370
    15
100
AcDbSpline
210
0.0
220
0.0
230
1.0
 70
    24
 71
     3
 72
    14
 73
    10
 74
     0
 42
0.000000001
 43
0.00000001
 40
0.0
 40
0.0
 40
0.0
 40
0.0
 40
0.2499999999999999
 40
0.2499999999999999
 40
0.4999999999999999
 40
0.4999999999999999
 40
0.7499999999999999
 40
0.7499999999999999
 40
1.0
 40
1.0
 40
1.0
 40
1.0
 10
-19.04999999999998
 20
-0.3427078579660243
 30
0.0
 10
-19.04999999999998
 20
-0.2636374348209856
 30
0.0
 10
-19.04999999999998
 20
-0.1696657557033046
 30
0.0
 10
-19.04999999999999
 20
0.0464606037911182
 30
0.0
 10
-19.04999999999998
 20
0.1688291152079255
 30
0.0
 10
-19.04999999999998
 20
0.4250636561127994
 30
0.0
 10
-19.04999999999998
 20
0.558559487705697
 30
0.0
 10
-19.04999999999998
 20
0.805120501965197
 30
0.0
 10
-19.04999999999999
 20
0.9173510993002854
 30
0.0
 10
-19.04999999999999
 20
1.005744305537023
 30
0.0
  0
SPLINE
  5
1EB
330
1F
100
AcDbEntity
  8
0
  6
Continuous
 62
     1
370
    15
100
AcDbSpline
210
0.0
220
0.0
230
1.0
 70
     8
 71
     3
 72
     8
 73
     4
 74
     0
 42
0.000000001
 43
0.00000001
 40
0.0
 40
0.0
 40
0.0
 40
0.0
 40
1.0
 40
1.0
 40
1.0
 40
1.0
 10
-27.28360167654801
 20
-0.7106424728898819
 30
0.0
 10
-27.60633402611633
 20
-0.6209346837539016
 30
0.0
 10
-27.935375158469
 20
-0.5198855860925029
 30
0.0
 10
-28.26519183538268
 20
-0.4111490879132695
 30
0.0
1001
PE_URL
1000

  0
SPLINE
  5
1EC
330
1F
100
AcDbEntity
  8
0
  6
Continuous
 62
     1
370
    15
100
AcDbSpline
210
0.0
220
0.0
230
1.0
 70
     8
 71
     3
 72
    14
 73
    10
 74
     0
 42
0.000000001
 43
0.00000001
 40
0.0
 40
0.0
 40
0.0
 40
0.0
 40
0.25
 40
0.25
 40
0.5
 40
0.5
 40
0.75
 40
0.75
 40
1.0
 40
1.0
 40
1.0
 40
1.0
 10
-27.60608507530899
 20
-1.372859747421044
 30
0.0
 10
-27.61732257009173
 20
-1.306187900890984
 30
0.0
 10
-27.62235727074816
 20
-1.238282450482279
 30
0.0
 10
-27.6124691059827
 20
-1.100917013523047
 30
0.0
 10
-27.59715481003737
 20
-1.033208267318562
 30
0.0
 10
-27.54112727439107
 20
-0.910087197420145
 30
0.0
 10
-27.50019317170181
 20
-0.8552594923361259
 30
0.0
 10
-27.40139797667888
 20
-0.7677459982601906
 30
0.0
 10
-27.34354126493333
 20
-0.7344628427950273
 30
0.0
 10
-27.28360167654851
 20
-0.7106424728899423
 30
0.0
1001
PE_URL
1000

  0
ENDSEC
  0
SECTION
  2
OBJECTS
  0
DICTIONARY
  5
C
330
0
100
AcDbDictionary
281
     1
  3
ACAD_GROUP
350
D
  3
ACAD_LAYOUT
350
1A
  3
ACAD_MLINESTYLE
350
17
  3
ACAD_PLOTSETTINGS
350
19
  3
ACAD_PLOTSTYLENAME
350
E
  3
ACAD_SCALELIST
350
47
  3
APPDATA
350
14B
  3
DWGPROPS
350
1EE
  0
DICTIONARY
  5
180
330
2
100
AcDbDictionary
280
     1
281
     1
  3
ACAD_LAYERSTATES
360
181
  0
DICTIONARY
  5
D
102
{ACAD_REACTORS
330
C
102
}
330
C
100
AcDbDictionary
281
     1
  0
DICTIONARY
  5
1A
102
{ACAD_REACTORS
330
C
102
}
330
C
100
AcDbDictionary
281
     1
  3
Layout1
350
1E
  3
Layout2
350
26
  3
Model
350
22
  0
DICTIONARY
  5
17
102
{ACAD_REACTORS
330
C
102
}
330
C
100
AcDbDictionary
281
     1
  3
Standard
350
18
  0
DICTIONARY
  5
19
102
{ACAD_REACTORS
330
C
102
}
330
C
100
AcDbDictionary
281
     1
  0
ACDBDICTIONARYWDFLT
  5
E
102
{ACAD_REACTORS
330
C
102
}
330
C
100
AcDbDictionary
281
     1
  3
Normal
350
F
100
AcDbDictionaryWithDefault
340
F
  0
DICTIONARY
  5
47
102
{ACAD_REACTORS
330
C
102
}
330
C
100
AcDbDictionary
281
     1
  3
A0
350
48
  3
A1
350
49
  3
A2
350
4A
  3
A3
350
4B
  3
A4
350
4C
  3
A5
350
4D
  3
A6
350
4E
  3
A7
350
4F
  3
A8
350
50
  3
A9
350
51
  3
B0
350
52
  3
B1
350
53
  3
B2
350
54
  3
B3
350
55
  3
B4
350
56
  3
B5
350
57
  3
B6
350
58
  3
B7
350
59
  3
B8
350
5A
  3
B9
350
5B
  3
C0
350
5C
  3
C1
350
5D
  3
C2
350
5E
  3
C3
350
5F
  3
C4
350
60
  3
C5
350
61
  3
C6
350
62
  3
C7
350
63
  3
C8
350
64
  3
C9
350
65
  3
D0
350
66
  3
D1
350
67
  3
D2
350
68
  0
DICTIONARY
  5
14B
102
{ACAD_REACTORS
330
C
102
}
330
C
100
AcDbDictionary
281
     1
  0
XRECORD
  5
1EE
102
{ACAD_REACTORS
330
C
102
}
330
C
100
AcDbXrecord
280
     1
  1
DWGPROPS COOKIE
  2

  3

  4

  6

  7

  8
120170442
  9

300
=
301
=
302
=
303
=
304
=
305
=
306
=
307
=
308
=
309
=
 40
0.0
 41
2458319.364017291
 42
2458323.120247211
  1

 90
        0
  0
DICTIONARY
  5
181
102
{ACAD_REACTORS
330
180
102
}
330
180
100
AcDbDictionary
281
     1
  0
LAYOUT
  5
1E
102
{ACAD_REACTORS
330
1A
102
}
330
1A
100
AcDbPlotSettings
  1

  2
none_device
  4

  6

 40
0.0
 41
0.0
 42
0.0
 43
0.0
 44
0.0
 45
0.0
 46
0.0
 47
0.0
 48
0.0
 49
0.0
140
0.0
141
0.0
142
1.0
143
1.0
 70
   688
 72
     1
 73
     0
 74
     5
  7

 75
    16
147
1.0
148
0.0
149
0.0
100
AcDbLayout
  1
Layout1
 70
     1
 71
     1
 10
0.0
 20
0.0
 11
420.0
 21
297.0
 12
0.0
 22
0.0
 32
0.0
 14
1.000000000000000E+20
 24
1.000000000000000E+20
 34
1.000000000000000E+20
 15
-1.000000000000000E+20
 25
-1.000000000000000E+20
 35
-1.000000000000000E+20
146
0.0
 13
0.0
 23
0.0
 33
0.0
 16
1.0
 26
0.0
 36
0.0
 17
0.0
 27
1.0
 37
0.0
 76
     0
330
1B
  0
LAYOUT
  5
26
102
{ACAD_REACTORS
330
1A
102
}
330
1A
100
AcDbPlotSettings
  1

  2
none_device
  4

  6

 40
0.0
 41
0.0
 42
0.0
 43
0.0
 44
0.0
 45
0.0
 46
0.0
 47
0.0
 48
0.0
 49
0.0
140
0.0
141
0.0
142
1.0
143
1.0
 70
   688
 72
     1
 73
     0
 74
     5
  7

 75
    16
147
1.0
148
0.0
149
0.0
100
AcDbLayout
  1
Layout2
 70
     1
 71
     2
 10
0.0
 20
0.0
 11
0.0
 21
0.0
 12
0.0
 22
0.0
 32
0.0
 14
0.0
 24
0.0
 34
0.0
 15
0.0
 25
0.0
 35
0.0
146
0.0
 13
0.0
 23
0.0
 33
0.0
 16
1.0
 26
0.0
 36
0.0
 17
0.0
 27
1.0
 37
0.0
 76
     0
330
23
  0
LAYOUT
  5
22
102
{ACAD_REACTORS
330
1A
102
}
330
1A
100
AcDbPlotSettings
  1

  2
none_device
  4
ANSI_A_(11.00_x_8.50_Inches)
  6

 40
6.35
 41
19.05
 42
6.35000508
 43
19.05000254
 44
279.4
 45
215.9
 46
115.1616110302265
 47
99.11830346721929
 48
0.0
 49
0.0
140
0.0
141
0.0
142
0.0756709198828007
143
1.0
 70
  1696
 72
     0
 73
     0
 74
     0
  7

 75
     0
147
0.0235690232323232
148
0.0
149
0.0
100
AcDbLayout
  1
Model
 70
     1
 71
     0
 10
0.0
 20
0.0
 11
420.0
 21
297.0
 12
0.0
 22
0.0
 32
0.0
 14
-42.95000000000012
 24
-49.97180738881175
 34
0.0
 15
91.54473381534558
 25
36.98524999999997
 35
0.0
146
0.0
 13
0.0
 23
0.0
 33
0.0
 16
1.0
 26
0.0
 36
0.0
 17
0.0
 27
1.0
 37
0.0
 76
     0
330
1F
331
29
  0
MLINESTYLE
  5
18
102
{ACAD_REACTORS
330
17
102
}
330
17
100
AcDbMlineStyle
  2
Standard
 70
     0
  3

 62
   256
 51
90.0
 52
90.0
 71
     2
 49
0.5
 62
   256
  6
BYLAYER
 49
-0.5
 62
   256
  6
BYLAYER
  0
ACDBPLACEHOLDER
  5
F
102
{ACAD_REACTORS
330
E
102
}
330
E
  0
SCALE
  5
48
102
{ACAD_REACTORS
330
47
102
}
330
47
100
AcDbScale
 70
     0
300
1:1
140
1.0
141
1.0
290
     1
  0
SCALE
  5
49
102
{ACAD_REACTORS
330
47
102
}
330
47
100
AcDbScale
 70
     0
300
1:2
140
1.0
141
2.0
290
     0
  0
SCALE
  5
4A
102
{ACAD_REACTORS
330
47
102
}
330
47
100
AcDbScale
 70
     0
300
1:4
140
1.0
141
4.0
290
     0
  0
SCALE
  5
4B
102
{ACAD_REACTORS
330
47
102
}
330
47
100
AcDbScale
 70
     0
300
1:5
140
1.0
141
5.0
290
     0
  0
SCALE
  5
4C
102
{ACAD_REACTORS
330
47
102
}
330
47
100
AcDbScale
 70
     0
300
1:8
140
1.0
141
8.0
290
     0
  0
SCALE
  5
4D
102
{ACAD_REACTORS
330
47
102
}
330
47
100
AcDbScale
 70
     0
300
1:10
140
1.0
141
10.0
290
     0
  0
SCALE
  5
4E
102
{ACAD_REACTORS
330
47
102
}
330
47
100
AcDbScale
 70
     0
300
1:16
140
1.0
141
16.0
290
     0
  0
SCALE
  5
4F
102
{ACAD_REACTORS
330
47
102
}
330
47
100
AcDbScale
 70
     0
300
1:20
140
1.0
141
20.0
290
     0
  0
SCALE
  5
50
102
{ACAD_REACTORS
330
47
102
}
330
47
100
AcDbScale
 70
     0
300
1:30
140
1.0
141
30.0
290
     0
  0
SCALE
  5
51
102
{ACAD_REACTORS
330
47
102
}
330
47
100
AcDbScale
 70
     0
300
1:40
140
1.0
141
40.0
290
     0
  0
SCALE
  5
52
102
{ACAD_REACTORS
330
47
102
}
330
47
100
AcDbScale
 70
     0
300
1:50
140
1.0
141
50.0
290
     0
  0
SCALE
  5
53
102
{ACAD_REACTORS
330
47
102
}
330
47
100
AcDbScale
 70
     0
300
1:100
140
1.0
141
100.0
290
     0
  0
SCALE
  5
54
102
{ACAD_REACTORS
330
47
102
}
330
47
100
AcDbScale
 70
     0
300
2:1
140
2.0
141
1.0
290
     0
  0
SCALE
  5
55
102
{ACAD_REACTORS
330
47
102
}
330
47
100
AcDbScale
 70
     0
300
4:1
140
4.0
141
1.0
290
     0
  0
SCALE
  5
56
102
{ACAD_REACTORS
330
47
102
}
330
47
100
AcDbScale
 70
     0
300
8:1
140
8.0
141
1.0
290
     0
  0
SCALE
  5
57
102
{ACAD_REACTORS
330
47
102
}
330
47
100
AcDbScale
 70
     0
300
10:1
140
10.0
141
1.0
290
     0
  0
SCALE
  5
58
102
{ACAD_REACTORS
330
47
102
}
330
47
100
AcDbScale
 70
     0
300
100:1
140
100.0
141
1.0
290
     0
  0
SCALE
  5
59
102
{ACAD_REACTORS
330
47
102
}
330
47
100
AcDbScale
 70
     0
300
1/128" = 1'-0"
140
0.0078125
141
12.0
290
     0
  0
SCALE
  5
5A
102
{ACAD_REACTORS
330
47
102
}
330
47
100
AcDbScale
 70
     0
300
1/64" = 1'-0"
140
0.015625
141
12.0
290
     0
  0
SCALE
  5
5B
102
{ACAD_REACTORS
330
47
102
}
330
47
100
AcDbScale
 70
     0
300
1/32" = 1'-0"
140
0.03125
141
12.0
290
     0
  0
SCALE
  5
5C
102
{ACAD_REACTORS
330
47
102
}
330
47
100
AcDbScale
 70
     0
300
1/16" = 1'-0"
140
0.0625
141
12.0
290
     0
  0
SCALE
  5
5D
102
{ACAD_REACTORS
330
47
102
}
330
47
100
AcDbScale
 70
     0
300
3/32" = 1'-0"
140
0.09375
141
12.0
290
     0
  0
SCALE
  5
5E
102
{ACAD_REACTORS
330
47
102
}
330
47
100
AcDbScale
 70
     0
300
1/8" = 1'-0"
140
0.125
141
12.0
290
     0
  0
SCALE
  5
5F
102
{ACAD_REACTORS
330
47
102
}
330
47
100
AcDbScale
 70
     0
300
3/16" = 1'-0"
140
0.1875
141
12.0
290
     0
  0
SCALE
  5
60
102
{ACAD_REACTORS
330
47
102
}
330
47
100
AcDbScale
 70
     0
300
1/4" = 1'-0"
140
0.25
141
12.0
290
     0
  0
SCALE
  5
61
102
{ACAD_REACTORS
330
47
102
}
330
47
100
AcDbScale
 70
     0
300
3/8" = 1'-0"
140
0.375
141
12.0
290
     0
  0
SCALE
  5
62
102
{ACAD_REACTORS
330
47
102
}
330
47
100
AcDbScale
 70
     0
300
1/2" = 1'-0"
140
0.5
141
12.0
290
     0
  0
SCALE
  5
63
102
{ACAD_REACTORS
330
47
102
}
330
47
100
AcDbScale
 70
     0
300
3/4" = 1'-0"
140
0.75
141
12.0
290
     0
  0
SCALE
  5
64
102
{ACAD_REACTORS
330
47
102
}
330
47
100
AcDbScale
 70
     0
300
1" = 1'-0"
140
1.0
141
12.0
290
     0
  0
SCALE
  5
65
102
{ACAD_REACTORS
330
47
102
}
330
47
100
AcDbScale
 70
     0
300
1-1/2" = 1'-0"
140
1.5
141
12.0
290
     0
  0
SCALE
  5
66
102
{ACAD_REACTORS
330
47
102
}
330
47
100
AcDbScale
 70
     0
300
3" = 1'-0"
140
3.0
141
12.0
290
     0
  0
SCALE
  5
67
102
{ACAD_REACTORS
330
47
102
}
330
47
100
AcDbScale
 70
     0
300
6" = 1'-0"
140
6.0
141
12.0
290
     0
  0
SCALE
  5
68
102
{ACAD_REACTORS
330
47
102
}
330
47
100
AcDbScale
 70
     0
300
1'-0" = 1'-0"
140
12.0
141
12.0
290
     0
  0
ENDSEC
  0
EOF
