  0
SECTION
  2
HEADER
  9
$ACADVER
  1
AC1015
  9
$ACADMAINTVER
 70
     6
  9
$DWGCODEPAGE
  3
ANSI_949
  9
$INSBASE
 10
0.0
 20
0.0
 30
0.0
  9
$EXTMIN
 10
-60.23750000000003
 20
-49.97180738881174
 30
0.0
  9
$EXTMAX
 10
81.41936447236121
 20
38.22072979507901
 30
0.0
  9
$LIMMIN
 10
0.0
 20
0.0
  9
$LIMMAX
 10
420.0
 20
297.0
  9
$ORTHOMODE
 70
     1
  9
$REGENMODE
 70
     1
  9
$FILLMODE
 70
     1
  9
$QTEXTMODE
 70
     0
  9
$MIRRTEXT
 70
     1
  9
$LTSCALE
 40
1.0
  9
$ATTMODE
 70
     1
  9
$TEXTSIZE
 40
3.5
  9
$TRACEWID
 40
1.0
  9
$TEXTSTYLE
  7
Standard
  9
$CLAYER
  8
0
  9
$CELTYPE
  6
ByLayer
  9
$CECOLOR
 62
   256
  9
$CELTSCALE
 40
1.0
  9
$DISPSILH
 70
     0
  9
$DIMSCALE
 40
1.0
  9
$DIMASZ
 40
3.302
  9
$DIMEXO
 40
1.0
  9
$DIMDLI
 40
3.75
  9
$DIMRND
 40
0.0
  9
$DIMDLE
 40
0.0
  9
$DIMEXE
 40
1.0
  9
$DIMTP
 40
0.0
  9
$DIMTM
 40
0.0
  9
$DIMTXT
 40
3.5
  9
$DIMCEN
 40
2.5
  9
$DIMTSZ
 40
0.0
  9
$DIMTOL
 70
     0
  9
$DIMLIM
 70
     0
  9
$DIMTIH
 70
     1
  9
$DIMTOH
 70
     1
  9
$DIMSE1
 70
     0
  9
$DIMSE2
 70
     0
  9
$DIMTAD
 70
     1
  9
$DIMZIN
 70
     0
  9
$DIMBLK
  1

  9
$DIMASO
 70
     1
  9
$DIMSHO
 70
     1
  9
$DIMPOST
  1

  9
$DIMAPOST
  1

  9
$DIMALT
 70
     0
  9
$DIMALTD
 70
     3
  9
$DIMALTF
 40
0.0393700787401575
  9
$DIMLFAC
 40
1.0
  9
$DIMTOFL
 70
     1
  9
$DIMTVP
 40
0.0
  9
$DIMTIX
 70
     0
  9
$DIMSOXD
 70
     0
  9
$DIMSAH
 70
     0
  9
$DIMBLK1
  1

  9
$DIMBLK2
  1

  9
$DIMSTYLE
  2
ISO-25
  9
$DIMCLRD
 70
     0
  9
$DIMCLRE
 70
     0
  9
$DIMCLRT
 70
     0
  9
$DIMTFAC
 40
1.0
  9
$DIMGAP
 40
1.524
  9
$DIMJUST
 70
     0
  9
$DIMSD1
 70
     0
  9
$DIMSD2
 70
     0
  9
$DIMTOLJ
 70
     0
  9
$DIMTZIN
 70
     0
  9
$DIMALTZ
 70
     0
  9
$DIMALTTZ
 70
     0
  9
$DIMUPT
 70
     0
  9
$DIMDEC
 70
     2
  9
$DIMTDEC
 70
     2
  9
$DIMALTU
 70
     2
  9
$DIMALTTD
 70
     3
  9
$DIMTXSTY
  7
Standard
  9
$DIMAUNIT
 70
     0
  9
$DIMADEC
 70
     2
  9
$DIMALTRND
 40
0.0
  9
$DIMAZIN
 70
     0
  9
$DIMDSEP
 70
    44
  9
$DIMATFIT
 70
     3
  9
$DIMFRAC
 70
     0
  9
$DIMLDRBLK
  1

  9
$DIMLUNIT
 70
     2
  9
$DIMLWD
 70
    -2
  9
$DIMLWE
 70
    -2
  9
$DIMTMOVE
 70
     0
  9
$LUNITS
 70
     2
  9
$LUPREC
 70
     2
  9
$SKETCHINC
 40
1.0
  9
$FILLETRAD
 40
10.0
  9
$AUNITS
 70
     0
  9
$AUPREC
 70
     2
  9
$MENU
  1
.
  9
$ELEVATION
 40
0.0
  9
$PELEVATION
 40
0.0
  9
$THICKNESS
 40
0.0
  9
$LIMCHECK
 70
     0
  9
$CHAMFERA
 40
0.0
  9
$CHAMFERB
 40
0.0
  9
$CHAMFERC
 40
0.0
  9
$CHAMFERD
 40
0.0
  9
$SKPOLY
 70
     0
  9
$TDCREATE
 40
2458313.481614248
  9
$TDUCREATE
 40
2458313.106614248
  9
$TDUPDATE
 40
2458320.751459699
  9
$TDUUPDATE
 40
2458320.376459699
  9
$TDINDWG
 40
0.0034835301
  9
$TDUSRTIMER
 40
2458320.376404502
  9
$USRTIMER
 70
     1
  9
$ANGBASE
 50
0.0
  9
$ANGDIR
 70
     0
  9
$PDMODE
 70
     0
  9
$PDSIZE
 40
-1.0
  9
$PLINEWID
 40
0.0
  9
$SPLFRAME
 70
     0
  9
$SPLINETYPE
 70
     6
  9
$SPLINESEGS
 70
     8
  9
$HANDSEED
  5
43D
  9
$SURFTAB1
 70
     6
  9
$SURFTAB2
 70
     6
  9
$SURFTYPE
 70
     6
  9
$SURFU
 70
     6
  9
$SURFV
 70
     6
  9
$UCSBASE
  2

  9
$UCSNAME
  2

  9
$UCSORG
 10
0.0
 20
0.0
 30
0.0
  9
$UCSXDIR
 10
1.0
 20
0.0
 30
0.0
  9
$UCSYDIR
 10
0.0
 20
1.0
 30
0.0
  9
$UCSORTHOREF
  2

  9
$UCSORTHOVIEW
 70
     0
  9
$UCSORGTOP
 10
0.0
 20
0.0
 30
0.0
  9
$UCSORGBOTTOM
 10
0.0
 20
0.0
 30
0.0
  9
$UCSORGLEFT
 10
0.0
 20
0.0
 30
0.0
  9
$UCSORGRIGHT
 10
0.0
 20
0.0
 30
0.0
  9
$UCSORGFRONT
 10
0.0
 20
0.0
 30
0.0
  9
$UCSORGBACK
 10
0.0
 20
0.0
 30
0.0
  9
$PUCSBASE
  2

  9
$PUCSNAME
  2

  9
$PUCSORG
 10
0.0
 20
0.0
 30
0.0
  9
$PUCSXDIR
 10
1.0
 20
0.0
 30
0.0
  9
$PUCSYDIR
 10
0.0
 20
1.0
 30
0.0
  9
$PUCSORTHOREF
  2

  9
$PUCSORTHOVIEW
 70
     0
  9
$PUCSORGTOP
 10
0.0
 20
0.0
 30
0.0
  9
$PUCSORGBOTTOM
 10
0.0
 20
0.0
 30
0.0
  9
$PUCSORGLEFT
 10
0.0
 20
0.0
 30
0.0
  9
$PUCSORGRIGHT
 10
0.0
 20
0.0
 30
0.0
  9
$PUCSORGFRONT
 10
0.0
 20
0.0
 30
0.0
  9
$PUCSORGBACK
 10
0.0
 20
0.0
 30
0.0
  9
$USERI1
 70
     0
  9
$USERI2
 70
     0
  9
$USERI3
 70
     0
  9
$USERI4
 70
     0
  9
$USERI5
 70
     0
  9
$USERR1
 40
0.0
  9
$USERR2
 40
0.0
  9
$USERR3
 40
0.0
  9
$USERR4
 40
0.0
  9
$USERR5
 40
0.0
  9
$WORLDVIEW
 70
     1
  9
$SHADEDGE
 70
     3
  9
$SHADEDIF
 70
    70
  9
$TILEMODE
 70
     1
  9
$MAXACTVP
 70
    64
  9
$PINSBASE
 10
0.0
 20
0.0
 30
0.0
  9
$PLIMCHECK
 70
     0
  9
$PEXTMIN
 10
1.000000000000000E+20
 20
1.000000000000000E+20
 30
1.000000000000000E+20
  9
$PEXTMAX
 10
-1.000000000000000E+20
 20
-1.000000000000000E+20
 30
-1.000000000000000E+20
  9
$PLIMMIN
 10
0.0
 20
0.0
  9
$PLIMMAX
 10
0.0
 20
0.0
  9
$UNITMODE
 70
     0
  9
$VISRETAIN
 70
     1
  9
$PLINEGEN
 70
     0
  9
$PSLTSCALE
 70
     1
  9
$TREEDEPTH
 70
  3020
  9
$CMLSTYLE
  2
Standard
  9
$CMLJUST
 70
     0
  9
$CMLSCALE
 40
20.0
  9
$PROXYGRAPHICS
 70
     1
  9
$MEASUREMENT
 70
     1
  9
$CELWEIGHT
370
    -1
  9
$ENDCAPS
280
     0
  9
$JOINSTYLE
280
     0
  9
$LWDISPLAY
290
     1
  9
$INSUNITS
 70
     4
  9
$HYPERLINKBASE
  1

  9
$STYLESHEET
  1

  9
$XEDIT
290
     1
  9
$CEPSNTYPE
380
     0
  9
$PSTYLEMODE
290
     1
  9
$FINGERPRINTGUID
  2
{09099D8C-55FC-477B-8B3D-537AE25D31B1}
  9
$VERSIONGUID
  2
{FAEB1C32-E019-11D5-929B-00C0DF256EC4}
  9
$EXTNAMES
290
     1
  9
$PSVPSCALE
 40
0.0
  9
$OLESTARTUP
290
     0
  0
ENDSEC
  0
SECTION
  2
CLASSES
  0
CLASS
  1
ACDBDICTIONARYWDFLT
  2
AcDbDictionaryWithDefault
  3
ObjectDBX Classes
 90
        0
280
     0
281
     0
  0
CLASS
  1
VISUALSTYLE
  2
AcDbVisualStyle
  3
ObjectDBX Classes
 90
     4095
280
     0
281
     0
  0
CLASS
  1
MATERIAL
  2
AcDbMaterial
  3
ObjectDBX Classes
 90
     1153
280
     0
281
     0
  0
CLASS
  1
SCALE
  2
AcDbScale
  3
ObjectDBX Classes
 90
     1153
280
     0
281
     0
  0
CLASS
  1
SUN
  2
AcDbSun
  3
SCENEOE
 90
     1153
280
     0
281
     0
  0
CLASS
  1
ACDBPLACEHOLDER
  2
AcDbPlaceHolder
  3
ObjectDBX Classes
 90
        0
280
     0
281
     0
  0
CLASS
  1
LAYOUT
  2
AcDbLayout
  3
ObjectDBX Classes
 90
        0
280
     0
281
     0
  0
CLASS
  1
TABLESTYLE
  2
AcDbTableStyle
  3
ObjectDBX Classes
 90
     4095
280
     0
281
     0
  0
CLASS
  1
MLEADERSTYLE
  2
AcDbMLeaderStyle
  3
ACDB_MLEADERSTYLE_CLASS
 90
     4095
280
     0
281
     0
  0
CLASS
  1
RASTERVARIABLES
  2
AcDbRasterVariables
  3
ISM
 90
        0
280
     0
281
     0
  0
ENDSEC
  0
SECTION
  2
TABLES
  0
TABLE
  2
VPORT
  5
8
330
0
100
AcDbSymbolTable
 70
     1
  0
VPORT
  5
29
330
8
100
AcDbSymbolTableRecord
100
AcDbViewportTableRecord
  2
*Active
 70
     0
 10
0.0
 20
0.0
 11
1.0
 21
1.0
 12
13.85310060588286
 22
-0.193265966437882
 13
0.0
 23
0.0
 14
10.0
 24
10.0
 15
10.0
 25
10.0
 16
0.0
 26
0.0
 36
1.0
 17
0.0
 27
0.0
 37
0.0
 40
120.9840886665958
 41
1.632093933463796
 42
50.0
 43
0.0
 44
0.0
 50
0.0
 51
0.0
 71
    16
 72
  2000
 73
     1
 74
     3
 75
     0
 76
     0
 77
     0
 78
     0
281
     0
 65
     1
110
0.0
120
0.0
130
0.0
111
1.0
121
0.0
131
0.0
112
0.0
122
1.0
132
0.0
 79
     0
146
0.0
  0
ENDTAB
  0
TABLE
  2
LTYPE
  5
5
330
0
100
AcDbSymbolTable
 70
     6
  0
LTYPE
  5
14
330
5
100
AcDbSymbolTableRecord
100
AcDbLinetypeTableRecord
  2
ByBlock
 70
     0
  3

 72
    65
 73
     0
 40
0.0
  0
LTYPE
  5
15
330
5
100
AcDbSymbolTableRecord
100
AcDbLinetypeTableRecord
  2
ByLayer
 70
     0
  3

 72
    65
 73
     0
 40
0.0
  0
LTYPE
  5
16
330
5
100
AcDbSymbolTableRecord
100
AcDbLinetypeTableRecord
  2
Continuous
 70
     0
  3
Solid line
 72
    65
 73
     0
 40
0.0
  0
LTYPE
  5
6A
330
5
100
AcDbSymbolTableRecord
100
AcDbLinetypeTableRecord
  2
HIDDEN
 70
     0
  3
Hidden __ __ __ __ __ __ __ __ __ __ __ __ __ __
 72
    65
 73
     2
 40
1.905
 49
1.27
 74
     0
 49
-0.635
 74
     0
  0
LTYPE
  5
6B
330
5
100
AcDbSymbolTableRecord
100
AcDbLinetypeTableRecord
  2
PHANTOM
 70
     0
  3
Phantom ______  __  __  ______  __  __  ______
 72
    65
 73
     6
 40
12.7
 49
6.35
 74
     0
 49
-1.27
 74
     0
 49
1.27
 74
     0
 49
-1.27
 74
     0
 49
1.27
 74
     0
 49
-1.27
 74
     0
  0
LTYPE
  5
6C
330
5
100
AcDbSymbolTableRecord
100
AcDbLinetypeTableRecord
  2
CENTER
 70
     0
  3
Center ____ _ ____ _ ____ _ ____ _ ____ _ ____
 72
    65
 73
     4
 40
10.16
 49
6.35
 74
     0
 49
-1.27
 74
     0
 49
1.27
 74
     0
 49
-1.27
 74
     0
  0
LTYPE
  5
6D
330
5
100
AcDbSymbolTableRecord
100
AcDbLinetypeTableRecord
  2
CENTERX2
 70
     0
  3
Center (2x) ________  __  ________  __  _____
 72
    65
 73
     4
 40
20.32
 49
12.7
 74
     0
 49
-2.54
 74
     0
 49
2.54
 74
     0
 49
-2.54
 74
     0
  0
LTYPE
  5
6E
330
5
100
AcDbSymbolTableRecord
100
AcDbLinetypeTableRecord
  2
DOT2
 70
     0
  3
Dot (.5x) ........................................
 72
    65
 73
     2
 40
0.635
 49
0.0
 74
     0
 49
-0.635
 74
     0
  0
ENDTAB
  0
TABLE
  2
LAYER
  5
2
102
{ACAD_XDICTIONARY
360
225
102
}
330
0
100
AcDbSymbolTable
 70
    18
  0
LAYER
  5
10
330
2
100
AcDbSymbolTableRecord
100
AcDbLayerTableRecord
  2
0
 70
     0
 62
     7
  6
Continuous
370
    -3
390
F
  0
LAYER
  5
6F
330
2
100
AcDbSymbolTableRecord
100
AcDbLayerTableRecord
  2
FORMAT
 70
     0
 62
     2
  6
Continuous
370
    -3
390
F
  0
LAYER
  5
70
330
2
100
AcDbSymbolTableRecord
100
AcDbLayerTableRecord
  2
외형선
 70
     0
 62
     4
  6
Continuous
370
    30
390
F
  0
LAYER
  5
71
330
2
100
AcDbSymbolTableRecord
100
AcDbLayerTableRecord
  2
숨은선
 70
     0
 62
     2
  6
HIDDEN
370
    15
390
F
  0
LAYER
  5
72
330
2
100
AcDbSymbolTableRecord
100
AcDbLayerTableRecord
  2
중심선
 70
     0
 62
     1
  6
CENTERX2
370
    -3
390
F
  0
LAYER
  5
73
330
2
100
AcDbSymbolTableRecord
100
AcDbLayerTableRecord
  2
파단선
 70
     0
 62
     4
  6
Continuous
370
    -3
390
F
  0
LAYER
  5
74
330
2
100
AcDbSymbolTableRecord
100
AcDbLayerTableRecord
  2
해칭선
 70
     0
 62
   100
  6
Continuous
370
    -3
390
F
  0
LAYER
  5
75
330
2
100
AcDbSymbolTableRecord
100
AcDbLayerTableRecord
  2
가는실선
 70
     0
 62
     4
  6
Continuous
370
    -3
390
F
  0
LAYER
  5
76
330
2
100
AcDbSymbolTableRecord
100
AcDbLayerTableRecord
  2
치수_보조선
 70
     0
 62
     4
  6
Continuous
370
    -3
390
F
  0
LAYER
  5
77
330
2
100
AcDbSymbolTableRecord
100
AcDbLayerTableRecord
  2
치수문자_일반주서
 70
     0
 62
     7
  6
Continuous
370
    15
390
F
  0
LAYER
  5
78
330
2
100
AcDbSymbolTableRecord
100
AcDbLayerTableRecord
  2
개별주서
 70
     0
 62
   100
  6
Continuous
370
    30
390
F
  0
LAYER
  5
79
330
2
100
AcDbSymbolTableRecord
100
AcDbLayerTableRecord
  2
중간선
 70
     0
 62
     2
  6
Continuous
370
    15
390
F
  0
LAYER
  5
7A
330
2
100
AcDbSymbolTableRecord
100
AcDbLayerTableRecord
  2
윤곽선
 70
     0
 62
     3
  6
Continuous
370
    40
390
F
  0
LAYER
  5
7B
330
2
100
AcDbSymbolTableRecord
100
AcDbLayerTableRecord
  2
중심마크
 70
     0
 62
   100
  6
Continuous
370
    30
390
F
  0
LAYER
  5
7C
330
2
100
AcDbSymbolTableRecord
100
AcDbLayerTableRecord
  2
가상선
 70
     0
 62
     4
  6
PHANTOM
370
    -3
390
F
  0
LAYER
  5
7D
330
2
100
AcDbSymbolTableRecord
100
AcDbLayerTableRecord
  2
특수지정선
 70
     0
 62
     5
  6
CENTERX2
370
    60
390
F
  0
LAYER
  5
7E
330
2
100
AcDbSymbolTableRecord
100
AcDbLayerTableRecord
  2
참조1
 70
     0
 62
    -4
  6
Continuous
370
    -3
390
F
  0
LAYER
  5
157
330
2
100
AcDbSymbolTableRecord
100
AcDbLayerTableRecord
  2
Defpoints
 70
     0
 62
     7
  6
Continuous
290
     0
370
    -3
390
F
  0
ENDTAB
  0
TABLE
  2
STYLE
  5
3
330
0
100
AcDbSymbolTable
 70
     2
  0
STYLE
  5
11
330
3
100
AcDbSymbolTableRecord
100
AcDbTextStyleTableRecord
  2
Standard
 70
     0
 40
0.0
 41
1.0
 50
0.0
 71
     0
 42
3.5
  3
txt
  4

  0
STYLE
  5
94
330
3
100
AcDbSymbolTableRecord
100
AcDbTextStyleTableRecord
  2
SLDTEXTSTYLE0
 70
     0
 40
0.0
 41
0.75
 50
0.0
 71
     0
 42
3.5
  3
TXT
  4

  0
ENDTAB
  0
TABLE
  2
VIEW
  5
6
330
0
100
AcDbSymbolTable
 70
     0
  0
ENDTAB
  0
TABLE
  2
UCS
  5
7
330
0
100
AcDbSymbolTable
 70
     0
  0
ENDTAB
  0
TABLE
  2
APPID
  5
9
330
0
100
AcDbSymbolTable
 70
     1
  0
APPID
  5
12
330
9
100
AcDbSymbolTableRecord
100
AcDbRegAppTableRecord
  2
ACAD
 70
     0
  0
ENDTAB
  0
TABLE
  2
DIMSTYLE
  5
A
330
0
100
AcDbSymbolTable
 70
     4
100
AcDbDimStyleTable
  0
DIMSTYLE
105
27
330
A
100
AcDbSymbolTableRecord
100
AcDbDimStyleTableRecord
  2
ISO-25
 70
     0
 41
2.5
 42
0.625
 43
3.75
 44
1.25
 73
     0
 74
     0
 77
     1
 78
     8
140
2.5
141
2.5
143
0.03937007874016
147
0.625
171
     3
172
     1
178
     0
271
     2
272
     2
274
     3
278
    44
283
     0
284
     8
340
11
  0
DIMSTYLE
105
D3
102
{ACAD_REACTORS
330
D2
330
110
330
E7
330
FC
102
}
330
A
100
AcDbSymbolTableRecord
100
AcDbDimStyleTableRecord
  2
SLDDIMSTYLE0
 70
     0
 41
3.302
 44
0.0
 45
0.000000001
 73
     0
 74
     0
 77
     1
 78
    12
 79
     3
140
3.5
143
0.0393700787401575
147
0.875
148
0.000000001
170
     1
172
     1
173
     1
178
     0
271
     2
272
     2
276
     2
284
    12
289
     0
340
94
  0
DIMSTYLE
105
E8
330
A
100
AcDbSymbolTableRecord
100
AcDbDimStyleTableRecord
  2
SLDDIMSTYLE1
 70
     0
 41
3.302
 44
0.0
 45
0.000000001
 73
     0
 74
     0
 77
     1
 78
     4
 79
     1
140
3.5
143
0.0393700787401575
147
0.875
148
0.000000001
170
     1
173
     1
178
     0
271
     2
272
     2
276
     2
284
    12
340
94
  0
DIMSTYLE
105
FD
330
A
100
AcDbSymbolTableRecord
100
AcDbDimStyleTableRecord
  2
SLDDIMSTYLE2
 70
     0
 41
3.302
 44
0.0
 45
0.000000001
 73
     0
 74
     0
 77
     1
 78
    12
 79
     3
140
3.5
143
0.0393700787401575
147
0.875
148
0.000000001
170
     1
173
     1
178
     0
271
     2
272
     2
276
     2
284
    12
340
94
  0
ENDTAB
  0
TABLE
  2
BLOCK_RECORD
  5
1
330
0
100
AcDbSymbolTable
 70
    21
  0
BLOCK_RECORD
  5
1F
330
1
100
AcDbSymbolTableRecord
100
AcDbBlockTableRecord
  2
*Model_Space
340
22
  0
BLOCK_RECORD
  5
1B
330
1
100
AcDbSymbolTableRecord
100
AcDbBlockTableRecord
  2
*Paper_Space
340
1E
  0
BLOCK_RECORD
  5
23
330
1
100
AcDbSymbolTableRecord
100
AcDbBlockTableRecord
  2
*Paper_Space0
340
26
  0
BLOCK_RECORD
  5
7F
330
1
100
AcDbSymbolTableRecord
100
AcDbBlockTableRecord
  2
블럭10
340
0
102
{BLKREFS
331
CB
102
}
  0
BLOCK_RECORD
  5
D4
330
1
100
AcDbSymbolTableRecord
100
AcDbBlockTableRecord
  2
_D
340
0
  0
BLOCK_RECORD
  5
E9
330
1
100
AcDbSymbolTableRecord
100
AcDbBlockTableRecord
  2
_D_1
340
0
  0
BLOCK_RECORD
  5
FE
330
1
100
AcDbSymbolTableRecord
100
AcDbBlockTableRecord
  2
_D_2
340
0
  0
BLOCK_RECORD
  5
111
330
1
100
AcDbSymbolTableRecord
100
AcDbBlockTableRecord
  2
_D_3
340
0
  0
BLOCK_RECORD
  5
12B
330
1
100
AcDbSymbolTableRecord
100
AcDbBlockTableRecord
  2
SW_DOWELSYMBOL_0
340
0
102
{BLKREFS
331
131
102
}
  0
BLOCK_RECORD
  5
229
330
1
100
AcDbSymbolTableRecord
100
AcDbBlockTableRecord
  2
*D7
340
0
  0
BLOCK_RECORD
  5
238
330
1
100
AcDbSymbolTableRecord
100
AcDbBlockTableRecord
  2
*D8
340
0
  0
BLOCK_RECORD
  5
247
330
1
100
AcDbSymbolTableRecord
100
AcDbBlockTableRecord
  2
*D9
340
0
  0
BLOCK_RECORD
  5
253
330
1
100
AcDbSymbolTableRecord
100
AcDbBlockTableRecord
  2
*D10
340
0
  0
BLOCK_RECORD
  5
2C9
330
1
100
AcDbSymbolTableRecord
100
AcDbBlockTableRecord
  2
*D11
340
0
  0
BLOCK_RECORD
  5
2D8
330
1
100
AcDbSymbolTableRecord
100
AcDbBlockTableRecord
  2
*D12
340
0
  0
BLOCK_RECORD
  5
2E7
330
1
100
AcDbSymbolTableRecord
100
AcDbBlockTableRecord
  2
*D13
340
0
  0
BLOCK_RECORD
  5
2F3
330
1
100
AcDbSymbolTableRecord
100
AcDbBlockTableRecord
  2
*D14
340
0
  0
BLOCK_RECORD
  5
391
330
1
100
AcDbSymbolTableRecord
100
AcDbBlockTableRecord
  2
*D15
340
0
  0
BLOCK_RECORD
  5
3A0
330
1
100
AcDbSymbolTableRecord
100
AcDbBlockTableRecord
  2
*D16
340
0
  0
BLOCK_RECORD
  5
3AF
330
1
100
AcDbSymbolTableRecord
100
AcDbBlockTableRecord
  2
*D17
340
0
  0
BLOCK_RECORD
  5
3ED
330
1
100
AcDbSymbolTableRecord
100
AcDbBlockTableRecord
  2
*D18
340
0
  0
BLOCK_RECORD
  5
3FC
330
1
100
AcDbSymbolTableRecord
100
AcDbBlockTableRecord
  2
*D19
340
0
  0
BLOCK_RECORD
  5
40B
330
1
100
AcDbSymbolTableRecord
100
AcDbBlockTableRecord
  2
*D20
340
0
  0
ENDTAB
  0
ENDSEC
  0
SECTION
  2
BLOCKS
  0
BLOCK
  5
20
330
1F
100
AcDbEntity
  8
0
100
AcDbBlockBegin
  2
*Model_Space
 70
     0
 10
0.0
 20
0.0
 30
0.0
  3
*Model_Space
  1
*Model_Space
  0
ENDBLK
  5
21
330
1F
100
AcDbEntity
  8
0
100
AcDbBlockEnd
  0
BLOCK
  5
1C
330
1B
100
AcDbEntity
 67
     1
  8
0
100
AcDbBlockBegin
  2
*Paper_Space
 70
     0
 10
0.0
 20
0.0
 30
0.0
  3
*Paper_Space
  1
*Paper_Space
  0
ENDBLK
  5
1D
330
1B
100
AcDbEntity
 67
     1
  8
0
100
AcDbBlockEnd
  0
BLOCK
  5
24
330
23
100
AcDbEntity
  8
0
100
AcDbBlockBegin
  2
*Paper_Space0
 70
     0
 10
0.0
 20
0.0
 30
0.0
  3
*Paper_Space0
  1
*Paper_Space0
  0
ENDBLK
  5
25
330
23
100
AcDbEntity
  8
0
100
AcDbBlockEnd
  0
BLOCK
  5
80
330
7F
100
AcDbEntity
  8
0
100
AcDbBlockBegin
  2
블럭10
 70
     2
 10
0.0
 20
0.0
 30
0.0
  3
블럭10
  1
블럭10
  0
ELLIPSE
  5
82
330
7F
100
AcDbEntity
  8
중심선
100
AcDbEllipse
 10
20.54032771741204
 20
12.0471743016438
 30
0.0
 11
6.600054785286829
 21
-1.261213355974178E-13
 31
0.0
210
0.0
220
0.0
230
1.0
 40
0.636358354079598
 41
0.9219305317359503
 42
6.513795318482858
  0
ELLIPSE
  5
83
330
7F
100
AcDbEntity
  8
중심선
100
AcDbEllipse
 10
20.54032771746488
 20
12.04717430159265
 30
0.0
 11
3.960054785062283
 21
1.540847449632565E-10
 31
0.0
210
0.0
220
0.0
230
1.0
 40
0.3939339440162632
 41
1.131841032648279
 42
5.62031148352944
  0
LINE
  5
84
330
7F
100
AcDbEntity
  8
중심선
100
AcDbLine
 10
2.268634060543552
 20
16.24717430164393
 30
0.0
 11
5.714909304380834
 21
16.24717430164393
 31
0.0
  0
LINE
  5
85
330
7F
100
AcDbEntity
  8
중심선
100
AcDbLine
 10
5.245725140726316
 20
7.84717430164391
 30
0.0
 11
8.692000384563599
 21
7.84717430164391
 31
0.0
  0
LINE
  5
86
330
7F
100
AcDbEntity
  8
중심선
100
AcDbLine
 10
15.74043728645272
 20
16.24717430164393
 30
0.0
 11
8.692000384563599
 21
7.84717430164391
 31
0.0
  0
LINE
  5
87
330
7F
100
AcDbEntity
  8
중심선
100
AcDbLine
 10
0.1404042013395286
 20
13.71084872107135
 30
0.0
 11
3.58671253028996
 21
13.71088815037384
 31
0.0
  0
LINE
  5
88
330
7F
100
AcDbEntity
  8
중심선
100
AcDbLine
 10
2.750260043222114
 20
10.84717430164391
 30
0.0
 11
6.196535287059397
 21
10.84717430164391
 31
0.0
  0
LINE
  5
89
330
7F
100
AcDbEntity
  8
중심선
100
AcDbLine
 10
12.29416204261559
 20
16.24717430164393
 30
0.0
 11
5.245725140726316
 21
7.84717430164391
 31
0.0
  0
LINE
  5
8A
330
7F
100
AcDbEntity
  8
중심선
100
AcDbLine
 10
10.72767329541681
 20
16.24717430164393
 30
0.0
 11
6.196535287059397
 21
10.84717430164391
 31
0.0
  0
LINE
  5
8B
330
7F
100
AcDbEntity
  8
중심선
100
AcDbLine
 10
7.28139805157953
 20
16.24717430164393
 30
0.0
 11
2.750260043222114
 21
10.84717430164391
 31
0.0
  0
LINE
  5
8C
330
7F
100
AcDbEntity
  8
중심선
100
AcDbLine
 10
5.714909304380834
 20
16.24717430164393
 30
0.0
 11
3.58671253028996
 21
13.71088815037384
 31
0.0
  0
LINE
  5
8D
330
7F
100
AcDbEntity
  8
중심선
100
AcDbLine
 10
2.268634060543552
 20
16.24717430164393
 30
0.0
 11
0.1404042013395286
 21
13.71084872107135
 31
0.0
  0
LINE
  5
8E
330
7F
100
AcDbEntity
  8
중심선
100
AcDbLine
 10
7.28139805157953
 20
16.24717430164393
 30
0.0
 11
10.72767329541681
 21
16.24717430164393
 31
0.0
  0
LINE
  5
8F
330
7F
100
AcDbEntity
  8
중심선
100
AcDbLine
 10
12.29416204261559
 20
16.24717430164393
 30
0.0
 11
15.74043728645272
 21
16.24717430164393
 31
0.0
  0
LINE
  5
90
330
7F
100
AcDbEntity
  8
중심선
100
AcDbLine
 10
19.22036997980202
 20
11.08717430171403
 30
0.0
 11
23.66174974927406
 21
11.08717430171406
 31
0.0
  0
LINE
  5
91
330
7F
100
AcDbEntity
  8
중심선
100
AcDbLine
 10
19.22039502424796
 20
13.00717430171391
 30
0.0
 11
19.22036997980202
 21
11.08717430171403
 31
0.0
  0
LINE
  5
92
330
7F
100
AcDbEntity
  8
중심선
100
AcDbLine
 10
19.22039502424796
 20
13.00717430171391
 30
0.0
 11
26.96566020931264
 21
13.00717430171391
 31
0.0
  0
LINE
  5
93
330
7F
100
AcDbEntity
  8
중심선
100
AcDbLine
 10
22.22332737316547
 20
13.45928029700563
 30
0.0
 11
24.52862924686651
 21
15.39360700705356
 31
0.0
  0
ATTDEF
  5
95
330
7F
100
AcDbEntity
  8
FORMAT
 62
     2
100
AcDbText
 10
4.408487351596664
 20
2.075366912832191
 30
0.0
 40
4.233333333333333
  1
E2006012
 41
0.75
  7
SLDTEXTSTYLE0
 11
4.408487351596664
 21
-0.0412997538344756
 31
0.0
100
AcDbAttributeDefinition
  3

  2
AUTOATTR0
 70
     0
 74
     1
  0
ENDBLK
  5
81
330
7F
100
AcDbEntity
  8
0
100
AcDbBlockEnd
  0
BLOCK
  5
D5
330
D4
100
AcDbEntity
  8
0
100
AcDbBlockBegin
  2
_D
 70
     0
 10
0.0
 20
0.0
 30
0.0
  3
_D
  1
_D
  0
LINE
  5
D7
330
D4
100
AcDbEntity
  8
치수문자_일반주서
 62
     0
370
    -2
100
AcDbLine
 10
42.92500000000003
 20
2.381250000000005
 30
0.0
 11
61.83311999402373
 21
2.381250000000076
 31
0.0
  0
LINE
  5
D8
330
D4
100
AcDbEntity
  8
치수문자_일반주서
 62
     0
370
    -2
100
AcDbLine
 10
42.925
 20
-2.381249999999994
 30
0.0
 11
61.83311999402374
 21
-2.381249999999923
 31
0.0
  0
LINE
  5
D9
330
D4
100
AcDbEntity
  8
치수문자_일반주서
 62
     0
370
    -2
100
AcDbLine
 10
61.83311999402373
 20
2.381250000000076
 30
0.0
 11
61.83311999402362
 21
37.41399317107681
 31
0.0
  0
LINE
  5
DA
330
D4
100
AcDbEntity
  8
치수문자_일반주서
 62
     0
370
    -2
100
AcDbLine
 10
61.83311999402373
 20
2.381250000000076
 30
0.0
 11
61.83311999402374
 21
-2.381249999999923
 31
0.0
  0
LINE
  5
DB
330
D4
100
AcDbEntity
  8
치수문자_일반주서
 62
     0
370
    -2
100
AcDbLine
 10
61.83311999402372
 20
5.683250000000076
 30
0.0
 11
61.83311999402371
 21
8.985250000000075
 31
0.0
  0
LINE
  5
DC
330
D4
100
AcDbEntity
  8
치수문자_일반주서
 62
     0
370
    -2
100
AcDbLine
 10
61.83311999402375
 20
-5.683249999999923
 30
0.0
 11
61.83311999402375
 21
-8.985249999999922
 31
0.0
  0
SOLID
  5
DD
330
D4
100
AcDbEntity
  8
치수문자_일반주서
 62
     0
100
AcDbTrace
 10
61.28278666069038
 20
5.683250000000074
 30
0.0
 11
62.38345332735705
 21
5.683250000000077
 31
0.0
 12
61.83311999402373
 22
2.381250000000076
 32
0.0
 13
61.83311999402373
 23
2.381250000000076
 33
0.0
  0
SOLID
  5
DE
330
D4
100
AcDbEntity
  8
치수문자_일반주서
 62
     0
100
AcDbTrace
 10
62.38345332735708
 20
-5.683249999999921
 30
0.0
 11
61.28278666069041
 21
-5.683249999999925
 31
0.0
 12
61.83311999402374
 22
-2.381249999999923
 32
0.0
 13
61.83311999402374
 23
-2.381249999999923
 33
0.0
  0
MTEXT
  5
DF
330
D4
100
AcDbEntity
  8
치수문자_일반주서
 62
     0
100
AcDbMText
 10
57.45811999402366
 20
23.4139931710768
 30
0.0
 40
3.5
 41
0.0
 71
     2
 72
     1
  1
\A1;%%c4.76 [3/16]
  7
SLDTEXTSTYLE0
 11
-2.983906501879686E-15
 21
1.0
 31
0.0
 73
     1
 44
1.0
  0
POINT
  5
E0
330
D4
100
AcDbEntity
  8
Defpoints
 62
     0
100
AcDbPoint
 10
42.86250000000003
 20
2.381250000000005
 30
0.0
  0
POINT
  5
E1
330
D4
100
AcDbEntity
  8
Defpoints
 62
     0
100
AcDbPoint
 10
42.8625
 20
-2.381249999999994
 30
0.0
  0
POINT
  5
E2
330
D4
100
AcDbEntity
  8
Defpoints
 62
     0
100
AcDbPoint
 10
61.83311999402373
 20
-2.381249999999923
 30
0.0
  0
ENDBLK
  5
D6
330
D4
100
AcDbEntity
  8
0
100
AcDbBlockEnd
  0
BLOCK
  5
EA
330
E9
100
AcDbEntity
  8
0
100
AcDbBlockBegin
  2
_D_1
 70
     0
 10
0.0
 20
0.0
 30
0.0
  3
_D_1
  1
_D_1
  0
LINE
  5
EC
330
E9
100
AcDbEntity
  8
치수문자_일반주서
 62
     0
370
    -2
100
AcDbLine
 10
42.86250000000001
 20
2.443750000000005
 30
0.0
 11
42.86250000000001
 21
17.48091529677157
 31
0.0
  0
LINE
  5
ED
330
E9
100
AcDbEntity
  8
치수문자_일반주서
 62
     0
370
    -2
100
AcDbLine
 10
17.46250000000001
 20
2.441934075613448
 30
0.0
 11
17.46250000000001
 21
17.48091529677157
 31
0.0
  0
LINE
  5
EE
330
E9
100
AcDbEntity
  8
치수문자_일반주서
 62
     0
370
    -2
100
AcDbLine
 10
17.46250000000001
 20
17.48091529677157
 30
0.0
 11
-6.641499999999986
 21
17.48091529677157
 31
0.0
  0
LINE
  5
EF
330
E9
100
AcDbEntity
  8
치수문자_일반주서
 62
     0
370
    -2
100
AcDbLine
 10
42.86250000000001
 20
17.48091529677157
 30
0.0
 11
17.46250000000001
 21
17.48091529677157
 31
0.0
  0
LINE
  5
F0
330
E9
100
AcDbEntity
  8
치수문자_일반주서
 62
     0
370
    -2
100
AcDbLine
 10
46.16450000000001
 20
17.48091529677157
 30
0.0
 11
49.46650000000001
 21
17.48091529677157
 31
0.0
  0
LINE
  5
F1
330
E9
100
AcDbEntity
  8
치수문자_일반주서
 62
     0
370
    -2
100
AcDbLine
 10
14.16050000000001
 20
17.48091529677157
 30
0.0
 11
10.85850000000001
 21
17.48091529677157
 31
0.0
  0
SOLID
  5
F2
330
E9
100
AcDbEntity
  8
치수문자_일반주서
 62
     0
100
AcDbTrace
 10
46.16450000000001
 20
18.0312486301049
 30
0.0
 11
46.16450000000001
 21
16.93058196343823
 31
0.0
 12
42.86250000000001
 22
17.48091529677157
 32
0.0
 13
42.86250000000001
 23
17.48091529677157
 33
0.0
  0
SOLID
  5
F3
330
E9
100
AcDbEntity
  8
치수문자_일반주서
 62
     0
100
AcDbTrace
 10
14.16050000000001
 20
16.93058196343823
 30
0.0
 11
14.16050000000001
 21
18.0312486301049
 31
0.0
 12
17.46250000000001
 22
17.48091529677157
 32
0.0
 13
17.46250000000001
 23
17.48091529677157
 33
0.0
  0
MTEXT
  5
F4
330
E9
100
AcDbEntity
  8
치수문자_일반주서
 62
     0
100
AcDbMText
 10
2.108500000000014
 20
21.85591529677157
 30
0.0
 40
3.5
 41
0.0
 71
     2
 72
     1
  1
\A1;25.4 [1]
  7
SLDTEXTSTYLE0
 73
     1
 44
1.0
  0
POINT
  5
F5
330
E9
100
AcDbEntity
  8
Defpoints
 62
     0
100
AcDbPoint
 10
42.86250000000001
 20
2.381250000000005
 30
0.0
  0
POINT
  5
2FF
330
E9
100
AcDbEntity
  8
Defpoints
 62
     0
100
AcDbPoint
 10
17.46250000000001
 20
2.379434075613448
 30
0.0
  0
POINT
  5
300
330
E9
100
AcDbEntity
  8
Defpoints
 62
     0
100
AcDbPoint
 10
17.46250000000001
 20
17.48091529677157
 30
0.0
  0
ENDBLK
  5
EB
330
E9
100
AcDbEntity
  8
0
100
AcDbBlockEnd
  0
BLOCK
  5
FF
330
FE
100
AcDbEntity
  8
0
100
AcDbBlockBegin
  2
_D_2
 70
     0
 10
0.0
 20
0.0
 30
0.0
  3
_D_2
  1
_D_2
  0
LINE
  5
101
330
FE
100
AcDbEntity
  8
치수문자_일반주서
 62
     0
370
    -2
100
AcDbLine
 10
42.86250000000001
 20
2.443750000000005
 30
0.0
 11
42.86250000000001
 21
33.84572979507901
 31
0.0
  0
LINE
  5
102
330
FE
100
AcDbEntity
  8
치수문자_일반주서
 62
     0
370
    -2
100
AcDbLine
 10
-42.8625
 20
2.443750000000002
 30
0.0
 11
-42.8625
 21
33.84572979507901
 31
0.0
  0
LINE
  5
103
330
FE
100
AcDbEntity
  8
치수문자_일반주서
 62
     0
370
    -2
100
AcDbLine
 10
39.56050000000001
 20
33.84572979507901
 30
0.0
 11
-39.5605
 21
33.84572979507901
 31
0.0
  0
SOLID
  5
104
330
FE
100
AcDbEntity
  8
치수문자_일반주서
 62
     0
100
AcDbTrace
 10
39.56050000000001
 20
33.29539646174567
 30
0.0
 11
39.56050000000001
 21
34.39606312841234
 31
0.0
 12
42.86250000000001
 22
33.84572979507901
 32
0.0
 13
42.86250000000001
 23
33.84572979507901
 33
0.0
  0
SOLID
  5
105
330
FE
100
AcDbEntity
  8
치수문자_일반주서
 62
     0
100
AcDbTrace
 10
-39.5605
 20
34.39606312841234
 30
0.0
 11
-39.5605
 21
33.29539646174567
 31
0.0
 12
-42.8625
 22
33.84572979507901
 32
0.0
 13
-42.8625
 23
33.84572979507901
 33
0.0
  0
MTEXT
  5
106
330
FE
100
AcDbEntity
  8
치수문자_일반주서
 62
     0
100
AcDbMText
 10
-2.187269229181645
 20
38.22072979507901
 30
0.0
 40
3.5
 41
0.0
 71
     2
 72
     1
  1
\A1;85.73 [3 3/8]
  7
SLDTEXTSTYLE0
 73
     1
 44
1.0
  0
POINT
  5
107
330
FE
100
AcDbEntity
  8
Defpoints
 62
     0
100
AcDbPoint
 10
42.86250000000001
 20
2.381250000000005
 30
0.0
  0
POINT
  5
108
330
FE
100
AcDbEntity
  8
Defpoints
 62
     0
100
AcDbPoint
 10
-42.8625
 20
2.381250000000002
 30
0.0
  0
POINT
  5
109
330
FE
100
AcDbEntity
  8
Defpoints
 62
     0
100
AcDbPoint
 10
-42.8625
 20
33.84572979507901
 30
0.0
  0
ENDBLK
  5
100
330
FE
100
AcDbEntity
  8
0
100
AcDbBlockEnd
  0
BLOCK
  5
112
330
111
100
AcDbEntity
  8
0
100
AcDbBlockBegin
  2
_D_3
 70
     0
 10
0.0
 20
0.0
 30
0.0
  3
_D_3
  1
_D_3
  0
LINE
  5
114
330
111
100
AcDbEntity
  8
치수문자_일반주서
 62
     0
370
    -2
100
AcDbLine
 10
-17.525
 20
2.381249999999998
 30
0.0
 11
-55.8625
 21
2.381249999999854
 31
0.0
  0
LINE
  5
115
330
111
100
AcDbEntity
  8
치수문자_일반주서
 62
     0
370
    -2
100
AcDbLine
 10
-17.52499999999999
 20
-2.381250000000002
 30
0.0
 11
-55.86249999999998
 21
-2.381250000000145
 31
0.0
  0
LINE
  5
116
330
111
100
AcDbEntity
  8
치수문자_일반주서
 62
     0
370
    -2
100
AcDbLine
 10
-55.86249999999999
 20
-0.9207500000001452
 30
0.0
 11
-55.86249999999999
 21
0.9207499999998543
 31
0.0
  0
SOLID
  5
117
330
111
100
AcDbEntity
  8
치수문자_일반주서
 62
     0
100
AcDbTrace
 10
-55.31216666666666
 20
-0.9207500000001435
 30
0.0
 11
-56.41283333333332
 21
-0.9207500000001468
 31
0.0
 12
-55.8625
 22
2.381249999999854
 32
0.0
 13
-55.8625
 23
2.381249999999854
 33
0.0
  0
SOLID
  5
118
330
111
100
AcDbEntity
  8
치수문자_일반주서
 62
     0
100
AcDbTrace
 10
-56.41283333333332
 20
0.9207499999998526
 30
0.0
 11
-55.31216666666666
 21
0.920749999999856
 31
0.0
 12
-55.86249999999998
 22
-2.381250000000145
 32
0.0
 13
-55.86249999999998
 23
-2.381250000000145
 33
0.0
  0
MTEXT
  5
119
330
111
100
AcDbEntity
  8
치수문자_일반주서
 62
     0
100
AcDbMText
 10
-60.23749999999999
 20
-0.0000000000000135
 30
0.0
 40
3.5
 41
0.0
 71
     2
 72
     1
  1
\A1;%%c4.76 [3/16]
  7
SLDTEXTSTYLE0
 11
-2.983906501879686E-15
 21
1.0
 31
0.0
 73
     1
 44
1.0
  0
POINT
  5
11A
330
111
100
AcDbEntity
  8
Defpoints
 62
     0
100
AcDbPoint
 10
-17.4625
 20
2.381249999999998
 30
0.0
  0
POINT
  5
11B
330
111
100
AcDbEntity
  8
Defpoints
 62
     0
100
AcDbPoint
 10
-17.46249999999999
 20
-2.381250000000001
 30
0.0
  0
POINT
  5
11C
330
111
100
AcDbEntity
  8
Defpoints
 62
     0
100
AcDbPoint
 10
-55.86249999999998
 20
-2.381250000000145
 30
0.0
  0
ENDBLK
  5
113
330
111
100
AcDbEntity
  8
0
100
AcDbBlockEnd
  0
BLOCK
  5
12C
330
12B
100
AcDbEntity
  8
0
100
AcDbBlockBegin
  2
SW_DOWELSYMBOL_0
 70
     0
 10
0.0
 20
0.0
 30
0.0
  3
SW_DOWELSYMBOL_0
  1
SW_DOWELSYMBOL_0
  0
CIRCLE
  5
12E
330
12B
100
AcDbEntity
  8
해칭선
 62
     0
100
AcDbCircle
 10
0.0
 20
0.0
 30
0.0
 40
3.000000000000001
  0
HATCH
  5
12F
330
12B
100
AcDbEntity
  8
0
  6
Continuous
 62
     0
370
     0
100
AcDbHatch
 10
0.0
 20
0.0
 30
0.0
210
0.0
220
0.0
230
1.0
  2
SOLID
 70
     1
 71
     0
 91
        1
 92
        0
 93
        3
 72
     2
 10
0.0
 20
0.0
 40
3.000000000000001
 50
0.0
 51
90.0
 73
     1
 72
     1
 10
0.0
 20
3.000000000000001
 11
0.0
 21
0.0
 72
     1
 10
0.0
 20
0.0
 11
3.000000000000003
 21
0.0
 97
        0
 75
     0
 76
     1
 98
        1
 10
0.0
 20
0.0
  0
HATCH
  5
130
330
12B
100
AcDbEntity
  8
0
  6
Continuous
 62
     0
370
     0
100
AcDbHatch
 10
0.0
 20
0.0
 30
0.0
210
0.0
220
0.0
230
1.0
  2
SOLID
 70
     1
 71
     0
 91
        1
 92
        0
 93
        3
 72
     2
 10
0.0
 20
0.0
 40
3.000000000000001
 50
180.0
 51
270.0000000000007
 73
     1
 72
     1
 10
0.0
 20
-3.000000000000001
 11
0.0
 21
0.0
 72
     1
 10
0.0
 20
0.0
 11
-3.000000000000001
 21
0.0
 97
        0
 75
     0
 76
     1
 98
        1
 10
0.0
 20
0.0
  0
ENDBLK
  5
12D
330
12B
100
AcDbEntity
  8
0
100
AcDbBlockEnd
  0
BLOCK
  5
22A
330
229
100
AcDbEntity
  8
0
100
AcDbBlockBegin
  2
*D7
 70
     1
 10
0.0
 20
0.0
 30
0.0
  3
*D7
  1
*D8
  0
LINE
  5
22C
330
229
100
AcDbEntity
  8
치수문자_일반주서
 62
     0
370
    -2
100
AcDbLine
 10
99.98750000000004
 20
15.30781250000002
 30
0.0
 11
114.384430341649
 21
15.30781250000008
 31
0.0
  0
LINE
  5
22D
330
229
100
AcDbEntity
  8
치수문자_일반주서
 62
     0
370
    -2
100
AcDbLine
 10
99.98750000000004
 20
10.94218750000002
 30
0.0
 11
114.384430341649
 21
10.94218750000008
 31
0.0
  0
LINE
  5
22E
330
229
100
AcDbEntity
  8
치수문자_일반주서
 62
     0
370
    -2
100
AcDbLine
 10
114.384430341649
 20
15.30781250000008
 30
0.0
 11
114.3844303416488
 21
51.66181250000007
 31
0.0
  0
LINE
  5
22F
330
229
100
AcDbEntity
  8
치수문자_일반주서
 62
     0
370
    -2
100
AcDbLine
 10
114.384430341649
 20
15.30781250000008
 30
0.0
 11
114.384430341649
 21
10.94218750000008
 31
0.0
  0
LINE
  5
230
330
229
100
AcDbEntity
  8
치수문자_일반주서
 62
     0
370
    -2
100
AcDbLine
 10
114.3844303416489
 20
18.60981250000007
 30
0.0
 11
114.3844303416489
 21
21.91181250000007
 31
0.0
  0
LINE
  5
231
330
229
100
AcDbEntity
  8
치수문자_일반주서
 62
     0
370
    -2
100
AcDbLine
 10
114.384430341649
 20
7.640187500000078
 30
0.0
 11
114.384430341649
 21
4.338187500000078
 31
0.0
  0
SOLID
  5
232
330
229
100
AcDbEntity
  8
치수문자_일반주서
 62
     0
100
AcDbTrace
 10
113.8340970083156
 20
18.60981250000007
 30
0.0
 11
114.9347636749823
 21
18.60981250000008
 31
0.0
 12
114.384430341649
 22
15.30781250000008
 32
0.0
 13
114.384430341649
 23
15.30781250000008
 33
0.0
  0
SOLID
  5
233
330
229
100
AcDbEntity
  8
치수문자_일반주서
 62
     0
100
AcDbTrace
 10
114.9347636749823
 20
7.64018750000008
 30
0.0
 11
113.8340970083157
 21
7.640187500000076
 31
0.0
 12
114.384430341649
 22
10.94218750000008
 32
0.0
 13
114.384430341649
 23
10.94218750000008
 33
0.0
  0
MTEXT
  5
234
330
229
100
AcDbEntity
  8
치수문자_일반주서
 62
     0
100
AcDbMText
 10
110.0094303416489
 20
36.78681250000006
 30
0.0
 40
3.5
 41
0.0
 71
     2
 72
     1
  1
\A1;%%c4.37 [11/64]
  7
SLDTEXTSTYLE0
 11
-3.255170729323294E-15
 21
1.0
 31
0.0
 73
     1
 44
1.0
  0
POINT
  5
235
330
229
100
AcDbEntity
  8
Defpoints
 62
     0
100
AcDbPoint
 10
99.92500000000004
 20
15.30781250000002
 30
0.0
  0
POINT
  5
236
330
229
100
AcDbEntity
  8
Defpoints
 62
     0
100
AcDbPoint
 10
99.92500000000004
 20
10.94218750000002
 30
0.0
  0
POINT
  5
237
330
229
100
AcDbEntity
  8
Defpoints
 62
     0
100
AcDbPoint
 10
114.384430341649
 20
10.94218750000008
 30
0.0
  0
ENDBLK
  5
22B
330
229
100
AcDbEntity
  8
0
100
AcDbBlockEnd
  0
BLOCK
  5
239
330
238
100
AcDbEntity
  8
0
100
AcDbBlockBegin
  2
*D8
 70
     1
 10
0.0
 20
0.0
 30
0.0
  3
*D8
  1
*D9
  0
LINE
  5
23B
330
238
100
AcDbEntity
  8
치수문자_일반주서
 62
     0
370
    -2
100
AcDbLine
 10
99.92500000000007
 20
15.37031250000002
 30
0.0
 11
99.92500000000007
 21
24.90234062860668
 31
0.0
  0
LINE
  5
23C
330
238
100
AcDbEntity
  8
치수문자_일반주서
 62
     0
370
    -2
100
AcDbLine
 10
77.70000000000005
 20
15.37031250000002
 30
0.0
 11
77.70000000000005
 21
24.90234062860668
 31
0.0
  0
LINE
  5
23D
330
238
100
AcDbEntity
  8
치수문자_일반주서
 62
     0
370
    -2
100
AcDbLine
 10
77.70000000000005
 20
24.90234062860668
 30
0.0
 11
44.84600000000005
 21
24.90234062860668
 31
0.0
  0
LINE
  5
23E
330
238
100
AcDbEntity
  8
치수문자_일반주서
 62
     0
370
    -2
100
AcDbLine
 10
99.92500000000007
 20
24.90234062860668
 30
0.0
 11
77.70000000000005
 21
24.90234062860668
 31
0.0
  0
LINE
  5
23F
330
238
100
AcDbEntity
  8
치수문자_일반주서
 62
     0
370
    -2
100
AcDbLine
 10
103.2270000000001
 20
24.90234062860668
 30
0.0
 11
106.5290000000001
 21
24.90234062860668
 31
0.0
  0
LINE
  5
240
330
238
100
AcDbEntity
  8
치수문자_일반주서
 62
     0
370
    -2
100
AcDbLine
 10
74.39800000000005
 20
24.90234062860668
 30
0.0
 11
71.09600000000006
 21
24.90234062860668
 31
0.0
  0
SOLID
  5
241
330
238
100
AcDbEntity
  8
치수문자_일반주서
 62
     0
100
AcDbTrace
 10
103.2270000000001
 20
25.45267396194002
 30
0.0
 11
103.2270000000001
 21
24.35200729527335
 31
0.0
 12
99.92500000000007
 22
24.90234062860668
 32
0.0
 13
99.92500000000007
 23
24.90234062860668
 33
0.0
  0
SOLID
  5
242
330
238
100
AcDbEntity
  8
치수문자_일반주서
 62
     0
100
AcDbTrace
 10
74.39800000000005
 20
24.35200729527335
 30
0.0
 11
74.39800000000005
 21
25.45267396194002
 31
0.0
 12
77.70000000000005
 22
24.90234062860668
 32
0.0
 13
77.70000000000005
 23
24.90234062860668
 33
0.0
  0
MTEXT
  5
243
330
238
100
AcDbEntity
  8
치수문자_일반주서
 62
     0
100
AcDbMText
 10
57.97100000000005
 20
29.27734062860668
 30
0.0
 40
3.5
 41
0.0
 71
     2
 72
     1
  1
\A1;22.23 [7/8]
  7
SLDTEXTSTYLE0
 73
     1
 44
1.0
  0
POINT
  5
244
330
238
100
AcDbEntity
  8
Defpoints
 62
     0
100
AcDbPoint
 10
99.92500000000007
 20
15.30781250000002
 30
0.0
  0
POINT
  5
245
330
238
100
AcDbEntity
  8
Defpoints
 62
     0
100
AcDbPoint
 10
77.70000000000005
 20
15.30781250000002
 30
0.0
  0
POINT
  5
246
330
238
100
AcDbEntity
  8
Defpoints
 62
     0
100
AcDbPoint
 10
77.70000000000005
 20
24.90234062860668
 30
0.0
  0
ENDBLK
  5
23A
330
238
100
AcDbEntity
  8
0
100
AcDbBlockEnd
  0
BLOCK
  5
248
330
247
100
AcDbEntity
  8
0
100
AcDbBlockBegin
  2
*D9
 70
     1
 10
0.0
 20
0.0
 30
0.0
  3
*D9
  1
*D10
  0
LINE
  5
24A
330
247
100
AcDbEntity
  8
치수문자_일반주서
 62
     0
370
    -2
100
AcDbLine
 10
99.92500000000007
 20
15.37031250000002
 30
0.0
 11
99.92500000000007
 21
40.46510955957626
 31
0.0
  0
LINE
  5
24B
330
247
100
AcDbEntity
  8
치수문자_일반주서
 62
     0
370
    -2
100
AcDbLine
 10
17.37500000000001
 20
15.37031250000001
 30
0.0
 11
17.37500000000001
 21
40.46510955957626
 31
0.0
  0
LINE
  5
24C
330
247
100
AcDbEntity
  8
치수문자_일반주서
 62
     0
370
    -2
100
AcDbLine
 10
96.62300000000008
 20
40.46510955957626
 30
0.0
 11
20.67700000000001
 21
40.46510955957626
 31
0.0
  0
SOLID
  5
24D
330
247
100
AcDbEntity
  8
치수문자_일반주서
 62
     0
100
AcDbTrace
 10
96.62300000000008
 20
39.91477622624293
 30
0.0
 11
96.62300000000008
 21
41.0154428929096
 31
0.0
 12
99.92500000000007
 22
40.46510955957626
 32
0.0
 13
99.92500000000007
 23
40.46510955957626
 33
0.0
  0
SOLID
  5
24E
330
247
100
AcDbEntity
  8
치수문자_일반주서
 62
     0
100
AcDbTrace
 10
20.67700000000001
 20
41.0154428929096
 30
0.0
 11
20.67700000000001
 21
39.91477622624293
 31
0.0
 12
17.37500000000001
 22
40.46510955957626
 32
0.0
 13
17.37500000000001
 23
40.46510955957626
 33
0.0
  0
MTEXT
  5
24F
330
247
100
AcDbEntity
  8
치수문자_일반주서
 62
     0
100
AcDbMText
 10
56.54374074226956
 20
44.84010955957626
 30
0.0
 40
3.5
 41
0.0
 71
     2
 72
     1
  1
\A1;82.55 [3 1/4]
  7
SLDTEXTSTYLE0
 73
     1
 44
1.0
  0
POINT
  5
250
330
247
100
AcDbEntity
  8
Defpoints
 62
     0
100
AcDbPoint
 10
99.92500000000007
 20
15.30781250000002
 30
0.0
  0
POINT
  5
251
330
247
100
AcDbEntity
  8
Defpoints
 62
     0
100
AcDbPoint
 10
17.37500000000001
 20
15.30781250000001
 30
0.0
  0
POINT
  5
252
330
247
100
AcDbEntity
  8
Defpoints
 62
     0
100
AcDbPoint
 10
17.37500000000001
 20
40.46510955957626
 30
0.0
  0
ENDBLK
  5
249
330
247
100
AcDbEntity
  8
0
100
AcDbBlockEnd
  0
BLOCK
  5
254
330
253
100
AcDbEntity
  8
0
100
AcDbBlockBegin
  2
*D10
 70
     1
 10
0.0
 20
0.0
 30
0.0
  3
*D10
  1
*D11
  0
LINE
  5
256
330
253
100
AcDbEntity
  8
치수문자_일반주서
 62
     0
370
    -2
100
AcDbLine
 10
41.278078832127
 20
15.50625000000002
 30
0.0
 11
4.375000000000035
 21
15.50624999999988
 31
0.0
  0
LINE
  5
257
330
253
100
AcDbEntity
  8
치수문자_일반주서
 62
     0
370
    -2
100
AcDbLine
 10
41.27807883212699
 20
10.74375000000001
 30
0.0
 11
4.375000000000052
 21
10.74374999999987
 31
0.0
  0
LINE
  5
258
330
253
100
AcDbEntity
  8
치수문자_일반주서
 62
     0
370
    -2
100
AcDbLine
 10
4.375000000000046
 20
12.20424999999988
 30
0.0
 11
4.37500000000004
 21
14.04574999999987
 31
0.0
  0
SOLID
  5
259
330
253
100
AcDbEntity
  8
치수문자_일반주서
 62
     0
100
AcDbTrace
 10
4.92533333333338
 20
12.20424999999988
 30
0.0
 11
3.824666666666713
 21
12.20424999999988
 31
0.0
 12
4.375000000000035
 22
15.50624999999988
 32
0.0
 13
4.375000000000035
 23
15.50624999999988
 33
0.0
  0
SOLID
  5
25A
330
253
100
AcDbEntity
  8
치수문자_일반주서
 62
     0
100
AcDbTrace
 10
3.824666666666707
 20
14.04574999999987
 30
0.0
 11
4.925333333333374
 21
14.04574999999988
 31
0.0
 12
4.375000000000052
 22
10.74374999999987
 32
0.0
 13
4.375000000000052
 23
10.74374999999987
 33
0.0
  0
MTEXT
  5
25B
330
253
100
AcDbEntity
  8
치수문자_일반주서
 62
     0
100
AcDbMText
 10
0.0000000000000426
 20
13.125
 30
0.0
 40
3.5
 41
0.0
 71
     2
 72
     1
  1
\A1;%%c4.76 [3/16]
  7
SLDTEXTSTYLE0
 11
-3.543388970982122E-15
 21
1.0
 31
0.0
 73
     1
 44
1.0
  0
POINT
  5
25C
330
253
100
AcDbEntity
  8
Defpoints
 62
     0
100
AcDbPoint
 10
41.340578832127
 20
15.50625000000002
 30
0.0
  0
POINT
  5
25D
330
253
100
AcDbEntity
  8
Defpoints
 62
     0
100
AcDbPoint
 10
41.34057883212699
 20
10.74375000000001
 30
0.0
  0
POINT
  5
25E
330
253
100
AcDbEntity
  8
Defpoints
 62
     0
100
AcDbPoint
 10
4.37500000000005
 20
10.74374999999987
 30
0.0
  0
ENDBLK
  5
255
330
253
100
AcDbEntity
  8
0
100
AcDbBlockEnd
  0
BLOCK
  5
2CA
330
2C9
100
AcDbEntity
  8
0
100
AcDbBlockBegin
  2
*D11
 70
     1
 10
0.0
 20
0.0
 30
0.0
  3
*D11
  1
*D12
  0
LINE
  5
2CC
330
2C9
100
AcDbEntity
  8
치수문자_일반주서
 62
     0
370
    -2
100
AcDbLine
 10
182.6252827019912
 20
-32.29656119910425
 30
0.0
 11
197.0222130436402
 21
-32.29656119910419
 31
0.0
  0
LINE
  5
2CD
330
2C9
100
AcDbEntity
  8
치수문자_일반주서
 62
     0
370
    -2
100
AcDbLine
 10
182.6252827019912
 20
-36.66218619910424
 30
0.0
 11
197.0222130436402
 21
-36.66218619910418
 31
0.0
  0
LINE
  5
2CE
330
2C9
100
AcDbEntity
  8
치수문자_일반주서
 62
     0
370
    -2
100
AcDbLine
 10
197.0222130436402
 20
-32.29656119910419
 30
0.0
 11
197.02221304364
 21
4.05743880089581
 31
0.0
  0
LINE
  5
2CF
330
2C9
100
AcDbEntity
  8
치수문자_일반주서
 62
     0
370
    -2
100
AcDbLine
 10
197.0222130436402
 20
-32.29656119910419
 30
0.0
 11
197.0222130436402
 21
-36.66218619910418
 31
0.0
  0
LINE
  5
2D0
330
2C9
100
AcDbEntity
  8
치수문자_일반주서
 62
     0
370
    -2
100
AcDbLine
 10
197.0222130436402
 20
-28.99456119910419
 30
0.0
 11
197.0222130436402
 21
-25.69256119910419
 31
0.0
  0
LINE
  5
2D1
330
2C9
100
AcDbEntity
  8
치수문자_일반주서
 62
     0
370
    -2
100
AcDbLine
 10
197.0222130436403
 20
-39.96418619910418
 30
0.0
 11
197.0222130436403
 21
-43.26618619910418
 31
0.0
  0
SOLID
  5
2D2
330
2C9
100
AcDbEntity
  8
치수문자_일반주서
 62
     0
100
AcDbTrace
 10
196.4718797103069
 20
-28.99456119910419
 30
0.0
 11
197.5725463769735
 21
-28.99456119910419
 31
0.0
 12
197.0222130436402
 22
-32.29656119910419
 32
0.0
 13
197.0222130436402
 23
-32.29656119910419
 33
0.0
  0
SOLID
  5
2D3
330
2C9
100
AcDbEntity
  8
치수문자_일반주서
 62
     0
100
AcDbTrace
 10
197.5725463769736
 20
-39.96418619910418
 30
0.0
 11
196.471879710307
 21
-39.96418619910419
 31
0.0
 12
197.0222130436402
 22
-36.66218619910418
 32
0.0
 13
197.0222130436402
 23
-36.66218619910418
 33
0.0
  0
MTEXT
  5
2D4
330
2C9
100
AcDbEntity
  8
치수문자_일반주서
 62
     0
100
AcDbMText
 10
192.6472130436401
 20
-10.81756119910422
 30
0.0
 40
3.5
 41
0.0
 71
     2
 72
     1
  1
\A1;%%c4.37 [11/64]
  7
SLDTEXTSTYLE0
 11
-6.510341458646596E-15
 21
1.0
 31
0.0
 73
     1
 44
1.0
  0
POINT
  5
2D5
330
2C9
100
AcDbEntity
  8
Defpoints
 62
     0
100
AcDbPoint
 10
182.5627827019912
 20
-32.29656119910425
 30
0.0
  0
POINT
  5
2D6
330
2C9
100
AcDbEntity
  8
Defpoints
 62
     0
100
AcDbPoint
 10
182.5627827019912
 20
-36.66218619910424
 30
0.0
  0
POINT
  5
2D7
330
2C9
100
AcDbEntity
  8
Defpoints
 62
     0
100
AcDbPoint
 10
197.0222130436401
 20
-36.66218619910418
 30
0.0
  0
ENDBLK
  5
2CB
330
2C9
100
AcDbEntity
  8
0
100
AcDbBlockEnd
  0
BLOCK
  5
2D9
330
2D8
100
AcDbEntity
  8
0
100
AcDbBlockBegin
  2
*D12
 70
     1
 10
0.0
 20
0.0
 30
0.0
  3
*D12
  1
*D13
  0
LINE
  5
2DB
330
2D8
100
AcDbEntity
  8
치수문자_일반주서
 62
     0
370
    -2
100
AcDbLine
 10
182.5627827019912
 20
-32.23406119910425
 30
0.0
 11
182.5627827019912
 21
-22.70203307049758
 31
0.0
  0
LINE
  5
2DC
330
2D8
100
AcDbEntity
  8
치수문자_일반주서
 62
     0
370
    -2
100
AcDbLine
 10
160.3377827019912
 20
-32.23406119910425
 30
0.0
 11
160.3377827019912
 21
-22.70203307049758
 31
0.0
  0
LINE
  5
2DD
330
2D8
100
AcDbEntity
  8
치수문자_일반주서
 62
     0
370
    -2
100
AcDbLine
 10
160.3377827019912
 20
-22.70203307049758
 30
0.0
 11
127.4837827019912
 21
-22.70203307049758
 31
0.0
  0
LINE
  5
2DE
330
2D8
100
AcDbEntity
  8
치수문자_일반주서
 62
     0
370
    -2
100
AcDbLine
 10
182.5627827019912
 20
-22.70203307049758
 30
0.0
 11
160.3377827019912
 21
-22.70203307049758
 31
0.0
  0
LINE
  5
2DF
330
2D8
100
AcDbEntity
  8
치수문자_일반주서
 62
     0
370
    -2
100
AcDbLine
 10
185.8647827019912
 20
-22.70203307049758
 30
0.0
 11
189.1667827019912
 21
-22.70203307049758
 31
0.0
  0
LINE
  5
2E0
330
2D8
100
AcDbEntity
  8
치수문자_일반주서
 62
     0
370
    -2
100
AcDbLine
 10
157.0357827019912
 20
-22.70203307049758
 30
0.0
 11
153.7337827019912
 21
-22.70203307049758
 31
0.0
  0
SOLID
  5
2E1
330
2D8
100
AcDbEntity
  8
치수문자_일반주서
 62
     0
100
AcDbTrace
 10
185.8647827019912
 20
-22.15169973716425
 30
0.0
 11
185.8647827019912
 21
-23.25236640383092
 31
0.0
 12
182.5627827019912
 22
-22.70203307049758
 32
0.0
 13
182.5627827019912
 23
-22.70203307049758
 33
0.0
  0
SOLID
  5
2E2
330
2D8
100
AcDbEntity
  8
치수문자_일반주서
 62
     0
100
AcDbTrace
 10
157.0357827019912
 20
-23.25236640383092
 30
0.0
 11
157.0357827019912
 21
-22.15169973716425
 31
0.0
 12
160.3377827019912
 22
-22.70203307049758
 32
0.0
 13
160.3377827019912
 23
-22.70203307049758
 33
0.0
  0
MTEXT
  5
2E3
330
2D8
100
AcDbEntity
  8
치수문자_일반주서
 62
     0
100
AcDbMText
 10
140.6087827019912
 20
-18.32703307049758
 30
0.0
 40
3.5
 41
0.0
 71
     2
 72
     1
  1
\A1;22.23 [7/8]
  7
SLDTEXTSTYLE0
 73
     1
 44
1.0
  0
POINT
  5
2E4
330
2D8
100
AcDbEntity
  8
Defpoints
 62
     0
100
AcDbPoint
 10
182.5627827019912
 20
-32.29656119910425
 30
0.0
  0
POINT
  5
2E5
330
2D8
100
AcDbEntity
  8
Defpoints
 62
     0
100
AcDbPoint
 10
160.3377827019912
 20
-32.29656119910425
 30
0.0
  0
POINT
  5
2E6
330
2D8
100
AcDbEntity
  8
Defpoints
 62
     0
100
AcDbPoint
 10
160.3377827019912
 20
-22.70203307049758
 30
0.0
  0
ENDBLK
  5
2DA
330
2D8
100
AcDbEntity
  8
0
100
AcDbBlockEnd
  0
BLOCK
  5
2E8
330
2E7
100
AcDbEntity
  8
0
100
AcDbBlockBegin
  2
*D13
 70
     1
 10
0.0
 20
0.0
 30
0.0
  3
*D13
  1
*D14
  0
LINE
  5
2EA
330
2E7
100
AcDbEntity
  8
치수문자_일반주서
 62
     0
370
    -2
100
AcDbLine
 10
182.5627827019912
 20
-32.23406119910425
 30
0.0
 11
182.5627827019912
 21
-7.139264139528002
 31
0.0
  0
LINE
  5
2EB
330
2E7
100
AcDbEntity
  8
치수문자_일반주서
 62
     0
370
    -2
100
AcDbLine
 10
100.0127827019912
 20
-32.23406119910426
 30
0.0
 11
100.0127827019912
 21
-7.139264139528002
 31
0.0
  0
LINE
  5
2EC
330
2E7
100
AcDbEntity
  8
치수문자_일반주서
 62
     0
370
    -2
100
AcDbLine
 10
179.2607827019912
 20
-7.139264139528002
 30
0.0
 11
103.3147827019912
 21
-7.139264139528002
 31
0.0
  0
SOLID
  5
2ED
330
2E7
100
AcDbEntity
  8
치수문자_일반주서
 62
     0
100
AcDbTrace
 10
179.2607827019912
 20
-7.689597472861336
 30
0.0
 11
179.2607827019912
 21
-6.588930806194669
 31
0.0
 12
182.5627827019912
 22
-7.139264139528002
 32
0.0
 13
182.5627827019912
 23
-7.139264139528002
 33
0.0
  0
SOLID
  5
2EE
330
2E7
100
AcDbEntity
  8
치수문자_일반주서
 62
     0
100
AcDbTrace
 10
103.3147827019912
 20
-6.588930806194669
 30
0.0
 11
103.3147827019912
 21
-7.689597472861336
 31
0.0
 12
100.0127827019912
 22
-7.139264139528002
 32
0.0
 13
100.0127827019912
 23
-7.139264139528002
 33
0.0
  0
MTEXT
  5
2EF
330
2E7
100
AcDbEntity
  8
치수문자_일반주서
 62
     0
100
AcDbMText
 10
139.1815234442607
 20
-2.764264139528002
 30
0.0
 40
3.5
 41
0.0
 71
     2
 72
     1
  1
\A1;82.55 [3 1/4]
  7
SLDTEXTSTYLE0
 73
     1
 44
1.0
  0
POINT
  5
2F0
330
2E7
100
AcDbEntity
  8
Defpoints
 62
     0
100
AcDbPoint
 10
182.5627827019912
 20
-32.29656119910425
 30
0.0
  0
POINT
  5
2F1
330
2E7
100
AcDbEntity
  8
Defpoints
 62
     0
100
AcDbPoint
 10
100.0127827019912
 20
-32.29656119910426
 30
0.0
  0
POINT
  5
2F2
330
2E7
100
AcDbEntity
  8
Defpoints
 62
     0
100
AcDbPoint
 10
100.0127827019912
 20
-7.139264139528002
 30
0.0
  0
ENDBLK
  5
2E9
330
2E7
100
AcDbEntity
  8
0
100
AcDbBlockEnd
  0
BLOCK
  5
2F4
330
2F3
100
AcDbEntity
  8
0
100
AcDbBlockBegin
  2
*D14
 70
     1
 10
0.0
 20
0.0
 30
0.0
  3
*D14
  1
*D15
  0
LINE
  5
2F6
330
2F3
100
AcDbEntity
  8
치수문자_일반주서
 62
     0
370
    -2
100
AcDbLine
 10
123.9158615341182
 20
-32.09812369910425
 30
0.0
 11
87.01278270199123
 21
-32.09812369910439
 31
0.0
  0
LINE
  5
2F7
330
2F3
100
AcDbEntity
  8
치수문자_일반주서
 62
     0
370
    -2
100
AcDbLine
 10
123.9158615341182
 20
-36.86062369910425
 30
0.0
 11
87.01278270199124
 21
-36.86062369910439
 31
0.0
  0
LINE
  5
2F8
330
2F3
100
AcDbEntity
  8
치수문자_일반주서
 62
     0
370
    -2
100
AcDbLine
 10
87.01278270199124
 20
-35.40012369910439
 30
0.0
 11
87.01278270199123
 21
-33.55862369910439
 31
0.0
  0
SOLID
  5
2F9
330
2F3
100
AcDbEntity
  8
치수문자_일반주서
 62
     0
100
AcDbTrace
 10
87.56311603532457
 20
-35.40012369910439
 30
0.0
 11
86.46244936865791
 21
-35.40012369910439
 31
0.0
 12
87.01278270199123
 22
-32.09812369910439
 32
0.0
 13
87.01278270199123
 23
-32.09812369910439
 33
0.0
  0
SOLID
  5
2FA
330
2F3
100
AcDbEntity
  8
치수문자_일반주서
 62
     0
100
AcDbTrace
 10
86.4624493686579
 20
-33.55862369910439
 30
0.0
 11
87.56311603532455
 21
-33.55862369910439
 31
0.0
 12
87.01278270199124
 22
-36.86062369910439
 32
0.0
 13
87.01278270199124
 23
-36.86062369910439
 33
0.0
  0
MTEXT
  5
2FB
330
2F3
100
AcDbEntity
  8
치수문자_일반주서
 62
     0
100
AcDbMText
 10
82.63778270199123
 20
-34.47937369910426
 30
0.0
 40
3.5
 41
0.0
 71
     2
 72
     1
  1
\A1;%%c4.76 [3/16]
  7
SLDTEXTSTYLE0
 11
-2.983906501879689E-15
 21
1.0
 31
0.0
 73
     1
 44
1.0
  0
POINT
  5
2FC
330
2F3
100
AcDbEntity
  8
Defpoints
 62
     0
100
AcDbPoint
 10
123.9783615341182
 20
-32.09812369910425
 30
0.0
  0
POINT
  5
2FD
330
2F3
100
AcDbEntity
  8
Defpoints
 62
     0
100
AcDbPoint
 10
123.9783615341182
 20
-36.86062369910425
 30
0.0
  0
POINT
  5
2FE
330
2F3
100
AcDbEntity
  8
Defpoints
 62
     0
100
AcDbPoint
 10
87.01278270199124
 20
-36.86062369910439
 30
0.0
  0
ENDBLK
  5
2F5
330
2F3
100
AcDbEntity
  8
0
100
AcDbBlockEnd
  0
BLOCK
  5
392
330
391
100
AcDbEntity
  8
0
100
AcDbBlockBegin
  2
*D15
 70
     1
 10
0.0
 20
0.0
 30
0.0
  3
*D15
  1
*D17
  0
LINE
  5
394
330
391
100
AcDbEntity
  8
치수문자_일반주서
 62
     0
370
    -2
100
AcDbLine
 10
88.78750000000002
 20
11.36649999999993
 30
0.0
 11
107.6956199940237
 21
11.3665
 31
0.0
  0
LINE
  5
395
330
391
100
AcDbEntity
  8
치수문자_일반주서
 62
     0
370
    -2
100
AcDbLine
 10
88.7875
 20
6.603999999999928
 30
0.0
 11
107.6956199940237
 21
6.603999999999999
 31
0.0
  0
LINE
  5
396
330
391
100
AcDbEntity
  8
치수문자_일반주서
 62
     0
370
    -2
100
AcDbLine
 10
107.6956199940237
 20
11.3665
 30
0.0
 11
107.6956199940236
 21
46.39924317107673
 31
0.0
  0
LINE
  5
397
330
391
100
AcDbEntity
  8
치수문자_일반주서
 62
     0
370
    -2
100
AcDbLine
 10
107.6956199940237
 20
11.3665
 30
0.0
 11
107.6956199940237
 21
6.603999999999999
 31
0.0
  0
LINE
  5
398
330
391
100
AcDbEntity
  8
치수문자_일반주서
 62
     0
370
    -2
100
AcDbLine
 10
107.6956199940237
 20
14.6685
 30
0.0
 11
107.6956199940237
 21
17.9705
 31
0.0
  0
LINE
  5
399
330
391
100
AcDbEntity
  8
치수문자_일반주서
 62
     0
370
    -2
100
AcDbLine
 10
107.6956199940237
 20
3.302
 30
0.0
 11
107.6956199940238
 21
0.0
 31
0.0
  0
SOLID
  5
39A
330
391
100
AcDbEntity
  8
치수문자_일반주서
 62
     0
100
AcDbTrace
 10
107.1452866606904
 20
14.6685
 30
0.0
 11
108.245953327357
 21
14.6685
 31
0.0
 12
107.6956199940237
 22
11.3665
 32
0.0
 13
107.6956199940237
 23
11.3665
 33
0.0
  0
SOLID
  5
39B
330
391
100
AcDbEntity
  8
치수문자_일반주서
 62
     0
100
AcDbTrace
 10
108.2459533273571
 20
3.302000000000001
 30
0.0
 11
107.1452866606904
 21
3.301999999999998
 31
0.0
 12
107.6956199940237
 22
6.603999999999999
 32
0.0
 13
107.6956199940237
 23
6.603999999999999
 33
0.0
  0
MTEXT
  5
39C
330
391
100
AcDbEntity
  8
치수문자_일반주서
 62
     0
100
AcDbMText
 10
103.3206199940237
 20
32.39924317107672
 30
0.0
 40
3.5
 41
0.0
 71
     2
 72
     1
  1
\A1;%%c4.76 [3/16]
  7
SLDTEXTSTYLE0
 11
-2.983906501879686E-15
 21
1.0
 31
0.0
 73
     1
 44
1.0
  0
POINT
  5
39D
330
391
100
AcDbEntity
  8
Defpoints
 62
     0
100
AcDbPoint
 10
88.72500000000002
 20
11.36649999999993
 30
0.0
  0
POINT
  5
39E
330
391
100
AcDbEntity
  8
Defpoints
 62
     0
100
AcDbPoint
 10
88.725
 20
6.603999999999928
 30
0.0
  0
POINT
  5
39F
330
391
100
AcDbEntity
  8
Defpoints
 62
     0
100
AcDbPoint
 10
107.6956199940237
 20
6.603999999999999
 30
0.0
  0
ENDBLK
  5
393
330
391
100
AcDbEntity
  8
0
100
AcDbBlockEnd
  0
BLOCK
  5
3A1
330
3A0
100
AcDbEntity
  8
0
100
AcDbBlockBegin
  2
*D16
 70
     1
 10
0.0
 20
0.0
 30
0.0
  3
*D16
  1
*D18
  0
LINE
  5
3A3
330
3A0
100
AcDbEntity
  8
치수문자_일반주서
 62
     0
370
    -2
100
AcDbLine
 10
88.72500000000001
 20
11.42899999999993
 30
0.0
 11
88.72500000000001
 21
26.46616529677149
 31
0.0
  0
LINE
  5
3A4
330
3A0
100
AcDbEntity
  8
치수문자_일반주서
 62
     0
370
    -2
100
AcDbLine
 10
63.32500000000001
 20
11.42718407561337
 30
0.0
 11
63.32500000000001
 21
26.46616529677149
 31
0.0
  0
LINE
  5
3A5
330
3A0
100
AcDbEntity
  8
치수문자_일반주서
 62
     0
370
    -2
100
AcDbLine
 10
63.32500000000001
 20
26.46616529677149
 30
0.0
 11
39.22100000000001
 21
26.46616529677149
 31
0.0
  0
LINE
  5
3A6
330
3A0
100
AcDbEntity
  8
치수문자_일반주서
 62
     0
370
    -2
100
AcDbLine
 10
88.72500000000001
 20
26.46616529677149
 30
0.0
 11
63.32500000000001
 21
26.46616529677149
 31
0.0
  0
LINE
  5
3A7
330
3A0
100
AcDbEntity
  8
치수문자_일반주서
 62
     0
370
    -2
100
AcDbLine
 10
92.02700000000002
 20
26.46616529677149
 30
0.0
 11
95.32900000000001
 21
26.46616529677149
 31
0.0
  0
LINE
  5
3A8
330
3A0
100
AcDbEntity
  8
치수문자_일반주서
 62
     0
370
    -2
100
AcDbLine
 10
60.02300000000001
 20
26.46616529677149
 30
0.0
 11
56.72100000000001
 21
26.46616529677149
 31
0.0
  0
SOLID
  5
3A9
330
3A0
100
AcDbEntity
  8
치수문자_일반주서
 62
     0
100
AcDbTrace
 10
92.02700000000002
 20
27.01649863010482
 30
0.0
 11
92.02700000000002
 21
25.91583196343815
 31
0.0
 12
88.72500000000001
 22
26.46616529677149
 32
0.0
 13
88.72500000000001
 23
26.46616529677149
 33
0.0
  0
SOLID
  5
3AA
330
3A0
100
AcDbEntity
  8
치수문자_일반주서
 62
     0
100
AcDbTrace
 10
60.02300000000001
 20
25.91583196343815
 30
0.0
 11
60.02300000000001
 21
27.01649863010482
 31
0.0
 12
63.32500000000001
 22
26.46616529677149
 32
0.0
 13
63.32500000000001
 23
26.46616529677149
 33
0.0
  0
MTEXT
  5
3AB
330
3A0
100
AcDbEntity
  8
치수문자_일반주서
 62
     0
100
AcDbMText
 10
47.97100000000001
 20
30.84116529677149
 30
0.0
 40
3.5
 41
0.0
 71
     2
 72
     1
  1
\A1;25.4 [1]
  7
SLDTEXTSTYLE0
 73
     1
 44
1.0
  0
POINT
  5
3AC
330
3A0
100
AcDbEntity
  8
Defpoints
 62
     0
100
AcDbPoint
 10
88.72500000000001
 20
11.36649999999993
 30
0.0
  0
POINT
  5
3AD
330
3A0
100
AcDbEntity
  8
Defpoints
 62
     0
100
AcDbPoint
 10
63.32500000000001
 20
11.36468407561337
 30
0.0
  0
POINT
  5
3AE
330
3A0
100
AcDbEntity
  8
Defpoints
 62
     0
100
AcDbPoint
 10
63.32500000000001
 20
26.46616529677149
 30
0.0
  0
ENDBLK
  5
3A2
330
3A0
100
AcDbEntity
  8
0
100
AcDbBlockEnd
  0
BLOCK
  5
3B0
330
3AF
100
AcDbEntity
  8
0
100
AcDbBlockBegin
  2
*D17
 70
     1
 10
0.0
 20
0.0
 30
0.0
  3
*D17
  1
*D19
  0
LINE
  5
3B2
330
3AF
100
AcDbEntity
  8
치수문자_일반주서
 62
     0
370
    -2
100
AcDbLine
 10
88.72500000000001
 20
11.42899999999993
 30
0.0
 11
88.725
 21
42.83097979507893
 31
0.0
  0
LINE
  5
3B3
330
3AF
100
AcDbEntity
  8
치수문자_일반주서
 62
     0
370
    -2
100
AcDbLine
 10
3.000000000000007
 20
10.95274999999992
 30
0.0
 11
2.999999999999993
 21
42.83097979507893
 31
0.0
  0
LINE
  5
3B4
330
3AF
100
AcDbEntity
  8
치수문자_일반주서
 62
     0
370
    -2
100
AcDbLine
 10
85.423
 20
42.83097979507893
 30
0.0
 11
6.301999999999992
 21
42.83097979507893
 31
0.0
  0
SOLID
  5
3B5
330
3AF
100
AcDbEntity
  8
치수문자_일반주서
 62
     0
100
AcDbTrace
 10
85.423
 20
42.2806464617456
 30
0.0
 11
85.423
 21
43.38131312841227
 31
0.0
 12
88.725
 22
42.83097979507893
 32
0.0
 13
88.725
 23
42.83097979507893
 33
0.0
  0
SOLID
  5
3B6
330
3AF
100
AcDbEntity
  8
치수문자_일반주서
 62
     0
100
AcDbTrace
 10
6.301999999999992
 20
43.38131312841227
 30
0.0
 11
6.301999999999992
 21
42.2806464617456
 31
0.0
 12
2.999999999999993
 22
42.83097979507893
 32
0.0
 13
2.999999999999993
 23
42.83097979507893
 33
0.0
  0
MTEXT
  5
3B7
330
3AF
100
AcDbEntity
  8
치수문자_일반주서
 62
     0
100
AcDbMText
 10
43.67523077081835
 20
47.20597979507893
 30
0.0
 40
3.5
 41
0.0
 71
     2
 72
     1
  1
\A1;85.73 [3 3/8]
  7
SLDTEXTSTYLE0
 73
     1
 44
1.0
  0
POINT
  5
3B8
330
3AF
100
AcDbEntity
  8
Defpoints
 62
     0
100
AcDbPoint
 10
88.72500000000001
 20
11.36649999999993
 30
0.0
  0
POINT
  5
3B9
330
3AF
100
AcDbEntity
  8
Defpoints
 62
     0
100
AcDbPoint
 10
3.000000000000007
 20
10.89024999999992
 30
0.0
  0
POINT
  5
3BA
330
3AF
100
AcDbEntity
  8
Defpoints
 62
     0
100
AcDbPoint
 10
3.000000000000007
 20
42.83097979507893
 30
0.0
  0
ENDBLK
  5
3B1
330
3AF
100
AcDbEntity
  8
0
100
AcDbBlockEnd
  0
BLOCK
  5
3EE
330
3ED
100
AcDbEntity
  8
0
100
AcDbBlockBegin
  2
*D18
 70
     1
 10
0.0
 20
0.0
 30
0.0
  3
*D18
  1
*D20
  0
LINE
  5
3F0
330
3ED
100
AcDbEntity
  8
치수문자_일반주서
 62
     0
370
    -2
100
AcDbLine
 10
274.9832996971504
 20
-45.95427442975807
 30
0.0
 11
293.8914196911741
 21
-45.954274429758
 31
0.0
  0
LINE
  5
3F1
330
3ED
100
AcDbEntity
  8
치수문자_일반주서
 62
     0
370
    -2
100
AcDbLine
 10
274.9832996971504
 20
-50.71677442975808
 30
0.0
 11
293.8914196911741
 21
-50.716774429758
 31
0.0
  0
LINE
  5
3F2
330
3ED
100
AcDbEntity
  8
치수문자_일반주서
 62
     0
370
    -2
100
AcDbLine
 10
293.8914196911741
 20
-45.954274429758
 30
0.0
 11
293.8914196911741
 21
-10.92153125868127
 31
0.0
  0
LINE
  5
3F3
330
3ED
100
AcDbEntity
  8
치수문자_일반주서
 62
     0
370
    -2
100
AcDbLine
 10
293.8914196911741
 20
-45.954274429758
 30
0.0
 11
293.8914196911741
 21
-50.716774429758
 31
0.0
  0
LINE
  5
3F4
330
3ED
100
AcDbEntity
  8
치수문자_일반주서
 62
     0
370
    -2
100
AcDbLine
 10
293.8914196911741
 20
-42.652274429758
 30
0.0
 11
293.8914196911741
 21
-39.350274429758
 31
0.0
  0
LINE
  5
3F5
330
3ED
100
AcDbEntity
  8
치수문자_일반주서
 62
     0
370
    -2
100
AcDbLine
 10
293.8914196911741
 20
-54.018774429758
 30
0.0
 11
293.8914196911741
 21
-57.320774429758
 31
0.0
  0
SOLID
  5
3F6
330
3ED
100
AcDbEntity
  8
치수문자_일반주서
 62
     0
100
AcDbTrace
 10
293.3410863578407
 20
-42.652274429758
 30
0.0
 11
294.4417530245074
 21
-42.652274429758
 31
0.0
 12
293.8914196911741
 22
-45.954274429758
 32
0.0
 13
293.8914196911741
 23
-45.954274429758
 33
0.0
  0
SOLID
  5
3F7
330
3ED
100
AcDbEntity
  8
치수문자_일반주서
 62
     0
100
AcDbTrace
 10
294.4417530245074
 20
-54.018774429758
 30
0.0
 11
293.3410863578407
 21
-54.018774429758
 31
0.0
 12
293.8914196911741
 22
-50.716774429758
 32
0.0
 13
293.8914196911741
 23
-50.716774429758
 33
0.0
  0
MTEXT
  5
3F8
330
3ED
100
AcDbEntity
  8
치수문자_일반주서
 62
     0
100
AcDbMText
 10
289.5164196911741
 20
-24.92153125868127
 30
0.0
 40
3.5
 41
0.0
 71
     2
 72
     1
  1
\A1;%%c4.76 [3/16]
  7
SLDTEXTSTYLE0
 11
0.0
 21
1.0
 31
0.0
 73
     1
 44
1.0
  0
POINT
  5
3F9
330
3ED
100
AcDbEntity
  8
Defpoints
 62
     0
100
AcDbPoint
 10
274.9207996971504
 20
-45.95427442975807
 30
0.0
  0
POINT
  5
3FA
330
3ED
100
AcDbEntity
  8
Defpoints
 62
     0
100
AcDbPoint
 10
274.9207996971504
 20
-50.71677442975808
 30
0.0
  0
POINT
  5
3FB
330
3ED
100
AcDbEntity
  8
Defpoints
 62
     0
100
AcDbPoint
 10
293.8914196911741
 20
-50.716774429758
 30
0.0
  0
ENDBLK
  5
3EF
330
3ED
100
AcDbEntity
  8
0
100
AcDbBlockEnd
  0
BLOCK
  5
3FD
330
3FC
100
AcDbEntity
  8
0
100
AcDbBlockBegin
  2
*D19
 70
     1
 10
0.0
 20
0.0
 30
0.0
  3
*D19
  1
*D21
  0
LINE
  5
3FF
330
3FC
100
AcDbEntity
  8
치수문자_일반주서
 62
     0
370
    -2
100
AcDbLine
 10
274.9207996971504
 20
-45.89177442975807
 30
0.0
 11
274.9207996971504
 21
-30.85460913298651
 31
0.0
  0
LINE
  5
400
330
3FC
100
AcDbEntity
  8
치수문자_일반주서
 62
     0
370
    -2
100
AcDbLine
 10
249.5207996971504
 20
-45.89359035414464
 30
0.0
 11
249.5207996971504
 21
-30.85460913298651
 31
0.0
  0
LINE
  5
401
330
3FC
100
AcDbEntity
  8
치수문자_일반주서
 62
     0
370
    -2
100
AcDbLine
 10
249.5207996971504
 20
-30.85460913298651
 30
0.0
 11
225.4167996971504
 21
-30.85460913298651
 31
0.0
  0
LINE
  5
402
330
3FC
100
AcDbEntity
  8
치수문자_일반주서
 62
     0
370
    -2
100
AcDbLine
 10
274.9207996971504
 20
-30.85460913298651
 30
0.0
 11
249.5207996971504
 21
-30.85460913298651
 31
0.0
  0
LINE
  5
403
330
3FC
100
AcDbEntity
  8
치수문자_일반주서
 62
     0
370
    -2
100
AcDbLine
 10
278.2227996971504
 20
-30.85460913298651
 30
0.0
 11
281.5247996971505
 21
-30.85460913298651
 31
0.0
  0
LINE
  5
404
330
3FC
100
AcDbEntity
  8
치수문자_일반주서
 62
     0
370
    -2
100
AcDbLine
 10
246.2187996971504
 20
-30.85460913298651
 30
0.0
 11
242.9167996971504
 21
-30.85460913298651
 31
0.0
  0
SOLID
  5
405
330
3FC
100
AcDbEntity
  8
치수문자_일반주서
 62
     0
100
AcDbTrace
 10
278.2227996971504
 20
-30.30427579965318
 30
0.0
 11
278.2227996971504
 21
-31.40494246631985
 31
0.0
 12
274.9207996971504
 22
-30.85460913298651
 32
0.0
 13
274.9207996971504
 23
-30.85460913298651
 33
0.0
  0
SOLID
  5
406
330
3FC
100
AcDbEntity
  8
치수문자_일반주서
 62
     0
100
AcDbTrace
 10
246.2187996971504
 20
-31.40494246631985
 30
0.0
 11
246.2187996971504
 21
-30.30427579965318
 31
0.0
 12
249.5207996971504
 22
-30.85460913298651
 32
0.0
 13
249.5207996971504
 23
-30.85460913298651
 33
0.0
  0
MTEXT
  5
407
330
3FC
100
AcDbEntity
  8
치수문자_일반주서
 62
     0
100
AcDbMText
 10
234.1667996971504
 20
-26.47960913298652
 30
0.0
 40
3.5
 41
0.0
 71
     2
 72
     1
  1
\A1;25.4 [1]
  7
SLDTEXTSTYLE0
 73
     1
 44
1.0
  0
POINT
  5
408
330
3FC
100
AcDbEntity
  8
Defpoints
 62
     0
100
AcDbPoint
 10
274.9207996971504
 20
-45.95427442975807
 30
0.0
  0
POINT
  5
409
330
3FC
100
AcDbEntity
  8
Defpoints
 62
     0
100
AcDbPoint
 10
249.5207996971504
 20
-45.95609035414464
 30
0.0
  0
POINT
  5
40A
330
3FC
100
AcDbEntity
  8
Defpoints
 62
     0
100
AcDbPoint
 10
249.5207996971504
 20
-30.85460913298651
 30
0.0
  0
ENDBLK
  5
3FE
330
3FC
100
AcDbEntity
  8
0
100
AcDbBlockEnd
  0
BLOCK
  5
40C
330
40B
100
AcDbEntity
  8
0
100
AcDbBlockBegin
  2
*D20
 70
     1
 10
0.0
 20
0.0
 30
0.0
  3
*D20
  1
*D22
  0
LINE
  5
40E
330
40B
100
AcDbEntity
  8
치수문자_일반주서
 62
     0
370
    -2
100
AcDbLine
 10
274.9207996971504
 20
-45.89177442975807
 30
0.0
 11
274.9207996971504
 21
-14.48979463467907
 31
0.0
  0
LINE
  5
40F
330
40B
100
AcDbEntity
  8
치수문자_일반주서
 62
     0
370
    -2
100
AcDbLine
 10
189.1957996971504
 20
-46.36802442975808
 30
0.0
 11
189.1957996971504
 21
-14.48979463467907
 31
0.0
  0
LINE
  5
410
330
40B
100
AcDbEntity
  8
치수문자_일반주서
 62
     0
370
    -2
100
AcDbLine
 10
271.6187996971504
 20
-14.48979463467907
 30
0.0
 11
192.4977996971504
 21
-14.48979463467907
 31
0.0
  0
SOLID
  5
411
330
40B
100
AcDbEntity
  8
치수문자_일반주서
 62
     0
100
AcDbTrace
 10
271.6187996971504
 20
-15.0401279680124
 30
0.0
 11
271.6187996971504
 21
-13.93946130134574
 31
0.0
 12
274.9207996971504
 22
-14.48979463467907
 32
0.0
 13
274.9207996971504
 23
-14.48979463467907
 33
0.0
  0
SOLID
  5
412
330
40B
100
AcDbEntity
  8
치수문자_일반주서
 62
     0
100
AcDbTrace
 10
192.4977996971504
 20
-13.93946130134574
 30
0.0
 11
192.4977996971504
 21
-15.0401279680124
 31
0.0
 12
189.1957996971504
 22
-14.48979463467907
 32
0.0
 13
189.1957996971504
 23
-14.48979463467907
 33
0.0
  0
MTEXT
  5
413
330
40B
100
AcDbEntity
  8
치수문자_일반주서
 62
     0
100
AcDbMText
 10
229.8710304679688
 20
-10.11479463467907
 30
0.0
 40
3.5
 41
0.0
 71
     2
 72
     1
  1
\A1;85.73 [3 3/8]
  7
SLDTEXTSTYLE0
 73
     1
 44
1.0
  0
POINT
  5
414
330
40B
100
AcDbEntity
  8
Defpoints
 62
     0
100
AcDbPoint
 10
274.9207996971504
 20
-45.95427442975807
 30
0.0
  0
POINT
  5
415
330
40B
100
AcDbEntity
  8
Defpoints
 62
     0
100
AcDbPoint
 10
189.1957996971504
 20
-46.43052442975808
 30
0.0
  0
POINT
  5
416
330
40B
100
AcDbEntity
  8
Defpoints
 62
     0
100
AcDbPoint
 10
189.1957996971504
 20
-14.48979463467907
 30
0.0
  0
ENDBLK
  5
40D
330
40B
100
AcDbEntity
  8
0
100
AcDbBlockEnd
  0
ENDSEC
  0
SECTION
  2
ENTITIES
  0
LINE
  5
96
330
1F
100
AcDbEntity
  8
0
  6
Continuous
 62
     1
370
    25
100
AcDbLine
 10
23.77977372194698
 20
-2.381250000000003
 30
0.0
 11
25.23221058767342
 21
-2.381250000000003
 31
0.0
  0
LINE
  5
97
330
1F
100
AcDbEntity
  8
0
  6
Continuous
 62
     1
370
    25
100
AcDbLine
 10
38.189532669761
 20
2.38125
 30
0.0
 11
36.73708905630572
 21
2.38125
 31
0.0
  0
LINE
  5
98
330
1F
100
AcDbEntity
  8
0
  6
Continuous
 62
     1
370
    25
100
AcDbLine
 10
17.46250000000001
 20
-2.381250000000003
 30
0.0
 11
18.75286792420082
 21
-2.381250000000003
 31
0.0
  0
LINE
  5
99
330
1F
100
AcDbEntity
  8
0
  6
Continuous
 62
     1
370
    25
100
AcDbLine
 10
31.71201090105895
 20
2.38125
 30
0.0
 11
30.25863264190413
 21
2.38125
 31
0.0
  0
LINE
  5
9A
330
1F
100
AcDbEntity
  8
0
  6
Continuous
 62
     1
370
    25
100
AcDbLine
 10
36.73708905630569
 20
-2.381250000000003
 30
0.0
 11
38.189532669761
 21
-2.381250000000003
 31
0.0
  0
LINE
  5
9B
330
1F
100
AcDbEntity
  8
0
  6
Continuous
 62
     1
370
    25
100
AcDbLine
 10
25.23221058767339
 20
2.38125
 30
0.0
 11
23.77977372194697
 21
2.38125
 31
0.0
  0
LINE
  5
9C
330
1F
100
AcDbEntity
  8
0
  6
Continuous
 62
     1
370
    25
100
AcDbLine
 10
30.25863264190413
 20
-2.381250000000003
 30
0.0
 11
31.71201090105891
 21
-2.381250000000003
 31
0.0
  0
LINE
  5
9D
330
1F
100
AcDbEntity
  8
0
  6
Continuous
 62
     1
370
    25
100
AcDbLine
 10
18.75286792420081
 20
2.38125
 30
0.0
 11
17.46250000000001
 21
2.38125
 31
0.0
  0
LINE
  5
9E
330
1F
100
AcDbEntity
  8
외형선
  6
Continuous
370
    15
100
AcDbLine
 10
17.3015116916559
 20
-2.381250000000001
 30
0.0
 11
17.46250000000001
 21
-2.381250000000001
 31
0.0
  0
LINE
  5
A0
330
1F
100
AcDbEntity
  8
외형선
  6
Continuous
370
    15
100
AcDbLine
 10
16.96248038242821
 20
2.381249999999998
 30
0.0
 11
-17.4625
 21
2.381249999999998
 31
0.0
  0
LINE
  5
A1
330
1F
100
AcDbEntity
  8
외형선
  6
Continuous
370
    15
100
AcDbLine
 10
17.46250000000001
 20
2.381249999999998
 30
0.0
 11
17.30151169165591
 21
2.381249999999998
 31
0.0
  0
LINE
  5
A4
330
1F
100
AcDbEntity
  8
0
  6
Continuous
 62
     1
370
    25
100
AcDbLine
 10
42.8625
 20
1.009552537052356
 30
0.0
 11
42.86250000000001
 21
2.381250000000005
 31
0.0
  0
SPLINE
  5
A5
330
1F
100
AcDbEntity
  8
0
  6
Continuous
 62
     1
370
    25
100
AcDbSpline
210
0.0
220
0.0
230
1.0
 70
     8
 71
     3
 72
    16
 73
    12
 74
     0
 42
0.000000001
 43
0.00000001
 40
0.0
 40
0.0
 40
0.0
 40
0.0
 40
0.116211584387541
 40
0.2324232874140865
 40
0.3486350736501458
 40
0.4648469076594056
 40
0.581058754001632
 40
0.6859807226116503
 40
0.7909088541437219
 40
0.8958500741869921
 40
1.0
 40
1.0
 40
1.0
 40
1.0
 10
17.46250000000003
 20
0.7331519609134606
 30
0.0
 10
17.86084281956651
 20
0.5083960821644598
 30
0.0
 10
18.65752886536283
 20
0.058884095215893
 30
0.0
 10
19.85255613616149
 20
-0.6366720544022749
 30
0.0
 10
21.04759487202466
 20
-1.27475070697204
 30
0.0
 10
22.24259497440955
 20
-1.807814733143128
 30
0.0
 10
23.39903927712606
 20
-2.177245101715623
 30
0.0
 10
24.51631585318945
 20
-2.372846520288223
 30
0.0
 10
25.59510537830709
 20
-2.397584807897196
 30
0.0
 10
26.67124035498459
 20
-2.26920330053377
 30
0.0
 10
27.38783202018827
 20
-2.057544250304016
 30
0.0
 10
27.74477190142307
 20
-1.952115231352477
 30
0.0
  0
SPLINE
  5
A6
330
1F
100
AcDbEntity
  8
0
  6
Continuous
 62
     1
370
    25
100
AcDbSpline
210
0.0
220
0.0
230
1.0
 70
     8
 71
     3
 72
    12
 73
     8
 74
     0
 42
0.000000001
 43
0.00000001
 40
0.0
 40
0.0
 40
0.0
 40
0.0
 40
0.0760693952024285
 40
0.3069694270892622
 40
0.5379145464685952
 40
0.7689197822341994
 40
0.9999999999999999
 40
0.9999999999999999
 40
0.9999999999999999
 40
0.9999999999999999
 10
38.189532669761
 20
2.363281133759711
 30
0.0
 10
38.3080116477251
 20
2.368257042674924
 30
0.0
 10
38.78612014183085
 20
2.388336759424169
 30
0.0
 10
39.62395358980461
 20
2.257349904451069
 30
0.0
 10
40.70314674451267
 20
1.97577057351143
 30
0.0
 10
41.78267222553903
 20
1.55333392263527
 30
0.0
 10
42.5025184723444
 20
1.190832606450962
 30
0.0
 10
42.86250000000002
 20
1.009552537052356
 30
0.0
  0
SPLINE
  5
A7
330
1F
100
AcDbEntity
  8
외형선
  6
Continuous
370
    15
100
AcDbSpline
210
0.0
220
0.0
230
1.0
 70
    24
 71
     3
 72
    11
 73
     7
 74
     0
 42
0.000000001
 43
0.00000001
 40
0.0
 40
0.0
 40
0.0
 40
0.0
 40
0.27881686536693
 40
0.5499081873296638
 40
0.8209995092924053
 40
0.9999999999999999
 40
0.9999999999999999
 40
0.9999999999999999
 40
0.9999999999999999
 10
17.46250000000003
 20
2.379434075633903
 30
0.0
 10
17.46250000000001
 20
2.217917709668814
 30
0.0
 10
17.46249999999996
 20
1.899360322851311
 30
0.0
 10
17.4625
 20
1.413739986531573
 30
0.0
 10
17.46249999999998
 20
1.023159963557733
 30
0.0
 10
17.46250000000001
 20
0.8576632229809694
 30
0.0
 10
17.46250000000003
 20
0.7918455454764781
 30
0.0
  0
SPLINE
  5
A8
330
1F
100
AcDbEntity
  8
0
  6
Continuous
 62
     1
370
    25
100
AcDbSpline
210
0.0
220
0.0
230
1.0
 70
     8
 71
     3
 72
    10
 73
     6
 74
     0
 42
0.000000001
 43
0.00000001
 40
0.0
 40
0.0
 40
0.0
 40
0.0
 40
0.4998796724953631
 40
0.9995971416741839
 40
1.0
 40
1.0
 40
1.0
 40
1.0
 10
42.86250000000003
 20
2.381250000000005
 30
0.0
 10
42.5025195932363
 20
2.336162510288073
 30
0.0
 10
41.78267558785107
 20
2.263512977454945
 30
0.0
 10
41.06258927490494
 20
2.092488522660605
 30
0.0
 10
40.70248156397057
 20
1.952684066781877
 30
0.0
 10
40.70219148899946
 20
1.95257145110533
 30
0.0
  0
SPLINE
  5
A9
330
1F
100
AcDbEntity
  8
0
  6
Continuous
 62
     1
370
    25
100
AcDbSpline
210
0.0
220
0.0
230
1.0
 70
     8
 71
     3
 72
    19
 73
    15
 74
     0
 42
0.000000001
 43
0.00000001
 40
0.0
 40
0.0
 40
0.0
 40
0.0
 40
0.0270495516991375
 40
0.1114392443758267
 40
0.1958019570454007
 40
0.280143123687988
 40
0.3644682368217657
 40
0.4487828327327839
 40
0.5330924764515274
 40
0.626474057933548
 40
0.71985562950546
 40
0.8132371626894017
 40
0.9066186290106578
 40
1.0
 40
1.0
 40
1.0
 40
1.0
 10
30.25863264190413
 20
-2.363524351559374
 30
0.0
 10
30.14325142312994
 20
-2.368489528275588
 30
0.0
 10
29.66790173976457
 20
-2.388945155326333
 30
0.0
 10
28.83269318611524
 20
-2.258896106232578
 30
0.0
 10
27.75319714455957
 20
-1.979759781393735
 30
0.0
 10
26.67402266552374
 20
-1.554412329856561
 30
0.0
 10
25.59510481508158
 20
-1.02635920548774
 30
0.0
 10
24.51631600357388
 20
-0.4276841909961635
 30
0.0
 10
23.39903923197799
 20
0.2224706953285063
 30
0.0
 10
22.24259498702464
 20
0.8794038040471194
 30
0.0
 10
21.04759486864562
 20
1.486064056879948
 30
0.0
 10
19.8525561370626
 20
1.965027364390127
 30
0.0
 10
18.65752886513759
 20
2.294432992217543
 30
0.0
 10
17.86084281949144
 20
2.351100390803492
 30
0.0
 10
17.46250000000007
 20
2.379434075633708
 30
0.0
  0
SPLINE
  5
AA
330
1F
100
AcDbEntity
  8
0
  6
Continuous
 62
     1
370
    25
100
AcDbSpline
210
0.0
220
0.0
230
1.0
 70
     8
 71
     3
 72
    22
 73
    18
 74
     0
 42
0.000000001
 43
0.00000001
 40
0.0
 40
0.0
 40
0.0
 40
0.0
 40
0.0234564218055737
 40
0.0932006560740689
 40
0.162958167996607
 40
0.2327335003654851
 40
0.3025311475569217
 40
0.3723323659611439
 40
0.4421107534584954
 40
0.5118706444764837
 40
0.5816165753324665
 40
0.6513531203870715
 40
0.7210848796453314
 40
0.7908164662089969
 40
0.8605524936526716
 40
0.9302975633972016
 40
1.0
 40
1.0
 40
1.0
 40
1.0
 10
25.23221058767339
 20
2.36309374935251
 30
0.0
 10
25.35315978571136
 20
2.368081486156887
 30
0.0
 10
25.83373370709665
 20
2.387899527729716
 30
0.0
 10
26.67402507911812
 20
2.255723470851356
 30
0.0
 10
27.75319616274078
 20
1.974118207259063
 30
0.0
 10
28.83269469957796
 20
1.546901338315581
 30
0.0
 10
29.91250393792595
 20
1.017363114242728
 30
0.0
 10
30.99234862016372
 20
0.4177796039892031
 30
0.0
 10
32.07190055260282
 20
-0.2100874930324354
 30
0.0
 10
33.15111748061514
 20
-0.8236343289462899
 30
0.0
 10
34.23007350965156
 20
-1.381042912554657
 30
0.0
 10
35.30885591443367
 20
-1.844480643342796
 30
0.0
 10
36.3875494651568
 20
-2.182195000104115
 30
0.0
 10
37.46623955965326
 20
-2.372088414190015
 30
0.0
 10
38.54501311768096
 20
-2.397991064145732
 30
0.0
 10
39.62366033590945
 20
-2.270271572905266
 30
0.0
 10
40.34275438726269
 20
-2.058449905032245
 30
0.0
 10
40.70219148899943
 20
-1.952571451105333
 30
0.0
  0
SPLINE
  5
AB
330
1F
100
AcDbEntity
  8
0
  6
Continuous
 62
     1
370
    25
100
AcDbSpline
210
0.0
220
0.0
230
1.0
 70
     8
 71
     3
 72
    22
 73
    18
 74
     0
 42
0.000000001
 43
0.00000001
 40
0.0
 40
0.0
 40
0.0
 40
0.0
 40
0.0714270616978122
 40
0.1428309464053691
 40
0.2142162490946461
 40
0.2855876152075271
 40
0.3569497281736677
 40
0.4283072967085782
 40
0.4996650419649283
 40
0.5710276846115067
 40
0.6423999319150004
 40
0.7137864648997208
 40
0.7851919256596273
 40
0.8566207496912152
 40
0.9280459192374597
 40
0.9994482536302461
 40
1.0
 40
1.0
 40
1.0
 40
1.0
 10
42.86250000000001
 20
-2.381249999999994
 30
0.0
 10
42.50251845122311
 20
-2.338973049408847
 30
0.0
 10
41.78267216218203
 20
-2.271943682840254
 30
0.0
 10
40.70314699781705
 20
-1.973409354053031
 30
0.0
 10
39.62395264025726
 20
-1.552152758886867
 30
0.0
 10
38.54501251700188
 20
-1.022174579365538
 30
0.0
 10
37.4662397206727
 20
-0.4234884217961348
 30
0.0
 10
36.38754942168345
 20
0.2042269195916377
 30
0.0
 10
35.30885592731258
 20
0.8179791396112424
 30
0.0
 10
34.23007350161122
 20
1.376116460846144
 30
0.0
 10
33.15111749990001
 20
1.840539085563106
 30
0.0
 10
32.07190048348284
 20
2.180001633079445
 30
0.0
 10
30.99234887746199
 20
2.369981670164769
 30
0.0
 10
29.91250297756233
 20
2.402649287683944
 30
0.0
 10
28.8326982829186
 20
2.256570053049265
 30
0.0
 10
28.11014114993201
 20
2.093822761200368
 30
0.0
 10
27.74755224563067
 20
1.953193580752138
 30
0.0
 10
27.74477190142305
 20
1.952115231352472
 30
0.0
  0
SPLINE
  5
AC
330
1F
100
AcDbEntity
  8
0
  6
Continuous
 62
     1
370
    25
100
AcDbSpline
210
0.0
220
0.0
230
1.0
 70
     8
 71
     3
 72
    21
 73
    17
 74
     0
 42
0.000000001
 43
0.00000001
 40
0.0
 40
0.0
 40
0.0
 40
0.0
 40
0.0710684063227937
 40
0.1482982887388851
 40
0.2255282029032055
 40
0.3027581252635419
 40
0.3724852292094074
 40
0.4422164287961793
 40
0.5119563265039732
 40
0.5817095010402313
 40
0.6514804949147889
 40
0.7212738022244126
 40
0.791070680524771
 40
0.8608447293378398
 40
0.9306002828216207
 40
1.0
 40
1.0
 40
1.0
 40
1.0
 10
18.75286792420081
 20
2.373952352773458
 30
0.0
 10
19.1194306648196
 20
2.360560138697611
 30
0.0
 10
19.88433633756392
 20
2.332614634743967
 30
0.0
 10
21.04759486107362
 20
2.047884264942796
 30
0.0
 10
22.24259498960105
 20
1.601841406037543
 30
0.0
 10
23.3990392294162
 20
1.03659708459932
 30
0.0
 10
24.51631601064101
 20
0.4158404909274245
 30
0.0
 10
25.59510478903839
 20
-0.2119814146196458
 30
0.0
 10
26.67402276264965
 20
-0.8253458280473347
 30
0.0
 10
27.75319678199043
 20
-1.382578540744135
 30
0.0
 10
28.83269453979401
 20
-1.845786378814179
 30
0.0
 10
29.91250395752513
 20
-2.18311913847376
 30
0.0
 10
30.99234870157773
 20
-2.372505214016535
 30
0.0
 10
32.07190020752546
 20
-2.397769296354245
 30
0.0
 10
33.14935570786903
 20
-2.26966880534197
 30
0.0
 10
33.86694899141559
 20
-2.057909658435914
 30
0.0
 10
34.22482814820401
 20
-1.95230083143795
 30
0.0
  0
SPLINE
  5
AD
330
1F
100
AcDbEntity
  8
0
  6
Continuous
 62
     1
370
    25
100
AcDbSpline
210
0.0
220
0.0
230
1.0
 70
     8
 71
     3
 72
    22
 73
    18
 74
     0
 42
0.000000001
 43
0.00000001
 40
0.0
 40
0.0
 40
0.0
 40
0.0
 40
0.0225988692182173
 40
0.0923386398413935
 40
0.1620831968107462
 40
0.2318371406597963
 40
0.3016050462747114
 40
0.3713914504940199
 40
0.4412006882432026
 40
0.5110063543693096
 40
0.5807897031091456
 40
0.6505552293552803
 40
0.7203074764219254
 40
0.7900510238273059
 40
0.8597904748665359
 40
0.937034072899716
 40
1.0
 40
1.0
 40
1.0
 40
1.0
 10
36.73708905630569
 20
-2.363436003706312
 30
0.0
 10
36.62057608319599
 20
-2.368405132703375
 30
0.0
 10
36.14450582689503
 20
-2.388708919072264
 30
0.0
 10
35.30885617265685
 20
-2.258244270929351
 30
0.0
 10
34.23007344066252
 20
-1.978675861850128
 30
0.0
 10
33.15111749830873
 20
-1.553017916422095
 30
0.0
 10
32.07190055083551
 20
-1.024665121277935
 30
0.0
 10
30.99234860952824
 20
-0.42565785751355
 30
0.0
 10
29.91250398225097
 20
0.2020567530754532
 30
0.0
 10
28.83269453295121
 20
0.8161031110121272
 30
0.0
 10
27.75319678464377
 20
1.374560413462572
 30
0.0
 10
26.67402275887754
 20
1.839458612971209
 30
0.0
 10
25.59510480147113
 20
2.178822484776858
 30
0.0
 10
24.5163159646884
 20
2.370981116528301
 30
0.0
 10
23.39903940857998
 20
2.398633667199042
 30
0.0
 10
22.31623104896938
 20
2.269069411625511
 30
0.0
 10
21.59318560549465
 20
2.042205176735386
 30
0.0
 10
21.26847709057251
 20
1.940323961018011
 30
0.0
  0
LINE
  5
AE
330
1F
100
AcDbEntity
  8
0
  6
Continuous
 62
     1
370
    25
100
AcDbLine
 10
42.8625
 20
-2.156653712915247
 30
0.0
 11
42.8625
 21
0.2040287129152719
 31
0.0
  0
SPLINE
  5
AF
330
1F
100
AcDbEntity
  8
0
  6
Continuous
 62
     1
370
    25
100
AcDbSpline
210
0.0
220
0.0
230
1.0
 70
     8
 71
     3
 72
    11
 73
     7
 74
     0
 42
0.000000001
 43
0.00000001
 40
0.0
 40
0.0
 40
0.0
 40
0.0
 40
0.3139872589567907
 40
0.6279748384593851
 40
0.9419626427823209
 40
1.0
 40
1.0
 40
1.0
 40
1.0
 10
17.46250000000003
 20
-2.265577137223256
 30
0.0
 10
17.86084267393282
 20
-2.31868583126745
 30
0.0
 10
18.65752842846165
 20
-2.424903273573865
 30
0.0
 10
19.85255788376884
 20
-2.318451507006126
 30
0.0
 10
20.72287426357116
 20
-2.148042427552244
 30
0.0
 10
21.1948474558369
 20
-1.968355771085449
 30
0.0
 10
21.26847709057254
 20
-1.940323961018013
 30
0.0
  0
SPLINE
  5
B0
330
1F
100
AcDbEntity
  8
0
  6
Continuous
 62
     1
370
    25
100
AcDbSpline
210
0.0
220
0.0
230
1.0
 70
     8
 71
     3
 72
    18
 73
    14
 74
     0
 42
0.000000001
 43
0.00000001
 40
0.0
 40
0.0
 40
0.0
 40
0.0
 40
0.0322811472916677
 40
0.1290637247092772
 40
0.2258269342574656
 40
0.3225771222536534
 40
0.4193206705934638
 40
0.5160639793424763
 40
0.6128134492222906
 40
0.7095754640927837
 40
0.8063563735324288
 40
0.9031624756176305
 40
1.0
 40
1.0
 40
1.0
 40
1.0
 10
31.71201090105895
 20
2.363163283913775
 30
0.0
 10
31.83200387271442
 20
2.368150922622946
 30
0.0
 10
32.31174951870589
 20
2.388092073521131
 30
0.0
 10
33.15111442012306
 20
2.256317820996833
 30
0.0
 10
34.23007432664344
 20
1.975190598391438
 30
0.0
 10
35.30885570627535
 20
1.548429455666214
 30
0.0
 10
36.38754948090818
 20
1.019321279318146
 30
0.0
 10
37.46623970480253
 20
0.419985621049254
 30
0.0
 10
38.54501252125491
 20
-0.2075299017731842
 30
0.0
 10
39.6239526391177
 20
-0.8217677056243581
 30
0.0
 10
40.70314699812102
 20
-1.377275640182405
 30
0.0
 10
41.78267216210605
 20
-1.849616590372493
 30
0.0
 10
42.50251845119777
 20
-2.054296934330718
 30
0.0
 10
42.86250000000002
 20
-2.156653712915247
 30
0.0
  0
SPLINE
  5
B1
330
1F
100
AcDbEntity
  8
외형선
  6
Continuous
370
    15
100
AcDbSpline
210
0.0
220
0.0
230
1.0
 70
    24
 71
     3
 72
    14
 73
    10
 74
     0
 42
0.000000001
 43
0.00000001
 40
0.0
 40
0.0
 40
0.0
 40
0.0
 40
0.1434332524754826
 40
0.299777619964847
 40
0.4561219874542115
 40
0.6124663549434833
 40
0.7688107224329365
 40
0.9251550899223011
 40
0.9999999999999999
 40
0.9999999999999999
 40
0.9999999999999999
 40
0.9999999999999999
 10
17.46249999999998
 20
-0.016182915127256
 30
0.0
 10
17.4625
 20
-0.0315709952768006
 30
0.0
 10
17.46250000000003
 20
-0.0637323104770347
 30
0.0
 10
17.46249999999996
 20
-0.3065380738575078
 30
0.0
 10
17.46250000000007
 20
-0.6697126317496441
 30
0.0
 10
17.46249999999998
 20
-1.123642528324352
 30
0.0
 10
17.46249999999998
 20
-1.610631947266969
 30
0.0
 10
17.46250000000004
 20
-2.001455251333085
 30
0.0
 10
17.4625
 20
-2.200982462519954
 30
0.0
 10
17.46249999999998
 20
-2.265577137223254
 30
0.0
  0
SPLINE
  5
B2
330
1F
100
AcDbEntity
  8
0
  6
Continuous
 62
     1
370
    25
100
AcDbSpline
210
0.0
220
0.0
230
1.0
 70
     8
 71
     3
 72
    16
 73
    12
 74
     0
 42
0.000000001
 43
0.00000001
 40
0.0
 40
0.0
 40
0.0
 40
0.0
 40
0.1250085185379537
 40
0.2499764737215272
 40
0.3749119074696478
 40
0.4998229500314676
 40
0.6247177981406764
 40
0.7496046927851595
 40
0.8744918967197748
 40
0.9993876718525128
 40
1.0
 40
1.0
 40
1.0
 40
1.0
 10
42.86250000000002
 20
0.2040287129152717
 30
0.0
 10
42.50251845092328
 20
0.409631724159179
 30
0.0
 10
41.7826721612827
 20
0.8207710316110564
 30
0.0
 10
40.7031470014127
 20
1.377959828917088
 30
0.0
 10
39.6239526267785
 20
1.842188771127144
 30
0.0
 10
38.54501256730931
 20
2.181017519301511
 30
0.0
 10
37.46623953294903
 20
2.370369158136831
 30
0.0
 10
36.38755012223353
 20
2.40245877205579
 30
0.0
 10
35.30885331273437
 20
2.255843529825279
 30
0.0
 10
34.58795083972488
 20
2.093212579661417
 30
0.0
 10
34.22659114760463
 20
1.952984973006225
 30
0.0
 10
34.22482814820405
 20
1.952300831437948
 30
0.0
  0
SPLINE
  5
B3
330
1F
100
AcDbEntity
  8
0
  6
Continuous
 62
     1
370
    25
100
AcDbSpline
210
0.0
220
0.0
230
1.0
 70
     8
 71
     3
 72
    13
 73
     9
 74
     0
 42
0.000000001
 43
0.00000001
 40
0.0
 40
0.0
 40
0.0
 40
0.0
 40
0.0541695192020385
 40
0.2433357708819479
 40
0.4325020024866125
 40
0.6216681563274575
 40
0.8108341747222821
 40
1.0
 40
1.0
 40
1.0
 40
1.0
 10
23.77977372194698
 20
-2.363637349455445
 30
0.0
 10
23.665736231918
 20
-2.368524649545207
 30
0.0
 10
23.15346658370224
 20
-2.390478969103369
 30
0.0
 10
22.24258476105608
 20
-2.240656111074234
 30
0.0
 10
21.04759760774306
 20
-1.906120856922631
 30
0.0
 10
19.85255540663731
 20
-1.3994789921689
 30
0.0
 10
18.65752904774364
 20
-0.7802215463440133
 30
0.0
 10
17.86084288036013
 20
-0.3220595835869174
 30
0.0
 10
17.46250000000007
 20
-0.0929787191413136
 30
0.0
  0
LINE
  5
B4
330
1F
100
AcDbEntity
  8
외형선
  6
Continuous
370
    15
100
AcDbLine
 10
17.46250000000003
 20
-0.0929787191413481
 30
0.0
 11
17.4625
 21
0.7331519609134745
 31
0.0
  0
LINE
  5
B5
330
1F
100
AcDbEntity
  8
0
  6
Continuous
 62
     1
370
    25
100
AcDbLine
 10
42.8625
 20
0.2040287129152719
 30
0.0
 11
42.8625
 21
1.009552537052356
 31
0.0
  0
LINE
  5
B6
330
1F
100
AcDbEntity
  8
0
  6
Continuous
 62
     1
370
    25
100
AcDbLine
 10
42.8625
 20
-2.381249999999994
 30
0.0
 11
42.8625
 21
-2.156653712915247
 31
0.0
  0
LINE
  5
B7
330
1F
100
AcDbEntity
  8
외형선
  6
Continuous
370
    15
100
AcDbLine
 10
17.46250000000001
 20
-2.381250000000003
 30
0.0
 11
17.46249999999998
 21
-2.265577137223254
 31
0.0
  0
LINE
  5
B8
330
1F
100
AcDbEntity
  8
외형선
  6
Continuous
370
    15
100
AcDbLine
 10
17.46250000000003
 20
2.379434075633903
 30
0.0
 11
17.46250000000001
 21
2.38125
 31
0.0
  0
SPLINE
  5
B9
330
1F
100
AcDbEntity
  8
외형선
  6
Continuous
370
    15
100
AcDbSpline
210
0.0
220
0.0
230
1.0
 70
    24
 71
     3
 72
    14
 73
    10
 74
     0
 42
0.000000001
 43
0.00000001
 40
0.0
 40
0.0
 40
0.0
 40
0.0
 40
0.1111679795198501
 40
0.2673685732932858
 40
0.4235691670667218
 40
0.5797697608401547
 40
0.7359703546135958
 40
0.8921709483870301
 40
1.0
 40
1.0
 40
1.0
 40
1.0
 10
17.46250000000003
 20
-2.265577137223254
 30
0.0
 10
17.46250000000003
 20
-2.167940414336983
 30
0.0
 10
17.46250000000001
 20
-1.933115679625732
 30
0.0
 10
17.46250000000001
 20
-1.496369982878567
 30
0.0
 10
17.46250000000007
 20
-1.013087065170553
 30
0.0
 10
17.46249999999994
 20
-0.5745205909661766
 30
0.0
 10
17.46250000000004
 20
-0.2396821650986572
 30
0.0
 10
17.46249999999993
 20
-0.0406342150790484
 30
0.0
 10
17.46249999999997
 20
-0.0311636053655575
 30
0.0
 10
17.46249999999998
 20
-0.0272958318732749
 30
0.0
  0
SPLINE
  5
BA
330
1F
100
AcDbEntity
  8
외형선
  6
Continuous
370
    15
100
AcDbSpline
210
0.0
220
0.0
230
1.0
 70
     8
 71
     3
 72
     8
 73
     4
 74
     0
 42
0.000000001
 43
0.00000001
 40
0.0
 40
0.0
 40
0.0
 40
0.0
 40
1.0
 40
1.0
 40
1.0
 40
1.0
 10
17.46250000000004
 20
-2.265577137223258
 30
0.0
 10
17.29493857258089
 20
-2.235888145604356
 30
0.0
 10
17.12765750339492
 20
-2.200623287935817
 30
0.0
 10
16.96248038242821
 20
-2.160246759787893
 30
0.0
  0
SPLINE
  5
BB
330
1F
100
AcDbEntity
  8
외형선
  6
Continuous
370
    15
100
AcDbSpline
210
0.0
220
0.0
230
1.0
 70
     8
 71
     3
 72
     8
 73
     4
 74
     0
 42
0.000000001
 43
0.00000001
 40
0.0
 40
0.0
 40
0.0
 40
0.0
 40
1.0
 40
1.0
 40
1.0
 40
1.0
 10
17.46250000000004
 20
-0.0929787191412933
 30
0.0
 10
17.29493857258089
 20
0.0033764733636859
 30
0.0
 10
17.12765750339492
 20
0.0999054773199239
 30
0.0
 10
16.96248038242821
 20
0.1955512458094596
 30
0.0
  0
LINE
  5
BC
330
1F
100
AcDbEntity
  8
외형선
  6
Continuous
370
    15
100
AcDbLine
 10
16.96248038242822
 20
-2.160245991896568
 30
0.0
 11
16.96248038242821
 21
0.1955453124729353
 31
0.0
  0
LINE
  5
BD
330
1F
100
AcDbEntity
  8
외형선
  6
Continuous
370
    15
100
AcDbLine
 10
17.3015116916559
 20
-2.377429168521783
 30
0.0
 11
16.96248038242821
 21
-2.373206959530159
 31
0.0
  0
LINE
  5
BE
330
1F
100
AcDbEntity
  8
외형선
  6
Continuous
370
    15
100
AcDbLine
 10
16.96248038242821
 20
-2.381250000000001
 30
0.0
 11
16.96248038242821
 21
-2.373207448427102
 31
0.0
  0
SPLINE
  5
BF
330
1F
100
AcDbEntity
  8
외형선
  6
Continuous
370
    15
100
AcDbSpline
210
0.0
220
0.0
230
1.0
 70
     8
 71
     3
 72
     8
 73
     4
 74
     0
 42
0.000000001
 43
0.00000001
 40
0.0
 40
0.0
 40
0.0
 40
0.0
 40
1.0
 40
1.0
 40
1.0
 40
1.0
 10
17.46250000000004
 20
2.379434075633707
 30
0.0
 10
17.29493857258089
 20
2.383199249240941
 30
0.0
 10
17.12765750339492
 20
2.381088130242817
 30
0.0
 10
16.96248038242821
 20
2.373206959530156
 30
0.0
  0
LINE
  5
C0
330
1F
100
AcDbEntity
  8
외형선
  6
Continuous
370
    15
100
AcDbLine
 10
16.96248038242822
 20
1.001842710706013
 30
0.0
 11
16.96248038242821
 21
2.381249999999998
 31
0.0
  0
SPLINE
  5
C1
330
1F
100
AcDbEntity
  8
외형선
  6
Continuous
370
    15
100
AcDbSpline
210
0.0
220
0.0
230
1.0
 70
     8
 71
     3
 72
     8
 73
     4
 74
     0
 42
0.000000001
 43
0.00000001
 40
0.0
 40
0.0
 40
0.0
 40
0.0
 40
1.0
 40
1.0
 40
1.0
 40
1.0
 10
17.46250000000004
 20
0.7331519609134519
 30
0.0
 10
17.29493857258089
 20
0.824896516237551
 30
0.0
 10
17.12765750339492
 20
0.914778078539422
 30
0.0
 10
16.96248038242821
 20
1.001841054921324
 30
0.0
  0
SPLINE
  5
C6
330
1F
100
AcDbEntity
  8
외형선
  6
Continuous
370
    15
100
AcDbSpline
210
0.0
220
0.0
230
1.0
 70
    24
 71
     3
 72
    11
 73
     7
 74
     0
 42
0.000000001
 43
0.00000001
 40
0.0
 40
0.0
 40
0.0
 40
0.0
 40
0.2371364100342407
 40
0.5098691333629156
 40
0.7826018566913358
 40
1.0
 40
1.0
 40
1.0
 40
1.0
 10
17.46249999999998
 20
0.7918455454764779
 30
0.0
 10
17.4625
 20
0.886105575003373
 30
0.0
 10
17.46250000000001
 20
1.088774914387828
 30
0.0
 10
17.46249999999991
 20
1.522031842991909
 30
0.0
 10
17.46250000000001
 20
1.976370268630173
 30
0.0
 10
17.46250000000001
 20
2.255587106738201
 30
0.0
 10
17.46250000000001
 20
2.379434075613449
 30
0.0
  0
LINE
  5
C7
330
1F
100
AcDbEntity
  8
중심선
 48
0.8
100
AcDbLine
 10
-45.8625
 20
-0.0000000000000056
 30
0.0
 11
45.8625
 21
0.0000000000000056
 31
0.0
  0
LINE
  5
C8
330
1F
100
AcDbEntity
  8
참조1
100
AcDbLine
 10
3.368380657015613
 20
0.0010749287238892
 30
0.0
 11
3.368380657015616
 21
-39.99892507127611
 31
0.0
  0
LINE
  5
C9
330
1F
100
AcDbEntity
  8
참조1
100
AcDbLine
 10
3.368380657015616
 20
-39.99892507127611
 30
0.0
 11
-29.25297615729306
 21
-39.9989250712761
 31
0.0
  0
CIRCLE
  5
CA
330
1F
100
AcDbEntity
  8
해칭선
100
AcDbCircle
 10
0.0
 20
0.0
 30
0.0
 40
3.000000000000001
  0
INSERT
  5
CB
330
1F
100
AcDbEntity
  8
0
  6
Continuous
 62
     7
100
AcDbBlockReference
 66
     1
  2
블럭10
 10
-13.9402729321252
 20
-52.04717430164393
 30
0.0
  0
ATTRIB
  5
CC
330
CB
100
AcDbEntity
  8
FORMAT
 62
     2
100
AcDbText
 10
-23.12156822086648
 20
-49.97180738881174
 30
0.0
 40
4.233333333333333
  1
E1006012 [ 4 FLUTE ]
 41
0.75
  7
SLDTEXTSTYLE0
 11
-23.12156822086648
 21
-52.08847405547841
 31
0.0
100
AcDbAttribute
  2
AUTOATTR0
 70
     0
 74
     1
  0
SEQEND
  5
CD
330
CB
100
AcDbEntity
  8
0
  6
Continuous
 62
     7
  0
HATCH
  5
CE
330
1F
100
AcDbEntity
  8
중심선
100
AcDbHatch
 10
0.0
 20
0.0
 30
0.0
210
0.0
220
0.0
230
1.0
  2
SOLID
 70
     1
 71
     0
 91
        1
 92
        0
 93
        4
 72
     1
 10
-8.225363627744365
 20
-35.8
 11
-11.67163887158165
 21
-35.8
 72
     1
 10
-11.67163887158165
 20
-35.8
 11
-13.79986873078567
 21
-38.33632558057257
 72
     1
 10
-13.79986873078567
 20
-38.33632558057257
 11
-10.35356040183524
 21
-38.33628615127008
 72
     1
 10
-10.35356040183524
 20
-38.33628615127008
 11
-8.225363627744365
 21
-35.8
 97
        0
 75
     0
 76
     1
 98
        1
 10
-3.368380657015607
 20
-0.0010749287238949
  0
HATCH
  5
CF
330
1F
100
AcDbEntity
  8
중심선
100
AcDbHatch
 10
0.0
 20
0.0
 30
0.0
210
0.0
220
0.0
230
1.0
  2
SOLID
 70
     1
 71
     0
 91
        1
 92
        0
 93
        4
 72
     1
 10
-3.212599636708385
 20
-35.8
 11
-6.658874880545695
 21
-35.8
 72
     1
 10
-6.658874880545695
 20
-35.8
 11
-11.19001288890308
 21
-41.20000000000002
 72
     1
 10
-11.19001288890308
 20
-41.20000000000002
 11
-7.743737645065802
 21
-41.20000000000002
 72
     1
 10
-7.743737645065801
 20
-41.20000000000002
 11
-3.212599636708385
 21
-35.8
 97
        0
 75
     0
 76
     1
 98
        1
 10
-3.368380657015607
 20
-0.0010749287238949
  0
HATCH
  5
D0
330
1F
100
AcDbEntity
  8
중심선
100
AcDbHatch
 10
0.0
 20
0.0
 30
0.0
210
0.0
220
0.0
230
1.0
  2
SOLID
 70
     1
 71
     0
 91
        1
 92
        0
 93
        4
 72
     1
 10
1.800164354327511
 20
-35.79999999999998
 11
-1.646110889509577
 21
-35.79999999999998
 72
     1
 10
-1.646110889509577
 20
-35.79999999999998
 11
-8.69454779139888
 21
-44.20000000000002
 72
     1
 10
-8.694547791398882
 20
-44.20000000000002
 11
-5.2482725475616
 21
-44.20000000000002
 72
     1
 10
-5.2482725475616
 20
-44.20000000000002
 11
1.80016435432751
 21
-35.79999999999998
 97
        0
 75
     0
 76
     1
 98
        1
 10
-3.368380657015607
 20
-0.0010749287238949
  0
HATCH
  5
D1
330
1F
100
AcDbEntity
  8
중심선
100
AcDbHatch
 10
0.0
 20
0.0
 30
0.0
210
0.0
220
0.0
230
1.0
  2
SOLID
 70
     1
 71
     0
 91
        1
 92
        0
 93
        6
 72
     3
 10
6.600054785339683
 20
-40.00000000005127
 11
3.960054785062283
 21
1.540882976769353E-10
 40
0.3939339440162628
 50
17.09539180608436
 51
320.0019657685078
 73
     0
 72
     1
 10
8.283054441040278
 20
-38.5878940046383
 11
10.58835631474134
 21
-36.65356729459038
 72
     3
 10
6.600054785286837
 20
-40.00000000000015
 11
6.600054785286829
 21
-1.278976924368180E-13
 40
0.636358354079598
 50
39.99873849337385
 51
368.4976242363724
 73
     1
 72
     1
 10
13.02538727718744
 20
-39.03999999993002
 11
5.280122092122758
 21
-39.03999999993002
 72
     1
 10
5.280122092122758
 20
-39.03999999993002
 11
5.280097047676824
 21
-40.95999999992991
 72
     1
 10
5.280097047676824
 20
-40.95999999992991
 11
9.721476817148861
 21
-40.95999999992988
 97
        0
 75
     0
 76
     1
 98
        1
 10
-3.368380657015607
 20
-0.0010749287238949
  0
DIMENSION
  5
D2
330
1F
100
AcDbEntity
  8
치수문자_일반주서
100
AcDbDimension
  2
_D
 10
61.83311999402374
 20
-2.381249999999923
 30
0.0
 11
61.83311999402366
 21
23.41399317107681
 31
0.0
 70
   160
  1
%%c<>
 71
     2
 42
4.762499999999999
 52
-270.0
  3
SLDDIMSTYLE0
100
AcDbAlignedDimension
 13
42.86250000000003
 23
2.381250000000005
 33
0.0
 14
42.8625
 24
-2.381249999999994
 34
0.0
 50
90.0000000000002
100
AcDbRotatedDimension
1001
ACAD
1000
DSTYLE
1002
{
1070
   171
1070
     6
1070
   273
1070
     7
1002
}
  0
DIMENSION
  5
E7
330
1F
100
AcDbEntity
  8
치수문자_일반주서
100
AcDbDimension
  2
_D_1
 10
17.46250000000001
 20
17.48091529677157
 30
0.0
 11
2.108500000000014
 21
17.48091529677157
 31
0.0
 70
   160
  1
<>
 71
     2
 42
25.4
  3
SLDDIMSTYLE0
100
AcDbAlignedDimension
 13
42.86250000000001
 23
2.381250000000005
 33
0.0
 14
17.46250000000001
 24
2.379434075613448
 34
0.0
100
AcDbRotatedDimension
1001
ACAD
1000
DSTYLE
1002
{
1070
   171
1070
     6
1070
   273
1070
     7
1002
}
  0
DIMENSION
  5
FC
330
1F
100
AcDbEntity
  8
치수문자_일반주서
100
AcDbDimension
  2
_D_2
 10
-42.8625
 20
33.84572979507901
 30
0.0
 11
-2.187269229181645
 21
33.84572979507901
 31
0.0
 70
   160
  1
<>
 71
     2
 42
85.72500000000001
  3
SLDDIMSTYLE0
100
AcDbAlignedDimension
 13
42.86250000000001
 23
2.381250000000005
 33
0.0
 14
-42.8625
 24
2.381250000000002
 34
0.0
100
AcDbRotatedDimension
1001
ACAD
1000
DSTYLE
1002
{
1070
   171
1070
     6
1070
   273
1070
     7
1002
}
  0
DIMENSION
  5
110
330
1F
100
AcDbEntity
  8
치수문자_일반주서
100
AcDbDimension
  2
_D_3
 10
-55.86249999999998
 20
-2.381250000000145
 30
0.0
 11
-55.86249999999999
 21
-0.0000000000000004
 31
0.0
 70
   160
  1
%%c<>
 71
     2
 42
4.762499999999999
 52
-270.0
  3
SLDDIMSTYLE0
100
AcDbAlignedDimension
 13
-17.4625
 23
2.381249999999998
 33
0.0
 14
-17.46249999999999
 24
-2.381250000000001
 34
0.0
 50
90.0000000000002
100
AcDbRotatedDimension
1001
ACAD
1000
DSTYLE
1002
{
1070
   171
1070
     6
1070
   273
1070
     7
1002
}
  0
LINE
  5
124
330
1F
100
AcDbEntity
  8
참조1
100
AcDbLine
 10
68.7193644723612
 20
7.441074928723896
 30
0.0
 11
68.7193644723612
 21
-7.438925071276109
 31
0.0
  0
LINE
  5
125
330
1F
100
AcDbEntity
  8
참조1
100
AcDbLine
 10
81.41936447236121
 20
5.441074928723896
 30
0.0
 11
68.7193644723612
 21
5.441074928723896
 31
0.0
  0
SOLID
  5
126
330
1F
100
AcDbEntity
  8
참조1
100
AcDbTrace
 10
68.7193644723612
 20
5.441074928723896
 30
0.0
 11
75.0693644723612
 21
4.425074928723896
 31
0.0
 12
75.0693644723612
 22
6.457074928723896
 32
0.0
 13
75.0693644723612
 23
6.457074928723896
 33
0.0
  0
LINE
  5
127
330
1F
100
AcDbEntity
  8
참조1
100
AcDbLine
 10
81.41936447236121
 20
-5.438925071276109
 30
0.0
 11
68.7193644723612
 21
-5.438925071276109
 31
0.0
  0
SOLID
  5
128
330
1F
100
AcDbEntity
  8
참조1
100
AcDbTrace
 10
68.7193644723612
 20
-5.438925071276109
 30
0.0
 11
75.0693644723612
 21
-6.454925071276109
 31
0.0
 12
75.0693644723612
 22
-4.422925071276109
 32
0.0
 13
75.0693644723612
 23
-4.422925071276109
 33
0.0
  0
MTEXT
  5
129
330
1F
100
AcDbEntity
  8
참조1
100
AcDbMText
 10
78.1037146049872
 20
11.01136670591223
 30
0.0
 40
3.5
 41
0.0
 71
     1
 72
     1
  1
A
  7
SLDTEXTSTYLE0
 73
     1
 44
1.0
  0
MTEXT
  5
12A
330
1F
100
AcDbEntity
  8
참조1
100
AcDbMText
 10
78.1037146049872
 20
0.1313667059122219
 30
0.0
 40
3.5
 41
0.0
 71
     1
 72
     1
  1
A
  7
SLDTEXTSTYLE0
 73
     1
 44
1.0
  0
INSERT
  5
131
330
1F
100
AcDbEntity
  8
해칭선
100
AcDbBlockReference
  2
SW_DOWELSYMBOL_0
 10
0.0
 20
0.0
 30
0.0
  0
LINE
  5
3BC
330
1F
100
AcDbEntity
  8
0
  6
Continuous
 62
     1
370
    25
100
AcDbLine
 10
-23.77977372194697
 20
2.381250000000002
 30
0.0
 11
-25.23221058767341
 21
2.381250000000002
 31
0.0
  0
LINE
  5
3BD
330
1F
100
AcDbEntity
  8
0
  6
Continuous
 62
     1
370
    25
100
AcDbLine
 10
-38.18953266976096
 20
-2.381249999999994
 30
0.0
 11
-36.73708905630569
 21
-2.381249999999994
 31
0.0
  0
LINE
  5
3BE
330
1F
100
AcDbEntity
  8
0
  6
Continuous
 62
     1
370
    25
100
AcDbLine
 10
-17.46249999999999
 20
2.381250000000002
 30
0.0
 11
-18.7528679242008
 21
2.381250000000002
 31
0.0
  0
LINE
  5
3BF
330
1F
100
AcDbEntity
  8
0
  6
Continuous
 62
     1
370
    25
100
AcDbLine
 10
-31.71201090105892
 20
-2.381249999999994
 30
0.0
 11
-30.2586326419041
 21
-2.381249999999994
 31
0.0
  0
LINE
  5
3C0
330
1F
100
AcDbEntity
  8
0
  6
Continuous
 62
     1
370
    25
100
AcDbLine
 10
-36.73708905630569
 20
2.381250000000009
 30
0.0
 11
-38.18953266976096
 21
2.381250000000009
 31
0.0
  0
LINE
  5
3C1
330
1F
100
AcDbEntity
  8
0
  6
Continuous
 62
     1
370
    25
100
AcDbLine
 10
-25.23221058767335
 20
-2.381250000000001
 30
0.0
 11
-23.77977372194694
 21
-2.381250000000001
 31
0.0
  0
LINE
  5
3C2
330
1F
100
AcDbEntity
  8
0
  6
Continuous
 62
     1
370
    25
100
AcDbLine
 10
-30.2586326419041
 20
2.381250000000009
 30
0.0
 11
-31.71201090105892
 21
2.381250000000009
 31
0.0
  0
LINE
  5
3C3
330
1F
100
AcDbEntity
  8
0
  6
Continuous
 62
     1
370
    25
100
AcDbLine
 10
-18.7528679242008
 20
-2.381250000000001
 30
0.0
 11
-17.46249999999999
 21
-2.381250000000001
 31
0.0
  0
LINE
  5
3C4
330
1F
100
AcDbEntity
  8
외형선
  6
Continuous
370
    15
100
AcDbLine
 10
-17.30151169165588
 20
2.381250000000002
 30
0.0
 11
-17.46249999999999
 21
2.381250000000002
 31
0.0
  0
LINE
  5
3C7
330
1F
100
AcDbEntity
  8
외형선
  6
Continuous
370
    15
100
AcDbLine
 10
-17.46249999999999
 20
-2.381249999999994
 30
0.0
 11
-17.30151169165588
 21
-2.381249999999994
 31
0.0
  0
LINE
  5
3C8
330
1F
100
AcDbEntity
  8
0
  6
Continuous
 62
     1
370
    25
100
AcDbLine
 10
-42.8625
 20
-1.00955253705235
 30
0.0
 11
-42.8625
 21
-2.381250000000001
 31
0.0
  0
SPLINE
  5
3C9
330
1F
100
AcDbEntity
  8
0
  6
Continuous
 62
     1
370
    25
100
AcDbSpline
210
0.0
220
0.0
230
1.0
 70
     8
 71
     3
 72
    16
 73
    12
 74
     0
 42
0.000000001
 43
0.00000001
 40
0.0
 40
0.0
 40
0.0
 40
0.0
 40
0.116211584387541
 40
0.2324232874140865
 40
0.3486350736501458
 40
0.4648469076594056
 40
0.581058754001632
 40
0.6859807226116503
 40
0.7909088541437219
 40
0.8958500741869921
 40
1.0
 40
1.0
 40
1.0
 40
1.0
 10
-17.46249999999999
 20
-0.7331519609134599
 30
0.0
 10
-17.86084281956649
 20
-0.5083960821644592
 30
0.0
 10
-18.65752886536281
 20
-0.0588840952158944
 30
0.0
 10
-19.85255613616145
 20
0.6366720544022758
 30
0.0
 10
-21.04759487202465
 20
1.274750706972043
 30
0.0
 10
-22.24259497440953
 20
1.807814733143126
 30
0.0
 10
-23.39903927712605
 20
2.177245101715628
 30
0.0
 10
-24.51631585318943
 20
2.372846520288221
 30
0.0
 10
-25.59510537830708
 20
2.397584807897197
 30
0.0
 10
-26.67124035498459
 20
2.269203300533768
 30
0.0
 10
-27.38783202018821
 20
2.05754425030402
 30
0.0
 10
-27.74477190142305
 20
1.95211523135248
 30
0.0
  0
SPLINE
  5
3CA
330
1F
100
AcDbEntity
  8
0
  6
Continuous
 62
     1
370
    25
100
AcDbSpline
210
0.0
220
0.0
230
1.0
 70
     8
 71
     3
 72
    12
 73
     8
 74
     0
 42
0.000000001
 43
0.00000001
 40
0.0
 40
0.0
 40
0.0
 40
0.0
 40
0.0760693952024285
 40
0.3069694270892622
 40
0.5379145464685952
 40
0.7689197822341994
 40
0.9999999999999999
 40
0.9999999999999999
 40
0.9999999999999999
 40
0.9999999999999999
 10
-38.18953266976096
 20
-2.363281133759706
 30
0.0
 10
-38.30801164772508
 20
-2.368257042674919
 30
0.0
 10
-38.78612014183084
 20
-2.388336759424163
 30
0.0
 10
-39.62395358980454
 20
-2.257349904451061
 30
0.0
 10
-40.70314674451264
 20
-1.975770573511418
 30
0.0
 10
-41.78267222553897
 20
-1.553333922635261
 30
0.0
 10
-42.50251847234436
 20
-1.190832606450954
 30
0.0
 10
-42.8625
 20
-1.00955253705235
 30
0.0
  0
SPLINE
  5
3CB
330
1F
100
AcDbEntity
  8
외형선
  6
Continuous
370
    15
100
AcDbSpline
210
0.0
220
0.0
230
1.0
 70
    24
 71
     3
 72
    11
 73
     7
 74
     0
 42
0.000000001
 43
0.00000001
 40
0.0
 40
0.0
 40
0.0
 40
0.0
 40
0.27881686536693
 40
0.5499081873296638
 40
0.8209995092924053
 40
0.9999999999999999
 40
0.9999999999999999
 40
0.9999999999999999
 40
0.9999999999999999
 10
-17.46249999999999
 20
-2.379434075633902
 30
0.0
 10
-17.46249999999999
 20
-2.21791770966881
 30
0.0
 10
-17.46249999999993
 20
-1.899360322851308
 30
0.0
 10
-17.46249999999996
 20
-1.413739986531574
 30
0.0
 10
-17.46249999999996
 20
-1.023159963557731
 30
0.0
 10
-17.46249999999999
 20
-0.8576632229809672
 30
0.0
 10
-17.46249999999999
 20
-0.7918455454764765
 30
0.0
  0
SPLINE
  5
3CC
330
1F
100
AcDbEntity
  8
0
  6
Continuous
 62
     1
370
    25
100
AcDbSpline
210
0.0
220
0.0
230
1.0
 70
     8
 71
     3
 72
    10
 73
     6
 74
     0
 42
0.000000001
 43
0.00000001
 40
0.0
 40
0.0
 40
0.0
 40
0.0
 40
0.4998796724953631
 40
0.9995971416741839
 40
1.0
 40
1.0
 40
1.0
 40
1.0
 10
-42.8625
 20
-2.381250000000001
 30
0.0
 10
-42.50251959323627
 20
-2.336162510288069
 30
0.0
 10
-41.78267558785107
 20
-2.263512977454937
 30
0.0
 10
-41.06258927490494
 20
-2.092488522660595
 30
0.0
 10
-40.70248156397058
 20
-1.95268406678187
 30
0.0
 10
-40.70219148899945
 20
-1.952571451105321
 30
0.0
  0
SPLINE
  5
3CD
330
1F
100
AcDbEntity
  8
0
  6
Continuous
 62
     1
370
    25
100
AcDbSpline
210
0.0
220
0.0
230
1.0
 70
     8
 71
     3
 72
    19
 73
    15
 74
     0
 42
0.000000001
 43
0.00000001
 40
0.0
 40
0.0
 40
0.0
 40
0.0
 40
0.0270495516991375
 40
0.1114392443758267
 40
0.1958019570454007
 40
0.280143123687988
 40
0.3644682368217657
 40
0.4487828327327839
 40
0.5330924764515274
 40
0.626474057933548
 40
0.71985562950546
 40
0.8132371626894017
 40
0.9066186290106578
 40
1.0
 40
1.0
 40
1.0
 40
1.0
 10
-30.2586326419041
 20
2.363524351559385
 30
0.0
 10
-30.14325142312991
 20
2.368489528275596
 30
0.0
 10
-29.66790173976453
 20
2.38894515532634
 30
0.0
 10
-28.83269318611524
 20
2.258896106232577
 30
0.0
 10
-27.75319714455956
 20
1.979759781393739
 30
0.0
 10
-26.67402266552374
 20
1.554412329856561
 30
0.0
 10
-25.59510481508157
 20
1.026359205487737
 30
0.0
 10
-24.51631600357386
 20
0.4276841909961607
 30
0.0
 10
-23.39903923197797
 20
-0.2224706953285033
 30
0.0
 10
-22.24259498702462
 20
-0.8794038040471147
 30
0.0
 10
-21.04759486864559
 20
-1.486064056879947
 30
0.0
 10
-19.85255613706256
 20
-1.965027364390124
 30
0.0
 10
-18.65752886513756
 20
-2.294432992217544
 30
0.0
 10
-17.86084281949142
 20
-2.351100390803495
 30
0.0
 10
-17.46250000000002
 20
-2.37943407563371
 30
0.0
  0
SPLINE
  5
3CE
330
1F
100
AcDbEntity
  8
0
  6
Continuous
 62
     1
370
    25
100
AcDbSpline
210
0.0
220
0.0
230
1.0
 70
     8
 71
     3
 72
    22
 73
    18
 74
     0
 42
0.000000001
 43
0.00000001
 40
0.0
 40
0.0
 40
0.0
 40
0.0
 40
0.0234564218055737
 40
0.0932006560740689
 40
0.162958167996607
 40
0.2327335003654851
 40
0.3025311475569217
 40
0.3723323659611439
 40
0.4421107534584954
 40
0.5118706444764837
 40
0.5816165753324665
 40
0.6513531203870715
 40
0.7210848796453314
 40
0.7908164662089969
 40
0.8605524936526716
 40
0.9302975633972016
 40
1.0
 40
1.0
 40
1.0
 40
1.0
 10
-25.23221058767335
 20
-2.363093749352508
 30
0.0
 10
-25.35315978571133
 20
-2.368081486156882
 30
0.0
 10
-25.83373370709664
 20
-2.387899527729715
 30
0.0
 10
-26.6740250791181
 20
-2.255723470851357
 30
0.0
 10
-27.75319616274076
 20
-1.97411820725906
 30
0.0
 10
-28.83269469957797
 20
-1.546901338315578
 30
0.0
 10
-29.91250393792591
 20
-1.01736311424272
 30
0.0
 10
-30.99234862016367
 20
-0.4177796039891956
 30
0.0
 10
-32.0719005526028
 20
0.2100874930324397
 30
0.0
 10
-33.15111748061513
 20
0.8236343289462983
 30
0.0
 10
-34.23007350965155
 20
1.381042912554662
 30
0.0
 10
-35.30885591443364
 20
1.844480643342806
 30
0.0
 10
-36.38754946515677
 20
2.182195000104123
 30
0.0
 10
-37.46623955965326
 20
2.372088414190025
 30
0.0
 10
-38.54501311768097
 20
2.397991064145736
 30
0.0
 10
-39.62366033590943
 20
2.270271572905273
 30
0.0
 10
-40.34275438726267
 20
2.058449905032255
 30
0.0
 10
-40.70219148899939
 20
1.952571451105342
 30
0.0
  0
SPLINE
  5
3CF
330
1F
100
AcDbEntity
  8
0
  6
Continuous
 62
     1
370
    25
100
AcDbSpline
210
0.0
220
0.0
230
1.0
 70
     8
 71
     3
 72
    22
 73
    18
 74
     0
 42
0.000000001
 43
0.00000001
 40
0.0
 40
0.0
 40
0.0
 40
0.0
 40
0.0714270616978122
 40
0.1428309464053691
 40
0.2142162490946461
 40
0.2855876152075271
 40
0.3569497281736677
 40
0.4283072967085782
 40
0.4996650419649283
 40
0.5710276846115067
 40
0.6423999319150004
 40
0.7137864648997208
 40
0.7851919256596273
 40
0.8566207496912152
 40
0.9280459192374597
 40
0.9994482536302461
 40
1.0
 40
1.0
 40
1.0
 40
1.0
 10
-42.8625
 20
2.381250000000002
 30
0.0
 10
-42.50251845122311
 20
2.338973049408857
 30
0.0
 10
-41.78267216218198
 20
2.27194368284026
 30
0.0
 10
-40.70314699781703
 20
1.97340935405304
 30
0.0
 10
-39.62395264025723
 20
1.552152758886877
 30
0.0
 10
-38.54501251700184
 20
1.022174579365547
 30
0.0
 10
-37.4662397206727
 20
0.4234884217961439
 30
0.0
 10
-36.38754942168343
 20
-0.2042269195916259
 30
0.0
 10
-35.30885592731254
 20
-0.8179791396112318
 30
0.0
 10
-34.23007350161122
 20
-1.376116460846134
 30
0.0
 10
-33.1511174999
 20
-1.840539085563101
 30
0.0
 10
-32.07190048348279
 20
-2.180001633079435
 30
0.0
 10
-30.99234887746199
 20
-2.369981670164762
 30
0.0
 10
-29.91250297756231
 20
-2.402649287683935
 30
0.0
 10
-28.83269828291854
 20
-2.256570053049266
 30
0.0
 10
-28.11014114993195
 20
-2.093822761200371
 30
0.0
 10
-27.74755224563062
 20
-1.953193580752142
 30
0.0
 10
-27.74477190142299
 20
-1.952115231352472
 30
0.0
  0
SPLINE
  5
3D0
330
1F
100
AcDbEntity
  8
0
  6
Continuous
 62
     1
370
    25
100
AcDbSpline
210
0.0
220
0.0
230
1.0
 70
     8
 71
     3
 72
    21
 73
    17
 74
     0
 42
0.000000001
 43
0.00000001
 40
0.0
 40
0.0
 40
0.0
 40
0.0
 40
0.0710684063227937
 40
0.1482982887388851
 40
0.2255282029032055
 40
0.3027581252635419
 40
0.3724852292094074
 40
0.4422164287961793
 40
0.5119563265039732
 40
0.5817095010402313
 40
0.6514804949147889
 40
0.7212738022244126
 40
0.791070680524771
 40
0.8608447293378398
 40
0.9306002828216207
 40
1.0
 40
1.0
 40
1.0
 40
1.0
 10
-18.7528679242008
 20
-2.373952352773457
 30
0.0
 10
-19.11943066481957
 20
-2.360560138697607
 30
0.0
 10
-19.88433633756388
 20
-2.332614634743961
 30
0.0
 10
-21.04759486107359
 20
-2.047884264942794
 30
0.0
 10
-22.24259498960102
 20
-1.601841406037543
 30
0.0
 10
-23.39903922941618
 20
-1.036597084599322
 30
0.0
 10
-24.51631601064098
 20
-0.4158404909274222
 30
0.0
 10
-25.59510478903836
 20
0.2119814146196435
 30
0.0
 10
-26.67402276264959
 20
0.8253458280473328
 30
0.0
 10
-27.75319678199041
 20
1.382578540744135
 30
0.0
 10
-28.83269453979396
 20
1.845786378814182
 30
0.0
 10
-29.91250395752506
 20
2.183119138473771
 30
0.0
 10
-30.99234870157771
 20
2.372505214016542
 30
0.0
 10
-32.07190020752545
 20
2.397769296354256
 30
0.0
 10
-33.14935570786899
 20
2.26966880534198
 30
0.0
 10
-33.86694899141553
 20
2.057909658435925
 30
0.0
 10
-34.22482814820397
 20
1.95230083143796
 30
0.0
  0
SPLINE
  5
3D1
330
1F
100
AcDbEntity
  8
0
  6
Continuous
 62
     1
370
    25
100
AcDbSpline
210
0.0
220
0.0
230
1.0
 70
     8
 71
     3
 72
    22
 73
    18
 74
     0
 42
0.000000001
 43
0.00000001
 40
0.0
 40
0.0
 40
0.0
 40
0.0
 40
0.0225988692182173
 40
0.0923386398413935
 40
0.1620831968107462
 40
0.2318371406597963
 40
0.3016050462747114
 40
0.3713914504940199
 40
0.4412006882432026
 40
0.5110063543693096
 40
0.5807897031091456
 40
0.6505552293552803
 40
0.7203074764219254
 40
0.7900510238273059
 40
0.8597904748665359
 40
0.937034072899716
 40
1.0
 40
1.0
 40
1.0
 40
1.0
 10
-36.73708905630569
 20
2.363436003706319
 30
0.0
 10
-36.62057608319599
 20
2.36840513270338
 30
0.0
 10
-36.14450582689499
 20
2.388708919072272
 30
0.0
 10
-35.3088561726568
 20
2.258244270929361
 30
0.0
 10
-34.23007344066245
 20
1.978675861850135
 30
0.0
 10
-33.15111749830866
 20
1.5530179164221
 30
0.0
 10
-32.07190055083548
 20
1.024665121277941
 30
0.0
 10
-30.99234860952821
 20
0.4256578575135566
 30
0.0
 10
-29.91250398225093
 20
-0.202056753075446
 30
0.0
 10
-28.83269453295115
 20
-0.8161031110121254
 30
0.0
 10
-27.75319678464375
 20
-1.374560413462575
 30
0.0
 10
-26.67402275887751
 20
-1.839458612971206
 30
0.0
 10
-25.59510480147109
 20
-2.178822484776858
 30
0.0
 10
-24.51631596468836
 20
-2.370981116528298
 30
0.0
 10
-23.39903940857995
 20
-2.398633667199042
 30
0.0
 10
-22.31623104896936
 20
-2.269069411625508
 30
0.0
 10
-21.59318560549461
 20
-2.042205176735386
 30
0.0
 10
-21.26847709057249
 20
-1.940323961018009
 30
0.0
  0
LINE
  5
3D2
330
1F
100
AcDbEntity
  8
0
  6
Continuous
 62
     1
370
    25
100
AcDbLine
 10
-42.8625
 20
2.156653712915251
 30
0.0
 11
-42.8625
 21
-0.2040287129152671
 31
0.0
  0
SPLINE
  5
3D3
330
1F
100
AcDbEntity
  8
0
  6
Continuous
 62
     1
370
    25
100
AcDbSpline
210
0.0
220
0.0
230
1.0
 70
     8
 71
     3
 72
    11
 73
     7
 74
     0
 42
0.000000001
 43
0.00000001
 40
0.0
 40
0.0
 40
0.0
 40
0.0
 40
0.3139872589567907
 40
0.6279748384593851
 40
0.9419626427823209
 40
1.0
 40
1.0
 40
1.0
 40
1.0
 10
-17.46249999999999
 20
2.265577137223254
 30
0.0
 10
-17.86084267393279
 20
2.318685831267452
 30
0.0
 10
-18.65752842846162
 20
2.424903273573868
 30
0.0
 10
-19.85255788376882
 20
2.318451507006124
 30
0.0
 10
-20.72287426357114
 20
2.148042427552241
 30
0.0
 10
-21.19484745583689
 20
1.968355771085449
 30
0.0
 10
-21.26847709057249
 20
1.94032396101801
 30
0.0
  0
SPLINE
  5
3D4
330
1F
100
AcDbEntity
  8
0
  6
Continuous
 62
     1
370
    25
100
AcDbSpline
210
0.0
220
0.0
230
1.0
 70
     8
 71
     3
 72
    18
 73
    14
 74
     0
 42
0.000000001
 43
0.00000001
 40
0.0
 40
0.0
 40
0.0
 40
0.0
 40
0.0322811472916677
 40
0.1290637247092772
 40
0.2258269342574656
 40
0.3225771222536534
 40
0.4193206705934638
 40
0.5160639793424763
 40
0.6128134492222906
 40
0.7095754640927837
 40
0.8063563735324288
 40
0.9031624756176305
 40
1.0
 40
1.0
 40
1.0
 40
1.0
 10
-31.71201090105892
 20
-2.36316328391377
 30
0.0
 10
-31.83200387271442
 20
-2.368150922622938
 30
0.0
 10
-32.31174951870587
 20
-2.388092073521122
 30
0.0
 10
-33.15111442012305
 20
-2.256317820996827
 30
0.0
 10
-34.23007432664342
 20
-1.975190598391428
 30
0.0
 10
-35.30885570627531
 20
-1.548429455666202
 30
0.0
 10
-36.38754948090813
 20
-1.019321279318141
 30
0.0
 10
-37.46623970480248
 20
-0.4199856210492425
 30
0.0
 10
-38.54501252125492
 20
0.2075299017731925
 30
0.0
 10
-39.62395263911769
 20
0.8217677056243676
 30
0.0
 10
-40.70314699812097
 20
1.377275640182411
 30
0.0
 10
-41.78267216210604
 20
1.849616590372499
 30
0.0
 10
-42.50251845119776
 20
2.05429693433073
 30
0.0
 10
-42.8625
 20
2.156653712915251
 30
0.0
  0
SPLINE
  5
3D5
330
1F
100
AcDbEntity
  8
외형선
  6
Continuous
370
    15
100
AcDbSpline
210
0.0
220
0.0
230
1.0
 70
    24
 71
     3
 72
    14
 73
    10
 74
     0
 42
0.000000001
 43
0.00000001
 40
0.0
 40
0.0
 40
0.0
 40
0.0
 40
0.1434332524754826
 40
0.299777619964847
 40
0.4561219874542115
 40
0.6124663549434833
 40
0.7688107224329365
 40
0.9251550899223011
 40
0.9999999999999999
 40
0.9999999999999999
 40
0.9999999999999999
 40
0.9999999999999999
 10
-17.46249999999996
 20
0.0161829151272602
 30
0.0
 10
-17.46249999999996
 20
0.031570995276802
 30
0.0
 10
-17.46249999999999
 20
0.0637323104770363
 30
0.0
 10
-17.46249999999993
 20
0.3065380738575104
 30
0.0
 10
-17.46250000000002
 20
0.6697126317496472
 30
0.0
 10
-17.46249999999996
 20
1.123642528324354
 30
0.0
 10
-17.46249999999996
 20
1.610631947266967
 30
0.0
 10
-17.46250000000002
 20
2.001455251333085
 30
0.0
 10
-17.46249999999996
 20
2.200982462519953
 30
0.0
 10
-17.46249999999996
 20
2.265577137223254
 30
0.0
  0
SPLINE
  5
3D6
330
1F
100
AcDbEntity
  8
0
  6
Continuous
 62
     1
370
    25
100
AcDbSpline
210
0.0
220
0.0
230
1.0
 70
     8
 71
     3
 72
    16
 73
    12
 74
     0
 42
0.000000001
 43
0.00000001
 40
0.0
 40
0.0
 40
0.0
 40
0.0
 40
0.1250085185379537
 40
0.2499764737215272
 40
0.3749119074696478
 40
0.4998229500314676
 40
0.6247177981406764
 40
0.7496046927851595
 40
0.8744918967197748
 40
0.9993876718525128
 40
1.0
 40
1.0
 40
1.0
 40
1.0
 10
-42.8625
 20
-0.2040287129152671
 30
0.0
 10
-42.50251845092326
 20
-0.4096317241591689
 30
0.0
 10
-41.78267216128266
 20
-0.8207710316110518
 30
0.0
 10
-40.70314700141266
 20
-1.377959828917078
 30
0.0
 10
-39.62395262677846
 20
-1.842188771127134
 30
0.0
 10
-38.54501256730929
 20
-2.181017519301505
 30
0.0
 10
-37.46623953294902
 20
-2.370369158136824
 30
0.0
 10
-36.38755012223349
 20
-2.40245877205578
 30
0.0
 10
-35.30885331273434
 20
-2.25584352982527
 30
0.0
 10
-34.58795083972488
 20
-2.093212579661411
 30
0.0
 10
-34.22659114760459
 20
-1.952984973006217
 30
0.0
 10
-34.22482814820403
 20
-1.952300831437938
 30
0.0
  0
SPLINE
  5
3D7
330
1F
100
AcDbEntity
  8
0
  6
Continuous
 62
     1
370
    25
100
AcDbSpline
210
0.0
220
0.0
230
1.0
 70
     8
 71
     3
 72
    13
 73
     9
 74
     0
 42
0.000000001
 43
0.00000001
 40
0.0
 40
0.0
 40
0.0
 40
0.0
 40
0.0541695192020385
 40
0.2433357708819479
 40
0.4325020024866125
 40
0.6216681563274575
 40
0.8108341747222821
 40
1.0
 40
1.0
 40
1.0
 40
1.0
 10
-23.77977372194697
 20
2.363637349455445
 30
0.0
 10
-23.66573623191796
 20
2.368524649545208
 30
0.0
 10
-23.15346658370221
 20
2.39047896910337
 30
0.0
 10
-22.24258476105605
 20
2.240656111074238
 30
0.0
 10
-21.04759760774304
 20
1.906120856922634
 30
0.0
 10
-19.85255540663728
 20
1.399478992168902
 30
0.0
 10
-18.65752904774361
 20
0.7802215463440095
 30
0.0
 10
-17.8608428803601
 20
0.3220595835869207
 30
0.0
 10
-17.46250000000002
 20
0.0929787191413144
 30
0.0
  0
LINE
  5
3D8
330
1F
100
AcDbEntity
  8
외형선
  6
Continuous
370
    15
100
AcDbLine
 10
-17.46249999999999
 20
0.0929787191413499
 30
0.0
 11
-17.46249999999996
 21
-0.7331519609134741
 31
0.0
  0
LINE
  5
3D9
330
1F
100
AcDbEntity
  8
0
  6
Continuous
 62
     1
370
    25
100
AcDbLine
 10
-42.8625
 20
-0.2040287129152671
 30
0.0
 11
-42.8625
 21
-1.00955253705235
 31
0.0
  0
LINE
  5
3DA
330
1F
100
AcDbEntity
  8
0
  6
Continuous
 62
     1
370
    25
100
AcDbLine
 10
-42.8625
 20
2.381250000000002
 30
0.0
 11
-42.8625
 21
2.156653712915251
 31
0.0
  0
LINE
  5
3DB
330
1F
100
AcDbEntity
  8
외형선
  6
Continuous
370
    15
100
AcDbLine
 10
-17.46249999999999
 20
2.381250000000002
 30
0.0
 11
-17.46249999999996
 21
2.265577137223254
 31
0.0
  0
LINE
  5
3DC
330
1F
100
AcDbEntity
  8
외형선
  6
Continuous
370
    15
100
AcDbLine
 10
-17.46249999999999
 20
-2.379434075633902
 30
0.0
 11
-17.46249999999999
 21
-2.381250000000001
 31
0.0
  0
SPLINE
  5
3DD
330
1F
100
AcDbEntity
  8
외형선
  6
Continuous
370
    15
100
AcDbSpline
210
0.0
220
0.0
230
1.0
 70
    24
 71
     3
 72
    14
 73
    10
 74
     0
 42
0.000000001
 43
0.00000001
 40
0.0
 40
0.0
 40
0.0
 40
0.0
 40
0.1111679795198501
 40
0.2673685732932858
 40
0.4235691670667218
 40
0.5797697608401547
 40
0.7359703546135958
 40
0.8921709483870301
 40
1.0
 40
1.0
 40
1.0
 40
1.0
 10
-17.46249999999999
 20
2.265577137223254
 30
0.0
 10
-17.46249999999999
 20
2.167940414336983
 30
0.0
 10
-17.46249999999999
 20
1.933115679625729
 30
0.0
 10
-17.46249999999999
 20
1.496369982878569
 30
0.0
 10
-17.46250000000002
 20
1.013087065170552
 30
0.0
 10
-17.46249999999991
 20
0.5745205909661738
 30
0.0
 10
-17.46250000000002
 20
0.239682165098657
 30
0.0
 10
-17.46249999999991
 20
0.0406342150790525
 30
0.0
 10
-17.46249999999993
 20
0.0311636053655565
 30
0.0
 10
-17.46249999999996
 20
0.0272958318732751
 30
0.0
  0
SPLINE
  5
3DE
330
1F
100
AcDbEntity
  8
외형선
  6
Continuous
370
    15
100
AcDbSpline
210
0.0
220
0.0
230
1.0
 70
     8
 71
     3
 72
     8
 73
     4
 74
     0
 42
0.000000001
 43
0.00000001
 40
0.0
 40
0.0
 40
0.0
 40
0.0
 40
1.0
 40
1.0
 40
1.0
 40
1.0
 10
-17.46250000000002
 20
2.265577137223261
 30
0.0
 10
-17.29493857258085
 20
2.235888145604357
 30
0.0
 10
-17.1276575033949
 20
2.20062328793582
 30
0.0
 10
-16.96248038242818
 20
2.160246759787896
 30
0.0
  0
SPLINE
  5
3DF
330
1F
100
AcDbEntity
  8
외형선
  6
Continuous
370
    15
100
AcDbSpline
210
0.0
220
0.0
230
1.0
 70
     8
 71
     3
 72
     8
 73
     4
 74
     0
 42
0.000000001
 43
0.00000001
 40
0.0
 40
0.0
 40
0.0
 40
0.0
 40
1.0
 40
1.0
 40
1.0
 40
1.0
 10
-17.46250000000002
 20
0.092978719141293
 30
0.0
 10
-17.29493857258085
 20
-0.0033764733636869
 30
0.0
 10
-17.1276575033949
 20
-0.0999054773199217
 30
0.0
 10
-16.96248038242818
 20
-0.1955512458094614
 30
0.0
  0
LINE
  5
3E0
330
1F
100
AcDbEntity
  8
외형선
  6
Continuous
370
    15
100
AcDbLine
 10
-16.96248038242821
 20
2.160245991896567
 30
0.0
 11
-16.96248038242818
 21
-0.1955453124729371
 31
0.0
  0
LINE
  5
3E1
330
1F
100
AcDbEntity
  8
외형선
  6
Continuous
370
    15
100
AcDbLine
 10
-17.30151169165588
 20
2.377429168521787
 30
0.0
 11
-16.96248038242818
 21
2.373206959530159
 31
0.0
  0
LINE
  5
3E2
330
1F
100
AcDbEntity
  8
외형선
  6
Continuous
370
    15
100
AcDbLine
 10
-16.96248038242818
 20
2.381250000000002
 30
0.0
 11
-16.96248038242818
 21
2.373207448427103
 31
0.0
  0
SPLINE
  5
3E3
330
1F
100
AcDbEntity
  8
외형선
  6
Continuous
370
    15
100
AcDbSpline
210
0.0
220
0.0
230
1.0
 70
     8
 71
     3
 72
     8
 73
     4
 74
     0
 42
0.000000001
 43
0.00000001
 40
0.0
 40
0.0
 40
0.0
 40
0.0
 40
1.0
 40
1.0
 40
1.0
 40
1.0
 10
-17.46250000000002
 20
-2.37943407563371
 30
0.0
 10
-17.29493857258085
 20
-2.383199249240938
 30
0.0
 10
-17.1276575033949
 20
-2.381088130242815
 30
0.0
 10
-16.96248038242818
 20
-2.373206959530158
 30
0.0
  0
LINE
  5
3E4
330
1F
100
AcDbEntity
  8
외형선
  6
Continuous
370
    15
100
AcDbLine
 10
-16.96248038242821
 20
-1.001842710706015
 30
0.0
 11
-16.96248038242818
 21
-2.381249999999994
 31
0.0
  0
SPLINE
  5
3E5
330
1F
100
AcDbEntity
  8
외형선
  6
Continuous
370
    15
100
AcDbSpline
210
0.0
220
0.0
230
1.0
 70
     8
 71
     3
 72
     8
 73
     4
 74
     0
 42
0.000000001
 43
0.00000001
 40
0.0
 40
0.0
 40
0.0
 40
0.0
 40
1.0
 40
1.0
 40
1.0
 40
1.0
 10
-17.46250000000002
 20
-0.7331519609134528
 30
0.0
 10
-17.29493857258085
 20
-0.8248965162375509
 30
0.0
 10
-17.1276575033949
 20
-0.9147780785394201
 30
0.0
 10
-16.96248038242818
 20
-1.001841054921321
 30
0.0
  0
SPLINE
  5
3E6
330
1F
100
AcDbEntity
  8
외형선
  6
Continuous
370
    15
100
AcDbSpline
210
0.0
220
0.0
230
1.0
 70
    24
 71
     3
 72
    11
 73
     7
 74
     0
 42
0.000000001
 43
0.00000001
 40
0.0
 40
0.0
 40
0.0
 40
0.0
 40
0.2371364100342407
 40
0.5098691333629156
 40
0.7826018566913358
 40
1.0
 40
1.0
 40
1.0
 40
1.0
 10
-17.46249999999996
 20
-0.7918455454764765
 30
0.0
 10
-17.46249999999996
 20
-0.8861055750033696
 30
0.0
 10
-17.46249999999999
 20
-1.088774914387826
 30
0.0
 10
-17.46249999999988
 20
-1.522031842991907
 30
0.0
 10
-17.46249999999999
 20
-1.976370268630177
 30
0.0
 10
-17.46249999999999
 20
-2.255587106738204
 30
0.0
 10
-17.46249999999999
 20
-2.379434075613446
 30
0.0
  0
LINE
  5
417
330
1F
100
AcDbEntity
  8
외형선
  6
Continuous
370
    15
100
AcDbLine
 10
-17.46249999999999
 20
-2.381250000000001
 30
0.0
 11
16.96248038242821
 21
-2.381250000000001
 31
0.0
  0
ENDSEC
  0
SECTION
  2
OBJECTS
  0
DICTIONARY
  5
C
330
0
100
AcDbDictionary
281
     1
  3
ACAD_GROUP
350
D
  3
ACAD_IMAGE_VARS
350
155
  3
ACAD_LAYOUT
350
1A
  3
ACAD_MLINESTYLE
350
17
  3
ACAD_PLOTSETTINGS
350
19
  3
ACAD_PLOTSTYLENAME
350
E
  3
ACAD_SCALELIST
350
47
  3
APPDATA
350
153
  3
DWGPROPS
350
43C
  0
DICTIONARY
  5
225
330
2
100
AcDbDictionary
280
     1
281
     1
  3
ACAD_LAYERSTATES
360
226
  0
DICTIONARY
  5
D
102
{ACAD_REACTORS
330
C
102
}
330
C
100
AcDbDictionary
281
     1
  0
RASTERVARIABLES
  5
155
102
{ACAD_REACTORS
330
C
102
}
330
C
100
AcDbRasterVariables
 90
        0
 70
     1
 71
     1
 72
     1
  0
DICTIONARY
  5
1A
102
{ACAD_REACTORS
330
C
102
}
330
C
100
AcDbDictionary
281
     1
  3
Layout1
350
1E
  3
Layout2
350
26
  3
Model
350
22
  0
DICTIONARY
  5
17
102
{ACAD_REACTORS
330
C
102
}
330
C
100
AcDbDictionary
281
     1
  3
Standard
350
18
  0
DICTIONARY
  5
19
102
{ACAD_REACTORS
330
C
102
}
330
C
100
AcDbDictionary
281
     1
  0
ACDBDICTIONARYWDFLT
  5
E
102
{ACAD_REACTORS
330
C
102
}
330
C
100
AcDbDictionary
281
     1
  3
Normal
350
F
100
AcDbDictionaryWithDefault
340
F
  0
DICTIONARY
  5
47
102
{ACAD_REACTORS
330
C
102
}
330
C
100
AcDbDictionary
281
     1
  3
A0
350
48
  3
A1
350
49
  3
A2
350
4A
  3
A3
350
4B
  3
A4
350
4C
  3
A5
350
4D
  3
A6
350
4E
  3
A7
350
4F
  3
A8
350
50
  3
A9
350
51
  3
B0
350
52
  3
B1
350
53
  3
B2
350
54
  3
B3
350
55
  3
B4
350
56
  3
B5
350
57
  3
B6
350
58
  3
B7
350
59
  3
B8
350
5A
  3
B9
350
5B
  3
C0
350
5C
  3
C1
350
5D
  3
C2
350
5E
  3
C3
350
5F
  3
C4
350
60
  3
C5
350
61
  3
C6
350
62
  3
C7
350
63
  3
C8
350
64
  3
C9
350
65
  3
D0
350
66
  3
D1
350
67
  3
D2
350
68
  0
DICTIONARY
  5
153
102
{ACAD_REACTORS
330
C
102
}
330
C
100
AcDbDictionary
281
     1
  0
XRECORD
  5
43C
102
{ACAD_REACTORS
330
C
102
}
330
C
100
AcDbXrecord
280
     1
  1
DWGPROPS COOKIE
  2

  3

  4

  6

  7

  8
12016016
  9

300
=
301
=
302
=
303
=
304
=
305
=
306
=
307
=
308
=
309
=
 40
0.0
 41
2458313.106614248
 42
2458320.376459699
  1

 90
        0
  0
DICTIONARY
  5
226
102
{ACAD_REACTORS
330
225
102
}
330
225
100
AcDbDictionary
281
     1
  0
LAYOUT
  5
1E
102
{ACAD_REACTORS
330
1A
102
}
330
1A
100
AcDbPlotSettings
  1

  2
none_device
  4

  6

 40
0.0
 41
0.0
 42
0.0
 43
0.0
 44
0.0
 45
0.0
 46
0.0
 47
0.0
 48
0.0
 49
0.0
140
0.0
141
0.0
142
1.0
143
1.0
 70
   688
 72
     1
 73
     0
 74
     5
  7

 75
    16
147
1.0
148
0.0
149
0.0
100
AcDbLayout
  1
Layout1
 70
     1
 71
     1
 10
0.0
 20
0.0
 11
420.0
 21
297.0
 12
0.0
 22
0.0
 32
0.0
 14
1.000000000000000E+20
 24
1.000000000000000E+20
 34
1.000000000000000E+20
 15
-1.000000000000000E+20
 25
-1.000000000000000E+20
 35
-1.000000000000000E+20
146
0.0
 13
0.0
 23
0.0
 33
0.0
 16
1.0
 26
0.0
 36
0.0
 17
0.0
 27
1.0
 37
0.0
 76
     0
330
1B
  0
LAYOUT
  5
26
102
{ACAD_REACTORS
330
1A
102
}
330
1A
100
AcDbPlotSettings
  1

  2
none_device
  4

  6

 40
0.0
 41
0.0
 42
0.0
 43
0.0
 44
0.0
 45
0.0
 46
0.0
 47
0.0
 48
0.0
 49
0.0
140
0.0
141
0.0
142
1.0
143
1.0
 70
   688
 72
     1
 73
     0
 74
     5
  7

 75
    16
147
1.0
148
0.0
149
0.0
100
AcDbLayout
  1
Layout2
 70
     1
 71
     2
 10
0.0
 20
0.0
 11
0.0
 21
0.0
 12
0.0
 22
0.0
 32
0.0
 14
0.0
 24
0.0
 34
0.0
 15
0.0
 25
0.0
 35
0.0
146
0.0
 13
0.0
 23
0.0
 33
0.0
 16
1.0
 26
0.0
 36
0.0
 17
0.0
 27
1.0
 37
0.0
 76
     0
330
23
  0
LAYOUT
  5
22
102
{ACAD_REACTORS
330
1A
102
}
330
1A
100
AcDbPlotSettings
  1

  2
none_device
  4
ANSI_A_(11.00_x_8.50_Inches)
  6

 40
6.35
 41
19.05
 42
6.35000508
 43
19.05000254
 44
279.4
 45
215.9
 46
67.38938931238889
 47
83.1604738227889
 48
0.0
 49
0.0
140
0.0
141
0.0
142
0.0450033279476058
143
1.0
 70
  1696
 72
     0
 73
     0
 74
     0
  7

 75
     0
147
0.0235690232323232
148
0.0
149
0.0
100
AcDbLayout
  1
Model
 70
     1
 71
     0
 10
0.0
 20
0.0
 11
420.0
 21
297.0
 12
0.0
 22
0.0
 32
0.0
 14
-60.23750000000003
 24
-49.97180738881174
 34
0.0
 15
81.41936447236121
 25
38.22072979507901
 35
0.0
146
0.0
 13
0.0
 23
0.0
 33
0.0
 16
1.0
 26
0.0
 36
0.0
 17
0.0
 27
1.0
 37
0.0
 76
     0
330
1F
331
29
  0
MLINESTYLE
  5
18
102
{ACAD_REACTORS
330
17
102
}
330
17
100
AcDbMlineStyle
  2
Standard
 70
     0
  3

 62
   256
 51
90.0
 52
90.0
 71
     2
 49
0.5
 62
   256
  6
BYLAYER
 49
-0.5
 62
   256
  6
BYLAYER
  0
ACDBPLACEHOLDER
  5
F
102
{ACAD_REACTORS
330
E
102
}
330
E
  0
SCALE
  5
48
102
{ACAD_REACTORS
330
47
102
}
330
47
100
AcDbScale
 70
     0
300
1:1
140
1.0
141
1.0
290
     1
  0
SCALE
  5
49
102
{ACAD_REACTORS
330
47
102
}
330
47
100
AcDbScale
 70
     0
300
1:2
140
1.0
141
2.0
290
     0
  0
SCALE
  5
4A
102
{ACAD_REACTORS
330
47
102
}
330
47
100
AcDbScale
 70
     0
300
1:4
140
1.0
141
4.0
290
     0
  0
SCALE
  5
4B
102
{ACAD_REACTORS
330
47
102
}
330
47
100
AcDbScale
 70
     0
300
1:5
140
1.0
141
5.0
290
     0
  0
SCALE
  5
4C
102
{ACAD_REACTORS
330
47
102
}
330
47
100
AcDbScale
 70
     0
300
1:8
140
1.0
141
8.0
290
     0
  0
SCALE
  5
4D
102
{ACAD_REACTORS
330
47
102
}
330
47
100
AcDbScale
 70
     0
300
1:10
140
1.0
141
10.0
290
     0
  0
SCALE
  5
4E
102
{ACAD_REACTORS
330
47
102
}
330
47
100
AcDbScale
 70
     0
300
1:16
140
1.0
141
16.0
290
     0
  0
SCALE
  5
4F
102
{ACAD_REACTORS
330
47
102
}
330
47
100
AcDbScale
 70
     0
300
1:20
140
1.0
141
20.0
290
     0
  0
SCALE
  5
50
102
{ACAD_REACTORS
330
47
102
}
330
47
100
AcDbScale
 70
     0
300
1:30
140
1.0
141
30.0
290
     0
  0
SCALE
  5
51
102
{ACAD_REACTORS
330
47
102
}
330
47
100
AcDbScale
 70
     0
300
1:40
140
1.0
141
40.0
290
     0
  0
SCALE
  5
52
102
{ACAD_REACTORS
330
47
102
}
330
47
100
AcDbScale
 70
     0
300
1:50
140
1.0
141
50.0
290
     0
  0
SCALE
  5
53
102
{ACAD_REACTORS
330
47
102
}
330
47
100
AcDbScale
 70
     0
300
1:100
140
1.0
141
100.0
290
     0
  0
SCALE
  5
54
102
{ACAD_REACTORS
330
47
102
}
330
47
100
AcDbScale
 70
     0
300
2:1
140
2.0
141
1.0
290
     0
  0
SCALE
  5
55
102
{ACAD_REACTORS
330
47
102
}
330
47
100
AcDbScale
 70
     0
300
4:1
140
4.0
141
1.0
290
     0
  0
SCALE
  5
56
102
{ACAD_REACTORS
330
47
102
}
330
47
100
AcDbScale
 70
     0
300
8:1
140
8.0
141
1.0
290
     0
  0
SCALE
  5
57
102
{ACAD_REACTORS
330
47
102
}
330
47
100
AcDbScale
 70
     0
300
10:1
140
10.0
141
1.0
290
     0
  0
SCALE
  5
58
102
{ACAD_REACTORS
330
47
102
}
330
47
100
AcDbScale
 70
     0
300
100:1
140
100.0
141
1.0
290
     0
  0
SCALE
  5
59
102
{ACAD_REACTORS
330
47
102
}
330
47
100
AcDbScale
 70
     0
300
1/128" = 1'-0"
140
0.0078125
141
12.0
290
     0
  0
SCALE
  5
5A
102
{ACAD_REACTORS
330
47
102
}
330
47
100
AcDbScale
 70
     0
300
1/64" = 1'-0"
140
0.015625
141
12.0
290
     0
  0
SCALE
  5
5B
102
{ACAD_REACTORS
330
47
102
}
330
47
100
AcDbScale
 70
     0
300
1/32" = 1'-0"
140
0.03125
141
12.0
290
     0
  0
SCALE
  5
5C
102
{ACAD_REACTORS
330
47
102
}
330
47
100
AcDbScale
 70
     0
300
1/16" = 1'-0"
140
0.0625
141
12.0
290
     0
  0
SCALE
  5
5D
102
{ACAD_REACTORS
330
47
102
}
330
47
100
AcDbScale
 70
     0
300
3/32" = 1'-0"
140
0.09375
141
12.0
290
     0
  0
SCALE
  5
5E
102
{ACAD_REACTORS
330
47
102
}
330
47
100
AcDbScale
 70
     0
300
1/8" = 1'-0"
140
0.125
141
12.0
290
     0
  0
SCALE
  5
5F
102
{ACAD_REACTORS
330
47
102
}
330
47
100
AcDbScale
 70
     0
300
3/16" = 1'-0"
140
0.1875
141
12.0
290
     0
  0
SCALE
  5
60
102
{ACAD_REACTORS
330
47
102
}
330
47
100
AcDbScale
 70
     0
300
1/4" = 1'-0"
140
0.25
141
12.0
290
     0
  0
SCALE
  5
61
102
{ACAD_REACTORS
330
47
102
}
330
47
100
AcDbScale
 70
     0
300
3/8" = 1'-0"
140
0.375
141
12.0
290
     0
  0
SCALE
  5
62
102
{ACAD_REACTORS
330
47
102
}
330
47
100
AcDbScale
 70
     0
300
1/2" = 1'-0"
140
0.5
141
12.0
290
     0
  0
SCALE
  5
63
102
{ACAD_REACTORS
330
47
102
}
330
47
100
AcDbScale
 70
     0
300
3/4" = 1'-0"
140
0.75
141
12.0
290
     0
  0
SCALE
  5
64
102
{ACAD_REACTORS
330
47
102
}
330
47
100
AcDbScale
 70
     0
300
1" = 1'-0"
140
1.0
141
12.0
290
     0
  0
SCALE
  5
65
102
{ACAD_REACTORS
330
47
102
}
330
47
100
AcDbScale
 70
     0
300
1-1/2" = 1'-0"
140
1.5
141
12.0
290
     0
  0
SCALE
  5
66
102
{ACAD_REACTORS
330
47
102
}
330
47
100
AcDbScale
 70
     0
300
3" = 1'-0"
140
3.0
141
12.0
290
     0
  0
SCALE
  5
67
102
{ACAD_REACTORS
330
47
102
}
330
47
100
AcDbScale
 70
     0
300
6" = 1'-0"
140
6.0
141
12.0
290
     0
  0
SCALE
  5
68
102
{ACAD_REACTORS
330
47
102
}
330
47
100
AcDbScale
 70
     0
300
1'-0" = 1'-0"
140
12.0
141
12.0
290
     0
  0
ENDSEC
  0
EOF
