  0
SECTION
  2
HEADER
  9
$ACADVER
  1
AC1015
  9
$ACADMAINTVER
 70
     6
  9
$DWGCODEPAGE
  3
ANSI_949
  9
$INSBASE
 10
0.0
 20
0.0
 30
0.0
  9
$EXTMIN
 10
-58.65000000000004
 20
-49.97180738881174
 30
0.0
  9
$EXTMAX
 10
81.41936447236121
 20
38.53681250000005
 30
0.0
  9
$LIMMIN
 10
0.0
 20
0.0
  9
$LIMMAX
 10
420.0
 20
297.0
  9
$ORTHOMODE
 70
     1
  9
$REGENMODE
 70
     1
  9
$FILLMODE
 70
     1
  9
$QTEXTMODE
 70
     0
  9
$MIRRTEXT
 70
     1
  9
$LTSCALE
 40
1.0
  9
$ATTMODE
 70
     1
  9
$TEXTSIZE
 40
3.5
  9
$TRACEWID
 40
1.0
  9
$TEXTSTYLE
  7
Standard
  9
$CLAYER
  8
0
  9
$CELTYPE
  6
ByLayer
  9
$CECOLOR
 62
   256
  9
$CELTSCALE
 40
1.0
  9
$DISPSILH
 70
     0
  9
$DIMSCALE
 40
1.0
  9
$DIMASZ
 40
3.302
  9
$DIMEXO
 40
1.0
  9
$DIMDLI
 40
3.75
  9
$DIMRND
 40
0.0
  9
$DIMDLE
 40
0.0
  9
$DIMEXE
 40
1.0
  9
$DIMTP
 40
0.0
  9
$DIMTM
 40
0.0
  9
$DIMTXT
 40
3.5
  9
$DIMCEN
 40
2.5
  9
$DIMTSZ
 40
0.0
  9
$DIMTOL
 70
     0
  9
$DIMLIM
 70
     0
  9
$DIMTIH
 70
     1
  9
$DIMTOH
 70
     1
  9
$DIMSE1
 70
     0
  9
$DIMSE2
 70
     0
  9
$DIMTAD
 70
     1
  9
$DIMZIN
 70
     0
  9
$DIMBLK
  1

  9
$DIMASO
 70
     1
  9
$DIMSHO
 70
     1
  9
$DIMPOST
  1

  9
$DIMAPOST
  1

  9
$DIMALT
 70
     0
  9
$DIMALTD
 70
     3
  9
$DIMALTF
 40
0.0393700787401575
  9
$DIMLFAC
 40
1.0
  9
$DIMTOFL
 70
     1
  9
$DIMTVP
 40
0.0
  9
$DIMTIX
 70
     0
  9
$DIMSOXD
 70
     0
  9
$DIMSAH
 70
     0
  9
$DIMBLK1
  1

  9
$DIMBLK2
  1

  9
$DIMSTYLE
  2
ISO-25
  9
$DIMCLRD
 70
     0
  9
$DIMCLRE
 70
     0
  9
$DIMCLRT
 70
     0
  9
$DIMTFAC
 40
1.0
  9
$DIMGAP
 40
1.524
  9
$DIMJUST
 70
     0
  9
$DIMSD1
 70
     0
  9
$DIMSD2
 70
     0
  9
$DIMTOLJ
 70
     0
  9
$DIMTZIN
 70
     0
  9
$DIMALTZ
 70
     0
  9
$DIMALTTZ
 70
     0
  9
$DIMUPT
 70
     0
  9
$DIMDEC
 70
     2
  9
$DIMTDEC
 70
     2
  9
$DIMALTU
 70
     2
  9
$DIMALTTD
 70
     3
  9
$DIMTXSTY
  7
Standard
  9
$DIMAUNIT
 70
     0
  9
$DIMADEC
 70
     2
  9
$DIMALTRND
 40
0.0
  9
$DIMAZIN
 70
     0
  9
$DIMDSEP
 70
    44
  9
$DIMATFIT
 70
     3
  9
$DIMFRAC
 70
     0
  9
$DIMLDRBLK
  1

  9
$DIMLUNIT
 70
     2
  9
$DIMLWD
 70
    -2
  9
$DIMLWE
 70
    -2
  9
$DIMTMOVE
 70
     0
  9
$LUNITS
 70
     2
  9
$LUPREC
 70
     2
  9
$SKETCHINC
 40
1.0
  9
$FILLETRAD
 40
10.0
  9
$AUNITS
 70
     0
  9
$AUPREC
 70
     2
  9
$MENU
  1
.
  9
$ELEVATION
 40
0.0
  9
$PELEVATION
 40
0.0
  9
$THICKNESS
 40
0.0
  9
$LIMCHECK
 70
     0
  9
$CHAMFERA
 40
0.0
  9
$CHAMFERB
 40
0.0
  9
$CHAMFERC
 40
0.0
  9
$CHAMFERD
 40
0.0
  9
$SKPOLY
 70
     0
  9
$TDCREATE
 40
2458313.481402454
  9
$TDUCREATE
 40
2458313.106402454
  9
$TDUPDATE
 40
2458320.751519039
  9
$TDUUPDATE
 40
2458320.376519039
  9
$TDINDWG
 40
0.0019020718
  9
$TDUSRTIMER
 40
2458320.376469097
  9
$USRTIMER
 70
     1
  9
$ANGBASE
 50
0.0
  9
$ANGDIR
 70
     0
  9
$PDMODE
 70
     0
  9
$PDSIZE
 40
-1.0
  9
$PLINEWID
 40
0.0
  9
$SPLFRAME
 70
     0
  9
$SPLINETYPE
 70
     6
  9
$SPLINESEGS
 70
     8
  9
$HANDSEED
  5
44A
  9
$SURFTAB1
 70
     6
  9
$SURFTAB2
 70
     6
  9
$SURFTYPE
 70
     6
  9
$SURFU
 70
     6
  9
$SURFV
 70
     6
  9
$UCSBASE
  2

  9
$UCSNAME
  2

  9
$UCSORG
 10
0.0
 20
0.0
 30
0.0
  9
$UCSXDIR
 10
1.0
 20
0.0
 30
0.0
  9
$UCSYDIR
 10
0.0
 20
1.0
 30
0.0
  9
$UCSORTHOREF
  2

  9
$UCSORTHOVIEW
 70
     0
  9
$UCSORGTOP
 10
0.0
 20
0.0
 30
0.0
  9
$UCSORGBOTTOM
 10
0.0
 20
0.0
 30
0.0
  9
$UCSORGLEFT
 10
0.0
 20
0.0
 30
0.0
  9
$UCSORGRIGHT
 10
0.0
 20
0.0
 30
0.0
  9
$UCSORGFRONT
 10
0.0
 20
0.0
 30
0.0
  9
$UCSORGBACK
 10
0.0
 20
0.0
 30
0.0
  9
$PUCSBASE
  2

  9
$PUCSNAME
  2

  9
$PUCSORG
 10
0.0
 20
0.0
 30
0.0
  9
$PUCSXDIR
 10
1.0
 20
0.0
 30
0.0
  9
$PUCSYDIR
 10
0.0
 20
1.0
 30
0.0
  9
$PUCSORTHOREF
  2

  9
$PUCSORTHOVIEW
 70
     0
  9
$PUCSORGTOP
 10
0.0
 20
0.0
 30
0.0
  9
$PUCSORGBOTTOM
 10
0.0
 20
0.0
 30
0.0
  9
$PUCSORGLEFT
 10
0.0
 20
0.0
 30
0.0
  9
$PUCSORGRIGHT
 10
0.0
 20
0.0
 30
0.0
  9
$PUCSORGFRONT
 10
0.0
 20
0.0
 30
0.0
  9
$PUCSORGBACK
 10
0.0
 20
0.0
 30
0.0
  9
$USERI1
 70
     0
  9
$USERI2
 70
     0
  9
$USERI3
 70
     0
  9
$USERI4
 70
     0
  9
$USERI5
 70
     0
  9
$USERR1
 40
0.0
  9
$USERR2
 40
0.0
  9
$USERR3
 40
0.0
  9
$USERR4
 40
0.0
  9
$USERR5
 40
0.0
  9
$WORLDVIEW
 70
     1
  9
$SHADEDGE
 70
     3
  9
$SHADEDIF
 70
    70
  9
$TILEMODE
 70
     1
  9
$MAXACTVP
 70
    64
  9
$PINSBASE
 10
0.0
 20
0.0
 30
0.0
  9
$PLIMCHECK
 70
     0
  9
$PEXTMIN
 10
1.000000000000000E+20
 20
1.000000000000000E+20
 30
1.000000000000000E+20
  9
$PEXTMAX
 10
-1.000000000000000E+20
 20
-1.000000000000000E+20
 30
-1.000000000000000E+20
  9
$PLIMMIN
 10
0.0
 20
0.0
  9
$PLIMMAX
 10
0.0
 20
0.0
  9
$UNITMODE
 70
     0
  9
$VISRETAIN
 70
     1
  9
$PLINEGEN
 70
     0
  9
$PSLTSCALE
 70
     1
  9
$TREEDEPTH
 70
  3020
  9
$CMLSTYLE
  2
Standard
  9
$CMLJUST
 70
     0
  9
$CMLSCALE
 40
20.0
  9
$PROXYGRAPHICS
 70
     1
  9
$MEASUREMENT
 70
     1
  9
$CELWEIGHT
370
    -1
  9
$ENDCAPS
280
     0
  9
$JOINSTYLE
280
     0
  9
$LWDISPLAY
290
     1
  9
$INSUNITS
 70
     4
  9
$HYPERLINKBASE
  1

  9
$STYLESHEET
  1

  9
$XEDIT
290
     1
  9
$CEPSNTYPE
380
     0
  9
$PSTYLEMODE
290
     1
  9
$FINGERPRINTGUID
  2
{42923688-512D-4507-9F08-648B50A5A57E}
  9
$VERSIONGUID
  2
{FAEB1C32-E019-11D5-929B-00C0DF256EC4}
  9
$EXTNAMES
290
     1
  9
$PSVPSCALE
 40
0.0
  9
$OLESTARTUP
290
     0
  0
ENDSEC
  0
SECTION
  2
CLASSES
  0
CLASS
  1
ACDBDICTIONARYWDFLT
  2
AcDbDictionaryWithDefault
  3
ObjectDBX Classes
 90
        0
280
     0
281
     0
  0
CLASS
  1
VISUALSTYLE
  2
AcDbVisualStyle
  3
ObjectDBX Classes
 90
     4095
280
     0
281
     0
  0
CLASS
  1
MATERIAL
  2
AcDbMaterial
  3
ObjectDBX Classes
 90
     1153
280
     0
281
     0
  0
CLASS
  1
SCALE
  2
AcDbScale
  3
ObjectDBX Classes
 90
     1153
280
     0
281
     0
  0
CLASS
  1
SUN
  2
AcDbSun
  3
SCENEOE
 90
     1153
280
     0
281
     0
  0
CLASS
  1
ACDBPLACEHOLDER
  2
AcDbPlaceHolder
  3
ObjectDBX Classes
 90
        0
280
     0
281
     0
  0
CLASS
  1
LAYOUT
  2
AcDbLayout
  3
ObjectDBX Classes
 90
        0
280
     0
281
     0
  0
CLASS
  1
TABLESTYLE
  2
AcDbTableStyle
  3
ObjectDBX Classes
 90
     4095
280
     0
281
     0
  0
CLASS
  1
MLEADERSTYLE
  2
AcDbMLeaderStyle
  3
ACDB_MLEADERSTYLE_CLASS
 90
     4095
280
     0
281
     0
  0
CLASS
  1
RASTERVARIABLES
  2
AcDbRasterVariables
  3
ISM
 90
        0
280
     0
281
     0
  0
ENDSEC
  0
SECTION
  2
TABLES
  0
TABLE
  2
VPORT
  5
8
330
0
100
AcDbSymbolTable
 70
     1
  0
VPORT
  5
29
330
8
100
AcDbSymbolTableRecord
100
AcDbViewportTableRecord
  2
*Active
 70
     0
 10
0.0
 20
0.0
 11
1.0
 21
1.0
 12
9.726386558347134
 22
-8.735997839854704
 13
0.0
 23
0.0
 14
10.0
 24
10.0
 15
10.0
 25
10.0
 16
0.0
 26
0.0
 36
1.0
 17
0.0
 27
0.0
 37
0.0
 40
139.5188583109728
 41
1.632093933463796
 42
50.0
 43
0.0
 44
0.0
 50
0.0
 51
0.0
 71
    16
 72
  2000
 73
     1
 74
     3
 75
     0
 76
     0
 77
     0
 78
     0
281
     0
 65
     1
110
0.0
120
0.0
130
0.0
111
1.0
121
0.0
131
0.0
112
0.0
122
1.0
132
0.0
 79
     0
146
0.0
  0
ENDTAB
  0
TABLE
  2
LTYPE
  5
5
330
0
100
AcDbSymbolTable
 70
     6
  0
LTYPE
  5
14
330
5
100
AcDbSymbolTableRecord
100
AcDbLinetypeTableRecord
  2
ByBlock
 70
     0
  3

 72
    65
 73
     0
 40
0.0
  0
LTYPE
  5
15
330
5
100
AcDbSymbolTableRecord
100
AcDbLinetypeTableRecord
  2
ByLayer
 70
     0
  3

 72
    65
 73
     0
 40
0.0
  0
LTYPE
  5
16
330
5
100
AcDbSymbolTableRecord
100
AcDbLinetypeTableRecord
  2
Continuous
 70
     0
  3
Solid line
 72
    65
 73
     0
 40
0.0
  0
LTYPE
  5
6A
330
5
100
AcDbSymbolTableRecord
100
AcDbLinetypeTableRecord
  2
HIDDEN
 70
     0
  3
Hidden __ __ __ __ __ __ __ __ __ __ __ __ __ __
 72
    65
 73
     2
 40
1.905
 49
1.27
 74
     0
 49
-0.635
 74
     0
  0
LTYPE
  5
6B
330
5
100
AcDbSymbolTableRecord
100
AcDbLinetypeTableRecord
  2
PHANTOM
 70
     0
  3
Phantom ______  __  __  ______  __  __  ______
 72
    65
 73
     6
 40
12.7
 49
6.35
 74
     0
 49
-1.27
 74
     0
 49
1.27
 74
     0
 49
-1.27
 74
     0
 49
1.27
 74
     0
 49
-1.27
 74
     0
  0
LTYPE
  5
6C
330
5
100
AcDbSymbolTableRecord
100
AcDbLinetypeTableRecord
  2
CENTER
 70
     0
  3
Center ____ _ ____ _ ____ _ ____ _ ____ _ ____
 72
    65
 73
     4
 40
10.16
 49
6.35
 74
     0
 49
-1.27
 74
     0
 49
1.27
 74
     0
 49
-1.27
 74
     0
  0
LTYPE
  5
6D
330
5
100
AcDbSymbolTableRecord
100
AcDbLinetypeTableRecord
  2
CENTERX2
 70
     0
  3
Center (2x) ________  __  ________  __  _____
 72
    65
 73
     4
 40
20.32
 49
12.7
 74
     0
 49
-2.54
 74
     0
 49
2.54
 74
     0
 49
-2.54
 74
     0
  0
LTYPE
  5
6E
330
5
100
AcDbSymbolTableRecord
100
AcDbLinetypeTableRecord
  2
DOT2
 70
     0
  3
Dot (.5x) ........................................
 72
    65
 73
     2
 40
0.635
 49
0.0
 74
     0
 49
-0.635
 74
     0
  0
ENDTAB
  0
TABLE
  2
LAYER
  5
2
102
{ACAD_XDICTIONARY
360
229
102
}
330
0
100
AcDbSymbolTable
 70
    18
  0
LAYER
  5
10
330
2
100
AcDbSymbolTableRecord
100
AcDbLayerTableRecord
  2
0
 70
     0
 62
     7
  6
Continuous
370
    -3
390
F
  0
LAYER
  5
6F
330
2
100
AcDbSymbolTableRecord
100
AcDbLayerTableRecord
  2
FORMAT
 70
     0
 62
     2
  6
Continuous
370
    -3
390
F
  0
LAYER
  5
70
330
2
100
AcDbSymbolTableRecord
100
AcDbLayerTableRecord
  2
외형선
 70
     0
 62
     4
  6
Continuous
370
    30
390
F
  0
LAYER
  5
71
330
2
100
AcDbSymbolTableRecord
100
AcDbLayerTableRecord
  2
숨은선
 70
     0
 62
     2
  6
HIDDEN
370
    15
390
F
  0
LAYER
  5
72
330
2
100
AcDbSymbolTableRecord
100
AcDbLayerTableRecord
  2
중심선
 70
     0
 62
     1
  6
CENTERX2
370
    -3
390
F
  0
LAYER
  5
73
330
2
100
AcDbSymbolTableRecord
100
AcDbLayerTableRecord
  2
파단선
 70
     0
 62
     4
  6
Continuous
370
    -3
390
F
  0
LAYER
  5
74
330
2
100
AcDbSymbolTableRecord
100
AcDbLayerTableRecord
  2
해칭선
 70
     0
 62
   100
  6
Continuous
370
    -3
390
F
  0
LAYER
  5
75
330
2
100
AcDbSymbolTableRecord
100
AcDbLayerTableRecord
  2
가는실선
 70
     0
 62
     4
  6
Continuous
370
    -3
390
F
  0
LAYER
  5
76
330
2
100
AcDbSymbolTableRecord
100
AcDbLayerTableRecord
  2
치수_보조선
 70
     0
 62
     4
  6
Continuous
370
    -3
390
F
  0
LAYER
  5
77
330
2
100
AcDbSymbolTableRecord
100
AcDbLayerTableRecord
  2
치수문자_일반주서
 70
     0
 62
     7
  6
Continuous
370
    15
390
F
  0
LAYER
  5
78
330
2
100
AcDbSymbolTableRecord
100
AcDbLayerTableRecord
  2
개별주서
 70
     0
 62
   100
  6
Continuous
370
    30
390
F
  0
LAYER
  5
79
330
2
100
AcDbSymbolTableRecord
100
AcDbLayerTableRecord
  2
중간선
 70
     0
 62
     2
  6
Continuous
370
    15
390
F
  0
LAYER
  5
7A
330
2
100
AcDbSymbolTableRecord
100
AcDbLayerTableRecord
  2
윤곽선
 70
     0
 62
     3
  6
Continuous
370
    40
390
F
  0
LAYER
  5
7B
330
2
100
AcDbSymbolTableRecord
100
AcDbLayerTableRecord
  2
중심마크
 70
     0
 62
   100
  6
Continuous
370
    30
390
F
  0
LAYER
  5
7C
330
2
100
AcDbSymbolTableRecord
100
AcDbLayerTableRecord
  2
가상선
 70
     0
 62
     4
  6
PHANTOM
370
    -3
390
F
  0
LAYER
  5
7D
330
2
100
AcDbSymbolTableRecord
100
AcDbLayerTableRecord
  2
특수지정선
 70
     0
 62
     5
  6
CENTERX2
370
    60
390
F
  0
LAYER
  5
7E
330
2
100
AcDbSymbolTableRecord
100
AcDbLayerTableRecord
  2
참조1
 70
     0
 62
    -4
  6
Continuous
370
    -3
390
F
  0
LAYER
  5
15D
330
2
100
AcDbSymbolTableRecord
100
AcDbLayerTableRecord
  2
Defpoints
 70
     0
 62
     7
  6
Continuous
290
     0
370
    -3
390
F
  0
ENDTAB
  0
TABLE
  2
STYLE
  5
3
330
0
100
AcDbSymbolTable
 70
     2
  0
STYLE
  5
11
330
3
100
AcDbSymbolTableRecord
100
AcDbTextStyleTableRecord
  2
Standard
 70
     0
 40
0.0
 41
1.0
 50
0.0
 71
     0
 42
3.5
  3
txt
  4

  0
STYLE
  5
94
330
3
100
AcDbSymbolTableRecord
100
AcDbTextStyleTableRecord
  2
SLDTEXTSTYLE0
 70
     0
 40
0.0
 41
0.75
 50
0.0
 71
     0
 42
3.5
  3
TXT
  4

  0
ENDTAB
  0
TABLE
  2
VIEW
  5
6
330
0
100
AcDbSymbolTable
 70
     0
  0
ENDTAB
  0
TABLE
  2
UCS
  5
7
330
0
100
AcDbSymbolTable
 70
     0
  0
ENDTAB
  0
TABLE
  2
APPID
  5
9
330
0
100
AcDbSymbolTable
 70
     1
  0
APPID
  5
12
330
9
100
AcDbSymbolTableRecord
100
AcDbRegAppTableRecord
  2
ACAD
 70
     0
  0
ENDTAB
  0
TABLE
  2
DIMSTYLE
  5
A
330
0
100
AcDbSymbolTable
 70
     3
100
AcDbDimStyleTable
  0
DIMSTYLE
105
27
330
A
100
AcDbSymbolTableRecord
100
AcDbDimStyleTableRecord
  2
ISO-25
 70
     0
 41
2.5
 42
0.625
 43
3.75
 44
1.25
 73
     0
 74
     0
 77
     1
 78
     8
140
2.5
141
2.5
143
0.03937007874016
147
0.625
171
     3
172
     1
178
     0
271
     2
272
     2
274
     3
278
    44
283
     0
284
     8
340
11
  0
DIMSTYLE
105
DA
102
{ACAD_REACTORS
330
D9
330
116
330
EE
330
103
102
}
330
A
100
AcDbSymbolTableRecord
100
AcDbDimStyleTableRecord
  2
SLDDIMSTYLE0
 70
     0
 41
3.302
 44
0.0
 45
0.000000001
 73
     0
 74
     0
 77
     1
 78
    12
 79
     3
140
3.5
143
0.0393700787401575
147
0.875
148
0.000000001
170
     1
172
     1
173
     1
178
     0
271
     2
272
     2
276
     2
284
    12
289
     0
340
94
  0
DIMSTYLE
105
EF
330
A
100
AcDbSymbolTableRecord
100
AcDbDimStyleTableRecord
  2
SLDDIMSTYLE1
 70
     0
 41
3.302
 44
0.0
 45
0.000000001
 73
     0
 74
     0
 77
     1
 78
    12
 79
     3
140
3.5
143
0.0393700787401575
147
0.875
148
0.000000001
170
     1
173
     1
178
     0
271
     2
272
     2
276
     2
284
    12
340
94
  0
ENDTAB
  0
TABLE
  2
BLOCK_RECORD
  5
1
330
0
100
AcDbSymbolTable
 70
    21
  0
BLOCK_RECORD
  5
1F
330
1
100
AcDbSymbolTableRecord
100
AcDbBlockTableRecord
  2
*Model_Space
340
22
  0
BLOCK_RECORD
  5
1B
330
1
100
AcDbSymbolTableRecord
100
AcDbBlockTableRecord
  2
*Paper_Space
340
1E
  0
BLOCK_RECORD
  5
23
330
1
100
AcDbSymbolTableRecord
100
AcDbBlockTableRecord
  2
*Paper_Space0
340
26
  0
BLOCK_RECORD
  5
7F
330
1
100
AcDbSymbolTableRecord
100
AcDbBlockTableRecord
  2
블럭10
340
0
102
{BLKREFS
331
D2
102
}
  0
BLOCK_RECORD
  5
DB
330
1
100
AcDbSymbolTableRecord
100
AcDbBlockTableRecord
  2
_D
340
0
  0
BLOCK_RECORD
  5
F0
330
1
100
AcDbSymbolTableRecord
100
AcDbBlockTableRecord
  2
_D_1
340
0
  0
BLOCK_RECORD
  5
104
330
1
100
AcDbSymbolTableRecord
100
AcDbBlockTableRecord
  2
_D_2
340
0
  0
BLOCK_RECORD
  5
117
330
1
100
AcDbSymbolTableRecord
100
AcDbBlockTableRecord
  2
_D_3
340
0
  0
BLOCK_RECORD
  5
131
330
1
100
AcDbSymbolTableRecord
100
AcDbBlockTableRecord
  2
SW_DOWELSYMBOL_0
340
0
102
{BLKREFS
331
137
102
}
  0
BLOCK_RECORD
  5
22D
330
1
100
AcDbSymbolTableRecord
100
AcDbBlockTableRecord
  2
*D7
340
0
  0
BLOCK_RECORD
  5
23C
330
1
100
AcDbSymbolTableRecord
100
AcDbBlockTableRecord
  2
*D8
340
0
  0
BLOCK_RECORD
  5
24B
330
1
100
AcDbSymbolTableRecord
100
AcDbBlockTableRecord
  2
*D9
340
0
  0
BLOCK_RECORD
  5
257
330
1
100
AcDbSymbolTableRecord
100
AcDbBlockTableRecord
  2
*D10
340
0
  0
BLOCK_RECORD
  5
2CB
330
1
100
AcDbSymbolTableRecord
100
AcDbBlockTableRecord
  2
*D11
340
0
  0
BLOCK_RECORD
  5
2DA
330
1
100
AcDbSymbolTableRecord
100
AcDbBlockTableRecord
  2
*D12
340
0
  0
BLOCK_RECORD
  5
2E9
330
1
100
AcDbSymbolTableRecord
100
AcDbBlockTableRecord
  2
*D13
340
0
  0
BLOCK_RECORD
  5
2F5
330
1
100
AcDbSymbolTableRecord
100
AcDbBlockTableRecord
  2
*D14
340
0
  0
BLOCK_RECORD
  5
399
330
1
100
AcDbSymbolTableRecord
100
AcDbBlockTableRecord
  2
*D15
340
0
  0
BLOCK_RECORD
  5
3A8
330
1
100
AcDbSymbolTableRecord
100
AcDbBlockTableRecord
  2
*D16
340
0
  0
BLOCK_RECORD
  5
3B7
330
1
100
AcDbSymbolTableRecord
100
AcDbBlockTableRecord
  2
*D17
340
0
  0
BLOCK_RECORD
  5
3FC
330
1
100
AcDbSymbolTableRecord
100
AcDbBlockTableRecord
  2
*D18
340
0
  0
BLOCK_RECORD
  5
40B
330
1
100
AcDbSymbolTableRecord
100
AcDbBlockTableRecord
  2
*D19
340
0
  0
BLOCK_RECORD
  5
41A
330
1
100
AcDbSymbolTableRecord
100
AcDbBlockTableRecord
  2
*D20
340
0
  0
ENDTAB
  0
ENDSEC
  0
SECTION
  2
BLOCKS
  0
BLOCK
  5
20
330
1F
100
AcDbEntity
  8
0
100
AcDbBlockBegin
  2
*Model_Space
 70
     0
 10
0.0
 20
0.0
 30
0.0
  3
*Model_Space
  1
*Model_Space
  0
ENDBLK
  5
21
330
1F
100
AcDbEntity
  8
0
100
AcDbBlockEnd
  0
BLOCK
  5
1C
330
1B
100
AcDbEntity
 67
     1
  8
0
100
AcDbBlockBegin
  2
*Paper_Space
 70
     0
 10
0.0
 20
0.0
 30
0.0
  3
*Paper_Space
  1
*Paper_Space
  0
ENDBLK
  5
1D
330
1B
100
AcDbEntity
 67
     1
  8
0
100
AcDbBlockEnd
  0
BLOCK
  5
24
330
23
100
AcDbEntity
  8
0
100
AcDbBlockBegin
  2
*Paper_Space0
 70
     0
 10
0.0
 20
0.0
 30
0.0
  3
*Paper_Space0
  1
*Paper_Space0
  0
ENDBLK
  5
25
330
23
100
AcDbEntity
  8
0
100
AcDbBlockEnd
  0
BLOCK
  5
80
330
7F
100
AcDbEntity
  8
0
100
AcDbBlockBegin
  2
블럭10
 70
     2
 10
0.0
 20
0.0
 30
0.0
  3
블럭10
  1
블럭10
  0
ELLIPSE
  5
82
330
7F
100
AcDbEntity
  8
중심선
100
AcDbEllipse
 10
20.54032771741204
 20
12.0471743016438
 30
0.0
 11
6.600054785286829
 21
-1.261213355974178E-13
 31
0.0
210
0.0
220
0.0
230
1.0
 40
0.636358354079598
 41
0.9219305317359503
 42
6.513795318482858
  0
ELLIPSE
  5
83
330
7F
100
AcDbEntity
  8
중심선
100
AcDbEllipse
 10
20.54032771746488
 20
12.04717430159265
 30
0.0
 11
3.960054785062283
 21
1.540847449632565E-10
 31
0.0
210
0.0
220
0.0
230
1.0
 40
0.3939339440162632
 41
1.131841032648279
 42
5.62031148352944
  0
LINE
  5
84
330
7F
100
AcDbEntity
  8
중심선
100
AcDbLine
 10
2.268634060543552
 20
16.24717430164393
 30
0.0
 11
5.714909304380834
 21
16.24717430164393
 31
0.0
  0
LINE
  5
85
330
7F
100
AcDbEntity
  8
중심선
100
AcDbLine
 10
5.245725140726316
 20
7.84717430164391
 30
0.0
 11
8.692000384563599
 21
7.84717430164391
 31
0.0
  0
LINE
  5
86
330
7F
100
AcDbEntity
  8
중심선
100
AcDbLine
 10
15.74043728645272
 20
16.24717430164393
 30
0.0
 11
8.692000384563599
 21
7.84717430164391
 31
0.0
  0
LINE
  5
87
330
7F
100
AcDbEntity
  8
중심선
100
AcDbLine
 10
0.1404042013395286
 20
13.71084872107135
 30
0.0
 11
3.58671253028996
 21
13.71088815037384
 31
0.0
  0
LINE
  5
88
330
7F
100
AcDbEntity
  8
중심선
100
AcDbLine
 10
2.750260043222114
 20
10.84717430164391
 30
0.0
 11
6.196535287059397
 21
10.84717430164391
 31
0.0
  0
LINE
  5
89
330
7F
100
AcDbEntity
  8
중심선
100
AcDbLine
 10
12.29416204261559
 20
16.24717430164393
 30
0.0
 11
5.245725140726316
 21
7.84717430164391
 31
0.0
  0
LINE
  5
8A
330
7F
100
AcDbEntity
  8
중심선
100
AcDbLine
 10
10.72767329541681
 20
16.24717430164393
 30
0.0
 11
6.196535287059397
 21
10.84717430164391
 31
0.0
  0
LINE
  5
8B
330
7F
100
AcDbEntity
  8
중심선
100
AcDbLine
 10
7.28139805157953
 20
16.24717430164393
 30
0.0
 11
2.750260043222114
 21
10.84717430164391
 31
0.0
  0
LINE
  5
8C
330
7F
100
AcDbEntity
  8
중심선
100
AcDbLine
 10
5.714909304380834
 20
16.24717430164393
 30
0.0
 11
3.58671253028996
 21
13.71088815037384
 31
0.0
  0
LINE
  5
8D
330
7F
100
AcDbEntity
  8
중심선
100
AcDbLine
 10
2.268634060543552
 20
16.24717430164393
 30
0.0
 11
0.1404042013395286
 21
13.71084872107135
 31
0.0
  0
LINE
  5
8E
330
7F
100
AcDbEntity
  8
중심선
100
AcDbLine
 10
7.28139805157953
 20
16.24717430164393
 30
0.0
 11
10.72767329541681
 21
16.24717430164393
 31
0.0
  0
LINE
  5
8F
330
7F
100
AcDbEntity
  8
중심선
100
AcDbLine
 10
12.29416204261559
 20
16.24717430164393
 30
0.0
 11
15.74043728645272
 21
16.24717430164393
 31
0.0
  0
LINE
  5
90
330
7F
100
AcDbEntity
  8
중심선
100
AcDbLine
 10
19.22036997980202
 20
11.08717430171403
 30
0.0
 11
23.66174974927406
 21
11.08717430171406
 31
0.0
  0
LINE
  5
91
330
7F
100
AcDbEntity
  8
중심선
100
AcDbLine
 10
19.22039502424796
 20
13.00717430171391
 30
0.0
 11
19.22036997980202
 21
11.08717430171403
 31
0.0
  0
LINE
  5
92
330
7F
100
AcDbEntity
  8
중심선
100
AcDbLine
 10
19.22039502424796
 20
13.00717430171391
 30
0.0
 11
26.96566020931264
 21
13.00717430171391
 31
0.0
  0
LINE
  5
93
330
7F
100
AcDbEntity
  8
중심선
100
AcDbLine
 10
22.22332737316547
 20
13.45928029700563
 30
0.0
 11
24.52862924686651
 21
15.39360700705356
 31
0.0
  0
ATTDEF
  5
95
330
7F
100
AcDbEntity
  8
FORMAT
 62
     2
100
AcDbText
 10
4.408487351596664
 20
2.075366912832191
 30
0.0
 40
4.233333333333333
  1
E2006011
 41
0.75
  7
SLDTEXTSTYLE0
 11
4.408487351596664
 21
-0.0412997538344756
 31
0.0
100
AcDbAttributeDefinition
  3

  2
AUTOATTR0
 70
     0
 74
     1
  0
ENDBLK
  5
81
330
7F
100
AcDbEntity
  8
0
100
AcDbBlockEnd
  0
BLOCK
  5
DC
330
DB
100
AcDbEntity
  8
0
100
AcDbBlockBegin
  2
_D
 70
     0
 10
0.0
 20
0.0
 30
0.0
  3
_D
  1
_D
  0
LINE
  5
DE
330
DB
100
AcDbEntity
  8
치수문자_일반주서
 62
     0
370
    -2
100
AcDbLine
 10
41.33750000000001
 20
2.182812500000005
 30
0.0
 11
55.7344303416489
 21
2.182812500000058
 31
0.0
  0
LINE
  5
DF
330
DB
100
AcDbEntity
  8
치수문자_일반주서
 62
     0
370
    -2
100
AcDbLine
 10
41.33750000000001
 20
-2.182812499999994
 30
0.0
 11
55.73443034164892
 21
-2.18281249999994
 31
0.0
  0
LINE
  5
E0
330
DB
100
AcDbEntity
  8
치수문자_일반주서
 62
     0
370
    -2
100
AcDbLine
 10
55.7344303416489
 20
2.182812500000058
 30
0.0
 11
55.73443034164878
 21
38.53681250000005
 31
0.0
  0
LINE
  5
E1
330
DB
100
AcDbEntity
  8
치수문자_일반주서
 62
     0
370
    -2
100
AcDbLine
 10
55.7344303416489
 20
2.182812500000058
 30
0.0
 11
55.73443034164892
 21
-2.18281249999994
 31
0.0
  0
LINE
  5
E2
330
DB
100
AcDbEntity
  8
치수문자_일반주서
 62
     0
370
    -2
100
AcDbLine
 10
55.73443034164889
 20
5.484812500000057
 30
0.0
 11
55.73443034164887
 21
8.786812500000057
 31
0.0
  0
LINE
  5
E3
330
DB
100
AcDbEntity
  8
치수문자_일반주서
 62
     0
370
    -2
100
AcDbLine
 10
55.73443034164893
 20
-5.48481249999994
 30
0.0
 11
55.73443034164895
 21
-8.78681249999994
 31
0.0
  0
SOLID
  5
E4
330
DB
100
AcDbEntity
  8
치수문자_일반주서
 62
     0
100
AcDbTrace
 10
55.18409700831555
 20
5.484812500000055
 30
0.0
 11
56.28476367498222
 21
5.484812500000059
 31
0.0
 12
55.7344303416489
 22
2.182812500000058
 32
0.0
 13
55.7344303416489
 23
2.182812500000058
 33
0.0
  0
SOLID
  5
E5
330
DB
100
AcDbEntity
  8
치수문자_일반주서
 62
     0
100
AcDbTrace
 10
56.28476367498227
 20
-5.484812499999938
 30
0.0
 11
55.1840970083156
 21
-5.484812499999942
 31
0.0
 12
55.73443034164892
 22
-2.18281249999994
 32
0.0
 13
55.73443034164892
 23
-2.18281249999994
 33
0.0
  0
MTEXT
  5
E6
330
DB
100
AcDbEntity
  8
치수문자_일반주서
 62
     0
100
AcDbMText
 10
51.35943034164883
 20
23.66181250000004
 30
0.0
 40
3.5
 41
0.0
 71
     2
 72
     1
  1
\A1;%%c4.37 [11/64]
  7
SLDTEXTSTYLE0
 11
-3.255170729323294E-15
 21
1.0
 31
0.0
 73
     1
 44
1.0
  0
POINT
  5
E7
330
DB
100
AcDbEntity
  8
Defpoints
 62
     0
100
AcDbPoint
 10
41.27500000000001
 20
2.182812500000005
 30
0.0
  0
POINT
  5
E8
330
DB
100
AcDbEntity
  8
Defpoints
 62
     0
100
AcDbPoint
 10
41.27500000000001
 20
-2.182812499999995
 30
0.0
  0
POINT
  5
E9
330
DB
100
AcDbEntity
  8
Defpoints
 62
     0
100
AcDbPoint
 10
55.73443034164892
 20
-2.182812499999941
 30
0.0
  0
ENDBLK
  5
DD
330
DB
100
AcDbEntity
  8
0
100
AcDbBlockEnd
  0
BLOCK
  5
F1
330
F0
100
AcDbEntity
  8
0
100
AcDbBlockBegin
  2
_D_1
 70
     0
 10
0.0
 20
0.0
 30
0.0
  3
_D_1
  1
_D_1
  0
LINE
  5
F3
330
F0
100
AcDbEntity
  8
치수문자_일반주서
 62
     0
370
    -2
100
AcDbLine
 10
41.27500000000002
 20
2.245312500000004
 30
0.0
 11
41.27500000000002
 21
11.77734062860667
 31
0.0
  0
LINE
  5
F4
330
F0
100
AcDbEntity
  8
치수문자_일반주서
 62
     0
370
    -2
100
AcDbLine
 10
19.05
 20
2.245312499999998
 30
0.0
 11
19.05
 21
11.77734062860667
 31
0.0
  0
LINE
  5
F5
330
F0
100
AcDbEntity
  8
치수문자_일반주서
 62
     0
370
    -2
100
AcDbLine
 10
19.05
 20
11.77734062860667
 30
0.0
 11
-13.80399999999999
 21
11.77734062860667
 31
0.0
  0
LINE
  5
F6
330
F0
100
AcDbEntity
  8
치수문자_일반주서
 62
     0
370
    -2
100
AcDbLine
 10
41.27500000000002
 20
11.77734062860667
 30
0.0
 11
19.05
 21
11.77734062860667
 31
0.0
  0
LINE
  5
F7
330
F0
100
AcDbEntity
  8
치수문자_일반주서
 62
     0
370
    -2
100
AcDbLine
 10
44.57700000000002
 20
11.77734062860667
 30
0.0
 11
47.87900000000002
 21
11.77734062860667
 31
0.0
  0
LINE
  5
F8
330
F0
100
AcDbEntity
  8
치수문자_일반주서
 62
     0
370
    -2
100
AcDbLine
 10
15.748
 20
11.77734062860667
 30
0.0
 11
12.44600000000001
 21
11.77734062860667
 31
0.0
  0
SOLID
  5
F9
330
F0
100
AcDbEntity
  8
치수문자_일반주서
 62
     0
100
AcDbTrace
 10
44.57700000000002
 20
12.32767396194
 30
0.0
 11
44.57700000000002
 21
11.22700729527333
 31
0.0
 12
41.27500000000002
 22
11.77734062860667
 32
0.0
 13
41.27500000000002
 23
11.77734062860667
 33
0.0
  0
SOLID
  5
FA
330
F0
100
AcDbEntity
  8
치수문자_일반주서
 62
     0
100
AcDbTrace
 10
15.748
 20
11.22700729527333
 30
0.0
 11
15.748
 21
12.32767396194
 31
0.0
 12
19.05
 22
11.77734062860667
 32
0.0
 13
19.05
 23
11.77734062860667
 33
0.0
  0
MTEXT
  5
FB
330
F0
100
AcDbEntity
  8
치수문자_일반주서
 62
     0
100
AcDbMText
 10
-0.6789999999999949
 20
16.15234062860667
 30
0.0
 40
3.5
 41
0.0
 71
     2
 72
     1
  1
\A1;22.23 [7/8]
  7
SLDTEXTSTYLE0
 73
     1
 44
1.0
  0
POINT
  5
FC
330
F0
100
AcDbEntity
  8
Defpoints
 62
     0
100
AcDbPoint
 10
41.27500000000002
 20
2.182812500000004
 30
0.0
  0
POINT
  5
301
330
F0
100
AcDbEntity
  8
Defpoints
 62
     0
100
AcDbPoint
 10
19.05
 20
2.182812499999998
 30
0.0
  0
POINT
  5
302
330
F0
100
AcDbEntity
  8
Defpoints
 62
     0
100
AcDbPoint
 10
19.05
 20
11.77734062860667
 30
0.0
  0
ENDBLK
  5
F2
330
F0
100
AcDbEntity
  8
0
100
AcDbBlockEnd
  0
BLOCK
  5
105
330
104
100
AcDbEntity
  8
0
100
AcDbBlockBegin
  2
_D_2
 70
     0
 10
0.0
 20
0.0
 30
0.0
  3
_D_2
  1
_D_2
  0
LINE
  5
107
330
104
100
AcDbEntity
  8
치수문자_일반주서
 62
     0
370
    -2
100
AcDbLine
 10
41.27500000000002
 20
2.245312500000004
 30
0.0
 11
41.27500000000002
 21
27.34010955957625
 31
0.0
  0
LINE
  5
108
330
104
100
AcDbEntity
  8
치수문자_일반주서
 62
     0
370
    -2
100
AcDbLine
 10
-41.27500000000003
 20
2.24531249999999
 30
0.0
 11
-41.27500000000003
 21
27.34010955957625
 31
0.0
  0
LINE
  5
109
330
104
100
AcDbEntity
  8
치수문자_일반주서
 62
     0
370
    -2
100
AcDbLine
 10
37.97300000000002
 20
27.34010955957625
 30
0.0
 11
-37.97300000000003
 21
27.34010955957625
 31
0.0
  0
SOLID
  5
10A
330
104
100
AcDbEntity
  8
치수문자_일반주서
 62
     0
100
AcDbTrace
 10
37.97300000000002
 20
26.78977622624291
 30
0.0
 11
37.97300000000002
 21
27.89044289290958
 31
0.0
 12
41.27500000000002
 22
27.34010955957625
 32
0.0
 13
41.27500000000002
 23
27.34010955957625
 33
0.0
  0
SOLID
  5
10B
330
104
100
AcDbEntity
  8
치수문자_일반주서
 62
     0
100
AcDbTrace
 10
-37.97300000000003
 20
27.89044289290958
 30
0.0
 11
-37.97300000000003
 21
26.78977622624291
 31
0.0
 12
-41.27500000000003
 22
27.34010955957625
 32
0.0
 13
-41.27500000000003
 23
27.34010955957625
 33
0.0
  0
MTEXT
  5
10C
330
104
100
AcDbEntity
  8
치수문자_일반주서
 62
     0
100
AcDbMText
 10
-2.106259257730476
 20
31.71510955957625
 30
0.0
 40
3.5
 41
0.0
 71
     2
 72
     1
  1
\A1;82.55 [3 1/4]
  7
SLDTEXTSTYLE0
 73
     1
 44
1.0
  0
POINT
  5
10D
330
104
100
AcDbEntity
  8
Defpoints
 62
     0
100
AcDbPoint
 10
41.27500000000002
 20
2.182812500000004
 30
0.0
  0
POINT
  5
10E
330
104
100
AcDbEntity
  8
Defpoints
 62
     0
100
AcDbPoint
 10
-41.27500000000003
 20
2.18281249999999
 30
0.0
  0
POINT
  5
10F
330
104
100
AcDbEntity
  8
Defpoints
 62
     0
100
AcDbPoint
 10
-41.27500000000003
 20
27.34010955957625
 30
0.0
  0
ENDBLK
  5
106
330
104
100
AcDbEntity
  8
0
100
AcDbBlockEnd
  0
BLOCK
  5
118
330
117
100
AcDbEntity
  8
0
100
AcDbBlockBegin
  2
_D_3
 70
     0
 10
0.0
 20
0.0
 30
0.0
  3
_D_3
  1
_D_3
  0
LINE
  5
11A
330
117
100
AcDbEntity
  8
치수문자_일반주서
 62
     0
370
    -2
100
AcDbLine
 10
-17.37192116787304
 20
2.381250000000001
 30
0.0
 11
-54.27500000000001
 21
2.381249999999863
 31
0.0
  0
LINE
  5
11B
330
117
100
AcDbEntity
  8
치수문자_일반주서
 62
     0
370
    -2
100
AcDbLine
 10
-17.37192116787305
 20
-2.381250000000006
 30
0.0
 11
-54.27499999999999
 21
-2.381250000000144
 31
0.0
  0
LINE
  5
11C
330
117
100
AcDbEntity
  8
치수문자_일반주서
 62
     0
370
    -2
100
AcDbLine
 10
-54.275
 20
-0.9207500000001367
 30
0.0
 11
-54.275
 21
0.9207499999998552
 31
0.0
  0
SOLID
  5
11D
330
117
100
AcDbEntity
  8
치수문자_일반주서
 62
     0
100
AcDbTrace
 10
-53.72466666666666
 20
-0.9207500000001351
 30
0.0
 11
-54.82533333333333
 21
-0.9207500000001384
 31
0.0
 12
-54.27500000000001
 22
2.381249999999863
 32
0.0
 13
-54.27500000000001
 23
2.381249999999863
 33
0.0
  0
SOLID
  5
11E
330
117
100
AcDbEntity
  8
치수문자_일반주서
 62
     0
100
AcDbTrace
 10
-54.82533333333333
 20
0.9207499999998535
 30
0.0
 11
-53.72466666666666
 21
0.9207499999998568
 31
0.0
 12
-54.27499999999999
 22
-2.381250000000144
 32
0.0
 13
-54.27499999999999
 23
-2.381250000000144
 33
0.0
  0
MTEXT
  5
11F
330
117
100
AcDbEntity
  8
치수문자_일반주서
 62
     0
100
AcDbMText
 10
-58.65
 20
-0.0000000000000133
 30
0.0
 40
3.5
 41
0.0
 71
     2
 72
     1
  1
\A1;%%c4.76 [3/16]
  7
SLDTEXTSTYLE0
 11
-2.983906501879682E-15
 21
1.0
 31
0.0
 73
     1
 44
1.0
  0
POINT
  5
120
330
117
100
AcDbEntity
  8
Defpoints
 62
     0
100
AcDbPoint
 10
-17.30942116787304
 20
2.381250000000002
 30
0.0
  0
POINT
  5
121
330
117
100
AcDbEntity
  8
Defpoints
 62
     0
100
AcDbPoint
 10
-17.30942116787305
 20
-2.381250000000005
 30
0.0
  0
POINT
  5
122
330
117
100
AcDbEntity
  8
Defpoints
 62
     0
100
AcDbPoint
 10
-54.27499999999999
 20
-2.381250000000144
 30
0.0
  0
ENDBLK
  5
119
330
117
100
AcDbEntity
  8
0
100
AcDbBlockEnd
  0
BLOCK
  5
132
330
131
100
AcDbEntity
  8
0
100
AcDbBlockBegin
  2
SW_DOWELSYMBOL_0
 70
     0
 10
0.0
 20
0.0
 30
0.0
  3
SW_DOWELSYMBOL_0
  1
SW_DOWELSYMBOL_0
  0
CIRCLE
  5
134
330
131
100
AcDbEntity
  8
해칭선
 62
     0
100
AcDbCircle
 10
0.0
 20
0.0
 30
0.0
 40
3.000000000000001
  0
HATCH
  5
135
330
131
100
AcDbEntity
  8
0
  6
Continuous
 62
     0
370
     0
100
AcDbHatch
 10
0.0
 20
0.0
 30
0.0
210
0.0
220
0.0
230
1.0
  2
SOLID
 70
     1
 71
     0
 91
        1
 92
        0
 93
        3
 72
     2
 10
0.0
 20
0.0
 40
3.000000000000001
 50
0.0
 51
90.0
 73
     1
 72
     1
 10
0.0
 20
3.000000000000001
 11
0.0
 21
0.0
 72
     1
 10
0.0
 20
0.0
 11
3.000000000000003
 21
0.0
 97
        0
 75
     0
 76
     1
 98
        1
 10
0.0
 20
0.0
  0
HATCH
  5
136
330
131
100
AcDbEntity
  8
0
  6
Continuous
 62
     0
370
     0
100
AcDbHatch
 10
0.0
 20
0.0
 30
0.0
210
0.0
220
0.0
230
1.0
  2
SOLID
 70
     1
 71
     0
 91
        1
 92
        0
 93
        3
 72
     2
 10
0.0
 20
0.0
 40
3.000000000000001
 50
180.0
 51
270.0000000000007
 73
     1
 72
     1
 10
0.0
 20
-3.000000000000001
 11
0.0
 21
0.0
 72
     1
 10
0.0
 20
0.0
 11
-3.000000000000001
 21
0.0
 97
        0
 75
     0
 76
     1
 98
        1
 10
0.0
 20
0.0
  0
ENDBLK
  5
133
330
131
100
AcDbEntity
  8
0
100
AcDbBlockEnd
  0
BLOCK
  5
22E
330
22D
100
AcDbEntity
  8
0
100
AcDbBlockBegin
  2
*D7
 70
     1
 10
0.0
 20
0.0
 30
0.0
  3
*D7
  1
*D8
  0
LINE
  5
230
330
22D
100
AcDbEntity
  8
치수문자_일반주서
 62
     0
370
    -2
100
AcDbLine
 10
99.98750000000007
 20
15.10937500000002
 30
0.0
 11
113.3355593922136
 21
15.10937500000007
 31
0.0
  0
LINE
  5
231
330
22D
100
AcDbEntity
  8
치수문자_일반주서
 62
     0
370
    -2
100
AcDbLine
 10
99.98750000000004
 20
11.14062500000002
 30
0.0
 11
113.3355593922136
 21
11.14062500000007
 31
0.0
  0
LINE
  5
232
330
22D
100
AcDbEntity
  8
치수문자_일반주서
 62
     0
370
    -2
100
AcDbLine
 10
113.3355593922136
 20
15.10937500000007
 30
0.0
 11
113.3355593922134
 21
50.58837500000007
 31
0.0
  0
LINE
  5
233
330
22D
100
AcDbEntity
  8
치수문자_일반주서
 62
     0
370
    -2
100
AcDbLine
 10
113.3355593922136
 20
15.10937500000007
 30
0.0
 11
113.3355593922136
 21
11.14062500000007
 31
0.0
  0
LINE
  5
234
330
22D
100
AcDbEntity
  8
치수문자_일반주서
 62
     0
370
    -2
100
AcDbLine
 10
113.3355593922136
 20
18.41137500000007
 30
0.0
 11
113.3355593922135
 21
21.71337500000007
 31
0.0
  0
LINE
  5
235
330
22D
100
AcDbEntity
  8
치수문자_일반주서
 62
     0
370
    -2
100
AcDbLine
 10
113.3355593922136
 20
7.838625000000071
 30
0.0
 11
113.3355593922136
 21
4.536625000000072
 31
0.0
  0
SOLID
  5
236
330
22D
100
AcDbEntity
  8
치수문자_일반주서
 62
     0
100
AcDbTrace
 10
112.7852260588802
 20
18.41137500000007
 30
0.0
 11
113.8858927255469
 21
18.41137500000007
 31
0.0
 12
113.3355593922136
 22
15.10937500000007
 32
0.0
 13
113.3355593922136
 23
15.10937500000007
 33
0.0
  0
SOLID
  5
237
330
22D
100
AcDbEntity
  8
치수문자_일반주서
 62
     0
100
AcDbTrace
 10
113.8858927255469
 20
7.838625000000073
 30
0.0
 11
112.7852260588803
 21
7.83862500000007
 31
0.0
 12
113.3355593922136
 22
11.14062500000007
 32
0.0
 13
113.3355593922136
 23
11.14062500000007
 33
0.0
  0
MTEXT
  5
238
330
22D
100
AcDbEntity
  8
치수문자_일반주서
 62
     0
100
AcDbMText
 10
108.9605593922135
 20
36.15087500000006
 30
0.0
 40
3.5
 41
0.0
 71
     2
 72
     1
  1
\A1;%%c3.97 [5/32]
  7
SLDTEXTSTYLE0
 11
-3.580687802255623E-15
 21
1.0
 31
0.0
 73
     1
 44
1.0
  0
POINT
  5
239
330
22D
100
AcDbEntity
  8
Defpoints
 62
     0
100
AcDbPoint
 10
99.92500000000007
 20
15.10937500000002
 30
0.0
  0
POINT
  5
23A
330
22D
100
AcDbEntity
  8
Defpoints
 62
     0
100
AcDbPoint
 10
99.92500000000004
 20
11.14062500000002
 30
0.0
  0
POINT
  5
23B
330
22D
100
AcDbEntity
  8
Defpoints
 62
     0
100
AcDbPoint
 10
113.3355593922136
 20
11.14062500000007
 30
0.0
  0
ENDBLK
  5
22F
330
22D
100
AcDbEntity
  8
0
100
AcDbBlockEnd
  0
BLOCK
  5
23D
330
23C
100
AcDbEntity
  8
0
100
AcDbBlockBegin
  2
*D8
 70
     1
 10
0.0
 20
0.0
 30
0.0
  3
*D8
  1
*D9
  0
LINE
  5
23F
330
23C
100
AcDbEntity
  8
치수문자_일반주서
 62
     0
370
    -2
100
AcDbLine
 10
99.92500000000007
 20
15.17187500000002
 30
0.0
 11
99.92500000000007
 21
27.90635178847301
 31
0.0
  0
LINE
  5
240
330
23C
100
AcDbEntity
  8
치수문자_일반주서
 62
     0
370
    -2
100
AcDbLine
 10
77.70000000000005
 20
15.1006060425387
 30
0.0
 11
77.70000000000005
 21
27.90635178847301
 31
0.0
  0
LINE
  5
241
330
23C
100
AcDbEntity
  8
치수문자_일반주서
 62
     0
370
    -2
100
AcDbLine
 10
77.70000000000005
 20
27.90635178847301
 30
0.0
 11
44.84600000000005
 21
27.90635178847301
 31
0.0
  0
LINE
  5
242
330
23C
100
AcDbEntity
  8
치수문자_일반주서
 62
     0
370
    -2
100
AcDbLine
 10
99.92500000000007
 20
27.90635178847301
 30
0.0
 11
77.70000000000005
 21
27.90635178847301
 31
0.0
  0
LINE
  5
243
330
23C
100
AcDbEntity
  8
치수문자_일반주서
 62
     0
370
    -2
100
AcDbLine
 10
103.2270000000001
 20
27.90635178847301
 30
0.0
 11
106.5290000000001
 21
27.90635178847301
 31
0.0
  0
LINE
  5
244
330
23C
100
AcDbEntity
  8
치수문자_일반주서
 62
     0
370
    -2
100
AcDbLine
 10
74.39800000000005
 20
27.90635178847301
 30
0.0
 11
71.09600000000006
 21
27.90635178847301
 31
0.0
  0
SOLID
  5
245
330
23C
100
AcDbEntity
  8
치수문자_일반주서
 62
     0
100
AcDbTrace
 10
103.2270000000001
 20
28.45668512180635
 30
0.0
 11
103.2270000000001
 21
27.35601845513968
 31
0.0
 12
99.92500000000007
 22
27.90635178847301
 32
0.0
 13
99.92500000000007
 23
27.90635178847301
 33
0.0
  0
SOLID
  5
246
330
23C
100
AcDbEntity
  8
치수문자_일반주서
 62
     0
100
AcDbTrace
 10
74.39800000000005
 20
27.35601845513968
 30
0.0
 11
74.39800000000005
 21
28.45668512180635
 31
0.0
 12
77.70000000000005
 22
27.90635178847301
 32
0.0
 13
77.70000000000005
 23
27.90635178847301
 33
0.0
  0
MTEXT
  5
247
330
23C
100
AcDbEntity
  8
치수문자_일반주서
 62
     0
100
AcDbMText
 10
57.97100000000005
 20
32.28135178847302
 30
0.0
 40
3.5
 41
0.0
 71
     2
 72
     1
  1
\A1;22.23 [7/8]
  7
SLDTEXTSTYLE0
 73
     1
 44
1.0
  0
POINT
  5
248
330
23C
100
AcDbEntity
  8
Defpoints
 62
     0
100
AcDbPoint
 10
99.92500000000007
 20
15.10937500000002
 30
0.0
  0
POINT
  5
249
330
23C
100
AcDbEntity
  8
Defpoints
 62
     0
100
AcDbPoint
 10
77.70000000000005
 20
15.0381060425387
 30
0.0
  0
POINT
  5
24A
330
23C
100
AcDbEntity
  8
Defpoints
 62
     0
100
AcDbPoint
 10
77.70000000000005
 20
27.90635178847301
 30
0.0
  0
ENDBLK
  5
23E
330
23C
100
AcDbEntity
  8
0
100
AcDbBlockEnd
  0
BLOCK
  5
24C
330
24B
100
AcDbEntity
  8
0
100
AcDbBlockBegin
  2
*D9
 70
     1
 10
0.0
 20
0.0
 30
0.0
  3
*D9
  1
*D10
  0
LINE
  5
24E
330
24B
100
AcDbEntity
  8
치수문자_일반주서
 62
     0
370
    -2
100
AcDbLine
 10
99.92500000000007
 20
15.17187500000002
 30
0.0
 11
99.92500000000007
 21
39.26444279774203
 31
0.0
  0
LINE
  5
24F
330
24B
100
AcDbEntity
  8
치수문자_일반주서
 62
     0
370
    -2
100
AcDbLine
 10
17.37500000000004
 20
15.09250000000002
 30
0.0
 11
17.37500000000004
 21
39.26444279774203
 31
0.0
  0
LINE
  5
250
330
24B
100
AcDbEntity
  8
치수문자_일반주서
 62
     0
370
    -2
100
AcDbLine
 10
96.62300000000008
 20
39.26444279774203
 30
0.0
 11
20.67700000000004
 21
39.26444279774203
 31
0.0
  0
SOLID
  5
251
330
24B
100
AcDbEntity
  8
치수문자_일반주서
 62
     0
100
AcDbTrace
 10
96.62300000000008
 20
38.7141094644087
 30
0.0
 11
96.62300000000008
 21
39.81477613107537
 31
0.0
 12
99.92500000000007
 22
39.26444279774203
 32
0.0
 13
99.92500000000007
 23
39.26444279774203
 33
0.0
  0
SOLID
  5
252
330
24B
100
AcDbEntity
  8
치수문자_일반주서
 62
     0
100
AcDbTrace
 10
20.67700000000004
 20
39.81477613107537
 30
0.0
 11
20.67700000000004
 21
38.7141094644087
 31
0.0
 12
17.37500000000004
 22
39.26444279774203
 32
0.0
 13
17.37500000000004
 23
39.26444279774203
 33
0.0
  0
MTEXT
  5
253
330
24B
100
AcDbEntity
  8
치수문자_일반주서
 62
     0
100
AcDbMText
 10
56.54374074226956
 20
43.63944279774203
 30
0.0
 40
3.5
 41
0.0
 71
     2
 72
     1
  1
\A1;82.55 [3 1/4]
  7
SLDTEXTSTYLE0
 73
     1
 44
1.0
  0
POINT
  5
254
330
24B
100
AcDbEntity
  8
Defpoints
 62
     0
100
AcDbPoint
 10
99.92500000000007
 20
15.10937500000002
 30
0.0
  0
POINT
  5
255
330
24B
100
AcDbEntity
  8
Defpoints
 62
     0
100
AcDbPoint
 10
17.37500000000004
 20
15.03000000000002
 30
0.0
  0
POINT
  5
256
330
24B
100
AcDbEntity
  8
Defpoints
 62
     0
100
AcDbPoint
 10
17.37500000000004
 20
39.26444279774203
 30
0.0
  0
ENDBLK
  5
24D
330
24B
100
AcDbEntity
  8
0
100
AcDbBlockEnd
  0
BLOCK
  5
258
330
257
100
AcDbEntity
  8
0
100
AcDbBlockBegin
  2
*D10
 70
     1
 10
0.0
 20
0.0
 30
0.0
  3
*D10
  1
*D11
  0
LINE
  5
25A
330
257
100
AcDbEntity
  8
치수문자_일반주서
 62
     0
370
    -2
100
AcDbLine
 10
17.78875000000005
 20
15.50625000000002
 30
0.0
 11
4.375000000000035
 21
15.50624999999997
 31
0.0
  0
LINE
  5
25B
330
257
100
AcDbEntity
  8
치수문자_일반주서
 62
     0
370
    -2
100
AcDbLine
 10
17.78875000000005
 20
10.74375000000001
 30
0.0
 11
4.375000000000052
 21
10.74374999999996
 31
0.0
  0
LINE
  5
25C
330
257
100
AcDbEntity
  8
치수문자_일반주서
 62
     0
370
    -2
100
AcDbLine
 10
4.375000000000046
 20
12.20424999999997
 30
0.0
 11
4.37500000000004
 21
14.04574999999996
 31
0.0
  0
SOLID
  5
25D
330
257
100
AcDbEntity
  8
치수문자_일반주서
 62
     0
100
AcDbTrace
 10
4.92533333333338
 20
12.20424999999997
 30
0.0
 11
3.824666666666713
 21
12.20424999999996
 31
0.0
 12
4.375000000000035
 22
15.50624999999997
 32
0.0
 13
4.375000000000035
 23
15.50624999999997
 33
0.0
  0
SOLID
  5
25E
330
257
100
AcDbEntity
  8
치수문자_일반주서
 62
     0
100
AcDbTrace
 10
3.824666666666707
 20
14.04574999999996
 30
0.0
 11
4.925333333333374
 21
14.04574999999996
 31
0.0
 12
4.375000000000052
 22
10.74374999999996
 32
0.0
 13
4.375000000000052
 23
10.74374999999996
 33
0.0
  0
MTEXT
  5
25F
330
257
100
AcDbEntity
  8
치수문자_일반주서
 62
     0
100
AcDbMText
 10
0.0000000000000426
 20
13.125
 30
0.0
 40
3.5
 41
0.0
 71
     2
 72
     1
  1
\A1;%%c4.76 [3/16]
  7
SLDTEXTSTYLE0
 11
-3.543388970982126E-15
 21
1.0
 31
0.0
 73
     1
 44
1.0
  0
POINT
  5
260
330
257
100
AcDbEntity
  8
Defpoints
 62
     0
100
AcDbPoint
 10
17.85125000000005
 20
15.50625000000002
 30
0.0
  0
POINT
  5
261
330
257
100
AcDbEntity
  8
Defpoints
 62
     0
100
AcDbPoint
 10
17.85125000000005
 20
10.74375000000001
 30
0.0
  0
POINT
  5
262
330
257
100
AcDbEntity
  8
Defpoints
 62
     0
100
AcDbPoint
 10
4.37500000000005
 20
10.74374999999996
 30
0.0
  0
ENDBLK
  5
259
330
257
100
AcDbEntity
  8
0
100
AcDbBlockEnd
  0
BLOCK
  5
2CC
330
2CB
100
AcDbEntity
  8
0
100
AcDbBlockBegin
  2
*D11
 70
     1
 10
0.0
 20
0.0
 30
0.0
  3
*D11
  1
*D12
  0
LINE
  5
2CE
330
2CB
100
AcDbEntity
  8
치수문자_일반주서
 62
     0
370
    -2
100
AcDbLine
 10
154.9771413001155
 20
-30.15868339585831
 30
0.0
 11
168.3252006923289
 21
-30.15868339585826
 31
0.0
  0
LINE
  5
2CF
330
2CB
100
AcDbEntity
  8
치수문자_일반주서
 62
     0
370
    -2
100
AcDbLine
 10
154.9771413001154
 20
-34.12743339585831
 30
0.0
 11
168.3252006923289
 21
-34.12743339585826
 31
0.0
  0
LINE
  5
2D0
330
2CB
100
AcDbEntity
  8
치수문자_일반주서
 62
     0
370
    -2
100
AcDbLine
 10
168.3252006923289
 20
-30.15868339585826
 30
0.0
 11
168.3252006923289
 21
5.320316604141738
 31
0.0
  0
LINE
  5
2D1
330
2CB
100
AcDbEntity
  8
치수문자_일반주서
 62
     0
370
    -2
100
AcDbLine
 10
168.3252006923289
 20
-30.15868339585826
 30
0.0
 11
168.3252006923289
 21
-34.12743339585826
 31
0.0
  0
LINE
  5
2D2
330
2CB
100
AcDbEntity
  8
치수문자_일반주서
 62
     0
370
    -2
100
AcDbLine
 10
168.3252006923289
 20
-26.85668339585826
 30
0.0
 11
168.3252006923289
 21
-23.55468339585826
 31
0.0
  0
LINE
  5
2D3
330
2CB
100
AcDbEntity
  8
치수문자_일반주서
 62
     0
370
    -2
100
AcDbLine
 10
168.3252006923289
 20
-37.42943339585826
 30
0.0
 11
168.3252006923289
 21
-40.73143339585826
 31
0.0
  0
SOLID
  5
2D4
330
2CB
100
AcDbEntity
  8
치수문자_일반주서
 62
     0
100
AcDbTrace
 10
167.7748673589956
 20
-26.85668339585826
 30
0.0
 11
168.8755340256622
 21
-26.85668339585826
 31
0.0
 12
168.3252006923289
 22
-30.15868339585826
 32
0.0
 13
168.3252006923289
 23
-30.15868339585826
 33
0.0
  0
SOLID
  5
2D5
330
2CB
100
AcDbEntity
  8
치수문자_일반주서
 62
     0
100
AcDbTrace
 10
168.8755340256622
 20
-37.42943339585826
 30
0.0
 11
167.7748673589956
 21
-37.42943339585826
 31
0.0
 12
168.3252006923289
 22
-34.12743339585826
 32
0.0
 13
168.3252006923289
 23
-34.12743339585826
 33
0.0
  0
MTEXT
  5
2D6
330
2CB
100
AcDbEntity
  8
치수문자_일반주서
 62
     0
100
AcDbMText
 10
163.9502006923289
 20
-9.117183395858262
 30
0.0
 40
3.5
 41
0.0
 71
     2
 72
     1
  1
\A1;%%c3.97 [5/32]
  7
SLDTEXTSTYLE0
 11
0.0
 21
1.0
 31
0.0
 73
     1
 44
1.0
  0
POINT
  5
2D7
330
2CB
100
AcDbEntity
  8
Defpoints
 62
     0
100
AcDbPoint
 10
154.9146413001155
 20
-30.15868339585831
 30
0.0
  0
POINT
  5
2D8
330
2CB
100
AcDbEntity
  8
Defpoints
 62
     0
100
AcDbPoint
 10
154.9146413001154
 20
-34.12743339585831
 30
0.0
  0
POINT
  5
2D9
330
2CB
100
AcDbEntity
  8
Defpoints
 62
     0
100
AcDbPoint
 10
168.325200692329
 20
-34.12743339585826
 30
0.0
  0
ENDBLK
  5
2CD
330
2CB
100
AcDbEntity
  8
0
100
AcDbBlockEnd
  0
BLOCK
  5
2DB
330
2DA
100
AcDbEntity
  8
0
100
AcDbBlockBegin
  2
*D12
 70
     1
 10
0.0
 20
0.0
 30
0.0
  3
*D12
  1
*D13
  0
LINE
  5
2DD
330
2DA
100
AcDbEntity
  8
치수문자_일반주서
 62
     0
370
    -2
100
AcDbLine
 10
154.9146413001155
 20
-30.09618339585831
 30
0.0
 11
154.9146413001155
 21
-17.36170660738532
 31
0.0
  0
LINE
  5
2DE
330
2DA
100
AcDbEntity
  8
치수문자_일반주서
 62
     0
370
    -2
100
AcDbLine
 10
132.6896413001155
 20
-30.16745235331964
 30
0.0
 11
132.6896413001155
 21
-17.36170660738532
 31
0.0
  0
LINE
  5
2DF
330
2DA
100
AcDbEntity
  8
치수문자_일반주서
 62
     0
370
    -2
100
AcDbLine
 10
132.6896413001155
 20
-17.36170660738532
 30
0.0
 11
99.83564130011544
 21
-17.36170660738532
 31
0.0
  0
LINE
  5
2E0
330
2DA
100
AcDbEntity
  8
치수문자_일반주서
 62
     0
370
    -2
100
AcDbLine
 10
154.9146413001155
 20
-17.36170660738532
 30
0.0
 11
132.6896413001155
 21
-17.36170660738532
 31
0.0
  0
LINE
  5
2E1
330
2DA
100
AcDbEntity
  8
치수문자_일반주서
 62
     0
370
    -2
100
AcDbLine
 10
158.2166413001155
 20
-17.36170660738532
 30
0.0
 11
161.5186413001155
 21
-17.36170660738532
 31
0.0
  0
LINE
  5
2E2
330
2DA
100
AcDbEntity
  8
치수문자_일반주서
 62
     0
370
    -2
100
AcDbLine
 10
129.3876413001155
 20
-17.36170660738532
 30
0.0
 11
126.0856413001155
 21
-17.36170660738532
 31
0.0
  0
SOLID
  5
2E3
330
2DA
100
AcDbEntity
  8
치수문자_일반주서
 62
     0
100
AcDbTrace
 10
158.2166413001155
 20
-16.81137327405198
 30
0.0
 11
158.2166413001155
 21
-17.91203994071865
 31
0.0
 12
154.9146413001155
 22
-17.36170660738532
 32
0.0
 13
154.9146413001155
 23
-17.36170660738532
 33
0.0
  0
SOLID
  5
2E4
330
2DA
100
AcDbEntity
  8
치수문자_일반주서
 62
     0
100
AcDbTrace
 10
129.3876413001155
 20
-17.91203994071865
 30
0.0
 11
129.3876413001155
 21
-16.81137327405198
 31
0.0
 12
132.6896413001155
 22
-17.36170660738532
 32
0.0
 13
132.6896413001155
 23
-17.36170660738532
 33
0.0
  0
MTEXT
  5
2E5
330
2DA
100
AcDbEntity
  8
치수문자_일반주서
 62
     0
100
AcDbMText
 10
112.9606413001154
 20
-12.98670660738532
 30
0.0
 40
3.5
 41
0.0
 71
     2
 72
     1
  1
\A1;22.23 [7/8]
  7
SLDTEXTSTYLE0
 73
     1
 44
1.0
  0
POINT
  5
2E6
330
2DA
100
AcDbEntity
  8
Defpoints
 62
     0
100
AcDbPoint
 10
154.9146413001155
 20
-30.15868339585831
 30
0.0
  0
POINT
  5
2E7
330
2DA
100
AcDbEntity
  8
Defpoints
 62
     0
100
AcDbPoint
 10
132.6896413001155
 20
-30.22995235331964
 30
0.0
  0
POINT
  5
2E8
330
2DA
100
AcDbEntity
  8
Defpoints
 62
     0
100
AcDbPoint
 10
132.6896413001155
 20
-17.36170660738532
 30
0.0
  0
ENDBLK
  5
2DC
330
2DA
100
AcDbEntity
  8
0
100
AcDbBlockEnd
  0
BLOCK
  5
2EA
330
2E9
100
AcDbEntity
  8
0
100
AcDbBlockBegin
  2
*D13
 70
     1
 10
0.0
 20
0.0
 30
0.0
  3
*D13
  1
*D14
  0
LINE
  5
2EC
330
2E9
100
AcDbEntity
  8
치수문자_일반주서
 62
     0
370
    -2
100
AcDbLine
 10
154.9146413001155
 20
-30.09618339585831
 30
0.0
 11
154.9146413001155
 21
-6.003615598116298
 31
0.0
  0
LINE
  5
2ED
330
2E9
100
AcDbEntity
  8
치수문자_일반주서
 62
     0
370
    -2
100
AcDbLine
 10
72.36464130011544
 20
-30.17555839585832
 30
0.0
 11
72.36464130011544
 21
-6.003615598116298
 31
0.0
  0
LINE
  5
2EE
330
2E9
100
AcDbEntity
  8
치수문자_일반주서
 62
     0
370
    -2
100
AcDbLine
 10
151.6126413001155
 20
-6.003615598116298
 30
0.0
 11
75.66664130011543
 21
-6.003615598116298
 31
0.0
  0
SOLID
  5
2EF
330
2E9
100
AcDbEntity
  8
치수문자_일반주서
 62
     0
100
AcDbTrace
 10
151.6126413001155
 20
-6.553948931449631
 30
0.0
 11
151.6126413001155
 21
-5.453282264782964
 31
0.0
 12
154.9146413001155
 22
-6.003615598116298
 32
0.0
 13
154.9146413001155
 23
-6.003615598116298
 33
0.0
  0
SOLID
  5
2F0
330
2E9
100
AcDbEntity
  8
치수문자_일반주서
 62
     0
100
AcDbTrace
 10
75.66664130011543
 20
-5.453282264782964
 30
0.0
 11
75.66664130011543
 21
-6.553948931449631
 31
0.0
 12
72.36464130011544
 22
-6.003615598116298
 32
0.0
 13
72.36464130011544
 23
-6.003615598116298
 33
0.0
  0
MTEXT
  5
2F1
330
2E9
100
AcDbEntity
  8
치수문자_일반주서
 62
     0
100
AcDbMText
 10
111.533382042385
 20
-1.628615598116298
 30
0.0
 40
3.5
 41
0.0
 71
     2
 72
     1
  1
\A1;82.55 [3 1/4]
  7
SLDTEXTSTYLE0
 73
     1
 44
1.0
  0
POINT
  5
2F2
330
2E9
100
AcDbEntity
  8
Defpoints
 62
     0
100
AcDbPoint
 10
154.9146413001155
 20
-30.15868339585831
 30
0.0
  0
POINT
  5
2F3
330
2E9
100
AcDbEntity
  8
Defpoints
 62
     0
100
AcDbPoint
 10
72.36464130011544
 20
-30.23805839585832
 30
0.0
  0
POINT
  5
2F4
330
2E9
100
AcDbEntity
  8
Defpoints
 62
     0
100
AcDbPoint
 10
72.36464130011544
 20
-6.003615598116298
 30
0.0
  0
ENDBLK
  5
2EB
330
2E9
100
AcDbEntity
  8
0
100
AcDbBlockEnd
  0
BLOCK
  5
2F6
330
2F5
100
AcDbEntity
  8
0
100
AcDbBlockBegin
  2
*D14
 70
     1
 10
0.0
 20
0.0
 30
0.0
  3
*D14
  1
*D15
  0
LINE
  5
2F8
330
2F5
100
AcDbEntity
  8
치수문자_일반주서
 62
     0
370
    -2
100
AcDbLine
 10
72.77839130011544
 20
-29.76180839585832
 30
0.0
 11
59.36464130011543
 21
-29.76180839585837
 31
0.0
  0
LINE
  5
2F9
330
2F5
100
AcDbEntity
  8
치수문자_일반주서
 62
     0
370
    -2
100
AcDbLine
 10
72.77839130011544
 20
-34.52430839585832
 30
0.0
 11
59.36464130011544
 21
-34.52430839585837
 31
0.0
  0
LINE
  5
2FA
330
2F5
100
AcDbEntity
  8
치수문자_일반주서
 62
     0
370
    -2
100
AcDbLine
 10
59.36464130011544
 20
-33.06380839585837
 30
0.0
 11
59.36464130011544
 21
-31.22230839585837
 31
0.0
  0
SOLID
  5
2FB
330
2F5
100
AcDbEntity
  8
치수문자_일반주서
 62
     0
100
AcDbTrace
 10
59.91497463344877
 20
-33.06380839585837
 30
0.0
 11
58.8143079667821
 21
-33.06380839585837
 31
0.0
 12
59.36464130011543
 22
-29.76180839585837
 32
0.0
 13
59.36464130011543
 23
-29.76180839585837
 33
0.0
  0
SOLID
  5
2FC
330
2F5
100
AcDbEntity
  8
치수문자_일반주서
 62
     0
100
AcDbTrace
 10
58.8143079667821
 20
-31.22230839585837
 30
0.0
 11
59.91497463344877
 21
-31.22230839585837
 31
0.0
 12
59.36464130011544
 22
-34.52430839585837
 32
0.0
 13
59.36464130011544
 23
-34.52430839585837
 33
0.0
  0
MTEXT
  5
2FD
330
2F5
100
AcDbEntity
  8
치수문자_일반주서
 62
     0
100
AcDbMText
 10
54.98964130011544
 20
-32.14305839585833
 30
0.0
 40
3.5
 41
0.0
 71
     2
 72
     1
  1
\A1;%%c4.76 [3/16]
  7
SLDTEXTSTYLE0
 11
-2.983906501879684E-15
 21
1.0
 31
0.0
 73
     1
 44
1.0
  0
POINT
  5
2FE
330
2F5
100
AcDbEntity
  8
Defpoints
 62
     0
100
AcDbPoint
 10
72.84089130011544
 20
-29.76180839585832
 30
0.0
  0
POINT
  5
2FF
330
2F5
100
AcDbEntity
  8
Defpoints
 62
     0
100
AcDbPoint
 10
72.84089130011544
 20
-34.52430839585832
 30
0.0
  0
POINT
  5
300
330
2F5
100
AcDbEntity
  8
Defpoints
 62
     0
100
AcDbPoint
 10
59.36464130011544
 20
-34.52430839585837
 30
0.0
  0
ENDBLK
  5
2F7
330
2F5
100
AcDbEntity
  8
0
100
AcDbBlockEnd
  0
BLOCK
  5
39A
330
399
100
AcDbEntity
  8
0
100
AcDbBlockBegin
  2
*D15
 70
     1
 10
0.0
 20
0.0
 30
0.0
  3
*D15
  1
*D17
  0
LINE
  5
39C
330
399
100
AcDbEntity
  8
치수문자_일반주서
 62
     0
370
    -2
100
AcDbLine
 10
85.61250000000001
 20
10.96962499999995
 30
0.0
 11
100.0094303416489
 21
10.969625
 31
0.0
  0
LINE
  5
39D
330
399
100
AcDbEntity
  8
치수문자_일반주서
 62
     0
370
    -2
100
AcDbLine
 10
85.61250000000001
 20
6.603999999999948
 30
0.0
 11
100.0094303416489
 21
6.604000000000003
 31
0.0
  0
LINE
  5
39E
330
399
100
AcDbEntity
  8
치수문자_일반주서
 62
     0
370
    -2
100
AcDbLine
 10
100.0094303416489
 20
10.969625
 30
0.0
 11
100.0094303416488
 21
47.323625
 31
0.0
  0
LINE
  5
39F
330
399
100
AcDbEntity
  8
치수문자_일반주서
 62
     0
370
    -2
100
AcDbLine
 10
100.0094303416489
 20
10.969625
 30
0.0
 11
100.0094303416489
 21
6.604000000000003
 31
0.0
  0
LINE
  5
3A0
330
399
100
AcDbEntity
  8
치수문자_일반주서
 62
     0
370
    -2
100
AcDbLine
 10
100.0094303416489
 20
14.271625
 30
0.0
 11
100.0094303416489
 21
17.573625
 31
0.0
  0
LINE
  5
3A1
330
399
100
AcDbEntity
  8
치수문자_일반주서
 62
     0
370
    -2
100
AcDbLine
 10
100.0094303416489
 20
3.302000000000003
 30
0.0
 11
100.009430341649
 21
0.0000000000000036
 31
0.0
  0
SOLID
  5
3A2
330
399
100
AcDbEntity
  8
치수문자_일반주서
 62
     0
100
AcDbTrace
 10
99.45909700831557
 20
14.271625
 30
0.0
 11
100.5597636749822
 21
14.271625
 31
0.0
 12
100.0094303416489
 22
10.969625
 32
0.0
 13
100.0094303416489
 23
10.969625
 33
0.0
  0
SOLID
  5
3A3
330
399
100
AcDbEntity
  8
치수문자_일반주서
 62
     0
100
AcDbTrace
 10
100.5597636749823
 20
3.302000000000005
 30
0.0
 11
99.45909700831561
 21
3.302000000000001
 31
0.0
 12
100.0094303416489
 22
6.604000000000003
 32
0.0
 13
100.0094303416489
 23
6.604000000000003
 33
0.0
  0
MTEXT
  5
3A4
330
399
100
AcDbEntity
  8
치수문자_일반주서
 62
     0
100
AcDbMText
 10
95.63443034164884
 20
32.44862499999999
 30
0.0
 40
3.5
 41
0.0
 71
     2
 72
     1
  1
\A1;%%c4.37 [11/64]
  7
SLDTEXTSTYLE0
 11
-3.255170729323294E-15
 21
1.0
 31
0.0
 73
     1
 44
1.0
  0
POINT
  5
3A5
330
399
100
AcDbEntity
  8
Defpoints
 62
     0
100
AcDbPoint
 10
85.55000000000001
 20
10.96962499999995
 30
0.0
  0
POINT
  5
3A6
330
399
100
AcDbEntity
  8
Defpoints
 62
     0
100
AcDbPoint
 10
85.55000000000001
 20
6.603999999999948
 30
0.0
  0
POINT
  5
3A7
330
399
100
AcDbEntity
  8
Defpoints
 62
     0
100
AcDbPoint
 10
100.0094303416489
 20
6.604000000000002
 30
0.0
  0
ENDBLK
  5
39B
330
399
100
AcDbEntity
  8
0
100
AcDbBlockEnd
  0
BLOCK
  5
3A9
330
3A8
100
AcDbEntity
  8
0
100
AcDbBlockBegin
  2
*D16
 70
     1
 10
0.0
 20
0.0
 30
0.0
  3
*D16
  1
*D18
  0
LINE
  5
3AB
330
3A8
100
AcDbEntity
  8
치수문자_일반주서
 62
     0
370
    -2
100
AcDbLine
 10
85.55000000000003
 20
11.03212499999995
 30
0.0
 11
85.55000000000003
 21
20.56415312860661
 31
0.0
  0
LINE
  5
3AC
330
3A8
100
AcDbEntity
  8
치수문자_일반주서
 62
     0
370
    -2
100
AcDbLine
 10
63.32500000000001
 20
11.03212499999994
 30
0.0
 11
63.32500000000001
 21
20.56415312860661
 31
0.0
  0
LINE
  5
3AD
330
3A8
100
AcDbEntity
  8
치수문자_일반주서
 62
     0
370
    -2
100
AcDbLine
 10
63.32500000000001
 20
20.56415312860661
 30
0.0
 11
30.47100000000001
 21
20.56415312860661
 31
0.0
  0
LINE
  5
3AE
330
3A8
100
AcDbEntity
  8
치수문자_일반주서
 62
     0
370
    -2
100
AcDbLine
 10
85.55000000000003
 20
20.56415312860661
 30
0.0
 11
63.32500000000001
 21
20.56415312860661
 31
0.0
  0
LINE
  5
3AF
330
3A8
100
AcDbEntity
  8
치수문자_일반주서
 62
     0
370
    -2
100
AcDbLine
 10
88.85200000000003
 20
20.56415312860661
 30
0.0
 11
92.15400000000002
 21
20.56415312860661
 31
0.0
  0
LINE
  5
3B0
330
3A8
100
AcDbEntity
  8
치수문자_일반주서
 62
     0
370
    -2
100
AcDbLine
 10
60.02300000000001
 20
20.56415312860661
 30
0.0
 11
56.72100000000001
 21
20.56415312860661
 31
0.0
  0
SOLID
  5
3B1
330
3A8
100
AcDbEntity
  8
치수문자_일반주서
 62
     0
100
AcDbTrace
 10
88.85200000000003
 20
21.11448646193994
 30
0.0
 11
88.85200000000003
 21
20.01381979527327
 31
0.0
 12
85.55000000000003
 22
20.56415312860661
 32
0.0
 13
85.55000000000003
 23
20.56415312860661
 33
0.0
  0
SOLID
  5
3B2
330
3A8
100
AcDbEntity
  8
치수문자_일반주서
 62
     0
100
AcDbTrace
 10
60.02300000000001
 20
20.01381979527327
 30
0.0
 11
60.02300000000001
 21
21.11448646193994
 31
0.0
 12
63.32500000000001
 22
20.56415312860661
 32
0.0
 13
63.32500000000001
 23
20.56415312860661
 33
0.0
  0
MTEXT
  5
3B3
330
3A8
100
AcDbEntity
  8
치수문자_일반주서
 62
     0
100
AcDbMText
 10
43.59600000000001
 20
24.93915312860661
 30
0.0
 40
3.5
 41
0.0
 71
     2
 72
     1
  1
\A1;22.23 [7/8]
  7
SLDTEXTSTYLE0
 73
     1
 44
1.0
  0
POINT
  5
3B4
330
3A8
100
AcDbEntity
  8
Defpoints
 62
     0
100
AcDbPoint
 10
85.55000000000003
 20
10.96962499999995
 30
0.0
  0
POINT
  5
3B5
330
3A8
100
AcDbEntity
  8
Defpoints
 62
     0
100
AcDbPoint
 10
63.32500000000001
 20
10.96962499999994
 30
0.0
  0
POINT
  5
3B6
330
3A8
100
AcDbEntity
  8
Defpoints
 62
     0
100
AcDbPoint
 10
63.32500000000001
 20
20.56415312860661
 30
0.0
  0
ENDBLK
  5
3AA
330
3A8
100
AcDbEntity
  8
0
100
AcDbBlockEnd
  0
BLOCK
  5
3B8
330
3B7
100
AcDbEntity
  8
0
100
AcDbBlockBegin
  2
*D17
 70
     1
 10
0.0
 20
0.0
 30
0.0
  3
*D17
  1
*D19
  0
LINE
  5
3BA
330
3B7
100
AcDbEntity
  8
치수문자_일반주서
 62
     0
370
    -2
100
AcDbLine
 10
85.55000000000003
 20
11.03212499999995
 30
0.0
 11
85.55000000000001
 21
36.12692205957619
 31
0.0
  0
LINE
  5
3BB
330
3B7
100
AcDbEntity
  8
치수문자_일반주서
 62
     0
370
    -2
100
AcDbLine
 10
3.000000000000007
 20
10.75431249999994
 30
0.0
 11
2.999999999999993
 21
36.12692205957619
 31
0.0
  0
LINE
  5
3BC
330
3B7
100
AcDbEntity
  8
치수문자_일반주서
 62
     0
370
    -2
100
AcDbLine
 10
82.24800000000002
 20
36.12692205957619
 30
0.0
 11
6.301999999999992
 21
36.12692205957619
 31
0.0
  0
SOLID
  5
3BD
330
3B7
100
AcDbEntity
  8
치수문자_일반주서
 62
     0
100
AcDbTrace
 10
82.24800000000002
 20
35.57658872624285
 30
0.0
 11
82.24800000000002
 21
36.67725539290952
 31
0.0
 12
85.55000000000001
 22
36.12692205957619
 32
0.0
 13
85.55000000000001
 23
36.12692205957619
 33
0.0
  0
SOLID
  5
3BE
330
3B7
100
AcDbEntity
  8
치수문자_일반주서
 62
     0
100
AcDbTrace
 10
6.301999999999992
 20
36.67725539290952
 30
0.0
 11
6.301999999999992
 21
35.57658872624285
 31
0.0
 12
2.999999999999993
 22
36.12692205957619
 32
0.0
 13
2.999999999999993
 23
36.12692205957619
 33
0.0
  0
MTEXT
  5
3BF
330
3B7
100
AcDbEntity
  8
치수문자_일반주서
 62
     0
100
AcDbMText
 10
42.16874074226953
 20
40.50192205957619
 30
0.0
 40
3.5
 41
0.0
 71
     2
 72
     1
  1
\A1;82.55 [3 1/4]
  7
SLDTEXTSTYLE0
 73
     1
 44
1.0
  0
POINT
  5
3C0
330
3B7
100
AcDbEntity
  8
Defpoints
 62
     0
100
AcDbPoint
 10
85.55000000000003
 20
10.96962499999995
 30
0.0
  0
POINT
  5
3C1
330
3B7
100
AcDbEntity
  8
Defpoints
 62
     0
100
AcDbPoint
 10
3.000000000000007
 20
10.69181249999994
 30
0.0
  0
POINT
  5
3C2
330
3B7
100
AcDbEntity
  8
Defpoints
 62
     0
100
AcDbPoint
 10
3.000000000000007
 20
36.12692205957619
 30
0.0
  0
ENDBLK
  5
3B9
330
3B7
100
AcDbEntity
  8
0
100
AcDbBlockEnd
  0
BLOCK
  5
3FD
330
3FC
100
AcDbEntity
  8
0
100
AcDbBlockBegin
  2
*D18
 70
     1
 10
0.0
 20
0.0
 30
0.0
  3
*D18
  1
*D20
  0
LINE
  5
3FF
330
3FC
100
AcDbEntity
  8
치수문자_일반주서
 62
     0
370
    -2
100
AcDbLine
 10
197.8472615970712
 20
-40.51348384232791
 30
0.0
 11
212.2441919387202
 21
-40.51348384232786
 31
0.0
  0
LINE
  5
400
330
3FC
100
AcDbEntity
  8
치수문자_일반주서
 62
     0
370
    -2
100
AcDbLine
 10
197.8472615970712
 20
-44.87910884232791
 30
0.0
 11
212.2441919387202
 21
-44.87910884232785
 31
0.0
  0
LINE
  5
401
330
3FC
100
AcDbEntity
  8
치수문자_일반주서
 62
     0
370
    -2
100
AcDbLine
 10
212.2441919387202
 20
-40.51348384232786
 30
0.0
 11
212.24419193872
 21
-4.159483842327859
 31
0.0
  0
LINE
  5
402
330
3FC
100
AcDbEntity
  8
치수문자_일반주서
 62
     0
370
    -2
100
AcDbLine
 10
212.2441919387202
 20
-40.51348384232786
 30
0.0
 11
212.2441919387202
 21
-44.87910884232785
 31
0.0
  0
LINE
  5
403
330
3FC
100
AcDbEntity
  8
치수문자_일반주서
 62
     0
370
    -2
100
AcDbLine
 10
212.2441919387201
 20
-37.21148384232786
 30
0.0
 11
212.2441919387201
 21
-33.90948384232786
 31
0.0
  0
LINE
  5
404
330
3FC
100
AcDbEntity
  8
치수문자_일반주서
 62
     0
370
    -2
100
AcDbLine
 10
212.2441919387202
 20
-48.18110884232785
 30
0.0
 11
212.2441919387203
 21
-51.48310884232785
 31
0.0
  0
SOLID
  5
405
330
3FC
100
AcDbEntity
  8
치수문자_일반주서
 62
     0
100
AcDbTrace
 10
211.6938586053868
 20
-37.21148384232787
 30
0.0
 11
212.7945252720535
 21
-37.21148384232785
 31
0.0
 12
212.2441919387202
 22
-40.51348384232786
 32
0.0
 13
212.2441919387202
 23
-40.51348384232786
 33
0.0
  0
SOLID
  5
406
330
3FC
100
AcDbEntity
  8
치수문자_일반주서
 62
     0
100
AcDbTrace
 10
212.7945252720536
 20
-48.18110884232784
 30
0.0
 11
211.6938586053869
 21
-48.18110884232786
 31
0.0
 12
212.2441919387202
 22
-44.87910884232785
 32
0.0
 13
212.2441919387202
 23
-44.87910884232785
 33
0.0
  0
MTEXT
  5
407
330
3FC
100
AcDbEntity
  8
치수문자_일반주서
 62
     0
100
AcDbMText
 10
207.86919193872
 20
-19.03448384232789
 30
0.0
 40
3.5
 41
0.0
 71
     2
 72
     1
  1
\A1;%%c4.37 [11/64]
  7
SLDTEXTSTYLE0
 11
-6.510341458646596E-15
 21
1.0
 31
0.0
 73
     1
 44
1.0
  0
POINT
  5
408
330
3FC
100
AcDbEntity
  8
Defpoints
 62
     0
100
AcDbPoint
 10
197.7847615970712
 20
-40.51348384232791
 30
0.0
  0
POINT
  5
409
330
3FC
100
AcDbEntity
  8
Defpoints
 62
     0
100
AcDbPoint
 10
197.7847615970712
 20
-44.87910884232791
 30
0.0
  0
POINT
  5
40A
330
3FC
100
AcDbEntity
  8
Defpoints
 62
     0
100
AcDbPoint
 10
212.2441919387201
 20
-44.87910884232785
 30
0.0
  0
ENDBLK
  5
3FE
330
3FC
100
AcDbEntity
  8
0
100
AcDbBlockEnd
  0
BLOCK
  5
40C
330
40B
100
AcDbEntity
  8
0
100
AcDbBlockBegin
  2
*D19
 70
     1
 10
0.0
 20
0.0
 30
0.0
  3
*D19
  1
*D21
  0
LINE
  5
40E
330
40B
100
AcDbEntity
  8
치수문자_일반주서
 62
     0
370
    -2
100
AcDbLine
 10
197.7847615970712
 20
-40.45098384232791
 30
0.0
 11
197.7847615970712
 21
-30.91895571372125
 31
0.0
  0
LINE
  5
40F
330
40B
100
AcDbEntity
  8
치수문자_일반주서
 62
     0
370
    -2
100
AcDbLine
 10
175.5597615970712
 20
-40.45098384232791
 30
0.0
 11
175.5597615970712
 21
-30.91895571372125
 31
0.0
  0
LINE
  5
410
330
40B
100
AcDbEntity
  8
치수문자_일반주서
 62
     0
370
    -2
100
AcDbLine
 10
175.5597615970712
 20
-30.91895571372125
 30
0.0
 11
142.7057615970712
 21
-30.91895571372125
 31
0.0
  0
LINE
  5
411
330
40B
100
AcDbEntity
  8
치수문자_일반주서
 62
     0
370
    -2
100
AcDbLine
 10
197.7847615970712
 20
-30.91895571372125
 30
0.0
 11
175.5597615970712
 21
-30.91895571372125
 31
0.0
  0
LINE
  5
412
330
40B
100
AcDbEntity
  8
치수문자_일반주서
 62
     0
370
    -2
100
AcDbLine
 10
201.0867615970712
 20
-30.91895571372125
 30
0.0
 11
204.3887615970712
 21
-30.91895571372125
 31
0.0
  0
LINE
  5
413
330
40B
100
AcDbEntity
  8
치수문자_일반주서
 62
     0
370
    -2
100
AcDbLine
 10
172.2577615970712
 20
-30.91895571372125
 30
0.0
 11
168.9557615970712
 21
-30.91895571372125
 31
0.0
  0
SOLID
  5
414
330
40B
100
AcDbEntity
  8
치수문자_일반주서
 62
     0
100
AcDbTrace
 10
201.0867615970712
 20
-30.36862238038792
 30
0.0
 11
201.0867615970712
 21
-31.46928904705458
 31
0.0
 12
197.7847615970712
 22
-30.91895571372125
 32
0.0
 13
197.7847615970712
 23
-30.91895571372125
 33
0.0
  0
SOLID
  5
415
330
40B
100
AcDbEntity
  8
치수문자_일반주서
 62
     0
100
AcDbTrace
 10
172.2577615970712
 20
-31.46928904705458
 30
0.0
 11
172.2577615970712
 21
-30.36862238038792
 31
0.0
 12
175.5597615970712
 22
-30.91895571372125
 32
0.0
 13
175.5597615970712
 23
-30.91895571372125
 33
0.0
  0
MTEXT
  5
416
330
40B
100
AcDbEntity
  8
치수문자_일반주서
 62
     0
100
AcDbMText
 10
155.8307615970712
 20
-26.54395571372125
 30
0.0
 40
3.5
 41
0.0
 71
     2
 72
     1
  1
\A1;22.23 [7/8]
  7
SLDTEXTSTYLE0
 73
     1
 44
1.0
  0
POINT
  5
417
330
40B
100
AcDbEntity
  8
Defpoints
 62
     0
100
AcDbPoint
 10
197.7847615970712
 20
-40.51348384232791
 30
0.0
  0
POINT
  5
418
330
40B
100
AcDbEntity
  8
Defpoints
 62
     0
100
AcDbPoint
 10
175.5597615970712
 20
-40.51348384232791
 30
0.0
  0
POINT
  5
419
330
40B
100
AcDbEntity
  8
Defpoints
 62
     0
100
AcDbPoint
 10
175.5597615970712
 20
-30.91895571372125
 30
0.0
  0
ENDBLK
  5
40D
330
40B
100
AcDbEntity
  8
0
100
AcDbBlockEnd
  0
BLOCK
  5
41B
330
41A
100
AcDbEntity
  8
0
100
AcDbBlockBegin
  2
*D20
 70
     1
 10
0.0
 20
0.0
 30
0.0
  3
*D20
  1
*D22
  0
LINE
  5
41D
330
41A
100
AcDbEntity
  8
치수문자_일반주서
 62
     0
370
    -2
100
AcDbLine
 10
197.7847615970712
 20
-40.45098384232791
 30
0.0
 11
197.7847615970712
 21
-15.35618678275167
 31
0.0
  0
LINE
  5
41E
330
41A
100
AcDbEntity
  8
치수문자_일반주서
 62
     0
370
    -2
100
AcDbLine
 10
115.2347615970712
 20
-40.72879634232792
 30
0.0
 11
115.2347615970712
 21
-15.35618678275167
 31
0.0
  0
LINE
  5
41F
330
41A
100
AcDbEntity
  8
치수문자_일반주서
 62
     0
370
    -2
100
AcDbLine
 10
194.4827615970712
 20
-15.35618678275167
 30
0.0
 11
118.5367615970712
 21
-15.35618678275167
 31
0.0
  0
SOLID
  5
420
330
41A
100
AcDbEntity
  8
치수문자_일반주서
 62
     0
100
AcDbTrace
 10
194.4827615970712
 20
-15.906520116085
 30
0.0
 11
194.4827615970712
 21
-14.80585344941834
 31
0.0
 12
197.7847615970712
 22
-15.35618678275167
 32
0.0
 13
197.7847615970712
 23
-15.35618678275167
 33
0.0
  0
SOLID
  5
421
330
41A
100
AcDbEntity
  8
치수문자_일반주서
 62
     0
100
AcDbTrace
 10
118.5367615970712
 20
-14.80585344941834
 30
0.0
 11
118.5367615970712
 21
-15.906520116085
 31
0.0
 12
115.2347615970712
 22
-15.35618678275167
 32
0.0
 13
115.2347615970712
 23
-15.35618678275167
 33
0.0
  0
MTEXT
  5
422
330
41A
100
AcDbEntity
  8
치수문자_일반주서
 62
     0
100
AcDbMText
 10
154.4035023393407
 20
-10.98118678275167
 30
0.0
 40
3.5
 41
0.0
 71
     2
 72
     1
  1
\A1;82.55 [3 1/4]
  7
SLDTEXTSTYLE0
 73
     1
 44
1.0
  0
POINT
  5
423
330
41A
100
AcDbEntity
  8
Defpoints
 62
     0
100
AcDbPoint
 10
197.7847615970712
 20
-40.51348384232791
 30
0.0
  0
POINT
  5
424
330
41A
100
AcDbEntity
  8
Defpoints
 62
     0
100
AcDbPoint
 10
115.2347615970712
 20
-40.79129634232792
 30
0.0
  0
POINT
  5
425
330
41A
100
AcDbEntity
  8
Defpoints
 62
     0
100
AcDbPoint
 10
115.2347615970712
 20
-15.35618678275167
 30
0.0
  0
ENDBLK
  5
41C
330
41A
100
AcDbEntity
  8
0
100
AcDbBlockEnd
  0
ENDSEC
  0
SECTION
  2
ENTITIES
  0
LINE
  5
96
330
1F
100
AcDbEntity
  8
0
  6
Continuous
 62
     1
370
    25
100
AcDbLine
 10
28.68618520732625
 20
0.5917983489349403
 30
0.0
 11
28.56890935960309
 21
0.6549591605852513
 31
0.0
  0
LINE
  5
97
330
1F
100
AcDbEntity
  8
0
  6
Continuous
 62
     1
370
    25
100
AcDbLine
 10
40.49682511391399
 20
0.627550991888618
 30
0.0
 11
40.45833779601086
 21
0.6484189299331322
 31
0.0
  0
LINE
  5
98
330
1F
100
AcDbEntity
  8
0
  6
Continuous
 62
     1
370
    25
100
AcDbLine
 10
37.98739222062317
 20
-0.5711642182612324
 30
0.0
 11
38.14292240582565
 21
-0.6548478690653973
 31
0.0
  0
LINE
  5
99
330
1F
100
AcDbEntity
  8
0
  6
Continuous
 62
     1
370
    25
100
AcDbLine
 10
35.66082323588427
 20
-2.182812500000003
 30
0.0
 11
36.99135779687209
 21
-2.182812500000003
 31
0.0
  0
LINE
  5
9A
330
1F
100
AcDbEntity
  8
0
  6
Continuous
 62
     1
370
    25
100
AcDbLine
 10
25.11407186185879
 20
2.1828125
 30
0.0
 11
23.78252842513021
 21
2.1828125
 31
0.0
  0
LINE
  5
9B
330
1F
100
AcDbEntity
  8
0
  6
Continuous
 62
     1
370
    25
100
AcDbLine
 10
29.72246378516303
 20
-2.182812500000003
 30
0.0
 11
31.05278072105801
 21
-2.182812500000003
 31
0.0
  0
LINE
  5
9C
330
1F
100
AcDbEntity
  8
0
  6
Continuous
 62
     1
370
    25
100
AcDbLine
 10
19.17431789568309
 20
2.1828125
 30
0.0
 11
19.05
 21
2.1828125
 31
0.0
  0
LINE
  5
9D
330
1F
100
AcDbEntity
  8
0
  6
Continuous
 62
     1
370
    25
100
AcDbLine
 10
23.78252842513023
 20
-2.182812500000003
 30
0.0
 11
25.1140718618588
 21
-2.182812500000003
 31
0.0
  0
LINE
  5
9E
330
1F
100
AcDbEntity
  8
0
  6
Continuous
 62
     1
370
    25
100
AcDbLine
 10
36.99135779687209
 20
2.1828125
 30
0.0
 11
35.66082323588427
 21
2.1828125
 31
0.0
  0
LINE
  5
9F
330
1F
100
AcDbEntity
  8
0
  6
Continuous
 62
     1
370
    25
100
AcDbLine
 10
19.05
 20
-2.182812500000003
 30
0.0
 11
19.17431789568313
 21
-2.182812500000003
 31
0.0
  0
LINE
  5
A0
330
1F
100
AcDbEntity
  8
0
  6
Continuous
 62
     1
370
    25
100
AcDbLine
 10
31.05278072105804
 20
2.1828125
 30
0.0
 11
29.72246378516303
 21
2.1828125
 31
0.0
  0
LINE
  5
A1
330
1F
100
AcDbEntity
  8
외형선
  6
Continuous
370
    15
100
AcDbLine
 10
17.30942116787302
 20
-2.381250000000009
 30
0.0
 11
18.05
 21
-2.182812500000002
 31
0.0
  0
LINE
  5
A2
330
1F
100
AcDbEntity
  8
외형선
  6
Continuous
370
    15
100
AcDbLine
 10
18.05
 20
2.182812499999999
 30
0.0
 11
17.30942116787302
 21
2.381250000000006
 31
0.0
  0
LINE
  5
A3
330
1F
100
AcDbEntity
  8
외형선
  6
Continuous
370
    15
100
AcDbLine
 10
-17.30942116787305
 20
-2.381250000000005
 30
0.0
 11
17.30942116787302
 21
-2.381250000000005
 31
0.0
  0
LINE
  5
A4
330
1F
100
AcDbEntity
  8
외형선
  6
Continuous
370
    15
100
AcDbLine
 10
17.30942116787302
 20
2.381250000000002
 30
0.0
 11
-17.30942116787306
 21
2.381250000000002
 31
0.0
  0
LINE
  5
A7
330
1F
100
AcDbEntity
  8
외형선
  6
Continuous
370
    15
100
AcDbLine
 10
18.05
 20
-2.182812500000002
 30
0.0
 11
19.05
 21
-2.182812500000002
 31
0.0
  0
LINE
  5
A8
330
1F
100
AcDbEntity
  8
외형선
  6
Continuous
370
    15
100
AcDbLine
 10
19.05
 20
2.182812499999998
 30
0.0
 11
18.05
 21
2.182812499999998
 31
0.0
  0
SPLINE
  5
A9
330
1F
100
AcDbEntity
  8
0
  6
Continuous
 62
     1
370
    25
100
AcDbSpline
210
0.0
220
0.0
230
1.0
 70
     8
 71
     3
 72
    21
 73
    17
 74
     0
 42
0.000000001
 43
0.00000001
 40
0.0
 40
0.0
 40
0.0
 40
0.0
 40
0.017778432130622
 40
0.0979008274825461
 40
0.1780270743797694
 40
0.2581560570718882
 40
0.3382866568554136
 40
0.4184177532799117
 40
0.4985482253582199
 40
0.5786769527779052
 40
0.6588028171111513
 40
0.7389247030202647
 40
0.8190414994559908
 40
0.8991521008458784
 40
0.9792554082699756
 40
1.0
 40
1.0
 40
1.0
 40
1.0
 10
25.1140718618588
 20
2.165851987693743
 30
0.0
 10
25.19812369213779
 20
2.171050337631286
 30
0.0
 10
25.66097349099947
 20
2.199676189263762
 30
0.0
 10
26.50265395887321
 20
2.057688629334501
 30
0.0
 10
27.63912288737625
 20
1.742360459965768
 30
0.0
 10
28.77563965043139
 20
1.254499791870841
 30
0.0
 10
29.91218358089275
 20
0.6585252769949472
 30
0.0
 10
31.0487360530489
 20
0.0023384688098456
 30
0.0
 10
32.18527788053451
 20
-0.6537589430466983
 30
0.0
 10
33.32179002135528
 20
-1.251256002515271
 30
0.0
 10
34.45825348801123
 20
-1.736771916598861
 30
0.0
 10
35.59464912986274
 20
-2.065700708052542
 30
0.0
 10
36.73095872087286
 20
-2.212693772425669
 30
0.0
 10
37.86716095329992
 20
-2.149146652345892
 30
0.0
 10
38.72266150171038
 20
-1.990454288606473
 30
0.0
 10
39.1994171220427
 20
-1.811297580226357
 30
0.0
 10
39.29748659876701
 20
-1.77444472754213
 30
0.0
  0
SPLINE
  5
AA
330
1F
100
AcDbEntity
  8
0
  6
Continuous
 62
     1
370
    25
100
AcDbSpline
210
0.0
220
0.0
230
1.0
 70
     8
 71
     3
 72
    20
 73
    16
 74
     0
 42
0.000000001
 43
0.00000001
 40
0.0
 40
0.0
 40
0.0
 40
0.0
 40
0.0819576019533198
 40
0.1639248924455653
 40
0.2459007640274591
 40
0.3278841000851935
 40
0.4098737760095116
 40
0.4918686603831472
 40
0.5738676161839985
 40
0.6558695020012719
 40
0.7378731732618162
 40
0.8198774834638043
 40
0.901881285414912
 40
0.9838834324720879
 40
1.0
 40
1.0
 40
1.0
 40
1.0
 10
41.27500000000001
 20
-2.182812499999995
 30
0.0
 10
40.89640837061935
 20
-2.137011337356429
 30
0.0
 10
40.13918035701353
 20
-2.06145873300323
 30
0.0
 10
39.00324155331339
 20
-1.711137526940833
 30
0.0
 10
37.8671622787076
 20
-1.221421545999002
 30
0.0
 10
36.73095836564757
 20
-0.6184444766585051
 30
0.0
 10
35.59464922520372
 20
0.0389834331895751
 30
0.0
 10
34.45825346190665
 20
0.6932214589328753
 30
0.0
 10
33.32179003042546
 20
1.285180138883143
 30
0.0
 10
32.18527787035926
 20
1.762197380314007
 30
0.0
 10
31.04873608467985
 20
2.080251404943481
 30
0.0
 10
29.91218346454357
 20
2.215383898681584
 30
0.0
 10
28.77564008419011
 20
2.138469699387792
 30
0.0
 10
27.94349284104706
 20
1.97841766176215
 30
0.0
 10
27.4901990873552
 20
1.805579667519076
 30
0.0
 10
27.41574296119979
 20
1.77719002526391
 30
0.0
  0
SPLINE
  5
AB
330
1F
100
AcDbEntity
  8
0
  6
Continuous
 62
     1
370
    25
100
AcDbSpline
210
0.0
220
0.0
230
1.0
 70
     8
 71
     3
 72
    21
 73
    17
 74
     0
 42
0.000000001
 43
0.00000001
 40
0.0
 40
0.0
 40
0.0
 40
0.0
 40
0.0642817642010385
 40
0.1373314986290538
 40
0.2103833224419807
 40
0.283437750215466
 40
0.356495294862736
 40
0.4366085168017999
 40
0.5167267016233843
 40
0.5968487377878645
 40
0.676973509603471
 40
0.7570998984255038
 40
0.8372267838624101
 40
0.917353044985937
 40
0.9974775615425249
 40
1.0
 40
1.0
 40
1.0
 40
1.0
 10
19.17431789568309
 20
2.174194167024075
 30
0.0
 10
19.47818146003711
 20
2.165433289426691
 30
0.0
 10
20.12735528390721
 20
2.146716559033422
 30
0.0
 10
21.12185559638306
 20
1.920963981641762
 30
0.0
 10
22.15782536699669
 20
1.557854792552782
 30
0.0
 10
23.19385932317509
 20
1.074340918403434
 30
0.0
 10
24.26320683530891
 20
0.493681783401362
 30
0.0
 10
25.36626333118275
 20
-0.1481922955385639
 30
0.0
 10
26.50264924657015
 20
-0.7960927640585511
 30
0.0
 10
27.6391241468867
 20
-1.372575271748483
 30
0.0
 10
28.77563932495235
 20
-1.826327635611364
 30
0.0
 10
29.91218362325246
 20
-2.115088936525799
 30
0.0
 10
31.0487362090947
 20
-2.218865388085533
 30
0.0
 10
32.18527721400433
 20
-2.10631802686631
 30
0.0
 10
32.95489231666163
 20
-1.946137408770438
 30
0.0
 10
33.3456548656656
 20
-1.792157526652565
 30
0.0
 10
33.35758119109624
 20
-1.787457961178368
 30
0.0
  0
SPLINE
  5
AC
330
1F
100
AcDbEntity
  8
0
  6
Continuous
 62
     1
370
    25
100
AcDbSpline
210
0.0
220
0.0
230
1.0
 70
     8
 71
     3
 72
    21
 73
    17
 74
     0
 42
0.000000001
 43
0.00000001
 40
0.0
 40
0.0
 40
0.0
 40
0.0
 40
0.0046646568002928
 40
0.0847956004456254
 40
0.1649305229648508
 40
0.245068308894185
 40
0.325207839679375
 40
0.4053479948813344
 40
0.4854876533861772
 40
0.5656256946168033
 40
0.6457609997432532
 40
0.7258924528889885
 40
0.8060189423303026
 40
0.879088585993373
 40
0.952155112266476
 40
1.0
 40
1.0
 40
1.0
 40
1.0
 10
35.66082323588427
 20
-2.177441231336559
 30
0.0
 10
35.63877245670228
 20
-2.179213807743277
 30
0.0
 10
35.23792644785696
 20
-2.211436259936112
 30
0.0
 10
34.45825238453778
 20
-2.091059423430288
 30
0.0
 10
33.32179031542648
 20
-1.808793363341367
 30
0.0
 10
32.18527780778629
 20
-1.342733427367373
 30
0.0
 10
31.04873604995866
 20
-0.762070968233417
 30
0.0
 10
29.91218366600341
 20
-0.1115286093736768
 30
0.0
 10
28.77563931308427
 20
0.5486042600714423
 30
0.0
 10
27.63912415160893
 20
1.159624462649523
 30
0.0
 10
26.50264923954929
 20
1.666752345175557
 30
0.0
 10
25.3662633545424
 20
2.024016324635159
 30
0.0
 10
24.26320675211891
 20
2.19621695859965
 30
0.0
 10
23.19385960319762
 20
2.180222616968636
 30
0.0
 10
22.27702047882551
 20
2.040149174019362
 30
0.0
 10
21.70555568991208
 20
1.849991913561265
 30
0.0
 10
21.47942593290067
 20
1.774746306245536
 30
0.0
  0
LINE
  5
AD
330
1F
100
AcDbEntity
  8
0
  6
Continuous
 62
     1
370
    25
100
AcDbLine
 10
41.27500000000001
 20
0.92542315896466
 30
0.0
 11
41.27500000000002
 21
2.182812500000004
 31
0.0
  0
SPLINE
  5
AE
330
1F
100
AcDbEntity
  8
0
  6
Continuous
 62
     1
370
    25
100
AcDbSpline
210
0.0
220
0.0
230
1.0
 70
     8
 71
     3
 72
    15
 73
    11
 74
     0
 42
0.000000001
 43
0.00000001
 40
0.0
 40
0.0
 40
0.0
 40
0.0
 40
0.1238382443452081
 40
0.2476791561941651
 40
0.3715236101686983
 40
0.4953724786267681
 40
0.6192266311080397
 40
0.7550422440431994
 40
0.890866270532516
 40
1.0
 40
1.0
 40
1.0
 40
1.0
 10
19.04999999999999
 20
0.0720724675421416
 30
0.0
 10
19.39530279975923
 20
-0.1277240796688286
 30
0.0
 10
20.08591583717801
 20
-0.5273214777535151
 30
0.0
 10
21.12185557705955
 20
-1.088785250310338
 30
0.0
 10
22.15782536905742
 20
-1.568699804025858
 30
0.0
 10
23.1938593342573
 20
-1.931343694376418
 30
0.0
 10
24.26320678706677
 20
-2.15805370088603
 30
0.0
 10
25.3662635323499
 20
-2.207901262784826
 30
0.0
 10
26.42819428657433
 20
-2.087828441878698
 30
0.0
 10
27.11137283559959
 20
-1.872931183457605
 30
0.0
 10
27.41574296119977
 20
-1.777190025263913
 30
0.0
  0
SPLINE
  5
AF
330
1F
100
AcDbEntity
  8
0
  6
Continuous
 62
     1
370
    25
100
AcDbSpline
210
0.0
220
0.0
230
1.0
 70
     8
 71
     3
 72
    11
 73
     7
 74
     0
 42
0.000000001
 43
0.00000001
 40
0.0
 40
0.0
 40
0.0
 40
0.0
 40
0.2044539548586056
 40
0.4696649260075661
 40
0.7348481353398528
 40
0.9999999999999999
 40
0.9999999999999999
 40
0.9999999999999999
 40
0.9999999999999999
 10
36.99135779687209
 20
2.165460417907762
 30
0.0
 10
37.28330391344537
 20
2.161173579624445
 30
0.0
 10
37.95395296659478
 20
2.151325995181613
 30
0.0
 10
39.00324118533997
 20
1.904805167641674
 30
0.0
 10
40.1391804489902
 20
1.496158044976565
 30
0.0
 10
40.89640840127704
 20
1.115660624722404
 30
0.0
 10
41.27500000000001
 20
0.92542315896466
 30
0.0
  0
SPLINE
  5
B0
330
1F
100
AcDbEntity
  8
0
  6
Continuous
 62
     1
370
    25
100
AcDbSpline
210
0.0
220
0.0
230
1.0
 70
     8
 71
     3
 72
     9
 73
     5
 74
     0
 42
0.000000001
 43
0.00000001
 40
0.0
 40
0.0
 40
0.0
 40
0.0
 40
0.5743536689451165
 40
1.0
 40
1.0
 40
1.0
 40
1.0
 10
41.27500000000001
 20
2.182812500000005
 30
0.0
 10
40.89640900232117
 20
2.141192513022591
 30
0.0
 10
40.23724894441791
 20
2.082704345166841
 30
0.0
 10
39.57806557952573
 20
1.866479878474164
 30
0.0
 10
39.29748659876699
 20
1.774444727542127
 30
0.0
  0
SPLINE
  5
B1
330
1F
100
AcDbEntity
  8
0
  6
Continuous
 62
     1
370
    25
100
AcDbSpline
210
0.0
220
0.0
230
1.0
 70
     8
 71
     3
 72
    17
 73
    13
 74
     0
 42
0.000000001
 43
0.00000001
 40
0.0
 40
0.0
 40
0.0
 40
0.0
 40
0.08870713295553
 40
0.1951864735222456
 40
0.3016621786298965
 40
0.4081327656143683
 40
0.5145967573294097
 40
0.6116843246471294
 40
0.70876774989171
 40
0.8058477146833363
 40
0.9029249028514265
 40
1.0
 40
1.0
 40
1.0
 40
1.0
 10
29.72246378516303
 20
-2.169161265314682
 30
0.0
 10
29.40685315094784
 20
-2.16146182617687
 30
0.0
 10
28.71240024004754
 20
-2.14452038839912
 30
0.0
 10
27.63912419041674
 20
-1.884819013155093
 30
0.0
 10
26.50264923493425
 20
-1.46122638582644
 30
0.0
 10
25.36626333419888
 20
-0.901199321278949
 30
0.0
 10
24.26320683498029
 20
-0.280505303173783
 30
0.0
 10
23.19385932192327
 20
0.342522396328766
 30
0.0
 10
22.15782537236097
 20
0.921289313725798
 30
0.0
 10
21.12185557617865
 20
1.428335139827794
 30
0.0
 10
20.08591583739821
 20
1.839884750748943
 30
0.0
 10
19.3953027998326
 20
1.995087130435423
 30
0.0
 10
19.04999999999996
 20
2.072687484514087
 30
0.0
  0
SPLINE
  5
B2
330
1F
100
AcDbEntity
  8
외형선
  6
Continuous
370
    15
100
AcDbSpline
210
0.0
220
0.0
230
1.0
 70
    24
 71
     3
 72
    14
 73
    10
 74
     0
 42
0.000000001
 43
0.00000001
 40
0.0
 40
0.0
 40
0.0
 40
0.0
 40
0.1072241353617947
 40
0.2610660888388296
 40
0.414908042315912
 40
0.5687499957929996
 40
0.7225919492700845
 40
0.8764339027471687
 40
1.0
 40
1.0
 40
1.0
 40
1.0
 10
19.04999999999996
 20
2.072687484514085
 30
0.0
 10
19.04999999999999
 20
1.985455070227758
 30
0.0
 10
19.05000000000007
 20
1.773064220529059
 30
0.0
 10
19.05000000000002
 20
1.375848411023856
 30
0.0
 10
19.04999999999998
 20
0.9321753143969211
 30
0.0
 10
19.05000000000003
 20
0.5281946815864307
 30
0.0
 10
19.04999999999995
 20
0.2168762688480203
 30
0.0
 10
19.05000000000002
 20
0.0255554976511286
 30
0.0
 10
19.04999999999998
 20
0.0146669624807899
 30
0.0
 10
19.04999999999999
 20
0.0098168732629074
 30
0.0
  0
LINE
  5
B3
330
1F
100
AcDbEntity
  8
0
  6
Continuous
 62
     1
370
    25
100
AcDbLine
 10
41.27500000000001
 20
-1.97693257017231
 30
0.0
 11
41.27500000000001
 21
0.1870263201723327
 31
0.0
  0
SPLINE
  5
B4
330
1F
100
AcDbEntity
  8
0
  6
Continuous
 62
     1
370
    25
100
AcDbSpline
210
0.0
220
0.0
230
1.0
 70
     8
 71
     3
 72
    10
 73
     6
 74
     0
 42
0.000000001
 43
0.00000001
 40
0.0
 40
0.0
 40
0.0
 40
0.0
 40
0.4264023510866589
 40
0.8528138869762438
 40
1.0
 40
1.0
 40
1.0
 40
1.0
 10
19.04999999999999
 20
-2.181622325146736
 30
0.0
 10
19.39530295804374
 20
-2.170681396472888
 30
0.0
 10
20.08591631203486
 20
-2.148799303455117
 30
0.0
 10
20.8957247088419
 20
-1.986769477924185
 30
0.0
 10
21.36023246757412
 20
-1.818042046463771
 30
0.0
 10
21.4794259329007
 20
-1.774746306245539
 30
0.0
  0
SPLINE
  5
B5
330
1F
100
AcDbEntity
  8
0
  6
Continuous
 62
     1
370
    25
100
AcDbSpline
210
0.0
220
0.0
230
1.0
 70
     8
 71
     3
 72
    16
 73
    12
 74
     0
 42
0.000000001
 43
0.00000001
 40
0.0
 40
0.0
 40
0.0
 40
0.0
 40
0.1107837295891208
 40
0.2219604360080031
 40
0.3331331699624427
 40
0.4443003839478769
 40
0.5554605364098495
 40
0.6666120933928394
 40
0.7777535301715104
 40
0.8888833328606135
 40
1.0
 40
1.0
 40
1.0
 40
1.0
 10
31.05278072105804
 20
2.182465689681935
 30
0.0
 10
31.43028254828899
 20
2.163628241882374
 30
0.0
 10
32.18662529353474
 20
2.125886525274926
 30
0.0
 10
33.32179000624703
 20
1.82642194373933
 30
0.0
 10
34.45825346838478
 20
1.377045013728007
 30
0.0
 10
35.59464922346805
 20
0.8003565393372161
 30
0.0
 10
36.73095836611258
 20
0.1531936369892567
 30
0.0
 10
37.86716227858302
 20
-0.5088679419965276
 30
0.0
 10
39.00324155334666
 20
-1.121808222668973
 30
0.0
 10
40.13918035700523
 20
-1.646915021537471
 30
0.0
 10
40.89640837061661
 20
-1.866931055201722
 30
0.0
 10
41.27500000000001
 20
-1.97693257017231
 30
0.0
  0
SPLINE
  5
B6
330
1F
100
AcDbEntity
  8
0
  6
Continuous
 62
     1
370
    25
100
AcDbSpline
210
0.0
220
0.0
230
1.0
 70
     8
 71
     3
 72
    14
 73
    10
 74
     0
 42
0.000000001
 43
0.00000001
 40
0.0
 40
0.0
 40
0.0
 40
0.0
 40
0.1434615781619634
 40
0.2869401154961237
 40
0.4304336734828403
 40
0.5739402975605445
 40
0.7174580191721412
 40
0.860984857843548
 40
1.0
 40
1.0
 40
1.0
 40
1.0
 10
41.27499999999998
 20
0.1870263201723326
 30
0.0
 10
40.89640837044783
 20
0.4032183265491304
 30
0.0
 10
40.13918035649888
 20
0.8356278962323976
 30
0.0
 10
39.00324155537233
 20
1.404891278913891
 30
0.0
 10
37.8671622709856
 20
1.849220416371077
 30
0.0
 10
36.73095839448008
 20
2.128372074071174
 30
0.0
 10
35.59464911758495
 20
2.213468649089328
 30
0.0
 10
34.47018007223669
 20
2.113656280447457
 30
0.0
 10
33.72447830465921
 20
1.895027026559988
 30
0.0
 10
33.35758119109627
 20
1.787457961178363
 30
0.0
  0
SPLINE
  5
B7
330
1F
100
AcDbEntity
  8
0
  6
Continuous
 62
     1
370
    25
100
AcDbSpline
210
0.0
220
0.0
230
1.0
 70
     8
 71
     3
 72
    12
 73
     8
 74
     0
 42
0.000000001
 43
0.00000001
 40
0.0
 40
0.0
 40
0.0
 40
0.0
 40
0.1243913296182903
 40
0.3433036586589902
 40
0.5622081847630528
 40
0.7811064498897792
 40
1.0
 40
1.0
 40
1.0
 40
1.0
 10
23.78252842513024
 20
-2.162735630313179
 30
0.0
 10
23.58629659415336
 20
-2.16545290701678
 30
0.0
 10
23.04472262974254
 20
-2.172952232225361
 30
0.0
 10
22.15782894946149
 20
-2.004805147686948
 30
0.0
 10
21.12185462232934
 20
-1.685857739617163
 30
0.0
 10
20.08591607585167
 20
-1.237289238998657
 30
0.0
 10
19.39530287931655
 20
-0.8688088698976464
 30
0.0
 10
19.04999999999996
 20
-0.6845706696133627
 30
0.0
  0
SPLINE
  5
B8
330
1F
100
AcDbEntity
  8
외형선
  6
Continuous
370
    15
100
AcDbSpline
210
0.0
220
0.0
230
1.0
 70
    24
 71
     3
 72
    11
 73
     7
 74
     0
 42
0.000000001
 43
0.00000001
 40
0.0
 40
0.0
 40
0.0
 40
0.0
 40
0.2252606298272095
 40
0.500791802702306
 40
0.7763229755774116
 40
1.0
 40
1.0
 40
1.0
 40
1.0
 10
19.05
 20
-0.7411082570085612
 30
0.0
 10
19.04999999999999
 20
-0.8215152000715333
 30
0.0
 10
19.04999999999996
 20
-1.0002731925231
 30
0.0
 10
19.05000000000002
 20
-1.389141384686864
 30
0.0
 10
19.04999999999995
 20
-1.807089552717561
 30
0.0
 10
19.04999999999998
 20
-2.065733421115279
 30
0.0
 10
19.04999999999999
 20
-2.181622325146737
 30
0.0
  0
LINE
  5
B9
330
1F
100
AcDbEntity
  8
외형선
  6
Continuous
370
    15
100
AcDbLine
 10
19.04999999999996
 20
2.072687484514085
 30
0.0
 11
19.05
 21
2.1828125
 31
0.0
  0
LINE
  5
BA
330
1F
100
AcDbEntity
  8
0
  6
Continuous
 62
     1
370
    25
100
AcDbLine
 10
41.27500000000001
 20
0.1870263201723327
 30
0.0
 11
41.27500000000001
 21
0.92542315896466
 31
0.0
  0
LINE
  5
BB
330
1F
100
AcDbEntity
  8
외형선
  6
Continuous
370
    15
100
AcDbLine
 10
19.04999999999996
 20
-0.6845706696133683
 30
0.0
 11
19.04999999999999
 21
0.0720724675421477
 31
0.0
  0
LINE
  5
BC
330
1F
100
AcDbEntity
  8
0
  6
Continuous
 62
     1
370
    25
100
AcDbLine
 10
41.27500000000001
 20
-2.182812499999995
 30
0.0
 11
41.27500000000001
 21
-1.97693257017231
 31
0.0
  0
LINE
  5
BD
330
1F
100
AcDbEntity
  8
외형선
  6
Continuous
370
    15
100
AcDbLine
 10
19.05
 20
-2.182812500000003
 30
0.0
 11
19.04999999999999
 21
-2.181622325146737
 31
0.0
  0
LINE
  5
BE
330
1F
100
AcDbEntity
  8
외형선
  6
Continuous
370
    15
100
AcDbLine
 10
18.05
 20
-0.0000000000000015
 30
0.0
 11
18.05
 21
2.182812499999999
 31
0.0
  0
LINE
  5
BF
330
1F
100
AcDbEntity
  8
외형선
  6
Continuous
370
    15
100
AcDbLine
 10
18.05
 20
-2.182812500000002
 30
0.0
 11
18.05
 21
-0.0000000000000015
 31
0.0
  0
LINE
  5
C0
330
1F
100
AcDbEntity
  8
외형선
  6
Continuous
370
    15
100
AcDbLine
 10
17.30942116787302
 20
-0.0000000000000015
 30
0.0
 11
17.30942116787302
 21
2.381250000000005
 31
0.0
  0
LINE
  5
C1
330
1F
100
AcDbEntity
  8
외형선
  6
Continuous
370
    15
100
AcDbLine
 10
17.30942116787302
 20
-2.381250000000007
 30
0.0
 11
17.30942116787302
 21
-0.0000000000000015
 31
0.0
  0
LINE
  5
C6
330
1F
100
AcDbEntity
  8
외형선
  6
Continuous
370
    15
100
AcDbLine
 10
18.55005968479906
 20
-2.153021182633728
 30
0.0
 11
18.55005968479906
 21
-0.404963526596508
 31
0.0
  0
SPLINE
  5
C7
330
1F
100
AcDbEntity
  8
외형선
  6
Continuous
370
    15
100
AcDbSpline
210
0.0
220
0.0
230
1.0
 70
     8
 71
     3
 72
     8
 73
     4
 74
     0
 42
0.000000001
 43
0.00000001
 40
0.0
 40
0.0
 40
0.0
 40
0.0
 40
1.0
 40
1.0
 40
1.0
 40
1.0
 10
19.05
 20
-2.181622325146734
 30
0.0
 10
18.88227454557264
 20
-2.178434933968901
 30
0.0
 10
18.71575043433685
 20
-2.168848799825594
 30
0.0
 10
18.55005968479905
 20
-2.15301785266362
 30
0.0
  0
SPLINE
  5
C8
330
1F
100
AcDbEntity
  8
외형선
  6
Continuous
370
    15
100
AcDbSpline
210
0.0
220
0.0
230
1.0
 70
     8
 71
     3
 72
     8
 73
     4
 74
     0
 42
0.000000001
 43
0.00000001
 40
0.0
 40
0.0
 40
0.0
 40
0.0
 40
1.0
 40
1.0
 40
1.0
 40
1.0
 10
19.05000000000002
 20
2.072687484514078
 30
0.0
 10
18.88227454557265
 20
2.102962492257538
 30
0.0
 10
18.71575043433681
 20
2.127077924547322
 30
0.0
 10
18.55005968479906
 20
2.144915440234944
 30
0.0
  0
LINE
  5
C9
330
1F
100
AcDbEntity
  8
외형선
  6
Continuous
370
    15
100
AcDbLine
 10
18.55005968479906
 20
0.3594025560380744
 30
0.0
 11
18.55005968479906
 21
2.144918402243485
 31
0.0
  0
SPLINE
  5
CA
330
1F
100
AcDbEntity
  8
외형선
  6
Continuous
370
    15
100
AcDbSpline
210
0.0
220
0.0
230
1.0
 70
     8
 71
     3
 72
     8
 73
     4
 74
     0
 42
0.000000001
 43
0.00000001
 40
0.0
 40
0.0
 40
0.0
 40
0.0
 40
1.0
 40
1.0
 40
1.0
 40
1.0
 10
19.05
 20
0.0720724675421318
 30
0.0
 10
18.88227454557264
 20
0.1685543001985353
 30
0.0
 10
18.71575043433685
 20
0.2645917364303699
 30
0.0
 10
18.55005968479905
 20
0.3594225038418901
 30
0.0
  0
SPLINE
  5
CB
330
1F
100
AcDbEntity
  8
외형선
  6
Continuous
370
    15
100
AcDbSpline
210
0.0
220
0.0
230
1.0
 70
     8
 71
     3
 72
     8
 73
     4
 74
     0
 42
0.000000001
 43
0.00000001
 40
0.0
 40
0.0
 40
0.0
 40
0.0
 40
1.0
 40
1.0
 40
1.0
 40
1.0
 10
19.05000000000002
 20
-0.6845706696133815
 30
0.0
 10
18.88227454557265
 20
-0.5929064595781002
 30
0.0
 10
18.71575043433681
 20
-0.4994531073039633
 30
0.0
 10
18.55005968479906
 20
-0.4049792147727627
 30
0.0
  0
SPLINE
  5
CC
330
1F
100
AcDbEntity
  8
외형선
  6
Continuous
370
    15
100
AcDbSpline
210
0.0
220
0.0
230
1.0
 70
    24
 71
     3
 72
    15
 73
    11
 74
     0
 42
0.000000001
 43
0.00000001
 40
0.0
 40
0.0
 40
0.0
 40
0.0
 40
0.0003810475523233
 40
0.1547046866328931
 40
0.3090283257134985
 40
0.4633519647940865
 40
0.617675603874673
 40
0.7719992429552477
 40
0.9263228820358517
 40
1.0
 40
1.0
 40
1.0
 40
1.0
 10
19.05000000000005
 20
-0.0016669137610906
 30
0.0
 10
19.05000000000005
 20
-0.0017261311799566
 30
0.0
 10
19.04999999999888
 20
-0.0257683069478474
 30
0.0
 10
19.05000000000054
 20
0.0643619961923595
 30
0.0
 10
19.04999999999984
 20
0.2705956934199404
 30
0.0
 10
19.05000000000003
 20
0.612162132418554
 30
0.0
 10
19.04999999999999
 20
1.027543205570331
 30
0.0
 10
19.04999999999996
 20
1.474565097159869
 30
0.0
 10
19.05000000000005
 20
1.831845714330222
 30
0.0
 10
19.04999999999996
 20
2.013868031771636
 30
0.0
 10
19.04999999999996
 20
2.072687484514095
 30
0.0
  0
SPLINE
  5
CD
330
1F
100
AcDbEntity
  8
외형선
  6
Continuous
370
    15
100
AcDbSpline
210
0.0
220
0.0
230
1.0
 70
    24
 71
     3
 72
    11
 73
     7
 74
     0
 42
0.000000001
 43
0.00000001
 40
0.0
 40
0.0
 40
0.0
 40
0.0
 40
0.2823755449985835
 40
0.5565847758724634
 40
0.8307940067464061
 40
1.0
 40
1.0
 40
1.0
 40
1.0
 10
19.05
 20
-2.181622325146734
 30
0.0
 10
19.05000000000002
 20
-2.033134704059791
 30
0.0
 10
19.05000000000007
 20
-1.740453730914875
 30
0.0
 10
19.04999999999999
 20
-1.295947740974167
 30
0.0
 10
19.04999999999999
 20
-0.9440571398586696
 30
0.0
 10
19.05
 20
-0.7971627427626774
 30
0.0
 10
19.04999999999999
 20
-0.7411082570085613
 30
0.0
  0
LINE
  5
CE
330
1F
100
AcDbEntity
  8
중심선
 48
0.8
100
AcDbLine
 10
-44.27500000000001
 20
-0.0000000000000054
 30
0.0
 11
44.27500000000001
 21
0.0000000000000054
 31
0.0
  0
LINE
  5
CF
330
1F
100
AcDbEntity
  8
참조1
100
AcDbLine
 10
1.780880657015621
 20
0.0010749287238892
 30
0.0
 11
1.780880657015621
 21
-39.99892507127611
 31
0.0
  0
LINE
  5
D0
330
1F
100
AcDbEntity
  8
참조1
100
AcDbLine
 10
1.780880657015621
 20
-39.99892507127611
 30
0.0
 11
-29.25297615729306
 21
-39.9989250712761
 31
0.0
  0
CIRCLE
  5
D1
330
1F
100
AcDbEntity
  8
해칭선
100
AcDbCircle
 10
0.0
 20
0.0
 30
0.0
 40
3.000000000000001
  0
INSERT
  5
D2
330
1F
100
AcDbEntity
  8
0
  6
Continuous
 62
     7
100
AcDbBlockReference
 66
     1
  2
블럭10
 10
-13.9402729321252
 20
-52.04717430164393
 30
0.0
  0
ATTRIB
  5
D3
330
D2
100
AcDbEntity
  8
FORMAT
 62
     2
100
AcDbText
 10
-23.12156822086649
 20
-49.97180738881174
 30
0.0
 40
4.233333333333333
  1
E1006011 [ 4 FLUTE ]
 41
0.75
  7
SLDTEXTSTYLE0
 11
-23.12156822086649
 21
-52.08847405547841
 31
0.0
100
AcDbAttribute
  2
AUTOATTR0
 70
     0
 74
     1
  0
SEQEND
  5
D4
330
D2
100
AcDbEntity
  8
0
  6
Continuous
 62
     7
  0
HATCH
  5
D5
330
1F
100
AcDbEntity
  8
중심선
100
AcDbHatch
 10
0.0
 20
0.0
 30
0.0
210
0.0
220
0.0
230
1.0
  2
SOLID
 70
     1
 71
     0
 91
        1
 92
        0
 93
        4
 72
     1
 10
-8.225363627744365
 20
-35.8
 11
-11.67163887158165
 21
-35.8
 72
     1
 10
-11.67163887158165
 20
-35.8
 11
-13.79986873078567
 21
-38.3363255805726
 72
     1
 10
-13.79986873078567
 20
-38.3363255805726
 11
-10.35356040183524
 21
-38.33628615127011
 72
     1
 10
-10.35356040183524
 20
-38.33628615127011
 11
-8.225363627744365
 21
-35.8
 97
        0
 75
     0
 76
     1
 98
        1
 10
-1.780880657015615
 20
-0.0010749287238947
  0
HATCH
  5
D6
330
1F
100
AcDbEntity
  8
중심선
100
AcDbHatch
 10
0.0
 20
0.0
 30
0.0
210
0.0
220
0.0
230
1.0
  2
SOLID
 70
     1
 71
     0
 91
        1
 92
        0
 93
        4
 72
     1
 10
-3.212599636708357
 20
-35.8
 11
-6.658874880545667
 21
-35.8
 72
     1
 10
-6.658874880545667
 20
-35.8
 11
-11.19001288890308
 21
-41.20000000000002
 72
     1
 10
-11.19001288890308
 20
-41.20000000000002
 11
-7.743737645065801
 21
-41.20000000000002
 72
     1
 10
-7.743737645065801
 20
-41.20000000000002
 11
-3.212599636708357
 21
-35.8
 97
        0
 75
     0
 76
     1
 98
        1
 10
-1.780880657015615
 20
-0.0010749287238947
  0
HATCH
  5
D7
330
1F
100
AcDbEntity
  8
중심선
100
AcDbHatch
 10
0.0
 20
0.0
 30
0.0
210
0.0
220
0.0
230
1.0
  2
SOLID
 70
     1
 71
     0
 91
        1
 92
        0
 93
        4
 72
     1
 10
1.800164354327483
 20
-35.79999999999998
 11
-1.646110889509605
 21
-35.79999999999998
 72
     1
 10
-1.646110889509605
 20
-35.79999999999998
 11
-8.694547791398882
 21
-44.20000000000002
 72
     1
 10
-8.694547791398882
 20
-44.20000000000002
 11
-5.248272547561601
 21
-44.20000000000002
 72
     1
 10
-5.2482725475616
 20
-44.20000000000002
 11
1.800164354327483
 21
-35.79999999999998
 97
        0
 75
     0
 76
     1
 98
        1
 10
-1.780880657015615
 20
-0.0010749287238947
  0
HATCH
  5
D8
330
1F
100
AcDbEntity
  8
중심선
100
AcDbHatch
 10
0.0
 20
0.0
 30
0.0
210
0.0
220
0.0
230
1.0
  2
SOLID
 70
     1
 71
     0
 91
        1
 92
        0
 93
        6
 72
     3
 10
6.600054785339683
 20
-40.00000000005127
 11
3.960054785062283
 21
1.540882976769353E-10
 40
0.3939339440162628
 50
17.09539180608436
 51
320.0019657685078
 73
     0
 72
     1
 10
8.283054441040278
 20
-38.5878940046383
 11
10.58835631474131
 21
-36.65356729459035
 72
     3
 10
6.600054785286837
 20
-40.00000000000015
 11
6.600054785286829
 21
-1.278976924368180E-13
 40
0.636358354079598
 50
39.99873849337431
 51
368.4976242363724
 73
     1
 72
     1
 10
13.02538727718744
 20
-39.03999999993002
 11
5.280122092122758
 21
-39.03999999993002
 72
     1
 10
5.280122092122758
 20
-39.03999999993002
 11
5.280097047676824
 21
-40.95999999992991
 72
     1
 10
5.280097047676824
 20
-40.95999999992991
 11
9.721476817148861
 21
-40.95999999992988
 97
        0
 75
     0
 76
     1
 98
        1
 10
-1.780880657015615
 20
-0.0010749287238947
  0
DIMENSION
  5
D9
330
1F
100
AcDbEntity
  8
치수문자_일반주서
100
AcDbDimension
  2
_D
 10
55.73443034164892
 20
-2.18281249999994
 30
0.0
 11
55.73443034164883
 21
23.66181250000006
 31
0.0
 70
   160
  1
%%c<>
 71
     2
 42
4.365625
 52
-270.0
  3
SLDDIMSTYLE0
100
AcDbAlignedDimension
 13
41.27500000000001
 23
2.182812500000005
 33
0.0
 14
41.27500000000001
 24
-2.182812499999995
 34
0.0
 50
90.0000000000002
100
AcDbRotatedDimension
1001
ACAD
1000
DSTYLE
1002
{
1070
   171
1070
     6
1070
   273
1070
     7
1002
}
  0
DIMENSION
  5
EE
330
1F
100
AcDbEntity
  8
치수문자_일반주서
100
AcDbDimension
  2
_D_1
 10
19.05
 20
11.77734062860667
 30
0.0
 11
-0.6789999999999949
 21
11.77734062860667
 31
0.0
 70
   160
  1
<>
 71
     2
 42
22.22500000000002
  3
SLDDIMSTYLE0
100
AcDbAlignedDimension
 13
41.27500000000002
 23
2.182812500000004
 33
0.0
 14
19.05
 24
2.182812499999998
 34
0.0
 50
-0.0000000000001832
100
AcDbRotatedDimension
1001
ACAD
1000
DSTYLE
1002
{
1070
   171
1070
     6
1070
   273
1070
     7
1002
}
  0
DIMENSION
  5
103
330
1F
100
AcDbEntity
  8
치수문자_일반주서
100
AcDbDimension
  2
_D_2
 10
-41.27500000000003
 20
27.34010955957625
 30
0.0
 11
-2.106259257730476
 21
27.34010955957625
 31
0.0
 70
   160
  1
<>
 71
     2
 42
82.55000000000005
  3
SLDDIMSTYLE0
100
AcDbAlignedDimension
 13
41.27500000000002
 23
2.182812500000004
 33
0.0
 14
-41.27500000000003
 24
2.18281249999999
 34
0.0
100
AcDbRotatedDimension
1001
ACAD
1000
DSTYLE
1002
{
1070
   171
1070
     6
1070
   273
1070
     7
1002
}
  0
DIMENSION
  5
116
330
1F
100
AcDbEntity
  8
치수문자_일반주서
100
AcDbDimension
  2
_D_3
 10
-54.27499999999999
 20
-2.381250000000144
 30
0.0
 11
-54.275
 21
-0.0000000000000002
 31
0.0
 70
   160
  1
%%c<>
 71
     2
 42
4.762500000000007
 52
-270.0
  3
SLDDIMSTYLE0
100
AcDbAlignedDimension
 13
-17.30942116787304
 23
2.381250000000002
 33
0.0
 14
-17.30942116787305
 24
-2.381250000000005
 34
0.0
 50
90.0000000000002
100
AcDbRotatedDimension
1001
ACAD
1000
DSTYLE
1002
{
1070
   171
1070
     6
1070
   273
1070
     7
1002
}
  0
LINE
  5
12A
330
1F
100
AcDbEntity
  8
참조1
100
AcDbLine
 10
68.7193644723612
 20
7.441074928723896
 30
0.0
 11
68.7193644723612
 21
-7.438925071276109
 31
0.0
  0
LINE
  5
12B
330
1F
100
AcDbEntity
  8
참조1
100
AcDbLine
 10
81.41936447236121
 20
5.441074928723896
 30
0.0
 11
68.7193644723612
 21
5.441074928723896
 31
0.0
  0
SOLID
  5
12C
330
1F
100
AcDbEntity
  8
참조1
100
AcDbTrace
 10
68.7193644723612
 20
5.441074928723896
 30
0.0
 11
75.0693644723612
 21
4.425074928723896
 31
0.0
 12
75.0693644723612
 22
6.457074928723896
 32
0.0
 13
75.0693644723612
 23
6.457074928723896
 33
0.0
  0
LINE
  5
12D
330
1F
100
AcDbEntity
  8
참조1
100
AcDbLine
 10
81.41936447236121
 20
-5.438925071276109
 30
0.0
 11
68.7193644723612
 21
-5.438925071276109
 31
0.0
  0
SOLID
  5
12E
330
1F
100
AcDbEntity
  8
참조1
100
AcDbTrace
 10
68.7193644723612
 20
-5.438925071276109
 30
0.0
 11
75.0693644723612
 21
-6.454925071276109
 31
0.0
 12
75.0693644723612
 22
-4.422925071276109
 32
0.0
 13
75.0693644723612
 23
-4.422925071276109
 33
0.0
  0
MTEXT
  5
12F
330
1F
100
AcDbEntity
  8
참조1
100
AcDbMText
 10
78.1037146049872
 20
11.01136670591223
 30
0.0
 40
3.5
 41
0.0
 71
     1
 72
     1
  1
A
  7
SLDTEXTSTYLE0
 73
     1
 44
1.0
  0
MTEXT
  5
130
330
1F
100
AcDbEntity
  8
참조1
100
AcDbMText
 10
78.1037146049872
 20
0.1313667059122219
 30
0.0
 40
3.5
 41
0.0
 71
     1
 72
     1
  1
A
  7
SLDTEXTSTYLE0
 73
     1
 44
1.0
  0
INSERT
  5
137
330
1F
100
AcDbEntity
  8
해칭선
100
AcDbBlockReference
  2
SW_DOWELSYMBOL_0
 10
0.0
 20
0.0
 30
0.0
  0
LINE
  5
3C4
330
1F
100
AcDbEntity
  8
0
  6
Continuous
 62
     1
370
    25
100
AcDbLine
 10
-28.68618520732628
 20
-0.5917983489349434
 30
0.0
 11
-28.56890935960311
 21
-0.6549591605852565
 31
0.0
  0
LINE
  5
3C5
330
1F
100
AcDbEntity
  8
0
  6
Continuous
 62
     1
370
    25
100
AcDbLine
 10
-40.49682511391399
 20
-0.6275509918886182
 30
0.0
 11
-40.45833779601088
 21
-0.6484189299331358
 31
0.0
  0
LINE
  5
3C6
330
1F
100
AcDbEntity
  8
0
  6
Continuous
 62
     1
370
    25
100
AcDbLine
 10
-37.98739222062318
 20
0.5711642182612313
 30
0.0
 11
-38.14292240582569
 21
0.6548478690653927
 31
0.0
  0
LINE
  5
3C7
330
1F
100
AcDbEntity
  8
0
  6
Continuous
 62
     1
370
    25
100
AcDbLine
 10
-35.66082323588427
 20
2.182812499999998
 30
0.0
 11
-36.99135779687208
 21
2.182812499999998
 31
0.0
  0
LINE
  5
3C8
330
1F
100
AcDbEntity
  8
0
  6
Continuous
 62
     1
370
    25
100
AcDbLine
 10
-25.1140718618588
 20
-2.182812500000004
 30
0.0
 11
-23.78252842513024
 21
-2.182812500000004
 31
0.0
  0
LINE
  5
3C9
330
1F
100
AcDbEntity
  8
0
  6
Continuous
 62
     1
370
    25
100
AcDbLine
 10
-29.72246378516303
 20
2.182812499999998
 30
0.0
 11
-31.05278072105801
 21
2.182812499999998
 31
0.0
  0
LINE
  5
3CA
330
1F
100
AcDbEntity
  8
0
  6
Continuous
 62
     1
370
    25
100
AcDbLine
 10
-19.17431789568309
 20
-2.182812500000004
 30
0.0
 11
-19.05000000000001
 21
-2.182812500000004
 31
0.0
  0
LINE
  5
3CB
330
1F
100
AcDbEntity
  8
0
  6
Continuous
 62
     1
370
    25
100
AcDbLine
 10
-23.78252842513024
 20
2.182812499999998
 30
0.0
 11
-25.1140718618588
 21
2.182812499999998
 31
0.0
  0
LINE
  5
3CC
330
1F
100
AcDbEntity
  8
0
  6
Continuous
 62
     1
370
    25
100
AcDbLine
 10
-36.99135779687208
 20
-2.182812500000004
 30
0.0
 11
-35.66082323588427
 21
-2.182812500000004
 31
0.0
  0
LINE
  5
3CD
330
1F
100
AcDbEntity
  8
0
  6
Continuous
 62
     1
370
    25
100
AcDbLine
 10
-19.05000000000001
 20
2.182812499999998
 30
0.0
 11
-19.17431789568315
 21
2.182812499999998
 31
0.0
  0
LINE
  5
3CE
330
1F
100
AcDbEntity
  8
0
  6
Continuous
 62
     1
370
    25
100
AcDbLine
 10
-31.05278072105807
 20
-2.182812500000004
 30
0.0
 11
-29.72246378516303
 21
-2.182812500000004
 31
0.0
  0
LINE
  5
3CF
330
1F
100
AcDbEntity
  8
외형선
  6
Continuous
370
    15
100
AcDbLine
 10
-17.30942116787304
 20
2.381250000000009
 30
0.0
 11
-18.05000000000001
 21
2.182812499999998
 31
0.0
  0
LINE
  5
3D0
330
1F
100
AcDbEntity
  8
외형선
  6
Continuous
370
    15
100
AcDbLine
 10
-18.05000000000001
 20
-2.182812500000004
 30
0.0
 11
-17.30942116787304
 21
-2.381250000000008
 31
0.0
  0
LINE
  5
3D3
330
1F
100
AcDbEntity
  8
외형선
  6
Continuous
370
    15
100
AcDbLine
 10
-18.05000000000001
 20
2.182812499999998
 30
0.0
 11
-19.05000000000001
 21
2.182812499999998
 31
0.0
  0
LINE
  5
3D4
330
1F
100
AcDbEntity
  8
외형선
  6
Continuous
370
    15
100
AcDbLine
 10
-19.05000000000001
 20
-2.182812500000004
 30
0.0
 11
-18.05000000000001
 21
-2.182812500000004
 31
0.0
  0
SPLINE
  5
3D5
330
1F
100
AcDbEntity
  8
0
  6
Continuous
 62
     1
370
    25
100
AcDbSpline
210
0.0
220
0.0
230
1.0
 70
     8
 71
     3
 72
    21
 73
    17
 74
     0
 42
0.000000001
 43
0.00000001
 40
0.0
 40
0.0
 40
0.0
 40
0.0
 40
0.017778432130622
 40
0.0979008274825461
 40
0.1780270743797694
 40
0.2581560570718882
 40
0.3382866568554136
 40
0.4184177532799117
 40
0.4985482253582199
 40
0.5786769527779052
 40
0.6588028171111513
 40
0.7389247030202647
 40
0.8190414994559908
 40
0.8991521008458784
 40
0.9792554082699756
 40
1.0
 40
1.0
 40
1.0
 40
1.0
 10
-25.1140718618588
 20
-2.165851987693749
 30
0.0
 10
-25.19812369213781
 20
-2.171050337631292
 30
0.0
 10
-25.66097349099948
 20
-2.199676189263762
 30
0.0
 10
-26.50265395887322
 20
-2.057688629334499
 30
0.0
 10
-27.63912288737626
 20
-1.742360459965773
 30
0.0
 10
-28.7756396504314
 20
-1.254499791870841
 30
0.0
 10
-29.91218358089276
 20
-0.6585252769949501
 30
0.0
 10
-31.04873605304891
 20
-0.0023384688098455
 30
0.0
 10
-32.18527788053453
 20
0.653758943046697
 30
0.0
 10
-33.3217900213553
 20
1.25125600251527
 30
0.0
 10
-34.45825348801122
 20
1.736771916598862
 30
0.0
 10
-35.59464912986277
 20
2.065700708052539
 30
0.0
 10
-36.73095872087288
 20
2.212693772425667
 30
0.0
 10
-37.86716095329993
 20
2.149146652345892
 30
0.0
 10
-38.72266150171038
 20
1.990454288606472
 30
0.0
 10
-39.19941712204272
 20
1.811297580226352
 30
0.0
 10
-39.29748659876702
 20
1.774444727542126
 30
0.0
  0
SPLINE
  5
3D6
330
1F
100
AcDbEntity
  8
0
  6
Continuous
 62
     1
370
    25
100
AcDbSpline
210
0.0
220
0.0
230
1.0
 70
     8
 71
     3
 72
    20
 73
    16
 74
     0
 42
0.000000001
 43
0.00000001
 40
0.0
 40
0.0
 40
0.0
 40
0.0
 40
0.0819576019533198
 40
0.1639248924455653
 40
0.2459007640274591
 40
0.3278841000851935
 40
0.4098737760095116
 40
0.4918686603831472
 40
0.5738676161839985
 40
0.6558695020012719
 40
0.7378731732618162
 40
0.8198774834638043
 40
0.901881285414912
 40
0.9838834324720879
 40
1.0
 40
1.0
 40
1.0
 40
1.0
 10
-41.27500000000003
 20
2.18281249999999
 30
0.0
 10
-40.89640837061938
 20
2.137011337356427
 30
0.0
 10
-40.13918035701354
 20
2.061458733003228
 30
0.0
 10
-39.00324155331339
 20
1.711137526940832
 30
0.0
 10
-37.86716227870761
 20
1.221421545999001
 30
0.0
 10
-36.73095836564758
 20
0.6184444766585036
 30
0.0
 10
-35.59464922520374
 20
-0.0389834331895779
 30
0.0
 10
-34.45825346190668
 20
-0.6932214589328747
 30
0.0
 10
-33.32179003042546
 20
-1.285180138883141
 30
0.0
 10
-32.18527787035927
 20
-1.762197380314013
 30
0.0
 10
-31.04873608467986
 20
-2.080251404943481
 30
0.0
 10
-29.9121834645436
 20
-2.215383898681587
 30
0.0
 10
-28.77564008419012
 20
-2.138469699387791
 30
0.0
 10
-27.94349284104709
 20
-1.978417661762151
 30
0.0
 10
-27.49019908735522
 20
-1.805579667519076
 30
0.0
 10
-27.41574296119978
 20
-1.777190025263912
 30
0.0
  0
SPLINE
  5
3D7
330
1F
100
AcDbEntity
  8
0
  6
Continuous
 62
     1
370
    25
100
AcDbSpline
210
0.0
220
0.0
230
1.0
 70
     8
 71
     3
 72
    21
 73
    17
 74
     0
 42
0.000000001
 43
0.00000001
 40
0.0
 40
0.0
 40
0.0
 40
0.0
 40
0.0642817642010385
 40
0.1373314986290538
 40
0.2103833224419807
 40
0.283437750215466
 40
0.356495294862736
 40
0.4366085168017999
 40
0.5167267016233843
 40
0.5968487377878645
 40
0.676973509603471
 40
0.7570998984255038
 40
0.8372267838624101
 40
0.917353044985937
 40
0.9974775615425249
 40
1.0
 40
1.0
 40
1.0
 40
1.0
 10
-19.17431789568309
 20
-2.174194167024076
 30
0.0
 10
-19.47818146003712
 20
-2.165433289426694
 30
0.0
 10
-20.12735528390721
 20
-2.146716559033429
 30
0.0
 10
-21.12185559638306
 20
-1.920963981641769
 30
0.0
 10
-22.15782536699669
 20
-1.557854792552781
 30
0.0
 10
-23.1938593231751
 20
-1.074340918403436
 30
0.0
 10
-24.26320683530892
 20
-0.4936817834013633
 30
0.0
 10
-25.36626333118278
 20
0.1481922955385575
 30
0.0
 10
-26.50264924657017
 20
0.79609276405855
 30
0.0
 10
-27.63912414688673
 20
1.372575271748481
 30
0.0
 10
-28.77563932495235
 20
1.826327635611364
 30
0.0
 10
-29.91218362325247
 20
2.115088936525794
 30
0.0
 10
-31.04873620909473
 20
2.218865388085533
 30
0.0
 10
-32.18527721400434
 20
2.106318026866305
 30
0.0
 10
-32.95489231666164
 20
1.946137408770433
 30
0.0
 10
-33.34565486566561
 20
1.79215752665256
 30
0.0
 10
-33.35758119109624
 20
1.787457961178362
 30
0.0
  0
SPLINE
  5
3D8
330
1F
100
AcDbEntity
  8
0
  6
Continuous
 62
     1
370
    25
100
AcDbSpline
210
0.0
220
0.0
230
1.0
 70
     8
 71
     3
 72
    21
 73
    17
 74
     0
 42
0.000000001
 43
0.00000001
 40
0.0
 40
0.0
 40
0.0
 40
0.0
 40
0.0046646568002928
 40
0.0847956004456254
 40
0.1649305229648508
 40
0.245068308894185
 40
0.325207839679375
 40
0.4053479948813344
 40
0.4854876533861772
 40
0.5656256946168033
 40
0.6457609997432532
 40
0.7258924528889885
 40
0.8060189423303026
 40
0.879088585993373
 40
0.952155112266476
 40
1.0
 40
1.0
 40
1.0
 40
1.0
 10
-35.66082323588427
 20
2.177441231336559
 30
0.0
 10
-35.63877245670227
 20
2.179213807743274
 30
0.0
 10
-35.23792644785698
 20
2.211436259936108
 30
0.0
 10
-34.45825238453779
 20
2.091059423430288
 30
0.0
 10
-33.32179031542648
 20
1.808793363341366
 30
0.0
 10
-32.18527780778629
 20
1.342733427367371
 30
0.0
 10
-31.04873604995868
 20
0.7620709682334099
 30
0.0
 10
-29.91218366600344
 20
0.1115286093736719
 30
0.0
 10
-28.7756393130843
 20
-0.5486042600714494
 30
0.0
 10
-27.63912415160894
 20
-1.159624462649524
 30
0.0
 10
-26.50264923954933
 20
-1.666752345175559
 30
0.0
 10
-25.36626335454241
 20
-2.024016324635162
 30
0.0
 10
-24.26320675211895
 20
-2.196216958599656
 30
0.0
 10
-23.19385960319764
 20
-2.180222616968642
 30
0.0
 10
-22.27702047882553
 20
-2.040149174019369
 30
0.0
 10
-21.7055556899121
 20
-1.849991913561268
 30
0.0
 10
-21.47942593290071
 20
-1.774746306245539
 30
0.0
  0
LINE
  5
3D9
330
1F
100
AcDbEntity
  8
0
  6
Continuous
 62
     1
370
    25
100
AcDbLine
 10
-41.27500000000003
 20
-0.9254231589646618
 30
0.0
 11
-41.27500000000003
 21
-2.182812500000004
 31
0.0
  0
SPLINE
  5
3DA
330
1F
100
AcDbEntity
  8
0
  6
Continuous
 62
     1
370
    25
100
AcDbSpline
210
0.0
220
0.0
230
1.0
 70
     8
 71
     3
 72
    15
 73
    11
 74
     0
 42
0.000000001
 43
0.00000001
 40
0.0
 40
0.0
 40
0.0
 40
0.0
 40
0.1238382443452081
 40
0.2476791561941651
 40
0.3715236101686983
 40
0.4953724786267681
 40
0.6192266311080397
 40
0.7550422440431994
 40
0.890866270532516
 40
1.0
 40
1.0
 40
1.0
 40
1.0
 10
-19.05000000000001
 20
-0.0720724675421418
 30
0.0
 10
-19.39530279975924
 20
0.1277240796688237
 30
0.0
 10
-20.08591583717802
 20
0.5273214777535107
 30
0.0
 10
-21.12185557705956
 20
1.088785250310338
 30
0.0
 10
-22.15782536905743
 20
1.568699804025855
 30
0.0
 10
-23.1938593342573
 20
1.931343694376416
 30
0.0
 10
-24.26320678706679
 20
2.158053700886029
 30
0.0
 10
-25.36626353234993
 20
2.207901262784823
 30
0.0
 10
-26.42819428657435
 20
2.087828441878692
 30
0.0
 10
-27.11137283559958
 20
1.872931183457603
 30
0.0
 10
-27.41574296119978
 20
1.777190025263913
 30
0.0
  0
SPLINE
  5
3DB
330
1F
100
AcDbEntity
  8
0
  6
Continuous
 62
     1
370
    25
100
AcDbSpline
210
0.0
220
0.0
230
1.0
 70
     8
 71
     3
 72
    11
 73
     7
 74
     0
 42
0.000000001
 43
0.00000001
 40
0.0
 40
0.0
 40
0.0
 40
0.0
 40
0.2044539548586056
 40
0.4696649260075661
 40
0.7348481353398528
 40
0.9999999999999999
 40
0.9999999999999999
 40
0.9999999999999999
 40
0.9999999999999999
 10
-36.99135779687208
 20
-2.165460417907766
 30
0.0
 10
-37.28330391344537
 20
-2.161173579624446
 30
0.0
 10
-37.95395296659478
 20
-2.151325995181615
 30
0.0
 10
-39.00324118533996
 20
-1.904805167641676
 30
0.0
 10
-40.1391804489902
 20
-1.496158044976567
 30
0.0
 10
-40.89640840127706
 20
-1.115660624722409
 30
0.0
 10
-41.27500000000003
 20
-0.9254231589646618
 30
0.0
  0
SPLINE
  5
3DC
330
1F
100
AcDbEntity
  8
0
  6
Continuous
 62
     1
370
    25
100
AcDbSpline
210
0.0
220
0.0
230
1.0
 70
     8
 71
     3
 72
     9
 73
     5
 74
     0
 42
0.000000001
 43
0.00000001
 40
0.0
 40
0.0
 40
0.0
 40
0.0
 40
0.5743536689451165
 40
1.0
 40
1.0
 40
1.0
 40
1.0
 10
-41.27500000000003
 20
-2.182812500000004
 30
0.0
 10
-40.89640900232121
 20
-2.141192513022595
 30
0.0
 10
-40.23724894441793
 20
-2.082704345166845
 30
0.0
 10
-39.57806557952574
 20
-1.866479878474166
 30
0.0
 10
-39.29748659876702
 20
-1.774444727542132
 30
0.0
  0
SPLINE
  5
3DD
330
1F
100
AcDbEntity
  8
0
  6
Continuous
 62
     1
370
    25
100
AcDbSpline
210
0.0
220
0.0
230
1.0
 70
     8
 71
     3
 72
    17
 73
    13
 74
     0
 42
0.000000001
 43
0.00000001
 40
0.0
 40
0.0
 40
0.0
 40
0.0
 40
0.08870713295553
 40
0.1951864735222456
 40
0.3016621786298965
 40
0.4081327656143683
 40
0.5145967573294097
 40
0.6116843246471294
 40
0.70876774989171
 40
0.8058477146833363
 40
0.9029249028514265
 40
1.0
 40
1.0
 40
1.0
 40
1.0
 10
-29.72246378516303
 20
2.169161265314678
 30
0.0
 10
-29.40685315094785
 20
2.161461826176869
 30
0.0
 10
-28.71240024004754
 20
2.144520388399116
 30
0.0
 10
-27.63912419041674
 20
1.884819013155088
 30
0.0
 10
-26.50264923493427
 20
1.461226385826436
 30
0.0
 10
-25.36626333419889
 20
0.9011993212789453
 30
0.0
 10
-24.26320683498031
 20
0.2805053031737761
 30
0.0
 10
-23.1938593219233
 20
-0.3425223963287673
 30
0.0
 10
-22.157825372361
 20
-0.9212893137258003
 30
0.0
 10
-21.12185557617866
 20
-1.428335139827801
 30
0.0
 10
-20.0859158373982
 20
-1.839884750748943
 30
0.0
 10
-19.39530279983262
 20
-1.995087130435429
 30
0.0
 10
-19.04999999999998
 20
-2.072687484514091
 30
0.0
  0
SPLINE
  5
3DE
330
1F
100
AcDbEntity
  8
외형선
  6
Continuous
370
    15
100
AcDbSpline
210
0.0
220
0.0
230
1.0
 70
    24
 71
     3
 72
    14
 73
    10
 74
     0
 42
0.000000001
 43
0.00000001
 40
0.0
 40
0.0
 40
0.0
 40
0.0
 40
0.1072241353617947
 40
0.2610660888388296
 40
0.414908042315912
 40
0.5687499957929996
 40
0.7225919492700845
 40
0.8764339027471687
 40
1.0
 40
1.0
 40
1.0
 40
1.0
 10
-19.04999999999998
 20
-2.072687484514084
 30
0.0
 10
-19.05000000000001
 20
-1.985455070227764
 30
0.0
 10
-19.05000000000007
 20
-1.773064220529057
 30
0.0
 10
-19.05000000000004
 20
-1.375848411023859
 30
0.0
 10
-19.04999999999998
 20
-0.9321753143969214
 30
0.0
 10
-19.05000000000004
 20
-0.528194681586434
 30
0.0
 10
-19.04999999999995
 20
-0.2168762688480252
 30
0.0
 10
-19.05000000000004
 20
-0.0255554976511329
 30
0.0
 10
-19.04999999999998
 20
-0.0146669624807951
 30
0.0
 10
-19.05000000000001
 20
-0.0098168732629129
 30
0.0
  0
LINE
  5
3DF
330
1F
100
AcDbEntity
  8
0
  6
Continuous
 62
     1
370
    25
100
AcDbLine
 10
-41.27500000000003
 20
1.97693257017231
 30
0.0
 11
-41.27500000000003
 21
-0.1870263201723356
 31
0.0
  0
SPLINE
  5
3E0
330
1F
100
AcDbEntity
  8
0
  6
Continuous
 62
     1
370
    25
100
AcDbSpline
210
0.0
220
0.0
230
1.0
 70
     8
 71
     3
 72
    10
 73
     6
 74
     0
 42
0.000000001
 43
0.00000001
 40
0.0
 40
0.0
 40
0.0
 40
0.0
 40
0.4264023510866589
 40
0.8528138869762438
 40
1.0
 40
1.0
 40
1.0
 40
1.0
 10
-19.05000000000001
 20
2.181622325146734
 30
0.0
 10
-19.39530295804374
 20
2.170681396472887
 30
0.0
 10
-20.08591631203487
 20
2.148799303455114
 30
0.0
 10
-20.8957247088419
 20
1.986769477924185
 30
0.0
 10
-21.36023246757412
 20
1.818042046463767
 30
0.0
 10
-21.47942593290071
 20
1.77474630624554
 30
0.0
  0
SPLINE
  5
3E1
330
1F
100
AcDbEntity
  8
0
  6
Continuous
 62
     1
370
    25
100
AcDbSpline
210
0.0
220
0.0
230
1.0
 70
     8
 71
     3
 72
    16
 73
    12
 74
     0
 42
0.000000001
 43
0.00000001
 40
0.0
 40
0.0
 40
0.0
 40
0.0
 40
0.1107837295891208
 40
0.2219604360080031
 40
0.3331331699624427
 40
0.4443003839478769
 40
0.5554605364098495
 40
0.6666120933928394
 40
0.7777535301715104
 40
0.8888833328606135
 40
1.0
 40
1.0
 40
1.0
 40
1.0
 10
-31.05278072105807
 20
-2.18246568968194
 30
0.0
 10
-31.43028254828903
 20
-2.163628241882378
 30
0.0
 10
-32.18662529353475
 20
-2.125886525274928
 30
0.0
 10
-33.32179000624706
 20
-1.826421943739333
 30
0.0
 10
-34.45825346838478
 20
-1.377045013728015
 30
0.0
 10
-35.59464922346808
 20
-0.8003565393372223
 30
0.0
 10
-36.73095836611259
 20
-0.1531936369892572
 30
0.0
 10
-37.86716227858301
 20
0.5088679419965207
 30
0.0
 10
-39.0032415533467
 20
1.121808222668968
 30
0.0
 10
-40.13918035700524
 20
1.646915021537467
 30
0.0
 10
-40.8964083706166
 20
1.866931055201718
 30
0.0
 10
-41.27500000000003
 20
1.97693257017231
 30
0.0
  0
SPLINE
  5
3E2
330
1F
100
AcDbEntity
  8
0
  6
Continuous
 62
     1
370
    25
100
AcDbSpline
210
0.0
220
0.0
230
1.0
 70
     8
 71
     3
 72
    14
 73
    10
 74
     0
 42
0.000000001
 43
0.00000001
 40
0.0
 40
0.0
 40
0.0
 40
0.0
 40
0.1434615781619634
 40
0.2869401154961237
 40
0.4304336734828403
 40
0.5739402975605445
 40
0.7174580191721412
 40
0.860984857843548
 40
1.0
 40
1.0
 40
1.0
 40
1.0
 10
-41.27499999999998
 20
-0.1870263201723356
 30
0.0
 10
-40.89640837044783
 20
-0.4032183265491293
 30
0.0
 10
-40.13918035649891
 20
-0.8356278962324022
 30
0.0
 10
-39.00324155537237
 20
-1.404891278913893
 30
0.0
 10
-37.8671622709856
 20
-1.849220416371082
 30
0.0
 10
-36.73095839448007
 20
-2.128372074071172
 30
0.0
 10
-35.59464911758496
 20
-2.213468649089328
 30
0.0
 10
-34.4701800722367
 20
-2.113656280447457
 30
0.0
 10
-33.72447830465921
 20
-1.895027026559994
 30
0.0
 10
-33.3575811910963
 20
-1.787457961178368
 30
0.0
  0
SPLINE
  5
3E3
330
1F
100
AcDbEntity
  8
0
  6
Continuous
 62
     1
370
    25
100
AcDbSpline
210
0.0
220
0.0
230
1.0
 70
     8
 71
     3
 72
    12
 73
     8
 74
     0
 42
0.000000001
 43
0.00000001
 40
0.0
 40
0.0
 40
0.0
 40
0.0
 40
0.1243913296182903
 40
0.3433036586589902
 40
0.5622081847630528
 40
0.7811064498897792
 40
1.0
 40
1.0
 40
1.0
 40
1.0
 10
-23.78252842513024
 20
2.162735630313172
 30
0.0
 10
-23.5862965941534
 20
2.165452907016779
 30
0.0
 10
-23.04472262974258
 20
2.172952232225356
 30
0.0
 10
-22.1578289494615
 20
2.004805147686945
 30
0.0
 10
-21.12185462232935
 20
1.685857739617163
 30
0.0
 10
-20.08591607585169
 20
1.237289238998657
 30
0.0
 10
-19.39530287931655
 20
0.8688088698976419
 30
0.0
 10
-19.04999999999998
 20
0.684570669613358
 30
0.0
  0
SPLINE
  5
3E4
330
1F
100
AcDbEntity
  8
외형선
  6
Continuous
370
    15
100
AcDbSpline
210
0.0
220
0.0
230
1.0
 70
    24
 71
     3
 72
    11
 73
     7
 74
     0
 42
0.000000001
 43
0.00000001
 40
0.0
 40
0.0
 40
0.0
 40
0.0
 40
0.2252606298272095
 40
0.500791802702306
 40
0.7763229755774116
 40
1.0
 40
1.0
 40
1.0
 40
1.0
 10
-19.05000000000001
 20
0.7411082570085559
 30
0.0
 10
-19.05000000000001
 20
0.8215152000715311
 30
0.0
 10
-19.04999999999998
 20
1.000273192523097
 30
0.0
 10
-19.05000000000004
 20
1.389141384686859
 30
0.0
 10
-19.04999999999995
 20
1.807089552717557
 30
0.0
 10
-19.04999999999998
 20
2.065733421115276
 30
0.0
 10
-19.05000000000001
 20
2.181622325146734
 30
0.0
  0
LINE
  5
3E5
330
1F
100
AcDbEntity
  8
외형선
  6
Continuous
370
    15
100
AcDbLine
 10
-19.04999999999998
 20
-2.072687484514084
 30
0.0
 11
-19.05000000000001
 21
-2.182812500000004
 31
0.0
  0
LINE
  5
3E6
330
1F
100
AcDbEntity
  8
0
  6
Continuous
 62
     1
370
    25
100
AcDbLine
 10
-41.27500000000003
 20
-0.1870263201723356
 30
0.0
 11
-41.27500000000003
 21
-0.9254231589646618
 31
0.0
  0
LINE
  5
3E7
330
1F
100
AcDbEntity
  8
외형선
  6
Continuous
370
    15
100
AcDbLine
 10
-19.04999999999998
 20
0.6845706696133651
 30
0.0
 11
-19.05000000000001
 21
-0.0720724675421489
 31
0.0
  0
LINE
  5
3E8
330
1F
100
AcDbEntity
  8
0
  6
Continuous
 62
     1
370
    25
100
AcDbLine
 10
-41.27500000000003
 20
2.18281249999999
 30
0.0
 11
-41.27500000000003
 21
1.97693257017231
 31
0.0
  0
LINE
  5
3E9
330
1F
100
AcDbEntity
  8
외형선
  6
Continuous
370
    15
100
AcDbLine
 10
-19.05000000000001
 20
2.182812499999998
 30
0.0
 11
-19.05000000000001
 21
2.181622325146734
 31
0.0
  0
LINE
  5
3EA
330
1F
100
AcDbEntity
  8
외형선
  6
Continuous
370
    15
100
AcDbLine
 10
-18.05000000000001
 20
0.0000000000000005
 30
0.0
 11
-18.05000000000001
 21
-2.182812500000004
 31
0.0
  0
LINE
  5
3EB
330
1F
100
AcDbEntity
  8
외형선
  6
Continuous
370
    15
100
AcDbLine
 10
-18.05000000000001
 20
2.182812499999998
 30
0.0
 11
-18.05000000000001
 21
0.0000000000000005
 31
0.0
  0
LINE
  5
3EC
330
1F
100
AcDbEntity
  8
외형선
  6
Continuous
370
    15
100
AcDbLine
 10
-17.30942116787304
 20
0.0000000000000005
 30
0.0
 11
-17.30942116787304
 21
-2.381250000000008
 31
0.0
  0
LINE
  5
3ED
330
1F
100
AcDbEntity
  8
외형선
  6
Continuous
370
    15
100
AcDbLine
 10
-17.30942116787304
 20
2.381250000000002
 30
0.0
 11
-17.30942116787304
 21
0.0000000000000005
 31
0.0
  0
LINE
  5
3EE
330
1F
100
AcDbEntity
  8
외형선
  6
Continuous
370
    15
100
AcDbLine
 10
-18.55005968479907
 20
2.153021182633723
 30
0.0
 11
-18.55005968479907
 21
0.4049635265965042
 31
0.0
  0
SPLINE
  5
3EF
330
1F
100
AcDbEntity
  8
외형선
  6
Continuous
370
    15
100
AcDbSpline
210
0.0
220
0.0
230
1.0
 70
     8
 71
     3
 72
     8
 73
     4
 74
     0
 42
0.000000001
 43
0.00000001
 40
0.0
 40
0.0
 40
0.0
 40
0.0
 40
1.0
 40
1.0
 40
1.0
 40
1.0
 10
-19.05000000000001
 20
2.181622325146734
 30
0.0
 10
-18.88227454557267
 20
2.178434933968895
 30
0.0
 10
-18.71575043433688
 20
2.16884879982559
 30
0.0
 10
-18.55005968479907
 20
2.153017852663617
 30
0.0
  0
SPLINE
  5
3F0
330
1F
100
AcDbEntity
  8
외형선
  6
Continuous
370
    15
100
AcDbSpline
210
0.0
220
0.0
230
1.0
 70
     8
 71
     3
 72
     8
 73
     4
 74
     0
 42
0.000000001
 43
0.00000001
 40
0.0
 40
0.0
 40
0.0
 40
0.0
 40
1.0
 40
1.0
 40
1.0
 40
1.0
 10
-19.05000000000004
 20
-2.072687484514084
 30
0.0
 10
-18.88227454557267
 20
-2.102962492257539
 30
0.0
 10
-18.71575043433683
 20
-2.127077924547329
 30
0.0
 10
-18.55005968479907
 20
-2.144915440234946
 30
0.0
  0
LINE
  5
3F1
330
1F
100
AcDbEntity
  8
외형선
  6
Continuous
370
    15
100
AcDbLine
 10
-18.55005968479907
 20
-0.3594025560380766
 30
0.0
 11
-18.55005968479907
 21
-2.14491840224349
 31
0.0
  0
SPLINE
  5
3F2
330
1F
100
AcDbEntity
  8
외형선
  6
Continuous
370
    15
100
AcDbSpline
210
0.0
220
0.0
230
1.0
 70
     8
 71
     3
 72
     8
 73
     4
 74
     0
 42
0.000000001
 43
0.00000001
 40
0.0
 40
0.0
 40
0.0
 40
0.0
 40
1.0
 40
1.0
 40
1.0
 40
1.0
 10
-19.05000000000001
 20
-0.0720724675421347
 30
0.0
 10
-18.88227454557267
 20
-0.1685543001985361
 30
0.0
 10
-18.71575043433688
 20
-0.264591736430368
 30
0.0
 10
-18.55005968479907
 20
-0.3594225038418907
 30
0.0
  0
SPLINE
  5
3F3
330
1F
100
AcDbEntity
  8
외형선
  6
Continuous
370
    15
100
AcDbSpline
210
0.0
220
0.0
230
1.0
 70
     8
 71
     3
 72
     8
 73
     4
 74
     0
 42
0.000000001
 43
0.00000001
 40
0.0
 40
0.0
 40
0.0
 40
0.0
 40
1.0
 40
1.0
 40
1.0
 40
1.0
 10
-19.05000000000004
 20
0.6845706696133793
 30
0.0
 10
-18.88227454557267
 20
0.5929064595780962
 30
0.0
 10
-18.71575043433683
 20
0.4994531073039573
 30
0.0
 10
-18.55005968479907
 20
0.4049792147727592
 30
0.0
  0
SPLINE
  5
3F4
330
1F
100
AcDbEntity
  8
외형선
  6
Continuous
370
    15
100
AcDbSpline
210
0.0
220
0.0
230
1.0
 70
    24
 71
     3
 72
    15
 73
    11
 74
     0
 42
0.000000001
 43
0.00000001
 40
0.0
 40
0.0
 40
0.0
 40
0.0
 40
0.0003810475523233
 40
0.1547046866328931
 40
0.3090283257134985
 40
0.4633519647940865
 40
0.617675603874673
 40
0.7719992429552477
 40
0.9263228820358517
 40
1.0
 40
1.0
 40
1.0
 40
1.0
 10
-19.05000000000007
 20
0.0016669137610923
 30
0.0
 10
-19.05000000000007
 20
0.0017261311799577
 30
0.0
 10
-19.04999999999887
 20
0.0257683069478465
 30
0.0
 10
-19.05000000000055
 20
-0.06436199619236
 30
0.0
 10
-19.04999999999984
 20
-0.2705956934199416
 30
0.0
 10
-19.05000000000004
 20
-0.6121621324185536
 30
0.0
 10
-19.05000000000001
 20
-1.027543205570332
 30
0.0
 10
-19.04999999999998
 20
-1.474565097159874
 30
0.0
 10
-19.05000000000007
 20
-1.831845714330221
 30
0.0
 10
-19.04999999999998
 20
-2.013868031771636
 30
0.0
 10
-19.04999999999998
 20
-2.072687484514098
 30
0.0
  0
SPLINE
  5
3F5
330
1F
100
AcDbEntity
  8
외형선
  6
Continuous
370
    15
100
AcDbSpline
210
0.0
220
0.0
230
1.0
 70
    24
 71
     3
 72
    11
 73
     7
 74
     0
 42
0.000000001
 43
0.00000001
 40
0.0
 40
0.0
 40
0.0
 40
0.0
 40
0.2823755449985835
 40
0.5565847758724634
 40
0.8307940067464061
 40
1.0
 40
1.0
 40
1.0
 40
1.0
 10
-19.05000000000001
 20
2.181622325146734
 30
0.0
 10
-19.05000000000004
 20
2.033134704059791
 30
0.0
 10
-19.05000000000007
 20
1.740453730914873
 30
0.0
 10
-19.05000000000001
 20
1.295947740974164
 30
0.0
 10
-19.05000000000001
 20
0.9440571398586646
 30
0.0
 10
-19.05000000000001
 20
0.7971627427626733
 30
0.0
 10
-19.05000000000001
 20
0.7411082570085559
 30
0.0
  0
ENDSEC
  0
SECTION
  2
OBJECTS
  0
DICTIONARY
  5
C
330
0
100
AcDbDictionary
281
     1
  3
ACAD_GROUP
350
D
  3
ACAD_IMAGE_VARS
350
15B
  3
ACAD_LAYOUT
350
1A
  3
ACAD_MLINESTYLE
350
17
  3
ACAD_PLOTSETTINGS
350
19
  3
ACAD_PLOTSTYLENAME
350
E
  3
ACAD_SCALELIST
350
47
  3
APPDATA
350
159
  3
DWGPROPS
350
449
  0
DICTIONARY
  5
229
330
2
100
AcDbDictionary
280
     1
281
     1
  3
ACAD_LAYERSTATES
360
22A
  0
DICTIONARY
  5
D
102
{ACAD_REACTORS
330
C
102
}
330
C
100
AcDbDictionary
281
     1
  0
RASTERVARIABLES
  5
15B
102
{ACAD_REACTORS
330
C
102
}
330
C
100
AcDbRasterVariables
 90
        0
 70
     1
 71
     1
 72
     1
  0
DICTIONARY
  5
1A
102
{ACAD_REACTORS
330
C
102
}
330
C
100
AcDbDictionary
281
     1
  3
Layout1
350
1E
  3
Layout2
350
26
  3
Model
350
22
  0
DICTIONARY
  5
17
102
{ACAD_REACTORS
330
C
102
}
330
C
100
AcDbDictionary
281
     1
  3
Standard
350
18
  0
DICTIONARY
  5
19
102
{ACAD_REACTORS
330
C
102
}
330
C
100
AcDbDictionary
281
     1
  0
ACDBDICTIONARYWDFLT
  5
E
102
{ACAD_REACTORS
330
C
102
}
330
C
100
AcDbDictionary
281
     1
  3
Normal
350
F
100
AcDbDictionaryWithDefault
340
F
  0
DICTIONARY
  5
47
102
{ACAD_REACTORS
330
C
102
}
330
C
100
AcDbDictionary
281
     1
  3
A0
350
48
  3
A1
350
49
  3
A2
350
4A
  3
A3
350
4B
  3
A4
350
4C
  3
A5
350
4D
  3
A6
350
4E
  3
A7
350
4F
  3
A8
350
50
  3
A9
350
51
  3
B0
350
52
  3
B1
350
53
  3
B2
350
54
  3
B3
350
55
  3
B4
350
56
  3
B5
350
57
  3
B6
350
58
  3
B7
350
59
  3
B8
350
5A
  3
B9
350
5B
  3
C0
350
5C
  3
C1
350
5D
  3
C2
350
5E
  3
C3
350
5F
  3
C4
350
60
  3
C5
350
61
  3
C6
350
62
  3
C7
350
63
  3
C8
350
64
  3
C9
350
65
  3
D0
350
66
  3
D1
350
67
  3
D2
350
68
  0
DICTIONARY
  5
159
102
{ACAD_REACTORS
330
C
102
}
330
C
100
AcDbDictionary
281
     1
  0
XRECORD
  5
449
102
{ACAD_REACTORS
330
C
102
}
330
C
100
AcDbXrecord
280
     1
  1
DWGPROPS COOKIE
  2

  3

  4

  6

  7

  8
12016016
  9

300
=
301
=
302
=
303
=
304
=
305
=
306
=
307
=
308
=
309
=
 40
0.0
 41
2458313.106402454
 42
2458320.376519039
  1

 90
        0
  0
DICTIONARY
  5
22A
102
{ACAD_REACTORS
330
229
102
}
330
229
100
AcDbDictionary
281
     1
  0
LAYOUT
  5
1E
102
{ACAD_REACTORS
330
1A
102
}
330
1A
100
AcDbPlotSettings
  1

  2
none_device
  4

  6

 40
0.0
 41
0.0
 42
0.0
 43
0.0
 44
0.0
 45
0.0
 46
0.0
 47
0.0
 48
0.0
 49
0.0
140
0.0
141
0.0
142
1.0
143
1.0
 70
   688
 72
     1
 73
     0
 74
     5
  7

 75
    16
147
1.0
148
0.0
149
0.0
100
AcDbLayout
  1
Layout1
 70
     1
 71
     1
 10
0.0
 20
0.0
 11
420.0
 21
297.0
 12
0.0
 22
0.0
 32
0.0
 14
1.000000000000000E+20
 24
1.000000000000000E+20
 34
1.000000000000000E+20
 15
-1.000000000000000E+20
 25
-1.000000000000000E+20
 35
-1.000000000000000E+20
146
0.0
 13
0.0
 23
0.0
 33
0.0
 16
1.0
 26
0.0
 36
0.0
 17
0.0
 27
1.0
 37
0.0
 76
     0
330
1B
  0
LAYOUT
  5
26
102
{ACAD_REACTORS
330
1A
102
}
330
1A
100
AcDbPlotSettings
  1

  2
none_device
  4

  6

 40
0.0
 41
0.0
 42
0.0
 43
0.0
 44
0.0
 45
0.0
 46
0.0
 47
0.0
 48
0.0
 49
0.0
140
0.0
141
0.0
142
1.0
143
1.0
 70
   688
 72
     1
 73
     0
 74
     5
  7

 75
    16
147
1.0
148
0.0
149
0.0
100
AcDbLayout
  1
Layout2
 70
     1
 71
     2
 10
0.0
 20
0.0
 11
0.0
 21
0.0
 12
0.0
 22
0.0
 32
0.0
 14
0.0
 24
0.0
 34
0.0
 15
0.0
 25
0.0
 35
0.0
146
0.0
 13
0.0
 23
0.0
 33
0.0
 16
1.0
 26
0.0
 36
0.0
 17
0.0
 27
1.0
 37
0.0
 76
     0
330
23
  0
LAYOUT
  5
22
102
{ACAD_REACTORS
330
1A
102
}
330
1A
100
AcDbPlotSettings
  1

  2
none_device
  4
ANSI_A_(11.00_x_8.50_Inches)
  6

 40
6.35
 41
19.05
 42
6.35000508
 43
19.05000254
 44
279.4
 45
215.9
 46
73.46183019461073
 47
82.80117993119596
 48
0.0
 49
0.0
140
0.0
141
0.0
142
0.0487809200546334
143
1.0
 70
  1696
 72
     0
 73
     0
 74
     0
  7

 75
     0
147
0.0235690232323232
148
0.0
149
0.0
100
AcDbLayout
  1
Model
 70
     1
 71
     0
 10
0.0
 20
0.0
 11
420.0
 21
297.0
 12
0.0
 22
0.0
 32
0.0
 14
-58.65000000000004
 24
-49.97180738881174
 34
0.0
 15
81.41936447236121
 25
38.53681250000005
 35
0.0
146
0.0
 13
0.0
 23
0.0
 33
0.0
 16
1.0
 26
0.0
 36
0.0
 17
0.0
 27
1.0
 37
0.0
 76
     0
330
1F
331
29
  0
MLINESTYLE
  5
18
102
{ACAD_REACTORS
330
17
102
}
330
17
100
AcDbMlineStyle
  2
Standard
 70
     0
  3

 62
   256
 51
90.0
 52
90.0
 71
     2
 49
0.5
 62
   256
  6
BYLAYER
 49
-0.5
 62
   256
  6
BYLAYER
  0
ACDBPLACEHOLDER
  5
F
102
{ACAD_REACTORS
330
E
102
}
330
E
  0
SCALE
  5
48
102
{ACAD_REACTORS
330
47
102
}
330
47
100
AcDbScale
 70
     0
300
1:1
140
1.0
141
1.0
290
     1
  0
SCALE
  5
49
102
{ACAD_REACTORS
330
47
102
}
330
47
100
AcDbScale
 70
     0
300
1:2
140
1.0
141
2.0
290
     0
  0
SCALE
  5
4A
102
{ACAD_REACTORS
330
47
102
}
330
47
100
AcDbScale
 70
     0
300
1:4
140
1.0
141
4.0
290
     0
  0
SCALE
  5
4B
102
{ACAD_REACTORS
330
47
102
}
330
47
100
AcDbScale
 70
     0
300
1:5
140
1.0
141
5.0
290
     0
  0
SCALE
  5
4C
102
{ACAD_REACTORS
330
47
102
}
330
47
100
AcDbScale
 70
     0
300
1:8
140
1.0
141
8.0
290
     0
  0
SCALE
  5
4D
102
{ACAD_REACTORS
330
47
102
}
330
47
100
AcDbScale
 70
     0
300
1:10
140
1.0
141
10.0
290
     0
  0
SCALE
  5
4E
102
{ACAD_REACTORS
330
47
102
}
330
47
100
AcDbScale
 70
     0
300
1:16
140
1.0
141
16.0
290
     0
  0
SCALE
  5
4F
102
{ACAD_REACTORS
330
47
102
}
330
47
100
AcDbScale
 70
     0
300
1:20
140
1.0
141
20.0
290
     0
  0
SCALE
  5
50
102
{ACAD_REACTORS
330
47
102
}
330
47
100
AcDbScale
 70
     0
300
1:30
140
1.0
141
30.0
290
     0
  0
SCALE
  5
51
102
{ACAD_REACTORS
330
47
102
}
330
47
100
AcDbScale
 70
     0
300
1:40
140
1.0
141
40.0
290
     0
  0
SCALE
  5
52
102
{ACAD_REACTORS
330
47
102
}
330
47
100
AcDbScale
 70
     0
300
1:50
140
1.0
141
50.0
290
     0
  0
SCALE
  5
53
102
{ACAD_REACTORS
330
47
102
}
330
47
100
AcDbScale
 70
     0
300
1:100
140
1.0
141
100.0
290
     0
  0
SCALE
  5
54
102
{ACAD_REACTORS
330
47
102
}
330
47
100
AcDbScale
 70
     0
300
2:1
140
2.0
141
1.0
290
     0
  0
SCALE
  5
55
102
{ACAD_REACTORS
330
47
102
}
330
47
100
AcDbScale
 70
     0
300
4:1
140
4.0
141
1.0
290
     0
  0
SCALE
  5
56
102
{ACAD_REACTORS
330
47
102
}
330
47
100
AcDbScale
 70
     0
300
8:1
140
8.0
141
1.0
290
     0
  0
SCALE
  5
57
102
{ACAD_REACTORS
330
47
102
}
330
47
100
AcDbScale
 70
     0
300
10:1
140
10.0
141
1.0
290
     0
  0
SCALE
  5
58
102
{ACAD_REACTORS
330
47
102
}
330
47
100
AcDbScale
 70
     0
300
100:1
140
100.0
141
1.0
290
     0
  0
SCALE
  5
59
102
{ACAD_REACTORS
330
47
102
}
330
47
100
AcDbScale
 70
     0
300
1/128" = 1'-0"
140
0.0078125
141
12.0
290
     0
  0
SCALE
  5
5A
102
{ACAD_REACTORS
330
47
102
}
330
47
100
AcDbScale
 70
     0
300
1/64" = 1'-0"
140
0.015625
141
12.0
290
     0
  0
SCALE
  5
5B
102
{ACAD_REACTORS
330
47
102
}
330
47
100
AcDbScale
 70
     0
300
1/32" = 1'-0"
140
0.03125
141
12.0
290
     0
  0
SCALE
  5
5C
102
{ACAD_REACTORS
330
47
102
}
330
47
100
AcDbScale
 70
     0
300
1/16" = 1'-0"
140
0.0625
141
12.0
290
     0
  0
SCALE
  5
5D
102
{ACAD_REACTORS
330
47
102
}
330
47
100
AcDbScale
 70
     0
300
3/32" = 1'-0"
140
0.09375
141
12.0
290
     0
  0
SCALE
  5
5E
102
{ACAD_REACTORS
330
47
102
}
330
47
100
AcDbScale
 70
     0
300
1/8" = 1'-0"
140
0.125
141
12.0
290
     0
  0
SCALE
  5
5F
102
{ACAD_REACTORS
330
47
102
}
330
47
100
AcDbScale
 70
     0
300
3/16" = 1'-0"
140
0.1875
141
12.0
290
     0
  0
SCALE
  5
60
102
{ACAD_REACTORS
330
47
102
}
330
47
100
AcDbScale
 70
     0
300
1/4" = 1'-0"
140
0.25
141
12.0
290
     0
  0
SCALE
  5
61
102
{ACAD_REACTORS
330
47
102
}
330
47
100
AcDbScale
 70
     0
300
3/8" = 1'-0"
140
0.375
141
12.0
290
     0
  0
SCALE
  5
62
102
{ACAD_REACTORS
330
47
102
}
330
47
100
AcDbScale
 70
     0
300
1/2" = 1'-0"
140
0.5
141
12.0
290
     0
  0
SCALE
  5
63
102
{ACAD_REACTORS
330
47
102
}
330
47
100
AcDbScale
 70
     0
300
3/4" = 1'-0"
140
0.75
141
12.0
290
     0
  0
SCALE
  5
64
102
{ACAD_REACTORS
330
47
102
}
330
47
100
AcDbScale
 70
     0
300
1" = 1'-0"
140
1.0
141
12.0
290
     0
  0
SCALE
  5
65
102
{ACAD_REACTORS
330
47
102
}
330
47
100
AcDbScale
 70
     0
300
1-1/2" = 1'-0"
140
1.5
141
12.0
290
     0
  0
SCALE
  5
66
102
{ACAD_REACTORS
330
47
102
}
330
47
100
AcDbScale
 70
     0
300
3" = 1'-0"
140
3.0
141
12.0
290
     0
  0
SCALE
  5
67
102
{ACAD_REACTORS
330
47
102
}
330
47
100
AcDbScale
 70
     0
300
6" = 1'-0"
140
6.0
141
12.0
290
     0
  0
SCALE
  5
68
102
{ACAD_REACTORS
330
47
102
}
330
47
100
AcDbScale
 70
     0
300
1'-0" = 1'-0"
140
12.0
141
12.0
290
     0
  0
ENDSEC
  0
EOF
