  0
SECTION
  2
HEADER
  9
$ACADVER
  1
AC1015
  9
$ACADMAINTVER
 70
     6
  9
$DWGCODEPAGE
  3
ANSI_949
  9
$INSBASE
 10
0.0
 20
0.0
 30
0.0
  9
$EXTMIN
 10
-58.65000000000004
 20
-49.97180738881174
 30
0.0
  9
$EXTMAX
 10
81.41936447236121
 20
37.46337500000006
 30
0.0
  9
$LIMMIN
 10
0.0
 20
0.0
  9
$LIMMAX
 10
420.0
 20
297.0
  9
$ORTHOMODE
 70
     1
  9
$REGENMODE
 70
     1
  9
$FILLMODE
 70
     1
  9
$QTEXTMODE
 70
     0
  9
$MIRRTEXT
 70
     1
  9
$LTSCALE
 40
1.0
  9
$ATTMODE
 70
     1
  9
$TEXTSIZE
 40
3.5
  9
$TRACEWID
 40
1.0
  9
$TEXTSTYLE
  7
Standard
  9
$CLAYER
  8
0
  9
$CELTYPE
  6
ByLayer
  9
$CECOLOR
 62
   256
  9
$CELTSCALE
 40
1.0
  9
$DISPSILH
 70
     0
  9
$DIMSCALE
 40
1.0
  9
$DIMASZ
 40
3.302
  9
$DIMEXO
 40
1.0
  9
$DIMDLI
 40
3.75
  9
$DIMRND
 40
0.0
  9
$DIMDLE
 40
0.0
  9
$DIMEXE
 40
1.0
  9
$DIMTP
 40
0.0
  9
$DIMTM
 40
0.0
  9
$DIMTXT
 40
3.5
  9
$DIMCEN
 40
2.5
  9
$DIMTSZ
 40
0.0
  9
$DIMTOL
 70
     0
  9
$DIMLIM
 70
     0
  9
$DIMTIH
 70
     1
  9
$DIMTOH
 70
     1
  9
$DIMSE1
 70
     0
  9
$DIMSE2
 70
     0
  9
$DIMTAD
 70
     1
  9
$DIMZIN
 70
     0
  9
$DIMBLK
  1

  9
$DIMASO
 70
     1
  9
$DIMSHO
 70
     1
  9
$DIMPOST
  1

  9
$DIMAPOST
  1

  9
$DIMALT
 70
     0
  9
$DIMALTD
 70
     3
  9
$DIMALTF
 40
0.0393700787401575
  9
$DIMLFAC
 40
1.0
  9
$DIMTOFL
 70
     1
  9
$DIMTVP
 40
0.0
  9
$DIMTIX
 70
     0
  9
$DIMSOXD
 70
     0
  9
$DIMSAH
 70
     0
  9
$DIMBLK1
  1

  9
$DIMBLK2
  1

  9
$DIMSTYLE
  2
ISO-25
  9
$DIMCLRD
 70
     0
  9
$DIMCLRE
 70
     0
  9
$DIMCLRT
 70
     0
  9
$DIMTFAC
 40
1.0
  9
$DIMGAP
 40
1.524
  9
$DIMJUST
 70
     0
  9
$DIMSD1
 70
     0
  9
$DIMSD2
 70
     0
  9
$DIMTOLJ
 70
     0
  9
$DIMTZIN
 70
     0
  9
$DIMALTZ
 70
     0
  9
$DIMALTTZ
 70
     0
  9
$DIMUPT
 70
     0
  9
$DIMDEC
 70
     2
  9
$DIMTDEC
 70
     2
  9
$DIMALTU
 70
     2
  9
$DIMALTTD
 70
     3
  9
$DIMTXSTY
  7
Standard
  9
$DIMAUNIT
 70
     0
  9
$DIMADEC
 70
     2
  9
$DIMALTRND
 40
0.0
  9
$DIMAZIN
 70
     0
  9
$DIMDSEP
 70
    44
  9
$DIMATFIT
 70
     3
  9
$DIMFRAC
 70
     0
  9
$DIMLDRBLK
  1

  9
$DIMLUNIT
 70
     2
  9
$DIMLWD
 70
    -2
  9
$DIMLWE
 70
    -2
  9
$DIMTMOVE
 70
     0
  9
$LUNITS
 70
     2
  9
$LUPREC
 70
     2
  9
$SKETCHINC
 40
1.0
  9
$FILLETRAD
 40
10.0
  9
$AUNITS
 70
     0
  9
$AUPREC
 70
     2
  9
$MENU
  1
.
  9
$ELEVATION
 40
0.0
  9
$PELEVATION
 40
0.0
  9
$THICKNESS
 40
0.0
  9
$LIMCHECK
 70
     0
  9
$CHAMFERA
 40
0.0
  9
$CHAMFERB
 40
0.0
  9
$CHAMFERC
 40
0.0
  9
$CHAMFERD
 40
0.0
  9
$SKPOLY
 70
     0
  9
$TDCREATE
 40
2458313.481190475
  9
$TDUCREATE
 40
2458313.106190475
  9
$TDUPDATE
 40
2458320.75158728
  9
$TDUUPDATE
 40
2458320.37658728
  9
$TDINDWG
 40
0.0001913194
  9
$TDUSRTIMER
 40
2458320.376530463
  9
$USRTIMER
 70
     1
  9
$ANGBASE
 50
0.0
  9
$ANGDIR
 70
     0
  9
$PDMODE
 70
     0
  9
$PDSIZE
 40
-1.0
  9
$PLINEWID
 40
0.0
  9
$SPLFRAME
 70
     0
  9
$SPLINETYPE
 70
     6
  9
$SPLINESEGS
 70
     8
  9
$HANDSEED
  5
464
  9
$SURFTAB1
 70
     6
  9
$SURFTAB2
 70
     6
  9
$SURFTYPE
 70
     6
  9
$SURFU
 70
     6
  9
$SURFV
 70
     6
  9
$UCSBASE
  2

  9
$UCSNAME
  2

  9
$UCSORG
 10
0.0
 20
0.0
 30
0.0
  9
$UCSXDIR
 10
1.0
 20
0.0
 30
0.0
  9
$UCSYDIR
 10
0.0
 20
1.0
 30
0.0
  9
$UCSORTHOREF
  2

  9
$UCSORTHOVIEW
 70
     0
  9
$UCSORGTOP
 10
0.0
 20
0.0
 30
0.0
  9
$UCSORGBOTTOM
 10
0.0
 20
0.0
 30
0.0
  9
$UCSORGLEFT
 10
0.0
 20
0.0
 30
0.0
  9
$UCSORGRIGHT
 10
0.0
 20
0.0
 30
0.0
  9
$UCSORGFRONT
 10
0.0
 20
0.0
 30
0.0
  9
$UCSORGBACK
 10
0.0
 20
0.0
 30
0.0
  9
$PUCSBASE
  2

  9
$PUCSNAME
  2

  9
$PUCSORG
 10
0.0
 20
0.0
 30
0.0
  9
$PUCSXDIR
 10
1.0
 20
0.0
 30
0.0
  9
$PUCSYDIR
 10
0.0
 20
1.0
 30
0.0
  9
$PUCSORTHOREF
  2

  9
$PUCSORTHOVIEW
 70
     0
  9
$PUCSORGTOP
 10
0.0
 20
0.0
 30
0.0
  9
$PUCSORGBOTTOM
 10
0.0
 20
0.0
 30
0.0
  9
$PUCSORGLEFT
 10
0.0
 20
0.0
 30
0.0
  9
$PUCSORGRIGHT
 10
0.0
 20
0.0
 30
0.0
  9
$PUCSORGFRONT
 10
0.0
 20
0.0
 30
0.0
  9
$PUCSORGBACK
 10
0.0
 20
0.0
 30
0.0
  9
$USERI1
 70
     0
  9
$USERI2
 70
     0
  9
$USERI3
 70
     0
  9
$USERI4
 70
     0
  9
$USERI5
 70
     0
  9
$USERR1
 40
0.0
  9
$USERR2
 40
0.0
  9
$USERR3
 40
0.0
  9
$USERR4
 40
0.0
  9
$USERR5
 40
0.0
  9
$WORLDVIEW
 70
     1
  9
$SHADEDGE
 70
     3
  9
$SHADEDIF
 70
    70
  9
$TILEMODE
 70
     1
  9
$MAXACTVP
 70
    64
  9
$PINSBASE
 10
0.0
 20
0.0
 30
0.0
  9
$PLIMCHECK
 70
     0
  9
$PEXTMIN
 10
1.000000000000000E+20
 20
1.000000000000000E+20
 30
1.000000000000000E+20
  9
$PEXTMAX
 10
-1.000000000000000E+20
 20
-1.000000000000000E+20
 30
-1.000000000000000E+20
  9
$PLIMMIN
 10
0.0
 20
0.0
  9
$PLIMMAX
 10
0.0
 20
0.0
  9
$UNITMODE
 70
     0
  9
$VISRETAIN
 70
     1
  9
$PLINEGEN
 70
     0
  9
$PSLTSCALE
 70
     1
  9
$TREEDEPTH
 70
  3020
  9
$CMLSTYLE
  2
Standard
  9
$CMLJUST
 70
     0
  9
$CMLSCALE
 40
20.0
  9
$PROXYGRAPHICS
 70
     1
  9
$MEASUREMENT
 70
     1
  9
$CELWEIGHT
370
    -1
  9
$ENDCAPS
280
     0
  9
$JOINSTYLE
280
     0
  9
$LWDISPLAY
290
     1
  9
$INSUNITS
 70
     4
  9
$HYPERLINKBASE
  1

  9
$STYLESHEET
  1

  9
$XEDIT
290
     1
  9
$CEPSNTYPE
380
     0
  9
$PSTYLEMODE
290
     1
  9
$FINGERPRINTGUID
  2
{F995C0CB-C42B-401A-81DA-761AC2BDF42F}
  9
$VERSIONGUID
  2
{FAEB1C32-E019-11D5-929B-00C0DF256EC4}
  9
$EXTNAMES
290
     1
  9
$PSVPSCALE
 40
0.0
  9
$OLESTARTUP
290
     0
  0
ENDSEC
  0
SECTION
  2
CLASSES
  0
CLASS
  1
ACDBDICTIONARYWDFLT
  2
AcDbDictionaryWithDefault
  3
ObjectDBX Classes
 90
        0
280
     0
281
     0
  0
CLASS
  1
VISUALSTYLE
  2
AcDbVisualStyle
  3
ObjectDBX Classes
 90
     4095
280
     0
281
     0
  0
CLASS
  1
MATERIAL
  2
AcDbMaterial
  3
ObjectDBX Classes
 90
     1153
280
     0
281
     0
  0
CLASS
  1
SCALE
  2
AcDbScale
  3
ObjectDBX Classes
 90
     1153
280
     0
281
     0
  0
CLASS
  1
SUN
  2
AcDbSun
  3
SCENEOE
 90
     1153
280
     0
281
     0
  0
CLASS
  1
ACDBPLACEHOLDER
  2
AcDbPlaceHolder
  3
ObjectDBX Classes
 90
        0
280
     0
281
     0
  0
CLASS
  1
LAYOUT
  2
AcDbLayout
  3
ObjectDBX Classes
 90
        0
280
     0
281
     0
  0
CLASS
  1
TABLESTYLE
  2
AcDbTableStyle
  3
ObjectDBX Classes
 90
     4095
280
     0
281
     0
  0
CLASS
  1
MLEADERSTYLE
  2
AcDbMLeaderStyle
  3
ACDB_MLEADERSTYLE_CLASS
 90
     4095
280
     0
281
     0
  0
CLASS
  1
RASTERVARIABLES
  2
AcDbRasterVariables
  3
ISM
 90
        0
280
     0
281
     0
  0
ENDSEC
  0
SECTION
  2
TABLES
  0
TABLE
  2
VPORT
  5
8
330
0
100
AcDbSymbolTable
 70
     1
  0
VPORT
  5
29
330
8
100
AcDbSymbolTableRecord
100
AcDbViewportTableRecord
  2
*Active
 70
     0
 10
0.0
 20
0.0
 11
1.0
 21
1.0
 12
-10.41488554120023
 22
-3.570843592638621
 13
0.0
 23
0.0
 14
10.0
 24
10.0
 15
10.0
 25
10.0
 16
0.0
 26
0.0
 36
1.0
 17
0.0
 27
0.0
 37
0.0
 40
139.5188583109727
 41
1.632093933463796
 42
50.0
 43
0.0
 44
0.0
 50
0.0
 51
0.0
 71
    16
 72
  2000
 73
     1
 74
     3
 75
     0
 76
     0
 77
     0
 78
     0
281
     0
 65
     1
110
0.0
120
0.0
130
0.0
111
1.0
121
0.0
131
0.0
112
0.0
122
1.0
132
0.0
 79
     0
146
0.0
  0
ENDTAB
  0
TABLE
  2
LTYPE
  5
5
330
0
100
AcDbSymbolTable
 70
     6
  0
LTYPE
  5
14
330
5
100
AcDbSymbolTableRecord
100
AcDbLinetypeTableRecord
  2
ByBlock
 70
     0
  3

 72
    65
 73
     0
 40
0.0
  0
LTYPE
  5
15
330
5
100
AcDbSymbolTableRecord
100
AcDbLinetypeTableRecord
  2
ByLayer
 70
     0
  3

 72
    65
 73
     0
 40
0.0
  0
LTYPE
  5
16
330
5
100
AcDbSymbolTableRecord
100
AcDbLinetypeTableRecord
  2
Continuous
 70
     0
  3
Solid line
 72
    65
 73
     0
 40
0.0
  0
LTYPE
  5
6A
330
5
100
AcDbSymbolTableRecord
100
AcDbLinetypeTableRecord
  2
HIDDEN
 70
     0
  3
Hidden __ __ __ __ __ __ __ __ __ __ __ __ __ __
 72
    65
 73
     2
 40
1.905
 49
1.27
 74
     0
 49
-0.635
 74
     0
  0
LTYPE
  5
6B
330
5
100
AcDbSymbolTableRecord
100
AcDbLinetypeTableRecord
  2
PHANTOM
 70
     0
  3
Phantom ______  __  __  ______  __  __  ______
 72
    65
 73
     6
 40
12.7
 49
6.35
 74
     0
 49
-1.27
 74
     0
 49
1.27
 74
     0
 49
-1.27
 74
     0
 49
1.27
 74
     0
 49
-1.27
 74
     0
  0
LTYPE
  5
6C
330
5
100
AcDbSymbolTableRecord
100
AcDbLinetypeTableRecord
  2
CENTER
 70
     0
  3
Center ____ _ ____ _ ____ _ ____ _ ____ _ ____
 72
    65
 73
     4
 40
10.16
 49
6.35
 74
     0
 49
-1.27
 74
     0
 49
1.27
 74
     0
 49
-1.27
 74
     0
  0
LTYPE
  5
6D
330
5
100
AcDbSymbolTableRecord
100
AcDbLinetypeTableRecord
  2
CENTERX2
 70
     0
  3
Center (2x) ________  __  ________  __  _____
 72
    65
 73
     4
 40
20.32
 49
12.7
 74
     0
 49
-2.54
 74
     0
 49
2.54
 74
     0
 49
-2.54
 74
     0
  0
LTYPE
  5
6E
330
5
100
AcDbSymbolTableRecord
100
AcDbLinetypeTableRecord
  2
DOT2
 70
     0
  3
Dot (.5x) ........................................
 72
    65
 73
     2
 40
0.635
 49
0.0
 74
     0
 49
-0.635
 74
     0
  0
ENDTAB
  0
TABLE
  2
LAYER
  5
2
102
{ACAD_XDICTIONARY
360
236
102
}
330
0
100
AcDbSymbolTable
 70
    18
  0
LAYER
  5
10
330
2
100
AcDbSymbolTableRecord
100
AcDbLayerTableRecord
  2
0
 70
     0
 62
     7
  6
Continuous
370
    -3
390
F
  0
LAYER
  5
6F
330
2
100
AcDbSymbolTableRecord
100
AcDbLayerTableRecord
  2
FORMAT
 70
     0
 62
     2
  6
Continuous
370
    -3
390
F
  0
LAYER
  5
70
330
2
100
AcDbSymbolTableRecord
100
AcDbLayerTableRecord
  2
외형선
 70
     0
 62
     4
  6
Continuous
370
    30
390
F
  0
LAYER
  5
71
330
2
100
AcDbSymbolTableRecord
100
AcDbLayerTableRecord
  2
숨은선
 70
     0
 62
     2
  6
HIDDEN
370
    15
390
F
  0
LAYER
  5
72
330
2
100
AcDbSymbolTableRecord
100
AcDbLayerTableRecord
  2
중심선
 70
     0
 62
     1
  6
CENTERX2
370
    -3
390
F
  0
LAYER
  5
73
330
2
100
AcDbSymbolTableRecord
100
AcDbLayerTableRecord
  2
파단선
 70
     0
 62
     4
  6
Continuous
370
    -3
390
F
  0
LAYER
  5
74
330
2
100
AcDbSymbolTableRecord
100
AcDbLayerTableRecord
  2
해칭선
 70
     0
 62
   100
  6
Continuous
370
    -3
390
F
  0
LAYER
  5
75
330
2
100
AcDbSymbolTableRecord
100
AcDbLayerTableRecord
  2
가는실선
 70
     0
 62
     4
  6
Continuous
370
    -3
390
F
  0
LAYER
  5
76
330
2
100
AcDbSymbolTableRecord
100
AcDbLayerTableRecord
  2
치수_보조선
 70
     0
 62
     4
  6
Continuous
370
    -3
390
F
  0
LAYER
  5
77
330
2
100
AcDbSymbolTableRecord
100
AcDbLayerTableRecord
  2
치수문자_일반주서
 70
     0
 62
     7
  6
Continuous
370
    15
390
F
  0
LAYER
  5
78
330
2
100
AcDbSymbolTableRecord
100
AcDbLayerTableRecord
  2
개별주서
 70
     0
 62
   100
  6
Continuous
370
    30
390
F
  0
LAYER
  5
79
330
2
100
AcDbSymbolTableRecord
100
AcDbLayerTableRecord
  2
중간선
 70
     0
 62
     2
  6
Continuous
370
    15
390
F
  0
LAYER
  5
7A
330
2
100
AcDbSymbolTableRecord
100
AcDbLayerTableRecord
  2
윤곽선
 70
     0
 62
     3
  6
Continuous
370
    40
390
F
  0
LAYER
  5
7B
330
2
100
AcDbSymbolTableRecord
100
AcDbLayerTableRecord
  2
중심마크
 70
     0
 62
   100
  6
Continuous
370
    30
390
F
  0
LAYER
  5
7C
330
2
100
AcDbSymbolTableRecord
100
AcDbLayerTableRecord
  2
가상선
 70
     0
 62
     4
  6
PHANTOM
370
    -3
390
F
  0
LAYER
  5
7D
330
2
100
AcDbSymbolTableRecord
100
AcDbLayerTableRecord
  2
특수지정선
 70
     0
 62
     5
  6
CENTERX2
370
    60
390
F
  0
LAYER
  5
7E
330
2
100
AcDbSymbolTableRecord
100
AcDbLayerTableRecord
  2
참조1
 70
     0
 62
    -4
  6
Continuous
370
    -3
390
F
  0
LAYER
  5
15C
330
2
100
AcDbSymbolTableRecord
100
AcDbLayerTableRecord
  2
Defpoints
 70
     0
 62
     7
  6
Continuous
290
     0
370
    -3
390
F
  0
ENDTAB
  0
TABLE
  2
STYLE
  5
3
330
0
100
AcDbSymbolTable
 70
     2
  0
STYLE
  5
11
330
3
100
AcDbSymbolTableRecord
100
AcDbTextStyleTableRecord
  2
Standard
 70
     0
 40
0.0
 41
1.0
 50
0.0
 71
     0
 42
3.5
  3
txt
  4

  0
STYLE
  5
94
330
3
100
AcDbSymbolTableRecord
100
AcDbTextStyleTableRecord
  2
SLDTEXTSTYLE0
 70
     0
 40
0.0
 41
0.75
 50
0.0
 71
     0
 42
3.5
  3
TXT
  4

  0
ENDTAB
  0
TABLE
  2
VIEW
  5
6
330
0
100
AcDbSymbolTable
 70
     0
  0
ENDTAB
  0
TABLE
  2
UCS
  5
7
330
0
100
AcDbSymbolTable
 70
     0
  0
ENDTAB
  0
TABLE
  2
APPID
  5
9
330
0
100
AcDbSymbolTable
 70
     1
  0
APPID
  5
12
330
9
100
AcDbSymbolTableRecord
100
AcDbRegAppTableRecord
  2
ACAD
 70
     0
  0
ENDTAB
  0
TABLE
  2
DIMSTYLE
  5
A
330
0
100
AcDbSymbolTable
 70
     3
100
AcDbDimStyleTable
  0
DIMSTYLE
105
27
330
A
100
AcDbSymbolTableRecord
100
AcDbDimStyleTableRecord
  2
ISO-25
 70
     0
 41
2.5
 42
0.625
 43
3.75
 44
1.25
 73
     0
 74
     0
 77
     1
 78
     8
140
2.5
141
2.5
143
0.03937007874016
147
0.625
171
     3
172
     1
178
     0
271
     2
272
     2
274
     3
278
    44
283
     0
284
     8
340
11
  0
DIMSTYLE
105
D9
102
{ACAD_REACTORS
330
D8
330
115
330
ED
330
102
102
}
330
A
100
AcDbSymbolTableRecord
100
AcDbDimStyleTableRecord
  2
SLDDIMSTYLE0
 70
     0
 41
3.302
 44
0.0
 45
0.000000001
 73
     0
 74
     0
 77
     1
 78
    12
 79
     3
140
3.5
143
0.0393700787401575
147
0.875
148
0.000000001
170
     1
172
     1
173
     1
178
     0
271
     2
272
     2
276
     2
284
    12
289
     0
340
94
  0
DIMSTYLE
105
EE
330
A
100
AcDbSymbolTableRecord
100
AcDbDimStyleTableRecord
  2
SLDDIMSTYLE1
 70
     0
 41
3.302
 44
0.0
 45
0.000000001
 73
     0
 74
     0
 77
     1
 78
    12
 79
     3
140
3.5
143
0.0393700787401575
147
0.875
148
0.000000001
170
     1
173
     1
178
     0
271
     2
272
     2
276
     2
284
    12
340
94
  0
ENDTAB
  0
TABLE
  2
BLOCK_RECORD
  5
1
330
0
100
AcDbSymbolTable
 70
    21
  0
BLOCK_RECORD
  5
1F
330
1
100
AcDbSymbolTableRecord
100
AcDbBlockTableRecord
  2
*Model_Space
340
22
  0
BLOCK_RECORD
  5
1B
330
1
100
AcDbSymbolTableRecord
100
AcDbBlockTableRecord
  2
*Paper_Space
340
1E
  0
BLOCK_RECORD
  5
23
330
1
100
AcDbSymbolTableRecord
100
AcDbBlockTableRecord
  2
*Paper_Space0
340
26
  0
BLOCK_RECORD
  5
7F
330
1
100
AcDbSymbolTableRecord
100
AcDbBlockTableRecord
  2
블럭10
340
0
102
{BLKREFS
331
D1
102
}
  0
BLOCK_RECORD
  5
DA
330
1
100
AcDbSymbolTableRecord
100
AcDbBlockTableRecord
  2
_D
340
0
  0
BLOCK_RECORD
  5
EF
330
1
100
AcDbSymbolTableRecord
100
AcDbBlockTableRecord
  2
_D_1
340
0
  0
BLOCK_RECORD
  5
103
330
1
100
AcDbSymbolTableRecord
100
AcDbBlockTableRecord
  2
_D_2
340
0
  0
BLOCK_RECORD
  5
116
330
1
100
AcDbSymbolTableRecord
100
AcDbBlockTableRecord
  2
_D_3
340
0
  0
BLOCK_RECORD
  5
130
330
1
100
AcDbSymbolTableRecord
100
AcDbBlockTableRecord
  2
SW_DOWELSYMBOL_0
340
0
102
{BLKREFS
331
136
102
}
  0
BLOCK_RECORD
  5
23A
330
1
100
AcDbSymbolTableRecord
100
AcDbBlockTableRecord
  2
*D7
340
0
  0
BLOCK_RECORD
  5
249
330
1
100
AcDbSymbolTableRecord
100
AcDbBlockTableRecord
  2
*D8
340
0
  0
BLOCK_RECORD
  5
258
330
1
100
AcDbSymbolTableRecord
100
AcDbBlockTableRecord
  2
*D9
340
0
  0
BLOCK_RECORD
  5
264
330
1
100
AcDbSymbolTableRecord
100
AcDbBlockTableRecord
  2
*D10
340
0
  0
BLOCK_RECORD
  5
2E6
330
1
100
AcDbSymbolTableRecord
100
AcDbBlockTableRecord
  2
*D11
340
0
  0
BLOCK_RECORD
  5
2F5
330
1
100
AcDbSymbolTableRecord
100
AcDbBlockTableRecord
  2
*D12
340
0
  0
BLOCK_RECORD
  5
304
330
1
100
AcDbSymbolTableRecord
100
AcDbBlockTableRecord
  2
*D13
340
0
  0
BLOCK_RECORD
  5
310
330
1
100
AcDbSymbolTableRecord
100
AcDbBlockTableRecord
  2
*D14
340
0
  0
BLOCK_RECORD
  5
3B3
330
1
100
AcDbSymbolTableRecord
100
AcDbBlockTableRecord
  2
*D15
340
0
  0
BLOCK_RECORD
  5
3C2
330
1
100
AcDbSymbolTableRecord
100
AcDbBlockTableRecord
  2
*D16
340
0
  0
BLOCK_RECORD
  5
3D1
330
1
100
AcDbSymbolTableRecord
100
AcDbBlockTableRecord
  2
*D17
340
0
  0
BLOCK_RECORD
  5
415
330
1
100
AcDbSymbolTableRecord
100
AcDbBlockTableRecord
  2
*D18
340
0
  0
BLOCK_RECORD
  5
424
330
1
100
AcDbSymbolTableRecord
100
AcDbBlockTableRecord
  2
*D19
340
0
  0
BLOCK_RECORD
  5
433
330
1
100
AcDbSymbolTableRecord
100
AcDbBlockTableRecord
  2
*D20
340
0
  0
ENDTAB
  0
ENDSEC
  0
SECTION
  2
BLOCKS
  0
BLOCK
  5
20
330
1F
100
AcDbEntity
  8
0
100
AcDbBlockBegin
  2
*Model_Space
 70
     0
 10
0.0
 20
0.0
 30
0.0
  3
*Model_Space
  1
*Model_Space
  0
ENDBLK
  5
21
330
1F
100
AcDbEntity
  8
0
100
AcDbBlockEnd
  0
BLOCK
  5
1C
330
1B
100
AcDbEntity
 67
     1
  8
0
100
AcDbBlockBegin
  2
*Paper_Space
 70
     0
 10
0.0
 20
0.0
 30
0.0
  3
*Paper_Space
  1
*Paper_Space
  0
ENDBLK
  5
1D
330
1B
100
AcDbEntity
 67
     1
  8
0
100
AcDbBlockEnd
  0
BLOCK
  5
24
330
23
100
AcDbEntity
  8
0
100
AcDbBlockBegin
  2
*Paper_Space0
 70
     0
 10
0.0
 20
0.0
 30
0.0
  3
*Paper_Space0
  1
*Paper_Space0
  0
ENDBLK
  5
25
330
23
100
AcDbEntity
  8
0
100
AcDbBlockEnd
  0
BLOCK
  5
80
330
7F
100
AcDbEntity
  8
0
100
AcDbBlockBegin
  2
블럭10
 70
     2
 10
0.0
 20
0.0
 30
0.0
  3
블럭10
  1
블럭10
  0
ELLIPSE
  5
82
330
7F
100
AcDbEntity
  8
중심선
100
AcDbEllipse
 10
20.54032771741204
 20
12.0471743016438
 30
0.0
 11
6.600054785286829
 21
-1.261213355974178E-13
 31
0.0
210
0.0
220
0.0
230
1.0
 40
0.636358354079598
 41
0.9219305317359503
 42
6.513795318482858
  0
ELLIPSE
  5
83
330
7F
100
AcDbEntity
  8
중심선
100
AcDbEllipse
 10
20.54032771746488
 20
12.04717430159265
 30
0.0
 11
3.960054785062283
 21
1.540847449632565E-10
 31
0.0
210
0.0
220
0.0
230
1.0
 40
0.3939339440162632
 41
1.131841032648279
 42
5.62031148352944
  0
LINE
  5
84
330
7F
100
AcDbEntity
  8
중심선
100
AcDbLine
 10
2.268634060543552
 20
16.24717430164393
 30
0.0
 11
5.714909304380834
 21
16.24717430164393
 31
0.0
  0
LINE
  5
85
330
7F
100
AcDbEntity
  8
중심선
100
AcDbLine
 10
5.245725140726316
 20
7.84717430164391
 30
0.0
 11
8.692000384563599
 21
7.84717430164391
 31
0.0
  0
LINE
  5
86
330
7F
100
AcDbEntity
  8
중심선
100
AcDbLine
 10
15.74043728645272
 20
16.24717430164393
 30
0.0
 11
8.692000384563599
 21
7.84717430164391
 31
0.0
  0
LINE
  5
87
330
7F
100
AcDbEntity
  8
중심선
100
AcDbLine
 10
0.1404042013395286
 20
13.71084872107135
 30
0.0
 11
3.58671253028996
 21
13.71088815037384
 31
0.0
  0
LINE
  5
88
330
7F
100
AcDbEntity
  8
중심선
100
AcDbLine
 10
2.750260043222114
 20
10.84717430164391
 30
0.0
 11
6.196535287059397
 21
10.84717430164391
 31
0.0
  0
LINE
  5
89
330
7F
100
AcDbEntity
  8
중심선
100
AcDbLine
 10
12.29416204261559
 20
16.24717430164393
 30
0.0
 11
5.245725140726316
 21
7.84717430164391
 31
0.0
  0
LINE
  5
8A
330
7F
100
AcDbEntity
  8
중심선
100
AcDbLine
 10
10.72767329541681
 20
16.24717430164393
 30
0.0
 11
6.196535287059397
 21
10.84717430164391
 31
0.0
  0
LINE
  5
8B
330
7F
100
AcDbEntity
  8
중심선
100
AcDbLine
 10
7.28139805157953
 20
16.24717430164393
 30
0.0
 11
2.750260043222114
 21
10.84717430164391
 31
0.0
  0
LINE
  5
8C
330
7F
100
AcDbEntity
  8
중심선
100
AcDbLine
 10
5.714909304380834
 20
16.24717430164393
 30
0.0
 11
3.58671253028996
 21
13.71088815037384
 31
0.0
  0
LINE
  5
8D
330
7F
100
AcDbEntity
  8
중심선
100
AcDbLine
 10
2.268634060543552
 20
16.24717430164393
 30
0.0
 11
0.1404042013395286
 21
13.71084872107135
 31
0.0
  0
LINE
  5
8E
330
7F
100
AcDbEntity
  8
중심선
100
AcDbLine
 10
7.28139805157953
 20
16.24717430164393
 30
0.0
 11
10.72767329541681
 21
16.24717430164393
 31
0.0
  0
LINE
  5
8F
330
7F
100
AcDbEntity
  8
중심선
100
AcDbLine
 10
12.29416204261559
 20
16.24717430164393
 30
0.0
 11
15.74043728645272
 21
16.24717430164393
 31
0.0
  0
LINE
  5
90
330
7F
100
AcDbEntity
  8
중심선
100
AcDbLine
 10
19.22036997980202
 20
11.08717430171403
 30
0.0
 11
23.66174974927406
 21
11.08717430171406
 31
0.0
  0
LINE
  5
91
330
7F
100
AcDbEntity
  8
중심선
100
AcDbLine
 10
19.22039502424796
 20
13.00717430171391
 30
0.0
 11
19.22036997980202
 21
11.08717430171403
 31
0.0
  0
LINE
  5
92
330
7F
100
AcDbEntity
  8
중심선
100
AcDbLine
 10
19.22039502424796
 20
13.00717430171391
 30
0.0
 11
26.96566020931264
 21
13.00717430171391
 31
0.0
  0
LINE
  5
93
330
7F
100
AcDbEntity
  8
중심선
100
AcDbLine
 10
22.22332737316547
 20
13.45928029700563
 30
0.0
 11
24.52862924686651
 21
15.39360700705356
 31
0.0
  0
ATTDEF
  5
95
330
7F
100
AcDbEntity
  8
FORMAT
 62
     2
100
AcDbText
 10
4.408487351596664
 20
2.075366912832191
 30
0.0
 40
4.233333333333333
  1
E2006010
 41
0.75
  7
SLDTEXTSTYLE0
 11
4.408487351596664
 21
-0.0412997538344756
 31
0.0
100
AcDbAttributeDefinition
  3

  2
AUTOATTR0
 70
     0
 74
     1
  0
ENDBLK
  5
81
330
7F
100
AcDbEntity
  8
0
100
AcDbBlockEnd
  0
BLOCK
  5
DB
330
DA
100
AcDbEntity
  8
0
100
AcDbBlockBegin
  2
_D
 70
     0
 10
0.0
 20
0.0
 30
0.0
  3
_D
  1
_D
  0
LINE
  5
DD
330
DA
100
AcDbEntity
  8
치수문자_일반주서
 62
     0
370
    -2
100
AcDbLine
 10
41.33750000000003
 20
1.984375000000005
 30
0.0
 11
54.68555939221353
 21
1.984375000000053
 31
0.0
  0
LINE
  5
DE
330
DA
100
AcDbEntity
  8
치수문자_일반주서
 62
     0
370
    -2
100
AcDbLine
 10
41.33750000000001
 20
-1.984374999999995
 30
0.0
 11
54.68555939221354
 21
-1.984374999999947
 31
0.0
  0
LINE
  5
DF
330
DA
100
AcDbEntity
  8
치수문자_일반주서
 62
     0
370
    -2
100
AcDbLine
 10
54.68555939221353
 20
1.984375000000053
 30
0.0
 11
54.6855593922134
 21
37.46337500000006
 31
0.0
  0
LINE
  5
E0
330
DA
100
AcDbEntity
  8
치수문자_일반주서
 62
     0
370
    -2
100
AcDbLine
 10
54.68555939221353
 20
1.984375000000053
 30
0.0
 11
54.68555939221354
 21
-1.984374999999947
 31
0.0
  0
LINE
  5
E1
330
DA
100
AcDbEntity
  8
치수문자_일반주서
 62
     0
370
    -2
100
AcDbLine
 10
54.68555939221351
 20
5.286375000000053
 30
0.0
 11
54.6855593922135
 21
8.588375000000052
 31
0.0
  0
LINE
  5
E2
330
DA
100
AcDbEntity
  8
치수문자_일반주서
 62
     0
370
    -2
100
AcDbLine
 10
54.68555939221356
 20
-5.286374999999946
 30
0.0
 11
54.68555939221357
 21
-8.588374999999946
 31
0.0
  0
SOLID
  5
E3
330
DA
100
AcDbEntity
  8
치수문자_일반주서
 62
     0
100
AcDbTrace
 10
54.13522605888018
 20
5.286375000000051
 30
0.0
 11
55.23589272554685
 21
5.286375000000055
 31
0.0
 12
54.68555939221353
 22
1.984375000000053
 32
0.0
 13
54.68555939221353
 23
1.984375000000053
 33
0.0
  0
SOLID
  5
E4
330
DA
100
AcDbEntity
  8
치수문자_일반주서
 62
     0
100
AcDbTrace
 10
55.23589272554689
 20
-5.286374999999945
 30
0.0
 11
54.13522605888022
 21
-5.286374999999948
 31
0.0
 12
54.68555939221354
 22
-1.984374999999947
 32
0.0
 13
54.68555939221354
 23
-1.984374999999947
 33
0.0
  0
MTEXT
  5
E5
330
DA
100
AcDbEntity
  8
치수문자_일반주서
 62
     0
100
AcDbMText
 10
50.31055939221345
 20
23.02587500000003
 30
0.0
 40
3.5
 41
0.0
 71
     2
 72
     1
  1
\A1;%%c3.97 [5/32]
  7
SLDTEXTSTYLE0
 11
-3.580687802255623E-15
 21
1.0
 31
0.0
 73
     1
 44
1.0
  0
POINT
  5
E6
330
DA
100
AcDbEntity
  8
Defpoints
 62
     0
100
AcDbPoint
 10
41.27500000000003
 20
1.984375000000005
 30
0.0
  0
POINT
  5
E7
330
DA
100
AcDbEntity
  8
Defpoints
 62
     0
100
AcDbPoint
 10
41.27500000000001
 20
-1.984374999999995
 30
0.0
  0
POINT
  5
E8
330
DA
100
AcDbEntity
  8
Defpoints
 62
     0
100
AcDbPoint
 10
54.68555939221354
 20
-1.984374999999945
 30
0.0
  0
ENDBLK
  5
DC
330
DA
100
AcDbEntity
  8
0
100
AcDbBlockEnd
  0
BLOCK
  5
F0
330
EF
100
AcDbEntity
  8
0
100
AcDbBlockBegin
  2
_D_1
 70
     0
 10
0.0
 20
0.0
 30
0.0
  3
_D_1
  1
_D_1
  0
LINE
  5
F2
330
EF
100
AcDbEntity
  8
치수문자_일반주서
 62
     0
370
    -2
100
AcDbLine
 10
41.27500000000002
 20
2.046875000000005
 30
0.0
 11
41.27500000000002
 21
14.781351788473
 31
0.0
  0
LINE
  5
F3
330
EF
100
AcDbEntity
  8
치수문자_일반주서
 62
     0
370
    -2
100
AcDbLine
 10
19.05
 20
1.975606042538678
 30
0.0
 11
19.05
 21
14.781351788473
 31
0.0
  0
LINE
  5
F4
330
EF
100
AcDbEntity
  8
치수문자_일반주서
 62
     0
370
    -2
100
AcDbLine
 10
19.05
 20
14.781351788473
 30
0.0
 11
-13.80399999999999
 21
14.781351788473
 31
0.0
  0
LINE
  5
F5
330
EF
100
AcDbEntity
  8
치수문자_일반주서
 62
     0
370
    -2
100
AcDbLine
 10
41.27500000000002
 20
14.781351788473
 30
0.0
 11
19.05
 21
14.781351788473
 31
0.0
  0
LINE
  5
F6
330
EF
100
AcDbEntity
  8
치수문자_일반주서
 62
     0
370
    -2
100
AcDbLine
 10
44.57700000000002
 20
14.781351788473
 30
0.0
 11
47.87900000000002
 21
14.781351788473
 31
0.0
  0
LINE
  5
F7
330
EF
100
AcDbEntity
  8
치수문자_일반주서
 62
     0
370
    -2
100
AcDbLine
 10
15.748
 20
14.781351788473
 30
0.0
 11
12.44600000000001
 21
14.781351788473
 31
0.0
  0
SOLID
  5
F8
330
EF
100
AcDbEntity
  8
치수문자_일반주서
 62
     0
100
AcDbTrace
 10
44.57700000000002
 20
15.33168512180633
 30
0.0
 11
44.57700000000002
 21
14.23101845513966
 31
0.0
 12
41.27500000000002
 22
14.781351788473
 32
0.0
 13
41.27500000000002
 23
14.781351788473
 33
0.0
  0
SOLID
  5
F9
330
EF
100
AcDbEntity
  8
치수문자_일반주서
 62
     0
100
AcDbTrace
 10
15.748
 20
14.23101845513966
 30
0.0
 11
15.748
 21
15.33168512180633
 31
0.0
 12
19.05
 22
14.781351788473
 32
0.0
 13
19.05
 23
14.781351788473
 33
0.0
  0
MTEXT
  5
FA
330
EF
100
AcDbEntity
  8
치수문자_일반주서
 62
     0
100
AcDbMText
 10
-0.6789999999999949
 20
19.156351788473
 30
0.0
 40
3.5
 41
0.0
 71
     2
 72
     1
  1
\A1;22.23 [7/8]
  7
SLDTEXTSTYLE0
 73
     1
 44
1.0
  0
POINT
  5
FB
330
EF
100
AcDbEntity
  8
Defpoints
 62
     0
100
AcDbPoint
 10
41.27500000000002
 20
1.984375000000005
 30
0.0
  0
POINT
  5
31C
330
EF
100
AcDbEntity
  8
Defpoints
 62
     0
100
AcDbPoint
 10
19.05
 20
1.913106042538678
 30
0.0
  0
POINT
  5
31D
330
EF
100
AcDbEntity
  8
Defpoints
 62
     0
100
AcDbPoint
 10
19.05
 20
14.781351788473
 30
0.0
  0
ENDBLK
  5
F1
330
EF
100
AcDbEntity
  8
0
100
AcDbBlockEnd
  0
BLOCK
  5
104
330
103
100
AcDbEntity
  8
0
100
AcDbBlockBegin
  2
_D_2
 70
     0
 10
0.0
 20
0.0
 30
0.0
  3
_D_2
  1
_D_2
  0
LINE
  5
106
330
103
100
AcDbEntity
  8
치수문자_일반주서
 62
     0
370
    -2
100
AcDbLine
 10
41.27500000000002
 20
2.046875000000005
 30
0.0
 11
41.27500000000001
 21
26.13944279774201
 31
0.0
  0
LINE
  5
107
330
103
100
AcDbEntity
  8
치수문자_일반주서
 62
     0
370
    -2
100
AcDbLine
 10
-41.275
 20
1.9675
 30
0.0
 11
-41.27500000000001
 21
26.13944279774201
 31
0.0
  0
LINE
  5
108
330
103
100
AcDbEntity
  8
치수문자_일반주서
 62
     0
370
    -2
100
AcDbLine
 10
37.97300000000001
 20
26.13944279774201
 30
0.0
 11
-37.97300000000001
 21
26.13944279774201
 31
0.0
  0
SOLID
  5
109
330
103
100
AcDbEntity
  8
치수문자_일반주서
 62
     0
100
AcDbTrace
 10
37.97300000000001
 20
25.58910946440868
 30
0.0
 11
37.97300000000001
 21
26.68977613107535
 31
0.0
 12
41.27500000000001
 22
26.13944279774201
 32
0.0
 13
41.27500000000001
 23
26.13944279774201
 33
0.0
  0
SOLID
  5
10A
330
103
100
AcDbEntity
  8
치수문자_일반주서
 62
     0
100
AcDbTrace
 10
-37.97300000000001
 20
26.68977613107535
 30
0.0
 11
-37.97300000000001
 21
25.58910946440868
 31
0.0
 12
-41.27500000000001
 22
26.13944279774201
 32
0.0
 13
-41.27500000000001
 23
26.13944279774201
 33
0.0
  0
MTEXT
  5
10B
330
103
100
AcDbEntity
  8
치수문자_일반주서
 62
     0
100
AcDbMText
 10
-2.106259257730476
 20
30.51444279774201
 30
0.0
 40
3.5
 41
0.0
 71
     2
 72
     1
  1
\A1;82.55 [3 1/4]
  7
SLDTEXTSTYLE0
 73
     1
 44
1.0
  0
POINT
  5
10C
330
103
100
AcDbEntity
  8
Defpoints
 62
     0
100
AcDbPoint
 10
41.27500000000002
 20
1.984375000000005
 30
0.0
  0
POINT
  5
10D
330
103
100
AcDbEntity
  8
Defpoints
 62
     0
100
AcDbPoint
 10
-41.275
 20
1.905
 30
0.0
  0
POINT
  5
10E
330
103
100
AcDbEntity
  8
Defpoints
 62
     0
100
AcDbPoint
 10
-41.275
 20
26.13944279774201
 30
0.0
  0
ENDBLK
  5
105
330
103
100
AcDbEntity
  8
0
100
AcDbBlockEnd
  0
BLOCK
  5
117
330
116
100
AcDbEntity
  8
0
100
AcDbBlockBegin
  2
_D_3
 70
     0
 10
0.0
 20
0.0
 30
0.0
  3
_D_3
  1
_D_3
  0
LINE
  5
119
330
116
100
AcDbEntity
  8
치수문자_일반주서
 62
     0
370
    -2
100
AcDbLine
 10
-40.86124999999999
 20
2.38125
 30
0.0
 11
-54.27500000000001
 21
2.381249999999949
 31
0.0
  0
LINE
  5
11A
330
116
100
AcDbEntity
  8
치수문자_일반주서
 62
     0
370
    -2
100
AcDbLine
 10
-40.86124999999999
 20
-2.381250000000003
 30
0.0
 11
-54.27499999999999
 21
-2.381250000000054
 31
0.0
  0
LINE
  5
11B
330
116
100
AcDbEntity
  8
치수문자_일반주서
 62
     0
370
    -2
100
AcDbLine
 10
-54.275
 20
-0.9207500000000506
 30
0.0
 11
-54.275
 21
0.9207499999999458
 31
0.0
  0
SOLID
  5
11C
330
116
100
AcDbEntity
  8
치수문자_일반주서
 62
     0
100
AcDbTrace
 10
-53.72466666666666
 20
-0.9207500000000489
 30
0.0
 11
-54.82533333333333
 21
-0.9207500000000522
 31
0.0
 12
-54.27500000000001
 22
2.381249999999949
 32
0.0
 13
-54.27500000000001
 23
2.381249999999949
 33
0.0
  0
SOLID
  5
11D
330
116
100
AcDbEntity
  8
치수문자_일반주서
 62
     0
100
AcDbTrace
 10
-54.82533333333333
 20
0.9207499999999441
 30
0.0
 11
-53.72466666666666
 21
0.9207499999999474
 31
0.0
 12
-54.27499999999999
 22
-2.381250000000054
 32
0.0
 13
-54.27499999999999
 23
-2.381250000000054
 33
0.0
  0
MTEXT
  5
11E
330
116
100
AcDbEntity
  8
치수문자_일반주서
 62
     0
100
AcDbMText
 10
-58.65
 20
-0.0000000000000133
 30
0.0
 40
3.5
 41
0.0
 71
     2
 72
     1
  1
\A1;%%c4.76 [3/16]
  7
SLDTEXTSTYLE0
 11
-2.983906501879685E-15
 21
1.0
 31
0.0
 73
     1
 44
1.0
  0
POINT
  5
11F
330
116
100
AcDbEntity
  8
Defpoints
 62
     0
100
AcDbPoint
 10
-40.79874999999999
 20
2.38125
 30
0.0
  0
POINT
  5
120
330
116
100
AcDbEntity
  8
Defpoints
 62
     0
100
AcDbPoint
 10
-40.79874999999999
 20
-2.381250000000003
 30
0.0
  0
POINT
  5
121
330
116
100
AcDbEntity
  8
Defpoints
 62
     0
100
AcDbPoint
 10
-54.27499999999999
 20
-2.381250000000053
 30
0.0
  0
ENDBLK
  5
118
330
116
100
AcDbEntity
  8
0
100
AcDbBlockEnd
  0
BLOCK
  5
131
330
130
100
AcDbEntity
  8
0
100
AcDbBlockBegin
  2
SW_DOWELSYMBOL_0
 70
     0
 10
0.0
 20
0.0
 30
0.0
  3
SW_DOWELSYMBOL_0
  1
SW_DOWELSYMBOL_0
  0
CIRCLE
  5
133
330
130
100
AcDbEntity
  8
해칭선
 62
     0
100
AcDbCircle
 10
0.0
 20
0.0
 30
0.0
 40
3.000000000000001
  0
HATCH
  5
134
330
130
100
AcDbEntity
  8
0
  6
Continuous
 62
     0
370
     0
100
AcDbHatch
 10
0.0
 20
0.0
 30
0.0
210
0.0
220
0.0
230
1.0
  2
SOLID
 70
     1
 71
     0
 91
        1
 92
        0
 93
        3
 72
     2
 10
0.0
 20
0.0
 40
3.000000000000001
 50
0.0
 51
90.0
 73
     1
 72
     1
 10
0.0
 20
3.000000000000001
 11
0.0
 21
0.0
 72
     1
 10
0.0
 20
0.0
 11
3.000000000000003
 21
0.0
 97
        0
 75
     0
 76
     1
 98
        1
 10
0.0
 20
0.0
  0
HATCH
  5
135
330
130
100
AcDbEntity
  8
0
  6
Continuous
 62
     0
370
     0
100
AcDbHatch
 10
0.0
 20
0.0
 30
0.0
210
0.0
220
0.0
230
1.0
  2
SOLID
 70
     1
 71
     0
 91
        1
 92
        0
 93
        3
 72
     2
 10
0.0
 20
0.0
 40
3.000000000000001
 50
180.0
 51
270.0000000000007
 73
     1
 72
     1
 10
0.0
 20
-3.000000000000001
 11
0.0
 21
0.0
 72
     1
 10
0.0
 20
0.0
 11
-3.000000000000001
 21
0.0
 97
        0
 75
     0
 76
     1
 98
        1
 10
0.0
 20
0.0
  0
ENDBLK
  5
132
330
130
100
AcDbEntity
  8
0
100
AcDbBlockEnd
  0
BLOCK
  5
23B
330
23A
100
AcDbEntity
  8
0
100
AcDbBlockBegin
  2
*D7
 70
     1
 10
0.0
 20
0.0
 30
0.0
  3
*D7
  1
*D8
  0
LINE
  5
23D
330
23A
100
AcDbEntity
  8
치수문자_일반주서
 62
     0
370
    -2
100
AcDbLine
 10
96.81250000000003
 20
14.91093750000002
 30
0.0
 11
109.345126064837
 21
14.91093750000007
 31
0.0
  0
LINE
  5
23E
330
23A
100
AcDbEntity
  8
치수문자_일반주서
 62
     0
370
    -2
100
AcDbLine
 10
96.81250000000003
 20
11.33906250000002
 30
0.0
 11
109.345126064837
 21
11.33906250000007
 31
0.0
  0
LINE
  5
23F
330
23A
100
AcDbEntity
  8
치수문자_일반주서
 62
     0
370
    -2
100
AcDbLine
 10
109.345126064837
 20
14.91093750000007
 30
0.0
 11
109.3451260648369
 21
50.38993750000007
 31
0.0
  0
LINE
  5
240
330
23A
100
AcDbEntity
  8
치수문자_일반주서
 62
     0
370
    -2
100
AcDbLine
 10
109.345126064837
 20
14.91093750000007
 30
0.0
 11
109.345126064837
 21
11.33906250000007
 31
0.0
  0
LINE
  5
241
330
23A
100
AcDbEntity
  8
치수문자_일반주서
 62
     0
370
    -2
100
AcDbLine
 10
109.345126064837
 20
18.21293750000007
 30
0.0
 11
109.345126064837
 21
21.51493750000007
 31
0.0
  0
LINE
  5
242
330
23A
100
AcDbEntity
  8
치수문자_일반주서
 62
     0
370
    -2
100
AcDbLine
 10
109.345126064837
 20
8.037062500000069
 30
0.0
 11
109.3451260648371
 21
4.735062500000069
 31
0.0
  0
SOLID
  5
243
330
23A
100
AcDbEntity
  8
치수문자_일반주서
 62
     0
100
AcDbTrace
 10
108.7947927315037
 20
18.21293750000007
 30
0.0
 11
109.8954593981703
 21
18.21293750000007
 31
0.0
 12
109.345126064837
 22
14.91093750000007
 32
0.0
 13
109.345126064837
 23
14.91093750000007
 33
0.0
  0
SOLID
  5
244
330
23A
100
AcDbEntity
  8
치수문자_일반주서
 62
     0
100
AcDbTrace
 10
109.8954593981704
 20
8.03706250000007
 30
0.0
 11
108.7947927315037
 21
8.037062500000067
 31
0.0
 12
109.345126064837
 22
11.33906250000007
 32
0.0
 13
109.345126064837
 23
11.33906250000007
 33
0.0
  0
MTEXT
  5
245
330
23A
100
AcDbEntity
  8
치수문자_일반주서
 62
     0
100
AcDbMText
 10
104.9701260648369
 20
35.95243750000006
 30
0.0
 40
3.5
 41
0.0
 71
     2
 72
     1
  1
\A1;%%c3.57 [9/64]
  7
SLDTEXTSTYLE0
 11
-3.978542002506246E-15
 21
1.0
 31
0.0
 73
     1
 44
1.0
  0
POINT
  5
246
330
23A
100
AcDbEntity
  8
Defpoints
 62
     0
100
AcDbPoint
 10
96.75000000000003
 20
14.91093750000002
 30
0.0
  0
POINT
  5
247
330
23A
100
AcDbEntity
  8
Defpoints
 62
     0
100
AcDbPoint
 10
96.75000000000003
 20
11.33906250000002
 30
0.0
  0
POINT
  5
248
330
23A
100
AcDbEntity
  8
Defpoints
 62
     0
100
AcDbPoint
 10
109.345126064837
 20
11.33906250000007
 30
0.0
  0
ENDBLK
  5
23C
330
23A
100
AcDbEntity
  8
0
100
AcDbBlockEnd
  0
BLOCK
  5
24A
330
249
100
AcDbEntity
  8
0
100
AcDbBlockBegin
  2
*D8
 70
     1
 10
0.0
 20
0.0
 30
0.0
  3
*D8
  1
*D9
  0
LINE
  5
24C
330
249
100
AcDbEntity
  8
치수문자_일반주서
 62
     0
370
    -2
100
AcDbLine
 10
96.75000000000003
 20
14.97343750000002
 30
0.0
 11
96.75000000000003
 21
30.25098619964237
 31
0.0
  0
LINE
  5
24D
330
249
100
AcDbEntity
  8
치수문자_일반주서
 62
     0
370
    -2
100
AcDbLine
 10
77.70000000000005
 20
14.97207088763577
 30
0.0
 11
77.70000000000005
 21
30.25098619964237
 31
0.0
  0
LINE
  5
24E
330
249
100
AcDbEntity
  8
치수문자_일반주서
 62
     0
370
    -2
100
AcDbLine
 10
77.70000000000005
 20
30.25098619964237
 30
0.0
 11
46.15850000000005
 21
30.25098619964237
 31
0.0
  0
LINE
  5
24F
330
249
100
AcDbEntity
  8
치수문자_일반주서
 62
     0
370
    -2
100
AcDbLine
 10
96.75000000000003
 20
30.25098619964237
 30
0.0
 11
77.70000000000005
 21
30.25098619964237
 31
0.0
  0
LINE
  5
250
330
249
100
AcDbEntity
  8
치수문자_일반주서
 62
     0
370
    -2
100
AcDbLine
 10
100.052
 20
30.25098619964237
 30
0.0
 11
103.354
 21
30.25098619964237
 31
0.0
  0
LINE
  5
251
330
249
100
AcDbEntity
  8
치수문자_일반주서
 62
     0
370
    -2
100
AcDbLine
 10
74.39800000000005
 20
30.25098619964237
 30
0.0
 11
71.09600000000006
 21
30.25098619964237
 31
0.0
  0
SOLID
  5
252
330
249
100
AcDbEntity
  8
치수문자_일반주서
 62
     0
100
AcDbTrace
 10
100.052
 20
30.8013195329757
 30
0.0
 11
100.052
 21
29.70065286630903
 31
0.0
 12
96.75000000000003
 22
30.25098619964237
 32
0.0
 13
96.75000000000003
 23
30.25098619964237
 33
0.0
  0
SOLID
  5
253
330
249
100
AcDbEntity
  8
치수문자_일반주서
 62
     0
100
AcDbTrace
 10
74.39800000000005
 20
29.70065286630903
 30
0.0
 11
74.39800000000005
 21
30.8013195329757
 31
0.0
 12
77.70000000000005
 22
30.25098619964237
 32
0.0
 13
77.70000000000005
 23
30.25098619964237
 33
0.0
  0
MTEXT
  5
254
330
249
100
AcDbEntity
  8
치수문자_일반주서
 62
     0
100
AcDbMText
 10
58.62725000000005
 20
34.62598619964237
 30
0.0
 40
3.5
 41
0.0
 71
     2
 72
     1
  1
\A1;19.05 [3/4]
  7
SLDTEXTSTYLE0
 73
     1
 44
1.0
  0
POINT
  5
255
330
249
100
AcDbEntity
  8
Defpoints
 62
     0
100
AcDbPoint
 10
96.75000000000003
 20
14.91093750000002
 30
0.0
  0
POINT
  5
256
330
249
100
AcDbEntity
  8
Defpoints
 62
     0
100
AcDbPoint
 10
77.70000000000005
 20
14.90957088763577
 30
0.0
  0
POINT
  5
257
330
249
100
AcDbEntity
  8
Defpoints
 62
     0
100
AcDbPoint
 10
77.70000000000005
 20
30.25098619964237
 30
0.0
  0
ENDBLK
  5
24B
330
249
100
AcDbEntity
  8
0
100
AcDbBlockEnd
  0
BLOCK
  5
259
330
258
100
AcDbEntity
  8
0
100
AcDbBlockBegin
  2
*D9
 70
     1
 10
0.0
 20
0.0
 30
0.0
  3
*D9
  1
*D10
  0
LINE
  5
25B
330
258
100
AcDbEntity
  8
치수문자_일반주서
 62
     0
370
    -2
100
AcDbLine
 10
96.75000000000003
 20
14.97343750000002
 30
0.0
 11
96.75000000000003
 21
38.86092743319787
 31
0.0
  0
LINE
  5
25C
330
258
100
AcDbEntity
  8
치수문자_일반주서
 62
     0
370
    -2
100
AcDbLine
 10
17.37500000000004
 20
14.97343750000002
 30
0.0
 11
17.37500000000004
 21
38.86092743319787
 31
0.0
  0
LINE
  5
25D
330
258
100
AcDbEntity
  8
치수문자_일반주서
 62
     0
370
    -2
100
AcDbLine
 10
93.44800000000004
 20
38.86092743319787
 30
0.0
 11
20.67700000000004
 21
38.86092743319787
 31
0.0
  0
SOLID
  5
25E
330
258
100
AcDbEntity
  8
치수문자_일반주서
 62
     0
100
AcDbTrace
 10
93.44800000000004
 20
38.31059409986453
 30
0.0
 11
93.44800000000004
 21
39.4112607665312
 31
0.0
 12
96.75000000000003
 22
38.86092743319787
 32
0.0
 13
96.75000000000003
 23
38.86092743319787
 33
0.0
  0
SOLID
  5
25F
330
258
100
AcDbEntity
  8
치수문자_일반주서
 62
     0
100
AcDbTrace
 10
20.67700000000004
 20
39.4112607665312
 30
0.0
 11
20.67700000000004
 21
38.31059409986453
 31
0.0
 12
17.37500000000004
 22
38.86092743319787
 32
0.0
 13
17.37500000000004
 23
38.86092743319787
 33
0.0
  0
MTEXT
  5
260
330
258
100
AcDbEntity
  8
치수문자_일반주서
 62
     0
100
AcDbMText
 10
55.03725071372073
 20
43.23592743319787
 30
0.0
 40
3.5
 41
0.0
 71
     2
 72
     1
  1
\A1;79.38 [3 1/8]
  7
SLDTEXTSTYLE0
 73
     1
 44
1.0
  0
POINT
  5
261
330
258
100
AcDbEntity
  8
Defpoints
 62
     0
100
AcDbPoint
 10
96.75000000000003
 20
14.91093750000002
 30
0.0
  0
POINT
  5
262
330
258
100
AcDbEntity
  8
Defpoints
 62
     0
100
AcDbPoint
 10
17.37500000000004
 20
14.91093750000002
 30
0.0
  0
POINT
  5
263
330
258
100
AcDbEntity
  8
Defpoints
 62
     0
100
AcDbPoint
 10
17.37500000000004
 20
38.86092743319787
 30
0.0
  0
ENDBLK
  5
25A
330
258
100
AcDbEntity
  8
0
100
AcDbBlockEnd
  0
BLOCK
  5
265
330
264
100
AcDbEntity
  8
0
100
AcDbBlockBegin
  2
*D10
 70
     1
 10
0.0
 20
0.0
 30
0.0
  3
*D10
  1
*D11
  0
LINE
  5
267
330
264
100
AcDbEntity
  8
치수문자_일반주서
 62
     0
370
    -2
100
AcDbLine
 10
39.5842364963809
 20
15.50625000000002
 30
0.0
 11
4.375000000000035
 21
15.50624999999989
 31
0.0
  0
LINE
  5
268
330
264
100
AcDbEntity
  8
치수문자_일반주서
 62
     0
370
    -2
100
AcDbLine
 10
39.5842364963809
 20
10.74375000000001
 30
0.0
 11
4.375000000000052
 21
10.74374999999988
 31
0.0
  0
LINE
  5
269
330
264
100
AcDbEntity
  8
치수문자_일반주서
 62
     0
370
    -2
100
AcDbLine
 10
4.375000000000046
 20
12.20424999999989
 30
0.0
 11
4.37500000000004
 21
14.04574999999988
 31
0.0
  0
SOLID
  5
26A
330
264
100
AcDbEntity
  8
치수문자_일반주서
 62
     0
100
AcDbTrace
 10
4.92533333333338
 20
12.20424999999989
 30
0.0
 11
3.824666666666713
 21
12.20424999999989
 31
0.0
 12
4.375000000000035
 22
15.50624999999989
 32
0.0
 13
4.375000000000035
 23
15.50624999999989
 33
0.0
  0
SOLID
  5
26B
330
264
100
AcDbEntity
  8
치수문자_일반주서
 62
     0
100
AcDbTrace
 10
3.824666666666707
 20
14.04574999999988
 30
0.0
 11
4.925333333333374
 21
14.04574999999988
 31
0.0
 12
4.375000000000052
 22
10.74374999999988
 32
0.0
 13
4.375000000000052
 23
10.74374999999988
 33
0.0
  0
MTEXT
  5
26C
330
264
100
AcDbEntity
  8
치수문자_일반주서
 62
     0
100
AcDbMText
 10
0.0000000000000426
 20
13.125
 30
0.0
 40
3.5
 41
0.0
 71
     2
 72
     1
  1
\A1;%%c4.76 [3/16]
  7
SLDTEXTSTYLE0
 11
-3.543388970982121E-15
 21
1.0
 31
0.0
 73
     1
 44
1.0
  0
POINT
  5
26D
330
264
100
AcDbEntity
  8
Defpoints
 62
     0
100
AcDbPoint
 10
39.6467364963809
 20
15.50625000000002
 30
0.0
  0
POINT
  5
26E
330
264
100
AcDbEntity
  8
Defpoints
 62
     0
100
AcDbPoint
 10
39.6467364963809
 20
10.74375000000001
 30
0.0
  0
POINT
  5
26F
330
264
100
AcDbEntity
  8
Defpoints
 62
     0
100
AcDbPoint
 10
4.37500000000005
 20
10.74374999999988
 30
0.0
  0
ENDBLK
  5
266
330
264
100
AcDbEntity
  8
0
100
AcDbBlockEnd
  0
BLOCK
  5
2E7
330
2E6
100
AcDbEntity
  8
0
100
AcDbBlockBegin
  2
*D11
 70
     1
 10
0.0
 20
0.0
 30
0.0
  3
*D11
  1
*D12
  0
LINE
  5
2E9
330
2E6
100
AcDbEntity
  8
치수문자_일반주서
 62
     0
370
    -2
100
AcDbLine
 10
182.5522614904741
 20
-32.96444740172829
 30
0.0
 11
195.084887555311
 21
-32.96444740172824
 31
0.0
  0
LINE
  5
2EA
330
2E6
100
AcDbEntity
  8
치수문자_일반주서
 62
     0
370
    -2
100
AcDbLine
 10
182.5522614904741
 20
-36.53632240172828
 30
0.0
 11
195.084887555311
 21
-36.53632240172823
 31
0.0
  0
LINE
  5
2EB
330
2E6
100
AcDbEntity
  8
치수문자_일반주서
 62
     0
370
    -2
100
AcDbLine
 10
195.084887555311
 20
-32.96444740172824
 30
0.0
 11
195.084887555311
 21
2.514552598271763
 31
0.0
  0
LINE
  5
2EC
330
2E6
100
AcDbEntity
  8
치수문자_일반주서
 62
     0
370
    -2
100
AcDbLine
 10
195.084887555311
 20
-32.96444740172824
 30
0.0
 11
195.084887555311
 21
-36.53632240172823
 31
0.0
  0
LINE
  5
2ED
330
2E6
100
AcDbEntity
  8
치수문자_일반주서
 62
     0
370
    -2
100
AcDbLine
 10
195.084887555311
 20
-29.66244740172824
 30
0.0
 11
195.084887555311
 21
-26.36044740172824
 31
0.0
  0
LINE
  5
2EE
330
2E6
100
AcDbEntity
  8
치수문자_일반주서
 62
     0
370
    -2
100
AcDbLine
 10
195.084887555311
 20
-39.83832240172823
 30
0.0
 11
195.084887555311
 21
-43.14032240172823
 31
0.0
  0
SOLID
  5
2EF
330
2E6
100
AcDbEntity
  8
치수문자_일반주서
 62
     0
100
AcDbTrace
 10
194.5345542219777
 20
-29.66244740172824
 30
0.0
 11
195.6352208886443
 21
-29.66244740172824
 31
0.0
 12
195.084887555311
 22
-32.96444740172824
 32
0.0
 13
195.084887555311
 23
-32.96444740172824
 33
0.0
  0
SOLID
  5
2F0
330
2E6
100
AcDbEntity
  8
치수문자_일반주서
 62
     0
100
AcDbTrace
 10
195.6352208886443
 20
-39.83832240172823
 30
0.0
 11
194.5345542219777
 21
-39.83832240172823
 31
0.0
 12
195.084887555311
 22
-36.53632240172823
 32
0.0
 13
195.084887555311
 23
-36.53632240172823
 33
0.0
  0
MTEXT
  5
2F1
330
2E6
100
AcDbEntity
  8
치수문자_일반주서
 62
     0
100
AcDbMText
 10
190.709887555311
 20
-11.92294740172824
 30
0.0
 40
3.5
 41
0.0
 71
     2
 72
     1
  1
\A1;%%c3.57 [9/64]
  7
SLDTEXTSTYLE0
 11
0.0
 21
1.0
 31
0.0
 73
     1
 44
1.0
  0
POINT
  5
2F2
330
2E6
100
AcDbEntity
  8
Defpoints
 62
     0
100
AcDbPoint
 10
182.4897614904741
 20
-32.96444740172829
 30
0.0
  0
POINT
  5
2F3
330
2E6
100
AcDbEntity
  8
Defpoints
 62
     0
100
AcDbPoint
 10
182.4897614904741
 20
-36.53632240172828
 30
0.0
  0
POINT
  5
2F4
330
2E6
100
AcDbEntity
  8
Defpoints
 62
     0
100
AcDbPoint
 10
195.0848875553111
 20
-36.53632240172823
 30
0.0
  0
ENDBLK
  5
2E8
330
2E6
100
AcDbEntity
  8
0
100
AcDbBlockEnd
  0
BLOCK
  5
2F6
330
2F5
100
AcDbEntity
  8
0
100
AcDbBlockBegin
  2
*D12
 70
     1
 10
0.0
 20
0.0
 30
0.0
  3
*D12
  1
*D13
  0
LINE
  5
2F8
330
2F5
100
AcDbEntity
  8
치수문자_일반주서
 62
     0
370
    -2
100
AcDbLine
 10
182.4897614904741
 20
-32.90194740172829
 30
0.0
 11
182.4897614904741
 21
-17.62439870208594
 31
0.0
  0
LINE
  5
2F9
330
2F5
100
AcDbEntity
  8
치수문자_일반주서
 62
     0
370
    -2
100
AcDbLine
 10
163.4397614904741
 20
-32.90331401409254
 30
0.0
 11
163.4397614904741
 21
-17.62439870208594
 31
0.0
  0
LINE
  5
2FA
330
2F5
100
AcDbEntity
  8
치수문자_일반주서
 62
     0
370
    -2
100
AcDbLine
 10
163.4397614904741
 20
-17.62439870208594
 30
0.0
 11
131.8982614904741
 21
-17.62439870208594
 31
0.0
  0
LINE
  5
2FB
330
2F5
100
AcDbEntity
  8
치수문자_일반주서
 62
     0
370
    -2
100
AcDbLine
 10
182.4897614904741
 20
-17.62439870208594
 30
0.0
 11
163.4397614904741
 21
-17.62439870208594
 31
0.0
  0
LINE
  5
2FC
330
2F5
100
AcDbEntity
  8
치수문자_일반주서
 62
     0
370
    -2
100
AcDbLine
 10
185.7917614904741
 20
-17.62439870208594
 30
0.0
 11
189.0937614904741
 21
-17.62439870208594
 31
0.0
  0
LINE
  5
2FD
330
2F5
100
AcDbEntity
  8
치수문자_일반주서
 62
     0
370
    -2
100
AcDbLine
 10
160.1377614904741
 20
-17.62439870208594
 30
0.0
 11
156.8357614904741
 21
-17.62439870208594
 31
0.0
  0
SOLID
  5
2FE
330
2F5
100
AcDbEntity
  8
치수문자_일반주서
 62
     0
100
AcDbTrace
 10
185.7917614904741
 20
-17.07406536875261
 30
0.0
 11
185.7917614904741
 21
-18.17473203541928
 31
0.0
 12
182.4897614904741
 22
-17.62439870208594
 32
0.0
 13
182.4897614904741
 23
-17.62439870208594
 33
0.0
  0
SOLID
  5
2FF
330
2F5
100
AcDbEntity
  8
치수문자_일반주서
 62
     0
100
AcDbTrace
 10
160.1377614904741
 20
-18.17473203541928
 30
0.0
 11
160.1377614904741
 21
-17.07406536875261
 31
0.0
 12
163.4397614904741
 22
-17.62439870208594
 32
0.0
 13
163.4397614904741
 23
-17.62439870208594
 33
0.0
  0
MTEXT
  5
300
330
2F5
100
AcDbEntity
  8
치수문자_일반주서
 62
     0
100
AcDbMText
 10
144.3670114904741
 20
-13.24939870208594
 30
0.0
 40
3.5
 41
0.0
 71
     2
 72
     1
  1
\A1;19.05 [3/4]
  7
SLDTEXTSTYLE0
 73
     1
 44
1.0
  0
POINT
  5
301
330
2F5
100
AcDbEntity
  8
Defpoints
 62
     0
100
AcDbPoint
 10
182.4897614904741
 20
-32.96444740172829
 30
0.0
  0
POINT
  5
302
330
2F5
100
AcDbEntity
  8
Defpoints
 62
     0
100
AcDbPoint
 10
163.4397614904741
 20
-32.96581401409254
 30
0.0
  0
POINT
  5
303
330
2F5
100
AcDbEntity
  8
Defpoints
 62
     0
100
AcDbPoint
 10
163.4397614904741
 20
-17.62439870208594
 30
0.0
  0
ENDBLK
  5
2F7
330
2F5
100
AcDbEntity
  8
0
100
AcDbBlockEnd
  0
BLOCK
  5
305
330
304
100
AcDbEntity
  8
0
100
AcDbBlockBegin
  2
*D13
 70
     1
 10
0.0
 20
0.0
 30
0.0
  3
*D13
  1
*D14
  0
LINE
  5
307
330
304
100
AcDbEntity
  8
치수문자_일반주서
 62
     0
370
    -2
100
AcDbLine
 10
182.4897614904741
 20
-32.90194740172829
 30
0.0
 11
182.4897614904741
 21
-9.014457468530445
 31
0.0
  0
LINE
  5
308
330
304
100
AcDbEntity
  8
치수문자_일반주서
 62
     0
370
    -2
100
AcDbLine
 10
103.1147614904741
 20
-32.90194740172829
 30
0.0
 11
103.1147614904741
 21
-9.014457468530445
 31
0.0
  0
LINE
  5
309
330
304
100
AcDbEntity
  8
치수문자_일반주서
 62
     0
370
    -2
100
AcDbLine
 10
179.1877614904741
 20
-9.014457468530445
 30
0.0
 11
106.4167614904741
 21
-9.014457468530445
 31
0.0
  0
SOLID
  5
30A
330
304
100
AcDbEntity
  8
치수문자_일반주서
 62
     0
100
AcDbTrace
 10
179.1877614904741
 20
-9.564790801863778
 30
0.0
 11
179.1877614904741
 21
-8.464124135197112
 31
0.0
 12
182.4897614904741
 22
-9.014457468530445
 32
0.0
 13
182.4897614904741
 23
-9.014457468530445
 33
0.0
  0
SOLID
  5
30B
330
304
100
AcDbEntity
  8
치수문자_일반주서
 62
     0
100
AcDbTrace
 10
106.4167614904741
 20
-8.464124135197112
 30
0.0
 11
106.4167614904741
 21
-9.564790801863778
 31
0.0
 12
103.1147614904741
 22
-9.014457468530445
 32
0.0
 13
103.1147614904741
 23
-9.014457468530445
 33
0.0
  0
MTEXT
  5
30C
330
304
100
AcDbEntity
  8
치수문자_일반주서
 62
     0
100
AcDbMText
 10
140.7770122041948
 20
-4.639457468530445
 30
0.0
 40
3.5
 41
0.0
 71
     2
 72
     1
  1
\A1;79.38 [3 1/8]
  7
SLDTEXTSTYLE0
 73
     1
 44
1.0
  0
POINT
  5
30D
330
304
100
AcDbEntity
  8
Defpoints
 62
     0
100
AcDbPoint
 10
182.4897614904741
 20
-32.96444740172829
 30
0.0
  0
POINT
  5
30E
330
304
100
AcDbEntity
  8
Defpoints
 62
     0
100
AcDbPoint
 10
103.1147614904741
 20
-32.96444740172829
 30
0.0
  0
POINT
  5
30F
330
304
100
AcDbEntity
  8
Defpoints
 62
     0
100
AcDbPoint
 10
103.1147614904741
 20
-9.014457468530445
 30
0.0
  0
ENDBLK
  5
306
330
304
100
AcDbEntity
  8
0
100
AcDbBlockEnd
  0
BLOCK
  5
311
330
310
100
AcDbEntity
  8
0
100
AcDbBlockBegin
  2
*D14
 70
     1
 10
0.0
 20
0.0
 30
0.0
  3
*D14
  1
*D15
  0
LINE
  5
313
330
310
100
AcDbEntity
  8
치수문자_일반주서
 62
     0
370
    -2
100
AcDbLine
 10
125.323997986855
 20
-32.36913490172829
 30
0.0
 11
90.11476149047412
 21
-32.36913490172842
 31
0.0
  0
LINE
  5
314
330
310
100
AcDbEntity
  8
치수문자_일반주서
 62
     0
370
    -2
100
AcDbLine
 10
125.323997986855
 20
-37.1316349017283
 30
0.0
 11
90.11476149047414
 21
-37.13163490172843
 31
0.0
  0
LINE
  5
315
330
310
100
AcDbEntity
  8
치수문자_일반주서
 62
     0
370
    -2
100
AcDbLine
 10
90.11476149047414
 20
-35.67113490172841
 30
0.0
 11
90.11476149047412
 21
-33.82963490172843
 31
0.0
  0
SOLID
  5
316
330
310
100
AcDbEntity
  8
치수문자_일반주서
 62
     0
100
AcDbTrace
 10
90.66509482380746
 20
-35.67113490172841
 30
0.0
 11
89.56442815714081
 21
-35.67113490172841
 31
0.0
 12
90.11476149047412
 22
-32.36913490172842
 32
0.0
 13
90.11476149047412
 23
-32.36913490172842
 33
0.0
  0
SOLID
  5
317
330
310
100
AcDbEntity
  8
치수문자_일반주서
 62
     0
100
AcDbTrace
 10
89.5644281571408
 20
-33.82963490172843
 30
0.0
 11
90.66509482380745
 21
-33.82963490172843
 31
0.0
 12
90.11476149047414
 22
-37.13163490172843
 32
0.0
 13
90.11476149047414
 23
-37.13163490172843
 33
0.0
  0
MTEXT
  5
318
330
310
100
AcDbEntity
  8
치수문자_일반주서
 62
     0
100
AcDbMText
 10
85.73976149047412
 20
-34.75038490172831
 30
0.0
 40
3.5
 41
0.0
 71
     2
 72
     1
  1
\A1;%%c4.76 [3/16]
  7
SLDTEXTSTYLE0
 11
-2.983906501879675E-15
 21
1.0
 31
0.0
 73
     1
 44
1.0
  0
POINT
  5
319
330
310
100
AcDbEntity
  8
Defpoints
 62
     0
100
AcDbPoint
 10
125.386497986855
 20
-32.36913490172829
 30
0.0
  0
POINT
  5
31A
330
310
100
AcDbEntity
  8
Defpoints
 62
     0
100
AcDbPoint
 10
125.386497986855
 20
-37.1316349017283
 30
0.0
  0
POINT
  5
31B
330
310
100
AcDbEntity
  8
Defpoints
 62
     0
100
AcDbPoint
 10
90.11476149047414
 20
-37.13163490172843
 30
0.0
  0
ENDBLK
  5
312
330
310
100
AcDbEntity
  8
0
100
AcDbBlockEnd
  0
BLOCK
  5
3B4
330
3B3
100
AcDbEntity
  8
0
100
AcDbBlockBegin
  2
*D15
 70
     1
 10
0.0
 20
0.0
 30
0.0
  3
*D15
  1
*D17
  0
LINE
  5
3B6
330
3B3
100
AcDbEntity
  8
치수문자_일반주서
 62
     0
370
    -2
100
AcDbLine
 10
85.61250000000004
 20
10.57274999999995
 30
0.0
 11
98.96055939221353
 21
10.57275
 31
0.0
  0
LINE
  5
3B7
330
3B3
100
AcDbEntity
  8
치수문자_일반주서
 62
     0
370
    -2
100
AcDbLine
 10
85.61250000000001
 20
6.60399999999995
 30
0.0
 11
98.96055939221354
 21
6.603999999999999
 31
0.0
  0
LINE
  5
3B8
330
3B3
100
AcDbEntity
  8
치수문자_일반주서
 62
     0
370
    -2
100
AcDbLine
 10
98.96055939221353
 20
10.57275
 30
0.0
 11
98.9605593922134
 21
46.05175
 31
0.0
  0
LINE
  5
3B9
330
3B3
100
AcDbEntity
  8
치수문자_일반주서
 62
     0
370
    -2
100
AcDbLine
 10
98.96055939221353
 20
10.57275
 30
0.0
 11
98.96055939221354
 21
6.603999999999999
 31
0.0
  0
LINE
  5
3BA
330
3B3
100
AcDbEntity
  8
치수문자_일반주서
 62
     0
370
    -2
100
AcDbLine
 10
98.96055939221351
 20
13.87475
 30
0.0
 11
98.9605593922135
 21
17.17675
 31
0.0
  0
LINE
  5
3BB
330
3B3
100
AcDbEntity
  8
치수문자_일반주서
 62
     0
370
    -2
100
AcDbLine
 10
98.96055939221355
 20
3.302
 30
0.0
 11
98.96055939221357
 21
0.0
 31
0.0
  0
SOLID
  5
3BC
330
3B3
100
AcDbEntity
  8
치수문자_일반주서
 62
     0
100
AcDbTrace
 10
98.41022605888018
 20
13.87475
 30
0.0
 11
99.51089272554684
 21
13.87475
 31
0.0
 12
98.96055939221353
 22
10.57275
 32
0.0
 13
98.96055939221353
 23
10.57275
 33
0.0
  0
SOLID
  5
3BD
330
3B3
100
AcDbEntity
  8
치수문자_일반주서
 62
     0
100
AcDbTrace
 10
99.51089272554688
 20
3.302000000000001
 30
0.0
 11
98.41022605888023
 21
3.301999999999998
 31
0.0
 12
98.96055939221354
 22
6.603999999999999
 32
0.0
 13
98.96055939221354
 23
6.603999999999999
 33
0.0
  0
MTEXT
  5
3BE
330
3B3
100
AcDbEntity
  8
치수문자_일반주서
 62
     0
100
AcDbMText
 10
94.58555939221345
 20
31.61424999999998
 30
0.0
 40
3.5
 41
0.0
 71
     2
 72
     1
  1
\A1;%%c3.97 [5/32]
  7
SLDTEXTSTYLE0
 11
-3.580687802255624E-15
 21
1.0
 31
0.0
 73
     1
 44
1.0
  0
POINT
  5
3BF
330
3B3
100
AcDbEntity
  8
Defpoints
 62
     0
100
AcDbPoint
 10
85.55000000000004
 20
10.57274999999995
 30
0.0
  0
POINT
  5
3C0
330
3B3
100
AcDbEntity
  8
Defpoints
 62
     0
100
AcDbPoint
 10
85.55000000000001
 20
6.60399999999995
 30
0.0
  0
POINT
  5
3C1
330
3B3
100
AcDbEntity
  8
Defpoints
 62
     0
100
AcDbPoint
 10
98.96055939221355
 20
6.604
 30
0.0
  0
ENDBLK
  5
3B5
330
3B3
100
AcDbEntity
  8
0
100
AcDbBlockEnd
  0
BLOCK
  5
3C3
330
3C2
100
AcDbEntity
  8
0
100
AcDbBlockBegin
  2
*D16
 70
     1
 10
0.0
 20
0.0
 30
0.0
  3
*D16
  1
*D18
  0
LINE
  5
3C5
330
3C2
100
AcDbEntity
  8
치수문자_일반주서
 62
     0
370
    -2
100
AcDbLine
 10
85.55000000000003
 20
10.63524999999995
 30
0.0
 11
85.55000000000003
 21
23.36972678847294
 31
0.0
  0
LINE
  5
3C6
330
3C2
100
AcDbEntity
  8
치수문자_일반주서
 62
     0
370
    -2
100
AcDbLine
 10
63.32500000000001
 20
10.56398104253862
 30
0.0
 11
63.32500000000001
 21
23.36972678847294
 31
0.0
  0
LINE
  5
3C7
330
3C2
100
AcDbEntity
  8
치수문자_일반주서
 62
     0
370
    -2
100
AcDbLine
 10
63.32500000000001
 20
23.36972678847294
 30
0.0
 11
30.47100000000001
 21
23.36972678847294
 31
0.0
  0
LINE
  5
3C8
330
3C2
100
AcDbEntity
  8
치수문자_일반주서
 62
     0
370
    -2
100
AcDbLine
 10
85.55000000000003
 20
23.36972678847294
 30
0.0
 11
63.32500000000001
 21
23.36972678847294
 31
0.0
  0
LINE
  5
3C9
330
3C2
100
AcDbEntity
  8
치수문자_일반주서
 62
     0
370
    -2
100
AcDbLine
 10
88.85200000000003
 20
23.36972678847294
 30
0.0
 11
92.15400000000002
 21
23.36972678847294
 31
0.0
  0
LINE
  5
3CA
330
3C2
100
AcDbEntity
  8
치수문자_일반주서
 62
     0
370
    -2
100
AcDbLine
 10
60.02300000000001
 20
23.36972678847294
 30
0.0
 11
56.72100000000001
 21
23.36972678847294
 31
0.0
  0
SOLID
  5
3CB
330
3C2
100
AcDbEntity
  8
치수문자_일반주서
 62
     0
100
AcDbTrace
 10
88.85200000000003
 20
23.92006012180628
 30
0.0
 11
88.85200000000003
 21
22.81939345513961
 31
0.0
 12
85.55000000000003
 22
23.36972678847294
 32
0.0
 13
85.55000000000003
 23
23.36972678847294
 33
0.0
  0
SOLID
  5
3CC
330
3C2
100
AcDbEntity
  8
치수문자_일반주서
 62
     0
100
AcDbTrace
 10
60.02300000000001
 20
22.81939345513961
 30
0.0
 11
60.02300000000001
 21
23.92006012180628
 31
0.0
 12
63.32500000000001
 22
23.36972678847294
 32
0.0
 13
63.32500000000001
 23
23.36972678847294
 33
0.0
  0
MTEXT
  5
3CD
330
3C2
100
AcDbEntity
  8
치수문자_일반주서
 62
     0
100
AcDbMText
 10
43.59600000000001
 20
27.74472678847294
 30
0.0
 40
3.5
 41
0.0
 71
     2
 72
     1
  1
\A1;22.23 [7/8]
  7
SLDTEXTSTYLE0
 73
     1
 44
1.0
  0
POINT
  5
3CE
330
3C2
100
AcDbEntity
  8
Defpoints
 62
     0
100
AcDbPoint
 10
85.55000000000003
 20
10.57274999999995
 30
0.0
  0
POINT
  5
3CF
330
3C2
100
AcDbEntity
  8
Defpoints
 62
     0
100
AcDbPoint
 10
63.32500000000001
 20
10.50148104253862
 30
0.0
  0
POINT
  5
3D0
330
3C2
100
AcDbEntity
  8
Defpoints
 62
     0
100
AcDbPoint
 10
63.32500000000001
 20
23.36972678847294
 30
0.0
  0
ENDBLK
  5
3C4
330
3C2
100
AcDbEntity
  8
0
100
AcDbBlockEnd
  0
BLOCK
  5
3D2
330
3D1
100
AcDbEntity
  8
0
100
AcDbBlockBegin
  2
*D17
 70
     1
 10
0.0
 20
0.0
 30
0.0
  3
*D17
  1
*D19
  0
LINE
  5
3D4
330
3D1
100
AcDbEntity
  8
치수문자_일반주서
 62
     0
370
    -2
100
AcDbLine
 10
85.55000000000003
 20
10.63524999999995
 30
0.0
 11
85.55000000000001
 21
34.72781779774196
 31
0.0
  0
LINE
  5
3D5
330
3D1
100
AcDbEntity
  8
치수문자_일반주서
 62
     0
370
    -2
100
AcDbLine
 10
3.000000000000007
 20
10.55587499999995
 30
0.0
 11
2.999999999999993
 21
34.72781779774196
 31
0.0
  0
LINE
  5
3D6
330
3D1
100
AcDbEntity
  8
치수문자_일반주서
 62
     0
370
    -2
100
AcDbLine
 10
82.24800000000002
 20
34.72781779774196
 30
0.0
 11
6.301999999999992
 21
34.72781779774196
 31
0.0
  0
SOLID
  5
3D7
330
3D1
100
AcDbEntity
  8
치수문자_일반주서
 62
     0
100
AcDbTrace
 10
82.24800000000002
 20
34.17748446440863
 30
0.0
 11
82.24800000000002
 21
35.2781511310753
 31
0.0
 12
85.55000000000001
 22
34.72781779774196
 32
0.0
 13
85.55000000000001
 23
34.72781779774196
 33
0.0
  0
SOLID
  5
3D8
330
3D1
100
AcDbEntity
  8
치수문자_일반주서
 62
     0
100
AcDbTrace
 10
6.301999999999992
 20
35.2781511310753
 30
0.0
 11
6.301999999999992
 21
34.17748446440863
 31
0.0
 12
2.999999999999993
 22
34.72781779774196
 32
0.0
 13
2.999999999999993
 23
34.72781779774196
 33
0.0
  0
MTEXT
  5
3D9
330
3D1
100
AcDbEntity
  8
치수문자_일반주서
 62
     0
100
AcDbMText
 10
42.16874074226953
 20
39.10281779774196
 30
0.0
 40
3.5
 41
0.0
 71
     2
 72
     1
  1
\A1;82.55 [3 1/4]
  7
SLDTEXTSTYLE0
 73
     1
 44
1.0
  0
POINT
  5
3DA
330
3D1
100
AcDbEntity
  8
Defpoints
 62
     0
100
AcDbPoint
 10
85.55000000000003
 20
10.57274999999995
 30
0.0
  0
POINT
  5
3DB
330
3D1
100
AcDbEntity
  8
Defpoints
 62
     0
100
AcDbPoint
 10
3.000000000000007
 20
10.49337499999995
 30
0.0
  0
POINT
  5
3DC
330
3D1
100
AcDbEntity
  8
Defpoints
 62
     0
100
AcDbPoint
 10
3.000000000000007
 20
34.72781779774196
 30
0.0
  0
ENDBLK
  5
3D3
330
3D1
100
AcDbEntity
  8
0
100
AcDbBlockEnd
  0
BLOCK
  5
416
330
415
100
AcDbEntity
  8
0
100
AcDbBlockBegin
  2
*D18
 70
     1
 10
0.0
 20
0.0
 30
0.0
  3
*D18
  1
*D20
  0
LINE
  5
418
330
415
100
AcDbEntity
  8
치수문자_일반주서
 62
     0
370
    -2
100
AcDbLine
 10
190.2933441376175
 20
-31.38098623578669
 30
0.0
 11
203.6414035298309
 21
-31.38098623578664
 31
0.0
  0
LINE
  5
419
330
415
100
AcDbEntity
  8
치수문자_일반주서
 62
     0
370
    -2
100
AcDbLine
 10
190.2933441376175
 20
-35.34973623578669
 30
0.0
 11
203.6414035298309
 21
-35.34973623578664
 31
0.0
  0
LINE
  5
41A
330
415
100
AcDbEntity
  8
치수문자_일반주서
 62
     0
370
    -2
100
AcDbLine
 10
203.6414035298309
 20
-31.38098623578664
 30
0.0
 11
203.6414035298309
 21
4.098013764213363
 31
0.0
  0
LINE
  5
41B
330
415
100
AcDbEntity
  8
치수문자_일반주서
 62
     0
370
    -2
100
AcDbLine
 10
203.6414035298309
 20
-31.38098623578664
 30
0.0
 11
203.6414035298309
 21
-35.34973623578664
 31
0.0
  0
LINE
  5
41C
330
415
100
AcDbEntity
  8
치수문자_일반주서
 62
     0
370
    -2
100
AcDbLine
 10
203.6414035298309
 20
-28.07898623578664
 30
0.0
 11
203.6414035298309
 21
-24.77698623578664
 31
0.0
  0
LINE
  5
41D
330
415
100
AcDbEntity
  8
치수문자_일반주서
 62
     0
370
    -2
100
AcDbLine
 10
203.6414035298309
 20
-38.65173623578664
 30
0.0
 11
203.6414035298309
 21
-41.95373623578664
 31
0.0
  0
SOLID
  5
41E
330
415
100
AcDbEntity
  8
치수문자_일반주서
 62
     0
100
AcDbTrace
 10
203.0910701964976
 20
-28.07898623578664
 30
0.0
 11
204.1917368631643
 21
-28.07898623578664
 31
0.0
 12
203.6414035298309
 22
-31.38098623578664
 32
0.0
 13
203.6414035298309
 23
-31.38098623578664
 33
0.0
  0
SOLID
  5
41F
330
415
100
AcDbEntity
  8
치수문자_일반주서
 62
     0
100
AcDbTrace
 10
204.1917368631643
 20
-38.65173623578664
 30
0.0
 11
203.0910701964976
 21
-38.65173623578664
 31
0.0
 12
203.6414035298309
 22
-35.34973623578664
 32
0.0
 13
203.6414035298309
 23
-35.34973623578664
 33
0.0
  0
MTEXT
  5
420
330
415
100
AcDbEntity
  8
치수문자_일반주서
 62
     0
100
AcDbMText
 10
199.2664035298309
 20
-10.33948623578664
 30
0.0
 40
3.5
 41
0.0
 71
     2
 72
     1
  1
\A1;%%c3.97 [5/32]
  7
SLDTEXTSTYLE0
 11
0.0
 21
1.0
 31
0.0
 73
     1
 44
1.0
  0
POINT
  5
421
330
415
100
AcDbEntity
  8
Defpoints
 62
     0
100
AcDbPoint
 10
190.2308441376175
 20
-31.38098623578669
 30
0.0
  0
POINT
  5
422
330
415
100
AcDbEntity
  8
Defpoints
 62
     0
100
AcDbPoint
 10
190.2308441376175
 20
-35.34973623578669
 30
0.0
  0
POINT
  5
423
330
415
100
AcDbEntity
  8
Defpoints
 62
     0
100
AcDbPoint
 10
203.6414035298311
 20
-35.34973623578664
 30
0.0
  0
ENDBLK
  5
417
330
415
100
AcDbEntity
  8
0
100
AcDbBlockEnd
  0
BLOCK
  5
425
330
424
100
AcDbEntity
  8
0
100
AcDbBlockBegin
  2
*D19
 70
     1
 10
0.0
 20
0.0
 30
0.0
  3
*D19
  1
*D21
  0
LINE
  5
427
330
424
100
AcDbEntity
  8
치수문자_일반주서
 62
     0
370
    -2
100
AcDbLine
 10
190.2308441376175
 20
-31.31848623578669
 30
0.0
 11
190.2308441376175
 21
-18.58400944731369
 31
0.0
  0
LINE
  5
428
330
424
100
AcDbEntity
  8
치수문자_일반주서
 62
     0
370
    -2
100
AcDbLine
 10
168.0058441376175
 20
-31.38975519324801
 30
0.0
 11
168.0058441376175
 21
-18.58400944731369
 31
0.0
  0
LINE
  5
429
330
424
100
AcDbEntity
  8
치수문자_일반주서
 62
     0
370
    -2
100
AcDbLine
 10
168.0058441376175
 20
-18.58400944731369
 30
0.0
 11
135.1518441376175
 21
-18.58400944731369
 31
0.0
  0
LINE
  5
42A
330
424
100
AcDbEntity
  8
치수문자_일반주서
 62
     0
370
    -2
100
AcDbLine
 10
190.2308441376175
 20
-18.58400944731369
 30
0.0
 11
168.0058441376175
 21
-18.58400944731369
 31
0.0
  0
LINE
  5
42B
330
424
100
AcDbEntity
  8
치수문자_일반주서
 62
     0
370
    -2
100
AcDbLine
 10
193.5328441376175
 20
-18.58400944731369
 30
0.0
 11
196.8348441376175
 21
-18.58400944731369
 31
0.0
  0
LINE
  5
42C
330
424
100
AcDbEntity
  8
치수문자_일반주서
 62
     0
370
    -2
100
AcDbLine
 10
164.7038441376175
 20
-18.58400944731369
 30
0.0
 11
161.4018441376175
 21
-18.58400944731369
 31
0.0
  0
SOLID
  5
42D
330
424
100
AcDbEntity
  8
치수문자_일반주서
 62
     0
100
AcDbTrace
 10
193.5328441376175
 20
-18.03367611398036
 30
0.0
 11
193.5328441376175
 21
-19.13434278064703
 31
0.0
 12
190.2308441376175
 22
-18.58400944731369
 32
0.0
 13
190.2308441376175
 23
-18.58400944731369
 33
0.0
  0
SOLID
  5
42E
330
424
100
AcDbEntity
  8
치수문자_일반주서
 62
     0
100
AcDbTrace
 10
164.7038441376175
 20
-19.13434278064703
 30
0.0
 11
164.7038441376175
 21
-18.03367611398036
 31
0.0
 12
168.0058441376175
 22
-18.58400944731369
 32
0.0
 13
168.0058441376175
 23
-18.58400944731369
 33
0.0
  0
MTEXT
  5
42F
330
424
100
AcDbEntity
  8
치수문자_일반주서
 62
     0
100
AcDbMText
 10
148.2768441376175
 20
-14.20900944731369
 30
0.0
 40
3.5
 41
0.0
 71
     2
 72
     1
  1
\A1;22.23 [7/8]
  7
SLDTEXTSTYLE0
 73
     1
 44
1.0
  0
POINT
  5
430
330
424
100
AcDbEntity
  8
Defpoints
 62
     0
100
AcDbPoint
 10
190.2308441376175
 20
-31.38098623578669
 30
0.0
  0
POINT
  5
431
330
424
100
AcDbEntity
  8
Defpoints
 62
     0
100
AcDbPoint
 10
168.0058441376175
 20
-31.45225519324801
 30
0.0
  0
POINT
  5
432
330
424
100
AcDbEntity
  8
Defpoints
 62
     0
100
AcDbPoint
 10
168.0058441376175
 20
-18.58400944731369
 30
0.0
  0
ENDBLK
  5
426
330
424
100
AcDbEntity
  8
0
100
AcDbBlockEnd
  0
BLOCK
  5
434
330
433
100
AcDbEntity
  8
0
100
AcDbBlockBegin
  2
*D20
 70
     1
 10
0.0
 20
0.0
 30
0.0
  3
*D20
  1
*D22
  0
LINE
  5
436
330
433
100
AcDbEntity
  8
치수문자_일반주서
 62
     0
370
    -2
100
AcDbLine
 10
190.2308441376175
 20
-31.31848623578669
 30
0.0
 11
190.2308441376175
 21
-7.225918438044673
 31
0.0
  0
LINE
  5
437
330
433
100
AcDbEntity
  8
치수문자_일반주서
 62
     0
370
    -2
100
AcDbLine
 10
107.6808441376175
 20
-31.39786123578669
 30
0.0
 11
107.6808441376175
 21
-7.225918438044673
 31
0.0
  0
LINE
  5
438
330
433
100
AcDbEntity
  8
치수문자_일반주서
 62
     0
370
    -2
100
AcDbLine
 10
186.9288441376175
 20
-7.225918438044673
 30
0.0
 11
110.9828441376175
 21
-7.225918438044673
 31
0.0
  0
SOLID
  5
439
330
433
100
AcDbEntity
  8
치수문자_일반주서
 62
     0
100
AcDbTrace
 10
186.9288441376175
 20
-7.776251771378006
 30
0.0
 11
186.9288441376175
 21
-6.675585104711339
 31
0.0
 12
190.2308441376175
 22
-7.225918438044673
 32
0.0
 13
190.2308441376175
 23
-7.225918438044673
 33
0.0
  0
SOLID
  5
43A
330
433
100
AcDbEntity
  8
치수문자_일반주서
 62
     0
100
AcDbTrace
 10
110.9828441376175
 20
-6.675585104711339
 30
0.0
 11
110.9828441376175
 21
-7.776251771378006
 31
0.0
 12
107.6808441376175
 22
-7.225918438044673
 32
0.0
 13
107.6808441376175
 23
-7.225918438044673
 33
0.0
  0
MTEXT
  5
43B
330
433
100
AcDbEntity
  8
치수문자_일반주서
 62
     0
100
AcDbMText
 10
146.849584879887
 20
-2.850918438044673
 30
0.0
 40
3.5
 41
0.0
 71
     2
 72
     1
  1
\A1;82.55 [3 1/4]
  7
SLDTEXTSTYLE0
 73
     1
 44
1.0
  0
POINT
  5
43C
330
433
100
AcDbEntity
  8
Defpoints
 62
     0
100
AcDbPoint
 10
190.2308441376175
 20
-31.38098623578669
 30
0.0
  0
POINT
  5
43D
330
433
100
AcDbEntity
  8
Defpoints
 62
     0
100
AcDbPoint
 10
107.6808441376175
 20
-31.46036123578669
 30
0.0
  0
POINT
  5
43E
330
433
100
AcDbEntity
  8
Defpoints
 62
     0
100
AcDbPoint
 10
107.6808441376175
 20
-7.225918438044673
 30
0.0
  0
ENDBLK
  5
435
330
433
100
AcDbEntity
  8
0
100
AcDbBlockEnd
  0
ENDSEC
  0
SECTION
  2
ENTITIES
  0
LINE
  5
96
330
1F
100
AcDbEntity
  8
0
  6
Continuous
 62
     1
370
    25
100
AcDbLine
 10
19.9743987884849
 20
-1.984375000000003
 30
0.0
 11
21.18318311704403
 21
-1.984375000000003
 31
0.0
  0
LINE
  5
97
330
1F
100
AcDbEntity
  8
0
  6
Continuous
 62
     1
370
    25
100
AcDbLine
 10
31.98061477901009
 20
1.984375
 30
0.0
 11
30.77193335428408
 21
1.984375
 31
0.0
  0
LINE
  5
98
330
1F
100
AcDbEntity
  8
0
  6
Continuous
 62
     1
370
    25
100
AcDbLine
 10
36.17189404788965
 20
-1.984375000000003
 30
0.0
 11
37.38137804736808
 21
-1.984375000000003
 31
0.0
  0
LINE
  5
99
330
1F
100
AcDbEntity
  8
0
  6
Continuous
 62
     1
370
    25
100
AcDbLine
 10
26.58358423943289
 20
1.984375
 30
0.0
 11
25.37218247869104
 21
1.984375
 31
0.0
  0
LINE
  5
9A
330
1F
100
AcDbEntity
  8
0
  6
Continuous
 62
     1
370
    25
100
AcDbLine
 10
30.77193335428408
 20
-1.984375000000003
 30
0.0
 11
31.98061477901005
 21
-1.984375000000003
 31
0.0
  0
LINE
  5
9B
330
1F
100
AcDbEntity
  8
0
  6
Continuous
 62
     1
370
    25
100
AcDbLine
 10
21.18318311704401
 20
1.984375
 30
0.0
 11
19.97439878848488
 21
1.984375
 31
0.0
  0
LINE
  5
9C
330
1F
100
AcDbEntity
  8
0
  6
Continuous
 62
     1
370
    25
100
AcDbLine
 10
25.37218247869109
 20
-1.984375000000003
 30
0.0
 11
26.58358423943288
 21
-1.984375000000003
 31
0.0
  0
LINE
  5
9D
330
1F
100
AcDbEntity
  8
0
  6
Continuous
 62
     1
370
    25
100
AcDbLine
 10
37.38137804736808
 20
1.984375
 30
0.0
 11
36.17189404788969
 21
1.984375
 31
0.0
  0
LINE
  5
9E
330
1F
100
AcDbEntity
  8
외형선
  6
Continuous
370
    15
100
AcDbLine
 10
16.56884233574608
 20
-2.381250000000009
 30
0.0
 11
18.05
 21
-1.984375000000002
 31
0.0
  0
LINE
  5
9F
330
1F
100
AcDbEntity
  8
외형선
  6
Continuous
370
    15
100
AcDbLine
 10
18.05
 20
1.984374999999999
 30
0.0
 11
16.56884233574608
 21
2.381250000000006
 31
0.0
  0
LINE
  5
A0
330
1F
100
AcDbEntity
  8
외형선
  6
Continuous
370
    15
100
AcDbLine
 10
-16.56884233574607
 20
-2.381250000000005
 30
0.0
 11
16.56884233574608
 21
-2.381250000000005
 31
0.0
  0
LINE
  5
A1
330
1F
100
AcDbEntity
  8
외형선
  6
Continuous
370
    15
100
AcDbLine
 10
16.56884233574608
 20
2.381250000000002
 30
0.0
 11
-16.56884233574607
 21
2.381250000000002
 31
0.0
  0
LINE
  5
A4
330
1F
100
AcDbEntity
  8
외형선
  6
Continuous
370
    15
100
AcDbLine
 10
18.05
 20
-1.984375000000002
 30
0.0
 11
18.55007236316313
 21
-1.984375000000002
 31
0.0
  0
LINE
  5
A5
330
1F
100
AcDbEntity
  8
외형선
  6
Continuous
370
    15
100
AcDbLine
 10
18.55007236316313
 20
1.984374999999998
 30
0.0
 11
18.05
 21
1.984374999999998
 31
0.0
  0
LINE
  5
A6
330
1F
100
AcDbEntity
  8
0
  6
Continuous
 62
     1
370
    25
100
AcDbLine
 10
41.27500000000001
 20
-1.797211427429373
 30
0.0
 11
41.27500000000001
 21
0.1700239274293929
 31
0.0
  0
SPLINE
  5
A7
330
1F
100
AcDbEntity
  8
0
  6
Continuous
 62
     1
370
    25
100
AcDbSpline
210
0.0
220
0.0
230
1.0
 70
     8
 71
     3
 72
    12
 73
     8
 74
     0
 42
0.000000001
 43
0.00000001
 40
0.0
 40
0.0
 40
0.0
 40
0.0
 40
0.2449468446689782
 40
0.4899000899194959
 40
0.7348618354834859
 40
0.9798341745075273
 40
1.0
 40
1.0
 40
1.0
 40
1.0
 10
19.05000000000002
 20
-1.614064241599273
 30
0.0
 10
19.39527886256372
 20
-1.715618523231849
 30
0.0
 10
20.08584560999769
 20
-1.918729740160335
 30
0.0
 10
21.12171831177954
 20
-2.015015950543951
 30
0.0
 10
22.15763508842839
 20
-1.925527294463971
 30
0.0
 10
22.87668864350322
 20
-1.778762376422698
 30
0.0
 10
23.25044148397008
 20
-1.632741769094729
 30
0.0
 10
23.27886830276438
 20
-1.621635762944877
 30
0.0
  0
SPLINE
  5
A8
330
1F
100
AcDbEntity
  8
0
  6
Continuous
 62
     1
370
    25
100
AcDbSpline
210
0.0
220
0.0
230
1.0
 70
     8
 71
     3
 72
    17
 73
    13
 74
     0
 42
0.000000001
 43
0.00000001
 40
0.0
 40
0.0
 40
0.0
 40
0.0
 40
0.0829869580312401
 40
0.1849749651272198
 40
0.2869408569085279
 40
0.3888283399660145
 40
0.4906638112082897
 40
0.5924740349790697
 40
0.6942859546579842
 40
0.7961265015847423
 40
0.8980224041635012
 40
1.0
 40
1.0
 40
1.0
 40
1.0
 10
31.9806147790101
 20
1.973027350286306
 30
0.0
 10
32.23771543739061
 20
1.967953024954371
 30
0.0
 10
32.81078362119145
 20
1.956642535046241
 30
0.0
 10
33.69998841160709
 20
1.76108393572394
 30
0.0
 10
34.64767657468446
 20
1.436021973555744
 30
0.0
 10
35.5947184436906
 20
0.998254062775795
 30
0.0
 10
36.5411886849942
 20
0.4864173624072245
 30
0.0
 10
37.48737603558563
 20
-0.0621696744436682
 30
0.0
 10
38.43358179149924
 20
-0.6066869348269531
 30
0.0
 10
39.38010999346955
 20
-1.102934502014375
 30
0.0
 10
40.32724029210332
 20
-1.525818379538001
 30
0.0
 10
40.95899571471715
 20
-1.706722914977229
 30
0.0
 10
41.27500000000001
 20
-1.797211427429373
 30
0.0
  0
SPLINE
  5
A9
330
1F
100
AcDbEntity
  8
외형선
  6
Continuous
370
    15
100
AcDbSpline
210
0.0
220
0.0
230
1.0
 70
    24
 71
     3
 72
    15
 73
    11
 74
     0
 42
0.000000001
 43
0.00000001
 40
0.0
 40
0.0
 40
0.0
 40
0.0
 40
0.0246389086790318
 40
0.1713079282359084
 40
0.3179769477927926
 40
0.4646459673496822
 40
0.6113149869065676
 40
0.7579840064634532
 40
0.9046530260203381
 40
1.0
 40
1.0
 40
1.0
 40
1.0
 10
19.05000000000002
 20
0.4970709874482906
 30
0.0
 10
19.05000000000002
 20
0.4950754224770099
 30
0.0
 10
19.05000000000003
 20
0.4812007778917496
 30
0.0
 10
19.04999999999996
 20
0.3384835608909228
 30
0.0
 10
19.05000000000002
 20
0.0661214675548282
 30
0.0
 10
19.05000000000002
 20
-0.2984950201371391
 30
0.0
 10
19.04999999999999
 20
-0.7019148813135785
 30
0.0
 10
19.05000000000002
 20
-1.099941789825774
 30
0.0
 10
19.04999999999998
 20
-1.413497711474703
 30
0.0
 10
19.05
 20
-1.557379265563601
 30
0.0
 10
19.04999999999999
 20
-1.614064241599268
 30
0.0
  0
SPLINE
  5
AA
330
1F
100
AcDbEntity
  8
0
  6
Continuous
 62
     1
370
    25
100
AcDbSpline
210
0.0
220
0.0
230
1.0
 70
     8
 71
     3
 72
    15
 73
    11
 74
     0
 42
0.000000001
 43
0.00000001
 40
0.0
 40
0.0
 40
0.0
 40
0.0
 40
0.131681833539249
 40
0.2632581780455473
 40
0.3947630427950241
 40
0.5262309416947554
 40
0.6576966506988351
 40
0.7891949613083152
 40
0.9207604338383792
 40
1.0
 40
1.0
 40
1.0
 40
1.0
 10
41.27500000000003
 20
0.1700239274293932
 30
0.0
 10
40.95899571618766
 20
0.3503801421343225
 30
0.0
 10
40.32724029651364
 20
0.7109480899390539
 30
0.0
 10
39.3801099758488
 20
1.194874581787546
 30
0.0
 10
38.43358185753083
 20
1.589575694125971
 30
0.0
 10
37.48737578914155
 20
1.863755602004565
 30
0.0
 10
36.54118960484772
 20
1.998922145576848
 30
0.0
 10
35.59471500905087
 20
1.97798388792081
 30
0.0
 10
34.7734710627243
 20
1.847846584904899
 30
0.0
 10
34.26760673503162
 20
1.676728168797657
 30
0.0
 10
34.07745724851183
 20
1.612406418526626
 30
0.0
  0
SPLINE
  5
AB
330
1F
100
AcDbEntity
  8
0
  6
Continuous
 62
     1
370
    25
100
AcDbSpline
210
0.0
220
0.0
230
1.0
 70
     8
 71
     3
 72
    14
 73
    10
 74
     0
 42
0.000000001
 43
0.00000001
 40
0.0
 40
0.0
 40
0.0
 40
0.0
 40
0.0308871128319465
 40
0.1807285626567091
 40
0.3445970166143979
 40
0.5084569900879738
 40
0.6723098776836497
 40
0.8361570794898774
 40
1.0
 40
1.0
 40
1.0
 40
1.0
 10
25.37218247869109
 20
-1.972087556226352
 30
0.0
 10
25.30708347737786
 20
-1.975893878944933
 30
0.0
 10
24.92617222154953
 20
-1.998165667107185
 30
0.0
 10
24.20010528582907
 20
-1.887406705211358
 30
0.0
 10
23.19359025778498
 20
-1.625764772363443
 30
0.0
 10
22.15763800481264
 20
-1.194973639994771
 30
0.0
 10
21.12171753412066
 20
-0.6612620716646791
 30
0.0
 10
20.08584580440363
 20
-0.063475665792091
 30
0.0
 10
19.39527892736514
 20
0.3302020517852448
 30
0.0
 10
19.04999999999998
 20
0.5270383388594115
 30
0.0
  0
SPLINE
  5
AC
330
1F
100
AcDbEntity
  8
0
  6
Continuous
 62
     1
370
    25
100
AcDbSpline
210
0.0
220
0.0
230
1.0
 70
     8
 71
     3
 72
    21
 73
    17
 74
     0
 42
0.000000001
 43
0.00000001
 40
0.0
 40
0.0
 40
0.0
 40
0.0
 40
0.0755658572772245
 40
0.1559024951578954
 40
0.2362432908177164
 40
0.309706980814152
 40
0.3832293707808089
 40
0.4567223309852365
 40
0.5301611449447797
 40
0.6035648812690072
 40
0.6769528565257588
 40
0.7503444990807774
 40
0.8237592112652417
 40
0.8972162319331182
 40
0.9707332756455995
 40
1.0
 40
1.0
 40
1.0
 40
1.0
 10
21.18318311704401
 20
1.979374230845454
 30
0.0
 10
21.50799603169954
 20
1.965976824974859
 30
0.0
 10
22.17812862436671
 20
1.938336180388425
 30
0.0
 10
23.19359259811151
 20
1.677291322340081
 30
0.0
 10
24.20009731352606
 20
1.285982139297642
 30
0.0
 10
25.17708847113873
 20
0.7987947892292665
 30
0.0
 10
26.12496563363955
 20
0.2673279577884993
 30
0.0
 10
27.07258052503215
 20
-0.2847116691918515
 30
0.0
 10
28.0195374805807
 20
-0.8151861108659374
 30
0.0
 10
28.96595475946947
 20
-1.284054495725947
 30
0.0
 10
29.91212845061799
 20
-1.656212274429467
 30
0.0
 10
30.85835708569616
 20
-1.902967481777387
 30
0.0
 10
31.80494904978701
 20
-2.008272487358612
 30
0.0
 10
32.75216304232708
 20
-1.954551332607403
 30
0.0
 10
33.50983647222464
 20
-1.816258815732652
 30
0.0
 10
33.95165384942696
 20
-1.65758680224666
 30
0.0
 10
34.07745724851182
 20
-1.61240641852663
 30
0.0
  0
SPLINE
  5
AD
330
1F
100
AcDbEntity
  8
0
  6
Continuous
 62
     1
370
    25
100
AcDbSpline
210
0.0
220
0.0
230
1.0
 70
     8
 71
     3
 72
    21
 73
    17
 74
     0
 42
0.000000001
 43
0.00000001
 40
0.0
 40
0.0
 40
0.0
 40
0.0
 40
0.0447608593249631
 40
0.1182112766749347
 40
0.1917182186667556
 40
0.2652411035304929
 40
0.3387039605806124
 40
0.412124505785785
 40
0.4855219795285571
 40
0.5589157856816868
 40
0.6323253541545557
 40
0.7057700030497647
 40
0.7792688024919415
 40
0.8527970340346304
 40
0.9262665609432071
 40
0.9999999999999999
 40
0.9999999999999999
 40
0.9999999999999999
 40
0.9999999999999999
 10
36.17189404788967
 20
-1.966493676029134
 30
0.0
 10
35.97955357387849
 20
-1.968111283872187
 30
0.0
 10
35.47159163275373
 20
-1.972383308385799
 30
0.0
 10
34.64767540875264
 20
-1.811212425916801
 30
0.0
 10
33.69998656441057
 20
-1.513299059942181
 30
0.0
 10
32.75216761570699
 20
-1.094886001180548
 30
0.0
 10
31.80494782551036
 20
-0.5954591989576621
 30
0.0
 10
30.85835741369046
 20
-0.0507954434908721
 30
0.0
 10
29.91212836220989
 20
0.4975149460079267
 30
0.0
 10
28.96595478517706
 20
1.008321295500669
 30
0.0
 10
28.01953746616859
 20
1.443191253379351
 30
0.0
 10
27.07258055698498
 20
1.769078824567225
 30
0.0
 10
26.12496552014313
 20
1.962317392142762
 30
0.0
 10
25.17708889317539
 20
2.004485109222747
 30
0.0
 10
24.22851759545289
 20
1.90663871860172
 30
0.0
 10
23.595796190863
 20
1.716750228393981
 30
0.0
 10
23.27886830276437
 20
1.621635762944877
 30
0.0
  0
SPLINE
  5
AE
330
1F
100
AcDbEntity
  8
0
  6
Continuous
 62
     1
370
    25
100
AcDbSpline
210
0.0
220
0.0
230
1.0
 70
     8
 71
     3
 72
    22
 73
    18
 74
     0
 42
0.000000001
 43
0.00000001
 40
0.0
 40
0.0
 40
0.0
 40
0.0
 40
0.0379403549841349
 40
0.1113870247463199
 40
0.1847986131209092
 40
0.2581944387420501
 40
0.3315939320537513
 40
0.4050164974626732
 40
0.4784813758807761
 40
0.552006283764192
 40
0.6255152483370137
 40
0.6989676867126833
 40
0.7723826288764829
 40
0.8457793697039802
 40
0.9191773331408106
 40
0.9925959344528247
 40
1.0
 40
1.0
 40
1.0
 40
1.0
 10
26.58358423943289
 20
1.965587197175771
 30
0.0
 10
26.74665614925282
 20
1.968977507744338
 30
0.0
 10
27.22541010034628
 20
1.978930936154711
 30
0.0
 10
28.01953265791953
 20
1.832106741485652
 30
0.0
 10
28.96595607360053
 20
1.547155817040061
 30
0.0
 10
29.91212801464971
 20
1.138014785004794
 30
0.0
 10
30.85835751560261
 20
0.6450905494736338
 30
0.0
 10
31.80494776550378
 20
0.1029205590509545
 30
0.0
 10
32.75216775388246
 20
-0.4470152599387478
 30
0.0
 10
33.6999860713865
 20
-0.9631191816362115
 30
0.0
 10
34.64767724147646
 20
-1.406595266193975
 30
0.0
 10
35.59471811489136
 20
-1.744206680101162
 30
0.0
 10
36.5411893335841
 20
-1.949335363545515
 30
0.0
 10
37.48737377040293
 20
-2.010679209113142
 30
0.0
 10
38.43359020503246
 20
-1.908465374006956
 30
0.0
 10
39.09625272529308
 20
-1.767411752530068
 30
0.0
 10
39.44359137755009
 20
-1.633851240567457
 30
0.0
 10
39.47541064618246
 20
-1.621615925605525
 30
0.0
  0
SPLINE
  5
AF
330
1F
100
AcDbEntity
  8
0
  6
Continuous
 62
     1
370
    25
100
AcDbSpline
210
0.0
220
0.0
230
1.0
 70
     8
 71
     3
 72
    21
 73
    17
 74
     0
 42
0.000000001
 43
0.00000001
 40
0.0
 40
0.0
 40
0.0
 40
0.0
 40
0.075234068420142
 40
0.1504078675616047
 40
0.2255408280181036
 40
0.3006526686952509
 40
0.3757632582145516
 40
0.4508924740799881
 40
0.5260600617116177
 40
0.6012854954539004
 40
0.676527244790636
 40
0.7517075629455859
 40
0.8268445800625345
 40
0.9019579863378518
 40
0.977067639280298
 40
1.0
 40
1.0
 40
1.0
 40
1.0
 10
41.27500000000002
 20
-1.984374999999995
 30
0.0
 10
40.95899571478898
 20
-1.946926556347711
 30
0.0
 10
40.32724029231877
 20
-1.886648537656287
 30
0.0
 10
39.3801099926088
 20
-1.613902953917058
 30
0.0
 10
38.43358179472482
 20
-1.230194136329364
 30
0.0
 10
37.48737602354698
 20
-0.7509111773141112
 30
0.0
 10
36.54118872992828
 20
-0.2157830107319723
 30
0.0
 10
35.59471827591138
 20
0.335868842966474
 30
0.0
 10
34.64767720139988
 20
0.8622696533862343
 30
0.0
 10
33.69998607049619
 20
1.323555835088912
 30
0.0
 10
32.75216779753944
 20
1.685115846082124
 30
0.0
 10
31.80494759197578
 20
1.919027410239472
 30
0.0
 10
30.85835816562278
 20
2.010453251728796
 30
0.0
 10
29.91212558881626
 20
1.941589352295294
 30
0.0
 10
29.18510693707588
 20
1.80113383750702
 30
0.0
 10
28.77343376682035
 20
1.649576756037725
 30
0.0
 10
28.67714201100781
 20
1.614127038798584
 30
0.0
  0
LINE
  5
B0
330
1F
100
AcDbEntity
  8
0
  6
Continuous
 62
     1
370
    25
100
AcDbLine
 10
19.97439878848488
 20
-1.975766679404946
 30
0.0
 11
19.04999999999998
 21
-1.913106042538506
 31
0.0
  0
LINE
  5
B1
330
1F
100
AcDbEntity
  8
0
  6
Continuous
 62
     1
370
    25
100
AcDbLine
 10
41.27500000000001
 20
0.8412937808769636
 30
0.0
 11
41.27500000000002
 21
1.984375000000005
 31
0.0
  0
SPLINE
  5
B2
330
1F
100
AcDbEntity
  8
0
  6
Continuous
 62
     1
370
    25
100
AcDbSpline
210
0.0
220
0.0
230
1.0
 70
     8
 71
     3
 72
    17
 73
    13
 74
     0
 42
0.000000001
 43
0.00000001
 40
0.0
 40
0.0
 40
0.0
 40
0.0
 40
0.1075944061268181
 40
0.2151916237483925
 40
0.3227925751848756
 40
0.4303981798637565
 40
0.5380093536123839
 40
0.6364090998869325
 40
0.7348874708831139
 40
0.8333264226623133
 40
0.9316928491333146
 40
1.0
 40
1.0
 40
1.0
 40
1.0
 10
19.05000000000003
 20
1.154357295041497
 30
0.0
 10
19.39527891427704
 20
0.9820246233838735
 30
0.0
 10
20.08584576513892
 20
0.6373547769311478
 30
0.0
 10
21.12171769118671
 20
0.0349916391779411
 30
0.0
 10
22.15763741578203
 20
-0.563070273420051
 30
0.0
 10
23.19359245698401
 20
-1.112339346040911
 30
0.0
 10
24.20009737460346
 20
-1.54808018149291
 30
0.0
 10
25.17708836551738
 20
-1.843796182700979
 30
0.0
 10
26.12496600031688
 20
-1.99256094990409
 30
0.0
 10
27.07257916508016
 20
-1.986495188427687
 30
0.0
 10
27.92324247827916
 20
-1.861743194147815
 30
0.0
 10
28.45798902125441
 20
-1.686107214405829
 30
0.0
 10
28.67714201100781
 20
-1.614127038798587
 30
0.0
  0
SPLINE
  5
B3
330
1F
100
AcDbEntity
  8
0
  6
Continuous
 62
     1
370
    25
100
AcDbSpline
210
0.0
220
0.0
230
1.0
 70
     8
 71
     3
 72
    12
 73
     8
 74
     0
 42
0.000000001
 43
0.00000001
 40
0.0
 40
0.0
 40
0.0
 40
0.0
 40
0.0272259624846066
 40
0.2702534028788987
 40
0.5133491771852802
 40
0.7565770867314208
 40
1.0
 40
1.0
 40
1.0
 40
1.0
 10
37.38137804736808
 20
1.976920794488965
 30
0.0
 10
37.41670912187863
 20
1.9793413242035
 30
0.0
 10
37.76741639693817
 20
2.003368257778112
 30
0.0
 10
38.43358078619275
 20
1.906724535265528
 30
0.0
 10
39.38011026173864
 20
1.680620680941062
 30
0.0
 10
40.32724022495808
 20
1.317229048753844
 30
0.0
 10
40.95899569232942
 20
0.9999812444958898
 30
0.0
 10
41.27500000000001
 20
0.8412937808769636
 30
0.0
  0
SPLINE
  5
B4
330
1F
100
AcDbEntity
  8
외형선
  6
Continuous
370
    15
100
AcDbSpline
210
0.0
220
0.0
230
1.0
 70
    24
 71
     3
 72
     9
 73
     5
 74
     0
 42
0.000000001
 43
0.00000001
 40
0.0
 40
0.0
 40
0.0
 40
0.0
 40
0.4644519664036388
 40
1.0
 40
1.0
 40
1.0
 40
1.0
 10
19.04999999999996
 20
1.913106042538502
 30
0.0
 10
19.04999999999999
 20
1.797199876646147
 30
0.0
 10
19.05000000000007
 20
1.547645187945305
 30
0.0
 10
19.05
 20
1.328335665780834
 30
0.0
 10
19.04999999999999
 20
1.210884882436695
 30
0.0
  0
SPLINE
  5
B5
330
1F
100
AcDbEntity
  8
0
  6
Continuous
 62
     1
370
    25
100
AcDbSpline
210
0.0
220
0.0
230
1.0
 70
     8
 71
     3
 72
     9
 73
     5
 74
     0
 42
0.000000001
 43
0.00000001
 40
0.0
 40
0.0
 40
0.0
 40
0.0
 40
0.526735190145982
 40
1.0
 40
1.0
 40
1.0
 40
1.0
 10
41.27500000000003
 20
1.984375000000005
 30
0.0
 10
40.95899380917231
 20
1.949092799503017
 30
0.0
 10
40.35906011053302
 20
1.895963934022725
 30
0.0
 10
39.75927013493583
 20
1.709746217708448
 30
0.0
 10
39.47541064618247
 20
1.621615925605522
 30
0.0
  0
SPLINE
  5
B6
330
1F
100
AcDbEntity
  8
0
  6
Continuous
 62
     1
370
    25
100
AcDbSpline
210
0.0
220
0.0
230
1.0
 70
     8
 71
     3
 72
    19
 73
    15
 74
     0
 42
0.000000001
 43
0.00000001
 40
0.0
 40
0.0
 40
0.0
 40
0.0
 40
0.0733656034947173
 40
0.1540939181518218
 40
0.2348395703142873
 40
0.315623808612578
 40
0.3964676089178503
 40
0.4773437825798902
 40
0.558155385041405
 40
0.6465319482200093
 40
0.7349039377541939
 40
0.8232721057747145
 40
0.9116372073689752
 40
1.0
 40
1.0
 40
1.0
 40
1.0
 10
30.77193335428409
 20
-1.97816320677746
 30
0.0
 10
30.4853256628794
 20
-1.968680490695707
 30
0.0
 10
29.88334735101045
 20
-1.948763406855952
 30
0.0
 10
28.9659556151555
 20
-1.736110249610762
 30
0.0
 10
28.01953725131206
 20
-1.399147675076724
 30
0.0
 10
27.07258058597117
 20
-0.9530198148159554
 30
0.0
 10
26.12496561937325
 20
-0.4359144480847098
 30
0.0
 10
25.17708846721325
 20
0.1141488943084304
 30
0.0
 10
24.20009734451053
 20
0.672818175935606
 30
0.0
 10
23.19359246534935
 20
1.193129573497717
 30
0.0
 10
22.15763741354145
 20
1.621951116751946
 30
0.0
 10
21.12171769178413
 20
1.901205735969303
 30
0.0
 10
20.08584576498954
 20
2.02140250412718
 30
0.0
 10
19.39527891422722
 20
1.949204548644155
 30
0.0
 10
19.04999999999998
 20
1.913106042538503
 30
0.0
  0
LINE
  5
B7
330
1F
100
AcDbEntity
  8
0
  6
Continuous
 62
     1
370
    25
100
AcDbLine
 10
41.27500000000001
 20
-1.984374999999995
 30
0.0
 11
41.27500000000001
 21
-1.797211427429373
 31
0.0
  0
LINE
  5
B8
330
1F
100
AcDbEntity
  8
외형선
  6
Continuous
370
    15
100
AcDbLine
 10
19.04999999999996
 20
-1.913106042538505
 30
0.0
 11
19.04999999999999
 21
-1.614064241599268
 31
0.0
  0
LINE
  5
B9
330
1F
100
AcDbEntity
  8
외형선
  6
Continuous
370
    15
100
AcDbLine
 10
19.04999999999996
 20
0.5270383388594141
 30
0.0
 11
19.05000000000002
 21
1.154357295041506
 31
0.0
  0
LINE
  5
BA
330
1F
100
AcDbEntity
  8
0
  6
Continuous
 62
     1
370
    25
100
AcDbLine
 10
41.27500000000001
 20
0.170023927429393
 30
0.0
 11
41.27500000000001
 21
0.8412937808769636
 31
0.0
  0
LINE
  5
BB
330
1F
100
AcDbEntity
  8
외형선
  6
Continuous
370
    15
100
AcDbLine
 10
18.05
 20
-0.0000000000000015
 30
0.0
 11
18.05
 21
1.984374999999999
 31
0.0
  0
LINE
  5
BC
330
1F
100
AcDbEntity
  8
외형선
  6
Continuous
370
    15
100
AcDbLine
 10
18.05
 20
-1.984375000000002
 30
0.0
 11
18.05
 21
-0.0000000000000015
 31
0.0
  0
LINE
  5
BD
330
1F
100
AcDbEntity
  8
외형선
  6
Continuous
370
    15
100
AcDbLine
 10
16.56884233574608
 20
-0.0000000000000015
 30
0.0
 11
16.56884233574608
 21
2.381250000000005
 31
0.0
  0
LINE
  5
BE
330
1F
100
AcDbEntity
  8
외형선
  6
Continuous
370
    15
100
AcDbLine
 10
16.56884233574608
 20
-2.381250000000007
 30
0.0
 11
16.56884233574608
 21
-0.0000000000000015
 31
0.0
  0
SPLINE
  5
C3
330
1F
100
AcDbEntity
  8
외형선
  6
Continuous
370
    15
100
AcDbSpline
210
0.0
220
0.0
230
1.0
 70
     8
 71
     3
 72
     8
 73
     4
 74
     0
 42
0.000000001
 43
0.00000001
 40
0.0
 40
0.0
 40
0.0
 40
0.0
 40
1.0
 40
1.0
 40
1.0
 40
1.0
 10
19.05000000000005
 20
-1.614064241599273
 30
0.0
 10
18.8820509899489
 20
-1.557869952851791
 30
0.0
 10
18.71555852385045
 20
-1.496096195339368
 30
0.0
 10
18.55007236316313
 20
-1.429420988154385
 30
0.0
  0
SPLINE
  5
C4
330
1F
100
AcDbEntity
  8
외형선
  6
Continuous
370
    15
100
AcDbSpline
210
0.0
220
0.0
230
1.0
 70
     8
 71
     3
 72
     8
 73
     4
 74
     0
 42
0.000000001
 43
0.00000001
 40
0.0
 40
0.0
 40
0.0
 40
0.0
 40
1.0
 40
1.0
 40
1.0
 40
1.0
 10
19.05000000000003
 20
-1.913106042538514
 30
0.0
 10
18.88205098994888
 20
-1.887449736018796
 30
0.0
 10
18.7155585238505
 20
-1.855060369176631
 30
0.0
 10
18.55007236316312
 20
-1.81634900267388
 30
0.0
  0
LINE
  5
C5
330
1F
100
AcDbEntity
  8
외형선
  6
Continuous
370
    15
100
AcDbLine
 10
18.55007236316313
 20
-1.984375000000002
 30
0.0
 11
18.55007236316313
 21
-1.816344718479285
 31
0.0
  0
SPLINE
  5
C6
330
1F
100
AcDbEntity
  8
외형선
  6
Continuous
370
    15
100
AcDbSpline
210
0.0
220
0.0
230
1.0
 70
     8
 71
     3
 72
     8
 73
     4
 74
     0
 42
0.000000001
 43
0.00000001
 40
0.0
 40
0.0
 40
0.0
 40
0.0
 40
1.0
 40
1.0
 40
1.0
 40
1.0
 10
19.05000000000003
 20
1.91310604253851
 30
0.0
 10
18.88205098994888
 20
1.887449736018793
 30
0.0
 10
18.7155585238505
 20
1.855060369176627
 30
0.0
 10
18.55007236316312
 20
1.816349002673877
 30
0.0
  0
LINE
  5
C7
330
1F
100
AcDbEntity
  8
외형선
  6
Continuous
370
    15
100
AcDbLine
 10
18.55007236316313
 20
1.376396284715633
 30
0.0
 11
18.55007236316313
 21
1.984374999999998
 31
0.0
  0
SPLINE
  5
C8
330
1F
100
AcDbEntity
  8
외형선
  6
Continuous
370
    15
100
AcDbSpline
210
0.0
220
0.0
230
1.0
 70
     8
 71
     3
 72
     8
 73
     4
 74
     0
 42
0.000000001
 43
0.00000001
 40
0.0
 40
0.0
 40
0.0
 40
0.0
 40
1.0
 40
1.0
 40
1.0
 40
1.0
 10
19.05000000000005
 20
1.1543572950415
 30
0.0
 10
18.8820509899489
 20
1.232930187887604
 30
0.0
 10
18.71555852385045
 20
1.307165070501298
 30
0.0
 10
18.55007236316313
 20
1.376408289443472
 30
0.0
  0
SPLINE
  5
C9
330
1F
100
AcDbEntity
  8
외형선
  6
Continuous
370
    15
100
AcDbSpline
210
0.0
220
0.0
230
1.0
 70
     8
 71
     3
 72
     8
 73
     4
 74
     0
 42
0.000000001
 43
0.00000001
 40
0.0
 40
0.0
 40
0.0
 40
0.0
 40
1.0
 40
1.0
 40
1.0
 40
1.0
 10
19.05000000000003
 20
0.5270383388593793
 30
0.0
 10
18.88205098994888
 20
0.6201686320716723
 30
0.0
 10
18.7155585238505
 20
0.7111507392655448
 30
0.0
 10
18.55007236316312
 20
0.7991373105484655
 30
0.0
  0
LINE
  5
CA
330
1F
100
AcDbEntity
  8
외형선
  6
Continuous
370
    15
100
AcDbLine
 10
18.55007236316313
 20
-1.429432547567727
 30
0.0
 11
18.55007236316313
 21
0.7991470479689209
 31
0.0
  0
SPLINE
  5
CB
330
1F
100
AcDbEntity
  8
외형선
  6
Continuous
370
    15
100
AcDbSpline
210
0.0
220
0.0
230
1.0
 70
    24
 71
     3
 72
    14
 73
    10
 74
     0
 42
0.000000001
 43
0.00000001
 40
0.0
 40
0.0
 40
0.0
 40
0.0
 40
0.1229542981438241
 40
0.2693825712421521
 40
0.4158108443409461
 40
0.5622391174395076
 40
0.7086673905380705
 40
0.8550956636366255
 40
1.0
 40
1.0
 40
1.0
 40
1.0
 10
19.05
 20
-1.614064241599263
 30
0.0
 10
19.05000000000002
 20
-1.539121589850242
 30
0.0
 10
19.05000000000006
 20
-1.374928515442696
 30
0.0
 10
19.04999999999995
 20
-1.026281240993096
 30
0.0
 10
19.05000000000003
 20
-0.6243387383340534
 30
0.0
 10
19.04999999999999
 20
-0.2241155392829064
 30
0.0
 10
19.05000000000003
 20
0.1235345642946313
 30
0.0
 10
19.04999999999996
 20
0.3914269269302473
 30
0.0
 10
19.04999999999999
 20
0.4673362106075622
 30
0.0
 10
19.05000000000002
 20
0.5050923148603471
 30
0.0
  0
SPLINE
  5
CC
330
1F
100
AcDbEntity
  8
외형선
  6
Continuous
370
    15
100
AcDbSpline
210
0.0
220
0.0
230
1.0
 70
    24
 71
     3
 72
    10
 73
     6
 74
     0
 42
0.000000001
 43
0.00000001
 40
0.0
 40
0.0
 40
0.0
 40
0.0
 40
0.1065512120480771
 40
0.6418700405514918
 40
0.9999999999999999
 40
0.9999999999999999
 40
0.9999999999999999
 40
0.9999999999999999
 10
19.04999999999999
 20
1.210894882436702
 30
0.0
 10
19.04999999999999
 20
1.230883026286482
 30
0.0
 10
19.05
 20
1.351292643941685
 30
0.0
 10
19.05000000000002
 20
1.603169791232324
 30
0.0
 10
19.05000000000002
 20
1.82442008702648
 30
0.0
 10
19.05
 20
1.913106042538678
 30
0.0
  0
LINE
  5
CD
330
1F
100
AcDbEntity
  8
중심선
 48
0.8
100
AcDbLine
 10
-44.27500000000001
 20
-0.0000000000000054
 30
0.0
 11
44.27500000000001
 21
0.0000000000000054
 31
0.0
  0
LINE
  5
CE
330
1F
100
AcDbEntity
  8
참조1
100
AcDbLine
 10
1.780880657015621
 20
0.0010749287238892
 30
0.0
 11
1.780880657015621
 21
-39.99892507127611
 31
0.0
  0
LINE
  5
CF
330
1F
100
AcDbEntity
  8
참조1
100
AcDbLine
 10
1.780880657015621
 20
-39.99892507127611
 30
0.0
 11
-29.25297615729306
 21
-39.9989250712761
 31
0.0
  0
CIRCLE
  5
D0
330
1F
100
AcDbEntity
  8
해칭선
100
AcDbCircle
 10
0.0
 20
0.0
 30
0.0
 40
3.000000000000004
  0
INSERT
  5
D1
330
1F
100
AcDbEntity
  8
0
  6
Continuous
 62
     7
100
AcDbBlockReference
 66
     1
  2
블럭10
 10
-13.9402729321252
 20
-52.04717430164393
 30
0.0
  0
ATTRIB
  5
D2
330
D1
100
AcDbEntity
  8
FORMAT
 62
     2
100
AcDbText
 10
-23.12156822086649
 20
-49.97180738881174
 30
0.0
 40
4.233333333333333
  1
E1006010 [ 4 FLUTE ]
 41
0.75
  7
SLDTEXTSTYLE0
 11
-23.12156822086649
 21
-52.08847405547841
 31
0.0
100
AcDbAttribute
  2
AUTOATTR0
 70
     0
 74
     1
  0
SEQEND
  5
D3
330
D1
100
AcDbEntity
  8
0
  6
Continuous
 62
     7
  0
HATCH
  5
D4
330
1F
100
AcDbEntity
  8
중심선
100
AcDbHatch
 10
0.0
 20
0.0
 30
0.0
210
0.0
220
0.0
230
1.0
  2
SOLID
 70
     1
 71
     0
 91
        1
 92
        0
 93
        4
 72
     1
 10
-8.225363627744365
 20
-35.8
 11
-11.67163887158165
 21
-35.8
 72
     1
 10
-11.67163887158165
 20
-35.8
 11
-13.79986873078567
 21
-38.3363255805726
 72
     1
 10
-13.79986873078567
 20
-38.3363255805726
 11
-10.35356040183524
 21
-38.33628615127011
 72
     1
 10
-10.35356040183524
 20
-38.33628615127011
 11
-8.225363627744365
 21
-35.8
 97
        0
 75
     0
 76
     1
 98
        1
 10
-1.780880657015615
 20
-0.0010749287238947
  0
HATCH
  5
D5
330
1F
100
AcDbEntity
  8
중심선
100
AcDbHatch
 10
0.0
 20
0.0
 30
0.0
210
0.0
220
0.0
230
1.0
  2
SOLID
 70
     1
 71
     0
 91
        1
 92
        0
 93
        4
 72
     1
 10
-3.212599636708357
 20
-35.8
 11
-6.658874880545667
 21
-35.8
 72
     1
 10
-6.658874880545667
 20
-35.8
 11
-11.19001288890308
 21
-41.20000000000002
 72
     1
 10
-11.19001288890308
 20
-41.20000000000002
 11
-7.743737645065801
 21
-41.20000000000002
 72
     1
 10
-7.743737645065801
 20
-41.20000000000002
 11
-3.212599636708357
 21
-35.8
 97
        0
 75
     0
 76
     1
 98
        1
 10
-1.780880657015615
 20
-0.0010749287238947
  0
HATCH
  5
D6
330
1F
100
AcDbEntity
  8
중심선
100
AcDbHatch
 10
0.0
 20
0.0
 30
0.0
210
0.0
220
0.0
230
1.0
  2
SOLID
 70
     1
 71
     0
 91
        1
 92
        0
 93
        4
 72
     1
 10
1.800164354327483
 20
-35.79999999999998
 11
-1.646110889509605
 21
-35.79999999999998
 72
     1
 10
-1.646110889509605
 20
-35.79999999999998
 11
-8.694547791398882
 21
-44.20000000000002
 72
     1
 10
-8.694547791398882
 20
-44.20000000000002
 11
-5.248272547561601
 21
-44.20000000000002
 72
     1
 10
-5.2482725475616
 20
-44.20000000000002
 11
1.800164354327483
 21
-35.79999999999998
 97
        0
 75
     0
 76
     1
 98
        1
 10
-1.780880657015615
 20
-0.0010749287238947
  0
HATCH
  5
D7
330
1F
100
AcDbEntity
  8
중심선
100
AcDbHatch
 10
0.0
 20
0.0
 30
0.0
210
0.0
220
0.0
230
1.0
  2
SOLID
 70
     1
 71
     0
 91
        1
 92
        0
 93
        6
 72
     3
 10
6.600054785339683
 20
-40.00000000005127
 11
3.960054785062283
 21
1.540882976769353E-10
 40
0.3939339440162628
 50
17.09539180608436
 51
320.0019657685078
 73
     0
 72
     1
 10
8.283054441040278
 20
-38.5878940046383
 11
10.58835631474131
 21
-36.65356729459035
 72
     3
 10
6.600054785286837
 20
-40.00000000000015
 11
6.600054785286829
 21
-1.278976924368180E-13
 40
0.636358354079598
 50
39.99873849337431
 51
368.4976242363724
 73
     1
 72
     1
 10
13.02538727718744
 20
-39.03999999993002
 11
5.280122092122758
 21
-39.03999999993002
 72
     1
 10
5.280122092122758
 20
-39.03999999993002
 11
5.280097047676824
 21
-40.95999999992991
 72
     1
 10
5.280097047676824
 20
-40.95999999992991
 11
9.721476817148861
 21
-40.95999999992988
 97
        0
 75
     0
 76
     1
 98
        1
 10
-1.780880657015615
 20
-0.0010749287238947
  0
DIMENSION
  5
D8
330
1F
100
AcDbEntity
  8
치수문자_일반주서
100
AcDbDimension
  2
_D
 10
54.68555939221354
 20
-1.984374999999947
 30
0.0
 11
54.68555939221345
 21
23.02587500000005
 31
0.0
 70
   160
  1
%%c<>
 71
     2
 42
3.96875
 52
-270.0
  3
SLDDIMSTYLE0
100
AcDbAlignedDimension
 13
41.27500000000003
 23
1.984375000000005
 33
0.0
 14
41.27500000000001
 24
-1.984374999999995
 34
0.0
 50
90.0000000000002
100
AcDbRotatedDimension
1001
ACAD
1000
DSTYLE
1002
{
1070
   171
1070
     6
1070
   273
1070
     7
1002
}
  0
DIMENSION
  5
ED
330
1F
100
AcDbEntity
  8
치수문자_일반주서
100
AcDbDimension
  2
_D_1
 10
19.05
 20
14.781351788473
 30
0.0
 11
-0.6789999999999949
 21
14.781351788473
 31
0.0
 70
   160
  1
<>
 71
     2
 42
22.22500000000002
  3
SLDDIMSTYLE0
100
AcDbAlignedDimension
 13
41.27500000000002
 23
1.984375000000005
 33
0.0
 14
19.05
 24
1.913106042538678
 34
0.0
100
AcDbRotatedDimension
1001
ACAD
1000
DSTYLE
1002
{
1070
   171
1070
     6
1070
   273
1070
     7
1002
}
  0
DIMENSION
  5
102
330
1F
100
AcDbEntity
  8
치수문자_일반주서
100
AcDbDimension
  2
_D_2
 10
-41.27500000000001
 20
26.13944279774201
 30
0.0
 11
-2.106259257730476
 21
26.13944279774201
 31
0.0
 70
   160
  1
<>
 71
     2
 42
82.55000000000001
  3
SLDDIMSTYLE0
100
AcDbAlignedDimension
 13
41.27500000000002
 23
1.984375000000005
 33
0.0
 14
-41.275
 24
1.905
 34
0.0
100
AcDbRotatedDimension
1001
ACAD
1000
DSTYLE
1002
{
1070
   171
1070
     6
1070
   273
1070
     7
1002
}
  0
DIMENSION
  5
115
330
1F
100
AcDbEntity
  8
치수문자_일반주서
100
AcDbDimension
  2
_D_3
 10
-54.27499999999999
 20
-2.381250000000054
 30
0.0
 11
-54.275
 21
-0.0000000000000002
 31
0.0
 70
   160
  1
%%c<>
 71
     2
 42
4.762500000000003
 52
-270.0
  3
SLDDIMSTYLE0
100
AcDbAlignedDimension
 13
-40.79874999999999
 23
2.38125
 33
0.0
 14
-40.79874999999999
 24
-2.381250000000003
 34
0.0
 50
90.0000000000002
100
AcDbRotatedDimension
1001
ACAD
1000
DSTYLE
1002
{
1070
   171
1070
     6
1070
   273
1070
     7
1002
}
  0
LINE
  5
129
330
1F
100
AcDbEntity
  8
참조1
100
AcDbLine
 10
68.7193644723612
 20
7.441074928723896
 30
0.0
 11
68.7193644723612
 21
-7.438925071276109
 31
0.0
  0
LINE
  5
12A
330
1F
100
AcDbEntity
  8
참조1
100
AcDbLine
 10
81.41936447236121
 20
5.441074928723896
 30
0.0
 11
68.7193644723612
 21
5.441074928723896
 31
0.0
  0
SOLID
  5
12B
330
1F
100
AcDbEntity
  8
참조1
100
AcDbTrace
 10
68.7193644723612
 20
5.441074928723896
 30
0.0
 11
75.0693644723612
 21
4.425074928723896
 31
0.0
 12
75.0693644723612
 22
6.457074928723896
 32
0.0
 13
75.0693644723612
 23
6.457074928723896
 33
0.0
  0
LINE
  5
12C
330
1F
100
AcDbEntity
  8
참조1
100
AcDbLine
 10
81.41936447236121
 20
-5.438925071276109
 30
0.0
 11
68.7193644723612
 21
-5.438925071276109
 31
0.0
  0
SOLID
  5
12D
330
1F
100
AcDbEntity
  8
참조1
100
AcDbTrace
 10
68.7193644723612
 20
-5.438925071276109
 30
0.0
 11
75.0693644723612
 21
-6.454925071276109
 31
0.0
 12
75.0693644723612
 22
-4.422925071276109
 32
0.0
 13
75.0693644723612
 23
-4.422925071276109
 33
0.0
  0
MTEXT
  5
12E
330
1F
100
AcDbEntity
  8
참조1
100
AcDbMText
 10
78.1037146049872
 20
11.01136670591223
 30
0.0
 40
3.5
 41
0.0
 71
     1
 72
     1
  1
A
  7
SLDTEXTSTYLE0
 73
     1
 44
1.0
  0
MTEXT
  5
12F
330
1F
100
AcDbEntity
  8
참조1
100
AcDbMText
 10
78.1037146049872
 20
0.1313667059122219
 30
0.0
 40
3.5
 41
0.0
 71
     1
 72
     1
  1
A
  7
SLDTEXTSTYLE0
 73
     1
 44
1.0
  0
INSERT
  5
136
330
1F
100
AcDbEntity
  8
해칭선
100
AcDbBlockReference
  2
SW_DOWELSYMBOL_0
 10
0.0
 20
0.0
 30
0.0
  0
LINE
  5
3DE
330
1F
100
AcDbEntity
  8
0
  6
Continuous
 62
     1
370
    25
100
AcDbLine
 10
-19.9743987884849
 20
1.984374999999993
 30
0.0
 11
-21.18318311704402
 21
1.984374999999993
 31
0.0
  0
LINE
  5
3DF
330
1F
100
AcDbEntity
  8
0
  6
Continuous
 62
     1
370
    25
100
AcDbLine
 10
-31.9806147790101
 20
-1.984375000000014
 30
0.0
 11
-30.77193335428407
 21
-1.984375000000014
 31
0.0
  0
LINE
  5
3E0
330
1F
100
AcDbEntity
  8
0
  6
Continuous
 62
     1
370
    25
100
AcDbLine
 10
-36.17189404788965
 20
1.984374999999993
 30
0.0
 11
-37.38137804736809
 21
1.984374999999993
 31
0.0
  0
LINE
  5
3E1
330
1F
100
AcDbEntity
  8
0
  6
Continuous
 62
     1
370
    25
100
AcDbLine
 10
-26.58358423943289
 20
-1.984375000000014
 30
0.0
 11
-25.37218247869103
 21
-1.984375000000014
 31
0.0
  0
LINE
  5
3E2
330
1F
100
AcDbEntity
  8
0
  6
Continuous
 62
     1
370
    25
100
AcDbLine
 10
-30.77193335428407
 20
1.984374999999993
 30
0.0
 11
-31.98061477901004
 21
1.984374999999993
 31
0.0
  0
LINE
  5
3E3
330
1F
100
AcDbEntity
  8
0
  6
Continuous
 62
     1
370
    25
100
AcDbLine
 10
-21.18318311704402
 20
-1.984375000000014
 30
0.0
 11
-19.97439878848488
 21
-1.984375000000014
 31
0.0
  0
LINE
  5
3E4
330
1F
100
AcDbEntity
  8
0
  6
Continuous
 62
     1
370
    25
100
AcDbLine
 10
-25.37218247869109
 20
1.984374999999993
 30
0.0
 11
-26.58358423943289
 21
1.984374999999993
 31
0.0
  0
LINE
  5
3E5
330
1F
100
AcDbEntity
  8
0
  6
Continuous
 62
     1
370
    25
100
AcDbLine
 10
-37.38137804736809
 20
-1.984375000000014
 30
0.0
 11
-36.17189404788971
 21
-1.984375000000014
 31
0.0
  0
LINE
  5
3E6
330
1F
100
AcDbEntity
  8
외형선
  6
Continuous
370
    15
100
AcDbLine
 10
-16.56884233574607
 20
2.381250000000002
 30
0.0
 11
-18.05000000000001
 21
1.984374999999993
 31
0.0
  0
LINE
  5
3E7
330
1F
100
AcDbEntity
  8
외형선
  6
Continuous
370
    15
100
AcDbLine
 10
-18.05000000000001
 20
-1.984375000000007
 30
0.0
 11
-16.56884233574607
 21
-2.381250000000015
 31
0.0
  0
LINE
  5
3EA
330
1F
100
AcDbEntity
  8
외형선
  6
Continuous
370
    15
100
AcDbLine
 10
-18.05000000000001
 20
1.984374999999993
 30
0.0
 11
-18.55007236316314
 21
1.984374999999993
 31
0.0
  0
LINE
  5
3EB
330
1F
100
AcDbEntity
  8
외형선
  6
Continuous
370
    15
100
AcDbLine
 10
-18.55007236316314
 20
-1.984375000000007
 30
0.0
 11
-18.05000000000001
 21
-1.984375000000007
 31
0.0
  0
SPLINE
  5
3ED
330
1F
100
AcDbEntity
  8
0
  6
Continuous
 62
     1
370
    25
100
AcDbSpline
210
0.0
220
0.0
230
1.0
 70
     8
 71
     3
 72
    12
 73
     8
 74
     0
 42
0.000000001
 43
0.00000001
 40
0.0
 40
0.0
 40
0.0
 40
0.0
 40
0.2449468446689782
 40
0.4899000899194959
 40
0.7348618354834859
 40
0.9798341745075273
 40
1.0
 40
1.0
 40
1.0
 40
1.0
 10
-19.05000000000001
 20
1.614064241599259
 30
0.0
 10
-19.39527886256371
 20
1.71561852323184
 30
0.0
 10
-20.08584560999768
 20
1.918729740160324
 30
0.0
 10
-21.12171831177952
 20
2.015015950543941
 30
0.0
 10
-22.15763508842841
 20
1.925527294463962
 30
0.0
 10
-22.87668864350323
 20
1.778762376422691
 30
0.0
 10
-23.25044148397009
 20
1.632741769094715
 30
0.0
 10
-23.27886830276438
 20
1.62163576294487
 30
0.0
  0
SPLINE
  5
3EE
330
1F
100
AcDbEntity
  8
0
  6
Continuous
 62
     1
370
    25
100
AcDbSpline
210
0.0
220
0.0
230
1.0
 70
     8
 71
     3
 72
    17
 73
    13
 74
     0
 42
0.000000001
 43
0.00000001
 40
0.0
 40
0.0
 40
0.0
 40
0.0
 40
0.0829869580312401
 40
0.1849749651272198
 40
0.2869408569085279
 40
0.3888283399660145
 40
0.4906638112082897
 40
0.5924740349790697
 40
0.6942859546579842
 40
0.7961265015847423
 40
0.8980224041635012
 40
1.0
 40
1.0
 40
1.0
 40
1.0
 10
-31.9806147790101
 20
-1.973027350286315
 30
0.0
 10
-32.23771543739062
 20
-1.967953024954383
 30
0.0
 10
-32.81078362119146
 20
-1.956642535046249
 30
0.0
 10
-33.69998841160708
 20
-1.761083935723952
 30
0.0
 10
-34.64767657468445
 20
-1.436021973555753
 30
0.0
 10
-35.5947184436906
 20
-0.9982540627758065
 30
0.0
 10
-36.54118868499418
 20
-0.4864173624072303
 30
0.0
 10
-37.48737603558564
 20
0.0621696744436595
 30
0.0
 10
-38.43358179149925
 20
0.6066869348269468
 30
0.0
 10
-39.38010999346955
 20
1.102934502014364
 30
0.0
 10
-40.32724029210331
 20
1.525818379537988
 30
0.0
 10
-40.95899571471713
 20
1.706722914977221
 30
0.0
 10
-41.27500000000001
 20
1.797211427429361
 30
0.0
  0
SPLINE
  5
3EF
330
1F
100
AcDbEntity
  8
외형선
  6
Continuous
370
    15
100
AcDbSpline
210
0.0
220
0.0
230
1.0
 70
    24
 71
     3
 72
    15
 73
    11
 74
     0
 42
0.000000001
 43
0.00000001
 40
0.0
 40
0.0
 40
0.0
 40
0.0
 40
0.0246389086790318
 40
0.1713079282359084
 40
0.3179769477927926
 40
0.4646459673496822
 40
0.6113149869065676
 40
0.7579840064634532
 40
0.9046530260203381
 40
1.0
 40
1.0
 40
1.0
 40
1.0
 10
-19.05000000000001
 20
-0.497070987448303
 30
0.0
 10
-19.05000000000001
 20
-0.4950754224770217
 30
0.0
 10
-19.05000000000004
 20
-0.481200777891757
 30
0.0
 10
-19.04999999999995
 20
-0.3384835608909351
 30
0.0
 10
-19.05000000000001
 20
-0.066121467554836
 30
0.0
 10
-19.05000000000001
 20
0.2984950201371324
 30
0.0
 10
-19.04999999999998
 20
0.7019148813135705
 30
0.0
 10
-19.05000000000001
 20
1.099941789825764
 30
0.0
 10
-19.04999999999998
 20
1.413497711474691
 30
0.0
 10
-19.05000000000001
 20
1.55737926556359
 30
0.0
 10
-19.04999999999998
 20
1.614064241599259
 30
0.0
  0
SPLINE
  5
3F0
330
1F
100
AcDbEntity
  8
0
  6
Continuous
 62
     1
370
    25
100
AcDbSpline
210
0.0
220
0.0
230
1.0
 70
     8
 71
     3
 72
    15
 73
    11
 74
     0
 42
0.000000001
 43
0.00000001
 40
0.0
 40
0.0
 40
0.0
 40
0.0
 40
0.131681833539249
 40
0.2632581780455473
 40
0.3947630427950241
 40
0.5262309416947554
 40
0.6576966506988351
 40
0.7891949613083152
 40
0.9207604338383792
 40
1.0
 40
1.0
 40
1.0
 40
1.0
 10
-41.27500000000003
 20
-0.1700239274294044
 30
0.0
 10
-40.95899571618767
 20
-0.3503801421343335
 30
0.0
 10
-40.32724029651362
 20
-0.7109480899390657
 30
0.0
 10
-39.3801099758488
 20
-1.194874581787551
 30
0.0
 10
-38.43358185753081
 20
-1.589575694125983
 30
0.0
 10
-37.48737578914157
 20
-1.863755602004573
 30
0.0
 10
-36.54118960484772
 20
-1.998922145576855
 30
0.0
 10
-35.59471500905087
 20
-1.977983887920821
 30
0.0
 10
-34.7734710627243
 20
-1.847846584904907
 30
0.0
 10
-34.26760673503162
 20
-1.676728168797666
 30
0.0
 10
-34.07745724851182
 20
-1.612406418526632
 30
0.0
  0
SPLINE
  5
3F1
330
1F
100
AcDbEntity
  8
0
  6
Continuous
 62
     1
370
    25
100
AcDbSpline
210
0.0
220
0.0
230
1.0
 70
     8
 71
     3
 72
    12
 73
     8
 74
     0
 42
0.000000001
 43
0.00000001
 40
0.3323190149467961
 40
0.3323190149467961
 40
0.3323190149467961
 40
0.3323190149467961
 40
0.3445970166143979
 40
0.5084569900879738
 40
0.6723098776836497
 40
0.8361570794898774
 40
1.0
 40
1.0
 40
1.0
 40
1.0
 10
-23.27121511046099
 20
1.624625478876711
 30
0.0
 10
-23.24533929729885
 20
1.616181289802155
 30
0.0
 10
-22.87413045372304
 20
1.492920376935697
 30
0.0
 10
-22.15763800481264
 20
1.194973639994764
 30
0.0
 10
-21.12171753412065
 20
0.6612620716646664
 30
0.0
 10
-20.08584580440362
 20
0.0634756657920837
 30
0.0
 10
-19.39527892736513
 20
-0.3302020517852564
 30
0.0
 10
-19.04999999999998
 20
-0.5270383388594193
 30
0.0
  0
SPLINE
  5
3F2
330
1F
100
AcDbEntity
  8
0
  6
Continuous
 62
     1
370
    25
100
AcDbSpline
210
0.0
220
0.0
230
1.0
 70
     8
 71
     3
 72
    21
 73
    17
 74
     0
 42
0.000000001
 43
0.00000001
 40
0.0
 40
0.0
 40
0.0
 40
0.0
 40
0.0755658572772245
 40
0.1559024951578954
 40
0.2362432908177164
 40
0.309706980814152
 40
0.3832293707808089
 40
0.4567223309852365
 40
0.5301611449447797
 40
0.6035648812690072
 40
0.6769528565257588
 40
0.7503444990807774
 40
0.8237592112652417
 40
0.8972162319331182
 40
0.9707332756455995
 40
1.0
 40
1.0
 40
1.0
 40
1.0
 10
-21.18318311704402
 20
-1.979374230845465
 30
0.0
 10
-21.50799603169955
 20
-1.965976824974866
 30
0.0
 10
-22.17812862436671
 20
-1.938336180388432
 30
0.0
 10
-23.19359259811151
 20
-1.677291322340089
 30
0.0
 10
-24.20009731352607
 20
-1.285982139297651
 30
0.0
 10
-25.17708847113872
 20
-0.7987947892292762
 30
0.0
 10
-26.12496563363956
 20
-0.2673279577885092
 30
0.0
 10
-27.07258052503215
 20
0.2847116691918435
 30
0.0
 10
-28.01953748058071
 20
0.8151861108659308
 30
0.0
 10
-28.96595475946947
 20
1.28405449572594
 30
0.0
 10
-29.91212845061798
 20
1.656212274429457
 30
0.0
 10
-30.85835708569616
 20
1.902967481777374
 30
0.0
 10
-31.80494904978701
 20
2.008272487358604
 30
0.0
 10
-32.75216304232708
 20
1.954551332607395
 30
0.0
 10
-33.50983647222463
 20
1.816258815732646
 30
0.0
 10
-33.95165384942695
 20
1.657586802246648
 30
0.0
 10
-34.07745724851182
 20
1.612406418526618
 30
0.0
  0
SPLINE
  5
3F3
330
1F
100
AcDbEntity
  8
0
  6
Continuous
 62
     1
370
    25
100
AcDbSpline
210
0.0
220
0.0
230
1.0
 70
     8
 71
     3
 72
    21
 73
    17
 74
     0
 42
0.000000001
 43
0.00000001
 40
0.0
 40
0.0
 40
0.0
 40
0.0
 40
0.0447608593249631
 40
0.1182112766749347
 40
0.1917182186667556
 40
0.2652411035304929
 40
0.3387039605806124
 40
0.412124505785785
 40
0.4855219795285571
 40
0.5589157856816868
 40
0.6323253541545557
 40
0.7057700030497647
 40
0.7792688024919415
 40
0.8527970340346304
 40
0.9262665609432071
 40
0.9999999999999999
 40
0.9999999999999999
 40
0.9999999999999999
 40
0.9999999999999999
 10
-36.17189404788965
 20
1.966493676029125
 30
0.0
 10
-35.97955357387849
 20
1.968111283872176
 30
0.0
 10
-35.47159163275373
 20
1.972383308385787
 30
0.0
 10
-34.64767540875263
 20
1.811212425916793
 30
0.0
 10
-33.69998656441058
 20
1.513299059942171
 30
0.0
 10
-32.75216761570698
 20
1.094886001180534
 30
0.0
 10
-31.80494782551037
 20
0.595459198957649
 30
0.0
 10
-30.85835741369047
 20
0.0507954434908631
 30
0.0
 10
-29.91212836220987
 20
-0.4975149460079388
 30
0.0
 10
-28.96595478517705
 20
-1.008321295500678
 30
0.0
 10
-28.0195374661686
 20
-1.44319125337936
 30
0.0
 10
-27.07258055698497
 20
-1.769078824567238
 30
0.0
 10
-26.12496552014312
 20
-1.962317392142772
 30
0.0
 10
-25.17708889317538
 20
-2.004485109222756
 30
0.0
 10
-24.2285175954529
 20
-1.906638718601726
 30
0.0
 10
-23.59579619086301
 20
-1.716750228393991
 30
0.0
 10
-23.27886830276438
 20
-1.62163576294489
 30
0.0
  0
SPLINE
  5
3F4
330
1F
100
AcDbEntity
  8
0
  6
Continuous
 62
     1
370
    25
100
AcDbSpline
210
0.0
220
0.0
230
1.0
 70
     8
 71
     3
 72
    22
 73
    18
 74
     0
 42
0.000000001
 43
0.00000001
 40
0.0
 40
0.0
 40
0.0
 40
0.0
 40
0.0379403549841349
 40
0.1113870247463199
 40
0.1847986131209092
 40
0.2581944387420501
 40
0.3315939320537513
 40
0.4050164974626732
 40
0.4784813758807761
 40
0.552006283764192
 40
0.6255152483370137
 40
0.6989676867126833
 40
0.7723826288764829
 40
0.8457793697039802
 40
0.9191773331408106
 40
0.9925959344528247
 40
1.0
 40
1.0
 40
1.0
 40
1.0
 10
-26.58358423943289
 20
-1.965587197175779
 30
0.0
 10
-26.7466561492528
 20
-1.968977507744348
 30
0.0
 10
-27.22541010034629
 20
-1.978930936154725
 30
0.0
 10
-28.01953265791954
 20
-1.83210674148566
 30
0.0
 10
-28.96595607360055
 20
-1.547155817040071
 30
0.0
 10
-29.91212801464971
 20
-1.138014785004806
 30
0.0
 10
-30.85835751560262
 20
-0.6450905494736427
 30
0.0
 10
-31.80494776550378
 20
-0.1029205590509643
 30
0.0
 10
-32.75216775388245
 20
0.4470152599387381
 30
0.0
 10
-33.69998607138652
 20
0.9631191816362024
 30
0.0
 10
-34.64767724147646
 20
1.406595266193968
 30
0.0
 10
-35.59471811489138
 20
1.744206680101151
 30
0.0
 10
-36.5411893335841
 20
1.949335363545508
 30
0.0
 10
-37.48737377040294
 20
2.010679209113129
 30
0.0
 10
-38.43359020503246
 20
1.908465374006945
 30
0.0
 10
-39.09625272529308
 20
1.767411752530059
 30
0.0
 10
-39.44359137755009
 20
1.633851240567445
 30
0.0
 10
-39.47541064618247
 20
1.621615925605518
 30
0.0
  0
SPLINE
  5
3F5
330
1F
100
AcDbEntity
  8
0
  6
Continuous
 62
     1
370
    25
100
AcDbSpline
210
0.0
220
0.0
230
1.0
 70
     8
 71
     3
 72
    21
 73
    17
 74
     0
 42
0.000000001
 43
0.00000001
 40
0.0
 40
0.0
 40
0.0
 40
0.0
 40
0.075234068420142
 40
0.1504078675616047
 40
0.2255408280181036
 40
0.3006526686952509
 40
0.3757632582145516
 40
0.4508924740799881
 40
0.5260600617116177
 40
0.6012854954539004
 40
0.676527244790636
 40
0.7517075629455859
 40
0.8268445800625345
 40
0.9019579863378518
 40
0.977067639280298
 40
1.0
 40
1.0
 40
1.0
 40
1.0
 10
-41.27500000000001
 20
1.984374999999986
 30
0.0
 10
-40.95899571478898
 20
1.946926556347699
 30
0.0
 10
-40.32724029231878
 20
1.886648537656278
 30
0.0
 10
-39.38010999260879
 20
1.613902953917048
 30
0.0
 10
-38.4335817947248
 20
1.230194136329353
 30
0.0
 10
-37.48737602354697
 20
0.750911177314102
 30
0.0
 10
-36.54118872992828
 20
0.2157830107319616
 30
0.0
 10
-35.59471827591139
 20
-0.3358688429664833
 30
0.0
 10
-34.64767720139989
 20
-0.862269653386242
 30
0.0
 10
-33.69998607049618
 20
-1.323555835088924
 30
0.0
 10
-32.75216779753944
 20
-1.685115846082133
 30
0.0
 10
-31.80494759197578
 20
-1.919027410239479
 30
0.0
 10
-30.85835816562278
 20
-2.010453251728805
 30
0.0
 10
-29.91212558881628
 20
-1.941589352295302
 30
0.0
 10
-29.18510693707589
 20
-1.80113383750703
 30
0.0
 10
-28.77343376682035
 20
-1.649576756037731
 30
0.0
 10
-28.67714201100782
 20
-1.614127038798592
 30
0.0
  0
LINE
  5
3F6
330
1F
100
AcDbEntity
  8
0
  6
Continuous
 62
     1
370
    25
100
AcDbLine
 10
-19.97439878848488
 20
1.975766679404935
 30
0.0
 11
-19.04999999999998
 21
1.913106042538495
 31
0.0
  0
LINE
  5
3F7
330
1F
100
AcDbEntity
  8
0
  6
Continuous
 62
     1
370
    25
100
AcDbLine
 10
-41.27500000000001
 20
-0.8412937808769736
 30
0.0
 11
-41.27500000000001
 21
-1.984375000000014
 31
0.0
  0
SPLINE
  5
3F8
330
1F
100
AcDbEntity
  8
0
  6
Continuous
 62
     1
370
    25
100
AcDbSpline
210
0.0
220
0.0
230
1.0
 70
     8
 71
     3
 72
    17
 73
    13
 74
     0
 42
0.000000001
 43
0.00000001
 40
0.0
 40
0.0
 40
0.0
 40
0.0
 40
0.1075944061268181
 40
0.2151916237483925
 40
0.3227925751848756
 40
0.4303981798637565
 40
0.5380093536123839
 40
0.6364090998869325
 40
0.7348874708831139
 40
0.8333264226623133
 40
0.9316928491333146
 40
1.0
 40
1.0
 40
1.0
 40
1.0
 10
-19.05000000000004
 20
-1.154357295041506
 30
0.0
 10
-19.39527891427704
 20
-0.9820246233838854
 30
0.0
 10
-20.08584576513891
 20
-0.6373547769311538
 30
0.0
 10
-21.12171769118672
 20
-0.0349916391779525
 30
0.0
 10
-22.15763741578203
 20
0.5630702734200388
 30
0.0
 10
-23.19359245698402
 20
1.112339346040898
 30
0.0
 10
-24.20009737460347
 20
1.5480801814929
 30
0.0
 10
-25.17708836551739
 20
1.843796182700971
 30
0.0
 10
-26.12496600031687
 20
1.992560949904082
 30
0.0
 10
-27.07257916508016
 20
1.986495188427675
 30
0.0
 10
-27.92324247827915
 20
1.861743194147806
 30
0.0
 10
-28.45798902125441
 20
1.686107214405816
 30
0.0
 10
-28.67714201100782
 20
1.614127038798579
 30
0.0
  0
SPLINE
  5
3F9
330
1F
100
AcDbEntity
  8
0
  6
Continuous
 62
     1
370
    25
100
AcDbSpline
210
0.0
220
0.0
230
1.0
 70
     8
 71
     3
 72
    12
 73
     8
 74
     0
 42
0.000000001
 43
0.00000001
 40
0.0
 40
0.0
 40
0.0
 40
0.0
 40
0.0272259624846066
 40
0.2702534028788987
 40
0.5133491771852802
 40
0.7565770867314208
 40
1.0
 40
1.0
 40
1.0
 40
1.0
 10
-37.38137804736809
 20
-1.976920794488975
 30
0.0
 10
-37.41670912187863
 20
-1.97934132420351
 30
0.0
 10
-37.76741639693816
 20
-2.00336825777812
 30
0.0
 10
-38.43358078619275
 20
-1.906724535265539
 30
0.0
 10
-39.38011026173865
 20
-1.680620680941075
 30
0.0
 10
-40.32724022495808
 20
-1.317229048753851
 30
0.0
 10
-40.95899569232941
 20
-0.9999812444958986
 30
0.0
 10
-41.27500000000001
 20
-0.8412937808769736
 30
0.0
  0
SPLINE
  5
3FA
330
1F
100
AcDbEntity
  8
외형선
  6
Continuous
370
    15
100
AcDbSpline
210
0.0
220
0.0
230
1.0
 70
    24
 71
     3
 72
     9
 73
     5
 74
     0
 42
0.000000001
 43
0.00000001
 40
0.0
 40
0.0
 40
0.0
 40
0.0
 40
0.4644519664036388
 40
1.0
 40
1.0
 40
1.0
 40
1.0
 10
-19.04999999999995
 20
-1.913106042538515
 30
0.0
 10
-19.04999999999998
 20
-1.797199876646161
 30
0.0
 10
-19.05000000000007
 20
-1.547645187945313
 30
0.0
 10
-19.05000000000001
 20
-1.328335665780848
 30
0.0
 10
-19.04999999999998
 20
-1.210884882436708
 30
0.0
  0
SPLINE
  5
3FB
330
1F
100
AcDbEntity
  8
0
  6
Continuous
 62
     1
370
    25
100
AcDbSpline
210
0.0
220
0.0
230
1.0
 70
     8
 71
     3
 72
     9
 73
     5
 74
     0
 42
0.000000001
 43
0.00000001
 40
0.0
 40
0.0
 40
0.0
 40
0.0
 40
0.526735190145982
 40
1.0
 40
1.0
 40
1.0
 40
1.0
 10
-41.27500000000003
 20
-1.984375000000014
 30
0.0
 10
-40.95899380917231
 20
-1.94909279950302
 30
0.0
 10
-40.35906011053302
 20
-1.895963934022731
 30
0.0
 10
-39.75927013493583
 20
-1.709746217708456
 30
0.0
 10
-39.47541064618247
 20
-1.621615925605532
 30
0.0
  0
SPLINE
  5
3FC
330
1F
100
AcDbEntity
  8
0
  6
Continuous
 62
     1
370
    25
100
AcDbSpline
210
0.0
220
0.0
230
1.0
 70
     8
 71
     3
 72
    19
 73
    15
 74
     0
 42
0.000000001
 43
0.00000001
 40
0.0
 40
0.0
 40
0.0
 40
0.0
 40
0.0733656034947173
 40
0.1540939181518218
 40
0.2348395703142873
 40
0.315623808612578
 40
0.3964676089178503
 40
0.4773437825798902
 40
0.558155385041405
 40
0.6465319482200093
 40
0.7349039377541939
 40
0.8232721057747145
 40
0.9116372073689752
 40
1.0
 40
1.0
 40
1.0
 40
1.0
 10
-30.7719333542841
 20
1.978163206777453
 30
0.0
 10
-30.4853256628794
 20
1.968680490695697
 30
0.0
 10
-29.88334735101046
 20
1.948763406855939
 30
0.0
 10
-28.96595561515551
 20
1.736110249610754
 30
0.0
 10
-28.01953725131207
 20
1.399147675076712
 30
0.0
 10
-27.07258058597117
 20
0.9530198148159461
 30
0.0
 10
-26.12496561937326
 20
0.4359144480847026
 30
0.0
 10
-25.17708846721325
 20
-0.1141488943084421
 30
0.0
 10
-24.20009734451051
 20
-0.6728181759356171
 30
0.0
 10
-23.19359246534935
 20
-1.193129573497728
 30
0.0
 10
-22.15763741354144
 20
-1.621951116751958
 30
0.0
 10
-21.12171769178414
 20
-1.901205735969313
 30
0.0
 10
-20.08584576498956
 20
-2.021402504127188
 30
0.0
 10
-19.39527891422722
 20
-1.949204548644161
 30
0.0
 10
-19.04999999999998
 20
-1.913106042538515
 30
0.0
  0
LINE
  5
3FD
330
1F
100
AcDbEntity
  8
0
  6
Continuous
 62
     1
370
    25
100
AcDbLine
 10
-41.27500000000001
 20
1.984374999999986
 30
0.0
 11
-41.27500000000001
 21
1.797211427429361
 31
0.0
  0
LINE
  5
3FE
330
1F
100
AcDbEntity
  8
외형선
  6
Continuous
370
    15
100
AcDbLine
 10
-19.04999999999995
 20
1.913106042538495
 30
0.0
 11
-19.04999999999998
 21
1.614064241599259
 31
0.0
  0
LINE
  5
3FF
330
1F
100
AcDbEntity
  8
외형선
  6
Continuous
370
    15
100
AcDbLine
 10
-19.04999999999995
 20
-0.5270383388594264
 30
0.0
 11
-19.05000000000001
 21
-1.154357295041514
 31
0.0
  0
LINE
  5
400
330
1F
100
AcDbEntity
  8
0
  6
Continuous
 62
     1
370
    25
100
AcDbLine
 10
-41.27500000000001
 20
-0.1700239274294044
 30
0.0
 11
-41.27500000000001
 21
-0.8412937808769736
 31
0.0
  0
LINE
  5
401
330
1F
100
AcDbEntity
  8
외형선
  6
Continuous
370
    15
100
AcDbLine
 10
-18.05000000000001
 20
-0.0000000000000066
 30
0.0
 11
-18.05000000000001
 21
-1.984375000000007
 31
0.0
  0
LINE
  5
402
330
1F
100
AcDbEntity
  8
외형선
  6
Continuous
370
    15
100
AcDbLine
 10
-18.05000000000001
 20
1.984374999999993
 30
0.0
 11
-18.05000000000001
 21
-0.0000000000000066
 31
0.0
  0
LINE
  5
403
330
1F
100
AcDbEntity
  8
외형선
  6
Continuous
370
    15
100
AcDbLine
 10
-16.56884233574607
 20
-0.0000000000000066
 30
0.0
 11
-16.56884233574607
 21
-2.381250000000015
 31
0.0
  0
LINE
  5
404
330
1F
100
AcDbEntity
  8
외형선
  6
Continuous
370
    15
100
AcDbLine
 10
-16.56884233574607
 20
2.381249999999995
 30
0.0
 11
-16.56884233574607
 21
-0.0000000000000066
 31
0.0
  0
SPLINE
  5
405
330
1F
100
AcDbEntity
  8
외형선
  6
Continuous
370
    15
100
AcDbSpline
210
0.0
220
0.0
230
1.0
 70
     8
 71
     3
 72
     8
 73
     4
 74
     0
 42
0.000000001
 43
0.00000001
 40
0.0
 40
0.0
 40
0.0
 40
0.0
 40
1.0
 40
1.0
 40
1.0
 40
1.0
 10
-19.05000000000004
 20
1.614064241599259
 30
0.0
 10
-18.88205098994891
 20
1.557869952851782
 30
0.0
 10
-18.71555852385043
 20
1.496096195339355
 30
0.0
 10
-18.55007236316314
 20
1.429420988154377
 30
0.0
  0
SPLINE
  5
406
330
1F
100
AcDbEntity
  8
외형선
  6
Continuous
370
    15
100
AcDbSpline
210
0.0
220
0.0
230
1.0
 70
     8
 71
     3
 72
     8
 73
     4
 74
     0
 42
0.000000001
 43
0.00000001
 40
0.0
 40
0.0
 40
0.0
 40
0.0
 40
1.0
 40
1.0
 40
1.0
 40
1.0
 10
-19.05000000000004
 20
1.913106042538502
 30
0.0
 10
-18.88205098994888
 20
1.887449736018788
 30
0.0
 10
-18.71555852385049
 20
1.85506036917662
 30
0.0
 10
-18.55007236316311
 20
1.816349002673868
 30
0.0
  0
LINE
  5
407
330
1F
100
AcDbEntity
  8
외형선
  6
Continuous
370
    15
100
AcDbLine
 10
-18.55007236316314
 20
1.984374999999993
 30
0.0
 11
-18.55007236316314
 21
1.816344718479279
 31
0.0
  0
SPLINE
  5
408
330
1F
100
AcDbEntity
  8
외형선
  6
Continuous
370
    15
100
AcDbSpline
210
0.0
220
0.0
230
1.0
 70
     8
 71
     3
 72
     8
 73
     4
 74
     0
 42
0.000000001
 43
0.00000001
 40
0.0
 40
0.0
 40
0.0
 40
0.0
 40
1.0
 40
1.0
 40
1.0
 40
1.0
 10
-19.05000000000004
 20
-1.913106042538522
 30
0.0
 10
-18.88205098994888
 20
-1.887449736018801
 30
0.0
 10
-18.71555852385049
 20
-1.855060369176641
 30
0.0
 10
-18.55007236316311
 20
-1.816349002673888
 30
0.0
  0
LINE
  5
409
330
1F
100
AcDbEntity
  8
외형선
  6
Continuous
370
    15
100
AcDbLine
 10
-18.55007236316314
 20
-1.376396284715639
 30
0.0
 11
-18.55007236316314
 21
-1.984375000000007
 31
0.0
  0
SPLINE
  5
40A
330
1F
100
AcDbEntity
  8
외형선
  6
Continuous
370
    15
100
AcDbSpline
210
0.0
220
0.0
230
1.0
 70
     8
 71
     3
 72
     8
 73
     4
 74
     0
 42
0.000000001
 43
0.00000001
 40
0.0
 40
0.0
 40
0.0
 40
0.0
 40
1.0
 40
1.0
 40
1.0
 40
1.0
 10
-19.05000000000004
 20
-1.154357295041514
 30
0.0
 10
-18.88205098994891
 20
-1.23293018788761
 30
0.0
 10
-18.71555852385043
 20
-1.307165070501305
 30
0.0
 10
-18.55007236316314
 20
-1.376408289443482
 30
0.0
  0
SPLINE
  5
40B
330
1F
100
AcDbEntity
  8
외형선
  6
Continuous
370
    15
100
AcDbSpline
210
0.0
220
0.0
230
1.0
 70
     8
 71
     3
 72
     8
 73
     4
 74
     0
 42
0.000000001
 43
0.00000001
 40
0.0
 40
0.0
 40
0.0
 40
0.0
 40
1.0
 40
1.0
 40
1.0
 40
1.0
 10
-19.05000000000004
 20
-0.5270383388593909
 30
0.0
 10
-18.88205098994888
 20
-0.6201686320716813
 30
0.0
 10
-18.71555852385049
 20
-0.7111507392655549
 30
0.0
 10
-18.55007236316311
 20
-0.7991373105484736
 30
0.0
  0
LINE
  5
40C
330
1F
100
AcDbEntity
  8
외형선
  6
Continuous
370
    15
100
AcDbLine
 10
-18.55007236316314
 20
1.429432547567715
 30
0.0
 11
-18.55007236316314
 21
-0.7991470479689293
 31
0.0
  0
SPLINE
  5
40D
330
1F
100
AcDbEntity
  8
외형선
  6
Continuous
370
    15
100
AcDbSpline
210
0.0
220
0.0
230
1.0
 70
    24
 71
     3
 72
    14
 73
    10
 74
     0
 42
0.000000001
 43
0.00000001
 40
0.0
 40
0.0
 40
0.0
 40
0.0
 40
0.1229542981438241
 40
0.2693825712421521
 40
0.4158108443409461
 40
0.5622391174395076
 40
0.7086673905380705
 40
0.8550956636366255
 40
1.0
 40
1.0
 40
1.0
 40
1.0
 10
-19.05000000000001
 20
1.614064241599252
 30
0.0
 10
-19.05000000000001
 20
1.539121589850233
 30
0.0
 10
-19.05000000000004
 20
1.374928515442683
 30
0.0
 10
-19.04999999999995
 20
1.026281240993086
 30
0.0
 10
-19.05000000000004
 20
0.6243387383340466
 30
0.0
 10
-19.04999999999998
 20
0.2241155392828991
 30
0.0
 10
-19.05000000000004
 20
-0.1235345642946366
 30
0.0
 10
-19.04999999999995
 20
-0.3914269269302574
 30
0.0
 10
-19.04999999999998
 20
-0.4673362106075695
 30
0.0
 10
-19.05000000000001
 20
-0.5050923148603554
 30
0.0
  0
SPLINE
  5
40E
330
1F
100
AcDbEntity
  8
외형선
  6
Continuous
370
    15
100
AcDbSpline
210
0.0
220
0.0
230
1.0
 70
    24
 71
     3
 72
    10
 73
     6
 74
     0
 42
0.000000001
 43
0.00000001
 40
0.0
 40
0.0
 40
0.0
 40
0.0
 40
0.1065512120480771
 40
0.6418700405514918
 40
0.9999999999999999
 40
0.9999999999999999
 40
0.9999999999999999
 40
0.9999999999999999
 10
-19.04999999999998
 20
-1.210894882436711
 30
0.0
 10
-19.04999999999998
 20
-1.230883026286491
 30
0.0
 10
-19.05000000000001
 20
-1.351292643941697
 30
0.0
 10
-19.05000000000001
 20
-1.603169791232332
 30
0.0
 10
-19.05000000000001
 20
-1.824420087026489
 30
0.0
 10
-19.05000000000001
 20
-1.913106042538686
 30
0.0
  0
LINE
  5
43F
330
1F
100
AcDbEntity
  8
0
  6
Continuous
 62
     1
370
    25
100
AcDbLine
 10
-41.27500000000001
 20
1.797211427429361
 30
0.0
 11
-41.27500000000001
 21
-0.1700239274294044
 31
0.0
  0
ENDSEC
  0
SECTION
  2
OBJECTS
  0
DICTIONARY
  5
C
330
0
100
AcDbDictionary
281
     1
  3
ACAD_GROUP
350
D
  3
ACAD_IMAGE_VARS
350
15A
  3
ACAD_LAYOUT
350
1A
  3
ACAD_MLINESTYLE
350
17
  3
ACAD_PLOTSETTINGS
350
19
  3
ACAD_PLOTSTYLENAME
350
E
  3
ACAD_SCALELIST
350
47
  3
APPDATA
350
158
  3
DWGPROPS
350
463
  0
DICTIONARY
  5
236
330
2
100
AcDbDictionary
280
     1
281
     1
  3
ACAD_LAYERSTATES
360
237
  0
DICTIONARY
  5
D
102
{ACAD_REACTORS
330
C
102
}
330
C
100
AcDbDictionary
281
     1
  0
RASTERVARIABLES
  5
15A
102
{ACAD_REACTORS
330
C
102
}
330
C
100
AcDbRasterVariables
 90
        0
 70
     1
 71
     1
 72
     1
  0
DICTIONARY
  5
1A
102
{ACAD_REACTORS
330
C
102
}
330
C
100
AcDbDictionary
281
     1
  3
Layout1
350
1E
  3
Layout2
350
26
  3
Model
350
22
  0
DICTIONARY
  5
17
102
{ACAD_REACTORS
330
C
102
}
330
C
100
AcDbDictionary
281
     1
  3
Standard
350
18
  0
DICTIONARY
  5
19
102
{ACAD_REACTORS
330
C
102
}
330
C
100
AcDbDictionary
281
     1
  0
ACDBDICTIONARYWDFLT
  5
E
102
{ACAD_REACTORS
330
C
102
}
330
C
100
AcDbDictionary
281
     1
  3
Normal
350
F
100
AcDbDictionaryWithDefault
340
F
  0
DICTIONARY
  5
47
102
{ACAD_REACTORS
330
C
102
}
330
C
100
AcDbDictionary
281
     1
  3
A0
350
48
  3
A1
350
49
  3
A2
350
4A
  3
A3
350
4B
  3
A4
350
4C
  3
A5
350
4D
  3
A6
350
4E
  3
A7
350
4F
  3
A8
350
50
  3
A9
350
51
  3
B0
350
52
  3
B1
350
53
  3
B2
350
54
  3
B3
350
55
  3
B4
350
56
  3
B5
350
57
  3
B6
350
58
  3
B7
350
59
  3
B8
350
5A
  3
B9
350
5B
  3
C0
350
5C
  3
C1
350
5D
  3
C2
350
5E
  3
C3
350
5F
  3
C4
350
60
  3
C5
350
61
  3
C6
350
62
  3
C7
350
63
  3
C8
350
64
  3
C9
350
65
  3
D0
350
66
  3
D1
350
67
  3
D2
350
68
  0
DICTIONARY
  5
158
102
{ACAD_REACTORS
330
C
102
}
330
C
100
AcDbDictionary
281
     1
  0
XRECORD
  5
463
102
{ACAD_REACTORS
330
C
102
}
330
C
100
AcDbXrecord
280
     1
  1
DWGPROPS COOKIE
  2

  3

  4

  6

  7

  8
12016016
  9

300
=
301
=
302
=
303
=
304
=
305
=
306
=
307
=
308
=
309
=
 40
0.0
 41
2458313.106190475
 42
2458320.37658728
  1

 90
        0
  0
DICTIONARY
  5
237
102
{ACAD_REACTORS
330
236
102
}
330
236
100
AcDbDictionary
281
     1
  0
LAYOUT
  5
1E
102
{ACAD_REACTORS
330
1A
102
}
330
1A
100
AcDbPlotSettings
  1

  2
none_device
  4

  6

 40
0.0
 41
0.0
 42
0.0
 43
0.0
 44
0.0
 45
0.0
 46
0.0
 47
0.0
 48
0.0
 49
0.0
140
0.0
141
0.0
142
1.0
143
1.0
 70
   688
 72
     1
 73
     0
 74
     5
  7

 75
    16
147
1.0
148
0.0
149
0.0
100
AcDbLayout
  1
Layout1
 70
     1
 71
     1
 10
0.0
 20
0.0
 11
420.0
 21
297.0
 12
0.0
 22
0.0
 32
0.0
 14
1.000000000000000E+20
 24
1.000000000000000E+20
 34
1.000000000000000E+20
 15
-1.000000000000000E+20
 25
-1.000000000000000E+20
 35
-1.000000000000000E+20
146
0.0
 13
0.0
 23
0.0
 33
0.0
 16
1.0
 26
0.0
 36
0.0
 17
0.0
 27
1.0
 37
0.0
 76
     0
330
1B
  0
LAYOUT
  5
26
102
{ACAD_REACTORS
330
1A
102
}
330
1A
100
AcDbPlotSettings
  1

  2
none_device
  4

  6

 40
0.0
 41
0.0
 42
0.0
 43
0.0
 44
0.0
 45
0.0
 46
0.0
 47
0.0
 48
0.0
 49
0.0
140
0.0
141
0.0
142
1.0
143
1.0
 70
   688
 72
     1
 73
     0
 74
     5
  7

 75
    16
147
1.0
148
0.0
149
0.0
100
AcDbLayout
  1
Layout2
 70
     1
 71
     2
 10
0.0
 20
0.0
 11
0.0
 21
0.0
 12
0.0
 22
0.0
 32
0.0
 14
0.0
 24
0.0
 34
0.0
 15
0.0
 25
0.0
 35
0.0
146
0.0
 13
0.0
 23
0.0
 33
0.0
 16
1.0
 26
0.0
 36
0.0
 17
0.0
 27
1.0
 37
0.0
 76
     0
330
23
  0
LAYOUT
  5
22
102
{ACAD_REACTORS
330
1A
102
}
330
1A
100
AcDbPlotSettings
  1

  2
none_device
  4
ANSI_A_(11.00_x_8.50_Inches)
  6

 40
6.35
 41
19.05
 42
6.35000508
 43
19.05000254
 44
279.4
 45
215.9
 46
73.46183019461077
 47
82.9236633875541
 48
0.0
 49
0.0
140
0.0
141
0.0
142
0.0487809200546334
143
1.0
 70
  1696
 72
     0
 73
     0
 74
     0
  7

 75
     0
147
0.0235690232323232
148
0.0
149
0.0
100
AcDbLayout
  1
Model
 70
     1
 71
     0
 10
0.0
 20
0.0
 11
420.0
 21
297.0
 12
0.0
 22
0.0
 32
0.0
 14
-58.65000000000004
 24
-49.97180738881174
 34
0.0
 15
81.41936447236121
 25
37.46337500000006
 35
0.0
146
0.0
 13
0.0
 23
0.0
 33
0.0
 16
1.0
 26
0.0
 36
0.0
 17
0.0
 27
1.0
 37
0.0
 76
     0
330
1F
331
29
  0
MLINESTYLE
  5
18
102
{ACAD_REACTORS
330
17
102
}
330
17
100
AcDbMlineStyle
  2
Standard
 70
     0
  3

 62
   256
 51
90.0
 52
90.0
 71
     2
 49
0.5
 62
   256
  6
BYLAYER
 49
-0.5
 62
   256
  6
BYLAYER
  0
ACDBPLACEHOLDER
  5
F
102
{ACAD_REACTORS
330
E
102
}
330
E
  0
SCALE
  5
48
102
{ACAD_REACTORS
330
47
102
}
330
47
100
AcDbScale
 70
     0
300
1:1
140
1.0
141
1.0
290
     1
  0
SCALE
  5
49
102
{ACAD_REACTORS
330
47
102
}
330
47
100
AcDbScale
 70
     0
300
1:2
140
1.0
141
2.0
290
     0
  0
SCALE
  5
4A
102
{ACAD_REACTORS
330
47
102
}
330
47
100
AcDbScale
 70
     0
300
1:4
140
1.0
141
4.0
290
     0
  0
SCALE
  5
4B
102
{ACAD_REACTORS
330
47
102
}
330
47
100
AcDbScale
 70
     0
300
1:5
140
1.0
141
5.0
290
     0
  0
SCALE
  5
4C
102
{ACAD_REACTORS
330
47
102
}
330
47
100
AcDbScale
 70
     0
300
1:8
140
1.0
141
8.0
290
     0
  0
SCALE
  5
4D
102
{ACAD_REACTORS
330
47
102
}
330
47
100
AcDbScale
 70
     0
300
1:10
140
1.0
141
10.0
290
     0
  0
SCALE
  5
4E
102
{ACAD_REACTORS
330
47
102
}
330
47
100
AcDbScale
 70
     0
300
1:16
140
1.0
141
16.0
290
     0
  0
SCALE
  5
4F
102
{ACAD_REACTORS
330
47
102
}
330
47
100
AcDbScale
 70
     0
300
1:20
140
1.0
141
20.0
290
     0
  0
SCALE
  5
50
102
{ACAD_REACTORS
330
47
102
}
330
47
100
AcDbScale
 70
     0
300
1:30
140
1.0
141
30.0
290
     0
  0
SCALE
  5
51
102
{ACAD_REACTORS
330
47
102
}
330
47
100
AcDbScale
 70
     0
300
1:40
140
1.0
141
40.0
290
     0
  0
SCALE
  5
52
102
{ACAD_REACTORS
330
47
102
}
330
47
100
AcDbScale
 70
     0
300
1:50
140
1.0
141
50.0
290
     0
  0
SCALE
  5
53
102
{ACAD_REACTORS
330
47
102
}
330
47
100
AcDbScale
 70
     0
300
1:100
140
1.0
141
100.0
290
     0
  0
SCALE
  5
54
102
{ACAD_REACTORS
330
47
102
}
330
47
100
AcDbScale
 70
     0
300
2:1
140
2.0
141
1.0
290
     0
  0
SCALE
  5
55
102
{ACAD_REACTORS
330
47
102
}
330
47
100
AcDbScale
 70
     0
300
4:1
140
4.0
141
1.0
290
     0
  0
SCALE
  5
56
102
{ACAD_REACTORS
330
47
102
}
330
47
100
AcDbScale
 70
     0
300
8:1
140
8.0
141
1.0
290
     0
  0
SCALE
  5
57
102
{ACAD_REACTORS
330
47
102
}
330
47
100
AcDbScale
 70
     0
300
10:1
140
10.0
141
1.0
290
     0
  0
SCALE
  5
58
102
{ACAD_REACTORS
330
47
102
}
330
47
100
AcDbScale
 70
     0
300
100:1
140
100.0
141
1.0
290
     0
  0
SCALE
  5
59
102
{ACAD_REACTORS
330
47
102
}
330
47
100
AcDbScale
 70
     0
300
1/128" = 1'-0"
140
0.0078125
141
12.0
290
     0
  0
SCALE
  5
5A
102
{ACAD_REACTORS
330
47
102
}
330
47
100
AcDbScale
 70
     0
300
1/64" = 1'-0"
140
0.015625
141
12.0
290
     0
  0
SCALE
  5
5B
102
{ACAD_REACTORS
330
47
102
}
330
47
100
AcDbScale
 70
     0
300
1/32" = 1'-0"
140
0.03125
141
12.0
290
     0
  0
SCALE
  5
5C
102
{ACAD_REACTORS
330
47
102
}
330
47
100
AcDbScale
 70
     0
300
1/16" = 1'-0"
140
0.0625
141
12.0
290
     0
  0
SCALE
  5
5D
102
{ACAD_REACTORS
330
47
102
}
330
47
100
AcDbScale
 70
     0
300
3/32" = 1'-0"
140
0.09375
141
12.0
290
     0
  0
SCALE
  5
5E
102
{ACAD_REACTORS
330
47
102
}
330
47
100
AcDbScale
 70
     0
300
1/8" = 1'-0"
140
0.125
141
12.0
290
     0
  0
SCALE
  5
5F
102
{ACAD_REACTORS
330
47
102
}
330
47
100
AcDbScale
 70
     0
300
3/16" = 1'-0"
140
0.1875
141
12.0
290
     0
  0
SCALE
  5
60
102
{ACAD_REACTORS
330
47
102
}
330
47
100
AcDbScale
 70
     0
300
1/4" = 1'-0"
140
0.25
141
12.0
290
     0
  0
SCALE
  5
61
102
{ACAD_REACTORS
330
47
102
}
330
47
100
AcDbScale
 70
     0
300
3/8" = 1'-0"
140
0.375
141
12.0
290
     0
  0
SCALE
  5
62
102
{ACAD_REACTORS
330
47
102
}
330
47
100
AcDbScale
 70
     0
300
1/2" = 1'-0"
140
0.5
141
12.0
290
     0
  0
SCALE
  5
63
102
{ACAD_REACTORS
330
47
102
}
330
47
100
AcDbScale
 70
     0
300
3/4" = 1'-0"
140
0.75
141
12.0
290
     0
  0
SCALE
  5
64
102
{ACAD_REACTORS
330
47
102
}
330
47
100
AcDbScale
 70
     0
300
1" = 1'-0"
140
1.0
141
12.0
290
     0
  0
SCALE
  5
65
102
{ACAD_REACTORS
330
47
102
}
330
47
100
AcDbScale
 70
     0
300
1-1/2" = 1'-0"
140
1.5
141
12.0
290
     0
  0
SCALE
  5
66
102
{ACAD_REACTORS
330
47
102
}
330
47
100
AcDbScale
 70
     0
300
3" = 1'-0"
140
3.0
141
12.0
290
     0
  0
SCALE
  5
67
102
{ACAD_REACTORS
330
47
102
}
330
47
100
AcDbScale
 70
     0
300
6" = 1'-0"
140
6.0
141
12.0
290
     0
  0
SCALE
  5
68
102
{ACAD_REACTORS
330
47
102
}
330
47
100
AcDbScale
 70
     0
300
1'-0" = 1'-0"
140
12.0
141
12.0
290
     0
  0
ENDSEC
  0
EOF
