  0
SECTION
  2
HEADER
  9
$ACADVER
  1
AC1015
  9
$ACADMAINTVER
 70
     6
  9
$DWGCODEPAGE
  3
ANSI_949
  9
$INSBASE
 10
0.0
 20
0.0
 30
0.0
  9
$EXTMIN
 10
-49.12500000000004
 20
-49.97180738881174
 30
0.0
  9
$EXTMAX
 10
81.41936447236121
 20
35.59618750000007
 30
0.0
  9
$LIMMIN
 10
0.0
 20
0.0
  9
$LIMMAX
 10
420.0
 20
297.0
  9
$ORTHOMODE
 70
     1
  9
$REGENMODE
 70
     1
  9
$FILLMODE
 70
     1
  9
$QTEXTMODE
 70
     0
  9
$MIRRTEXT
 70
     1
  9
$LTSCALE
 40
1.0
  9
$ATTMODE
 70
     1
  9
$TEXTSIZE
 40
3.5
  9
$TRACEWID
 40
1.0
  9
$TEXTSTYLE
  7
Standard
  9
$CLAYER
  8
0
  9
$CELTYPE
  6
ByLayer
  9
$CECOLOR
 62
   256
  9
$CELTSCALE
 40
1.0
  9
$DISPSILH
 70
     0
  9
$DIMSCALE
 40
1.0
  9
$DIMASZ
 40
3.302
  9
$DIMEXO
 40
1.0
  9
$DIMDLI
 40
3.75
  9
$DIMRND
 40
0.0
  9
$DIMDLE
 40
0.0
  9
$DIMEXE
 40
1.0
  9
$DIMTP
 40
0.0
  9
$DIMTM
 40
0.0
  9
$DIMTXT
 40
3.5
  9
$DIMCEN
 40
2.5
  9
$DIMTSZ
 40
0.0
  9
$DIMTOL
 70
     0
  9
$DIMLIM
 70
     0
  9
$DIMTIH
 70
     1
  9
$DIMTOH
 70
     1
  9
$DIMSE1
 70
     0
  9
$DIMSE2
 70
     0
  9
$DIMTAD
 70
     1
  9
$DIMZIN
 70
     0
  9
$DIMBLK
  1

  9
$DIMASO
 70
     1
  9
$DIMSHO
 70
     1
  9
$DIMPOST
  1

  9
$DIMAPOST
  1

  9
$DIMALT
 70
     0
  9
$DIMALTD
 70
     3
  9
$DIMALTF
 40
0.0393700787401575
  9
$DIMLFAC
 40
1.0
  9
$DIMTOFL
 70
     1
  9
$DIMTVP
 40
0.0
  9
$DIMTIX
 70
     0
  9
$DIMSOXD
 70
     0
  9
$DIMSAH
 70
     0
  9
$DIMBLK1
  1

  9
$DIMBLK2
  1

  9
$DIMSTYLE
  2
ISO-25
  9
$DIMCLRD
 70
     0
  9
$DIMCLRE
 70
     0
  9
$DIMCLRT
 70
     0
  9
$DIMTFAC
 40
1.0
  9
$DIMGAP
 40
1.524
  9
$DIMJUST
 70
     0
  9
$DIMSD1
 70
     0
  9
$DIMSD2
 70
     0
  9
$DIMTOLJ
 70
     0
  9
$DIMTZIN
 70
     0
  9
$DIMALTZ
 70
     0
  9
$DIMALTTZ
 70
     0
  9
$DIMUPT
 70
     0
  9
$DIMDEC
 70
     2
  9
$DIMTDEC
 70
     2
  9
$DIMALTU
 70
     2
  9
$DIMALTTD
 70
     3
  9
$DIMTXSTY
  7
Standard
  9
$DIMAUNIT
 70
     0
  9
$DIMADEC
 70
     2
  9
$DIMALTRND
 40
0.0
  9
$DIMAZIN
 70
     0
  9
$DIMDSEP
 70
    44
  9
$DIMATFIT
 70
     3
  9
$DIMFRAC
 70
     0
  9
$DIMLDRBLK
  1

  9
$DIMLUNIT
 70
     2
  9
$DIMLWD
 70
    -2
  9
$DIMLWE
 70
    -2
  9
$DIMTMOVE
 70
     0
  9
$LUNITS
 70
     2
  9
$LUPREC
 70
     2
  9
$SKETCHINC
 40
1.0
  9
$FILLETRAD
 40
10.0
  9
$AUNITS
 70
     0
  9
$AUPREC
 70
     2
  9
$MENU
  1
.
  9
$ELEVATION
 40
0.0
  9
$PELEVATION
 40
0.0
  9
$THICKNESS
 40
0.0
  9
$LIMCHECK
 70
     0
  9
$CHAMFERA
 40
0.0
  9
$CHAMFERB
 40
0.0
  9
$CHAMFERC
 40
0.0
  9
$CHAMFERD
 40
0.0
  9
$SKPOLY
 70
     0
  9
$TDCREATE
 40
2458313.480131528
  9
$TDUCREATE
 40
2458313.105131528
  9
$TDUPDATE
 40
2458320.751332882
  9
$TDUUPDATE
 40
2458320.376332882
  9
$TDINDWG
 40
0.0028692824
  9
$TDUSRTIMER
 40
2458320.376269734
  9
$USRTIMER
 70
     1
  9
$ANGBASE
 50
0.0
  9
$ANGDIR
 70
     0
  9
$PDMODE
 70
     0
  9
$PDSIZE
 40
-1.0
  9
$PLINEWID
 40
0.0
  9
$SPLFRAME
 70
     0
  9
$SPLINETYPE
 70
     6
  9
$SPLINESEGS
 70
     8
  9
$HANDSEED
  5
424
  9
$SURFTAB1
 70
     6
  9
$SURFTAB2
 70
     6
  9
$SURFTYPE
 70
     6
  9
$SURFU
 70
     6
  9
$SURFV
 70
     6
  9
$UCSBASE
  2

  9
$UCSNAME
  2

  9
$UCSORG
 10
0.0
 20
0.0
 30
0.0
  9
$UCSXDIR
 10
1.0
 20
0.0
 30
0.0
  9
$UCSYDIR
 10
0.0
 20
1.0
 30
0.0
  9
$UCSORTHOREF
  2

  9
$UCSORTHOVIEW
 70
     0
  9
$UCSORGTOP
 10
0.0
 20
0.0
 30
0.0
  9
$UCSORGBOTTOM
 10
0.0
 20
0.0
 30
0.0
  9
$UCSORGLEFT
 10
0.0
 20
0.0
 30
0.0
  9
$UCSORGRIGHT
 10
0.0
 20
0.0
 30
0.0
  9
$UCSORGFRONT
 10
0.0
 20
0.0
 30
0.0
  9
$UCSORGBACK
 10
0.0
 20
0.0
 30
0.0
  9
$PUCSBASE
  2

  9
$PUCSNAME
  2

  9
$PUCSORG
 10
0.0
 20
0.0
 30
0.0
  9
$PUCSXDIR
 10
1.0
 20
0.0
 30
0.0
  9
$PUCSYDIR
 10
0.0
 20
1.0
 30
0.0
  9
$PUCSORTHOREF
  2

  9
$PUCSORTHOVIEW
 70
     0
  9
$PUCSORGTOP
 10
0.0
 20
0.0
 30
0.0
  9
$PUCSORGBOTTOM
 10
0.0
 20
0.0
 30
0.0
  9
$PUCSORGLEFT
 10
0.0
 20
0.0
 30
0.0
  9
$PUCSORGRIGHT
 10
0.0
 20
0.0
 30
0.0
  9
$PUCSORGFRONT
 10
0.0
 20
0.0
 30
0.0
  9
$PUCSORGBACK
 10
0.0
 20
0.0
 30
0.0
  9
$USERI1
 70
     0
  9
$USERI2
 70
     0
  9
$USERI3
 70
     0
  9
$USERI4
 70
     0
  9
$USERI5
 70
     0
  9
$USERR1
 40
0.0
  9
$USERR2
 40
0.0
  9
$USERR3
 40
0.0
  9
$USERR4
 40
0.0
  9
$USERR5
 40
0.0
  9
$WORLDVIEW
 70
     1
  9
$SHADEDGE
 70
     3
  9
$SHADEDIF
 70
    70
  9
$TILEMODE
 70
     1
  9
$MAXACTVP
 70
    64
  9
$PINSBASE
 10
0.0
 20
0.0
 30
0.0
  9
$PLIMCHECK
 70
     0
  9
$PEXTMIN
 10
1.000000000000000E+20
 20
1.000000000000000E+20
 30
1.000000000000000E+20
  9
$PEXTMAX
 10
-1.000000000000000E+20
 20
-1.000000000000000E+20
 30
-1.000000000000000E+20
  9
$PLIMMIN
 10
0.0
 20
0.0
  9
$PLIMMAX
 10
0.0
 20
0.0
  9
$UNITMODE
 70
     0
  9
$VISRETAIN
 70
     1
  9
$PLINEGEN
 70
     0
  9
$PSLTSCALE
 70
     1
  9
$TREEDEPTH
 70
  3020
  9
$CMLSTYLE
  2
Standard
  9
$CMLJUST
 70
     0
  9
$CMLSCALE
 40
20.0
  9
$PROXYGRAPHICS
 70
     1
  9
$MEASUREMENT
 70
     1
  9
$CELWEIGHT
370
    -1
  9
$ENDCAPS
280
     0
  9
$JOINSTYLE
280
     0
  9
$LWDISPLAY
290
     1
  9
$INSUNITS
 70
     4
  9
$HYPERLINKBASE
  1

  9
$STYLESHEET
  1

  9
$XEDIT
290
     1
  9
$CEPSNTYPE
380
     0
  9
$PSTYLEMODE
290
     1
  9
$FINGERPRINTGUID
  2
{CACE6B94-836D-46EA-B565-1DC52161C514}
  9
$VERSIONGUID
  2
{FAEB1C32-E019-11D5-929B-00C0DF256EC4}
  9
$EXTNAMES
290
     1
  9
$PSVPSCALE
 40
0.0
  9
$OLESTARTUP
290
     0
  0
ENDSEC
  0
SECTION
  2
CLASSES
  0
CLASS
  1
ACDBDICTIONARYWDFLT
  2
AcDbDictionaryWithDefault
  3
ObjectDBX Classes
 90
        0
280
     0
281
     0
  0
CLASS
  1
VISUALSTYLE
  2
AcDbVisualStyle
  3
ObjectDBX Classes
 90
     4095
280
     0
281
     0
  0
CLASS
  1
MATERIAL
  2
AcDbMaterial
  3
ObjectDBX Classes
 90
     1153
280
     0
281
     0
  0
CLASS
  1
SCALE
  2
AcDbScale
  3
ObjectDBX Classes
 90
     1153
280
     0
281
     0
  0
CLASS
  1
SUN
  2
AcDbSun
  3
SCENEOE
 90
     1153
280
     0
281
     0
  0
CLASS
  1
ACDBPLACEHOLDER
  2
AcDbPlaceHolder
  3
ObjectDBX Classes
 90
        0
280
     0
281
     0
  0
CLASS
  1
LAYOUT
  2
AcDbLayout
  3
ObjectDBX Classes
 90
        0
280
     0
281
     0
  0
CLASS
  1
TABLESTYLE
  2
AcDbTableStyle
  3
ObjectDBX Classes
 90
     4095
280
     0
281
     0
  0
CLASS
  1
MLEADERSTYLE
  2
AcDbMLeaderStyle
  3
ACDB_MLEADERSTYLE_CLASS
 90
     4095
280
     0
281
     0
  0
CLASS
  1
RASTERVARIABLES
  2
AcDbRasterVariables
  3
ISM
 90
        0
280
     0
281
     0
  0
ENDSEC
  0
SECTION
  2
TABLES
  0
TABLE
  2
VPORT
  5
8
330
0
100
AcDbSymbolTable
 70
     1
  0
VPORT
  5
29
330
8
100
AcDbSymbolTableRecord
100
AcDbViewportTableRecord
  2
*Active
 70
     0
 10
0.0
 20
0.0
 11
1.0
 21
1.0
 12
17.26438988587031
 22
-9.373055769352948
 13
0.0
 23
0.0
 14
10.0
 24
10.0
 15
10.0
 25
10.0
 16
0.0
 26
0.0
 36
1.0
 17
0.0
 27
0.0
 37
0.0
 40
113.6895198064931
 41
1.632093933463796
 42
50.0
 43
0.0
 44
0.0
 50
0.0
 51
0.0
 71
    16
 72
  2000
 73
     1
 74
     3
 75
     0
 76
     0
 77
     0
 78
     0
281
     0
 65
     1
110
0.0
120
0.0
130
0.0
111
1.0
121
0.0
131
0.0
112
0.0
122
1.0
132
0.0
 79
     0
146
0.0
  0
ENDTAB
  0
TABLE
  2
LTYPE
  5
5
330
0
100
AcDbSymbolTable
 70
     6
  0
LTYPE
  5
14
330
5
100
AcDbSymbolTableRecord
100
AcDbLinetypeTableRecord
  2
ByBlock
 70
     0
  3

 72
    65
 73
     0
 40
0.0
  0
LTYPE
  5
15
330
5
100
AcDbSymbolTableRecord
100
AcDbLinetypeTableRecord
  2
ByLayer
 70
     0
  3

 72
    65
 73
     0
 40
0.0
  0
LTYPE
  5
16
330
5
100
AcDbSymbolTableRecord
100
AcDbLinetypeTableRecord
  2
Continuous
 70
     0
  3
Solid line
 72
    65
 73
     0
 40
0.0
  0
LTYPE
  5
6A
330
5
100
AcDbSymbolTableRecord
100
AcDbLinetypeTableRecord
  2
HIDDEN
 70
     0
  3
Hidden __ __ __ __ __ __ __ __ __ __ __ __ __ __
 72
    65
 73
     2
 40
1.905
 49
1.27
 74
     0
 49
-0.635
 74
     0
  0
LTYPE
  5
6B
330
5
100
AcDbSymbolTableRecord
100
AcDbLinetypeTableRecord
  2
PHANTOM
 70
     0
  3
Phantom ______  __  __  ______  __  __  ______
 72
    65
 73
     6
 40
12.7
 49
6.35
 74
     0
 49
-1.27
 74
     0
 49
1.27
 74
     0
 49
-1.27
 74
     0
 49
1.27
 74
     0
 49
-1.27
 74
     0
  0
LTYPE
  5
6C
330
5
100
AcDbSymbolTableRecord
100
AcDbLinetypeTableRecord
  2
CENTER
 70
     0
  3
Center ____ _ ____ _ ____ _ ____ _ ____ _ ____
 72
    65
 73
     4
 40
10.16
 49
6.35
 74
     0
 49
-1.27
 74
     0
 49
1.27
 74
     0
 49
-1.27
 74
     0
  0
LTYPE
  5
6D
330
5
100
AcDbSymbolTableRecord
100
AcDbLinetypeTableRecord
  2
CENTERX2
 70
     0
  3
Center (2x) ________  __  ________  __  _____
 72
    65
 73
     4
 40
20.32
 49
12.7
 74
     0
 49
-2.54
 74
     0
 49
2.54
 74
     0
 49
-2.54
 74
     0
  0
LTYPE
  5
6E
330
5
100
AcDbSymbolTableRecord
100
AcDbLinetypeTableRecord
  2
DOT2
 70
     0
  3
Dot (.5x) ........................................
 72
    65
 73
     2
 40
0.635
 49
0.0
 74
     0
 49
-0.635
 74
     0
  0
ENDTAB
  0
TABLE
  2
LAYER
  5
2
102
{ACAD_XDICTIONARY
360
21B
102
}
330
0
100
AcDbSymbolTable
 70
    18
  0
LAYER
  5
10
330
2
100
AcDbSymbolTableRecord
100
AcDbLayerTableRecord
  2
0
 70
     0
 62
     7
  6
Continuous
370
    -3
390
F
  0
LAYER
  5
6F
330
2
100
AcDbSymbolTableRecord
100
AcDbLayerTableRecord
  2
FORMAT
 70
     0
 62
     2
  6
Continuous
370
    -3
390
F
  0
LAYER
  5
70
330
2
100
AcDbSymbolTableRecord
100
AcDbLayerTableRecord
  2
외형선
 70
     0
 62
     4
  6
Continuous
370
    30
390
F
  0
LAYER
  5
71
330
2
100
AcDbSymbolTableRecord
100
AcDbLayerTableRecord
  2
숨은선
 70
     0
 62
     2
  6
HIDDEN
370
    15
390
F
  0
LAYER
  5
72
330
2
100
AcDbSymbolTableRecord
100
AcDbLayerTableRecord
  2
중심선
 70
     0
 62
     1
  6
CENTERX2
370
    -3
390
F
  0
LAYER
  5
73
330
2
100
AcDbSymbolTableRecord
100
AcDbLayerTableRecord
  2
파단선
 70
     0
 62
     4
  6
Continuous
370
    -3
390
F
  0
LAYER
  5
74
330
2
100
AcDbSymbolTableRecord
100
AcDbLayerTableRecord
  2
해칭선
 70
     0
 62
   100
  6
Continuous
370
    -3
390
F
  0
LAYER
  5
75
330
2
100
AcDbSymbolTableRecord
100
AcDbLayerTableRecord
  2
가는실선
 70
     0
 62
     4
  6
Continuous
370
    -3
390
F
  0
LAYER
  5
76
330
2
100
AcDbSymbolTableRecord
100
AcDbLayerTableRecord
  2
치수_보조선
 70
     0
 62
     4
  6
Continuous
370
    -3
390
F
  0
LAYER
  5
77
330
2
100
AcDbSymbolTableRecord
100
AcDbLayerTableRecord
  2
치수문자_일반주서
 70
     0
 62
     7
  6
Continuous
370
    15
390
F
  0
LAYER
  5
78
330
2
100
AcDbSymbolTableRecord
100
AcDbLayerTableRecord
  2
개별주서
 70
     0
 62
   100
  6
Continuous
370
    30
390
F
  0
LAYER
  5
79
330
2
100
AcDbSymbolTableRecord
100
AcDbLayerTableRecord
  2
중간선
 70
     0
 62
     2
  6
Continuous
370
    15
390
F
  0
LAYER
  5
7A
330
2
100
AcDbSymbolTableRecord
100
AcDbLayerTableRecord
  2
윤곽선
 70
     0
 62
     3
  6
Continuous
370
    40
390
F
  0
LAYER
  5
7B
330
2
100
AcDbSymbolTableRecord
100
AcDbLayerTableRecord
  2
중심마크
 70
     0
 62
   100
  6
Continuous
370
    30
390
F
  0
LAYER
  5
7C
330
2
100
AcDbSymbolTableRecord
100
AcDbLayerTableRecord
  2
가상선
 70
     0
 62
     4
  6
PHANTOM
370
    -3
390
F
  0
LAYER
  5
7D
330
2
100
AcDbSymbolTableRecord
100
AcDbLayerTableRecord
  2
특수지정선
 70
     0
 62
     5
  6
CENTERX2
370
    60
390
F
  0
LAYER
  5
7E
330
2
100
AcDbSymbolTableRecord
100
AcDbLayerTableRecord
  2
참조1
 70
     0
 62
    -4
  6
Continuous
370
    -3
390
F
  0
LAYER
  5
157
330
2
100
AcDbSymbolTableRecord
100
AcDbLayerTableRecord
  2
Defpoints
 70
     0
 62
     7
  6
Continuous
290
     0
370
    -3
390
F
  0
ENDTAB
  0
TABLE
  2
STYLE
  5
3
330
0
100
AcDbSymbolTable
 70
     2
  0
STYLE
  5
11
330
3
100
AcDbSymbolTableRecord
100
AcDbTextStyleTableRecord
  2
Standard
 70
     0
 40
0.0
 41
1.0
 50
0.0
 71
     0
 42
3.5
  3
txt
  4

  0
STYLE
  5
94
330
3
100
AcDbSymbolTableRecord
100
AcDbTextStyleTableRecord
  2
SLDTEXTSTYLE0
 70
     0
 40
0.0
 41
0.75
 50
0.0
 71
     0
 42
3.5
  3
TXT
  4

  0
ENDTAB
  0
TABLE
  2
VIEW
  5
6
330
0
100
AcDbSymbolTable
 70
     0
  0
ENDTAB
  0
TABLE
  2
UCS
  5
7
330
0
100
AcDbSymbolTable
 70
     0
  0
ENDTAB
  0
TABLE
  2
APPID
  5
9
330
0
100
AcDbSymbolTable
 70
     1
  0
APPID
  5
12
330
9
100
AcDbSymbolTableRecord
100
AcDbRegAppTableRecord
  2
ACAD
 70
     0
  0
ENDTAB
  0
TABLE
  2
DIMSTYLE
  5
A
330
0
100
AcDbSymbolTable
 70
     3
100
AcDbDimStyleTable
  0
DIMSTYLE
105
27
330
A
100
AcDbSymbolTableRecord
100
AcDbDimStyleTableRecord
  2
ISO-25
 70
     0
 41
2.5
 42
0.625
 43
3.75
 44
1.25
 73
     0
 74
     0
 77
     1
 78
     8
140
2.5
141
2.5
143
0.03937007874016
147
0.625
171
     3
172
     1
178
     0
271
     2
272
     2
274
     3
278
    44
283
     0
284
     8
340
11
  0
DIMSTYLE
105
D3
102
{ACAD_REACTORS
330
D2
330
E7
330
110
330
FC
102
}
330
A
100
AcDbSymbolTableRecord
100
AcDbDimStyleTableRecord
  2
SLDDIMSTYLE0
 70
     0
 41
3.302
 44
0.0
 45
0.000000001
 73
     0
 74
     0
 77
     1
 78
    12
 79
     3
140
3.5
143
0.0393700787401575
147
0.875
148
0.000000001
170
     1
172
     1
173
     1
178
     0
271
     2
272
     2
276
     2
284
    12
289
     0
340
94
  0
DIMSTYLE
105
FD
330
A
100
AcDbSymbolTableRecord
100
AcDbDimStyleTableRecord
  2
SLDDIMSTYLE1
 70
     0
 41
3.302
 44
0.0
 45
0.000000001
 73
     0
 74
     0
 77
     1
 78
     4
 79
     1
140
3.5
143
0.0393700787401575
147
0.875
148
0.000000001
170
     1
173
     1
178
     0
271
     2
272
     2
276
     2
284
    12
340
94
  0
ENDTAB
  0
TABLE
  2
BLOCK_RECORD
  5
1
330
0
100
AcDbSymbolTable
 70
    21
  0
BLOCK_RECORD
  5
1F
330
1
100
AcDbSymbolTableRecord
100
AcDbBlockTableRecord
  2
*Model_Space
340
22
  0
BLOCK_RECORD
  5
1B
330
1
100
AcDbSymbolTableRecord
100
AcDbBlockTableRecord
  2
*Paper_Space
340
1E
  0
BLOCK_RECORD
  5
23
330
1
100
AcDbSymbolTableRecord
100
AcDbBlockTableRecord
  2
*Paper_Space0
340
26
  0
BLOCK_RECORD
  5
7F
330
1
100
AcDbSymbolTableRecord
100
AcDbBlockTableRecord
  2
블럭10
340
0
102
{BLKREFS
331
CB
102
}
  0
BLOCK_RECORD
  5
D4
330
1
100
AcDbSymbolTableRecord
100
AcDbBlockTableRecord
  2
_D
340
0
  0
BLOCK_RECORD
  5
E8
330
1
100
AcDbSymbolTableRecord
100
AcDbBlockTableRecord
  2
_D_1
340
0
  0
BLOCK_RECORD
  5
FE
330
1
100
AcDbSymbolTableRecord
100
AcDbBlockTableRecord
  2
_D_2
340
0
  0
BLOCK_RECORD
  5
111
330
1
100
AcDbSymbolTableRecord
100
AcDbBlockTableRecord
  2
_D_3
340
0
  0
BLOCK_RECORD
  5
12B
330
1
100
AcDbSymbolTableRecord
100
AcDbBlockTableRecord
  2
SW_DOWELSYMBOL_0
340
0
102
{BLKREFS
331
131
102
}
  0
BLOCK_RECORD
  5
21F
330
1
100
AcDbSymbolTableRecord
100
AcDbBlockTableRecord
  2
*D7
340
0
  0
BLOCK_RECORD
  5
22E
330
1
100
AcDbSymbolTableRecord
100
AcDbBlockTableRecord
  2
*D8
340
0
  0
BLOCK_RECORD
  5
23D
330
1
100
AcDbSymbolTableRecord
100
AcDbBlockTableRecord
  2
*D9
340
0
  0
BLOCK_RECORD
  5
249
330
1
100
AcDbSymbolTableRecord
100
AcDbBlockTableRecord
  2
*D10
340
0
  0
BLOCK_RECORD
  5
2B5
330
1
100
AcDbSymbolTableRecord
100
AcDbBlockTableRecord
  2
*D11
340
0
  0
BLOCK_RECORD
  5
2C4
330
1
100
AcDbSymbolTableRecord
100
AcDbBlockTableRecord
  2
*D12
340
0
  0
BLOCK_RECORD
  5
2D3
330
1
100
AcDbSymbolTableRecord
100
AcDbBlockTableRecord
  2
*D13
340
0
  0
BLOCK_RECORD
  5
2DF
330
1
100
AcDbSymbolTableRecord
100
AcDbBlockTableRecord
  2
*D14
340
0
  0
BLOCK_RECORD
  5
378
330
1
100
AcDbSymbolTableRecord
100
AcDbBlockTableRecord
  2
*D15
340
0
  0
BLOCK_RECORD
  5
387
330
1
100
AcDbSymbolTableRecord
100
AcDbBlockTableRecord
  2
*D16
340
0
  0
BLOCK_RECORD
  5
396
330
1
100
AcDbSymbolTableRecord
100
AcDbBlockTableRecord
  2
*D17
340
0
  0
BLOCK_RECORD
  5
3D4
330
1
100
AcDbSymbolTableRecord
100
AcDbBlockTableRecord
  2
*D18
340
0
  0
BLOCK_RECORD
  5
3E3
330
1
100
AcDbSymbolTableRecord
100
AcDbBlockTableRecord
  2
*D19
340
0
  0
BLOCK_RECORD
  5
3F2
330
1
100
AcDbSymbolTableRecord
100
AcDbBlockTableRecord
  2
*D20
340
0
  0
ENDTAB
  0
ENDSEC
  0
SECTION
  2
BLOCKS
  0
BLOCK
  5
20
330
1F
100
AcDbEntity
  8
0
100
AcDbBlockBegin
  2
*Model_Space
 70
     0
 10
0.0
 20
0.0
 30
0.0
  3
*Model_Space
  1
*Model_Space
  0
ENDBLK
  5
21
330
1F
100
AcDbEntity
  8
0
100
AcDbBlockEnd
  0
BLOCK
  5
1C
330
1B
100
AcDbEntity
 67
     1
  8
0
100
AcDbBlockBegin
  2
*Paper_Space
 70
     0
 10
0.0
 20
0.0
 30
0.0
  3
*Paper_Space
  1
*Paper_Space
  0
ENDBLK
  5
1D
330
1B
100
AcDbEntity
 67
     1
  8
0
100
AcDbBlockEnd
  0
BLOCK
  5
24
330
23
100
AcDbEntity
  8
0
100
AcDbBlockBegin
  2
*Paper_Space0
 70
     0
 10
0.0
 20
0.0
 30
0.0
  3
*Paper_Space0
  1
*Paper_Space0
  0
ENDBLK
  5
25
330
23
100
AcDbEntity
  8
0
100
AcDbBlockEnd
  0
BLOCK
  5
80
330
7F
100
AcDbEntity
  8
0
100
AcDbBlockBegin
  2
블럭10
 70
     2
 10
0.0
 20
0.0
 30
0.0
  3
블럭10
  1
블럭10
  0
ELLIPSE
  5
82
330
7F
100
AcDbEntity
  8
중심선
100
AcDbEllipse
 10
20.54032771741204
 20
12.0471743016438
 30
0.0
 11
6.600054785286829
 21
-1.261213355974178E-13
 31
0.0
210
0.0
220
0.0
230
1.0
 40
0.636358354079598
 41
0.9219305317359503
 42
6.513795318482858
  0
ELLIPSE
  5
83
330
7F
100
AcDbEntity
  8
중심선
100
AcDbEllipse
 10
20.54032771746488
 20
12.04717430159265
 30
0.0
 11
3.960054785062283
 21
1.540847449632565E-10
 31
0.0
210
0.0
220
0.0
230
1.0
 40
0.3939339440162632
 41
1.131841032648279
 42
5.62031148352944
  0
LINE
  5
84
330
7F
100
AcDbEntity
  8
중심선
100
AcDbLine
 10
2.268634060543552
 20
16.24717430164393
 30
0.0
 11
5.714909304380834
 21
16.24717430164393
 31
0.0
  0
LINE
  5
85
330
7F
100
AcDbEntity
  8
중심선
100
AcDbLine
 10
5.245725140726316
 20
7.84717430164391
 30
0.0
 11
8.692000384563599
 21
7.84717430164391
 31
0.0
  0
LINE
  5
86
330
7F
100
AcDbEntity
  8
중심선
100
AcDbLine
 10
15.74043728645272
 20
16.24717430164393
 30
0.0
 11
8.692000384563599
 21
7.84717430164391
 31
0.0
  0
LINE
  5
87
330
7F
100
AcDbEntity
  8
중심선
100
AcDbLine
 10
0.1404042013395286
 20
13.71084872107135
 30
0.0
 11
3.58671253028996
 21
13.71088815037384
 31
0.0
  0
LINE
  5
88
330
7F
100
AcDbEntity
  8
중심선
100
AcDbLine
 10
2.750260043222114
 20
10.84717430164391
 30
0.0
 11
6.196535287059397
 21
10.84717430164391
 31
0.0
  0
LINE
  5
89
330
7F
100
AcDbEntity
  8
중심선
100
AcDbLine
 10
12.29416204261559
 20
16.24717430164393
 30
0.0
 11
5.245725140726316
 21
7.84717430164391
 31
0.0
  0
LINE
  5
8A
330
7F
100
AcDbEntity
  8
중심선
100
AcDbLine
 10
10.72767329541681
 20
16.24717430164393
 30
0.0
 11
6.196535287059397
 21
10.84717430164391
 31
0.0
  0
LINE
  5
8B
330
7F
100
AcDbEntity
  8
중심선
100
AcDbLine
 10
7.28139805157953
 20
16.24717430164393
 30
0.0
 11
2.750260043222114
 21
10.84717430164391
 31
0.0
  0
LINE
  5
8C
330
7F
100
AcDbEntity
  8
중심선
100
AcDbLine
 10
5.714909304380834
 20
16.24717430164393
 30
0.0
 11
3.58671253028996
 21
13.71088815037384
 31
0.0
  0
LINE
  5
8D
330
7F
100
AcDbEntity
  8
중심선
100
AcDbLine
 10
2.268634060543552
 20
16.24717430164393
 30
0.0
 11
0.1404042013395286
 21
13.71084872107135
 31
0.0
  0
LINE
  5
8E
330
7F
100
AcDbEntity
  8
중심선
100
AcDbLine
 10
7.28139805157953
 20
16.24717430164393
 30
0.0
 11
10.72767329541681
 21
16.24717430164393
 31
0.0
  0
LINE
  5
8F
330
7F
100
AcDbEntity
  8
중심선
100
AcDbLine
 10
12.29416204261559
 20
16.24717430164393
 30
0.0
 11
15.74043728645272
 21
16.24717430164393
 31
0.0
  0
LINE
  5
90
330
7F
100
AcDbEntity
  8
중심선
100
AcDbLine
 10
19.22036997980202
 20
11.08717430171403
 30
0.0
 11
23.66174974927406
 21
11.08717430171406
 31
0.0
  0
LINE
  5
91
330
7F
100
AcDbEntity
  8
중심선
100
AcDbLine
 10
19.22039502424796
 20
13.00717430171391
 30
0.0
 11
19.22036997980202
 21
11.08717430171403
 31
0.0
  0
LINE
  5
92
330
7F
100
AcDbEntity
  8
중심선
100
AcDbLine
 10
19.22039502424796
 20
13.00717430171391
 30
0.0
 11
26.96566020931264
 21
13.00717430171391
 31
0.0
  0
LINE
  5
93
330
7F
100
AcDbEntity
  8
중심선
100
AcDbLine
 10
22.22332737316547
 20
13.45928029700563
 30
0.0
 11
24.52862924686651
 21
15.39360700705356
 31
0.0
  0
ATTDEF
  5
95
330
7F
100
AcDbEntity
  8
FORMAT
 62
     2
100
AcDbText
 10
4.408487351596664
 20
2.075366912832191
 30
0.0
 40
4.233333333333333
  1
E2006005
 41
0.75
  7
SLDTEXTSTYLE0
 11
4.408487351596664
 21
-0.0412997538344756
 31
0.0
100
AcDbAttributeDefinition
  3

  2
AUTOATTR0
 70
     0
 74
     1
  0
ENDBLK
  5
81
330
7F
100
AcDbEntity
  8
0
100
AcDbBlockEnd
  0
BLOCK
  5
D5
330
D4
100
AcDbEntity
  8
0
100
AcDbBlockBegin
  2
_D
 70
     0
 10
0.0
 20
0.0
 30
0.0
  3
_D
  1
_D
  0
LINE
  5
D7
330
D4
100
AcDbEntity
  8
치수문자_일반주서
 62
     0
370
    -2
100
AcDbLine
 10
31.81249999999999
 20
0.992187500000004
 30
0.0
 11
49.65478931357595
 21
0.992187500000071
 31
0.0
  0
LINE
  5
D8
330
D4
100
AcDbEntity
  8
치수문자_일반주서
 62
     0
370
    -2
100
AcDbLine
 10
31.81249999999999
 20
-0.9921874999999958
 30
0.0
 11
49.65478931357595
 21
-0.992187499999929
 31
0.0
  0
LINE
  5
D9
330
D4
100
AcDbEntity
  8
치수문자_일반주서
 62
     0
370
    -2
100
AcDbLine
 10
49.65478931357595
 20
0.992187500000071
 30
0.0
 11
49.65478931357583
 21
35.59618750000007
 31
0.0
  0
LINE
  5
DA
330
D4
100
AcDbEntity
  8
치수문자_일반주서
 62
     0
370
    -2
100
AcDbLine
 10
49.65478931357595
 20
0.992187500000071
 30
0.0
 11
49.65478931357595
 21
-0.992187499999929
 31
0.0
  0
LINE
  5
DB
330
D4
100
AcDbEntity
  8
치수문자_일반주서
 62
     0
370
    -2
100
AcDbLine
 10
49.65478931357593
 20
4.294187500000071
 30
0.0
 11
49.65478931357592
 21
7.59618750000007
 31
0.0
  0
LINE
  5
DC
330
D4
100
AcDbEntity
  8
치수문자_일반주서
 62
     0
370
    -2
100
AcDbLine
 10
49.65478931357597
 20
-4.294187499999929
 30
0.0
 11
49.65478931357598
 21
-7.596187499999928
 31
0.0
  0
SOLID
  5
DD
330
D4
100
AcDbEntity
  8
치수문자_일반주서
 62
     0
100
AcDbTrace
 10
49.1044559802426
 20
4.294187500000069
 30
0.0
 11
50.20512264690927
 21
4.294187500000072
 31
0.0
 12
49.65478931357595
 22
0.992187500000071
 32
0.0
 13
49.65478931357595
 23
0.992187500000071
 33
0.0
  0
SOLID
  5
DE
330
D4
100
AcDbEntity
  8
치수문자_일반주서
 62
     0
100
AcDbTrace
 10
50.2051226469093
 20
-4.294187499999927
 30
0.0
 11
49.10445598024263
 21
-4.29418749999993
 31
0.0
 12
49.65478931357595
 22
-0.992187499999929
 32
0.0
 13
49.65478931357595
 23
-0.992187499999929
 33
0.0
  0
MTEXT
  5
DF
330
D4
100
AcDbEntity
  8
치수문자_일반주서
 62
     0
100
AcDbMText
 10
45.27978931357588
 20
21.59618750000005
 30
0.0
 40
3.5
 41
0.0
 71
     2
 72
     1
  1
\A1;%%c1.98 [5/64]
  7
SLDTEXTSTYLE0
 11
-3.580687802255624E-15
 21
1.0
 31
0.0
 73
     1
 44
1.0
  0
POINT
  5
E0
330
D4
100
AcDbEntity
  8
Defpoints
 62
     0
100
AcDbPoint
 10
31.74999999999999
 20
0.9921875000000038
 30
0.0
  0
POINT
  5
E1
330
D4
100
AcDbEntity
  8
Defpoints
 62
     0
100
AcDbPoint
 10
31.74999999999999
 20
-0.992187499999996
 30
0.0
  0
POINT
  5
E2
330
D4
100
AcDbEntity
  8
Defpoints
 62
     0
100
AcDbPoint
 10
49.65478931357595
 20
-0.9921874999999291
 30
0.0
  0
ENDBLK
  5
D6
330
D4
100
AcDbEntity
  8
0
100
AcDbBlockEnd
  0
BLOCK
  5
E9
330
E8
100
AcDbEntity
  8
0
100
AcDbBlockBegin
  2
_D_1
 70
     0
 10
0.0
 20
0.0
 30
0.0
  3
_D_1
  1
_D_1
  0
LINE
  5
EB
330
E8
100
AcDbEntity
  8
치수문자_일반주서
 62
     0
370
    -2
100
AcDbLine
 10
31.74999999999999
 20
1.054687500000004
 30
0.0
 11
31.74999999999999
 21
16.14182866367812
 31
0.0
  0
LINE
  5
EC
330
E8
100
AcDbEntity
  8
치수문자_일반주서
 62
     0
370
    -2
100
AcDbLine
 10
25.39999999999999
 20
0.8928005491821425
 30
0.0
 11
25.39999999999999
 21
16.14182866367812
 31
0.0
  0
LINE
  5
ED
330
E8
100
AcDbEntity
  8
치수문자_일반주서
 62
     0
370
    -2
100
AcDbLine
 10
25.39999999999999
 20
16.14182866367812
 30
0.0
 11
-9.403476014153249
 21
16.14182866367812
 31
0.0
  0
LINE
  5
EE
330
E8
100
AcDbEntity
  8
치수문자_일반주서
 62
     0
370
    -2
100
AcDbLine
 10
31.74999999999999
 20
16.14182866367812
 30
0.0
 11
25.39999999999999
 21
16.14182866367812
 31
0.0
  0
LINE
  5
EF
330
E8
100
AcDbEntity
  8
치수문자_일반주서
 62
     0
370
    -2
100
AcDbLine
 10
35.05199999999999
 20
16.14182866367812
 30
0.0
 11
38.35399999999999
 21
16.14182866367812
 31
0.0
  0
LINE
  5
F0
330
E8
100
AcDbEntity
  8
치수문자_일반주서
 62
     0
370
    -2
100
AcDbLine
 10
22.09799999999999
 20
16.14182866367812
 30
0.0
 11
18.79599999999999
 21
16.14182866367812
 31
0.0
  0
SOLID
  5
F1
330
E8
100
AcDbEntity
  8
치수문자_일반주서
 62
     0
100
AcDbTrace
 10
35.05199999999999
 20
16.69216199701145
 30
0.0
 11
35.05199999999999
 21
15.59149533034479
 31
0.0
 12
31.74999999999999
 22
16.14182866367812
 32
0.0
 13
31.74999999999999
 23
16.14182866367812
 33
0.0
  0
SOLID
  5
F2
330
E8
100
AcDbEntity
  8
치수문자_일반주서
 62
     0
100
AcDbTrace
 10
22.09799999999999
 20
15.59149533034479
 30
0.0
 11
22.09799999999999
 21
16.69216199701145
 31
0.0
 12
25.39999999999999
 22
16.14182866367812
 32
0.0
 13
25.39999999999999
 23
16.14182866367812
 33
0.0
  0
MTEXT
  5
F3
330
E8
100
AcDbEntity
  8
치수문자_일반주서
 62
     0
100
AcDbMText
 10
1.971523985846751
 20
20.51682866367812
 30
0.0
 40
3.5
 41
0.0
 71
     2
 72
     1
  1
\A1;6.35 [1/4]
  7
SLDTEXTSTYLE0
 73
     1
 44
1.0
  0
POINT
  5
F4
330
E8
100
AcDbEntity
  8
Defpoints
 62
     0
100
AcDbPoint
 10
31.74999999999999
 20
0.9921875000000038
 30
0.0
  0
POINT
  5
F5
330
E8
100
AcDbEntity
  8
Defpoints
 62
     0
100
AcDbPoint
 10
25.39999999999999
 20
0.8303005491821425
 30
0.0
  0
POINT
  5
F6
330
E8
100
AcDbEntity
  8
Defpoints
 62
     0
100
AcDbPoint
 10
25.39999999999999
 20
16.14182866367812
 30
0.0
  0
ENDBLK
  5
EA
330
E8
100
AcDbEntity
  8
0
100
AcDbBlockEnd
  0
BLOCK
  5
FF
330
FE
100
AcDbEntity
  8
0
100
AcDbBlockBegin
  2
_D_2
 70
     0
 10
0.0
 20
0.0
 30
0.0
  3
_D_2
  1
_D_2
  0
LINE
  5
101
330
FE
100
AcDbEntity
  8
치수문자_일반주서
 62
     0
370
    -2
100
AcDbLine
 10
31.74999999999999
 20
1.054687500000004
 30
0.0
 11
31.74999999999999
 21
28.10036425976227
 31
0.0
  0
LINE
  5
102
330
FE
100
AcDbEntity
  8
치수문자_일반주서
 62
     0
370
    -2
100
AcDbLine
 10
-31.75000000000001
 20
1.054687499999996
 30
0.0
 11
-31.75000000000001
 21
28.10036425976227
 31
0.0
  0
LINE
  5
103
330
FE
100
AcDbEntity
  8
치수문자_일반주서
 62
     0
370
    -2
100
AcDbLine
 10
28.44799999999999
 20
28.10036425976227
 30
0.0
 11
-28.44800000000001
 21
28.10036425976227
 31
0.0
  0
SOLID
  5
104
330
FE
100
AcDbEntity
  8
치수문자_일반주서
 62
     0
100
AcDbTrace
 10
28.44799999999999
 20
27.55003092642894
 30
0.0
 11
28.44799999999999
 21
28.65069759309561
 31
0.0
 12
31.74999999999999
 22
28.10036425976227
 32
0.0
 13
31.74999999999999
 23
28.10036425976227
 33
0.0
  0
SOLID
  5
105
330
FE
100
AcDbEntity
  8
치수문자_일반주서
 62
     0
100
AcDbTrace
 10
-28.44800000000001
 20
28.65069759309561
 30
0.0
 11
-28.44800000000001
 21
27.55003092642894
 31
0.0
 12
-31.75000000000001
 22
28.10036425976227
 32
0.0
 13
-31.75000000000001
 23
28.10036425976227
 33
0.0
  0
MTEXT
  5
106
330
FE
100
AcDbEntity
  8
치수문자_일반주서
 62
     0
100
AcDbMText
 10
-1.620199429023449
 20
32.47536425976227
 30
0.0
 40
3.5
 41
0.0
 71
     2
 72
     1
  1
\A1;63.5 [2 1/2]
  7
SLDTEXTSTYLE0
 73
     1
 44
1.0
  0
POINT
  5
107
330
FE
100
AcDbEntity
  8
Defpoints
 62
     0
100
AcDbPoint
 10
31.74999999999999
 20
0.9921875000000038
 30
0.0
  0
POINT
  5
108
330
FE
100
AcDbEntity
  8
Defpoints
 62
     0
100
AcDbPoint
 10
-31.75000000000001
 20
0.992187499999996
 30
0.0
  0
POINT
  5
109
330
FE
100
AcDbEntity
  8
Defpoints
 62
     0
100
AcDbPoint
 10
-31.75000000000001
 20
28.10036425976227
 30
0.0
  0
ENDBLK
  5
100
330
FE
100
AcDbEntity
  8
0
100
AcDbBlockEnd
  0
BLOCK
  5
112
330
111
100
AcDbEntity
  8
0
100
AcDbBlockBegin
  2
_D_3
 70
     0
 10
0.0
 20
0.0
 30
0.0
  3
_D_3
  1
_D_3
  0
LINE
  5
114
330
111
100
AcDbEntity
  8
치수문자_일반주서
 62
     0
370
    -2
100
AcDbLine
 10
-31.33624999999999
 20
2.381250000000001
 30
0.0
 11
-44.75000000000001
 21
2.38124999999995
 31
0.0
  0
LINE
  5
115
330
111
100
AcDbEntity
  8
치수문자_일반주서
 62
     0
370
    -2
100
AcDbLine
 10
-31.33624999999999
 20
-2.381250000000002
 30
0.0
 11
-44.74999999999999
 21
-2.381250000000052
 31
0.0
  0
LINE
  5
116
330
111
100
AcDbEntity
  8
치수문자_일반주서
 62
     0
370
    -2
100
AcDbLine
 10
-44.75
 20
-0.9207500000000493
 30
0.0
 11
-44.75
 21
0.9207499999999471
 31
0.0
  0
SOLID
  5
117
330
111
100
AcDbEntity
  8
치수문자_일반주서
 62
     0
100
AcDbTrace
 10
-44.19966666666667
 20
-0.9207500000000476
 30
0.0
 11
-45.30033333333333
 21
-0.9207500000000509
 31
0.0
 12
-44.75000000000001
 22
2.38124999999995
 32
0.0
 13
-44.75000000000001
 23
2.38124999999995
 33
0.0
  0
SOLID
  5
118
330
111
100
AcDbEntity
  8
치수문자_일반주서
 62
     0
100
AcDbTrace
 10
-45.30033333333333
 20
0.9207499999999454
 30
0.0
 11
-44.19966666666667
 21
0.9207499999999488
 31
0.0
 12
-44.74999999999999
 22
-2.381250000000052
 32
0.0
 13
-44.74999999999999
 23
-2.381250000000052
 33
0.0
  0
MTEXT
  5
119
330
111
100
AcDbEntity
  8
치수문자_일반주서
 62
     0
100
AcDbMText
 10
-49.125
 20
-0.0000000000000122
 30
0.0
 40
3.5
 41
0.0
 71
     2
 72
     1
  1
\A1;%%c4.76 [3/16]
  7
SLDTEXTSTYLE0
 11
-2.983906501879685E-15
 21
1.0
 31
0.0
 73
     1
 44
1.0
  0
POINT
  5
11A
330
111
100
AcDbEntity
  8
Defpoints
 62
     0
100
AcDbPoint
 10
-31.27374999999999
 20
2.381250000000001
 30
0.0
  0
POINT
  5
11B
330
111
100
AcDbEntity
  8
Defpoints
 62
     0
100
AcDbPoint
 10
-31.27374999999999
 20
-2.381250000000001
 30
0.0
  0
POINT
  5
11C
330
111
100
AcDbEntity
  8
Defpoints
 62
     0
100
AcDbPoint
 10
-44.74999999999999
 20
-2.381250000000052
 30
0.0
  0
ENDBLK
  5
113
330
111
100
AcDbEntity
  8
0
100
AcDbBlockEnd
  0
BLOCK
  5
12C
330
12B
100
AcDbEntity
  8
0
100
AcDbBlockBegin
  2
SW_DOWELSYMBOL_0
 70
     0
 10
0.0
 20
0.0
 30
0.0
  3
SW_DOWELSYMBOL_0
  1
SW_DOWELSYMBOL_0
  0
CIRCLE
  5
12E
330
12B
100
AcDbEntity
  8
해칭선
 62
     0
100
AcDbCircle
 10
0.0
 20
0.0
 30
0.0
 40
3.000000000000005
  0
HATCH
  5
12F
330
12B
100
AcDbEntity
  8
0
  6
Continuous
 62
     0
370
     0
100
AcDbHatch
 10
0.0
 20
0.0
 30
0.0
210
0.0
220
0.0
230
1.0
  2
SOLID
 70
     1
 71
     0
 91
        1
 92
        0
 93
        3
 72
     2
 10
0.0
 20
0.0
 40
3.000000000000005
 50
0.0
 51
90.0
 73
     1
 72
     1
 10
0.0
 20
3.000000000000005
 11
0.0
 21
0.0
 72
     1
 10
0.0
 20
0.0
 11
3.000000000000004
 21
0.0
 97
        0
 75
     0
 76
     1
 98
        1
 10
0.0
 20
0.0
  0
HATCH
  5
130
330
12B
100
AcDbEntity
  8
0
  6
Continuous
 62
     0
370
     0
100
AcDbHatch
 10
0.0
 20
0.0
 30
0.0
210
0.0
220
0.0
230
1.0
  2
SOLID
 70
     1
 71
     0
 91
        1
 92
        0
 93
        3
 72
     2
 10
0.0
 20
0.0
 40
3.000000000000005
 50
180.0
 51
270.0000000000007
 73
     1
 72
     1
 10
0.0
 20
-3.000000000000005
 11
0.0
 21
0.0
 72
     1
 10
0.0
 20
0.0
 11
-3.000000000000004
 21
0.0
 97
        0
 75
     0
 76
     1
 98
        1
 10
0.0
 20
0.0
  0
ENDBLK
  5
12D
330
12B
100
AcDbEntity
  8
0
100
AcDbBlockEnd
  0
BLOCK
  5
220
330
21F
100
AcDbEntity
  8
0
100
AcDbBlockBegin
  2
*D7
 70
     1
 10
0.0
 20
0.0
 30
0.0
  3
*D7
  1
*D8
  0
LINE
  5
222
330
21F
100
AcDbEntity
  8
치수문자_일반주서
 62
     0
370
    -2
100
AcDbLine
 10
80.93750000000003
 20
13.91875000000002
 30
0.0
 11
99.16933659074263
 21
13.91875000000009
 31
0.0
  0
LINE
  5
223
330
21F
100
AcDbEntity
  8
치수문자_일반주서
 62
     0
370
    -2
100
AcDbLine
 10
80.93750000000003
 20
12.33125000000002
 30
0.0
 11
99.16933659074263
 21
12.33125000000009
 31
0.0
  0
LINE
  5
224
330
21F
100
AcDbEntity
  8
치수문자_일반주서
 62
     0
370
    -2
100
AcDbLine
 10
99.16933659074263
 20
13.91875000000009
 30
0.0
 11
99.16933659074263
 21
46.77275000000009
 31
0.0
  0
LINE
  5
225
330
21F
100
AcDbEntity
  8
치수문자_일반주서
 62
     0
370
    -2
100
AcDbLine
 10
99.16933659074263
 20
13.91875000000009
 30
0.0
 11
99.16933659074263
 21
12.33125000000009
 31
0.0
  0
LINE
  5
226
330
21F
100
AcDbEntity
  8
치수문자_일반주서
 62
     0
370
    -2
100
AcDbLine
 10
99.16933659074263
 20
17.22075000000009
 30
0.0
 11
99.16933659074263
 21
20.52275000000009
 31
0.0
  0
LINE
  5
227
330
21F
100
AcDbEntity
  8
치수문자_일반주서
 62
     0
370
    -2
100
AcDbLine
 10
99.16933659074263
 20
9.029250000000086
 30
0.0
 11
99.16933659074263
 21
5.727250000000087
 31
0.0
  0
SOLID
  5
228
330
21F
100
AcDbEntity
  8
치수문자_일반주서
 62
     0
100
AcDbTrace
 10
98.6190032574093
 20
17.22075000000009
 30
0.0
 11
99.71966992407596
 21
17.22075000000009
 31
0.0
 12
99.16933659074263
 22
13.91875000000009
 32
0.0
 13
99.16933659074263
 23
13.91875000000009
 33
0.0
  0
SOLID
  5
229
330
21F
100
AcDbEntity
  8
치수문자_일반주서
 62
     0
100
AcDbTrace
 10
99.71966992407596
 20
9.029250000000086
 30
0.0
 11
98.6190032574093
 21
9.029250000000086
 31
0.0
 12
99.16933659074263
 22
12.33125000000009
 32
0.0
 13
99.16933659074263
 23
12.33125000000009
 33
0.0
  0
MTEXT
  5
22A
330
21F
100
AcDbEntity
  8
치수문자_일반주서
 62
     0
100
AcDbMText
 10
94.79433659074263
 20
33.64775000000009
 30
0.0
 40
3.5
 41
0.0
 71
     2
 72
     1
  1
\A1;%%c1.59 [1/16]
  7
SLDTEXTSTYLE0
 11
0.0
 21
1.0
 31
0.0
 73
     1
 44
1.0
  0
POINT
  5
22B
330
21F
100
AcDbEntity
  8
Defpoints
 62
     0
100
AcDbPoint
 10
80.87500000000003
 20
13.91875000000002
 30
0.0
  0
POINT
  5
22C
330
21F
100
AcDbEntity
  8
Defpoints
 62
     0
100
AcDbPoint
 10
80.87500000000003
 20
12.33125000000002
 30
0.0
  0
POINT
  5
22D
330
21F
100
AcDbEntity
  8
Defpoints
 62
     0
100
AcDbPoint
 10
99.16933659074272
 20
12.33125000000009
 30
0.0
  0
ENDBLK
  5
221
330
21F
100
AcDbEntity
  8
0
100
AcDbBlockEnd
  0
BLOCK
  5
22F
330
22E
100
AcDbEntity
  8
0
100
AcDbBlockBegin
  2
*D8
 70
     1
 10
0.0
 20
0.0
 30
0.0
  3
*D8
  1
*D9
  0
LINE
  5
231
330
22E
100
AcDbEntity
  8
치수문자_일반주서
 62
     0
370
    -2
100
AcDbLine
 10
80.87500000000003
 20
13.98125000000002
 30
0.0
 11
80.87500000000003
 21
30.8300182332513
 31
0.0
  0
LINE
  5
232
330
22E
100
AcDbEntity
  8
치수문자_일반주서
 62
     0
370
    -2
100
AcDbLine
 10
75.31875000000002
 20
13.95985818024834
 30
0.0
 11
75.31875000000002
 21
30.8300182332513
 31
0.0
  0
LINE
  5
233
330
22E
100
AcDbEntity
  8
치수문자_일반주서
 62
     0
370
    -2
100
AcDbLine
 10
75.31875000000002
 20
30.8300182332513
 30
0.0
 11
34.04916259848753
 21
30.8300182332513
 31
0.0
  0
LINE
  5
234
330
22E
100
AcDbEntity
  8
치수문자_일반주서
 62
     0
370
    -2
100
AcDbLine
 10
80.87500000000003
 20
30.8300182332513
 30
0.0
 11
75.31875000000002
 21
30.8300182332513
 31
0.0
  0
LINE
  5
235
330
22E
100
AcDbEntity
  8
치수문자_일반주서
 62
     0
370
    -2
100
AcDbLine
 10
84.17700000000002
 20
30.8300182332513
 30
0.0
 11
87.47900000000001
 21
30.8300182332513
 31
0.0
  0
LINE
  5
236
330
22E
100
AcDbEntity
  8
치수문자_일반주서
 62
     0
370
    -2
100
AcDbLine
 10
72.01675000000003
 20
30.8300182332513
 30
0.0
 11
68.71475000000004
 21
30.8300182332513
 31
0.0
  0
SOLID
  5
237
330
22E
100
AcDbEntity
  8
치수문자_일반주서
 62
     0
100
AcDbTrace
 10
84.17700000000002
 20
31.38035156658463
 30
0.0
 11
84.17700000000002
 21
30.27968489991796
 31
0.0
 12
80.87500000000003
 22
30.8300182332513
 32
0.0
 13
80.87500000000003
 23
30.8300182332513
 33
0.0
  0
SOLID
  5
238
330
22E
100
AcDbEntity
  8
치수문자_일반주서
 62
     0
100
AcDbTrace
 10
72.01675000000003
 20
30.27968489991796
 30
0.0
 11
72.01675000000003
 21
31.38035156658463
 31
0.0
 12
75.31875000000002
 22
30.8300182332513
 32
0.0
 13
75.31875000000002
 23
30.8300182332513
 33
0.0
  0
MTEXT
  5
239
330
22E
100
AcDbEntity
  8
치수문자_일반주서
 62
     0
100
AcDbMText
 10
47.17416259848753
 20
35.20501823325129
 30
0.0
 40
3.5
 41
0.0
 71
     2
 72
     1
  1
\A1;5.56 [7/32]
  7
SLDTEXTSTYLE0
 73
     1
 44
1.0
  0
POINT
  5
23A
330
22E
100
AcDbEntity
  8
Defpoints
 62
     0
100
AcDbPoint
 10
80.87500000000003
 20
13.91875000000002
 30
0.0
  0
POINT
  5
23B
330
22E
100
AcDbEntity
  8
Defpoints
 62
     0
100
AcDbPoint
 10
75.31875000000002
 20
13.89735818024834
 30
0.0
  0
POINT
  5
23C
330
22E
100
AcDbEntity
  8
Defpoints
 62
     0
100
AcDbPoint
 10
75.31875000000002
 20
30.8300182332513
 30
0.0
  0
ENDBLK
  5
230
330
22E
100
AcDbEntity
  8
0
100
AcDbBlockEnd
  0
BLOCK
  5
23E
330
23D
100
AcDbEntity
  8
0
100
AcDbBlockBegin
  2
*D9
 70
     1
 10
0.0
 20
0.0
 30
0.0
  3
*D9
  1
*D10
  0
LINE
  5
240
330
23D
100
AcDbEntity
  8
치수문자_일반주서
 62
     0
370
    -2
100
AcDbLine
 10
80.87500000000003
 20
13.98125000000002
 30
0.0
 11
80.87500000000003
 21
43.7112232380325
 31
0.0
  0
LINE
  5
241
330
23D
100
AcDbEntity
  8
치수문자_일반주서
 62
     0
370
    -2
100
AcDbLine
 10
17.37500000000004
 20
13.98125000000002
 30
0.0
 11
17.37500000000004
 21
43.7112232380325
 31
0.0
  0
LINE
  5
242
330
23D
100
AcDbEntity
  8
치수문자_일반주서
 62
     0
370
    -2
100
AcDbLine
 10
77.57300000000004
 20
43.7112232380325
 30
0.0
 11
20.67700000000004
 21
43.7112232380325
 31
0.0
  0
SOLID
  5
243
330
23D
100
AcDbEntity
  8
치수문자_일반주서
 62
     0
100
AcDbTrace
 10
77.57300000000004
 20
43.16088990469917
 30
0.0
 11
77.57300000000004
 21
44.26155657136584
 31
0.0
 12
80.87500000000003
 22
43.7112232380325
 32
0.0
 13
80.87500000000003
 23
43.7112232380325
 33
0.0
  0
SOLID
  5
244
330
23D
100
AcDbEntity
  8
치수문자_일반주서
 62
     0
100
AcDbTrace
 10
20.67700000000004
 20
44.26155657136584
 30
0.0
 11
20.67700000000004
 21
43.16088990469917
 31
0.0
 12
17.37500000000004
 22
43.7112232380325
 32
0.0
 13
17.37500000000004
 23
43.7112232380325
 33
0.0
  0
MTEXT
  5
245
330
23D
100
AcDbEntity
  8
치수문자_일반주서
 62
     0
100
AcDbMText
 10
49.17297027164323
 20
48.0862232380325
 30
0.0
 40
3.5
 41
0.0
 71
     2
 72
     1
  1
\A1;63.5 [2 1/2]
  7
SLDTEXTSTYLE0
 73
     1
 44
1.0
  0
POINT
  5
246
330
23D
100
AcDbEntity
  8
Defpoints
 62
     0
100
AcDbPoint
 10
80.87500000000003
 20
13.91875000000002
 30
0.0
  0
POINT
  5
247
330
23D
100
AcDbEntity
  8
Defpoints
 62
     0
100
AcDbPoint
 10
17.37500000000004
 20
13.91875000000002
 30
0.0
  0
POINT
  5
248
330
23D
100
AcDbEntity
  8
Defpoints
 62
     0
100
AcDbPoint
 10
17.37500000000004
 20
43.7112232380325
 30
0.0
  0
ENDBLK
  5
23F
330
23D
100
AcDbEntity
  8
0
100
AcDbBlockEnd
  0
BLOCK
  5
24A
330
249
100
AcDbEntity
  8
0
100
AcDbBlockBegin
  2
*D10
 70
     1
 10
0.0
 20
0.0
 30
0.0
  3
*D10
  1
*D11
  0
LINE
  5
24C
330
249
100
AcDbEntity
  8
치수문자_일반주서
 62
     0
370
    -2
100
AcDbLine
 10
29.79338065701562
 20
15.50625000000002
 30
0.0
 11
4.375000000000035
 21
15.50624999999992
 31
0.0
  0
LINE
  5
24D
330
249
100
AcDbEntity
  8
치수문자_일반주서
 62
     0
370
    -2
100
AcDbLine
 10
29.79338065701564
 20
10.74375000000001
 30
0.0
 11
4.375000000000052
 21
10.74374999999992
 31
0.0
  0
LINE
  5
24E
330
249
100
AcDbEntity
  8
치수문자_일반주서
 62
     0
370
    -2
100
AcDbLine
 10
4.375000000000046
 20
12.20424999999992
 30
0.0
 11
4.37500000000004
 21
14.04574999999992
 31
0.0
  0
SOLID
  5
24F
330
249
100
AcDbEntity
  8
치수문자_일반주서
 62
     0
100
AcDbTrace
 10
4.92533333333338
 20
12.20424999999993
 30
0.0
 11
3.824666666666713
 21
12.20424999999992
 31
0.0
 12
4.375000000000035
 22
15.50624999999992
 32
0.0
 13
4.375000000000035
 23
15.50624999999992
 33
0.0
  0
SOLID
  5
250
330
249
100
AcDbEntity
  8
치수문자_일반주서
 62
     0
100
AcDbTrace
 10
3.824666666666707
 20
14.04574999999991
 30
0.0
 11
4.925333333333374
 21
14.04574999999992
 31
0.0
 12
4.375000000000052
 22
10.74374999999992
 32
0.0
 13
4.375000000000052
 23
10.74374999999992
 33
0.0
  0
MTEXT
  5
251
330
249
100
AcDbEntity
  8
치수문자_일반주서
 62
     0
100
AcDbMText
 10
0.0000000000000426
 20
13.125
 30
0.0
 40
3.5
 41
0.0
 71
     2
 72
     1
  1
\A1;%%c4.76 [3/16]
  7
SLDTEXTSTYLE0
 11
-3.543388970982122E-15
 21
1.0
 31
0.0
 73
     1
 44
1.0
  0
POINT
  5
252
330
249
100
AcDbEntity
  8
Defpoints
 62
     0
100
AcDbPoint
 10
29.85588065701562
 20
15.50625000000002
 30
0.0
  0
POINT
  5
253
330
249
100
AcDbEntity
  8
Defpoints
 62
     0
100
AcDbPoint
 10
29.85588065701564
 20
10.74375000000001
 30
0.0
  0
POINT
  5
254
330
249
100
AcDbEntity
  8
Defpoints
 62
     0
100
AcDbPoint
 10
4.37500000000005
 20
10.74374999999992
 30
0.0
  0
ENDBLK
  5
24B
330
249
100
AcDbEntity
  8
0
100
AcDbBlockEnd
  0
BLOCK
  5
2B6
330
2B5
100
AcDbEntity
  8
0
100
AcDbBlockBegin
  2
*D11
 70
     1
 10
0.0
 20
0.0
 30
0.0
  3
*D11
  1
*D12
  0
LINE
  5
2B8
330
2B5
100
AcDbEntity
  8
치수문자_일반주서
 62
     0
370
    -2
100
AcDbLine
 10
130.4068456926928
 20
-27.75856121323489
 30
0.0
 11
148.6386822834354
 21
-27.75856121323482
 31
0.0
  0
LINE
  5
2B9
330
2B5
100
AcDbEntity
  8
치수문자_일반주서
 62
     0
370
    -2
100
AcDbLine
 10
130.4068456926928
 20
-29.34606121323489
 30
0.0
 11
148.6386822834354
 21
-29.34606121323482
 31
0.0
  0
LINE
  5
2BA
330
2B5
100
AcDbEntity
  8
치수문자_일반주서
 62
     0
370
    -2
100
AcDbLine
 10
148.6386822834354
 20
-27.75856121323482
 30
0.0
 11
148.6386822834354
 21
5.095438786765179
 31
0.0
  0
LINE
  5
2BB
330
2B5
100
AcDbEntity
  8
치수문자_일반주서
 62
     0
370
    -2
100
AcDbLine
 10
148.6386822834354
 20
-27.75856121323482
 30
0.0
 11
148.6386822834354
 21
-29.34606121323482
 31
0.0
  0
LINE
  5
2BC
330
2B5
100
AcDbEntity
  8
치수문자_일반주서
 62
     0
370
    -2
100
AcDbLine
 10
148.6386822834354
 20
-24.45656121323482
 30
0.0
 11
148.6386822834354
 21
-21.15456121323482
 31
0.0
  0
LINE
  5
2BD
330
2B5
100
AcDbEntity
  8
치수문자_일반주서
 62
     0
370
    -2
100
AcDbLine
 10
148.6386822834354
 20
-32.64806121323483
 30
0.0
 11
148.6386822834354
 21
-35.95006121323483
 31
0.0
  0
SOLID
  5
2BE
330
2B5
100
AcDbEntity
  8
치수문자_일반주서
 62
     0
100
AcDbTrace
 10
148.0883489501021
 20
-24.45656121323482
 30
0.0
 11
149.1890156167687
 21
-24.45656121323482
 31
0.0
 12
148.6386822834354
 22
-27.75856121323482
 32
0.0
 13
148.6386822834354
 23
-27.75856121323482
 33
0.0
  0
SOLID
  5
2BF
330
2B5
100
AcDbEntity
  8
치수문자_일반주서
 62
     0
100
AcDbTrace
 10
149.1890156167687
 20
-32.64806121323483
 30
0.0
 11
148.0883489501021
 21
-32.64806121323483
 31
0.0
 12
148.6386822834354
 22
-29.34606121323482
 32
0.0
 13
148.6386822834354
 23
-29.34606121323482
 33
0.0
  0
MTEXT
  5
2C0
330
2B5
100
AcDbEntity
  8
치수문자_일반주서
 62
     0
100
AcDbMText
 10
144.2636822834354
 20
-8.029561213234821
 30
0.0
 40
3.5
 41
0.0
 71
     2
 72
     1
  1
\A1;%%c1.59 [1/16]
  7
SLDTEXTSTYLE0
 11
0.0
 21
1.0
 31
0.0
 73
     1
 44
1.0
  0
POINT
  5
2C1
330
2B5
100
AcDbEntity
  8
Defpoints
 62
     0
100
AcDbPoint
 10
130.3443456926928
 20
-27.75856121323489
 30
0.0
  0
POINT
  5
2C2
330
2B5
100
AcDbEntity
  8
Defpoints
 62
     0
100
AcDbPoint
 10
130.3443456926928
 20
-29.34606121323489
 30
0.0
  0
POINT
  5
2C3
330
2B5
100
AcDbEntity
  8
Defpoints
 62
     0
100
AcDbPoint
 10
148.6386822834354
 20
-29.34606121323482
 30
0.0
  0
ENDBLK
  5
2B7
330
2B5
100
AcDbEntity
  8
0
100
AcDbBlockEnd
  0
BLOCK
  5
2C5
330
2C4
100
AcDbEntity
  8
0
100
AcDbBlockBegin
  2
*D12
 70
     1
 10
0.0
 20
0.0
 30
0.0
  3
*D12
  1
*D13
  0
LINE
  5
2C7
330
2C4
100
AcDbEntity
  8
치수문자_일반주서
 62
     0
370
    -2
100
AcDbLine
 10
130.3443456926928
 20
-27.69606121323489
 30
0.0
 11
130.3443456926928
 21
-10.84729297998361
 31
0.0
  0
LINE
  5
2C8
330
2C4
100
AcDbEntity
  8
치수문자_일반주서
 62
     0
370
    -2
100
AcDbLine
 10
124.7880956926928
 20
-27.71745303298657
 30
0.0
 11
124.7880956926928
 21
-10.84729297998361
 31
0.0
  0
LINE
  5
2C9
330
2C4
100
AcDbEntity
  8
치수문자_일반주서
 62
     0
370
    -2
100
AcDbLine
 10
124.7880956926928
 20
-10.84729297998361
 30
0.0
 11
83.51850829118028
 21
-10.84729297998361
 31
0.0
  0
LINE
  5
2CA
330
2C4
100
AcDbEntity
  8
치수문자_일반주서
 62
     0
370
    -2
100
AcDbLine
 10
130.3443456926928
 20
-10.84729297998361
 30
0.0
 11
124.7880956926928
 21
-10.84729297998361
 31
0.0
  0
LINE
  5
2CB
330
2C4
100
AcDbEntity
  8
치수문자_일반주서
 62
     0
370
    -2
100
AcDbLine
 10
133.6463456926928
 20
-10.84729297998361
 30
0.0
 11
136.9483456926928
 21
-10.84729297998361
 31
0.0
  0
LINE
  5
2CC
330
2C4
100
AcDbEntity
  8
치수문자_일반주서
 62
     0
370
    -2
100
AcDbLine
 10
121.4860956926928
 20
-10.84729297998361
 30
0.0
 11
118.1840956926928
 21
-10.84729297998361
 31
0.0
  0
SOLID
  5
2CD
330
2C4
100
AcDbEntity
  8
치수문자_일반주서
 62
     0
100
AcDbTrace
 10
133.6463456926928
 20
-10.29695964665028
 30
0.0
 11
133.6463456926928
 21
-11.39762631331694
 31
0.0
 12
130.3443456926928
 22
-10.84729297998361
 32
0.0
 13
130.3443456926928
 23
-10.84729297998361
 33
0.0
  0
SOLID
  5
2CE
330
2C4
100
AcDbEntity
  8
치수문자_일반주서
 62
     0
100
AcDbTrace
 10
121.4860956926928
 20
-11.39762631331694
 30
0.0
 11
121.4860956926928
 21
-10.29695964665028
 31
0.0
 12
124.7880956926928
 22
-10.84729297998361
 32
0.0
 13
124.7880956926928
 23
-10.84729297998361
 33
0.0
  0
MTEXT
  5
2CF
330
2C4
100
AcDbEntity
  8
치수문자_일반주서
 62
     0
100
AcDbMText
 10
96.64350829118028
 20
-6.47229297998361
 30
0.0
 40
3.5
 41
0.0
 71
     2
 72
     1
  1
\A1;5.56 [7/32]
  7
SLDTEXTSTYLE0
 73
     1
 44
1.0
  0
POINT
  5
2D0
330
2C4
100
AcDbEntity
  8
Defpoints
 62
     0
100
AcDbPoint
 10
130.3443456926928
 20
-27.75856121323489
 30
0.0
  0
POINT
  5
2D1
330
2C4
100
AcDbEntity
  8
Defpoints
 62
     0
100
AcDbPoint
 10
124.7880956926928
 20
-27.77995303298657
 30
0.0
  0
POINT
  5
2D2
330
2C4
100
AcDbEntity
  8
Defpoints
 62
     0
100
AcDbPoint
 10
124.7880956926928
 20
-10.84729297998361
 30
0.0
  0
ENDBLK
  5
2C6
330
2C4
100
AcDbEntity
  8
0
100
AcDbBlockEnd
  0
BLOCK
  5
2D4
330
2D3
100
AcDbEntity
  8
0
100
AcDbBlockBegin
  2
*D13
 70
     1
 10
0.0
 20
0.0
 30
0.0
  3
*D13
  1
*D14
  0
LINE
  5
2D6
330
2D3
100
AcDbEntity
  8
치수문자_일반주서
 62
     0
370
    -2
100
AcDbLine
 10
130.3443456926928
 20
-27.69606121323489
 30
0.0
 11
130.3443456926928
 21
2.033912024797594
 31
0.0
  0
LINE
  5
2D7
330
2D3
100
AcDbEntity
  8
치수문자_일반주서
 62
     0
370
    -2
100
AcDbLine
 10
66.8443456926928
 20
-27.69606121323489
 30
0.0
 11
66.8443456926928
 21
2.033912024797594
 31
0.0
  0
LINE
  5
2D8
330
2D3
100
AcDbEntity
  8
치수문자_일반주서
 62
     0
370
    -2
100
AcDbLine
 10
127.0423456926928
 20
2.033912024797594
 30
0.0
 11
70.14634569269279
 21
2.033912024797594
 31
0.0
  0
SOLID
  5
2D9
330
2D3
100
AcDbEntity
  8
치수문자_일반주서
 62
     0
100
AcDbTrace
 10
127.0423456926928
 20
1.483578691464261
 30
0.0
 11
127.0423456926928
 21
2.584245358130927
 31
0.0
 12
130.3443456926928
 22
2.033912024797594
 32
0.0
 13
130.3443456926928
 23
2.033912024797594
 33
0.0
  0
SOLID
  5
2DA
330
2D3
100
AcDbEntity
  8
치수문자_일반주서
 62
     0
100
AcDbTrace
 10
70.14634569269279
 20
2.584245358130927
 30
0.0
 11
70.14634569269279
 21
1.483578691464261
 31
0.0
 12
66.8443456926928
 22
2.033912024797594
 32
0.0
 13
66.8443456926928
 23
2.033912024797594
 33
0.0
  0
MTEXT
  5
2DB
330
2D3
100
AcDbEntity
  8
치수문자_일반주서
 62
     0
100
AcDbMText
 10
98.64231596433598
 20
6.408912024797594
 30
0.0
 40
3.5
 41
0.0
 71
     2
 72
     1
  1
\A1;63.5 [2 1/2]
  7
SLDTEXTSTYLE0
 73
     1
 44
1.0
  0
POINT
  5
2DC
330
2D3
100
AcDbEntity
  8
Defpoints
 62
     0
100
AcDbPoint
 10
130.3443456926928
 20
-27.75856121323489
 30
0.0
  0
POINT
  5
2DD
330
2D3
100
AcDbEntity
  8
Defpoints
 62
     0
100
AcDbPoint
 10
66.8443456926928
 20
-27.75856121323489
 30
0.0
  0
POINT
  5
2DE
330
2D3
100
AcDbEntity
  8
Defpoints
 62
     0
100
AcDbPoint
 10
66.8443456926928
 20
2.033912024797594
 30
0.0
  0
ENDBLK
  5
2D5
330
2D3
100
AcDbEntity
  8
0
100
AcDbBlockEnd
  0
BLOCK
  5
2E0
330
2DF
100
AcDbEntity
  8
0
100
AcDbBlockBegin
  2
*D14
 70
     1
 10
0.0
 20
0.0
 30
0.0
  3
*D14
  1
*D15
  0
LINE
  5
2E2
330
2DF
100
AcDbEntity
  8
0
  6
Continuous
 62
     0
370
    -2
100
AcDbLine
 10
79.26272634970837
 20
-26.17106121323489
 30
0.0
 11
53.84434569269279
 21
-26.17106121323499
 31
0.0
  0
LINE
  5
2E3
330
2DF
100
AcDbEntity
  8
0
  6
Continuous
 62
     0
370
    -2
100
AcDbLine
 10
79.2627263497084
 20
-30.9335612132349
 30
0.0
 11
53.84434569269281
 21
-30.93356121323499
 31
0.0
  0
LINE
  5
2E4
330
2DF
100
AcDbEntity
  8
0
  6
Continuous
 62
     0
370
    -2
100
AcDbLine
 10
53.8443456926928
 20
-29.47306121323498
 30
0.0
 11
53.8443456926928
 21
-27.63156121323499
 31
0.0
  0
SOLID
  5
2E5
330
2DF
100
AcDbEntity
  8
0
 62
     0
100
AcDbTrace
 10
54.39467902602613
 20
-29.47306121323498
 30
0.0
 11
53.29401235935946
 21
-29.47306121323498
 31
0.0
 12
53.84434569269279
 22
-26.17106121323499
 32
0.0
 13
53.84434569269279
 23
-26.17106121323499
 33
0.0
  0
SOLID
  5
2E6
330
2DF
100
AcDbEntity
  8
0
 62
     0
100
AcDbTrace
 10
53.29401235935946
 20
-27.63156121323499
 30
0.0
 11
54.39467902602613
 21
-27.63156121323499
 31
0.0
 12
53.84434569269281
 22
-30.93356121323499
 32
0.0
 13
53.84434569269281
 23
-30.93356121323499
 33
0.0
  0
MTEXT
  5
2E7
330
2DF
100
AcDbEntity
  8
0
 62
     0
370
    25
100
AcDbMText
 10
49.4693456926928
 20
-28.5523112132349
 30
0.0
 40
3.5
 41
0.0
 71
     2
 72
     1
  1
\A1;%%c4.76 [3/16]
  7
SLDTEXTSTYLE0
 11
-2.983906501879682E-15
 21
1.0
 31
0.0
 73
     1
 44
1.0
  0
POINT
  5
2E8
330
2DF
100
AcDbEntity
  8
Defpoints
 62
     0
100
AcDbPoint
 10
79.32522634970837
 20
-26.17106121323489
 30
0.0
  0
POINT
  5
2E9
330
2DF
100
AcDbEntity
  8
Defpoints
 62
     0
100
AcDbPoint
 10
79.3252263497084
 20
-30.9335612132349
 30
0.0
  0
POINT
  5
2EA
330
2DF
100
AcDbEntity
  8
Defpoints
 62
     0
100
AcDbPoint
 10
53.84434569269281
 20
-30.93356121323499
 30
0.0
  0
ENDBLK
  5
2E1
330
2DF
100
AcDbEntity
  8
0
100
AcDbBlockEnd
  0
BLOCK
  5
379
330
378
100
AcDbEntity
  8
0
100
AcDbBlockBegin
  2
*D15
 70
     1
 10
0.0
 20
0.0
 30
0.0
  3
*D15
  1
*D17
  0
LINE
  5
37B
330
378
100
AcDbEntity
  8
치수문자_일반주서
 62
     0
370
    -2
100
AcDbLine
 10
64.6147636141663
 20
8.588374999999926
 30
0.0
 11
84.40478931357589
 21
8.588375
 31
0.0
  0
LINE
  5
37C
330
378
100
AcDbEntity
  8
치수문자_일반주서
 62
     0
370
    -2
100
AcDbLine
 10
64.6147636141663
 20
6.603999999999925
 30
0.0
 11
84.40478931357589
 21
6.603999999999999
 31
0.0
  0
LINE
  5
37D
330
378
100
AcDbEntity
  8
치수문자_일반주서
 62
     0
370
    -2
100
AcDbLine
 10
84.40478931357589
 20
8.588375
 30
0.0
 11
84.40478931357589
 21
43.192375
 31
0.0
  0
LINE
  5
37E
330
378
100
AcDbEntity
  8
치수문자_일반주서
 62
     0
370
    -2
100
AcDbLine
 10
84.40478931357589
 20
8.588375
 30
0.0
 11
84.40478931357589
 21
6.603999999999999
 31
0.0
  0
LINE
  5
37F
330
378
100
AcDbEntity
  8
치수문자_일반주서
 62
     0
370
    -2
100
AcDbLine
 10
84.40478931357589
 20
11.890375
 30
0.0
 11
84.40478931357589
 21
15.192375
 31
0.0
  0
LINE
  5
380
330
378
100
AcDbEntity
  8
치수문자_일반주서
 62
     0
370
    -2
100
AcDbLine
 10
84.40478931357589
 20
3.302
 30
0.0
 11
84.40478931357589
 21
0.0
 31
0.0
  0
SOLID
  5
381
330
378
100
AcDbEntity
  8
치수문자_일반주서
 62
     0
100
AcDbTrace
 10
83.85445598024256
 20
11.890375
 30
0.0
 11
84.95512264690922
 21
11.890375
 31
0.0
 12
84.40478931357589
 22
8.588375
 32
0.0
 13
84.40478931357589
 23
8.588375
 33
0.0
  0
SOLID
  5
382
330
378
100
AcDbEntity
  8
치수문자_일반주서
 62
     0
100
AcDbTrace
 10
84.95512264690922
 20
3.302
 30
0.0
 11
83.85445598024256
 21
3.302
 31
0.0
 12
84.40478931357589
 22
6.603999999999999
 32
0.0
 13
84.40478931357589
 23
6.603999999999999
 33
0.0
  0
MTEXT
  5
383
330
378
100
AcDbEntity
  8
치수문자_일반주서
 62
     0
100
AcDbMText
 10
80.02978931357589
 20
29.192375
 30
0.0
 40
3.5
 41
0.0
 71
     2
 72
     1
  1
\A1;%%c1.98 [5/64]
  7
SLDTEXTSTYLE0
 11
0.0
 21
1.0
 31
0.0
 73
     1
 44
1.0
  0
POINT
  5
384
330
378
100
AcDbEntity
  8
Defpoints
 62
     0
100
AcDbPoint
 10
64.5522636141663
 20
8.588374999999926
 30
0.0
  0
POINT
  5
385
330
378
100
AcDbEntity
  8
Defpoints
 62
     0
100
AcDbPoint
 10
64.5522636141663
 20
6.603999999999925
 30
0.0
  0
POINT
  5
386
330
378
100
AcDbEntity
  8
Defpoints
 62
     0
100
AcDbPoint
 10
84.40478931357598
 20
6.604
 30
0.0
  0
ENDBLK
  5
37A
330
378
100
AcDbEntity
  8
0
100
AcDbBlockEnd
  0
BLOCK
  5
388
330
387
100
AcDbEntity
  8
0
100
AcDbBlockBegin
  2
*D16
 70
     1
 10
0.0
 20
0.0
 30
0.0
  3
*D16
  1
*D18
  0
LINE
  5
38A
330
387
100
AcDbEntity
  8
치수문자_일반주서
 62
     0
370
    -2
100
AcDbLine
 10
66.5
 20
8.647226321281934
 30
0.0
 11
66.5
 21
23.73801616367805
 31
0.0
  0
LINE
  5
38B
330
387
100
AcDbEntity
  8
치수문자_일반주서
 62
     0
370
    -2
100
AcDbLine
 10
60.15
 20
8.488988049182069
 30
0.0
 11
60.15
 21
23.73801616367805
 31
0.0
  0
LINE
  5
38C
330
387
100
AcDbEntity
  8
치수문자_일반주서
 62
     0
370
    -2
100
AcDbLine
 10
60.15
 20
23.73801616367805
 30
0.0
 11
25.34652398584676
 21
23.73801616367805
 31
0.0
  0
LINE
  5
38D
330
387
100
AcDbEntity
  8
치수문자_일반주서
 62
     0
370
    -2
100
AcDbLine
 10
66.5
 20
23.73801616367805
 30
0.0
 11
60.15
 21
23.73801616367805
 31
0.0
  0
LINE
  5
38E
330
387
100
AcDbEntity
  8
치수문자_일반주서
 62
     0
370
    -2
100
AcDbLine
 10
69.80199999999999
 20
23.73801616367805
 30
0.0
 11
73.10399999999998
 21
23.73801616367805
 31
0.0
  0
LINE
  5
38F
330
387
100
AcDbEntity
  8
치수문자_일반주서
 62
     0
370
    -2
100
AcDbLine
 10
56.848
 20
23.73801616367805
 30
0.0
 11
53.546
 21
23.73801616367805
 31
0.0
  0
SOLID
  5
390
330
387
100
AcDbEntity
  8
치수문자_일반주서
 62
     0
100
AcDbTrace
 10
69.80199999999999
 20
24.28834949701138
 30
0.0
 11
69.80199999999999
 21
23.18768283034471
 31
0.0
 12
66.5
 22
23.73801616367805
 32
0.0
 13
66.5
 23
23.73801616367805
 33
0.0
  0
SOLID
  5
391
330
387
100
AcDbEntity
  8
치수문자_일반주서
 62
     0
100
AcDbTrace
 10
56.848
 20
23.18768283034471
 30
0.0
 11
56.848
 21
24.28834949701138
 31
0.0
 12
60.15
 22
23.73801616367805
 32
0.0
 13
60.15
 23
23.73801616367805
 33
0.0
  0
MTEXT
  5
392
330
387
100
AcDbEntity
  8
치수문자_일반주서
 62
     0
100
AcDbMText
 10
36.72152398584676
 20
28.11301616367805
 30
0.0
 40
3.5
 41
0.0
 71
     2
 72
     1
  1
\A1;6.35 [1/4]
  7
SLDTEXTSTYLE0
 73
     1
 44
1.0
  0
POINT
  5
393
330
387
100
AcDbEntity
  8
Defpoints
 62
     0
100
AcDbPoint
 10
66.5
 20
8.584726321281934
 30
0.0
  0
POINT
  5
394
330
387
100
AcDbEntity
  8
Defpoints
 62
     0
100
AcDbPoint
 10
60.15
 20
8.426488049182069
 30
0.0
  0
POINT
  5
395
330
387
100
AcDbEntity
  8
Defpoints
 62
     0
100
AcDbPoint
 10
60.15
 20
23.73801616367805
 30
0.0
  0
ENDBLK
  5
389
330
387
100
AcDbEntity
  8
0
100
AcDbBlockEnd
  0
BLOCK
  5
397
330
396
100
AcDbEntity
  8
0
100
AcDbBlockBegin
  2
*D17
 70
     1
 10
0.0
 20
0.0
 30
0.0
  3
*D17
  1
*D19
  0
LINE
  5
399
330
396
100
AcDbEntity
  8
치수문자_일반주서
 62
     0
370
    -2
100
AcDbLine
 10
66.5
 20
8.647226321281934
 30
0.0
 11
66.5
 21
35.6965517597622
 31
0.0
  0
LINE
  5
39A
330
396
100
AcDbEntity
  8
치수문자_일반주서
 62
     0
370
    -2
100
AcDbLine
 10
3.000000000000007
 20
9.563687499999928
 30
0.0
 11
3.000000000000007
 21
35.6965517597622
 31
0.0
  0
LINE
  5
39B
330
396
100
AcDbEntity
  8
치수문자_일반주서
 62
     0
370
    -2
100
AcDbLine
 10
63.198
 20
35.6965517597622
 30
0.0
 11
6.302000000000007
 21
35.6965517597622
 31
0.0
  0
SOLID
  5
39C
330
396
100
AcDbEntity
  8
치수문자_일반주서
 62
     0
100
AcDbTrace
 10
63.198
 20
35.14621842642887
 30
0.0
 11
63.198
 21
36.24688509309554
 31
0.0
 12
66.5
 22
35.6965517597622
 32
0.0
 13
66.5
 23
35.6965517597622
 33
0.0
  0
SOLID
  5
39D
330
396
100
AcDbEntity
  8
치수문자_일반주서
 62
     0
100
AcDbTrace
 10
6.302000000000007
 20
36.24688509309554
 30
0.0
 11
6.302000000000007
 21
35.14621842642887
 31
0.0
 12
3.000000000000007
 22
35.6965517597622
 32
0.0
 13
3.000000000000007
 23
35.6965517597622
 33
0.0
  0
MTEXT
  5
39E
330
396
100
AcDbEntity
  8
치수문자_일반주서
 62
     0
100
AcDbMText
 10
33.12980057097656
 20
40.0715517597622
 30
0.0
 40
3.5
 41
0.0
 71
     2
 72
     1
  1
\A1;63.5 [2 1/2]
  7
SLDTEXTSTYLE0
 73
     1
 44
1.0
  0
POINT
  5
39F
330
396
100
AcDbEntity
  8
Defpoints
 62
     0
100
AcDbPoint
 10
66.5
 20
8.584726321281934
 30
0.0
  0
POINT
  5
3A0
330
396
100
AcDbEntity
  8
Defpoints
 62
     0
100
AcDbPoint
 10
3.000000000000007
 20
9.501187499999928
 30
0.0
  0
POINT
  5
3A1
330
396
100
AcDbEntity
  8
Defpoints
 62
     0
100
AcDbPoint
 10
3.000000000000007
 20
35.6965517597622
 30
0.0
  0
ENDBLK
  5
398
330
396
100
AcDbEntity
  8
0
100
AcDbBlockEnd
  0
BLOCK
  5
3D5
330
3D4
100
AcDbEntity
  8
0
100
AcDbBlockBegin
  2
*D18
 70
     1
 10
0.0
 20
0.0
 30
0.0
  3
*D18
  1
*D20
  0
LINE
  5
3D7
330
3D4
100
AcDbEntity
  8
치수문자_일반주서
 62
     0
370
    -2
100
AcDbLine
 10
184.9218803663841
 20
-47.7878323006264
 30
0.0
 11
204.7119060657937
 21
-47.78783230062633
 31
0.0
  0
LINE
  5
3D8
330
3D4
100
AcDbEntity
  8
치수문자_일반주서
 62
     0
370
    -2
100
AcDbLine
 10
184.9218803663841
 20
-49.7722073006264
 30
0.0
 11
204.7119060657937
 21
-49.77220730062633
 31
0.0
  0
LINE
  5
3D9
330
3D4
100
AcDbEntity
  8
치수문자_일반주서
 62
     0
370
    -2
100
AcDbLine
 10
204.7119060657937
 20
-47.78783230062633
 30
0.0
 11
204.7119060657937
 21
-13.18383230062633
 31
0.0
  0
LINE
  5
3DA
330
3D4
100
AcDbEntity
  8
치수문자_일반주서
 62
     0
370
    -2
100
AcDbLine
 10
204.7119060657937
 20
-47.78783230062633
 30
0.0
 11
204.7119060657937
 21
-49.77220730062633
 31
0.0
  0
LINE
  5
3DB
330
3D4
100
AcDbEntity
  8
치수문자_일반주서
 62
     0
370
    -2
100
AcDbLine
 10
204.7119060657937
 20
-44.48583230062633
 30
0.0
 11
204.7119060657937
 21
-41.18383230062633
 31
0.0
  0
LINE
  5
3DC
330
3D4
100
AcDbEntity
  8
치수문자_일반주서
 62
     0
370
    -2
100
AcDbLine
 10
204.7119060657937
 20
-53.07420730062633
 30
0.0
 11
204.7119060657937
 21
-56.37620730062633
 31
0.0
  0
SOLID
  5
3DD
330
3D4
100
AcDbEntity
  8
치수문자_일반주서
 62
     0
100
AcDbTrace
 10
204.1615727324604
 20
-44.48583230062633
 30
0.0
 11
205.262239399127
 21
-44.48583230062633
 31
0.0
 12
204.7119060657937
 22
-47.78783230062633
 32
0.0
 13
204.7119060657937
 23
-47.78783230062633
 33
0.0
  0
SOLID
  5
3DE
330
3D4
100
AcDbEntity
  8
치수문자_일반주서
 62
     0
100
AcDbTrace
 10
205.262239399127
 20
-53.07420730062633
 30
0.0
 11
204.1615727324604
 21
-53.07420730062633
 31
0.0
 12
204.7119060657937
 22
-49.77220730062633
 32
0.0
 13
204.7119060657937
 23
-49.77220730062633
 33
0.0
  0
MTEXT
  5
3DF
330
3D4
100
AcDbEntity
  8
치수문자_일반주서
 62
     0
100
AcDbMText
 10
200.3369060657937
 20
-27.18383230062633
 30
0.0
 40
3.5
 41
0.0
 71
     2
 72
     1
  1
\A1;%%c1.98 [5/64]
  7
SLDTEXTSTYLE0
 11
0.0
 21
1.0
 31
0.0
 73
     1
 44
1.0
  0
POINT
  5
3E0
330
3D4
100
AcDbEntity
  8
Defpoints
 62
     0
100
AcDbPoint
 10
184.8593803663841
 20
-47.7878323006264
 30
0.0
  0
POINT
  5
3E1
330
3D4
100
AcDbEntity
  8
Defpoints
 62
     0
100
AcDbPoint
 10
184.8593803663841
 20
-49.7722073006264
 30
0.0
  0
POINT
  5
3E2
330
3D4
100
AcDbEntity
  8
Defpoints
 62
     0
100
AcDbPoint
 10
204.7119060657937
 20
-49.77220730062633
 30
0.0
  0
ENDBLK
  5
3D6
330
3D4
100
AcDbEntity
  8
0
100
AcDbBlockEnd
  0
BLOCK
  5
3E4
330
3E3
100
AcDbEntity
  8
0
100
AcDbBlockBegin
  2
*D19
 70
     1
 10
0.0
 20
0.0
 30
0.0
  3
*D19
  1
*D21
  0
LINE
  5
3E6
330
3E3
100
AcDbEntity
  8
치수문자_일반주서
 62
     0
370
    -2
100
AcDbLine
 10
186.8071167522178
 20
-47.72898097934439
 30
0.0
 11
186.8071167522178
 21
-32.63819113694828
 31
0.0
  0
LINE
  5
3E7
330
3E3
100
AcDbEntity
  8
치수문자_일반주서
 62
     0
370
    -2
100
AcDbLine
 10
180.4571167522178
 20
-47.88721925144426
 30
0.0
 11
180.4571167522178
 21
-32.63819113694828
 31
0.0
  0
LINE
  5
3E8
330
3E3
100
AcDbEntity
  8
치수문자_일반주서
 62
     0
370
    -2
100
AcDbLine
 10
180.4571167522178
 20
-32.63819113694828
 30
0.0
 11
145.6536407380646
 21
-32.63819113694828
 31
0.0
  0
LINE
  5
3E9
330
3E3
100
AcDbEntity
  8
치수문자_일반주서
 62
     0
370
    -2
100
AcDbLine
 10
186.8071167522178
 20
-32.63819113694828
 30
0.0
 11
180.4571167522178
 21
-32.63819113694828
 31
0.0
  0
LINE
  5
3EA
330
3E3
100
AcDbEntity
  8
치수문자_일반주서
 62
     0
370
    -2
100
AcDbLine
 10
190.1091167522178
 20
-32.63819113694828
 30
0.0
 11
193.4111167522178
 21
-32.63819113694828
 31
0.0
  0
LINE
  5
3EB
330
3E3
100
AcDbEntity
  8
치수문자_일반주서
 62
     0
370
    -2
100
AcDbLine
 10
177.1551167522178
 20
-32.63819113694828
 30
0.0
 11
173.8531167522178
 21
-32.63819113694828
 31
0.0
  0
SOLID
  5
3EC
330
3E3
100
AcDbEntity
  8
치수문자_일반주서
 62
     0
100
AcDbTrace
 10
190.1091167522178
 20
-32.08785780361494
 30
0.0
 11
190.1091167522178
 21
-33.18852447028161
 31
0.0
 12
186.8071167522178
 22
-32.63819113694828
 32
0.0
 13
186.8071167522178
 23
-32.63819113694828
 33
0.0
  0
SOLID
  5
3ED
330
3E3
100
AcDbEntity
  8
치수문자_일반주서
 62
     0
100
AcDbTrace
 10
177.1551167522178
 20
-33.18852447028161
 30
0.0
 11
177.1551167522178
 21
-32.08785780361494
 31
0.0
 12
180.4571167522178
 22
-32.63819113694828
 32
0.0
 13
180.4571167522178
 23
-32.63819113694828
 33
0.0
  0
MTEXT
  5
3EE
330
3E3
100
AcDbEntity
  8
치수문자_일반주서
 62
     0
100
AcDbMText
 10
157.0286407380646
 20
-28.26319113694828
 30
0.0
 40
3.5
 41
0.0
 71
     2
 72
     1
  1
\A1;6.35 [1/4]
  7
SLDTEXTSTYLE0
 73
     1
 44
1.0
  0
POINT
  5
3EF
330
3E3
100
AcDbEntity
  8
Defpoints
 62
     0
100
AcDbPoint
 10
186.8071167522178
 20
-47.79148097934439
 30
0.0
  0
POINT
  5
3F0
330
3E3
100
AcDbEntity
  8
Defpoints
 62
     0
100
AcDbPoint
 10
180.4571167522178
 20
-47.94971925144426
 30
0.0
  0
POINT
  5
3F1
330
3E3
100
AcDbEntity
  8
Defpoints
 62
     0
100
AcDbPoint
 10
180.4571167522178
 20
-32.63819113694828
 30
0.0
  0
ENDBLK
  5
3E5
330
3E3
100
AcDbEntity
  8
0
100
AcDbBlockEnd
  0
BLOCK
  5
3F3
330
3F2
100
AcDbEntity
  8
0
100
AcDbBlockBegin
  2
*D20
 70
     1
 10
0.0
 20
0.0
 30
0.0
  3
*D20
  1
*D22
  0
LINE
  5
3F5
330
3F2
100
AcDbEntity
  8
치수문자_일반주서
 62
     0
370
    -2
100
AcDbLine
 10
186.8071167522178
 20
-47.72898097934439
 30
0.0
 11
186.8071167522178
 21
-20.67965554086413
 31
0.0
  0
LINE
  5
3F6
330
3F2
100
AcDbEntity
  8
치수문자_일반주서
 62
     0
370
    -2
100
AcDbLine
 10
123.3071167522178
 20
-46.8125198006264
 30
0.0
 11
123.3071167522178
 21
-20.67965554086413
 31
0.0
  0
LINE
  5
3F7
330
3F2
100
AcDbEntity
  8
치수문자_일반주서
 62
     0
370
    -2
100
AcDbLine
 10
183.5051167522178
 20
-20.67965554086413
 30
0.0
 11
126.6091167522178
 21
-20.67965554086413
 31
0.0
  0
SOLID
  5
3F8
330
3F2
100
AcDbEntity
  8
치수문자_일반주서
 62
     0
100
AcDbTrace
 10
183.5051167522178
 20
-21.22998887419746
 30
0.0
 11
183.5051167522178
 21
-20.12932220753079
 31
0.0
 12
186.8071167522178
 22
-20.67965554086413
 32
0.0
 13
186.8071167522178
 23
-20.67965554086413
 33
0.0
  0
SOLID
  5
3F9
330
3F2
100
AcDbEntity
  8
치수문자_일반주서
 62
     0
100
AcDbTrace
 10
126.6091167522178
 20
-20.12932220753079
 30
0.0
 11
126.6091167522178
 21
-21.22998887419746
 31
0.0
 12
123.3071167522178
 22
-20.67965554086413
 32
0.0
 13
123.3071167522178
 23
-20.67965554086413
 33
0.0
  0
MTEXT
  5
3FA
330
3F2
100
AcDbEntity
  8
치수문자_일반주서
 62
     0
100
AcDbMText
 10
153.4369173231944
 20
-16.30465554086413
 30
0.0
 40
3.5
 41
0.0
 71
     2
 72
     1
  1
\A1;63.5 [2 1/2]
  7
SLDTEXTSTYLE0
 73
     1
 44
1.0
  0
POINT
  5
3FB
330
3F2
100
AcDbEntity
  8
Defpoints
 62
     0
100
AcDbPoint
 10
186.8071167522178
 20
-47.79148097934439
 30
0.0
  0
POINT
  5
3FC
330
3F2
100
AcDbEntity
  8
Defpoints
 62
     0
100
AcDbPoint
 10
123.3071167522178
 20
-46.8750198006264
 30
0.0
  0
POINT
  5
3FD
330
3F2
100
AcDbEntity
  8
Defpoints
 62
     0
100
AcDbPoint
 10
123.3071167522178
 20
-20.67965554086413
 30
0.0
  0
ENDBLK
  5
3F4
330
3F2
100
AcDbEntity
  8
0
100
AcDbBlockEnd
  0
ENDSEC
  0
SECTION
  2
ENTITIES
  0
LINE
  5
96
330
1F
100
AcDbEntity
  8
0
  6
Continuous
 62
     1
370
    25
100
AcDbLine
 10
26.15847051857954
 20
0.2009335563059322
 30
0.0
 11
25.96137936891496
 21
0.3049237604673403
 31
0.0
  0
LINE
  5
97
330
1F
100
AcDbEntity
  8
0
  6
Continuous
 62
     1
370
    25
100
AcDbLine
 10
31.39272990112141
 20
0.2872969327112273
 30
0.0
 11
31.36641466430256
 21
0.3015643033220686
 31
0.0
  0
LINE
  5
98
330
1F
100
AcDbEntity
  8
0
  6
Continuous
 62
     1
370
    25
100
AcDbLine
 10
30.18286911322499
 20
-0.2220480709539079
 30
0.0
 11
30.32784195037776
 21
-0.2979967639723423
 31
0.0
  0
LINE
  5
99
330
1F
100
AcDbEntity
  8
0
  6
Continuous
 62
     1
370
    25
100
AcDbLine
 10
29.19856568626108
 20
-0.9921875000000008
 30
0.0
 11
29.80335960826039
 21
-0.9921875000000008
 31
0.0
  0
LINE
  5
9A
330
1F
100
AcDbEntity
  8
0
  6
Continuous
 62
     1
370
    25
100
AcDbLine
 10
27.10317592955737
 20
0.9921875000000001
 30
0.0
 11
26.49787790502128
 21
0.9921875000000001
 31
0.0
  0
LINE
  5
9B
330
1F
100
AcDbEntity
  8
0
  6
Continuous
 62
     1
370
    25
100
AcDbLine
 10
29.80335960826039
 20
0.9921875000000001
 30
0.0
 11
29.19856568626108
 21
0.9921875000000001
 31
0.0
  0
LINE
  5
9C
330
1F
100
AcDbEntity
  8
0
  6
Continuous
 62
     1
370
    25
100
AcDbLine
 10
26.49787790502128
 20
-0.9921875000000008
 30
0.0
 11
27.10317592955735
 21
-0.9921875000000008
 31
0.0
  0
LINE
  5
9D
330
1F
100
AcDbEntity
  8
외형선
  6
Continuous
370
    15
100
AcDbLine
 10
19.21594817511134
 20
-2.381250000000007
 30
0.0
 11
24.4
 21
-0.9921875000000003
 31
0.0
  0
LINE
  5
9E
330
1F
100
AcDbEntity
  8
외형선
  6
Continuous
370
    15
100
AcDbLine
 10
24.4
 20
0.9921874999999997
 30
0.0
 11
19.21594817511134
 21
2.381250000000006
 31
0.0
  0
LINE
  5
9F
330
1F
100
AcDbEntity
  8
외형선
  6
Continuous
370
    15
100
AcDbLine
 10
-19.21594817511136
 20
-2.381250000000003
 30
0.0
 11
19.21594817511134
 21
-2.381250000000003
 31
0.0
  0
LINE
  5
A0
330
1F
100
AcDbEntity
  8
외형선
  6
Continuous
370
    15
100
AcDbLine
 10
19.21594817511134
 20
2.381250000000003
 30
0.0
 11
-19.21594817511136
 21
2.381250000000003
 31
0.0
  0
LINE
  5
A3
330
1F
100
AcDbEntity
  8
외형선
  6
Continuous
370
    15
100
AcDbLine
 10
24.4
 20
-0.9921875000000003
 30
0.0
 11
24.9001578626421
 21
-0.9921875000000003
 31
0.0
  0
LINE
  5
A4
330
1F
100
AcDbEntity
  8
외형선
  6
Continuous
370
    15
100
AcDbLine
 10
24.9001578626421
 20
0.9921874999999997
 30
0.0
 11
24.4
 21
0.9921874999999997
 31
0.0
  0
SPLINE
  5
A5
330
1F
100
AcDbEntity
  8
0
  6
Continuous
 62
     1
370
    25
100
AcDbSpline
210
0.0
220
0.0
230
1.0
 70
     8
 71
     3
 72
    12
 73
     8
 74
     0
 42
0.000000001
 43
0.00000001
 40
0.0
 40
0.0
 40
0.0
 40
0.0
 40
0.2161610539381808
 40
0.43234489144958
 40
0.6486381275703105
 40
0.8651261920063765
 40
1.0
 40
1.0
 40
1.0
 40
1.0
 10
25.3999999999959
 20
-0.5431731152974538
 30
0.0
 10
25.59731423704632
 20
-0.6322507481845718
 30
0.0
 10
25.99196350824863
 20
-0.8104154028229628
 30
0.0
 10
26.58404908375199
 20
-0.9661816581424286
 30
0.0
 10
27.17650264573455
 20
-1.008762023017694
 30
0.0
 10
27.69479728602346
 20
-0.9542497063629931
 30
0.0
 10
28.01571474287877
 20
-0.8469835544416315
 30
0.0
 10
28.1389021540751
 20
-0.8058083572626844
 30
0.0
  0
SPLINE
  5
A6
330
1F
100
AcDbEntity
  8
외형선
  6
Continuous
370
    15
100
AcDbSpline
210
0.0
220
0.0
230
1.0
 70
    24
 71
     3
 72
    20
 73
    16
 74
     0
 42
0.000000001
 43
0.00000001
 40
0.0
 40
0.0
 40
0.0
 40
0.0
 40
0.1249999999999999
 40
0.1249999999999999
 40
0.2499999999999998
 40
0.2499999999999998
 40
0.5
 40
0.5
 40
0.6250000000000001
 40
0.6250000000000001
 40
0.7500000000000002
 40
0.7500000000000002
 40
0.8750000000000001
 40
0.8750000000000001
 40
1.0
 40
1.0
 40
1.0
 40
1.0
 10
25.40000000000002
 20
0.592097252782472
 30
0.0
 10
25.40000000000004
 20
0.5763521605057224
 30
0.0
 10
25.40000000000002
 20
0.5568061178638016
 30
0.0
 10
25.40000000000003
 20
0.515357723392469
 30
0.0
 10
25.40000000000001
 20
0.4892546519610242
 30
0.0
 10
25.40000000000001
 20
0.3887298580242692
 30
0.0
 10
25.40000000000002
 20
0.2889997694945233
 30
0.0
 10
25.40000000000001
 20
0.0906272828196433
 30
0.0
 10
25.39999999999998
 20
0.0170857681433372
 30
0.0
 10
25.40000000000001
 20
-0.1323593148534385
 30
0.0
 10
25.39999999999998
 20
-0.2079391081061616
 30
0.0
 10
25.39999999999999
 20
-0.3431262626469371
 30
0.0
 10
25.39999999999996
 20
-0.4023392010735956
 30
0.0
 10
25.40000000000001
 20
-0.4930726804736977
 30
0.0
 10
25.40000000000003
 20
-0.5246289907808688
 30
0.0
 10
25.40000000000002
 20
-0.5431731152994211
 30
0.0
  0
SPLINE
  5
A7
330
1F
100
AcDbEntity
  8
0
  6
Continuous
 62
     1
370
    25
100
AcDbSpline
210
0.0
220
0.0
230
1.0
 70
     8
 71
     3
 72
    14
 73
    10
 74
     0
 42
0.000000001
 43
0.00000001
 40
0.0
 40
0.0
 40
0.0
 40
0.0
 40
0.1083373881433103
 40
0.2642449990461829
 40
0.4114263457864014
 40
0.5589197881581389
 40
0.7061469955952495
 40
0.8531155852633538
 40
1.0
 40
1.0
 40
1.0
 40
1.0
 10
29.19856568626108
 20
-0.9797365616755267
 30
0.0
 10
29.0614057954928
 20
-0.9791920238702174
 30
0.0
 10
28.72686002300937
 20
-0.9778638453502203
 30
0.0
 10
28.20590389602645
 20
-0.8442240615722972
 30
0.0
 10
27.63543670692535
 20
-0.6206912290517039
 30
0.0
 10
27.07549718242653
 20
-0.3327252603081038
 30
0.0
 10
26.51619643646176
 20
-0.0117397473430222
 30
0.0
 10
25.95785687626301
 20
0.3151128424662591
 30
0.0
 10
25.58591677769302
 20
0.4997867494465416
 30
0.0
 10
25.39999999999591
 20
0.5920972527843461
 30
0.0
  0
SPLINE
  5
A8
330
1F
100
AcDbEntity
  8
0
  6
Continuous
 62
     1
370
    25
100
AcDbSpline
210
0.0
220
0.0
230
1.0
 70
     8
 71
     3
 72
    17
 73
    13
 74
     0
 42
0.000000001
 43
0.00000001
 40
0.0
 40
0.0
 40
0.0
 40
0.0
 40
0.1085766296778196
 40
0.2171647034319268
 40
0.3258077275671367
 40
0.4345486130027941
 40
0.5434250781271445
 40
0.6522582129513023
 40
0.7547446078094487
 40
0.8570974435111833
 40
0.9594390478893607
 40
1.0
 40
1.0
 40
1.0
 40
1.0
 10
25.39999999999587
 20
0.8303005491834379
 30
0.0
 10
25.59731419800677
 20
0.7582951150263618
 30
0.0
 10
25.9919633911259
 20
0.6142766572734506
 30
0.0
 10
26.58404955239918
 20
0.2997136405437893
 30
0.0
 10
27.17650088665163
 20
-0.0431896673790845
 30
0.0
 10
27.76956779882002
 20
-0.3830004462408407
 30
0.0
 10
28.36318772863638
 20
-0.677140200464547
 30
0.0
 10
28.94539592483893
 20
-0.8872305975060311
 30
0.0
 10
29.51543280049902
 20
-0.9965191558815718
 30
0.0
 10
30.07354150644866
 20
-0.9940488753562324
 30
0.0
 10
30.5190947986437
 20
-0.9243619205597957
 30
0.0
 10
30.7787959733983
 20
-0.8294503010036982
 30
0.0
 10
30.85250862886869
 20
-0.8025109253189858
 30
0.0
  0
SPLINE
  5
A9
330
1F
100
AcDbEntity
  8
0
  6
Continuous
 62
     1
370
    25
100
AcDbSpline
210
0.0
220
0.0
230
1.0
 70
     8
 71
     3
 72
    18
 73
    14
 74
     0
 42
0.000000001
 43
0.00000001
 40
0.0
 40
0.0
 40
0.0
 40
0.0
 40
0.0942448087813159
 40
0.188374165493282
 40
0.2824244753514857
 40
0.3764329951335179
 40
0.4704374347445376
 40
0.5644755484392596
 40
0.6532502794376162
 40
0.7422132557968659
 40
0.8310156483917506
 40
0.919662051634836
 40
1.0
 40
1.0
 40
1.0
 40
1.0
 10
31.74999999999999
 20
-0.992187499999996
 30
0.0
 10
31.5520648605294
 20
-0.9673301061754538
 30
0.0
 10
31.15643705670951
 20
-0.924938657128615
 30
0.0
 10
30.56347770411091
 20
-0.7211166841810214
 30
0.0
 10
29.97110153591766
 20
-0.4407792777497683
 30
0.0
 10
29.37904098343935
 20
-0.1063611579373581
 30
0.0
 10
28.78702174076635
 20
0.2399578296883816
 30
0.0
 10
28.20590438186009
 20
0.552273950097951
 30
0.0
 10
27.63543658723687
 20
0.7970201310472639
 30
0.0
 10
27.07549718583503
 20
0.9536593240199612
 30
0.0
 10
26.51619654206808
 20
1.008473975544916
 30
0.0
 10
25.97518662348626
 20
0.9665318711105626
 30
0.0
 10
25.62057492931173
 20
0.860362543877932
 30
0.0
 10
25.45198668013275
 20
0.809887894314209
 30
0.0
  0
LINE
  5
AA
330
1F
100
AcDbEntity
  8
0
  6
Continuous
 62
     1
370
    25
100
AcDbLine
 10
31.75
 20
-0.8986057137146858
 30
0.0
 11
31.75
 21
0.0850119637146971
 31
0.0
  0
SPLINE
  5
AB
330
1F
100
AcDbEntity
  8
0
  6
Continuous
 62
     1
370
    25
100
AcDbSpline
210
0.0
220
0.0
230
1.0
 70
     8
 71
     3
 72
    16
 73
    12
 74
     0
 42
0.000000001
 43
0.00000001
 40
0.0
 40
0.0
 40
0.0
 40
0.0
 40
0.0157454810036498
 40
0.1433476487091137
 40
0.2711089126193348
 40
0.3988193305187827
 40
0.5190821561507798
 40
0.6391882565749025
 40
0.7592811775842476
 40
0.8795047479757008
 40
1.0
 40
1.0
 40
1.0
 40
1.0
 10
27.10317592955737
 20
0.985843976464096
 30
0.0
 10
27.12756319225269
 20
0.9878934576340782
 30
0.0
 10
27.34958605487694
 20
1.00655203698916
 30
0.0
 10
27.76957287838511
 20
0.9295253231102146
 30
0.0
 10
28.3631865268136
 20
0.7541776605821957
 30
0.0
 10
28.94539563437784
 20
0.483611205440342
 30
0.0
 10
29.51543492721881
 20
0.1688401116060481
 30
0.0
 10
30.07353325369989
 20
-0.1586431316318718
 30
0.0
 10
30.63156432624595
 20
-0.4674636148549084
 30
0.0
 10
31.19029396988403
 20
-0.7342218768885501
 30
0.0
 10
31.56329099852245
 20
-0.8437698885110534
 30
0.0
 10
31.75000000000001
 20
-0.8986057137146859
 30
0.0
  0
SPLINE
  5
AC
330
1F
100
AcDbEntity
  8
0
  6
Continuous
 62
     1
370
    25
100
AcDbSpline
210
0.0
220
0.0
230
1.0
 70
     8
 71
     3
 72
    14
 73
    10
 74
     0
 42
0.000000001
 43
0.00000001
 40
0.0
 40
0.0
 40
0.0
 40
0.0
 40
0.1643724012123997
 40
0.3285434424336299
 40
0.4925766180118689
 40
0.6565369075048586
 40
0.8204900807702772
 40
0.9845019850158774
 40
1.0
 40
1.0
 40
1.0
 40
1.0
 10
31.75000000000001
 20
0.0850119637146971
 30
0.0
 10
31.55206484683801
 20
0.1977106349202928
 30
0.0
 10
31.15643701565217
 20
0.4229699188540795
 30
0.0
 10
30.56347786804817
 20
0.7086472139572141
 30
0.0
 10
29.97110092181939
 20
0.9108357411569931
 30
0.0
 10
29.37904327496747
 20
1.007889772142208
 30
0.0
 10
28.78701318742886
 20
0.9776802098194874
 30
0.0
 10
28.3736330889944
 20
0.8988206817955704
 30
0.0
 10
28.15755710553276
 20
0.813200397002657
 30
0.0
 10
28.13890215407512
 20
0.8058083572626844
 30
0.0
  0
LINE
  5
AD
330
1F
100
AcDbEntity
  8
외형선
  6
Continuous
370
    15
100
AcDbLine
 10
25.40000000000001
 20
0.5920972527824772
 30
0.0
 11
25.39999999999999
 21
0.8303005491821425
 31
0.0
  0
LINE
  5
AE
330
1F
100
AcDbEntity
  8
0
  6
Continuous
 62
     1
370
    25
100
AcDbLine
 10
31.74999999999999
 20
-0.992187499999996
 30
0.0
 11
31.75
 21
-0.8986057137146858
 31
0.0
  0
LINE
  5
AF
330
1F
100
AcDbEntity
  8
외형선
  6
Continuous
370
    15
100
AcDbLine
 10
25.39999999999587
 20
-0.8303005491834385
 30
0.0
 11
25.45198668013275
 21
-0.8098878943142098
 31
0.0
  0
SPLINE
  5
B0
330
1F
100
AcDbEntity
  8
0
  6
Continuous
 62
     1
370
    25
100
AcDbSpline
210
0.0
220
0.0
230
1.0
 70
     8
 71
     3
 72
    11
 73
     7
 74
     0
 42
0.000000001
 43
0.00000001
 40
0.0
 40
0.0
 40
0.0
 40
0.0
 40
0.1388323335161888
 40
0.4254641919061078
 40
0.7124078777949034
 40
1.0
 40
1.0
 40
1.0
 40
1.0
 10
29.80335960826039
 20
0.9791285937722135
 30
0.0
 10
29.89342474185916
 20
0.9817895981650645
 30
0.0
 10
30.16943745672901
 20
0.9899444858269582
 30
0.0
 10
30.63156185028588
 20
0.8904789018186793
 30
0.0
 10
31.19029459078733
 20
0.70069186634654
 30
0.0
 10
31.56329120564588
 20
0.5140654262540918
 30
0.0
 10
31.75000000000001
 20
0.4206468904384819
 30
0.0
  0
LINE
  5
B1
330
1F
100
AcDbEntity
  8
0
  6
Continuous
 62
     1
370
    25
100
AcDbLine
 10
31.75
 20
0.085011963714697
 30
0.0
 11
31.75
 21
0.4206468904384819
 31
0.0
  0
SPLINE
  5
B2
330
1F
100
AcDbEntity
  8
0
  6
Continuous
 62
     1
370
    25
100
AcDbSpline
210
0.0
220
0.0
230
1.0
 70
     8
 71
     3
 72
     9
 73
     5
 74
     0
 42
0.000000001
 43
0.00000001
 40
0.0
 40
0.0
 40
0.0
 40
0.0
 40
0.6615371134317296
 40
1.0
 40
1.0
 40
1.0
 40
1.0
 10
31.74999999999999
 20
0.9921875000000038
 30
0.0
 10
31.55205975747662
 20
0.9712581586917488
 30
0.0
 10
31.25284715321834
 20
0.9451361736369472
 30
0.0
 10
30.95374395927317
 20
0.8385771873929253
 30
0.0
 10
30.85250862886869
 20
0.8025109253189853
 30
0.0
  0
SPLINE
  5
B3
330
1F
100
AcDbEntity
  8
0
  6
Continuous
 62
     1
370
    25
100
AcDbSpline
210
0.0
220
0.0
230
1.0
 70
     8
 71
     3
 72
     9
 73
     5
 74
     0
 42
0.000000001
 43
0.00000001
 40
0.0
 40
0.0
 40
0.0
 40
0.0
 40
0.4919380466094966
 40
1.0
 40
1.0
 40
1.0
 40
1.0
 10
26.49787790502127
 20
-0.9905625580712227
 30
0.0
 10
26.31783299936086
 20
-0.9827286817121408
 30
0.0
 10
25.95184198300975
 20
-0.9668041635475596
 30
0.0
 10
25.58591405692345
 20
-0.853643777786989
 30
0.0
 10
25.39999999999591
 20
-0.7961512911510502
 30
0.0
  0
LINE
  5
B4
330
1F
100
AcDbEntity
  8
0
  6
Continuous
 62
     1
370
    25
100
AcDbLine
 10
31.75
 20
0.4206468904384819
 30
0.0
 11
31.74999999999999
 21
0.9921875000000038
 31
0.0
  0
LINE
  5
B5
330
1F
100
AcDbEntity
  8
외형선
  6
Continuous
370
    15
100
AcDbLine
 10
25.40000000000001
 20
-0.796151291152485
 30
0.0
 11
25.40000000000001
 21
-0.5431731152994276
 31
0.0
  0
LINE
  5
B6
330
1F
100
AcDbEntity
  8
외형선
  6
Continuous
370
    15
100
AcDbLine
 10
24.4
 20
-0.0000000000000004
 30
0.0
 11
24.4
 21
0.9921874999999997
 31
0.0
  0
LINE
  5
B7
330
1F
100
AcDbEntity
  8
외형선
  6
Continuous
370
    15
100
AcDbLine
 10
24.4
 20
-0.9921875000000003
 30
0.0
 11
24.4
 21
-0.0000000000000004
 31
0.0
  0
LINE
  5
B8
330
1F
100
AcDbEntity
  8
외형선
  6
Continuous
370
    15
100
AcDbLine
 10
19.21594817511134
 20
-0.0000000000000004
 30
0.0
 11
19.21594817511134
 21
2.381250000000006
 31
0.0
  0
LINE
  5
B9
330
1F
100
AcDbEntity
  8
외형선
  6
Continuous
370
    15
100
AcDbLine
 10
19.21594817511134
 20
-2.381250000000007
 30
0.0
 11
19.21594817511134
 21
-0.0000000000000004
 31
0.0
  0
LINE
  5
BE
330
1F
100
AcDbEntity
  8
외형선
  6
Continuous
370
    15
100
AcDbLine
 10
24.9001578626421
 20
0.9512563828886559
 30
0.0
 11
24.9001578626421
 21
0.9921874999999997
 31
0.0
  0
SPLINE
  5
BF
330
1F
100
AcDbEntity
  8
외형선
  6
Continuous
370
    15
100
AcDbSpline
210
0.0
220
0.0
230
1.0
 70
     8
 71
     3
 72
    10
 73
     6
 74
     0
 42
0.000000001
 43
0.00000001
 40
0.0
 40
0.0
 40
0.0
 40
0.0
 40
0.5
 40
0.5
 40
1.0
 40
1.0
 40
1.0
 40
1.0
 10
25.39999999999588
 20
0.8303005491834369
 30
0.0
 10
25.31586299546174
 20
0.8567397679023266
 30
0.0
 10
25.23140176559062
 20
0.8802457071023732
 30
0.0
 10
25.06450957844541
 20
0.9206948652432222
 30
0.0
 10
24.98319415036136
 20
0.9375916609993544
 30
0.0
 10
24.9001578626421
 20
0.9512596062418756
 30
0.0
  0
SPLINE
  5
C0
330
1F
100
AcDbEntity
  8
외형선
  6
Continuous
370
    15
100
AcDbSpline
210
0.0
220
0.0
230
1.0
 70
     8
 71
     3
 72
    10
 73
     6
 74
     0
 42
0.000000001
 43
0.00000001
 40
0.0
 40
0.0
 40
0.0
 40
0.0
 40
0.5
 40
0.5
 40
1.0
 40
1.0
 40
1.0
 40
1.0
 10
25.3999999999959
 20
0.5920972527843499
 30
0.0
 10
25.31586299546175
 20
0.6308503087203795
 30
0.0
 10
25.23140176559059
 20
0.6675365944059471
 30
0.0
 10
25.06450957844539
 20
0.7356481292890018
 30
0.0
 10
24.98319415036135
 20
0.7669553667350004
 30
0.0
 10
24.9001578626421
 20
0.7956806152679593
 30
0.0
  0
LINE
  5
C1
330
1F
100
AcDbEntity
  8
외형선
  6
Continuous
370
    15
100
AcDbLine
 10
24.9001578626421
 20
-0.2820413607431341
 30
0.0
 11
24.9001578626421
 21
0.7957393170113178
 31
0.0
  0
SPLINE
  5
C2
330
1F
100
AcDbEntity
  8
외형선
  6
Continuous
370
    15
100
AcDbSpline
210
0.0
220
0.0
230
1.0
 70
     8
 71
     3
 72
    10
 73
     6
 74
     0
 42
0.000000001
 43
0.00000001
 40
0.0
 40
0.0
 40
0.0
 40
0.0
 40
0.5
 40
0.5
 40
1.0
 40
1.0
 40
1.0
 40
1.0
 10
25.39999999999588
 20
-0.5431731152974438
 30
0.0
 10
25.31586299546174
 20
-0.5027578274195568
 30
0.0
 10
25.23140176559062
 20
-0.4603511551271453
 30
0.0
 10
25.06450957844541
 20
-0.3729298271978498
 30
0.0
 10
24.98319415036136
 20
-0.328131051532275
 30
0.0
 10
24.9001578626421
 20
-0.2820304889347951
 30
0.0
  0
SPLINE
  5
C3
330
1F
100
AcDbEntity
  8
외형선
  6
Continuous
370
    15
100
AcDbSpline
210
0.0
220
0.0
230
1.0
 70
     8
 71
     3
 72
    10
 73
     6
 74
     0
 42
0.000000001
 43
0.00000001
 40
0.0
 40
0.0
 40
0.0
 40
0.0
 40
0.5
 40
0.5
 40
1.0
 40
1.0
 40
1.0
 40
1.0
 10
25.3999999999959
 20
-0.796151291151047
 30
0.0
 10
25.31586299546175
 20
-0.7673306659611441
 30
0.0
 10
25.23140176559059
 20
-0.7356293808895686
 30
0.0
 10
25.06450957844539
 20
-0.6675159329728778
 30
0.0
 10
24.98319415036135
 20
-0.631290404799242
 30
0.0
 10
24.9001578626421
 20
-0.5927296125916564
 30
0.0
  0
LINE
  5
C4
330
1F
100
AcDbEntity
  8
외형선
  6
Continuous
370
    15
100
AcDbLine
 10
24.9001578626421
 20
-0.9921875000000003
 30
0.0
 11
24.9001578626421
 21
-0.5926508031873527
 31
0.0
  0
SPLINE
  5
C5
330
1F
100
AcDbEntity
  8
외형선
  6
Continuous
370
    15
100
AcDbSpline
210
0.0
220
0.0
230
1.0
 70
     8
 71
     3
 72
    10
 73
     6
 74
     0
 42
0.000000001
 43
0.00000001
 40
0.0
 40
0.0
 40
0.0
 40
0.0
 40
0.5
 40
0.5
 40
1.0
 40
1.0
 40
1.0
 40
1.0
 10
25.39999999999588
 20
-0.8303005491834375
 30
0.0
 10
25.31586299546174
 20
-0.8567397679023273
 30
0.0
 10
25.23140176559062
 20
-0.8802457071023738
 30
0.0
 10
25.06450957844541
 20
-0.9206948652432229
 30
0.0
 10
24.98319415036136
 20
-0.9375916609993551
 30
0.0
 10
24.9001578626421
 20
-0.9512596062418762
 30
0.0
  0
SPLINE
  5
C6
330
1F
100
AcDbEntity
  8
외형선
  6
Continuous
370
    15
100
AcDbSpline
210
0.0
220
0.0
230
1.0
 70
    24
 71
     3
 72
    20
 73
    16
 74
     0
 42
0.000000001
 43
0.00000001
 40
0.0
 40
0.0
 40
0.0
 40
0.0
 40
0.1249999999999999
 40
0.1249999999999999
 40
0.2499999999999999
 40
0.2499999999999999
 40
0.3749999999999998
 40
0.3749999999999998
 40
0.4999999999999999
 40
0.4999999999999999
 40
0.7499999999999997
 40
0.7499999999999997
 40
0.8749999999999999
 40
0.8749999999999999
 40
1.0
 40
1.0
 40
1.0
 40
1.0
 10
25.40000000000001
 20
-0.5431731152993914
 30
0.0
 10
25.40000000000002
 20
-0.5246289907808126
 30
0.0
 10
25.40000000000001
 20
-0.4930726804735945
 30
0.0
 10
25.39999999999999
 20
-0.4023392010733623
 30
0.0
 10
25.40000000000001
 20
-0.3431262626466213
 30
0.0
 10
25.40000000000001
 20
-0.2079391081056876
 30
0.0
 10
25.40000000000001
 20
-0.1323593148528899
 30
0.0
 10
25.40000000000002
 20
0.0170857681439839
 30
0.0
 10
25.40000000000002
 20
0.0906272828203144
 30
0.0
 10
25.40000000000004
 20
0.2889997694951943
 30
0.0
 10
25.40000000000001
 20
0.3887298580248478
 30
0.0
 10
25.40000000000001
 20
0.4892546519614615
 30
0.0
 10
25.40000000000002
 20
0.5153577233928582
 30
0.0
 10
25.40000000000002
 20
0.5568061178641016
 30
0.0
 10
25.39999999999999
 20
0.576352160506056
 30
0.0
 10
25.39999999999999
 20
0.592097252782768
 30
0.0
  0
LINE
  5
C7
330
1F
100
AcDbEntity
  8
중심선
 48
0.5
100
AcDbLine
 10
-34.75000000000001
 20
-0.0000000000000043
 30
0.0
 11
34.75
 21
0.0000000000000043
 31
0.0
  0
LINE
  5
C8
330
1F
100
AcDbEntity
  8
참조1
100
AcDbLine
 10
-7.744119342984384
 20
0.0010749287238892
 30
0.0
 11
-7.744119342984377
 21
-39.99892507127611
 31
0.0
  0
LINE
  5
C9
330
1F
100
AcDbEntity
  8
참조1
100
AcDbLine
 10
-7.744119342984377
 20
-39.99892507127611
 30
0.0
 11
-29.25297615729306
 21
-39.9989250712761
 31
0.0
  0
CIRCLE
  5
CA
330
1F
100
AcDbEntity
  8
해칭선
100
AcDbCircle
 10
0.0
 20
0.0
 30
0.0
 40
3.000000000000004
  0
INSERT
  5
CB
330
1F
100
AcDbEntity
  8
0
  6
Continuous
 62
     7
100
AcDbBlockReference
 66
     1
  2
블럭10
 10
-13.9402729321252
 20
-52.04717430164393
 30
0.0
  0
ATTRIB
  5
CC
330
CB
100
AcDbEntity
  8
FORMAT
 62
     2
100
AcDbText
 10
-23.12156822086649
 20
-49.97180738881174
 30
0.0
 40
4.233333333333333
  1
E1006005 [ 4 FLUTE ]
 41
0.75
  7
SLDTEXTSTYLE0
 11
-23.12156822086649
 21
-52.08847405547841
 31
0.0
100
AcDbAttribute
  2
AUTOATTR0
 70
     0
 74
     1
  0
SEQEND
  5
CD
330
CB
100
AcDbEntity
  8
0
  6
Continuous
 62
     7
  0
HATCH
  5
CE
330
1F
100
AcDbEntity
  8
중심선
100
AcDbHatch
 10
0.0
 20
0.0
 30
0.0
210
0.0
220
0.0
230
1.0
  2
SOLID
 70
     1
 71
     0
 91
        1
 92
        0
 93
        4
 72
     1
 10
-8.225363627744372
 20
-35.8
 11
-11.67163887158165
 21
-35.8
 72
     1
 10
-11.67163887158165
 20
-35.8
 11
-13.79986873078568
 21
-38.3363255805726
 72
     1
 10
-13.79986873078568
 20
-38.3363255805726
 11
-10.35356040183525
 21
-38.33628615127011
 72
     1
 10
-10.35356040183525
 20
-38.33628615127011
 11
-8.225363627744372
 21
-35.8
 97
        0
 75
     0
 76
     1
 98
        1
 10
7.744119342984384
 20
-0.0010749287238935
  0
HATCH
  5
CF
330
1F
100
AcDbEntity
  8
중심선
100
AcDbHatch
 10
0.0
 20
0.0
 30
0.0
210
0.0
220
0.0
230
1.0
  2
SOLID
 70
     1
 71
     0
 91
        1
 92
        0
 93
        4
 72
     1
 10
-3.212599636708392
 20
-35.8
 11
-6.658874880545675
 21
-35.8
 72
     1
 10
-6.658874880545675
 20
-35.8
 11
-11.19001288890309
 21
-41.20000000000002
 72
     1
 10
-11.19001288890309
 20
-41.20000000000002
 11
-7.743737645065808
 21
-41.20000000000002
 72
     1
 10
-7.743737645065808
 20
-41.20000000000002
 11
-3.212599636708392
 21
-35.8
 97
        0
 75
     0
 76
     1
 98
        1
 10
7.744119342984384
 20
-0.0010749287238935
  0
HATCH
  5
D0
330
1F
100
AcDbEntity
  8
중심선
100
AcDbHatch
 10
0.0
 20
0.0
 30
0.0
210
0.0
220
0.0
230
1.0
  2
SOLID
 70
     1
 71
     0
 91
        1
 92
        0
 93
        4
 72
     1
 10
1.800164354327476
 20
-35.8
 11
-1.646110889509639
 21
-35.8
 72
     1
 10
-1.646110889509639
 20
-35.8
 11
-8.69454779139889
 21
-44.20000000000002
 72
     1
 10
-8.69454779139889
 20
-44.20000000000002
 11
-5.248272547561607
 21
-44.20000000000002
 72
     1
 10
-5.248272547561607
 20
-44.20000000000002
 11
1.800164354327476
 21
-35.8
 97
        0
 75
     0
 76
     1
 98
        1
 10
7.744119342984384
 20
-0.0010749287238935
  0
HATCH
  5
D1
330
1F
100
AcDbEntity
  8
중심선
100
AcDbHatch
 10
0.0
 20
0.0
 30
0.0
210
0.0
220
0.0
230
1.0
  2
SOLID
 70
     1
 71
     0
 91
        1
 92
        0
 93
        6
 72
     3
 10
6.600054785339675
 20
-40.00000000005127
 11
3.960054785062284
 21
1.540882976769353E-10
 40
0.3939339440162627
 50
17.09539180608436
 51
320.0019657685081
 73
     0
 72
     1
 10
8.28305444104027
 20
-38.5878940046383
 11
10.58835631474134
 21
-36.65356729459035
 72
     3
 10
6.600054785286829
 20
-40.00000000000015
 11
6.60005478528683
 21
-1.278976924368180E-13
 40
0.636358354079598
 50
39.99873849337413
 51
368.4976242363724
 73
     1
 72
     1
 10
13.02538727718744
 20
-39.03999999993002
 11
5.280122092122751
 21
-39.03999999993002
 72
     1
 10
5.280122092122751
 20
-39.03999999993002
 11
5.280097047676817
 21
-40.95999999992991
 72
     1
 10
5.280097047676817
 20
-40.95999999992991
 11
9.721476817148854
 21
-40.95999999992988
 97
        0
 75
     0
 76
     1
 98
        1
 10
7.744119342984384
 20
-0.0010749287238935
  0
DIMENSION
  5
D2
330
1F
100
AcDbEntity
  8
치수문자_일반주서
100
AcDbDimension
  2
_D
 10
49.65478931357595
 20
-0.992187499999929
 30
0.0
 11
49.65478931357588
 21
21.59618750000007
 31
0.0
 70
   160
  1
%%c<>
 71
     2
 42
1.984375
 52
-270.0
  3
SLDDIMSTYLE0
100
AcDbAlignedDimension
 13
31.74999999999999
 23
0.9921875000000038
 33
0.0
 14
31.74999999999999
 24
-0.992187499999996
 34
0.0
 50
90.0000000000002
100
AcDbRotatedDimension
1001
ACAD
1000
DSTYLE
1002
{
1070
   171
1070
     6
1070
   273
1070
     7
1002
}
  0
DIMENSION
  5
E7
330
1F
100
AcDbEntity
  8
치수문자_일반주서
100
AcDbDimension
  2
_D_1
 10
25.39999999999999
 20
16.14182866367812
 30
0.0
 11
1.971523985846751
 21
16.14182866367812
 31
0.0
 70
   160
  1
<>
 71
     2
 42
6.350000000000001
  3
SLDDIMSTYLE0
100
AcDbAlignedDimension
 13
31.74999999999999
 23
0.9921875000000038
 33
0.0
 14
25.39999999999999
 24
0.8303005491821425
 34
0.0
100
AcDbRotatedDimension
1001
ACAD
1000
DSTYLE
1002
{
1070
   171
1070
     6
1070
   273
1070
     7
1002
}
  0
DIMENSION
  5
FC
330
1F
100
AcDbEntity
  8
치수문자_일반주서
100
AcDbDimension
  2
_D_2
 10
-31.75000000000001
 20
28.10036425976227
 30
0.0
 11
-1.620199429023449
 21
28.10036425976227
 31
0.0
 70
   160
  1
<>
 71
     2
 42
63.5
  3
SLDDIMSTYLE0
100
AcDbAlignedDimension
 13
31.74999999999999
 23
0.9921875000000038
 33
0.0
 14
-31.75000000000001
 24
0.992187499999996
 34
0.0
100
AcDbRotatedDimension
1001
ACAD
1000
DSTYLE
1002
{
1070
   171
1070
     6
1070
   273
1070
     7
1002
}
  0
DIMENSION
  5
110
330
1F
100
AcDbEntity
  8
치수문자_일반주서
100
AcDbDimension
  2
_D_3
 10
-44.74999999999999
 20
-2.381250000000052
 30
0.0
 11
-44.75
 21
0.000000000000001
 31
0.0
 70
   160
  1
%%c<>
 71
     2
 42
4.762500000000003
 52
-270.0
  3
SLDDIMSTYLE0
100
AcDbAlignedDimension
 13
-31.27374999999999
 23
2.381250000000001
 33
0.0
 14
-31.27374999999999
 24
-2.381250000000001
 34
0.0
 50
90.0000000000002
100
AcDbRotatedDimension
1001
ACAD
1000
DSTYLE
1002
{
1070
   171
1070
     6
1070
   273
1070
     7
1002
}
  0
LINE
  5
124
330
1F
100
AcDbEntity
  8
참조1
100
AcDbLine
 10
68.7193644723612
 20
7.441074928723896
 30
0.0
 11
68.7193644723612
 21
-7.438925071276109
 31
0.0
  0
LINE
  5
125
330
1F
100
AcDbEntity
  8
참조1
100
AcDbLine
 10
81.41936447236121
 20
5.441074928723896
 30
0.0
 11
68.7193644723612
 21
5.441074928723896
 31
0.0
  0
SOLID
  5
126
330
1F
100
AcDbEntity
  8
참조1
100
AcDbTrace
 10
68.7193644723612
 20
5.441074928723896
 30
0.0
 11
75.0693644723612
 21
4.425074928723896
 31
0.0
 12
75.0693644723612
 22
6.457074928723896
 32
0.0
 13
75.0693644723612
 23
6.457074928723896
 33
0.0
  0
LINE
  5
127
330
1F
100
AcDbEntity
  8
참조1
100
AcDbLine
 10
81.41936447236121
 20
-5.438925071276109
 30
0.0
 11
68.7193644723612
 21
-5.438925071276109
 31
0.0
  0
SOLID
  5
128
330
1F
100
AcDbEntity
  8
참조1
100
AcDbTrace
 10
68.7193644723612
 20
-5.438925071276109
 30
0.0
 11
75.0693644723612
 21
-6.454925071276109
 31
0.0
 12
75.0693644723612
 22
-4.422925071276109
 32
0.0
 13
75.0693644723612
 23
-4.422925071276109
 33
0.0
  0
MTEXT
  5
129
330
1F
100
AcDbEntity
  8
참조1
100
AcDbMText
 10
78.1037146049872
 20
11.01136670591223
 30
0.0
 40
3.5
 41
0.0
 71
     1
 72
     1
  1
A
  7
SLDTEXTSTYLE0
 73
     1
 44
1.0
  0
MTEXT
  5
12A
330
1F
100
AcDbEntity
  8
참조1
100
AcDbMText
 10
78.1037146049872
 20
0.1313667059122219
 30
0.0
 40
3.5
 41
0.0
 71
     1
 72
     1
  1
A
  7
SLDTEXTSTYLE0
 73
     1
 44
1.0
  0
INSERT
  5
131
330
1F
100
AcDbEntity
  8
해칭선
100
AcDbBlockReference
  2
SW_DOWELSYMBOL_0
 10
0.0
 20
0.0
 30
0.0
  0
LINE
  5
3A3
330
1F
100
AcDbEntity
  8
0
  6
Continuous
 62
     1
370
    25
100
AcDbLine
 10
-26.15847051857956
 20
-0.200933556305925
 30
0.0
 11
-25.96137936891498
 21
-0.3049237604673306
 31
0.0
  0
LINE
  5
3A4
330
1F
100
AcDbEntity
  8
0
  6
Continuous
 62
     1
370
    25
100
AcDbLine
 10
-31.39272990112142
 20
-0.2872969327112199
 30
0.0
 11
-31.36641466430257
 21
-0.3015643033220582
 31
0.0
  0
LINE
  5
3A5
330
1F
100
AcDbEntity
  8
0
  6
Continuous
 62
     1
370
    25
100
AcDbLine
 10
-30.182869113225
 20
0.2220480709539191
 30
0.0
 11
-30.32784195037775
 21
0.2979967639723514
 31
0.0
  0
LINE
  5
3A6
330
1F
100
AcDbEntity
  8
0
  6
Continuous
 62
     1
370
    25
100
AcDbLine
 10
-29.19856568626111
 20
0.9921875000000088
 30
0.0
 11
-29.8033596082604
 21
0.9921875000000088
 31
0.0
  0
LINE
  5
3A7
330
1F
100
AcDbEntity
  8
0
  6
Continuous
 62
     1
370
    25
100
AcDbLine
 10
-27.10317592955739
 20
-0.9921874999999912
 30
0.0
 11
-26.49787790502129
 21
-0.9921874999999912
 31
0.0
  0
LINE
  5
3A8
330
1F
100
AcDbEntity
  8
0
  6
Continuous
 62
     1
370
    25
100
AcDbLine
 10
-29.8033596082604
 20
-0.9921874999999912
 30
0.0
 11
-29.19856568626111
 21
-0.9921874999999912
 31
0.0
  0
LINE
  5
3A9
330
1F
100
AcDbEntity
  8
0
  6
Continuous
 62
     1
370
    25
100
AcDbLine
 10
-26.49787790502129
 20
0.9921875000000088
 30
0.0
 11
-27.10317592955736
 21
0.9921875000000088
 31
0.0
  0
LINE
  5
3AA
330
1F
100
AcDbEntity
  8
외형선
  6
Continuous
370
    15
100
AcDbLine
 10
-19.21594817511136
 20
2.381250000000017
 30
0.0
 11
-24.40000000000001
 21
0.9921875000000088
 31
0.0
  0
LINE
  5
3AB
330
1F
100
AcDbEntity
  8
외형선
  6
Continuous
370
    15
100
AcDbLine
 10
-24.40000000000001
 20
-0.9921874999999912
 30
0.0
 11
-19.21594817511136
 21
-2.381249999999993
 31
0.0
  0
LINE
  5
3AE
330
1F
100
AcDbEntity
  8
외형선
  6
Continuous
370
    15
100
AcDbLine
 10
-24.40000000000001
 20
0.9921875000000088
 30
0.0
 11
-24.9001578626421
 21
0.9921875000000088
 31
0.0
  0
LINE
  5
3AF
330
1F
100
AcDbEntity
  8
외형선
  6
Continuous
370
    15
100
AcDbLine
 10
-24.9001578626421
 20
-0.9921874999999912
 30
0.0
 11
-24.40000000000001
 21
-0.9921874999999912
 31
0.0
  0
SPLINE
  5
3B0
330
1F
100
AcDbEntity
  8
0
  6
Continuous
 62
     1
370
    25
100
AcDbSpline
210
0.0
220
0.0
230
1.0
 70
     8
 71
     3
 72
    12
 73
     8
 74
     0
 42
0.000000001
 43
0.00000001
 40
0.0
 40
0.0
 40
0.0
 40
0.0
 40
0.2161610539381808
 40
0.43234489144958
 40
0.6486381275703105
 40
0.8651261920063765
 40
1.0
 40
1.0
 40
1.0
 40
1.0
 10
-25.39999999999592
 20
0.5431731152974651
 30
0.0
 10
-25.59731423704634
 20
0.6322507481845835
 30
0.0
 10
-25.99196350824864
 20
0.8104154028229703
 30
0.0
 10
-26.58404908375199
 20
0.9661816581424406
 30
0.0
 10
-27.17650264573457
 20
1.008762023017704
 30
0.0
 10
-27.69479728602349
 20
0.9542497063630025
 30
0.0
 10
-28.01571474287878
 20
0.8469835544416443
 30
0.0
 10
-28.13890215407512
 20
0.805808357262693
 30
0.0
  0
SPLINE
  5
3B1
330
1F
100
AcDbEntity
  8
외형선
  6
Continuous
370
    15
100
AcDbSpline
210
0.0
220
0.0
230
1.0
 70
    24
 71
     3
 72
    20
 73
    16
 74
     0
 42
0.000000001
 43
0.00000001
 40
0.0
 40
0.0
 40
0.0
 40
0.0
 40
0.1249999999999999
 40
0.1249999999999999
 40
0.2499999999999998
 40
0.2499999999999998
 40
0.5
 40
0.5
 40
0.6250000000000001
 40
0.6250000000000001
 40
0.7500000000000002
 40
0.7500000000000002
 40
0.8750000000000001
 40
0.8750000000000001
 40
1.0
 40
1.0
 40
1.0
 40
1.0
 10
-25.40000000000004
 20
-0.5920972527824643
 30
0.0
 10
-25.40000000000007
 20
-0.5763521605057119
 30
0.0
 10
-25.40000000000004
 20
-0.5568061178637916
 30
0.0
 10
-25.40000000000004
 20
-0.5153577233924606
 30
0.0
 10
-25.40000000000001
 20
-0.4892546519610176
 30
0.0
 10
-25.40000000000001
 20
-0.3887298580242612
 30
0.0
 10
-25.40000000000004
 20
-0.2889997694945149
 30
0.0
 10
-25.40000000000001
 20
-0.0906272828196305
 30
0.0
 10
-25.39999999999998
 20
-0.0170857681433302
 30
0.0
 10
-25.40000000000001
 20
0.1323593148534473
 30
0.0
 10
-25.39999999999998
 20
0.207939108106176
 30
0.0
 10
-25.40000000000001
 20
0.3431262626469492
 30
0.0
 10
-25.39999999999998
 20
0.4023392010736034
 30
0.0
 10
-25.40000000000001
 20
0.4930726804737108
 30
0.0
 10
-25.40000000000004
 20
0.5246289907808775
 30
0.0
 10
-25.40000000000004
 20
0.5431731152994334
 30
0.0
  0
SPLINE
  5
3B2
330
1F
100
AcDbEntity
  8
0
  6
Continuous
 62
     1
370
    25
100
AcDbSpline
210
0.0
220
0.0
230
1.0
 70
     8
 71
     3
 72
    14
 73
    10
 74
     0
 42
0.000000001
 43
0.00000001
 40
0.0
 40
0.0
 40
0.0
 40
0.0
 40
0.1083373881433103
 40
0.2642449990461829
 40
0.4114263457864014
 40
0.5589197881581389
 40
0.7061469955952495
 40
0.8531155852633538
 40
1.0
 40
1.0
 40
1.0
 40
1.0
 10
-29.19856568626111
 20
0.9797365616755388
 30
0.0
 10
-29.0614057954928
 20
0.9791920238702277
 30
0.0
 10
-28.72686002300939
 20
0.9778638453502299
 30
0.0
 10
-28.20590389602646
 20
0.8442240615723068
 30
0.0
 10
-27.63543670692537
 20
0.6206912290517169
 30
0.0
 10
-27.07549718242655
 20
0.3327252603081109
 30
0.0
 10
-26.51619643646178
 20
0.0117397473430304
 30
0.0
 10
-25.95785687626302
 20
-0.3151128424662472
 30
0.0
 10
-25.58591677769304
 20
-0.4997867494465337
 30
0.0
 10
-25.39999999999592
 20
-0.5920972527843401
 30
0.0
  0
SPLINE
  5
3B3
330
1F
100
AcDbEntity
  8
0
  6
Continuous
 62
     1
370
    25
100
AcDbSpline
210
0.0
220
0.0
230
1.0
 70
     8
 71
     3
 72
    17
 73
    13
 74
     0
 42
0.000000001
 43
0.00000001
 40
0.0
 40
0.0
 40
0.0
 40
0.0
 40
0.1085766296778196
 40
0.2171647034319268
 40
0.3258077275671367
 40
0.4345486130027941
 40
0.5434250781271445
 40
0.6522582129513023
 40
0.7547446078094487
 40
0.8570974435111833
 40
0.9594390478893607
 40
1.0
 40
1.0
 40
1.0
 40
1.0
 10
-25.39999999999589
 20
-0.8303005491834253
 30
0.0
 10
-25.59731419800679
 20
-0.7582951150263552
 30
0.0
 10
-25.9919633911259
 20
-0.6142766572734414
 30
0.0
 10
-26.5840495523992
 20
-0.2997136405437769
 30
0.0
 10
-27.17650088665165
 20
0.0431896673790976
 30
0.0
 10
-27.76956779882003
 20
0.3830004462408513
 30
0.0
 10
-28.36318772863641
 20
0.6771402004645583
 30
0.0
 10
-28.94539592483896
 20
0.8872305975060416
 30
0.0
 10
-29.51543280049905
 20
0.9965191558815806
 30
0.0
 10
-30.07354150644867
 20
0.9940488753562436
 30
0.0
 10
-30.5190947986437
 20
0.9243619205598054
 30
0.0
 10
-30.77879597339831
 20
0.829450301003705
 30
0.0
 10
-30.85250862886873
 20
0.8025109253189998
 30
0.0
  0
SPLINE
  5
3B4
330
1F
100
AcDbEntity
  8
0
  6
Continuous
 62
     1
370
    25
100
AcDbSpline
210
0.0
220
0.0
230
1.0
 70
     8
 71
     3
 72
    18
 73
    14
 74
     0
 42
0.000000001
 43
0.00000001
 40
0.0
 40
0.0
 40
0.0
 40
0.0
 40
0.0942448087813159
 40
0.188374165493282
 40
0.2824244753514857
 40
0.3764329951335179
 40
0.4704374347445376
 40
0.5644755484392596
 40
0.6532502794376162
 40
0.7422132557968659
 40
0.8310156483917506
 40
0.919662051634836
 40
1.0
 40
1.0
 40
1.0
 40
1.0
 10
-31.75000000000001
 20
0.992187499999996
 30
0.0
 10
-31.55206486052942
 20
0.9673301061754617
 30
0.0
 10
-31.15643705670951
 20
0.9249386571286226
 30
0.0
 10
-30.56347770411092
 20
0.7211166841810285
 30
0.0
 10
-29.97110153591766
 20
0.4407792777497778
 30
0.0
 10
-29.37904098343936
 20
0.1063611579373659
 30
0.0
 10
-28.78702174076634
 20
-0.2399578296883701
 30
0.0
 10
-28.20590438186012
 20
-0.5522739500979396
 30
0.0
 10
-27.63543658723689
 20
-0.797020131047253
 30
0.0
 10
-27.07549718583503
 20
-0.9536593240199506
 30
0.0
 10
-26.51619654206809
 20
-1.008473975544908
 30
0.0
 10
-25.97518662348629
 20
-0.9665318711105525
 30
0.0
 10
-25.62057492931175
 20
-0.8603625438779244
 30
0.0
 10
-25.45198668013277
 20
-0.8098878943141995
 30
0.0
  0
LINE
  5
3B5
330
1F
100
AcDbEntity
  8
0
  6
Continuous
 62
     1
370
    25
100
AcDbLine
 10
-31.75000000000001
 20
0.898605713714696
 30
0.0
 11
-31.75000000000001
 21
-0.0850119637146901
 31
0.0
  0
SPLINE
  5
3B6
330
1F
100
AcDbEntity
  8
0
  6
Continuous
 62
     1
370
    25
100
AcDbSpline
210
0.0
220
0.0
230
1.0
 70
     8
 71
     3
 72
    16
 73
    12
 74
     0
 42
0.000000001
 43
0.00000001
 40
0.0
 40
0.0
 40
0.0
 40
0.0
 40
0.0157454810036498
 40
0.1433476487091137
 40
0.2711089126193348
 40
0.3988193305187827
 40
0.5190821561507798
 40
0.6391882565749025
 40
0.7592811775842476
 40
0.8795047479757008
 40
1.0
 40
1.0
 40
1.0
 40
1.0
 10
-27.10317592955739
 20
-0.9858439764640875
 30
0.0
 10
-27.1275631922527
 20
-0.9878934576340709
 30
0.0
 10
-27.34958605487694
 20
-1.006552036989147
 30
0.0
 10
-27.76957287838511
 20
-0.9295253231102035
 30
0.0
 10
-28.36318652681363
 20
-0.7541776605821849
 30
0.0
 10
-28.94539563437784
 20
-0.4836112054403313
 30
0.0
 10
-29.51543492721883
 20
-0.168840111606036
 30
0.0
 10
-30.07353325369991
 20
0.1586431316318782
 30
0.0
 10
-30.63156432624596
 20
0.4674636148549228
 30
0.0
 10
-31.19029396988405
 20
0.7342218768885632
 30
0.0
 10
-31.56329099852247
 20
0.8437698885110637
 30
0.0
 10
-31.75000000000004
 20
0.898605713714696
 30
0.0
  0
SPLINE
  5
3B7
330
1F
100
AcDbEntity
  8
0
  6
Continuous
 62
     1
370
    25
100
AcDbSpline
210
0.0
220
0.0
230
1.0
 70
     8
 71
     3
 72
    14
 73
    10
 74
     0
 42
0.000000001
 43
0.00000001
 40
0.0
 40
0.0
 40
0.0
 40
0.0
 40
0.1643724012123997
 40
0.3285434424336299
 40
0.4925766180118689
 40
0.6565369075048586
 40
0.8204900807702772
 40
0.9845019850158774
 40
1.0
 40
1.0
 40
1.0
 40
1.0
 10
-31.75000000000004
 20
-0.0850119637146901
 30
0.0
 10
-31.55206484683803
 20
-0.1977106349202825
 30
0.0
 10
-31.15643701565219
 20
-0.4229699188540704
 30
0.0
 10
-30.56347786804819
 20
-0.708647213957205
 30
0.0
 10
-29.97110092181939
 20
-0.9108357411569853
 30
0.0
 10
-29.37904327496748
 20
-1.007889772142198
 30
0.0
 10
-28.78701318742888
 20
-0.9776802098194805
 30
0.0
 10
-28.37363308899442
 20
-0.8988206817955612
 30
0.0
 10
-28.15755710553277
 20
-0.8132003970026443
 30
0.0
 10
-28.13890215407512
 20
-0.8058083572626754
 30
0.0
  0
LINE
  5
3B8
330
1F
100
AcDbEntity
  8
외형선
  6
Continuous
370
    15
100
AcDbLine
 10
-25.40000000000001
 20
-0.5920972527824643
 30
0.0
 11
-25.40000000000001
 21
-0.8303005491821321
 31
0.0
  0
LINE
  5
3B9
330
1F
100
AcDbEntity
  8
0
  6
Continuous
 62
     1
370
    25
100
AcDbLine
 10
-31.75000000000001
 20
0.992187499999996
 30
0.0
 11
-31.75000000000001
 21
0.898605713714696
 31
0.0
  0
LINE
  5
3BA
330
1F
100
AcDbEntity
  8
외형선
  6
Continuous
370
    15
100
AcDbLine
 10
-25.39999999999589
 20
0.83030054918345
 30
0.0
 11
-25.45198668013277
 21
0.809887894314217
 31
0.0
  0
SPLINE
  5
3BB
330
1F
100
AcDbEntity
  8
0
  6
Continuous
 62
     1
370
    25
100
AcDbSpline
210
0.0
220
0.0
230
1.0
 70
     8
 71
     3
 72
    11
 73
     7
 74
     0
 42
0.000000001
 43
0.00000001
 40
0.0
 40
0.0
 40
0.0
 40
0.0
 40
0.1388323335161888
 40
0.4254641919061078
 40
0.7124078777949034
 40
1.0
 40
1.0
 40
1.0
 40
1.0
 10
-29.8033596082604
 20
-0.9791285937722006
 30
0.0
 10
-29.89342474185916
 20
-0.9817895981650563
 30
0.0
 10
-30.16943745672902
 20
-0.9899444858269516
 30
0.0
 10
-30.6315618502859
 20
-0.890478901818666
 30
0.0
 10
-31.19029459078732
 20
-0.7006918663465297
 30
0.0
 10
-31.5632912056459
 20
-0.5140654262540832
 30
0.0
 10
-31.75000000000004
 20
-0.4206468904384747
 30
0.0
  0
LINE
  5
3BC
330
1F
100
AcDbEntity
  8
0
  6
Continuous
 62
     1
370
    25
100
AcDbLine
 10
-31.75000000000001
 20
-0.0850119637146901
 30
0.0
 11
-31.75000000000001
 21
-0.4206468904384747
 31
0.0
  0
SPLINE
  5
3BD
330
1F
100
AcDbEntity
  8
0
  6
Continuous
 62
     1
370
    25
100
AcDbSpline
210
0.0
220
0.0
230
1.0
 70
     8
 71
     3
 72
     9
 73
     5
 74
     0
 42
0.000000001
 43
0.00000001
 40
0.0
 40
0.0
 40
0.0
 40
0.0
 40
0.6615371134317296
 40
1.0
 40
1.0
 40
1.0
 40
1.0
 10
-31.75000000000004
 20
-0.9921875000000038
 30
0.0
 10
-31.55205975747663
 20
-0.9712581586917378
 30
0.0
 10
-31.25284715321835
 20
-0.9451361736369376
 30
0.0
 10
-30.95374395927318
 20
-0.8385771873929128
 30
0.0
 10
-30.85250862886873
 20
-0.8025109253189752
 30
0.0
  0
SPLINE
  5
3BE
330
1F
100
AcDbEntity
  8
0
  6
Continuous
 62
     1
370
    25
100
AcDbSpline
210
0.0
220
0.0
230
1.0
 70
     8
 71
     3
 72
     9
 73
     5
 74
     0
 42
0.000000001
 43
0.00000001
 40
0.0
 40
0.0
 40
0.0
 40
0.0
 40
0.4919380466094966
 40
1.0
 40
1.0
 40
1.0
 40
1.0
 10
-26.49787790502129
 20
0.9905625580712342
 30
0.0
 10
-26.31783299936087
 20
0.9827286817121478
 30
0.0
 10
-25.95184198300976
 20
0.9668041635475663
 30
0.0
 10
-25.58591405692346
 20
0.8536437777870008
 30
0.0
 10
-25.39999999999592
 20
0.7961512911510641
 30
0.0
  0
LINE
  5
3BF
330
1F
100
AcDbEntity
  8
0
  6
Continuous
 62
     1
370
    25
100
AcDbLine
 10
-31.75000000000001
 20
-0.4206468904384747
 30
0.0
 11
-31.75000000000004
 21
-0.9921875000000038
 31
0.0
  0
LINE
  5
3C0
330
1F
100
AcDbEntity
  8
외형선
  6
Continuous
370
    15
100
AcDbLine
 10
-25.40000000000001
 20
0.7961512911524994
 30
0.0
 11
-25.40000000000001
 21
0.5431731152994405
 31
0.0
  0
LINE
  5
3C1
330
1F
100
AcDbEntity
  8
외형선
  6
Continuous
370
    15
100
AcDbLine
 10
-24.40000000000001
 20
0.0000000000000088
 30
0.0
 11
-24.40000000000001
 21
-0.9921874999999912
 31
0.0
  0
LINE
  5
3C2
330
1F
100
AcDbEntity
  8
외형선
  6
Continuous
370
    15
100
AcDbLine
 10
-24.40000000000001
 20
0.9921875000000088
 30
0.0
 11
-24.40000000000001
 21
0.0000000000000088
 31
0.0
  0
LINE
  5
3C3
330
1F
100
AcDbEntity
  8
외형선
  6
Continuous
370
    15
100
AcDbLine
 10
-19.21594817511136
 20
0.0000000000000088
 30
0.0
 11
-19.21594817511136
 21
-2.381249999999993
 31
0.0
  0
LINE
  5
3C4
330
1F
100
AcDbEntity
  8
외형선
  6
Continuous
370
    15
100
AcDbLine
 10
-19.21594817511136
 20
2.381250000000017
 30
0.0
 11
-19.21594817511136
 21
0.0000000000000088
 31
0.0
  0
LINE
  5
3C5
330
1F
100
AcDbEntity
  8
외형선
  6
Continuous
370
    15
100
AcDbLine
 10
-24.9001578626421
 20
-0.9512563828886426
 30
0.0
 11
-24.9001578626421
 21
-0.9921874999999912
 31
0.0
  0
SPLINE
  5
3C6
330
1F
100
AcDbEntity
  8
외형선
  6
Continuous
370
    15
100
AcDbSpline
210
0.0
220
0.0
230
1.0
 70
     8
 71
     3
 72
    10
 73
     6
 74
     0
 42
0.000000001
 43
0.00000001
 40
0.0
 40
0.0
 40
0.0
 40
0.0
 40
0.5
 40
0.5
 40
1.0
 40
1.0
 40
1.0
 40
1.0
 10
-25.39999999999589
 20
-0.8303005491834253
 30
0.0
 10
-25.31586299546175
 20
-0.8567397679023171
 30
0.0
 10
-25.23140176559063
 20
-0.8802457071023594
 30
0.0
 10
-25.06450957844542
 20
-0.9206948652432115
 30
0.0
 10
-24.98319415036136
 20
-0.9375916609993437
 30
0.0
 10
-24.9001578626421
 20
-0.9512596062418607
 30
0.0
  0
SPLINE
  5
3C7
330
1F
100
AcDbEntity
  8
외형선
  6
Continuous
370
    15
100
AcDbSpline
210
0.0
220
0.0
230
1.0
 70
     8
 71
     3
 72
    10
 73
     6
 74
     0
 42
0.000000001
 43
0.00000001
 40
0.0
 40
0.0
 40
0.0
 40
0.0
 40
0.5
 40
0.5
 40
1.0
 40
1.0
 40
1.0
 40
1.0
 10
-25.39999999999592
 20
-0.5920972527843401
 30
0.0
 10
-25.31586299546175
 20
-0.6308503087203673
 30
0.0
 10
-25.2314017655906
 20
-0.6675365944059363
 30
0.0
 10
-25.06450957844542
 20
-0.7356481292889879
 30
0.0
 10
-24.98319415036136
 20
-0.7669553667349885
 30
0.0
 10
-24.9001578626421
 20
-0.7956806152679531
 30
0.0
  0
LINE
  5
3C8
330
1F
100
AcDbEntity
  8
외형선
  6
Continuous
370
    15
100
AcDbLine
 10
-24.9001578626421
 20
0.282041360743145
 30
0.0
 11
-24.9001578626421
 21
-0.7957393170113091
 31
0.0
  0
SPLINE
  5
3C9
330
1F
100
AcDbEntity
  8
외형선
  6
Continuous
370
    15
100
AcDbSpline
210
0.0
220
0.0
230
1.0
 70
     8
 71
     3
 72
    10
 73
     6
 74
     0
 42
0.000000001
 43
0.00000001
 40
0.0
 40
0.0
 40
0.0
 40
0.0
 40
0.5
 40
0.5
 40
1.0
 40
1.0
 40
1.0
 40
1.0
 10
-25.39999999999589
 20
0.5431731152974509
 30
0.0
 10
-25.31586299546175
 20
0.5027578274195664
 30
0.0
 10
-25.23140176559063
 20
0.4603511551271583
 30
0.0
 10
-25.06450957844542
 20
0.3729298271978595
 30
0.0
 10
-24.98319415036136
 20
0.3281310515322832
 30
0.0
 10
-24.9001578626421
 20
0.2820304889348025
 30
0.0
  0
SPLINE
  5
3CA
330
1F
100
AcDbEntity
  8
외형선
  6
Continuous
370
    15
100
AcDbSpline
210
0.0
220
0.0
230
1.0
 70
     8
 71
     3
 72
    10
 73
     6
 74
     0
 42
0.000000001
 43
0.00000001
 40
0.0
 40
0.0
 40
0.0
 40
0.0
 40
0.5
 40
0.5
 40
1.0
 40
1.0
 40
1.0
 40
1.0
 10
-25.39999999999592
 20
0.796151291151057
 30
0.0
 10
-25.31586299546175
 20
0.7673306659611557
 30
0.0
 10
-25.2314017655906
 20
0.7356293808895787
 30
0.0
 10
-25.06450957844542
 20
0.6675159329728916
 30
0.0
 10
-24.98319415036136
 20
0.6312904047992535
 30
0.0
 10
-24.9001578626421
 20
0.59272961259167
 30
0.0
  0
LINE
  5
3CB
330
1F
100
AcDbEntity
  8
외형선
  6
Continuous
370
    15
100
AcDbLine
 10
-24.9001578626421
 20
0.9921875000000088
 30
0.0
 11
-24.9001578626421
 21
0.5926508031873626
 31
0.0
  0
SPLINE
  5
3CC
330
1F
100
AcDbEntity
  8
외형선
  6
Continuous
370
    15
100
AcDbSpline
210
0.0
220
0.0
230
1.0
 70
     8
 71
     3
 72
    10
 73
     6
 74
     0
 42
0.000000001
 43
0.00000001
 40
0.0
 40
0.0
 40
0.0
 40
0.0
 40
0.5
 40
0.5
 40
1.0
 40
1.0
 40
1.0
 40
1.0
 10
-25.39999999999589
 20
0.83030054918345
 30
0.0
 10
-25.31586299546175
 20
0.8567397679023417
 30
0.0
 10
-25.23140176559063
 20
0.880245707102384
 30
0.0
 10
-25.06450957844542
 20
0.9206948652432362
 30
0.0
 10
-24.98319415036136
 20
0.9375916609993683
 30
0.0
 10
-24.9001578626421
 20
0.9512596062418853
 30
0.0
  0
SPLINE
  5
3CD
330
1F
100
AcDbEntity
  8
외형선
  6
Continuous
370
    15
100
AcDbSpline
210
0.0
220
0.0
230
1.0
 70
    24
 71
     3
 72
    20
 73
    16
 74
     0
 42
0.000000001
 43
0.00000001
 40
0.0
 40
0.0
 40
0.0
 40
0.0
 40
0.1249999999999999
 40
0.1249999999999999
 40
0.2499999999999999
 40
0.2499999999999999
 40
0.3749999999999998
 40
0.3749999999999998
 40
0.4999999999999999
 40
0.4999999999999999
 40
0.7499999999999997
 40
0.7499999999999997
 40
0.8749999999999999
 40
0.8749999999999999
 40
1.0
 40
1.0
 40
1.0
 40
1.0
 10
-25.40000000000001
 20
0.5431731152993978
 30
0.0
 10
-25.40000000000004
 20
0.5246289907808207
 30
0.0
 10
-25.40000000000001
 20
0.4930726804736042
 30
0.0
 10
-25.40000000000001
 20
0.4023392010733761
 30
0.0
 10
-25.40000000000001
 20
0.3431262626466295
 30
0.0
 10
-25.40000000000001
 20
0.2079391081056999
 30
0.0
 10
-25.40000000000001
 20
0.1323593148529002
 30
0.0
 10
-25.40000000000004
 20
-0.0170857681439697
 30
0.0
 10
-25.40000000000004
 20
-0.0906272828203055
 30
0.0
 10
-25.40000000000007
 20
-0.2889997694951828
 30
0.0
 10
-25.40000000000001
 20
-0.3887298580248367
 30
0.0
 10
-25.40000000000001
 20
-0.489254651961451
 30
0.0
 10
-25.40000000000004
 20
-0.5153577233928514
 30
0.0
 10
-25.40000000000004
 20
-0.5568061178640901
 30
0.0
 10
-25.40000000000001
 20
-0.5763521605060459
 30
0.0
 10
-25.40000000000001
 20
-0.5920972527827556
 30
0.0
  0
ENDSEC
  0
SECTION
  2
OBJECTS
  0
DICTIONARY
  5
C
330
0
100
AcDbDictionary
281
     1
  3
ACAD_GROUP
350
D
  3
ACAD_IMAGE_VARS
350
155
  3
ACAD_LAYOUT
350
1A
  3
ACAD_MLINESTYLE
350
17
  3
ACAD_PLOTSETTINGS
350
19
  3
ACAD_PLOTSTYLENAME
350
E
  3
ACAD_SCALELIST
350
47
  3
APPDATA
350
153
  3
DWGPROPS
350
423
  0
DICTIONARY
  5
21B
330
2
100
AcDbDictionary
280
     1
281
     1
  3
ACAD_LAYERSTATES
360
21C
  0
DICTIONARY
  5
D
102
{ACAD_REACTORS
330
C
102
}
330
C
100
AcDbDictionary
281
     1
  0
RASTERVARIABLES
  5
155
102
{ACAD_REACTORS
330
C
102
}
330
C
100
AcDbRasterVariables
 90
        0
 70
     1
 71
     1
 72
     1
  0
DICTIONARY
  5
1A
102
{ACAD_REACTORS
330
C
102
}
330
C
100
AcDbDictionary
281
     1
  3
Layout1
350
1E
  3
Layout2
350
26
  3
Model
350
22
  0
DICTIONARY
  5
17
102
{ACAD_REACTORS
330
C
102
}
330
C
100
AcDbDictionary
281
     1
  3
Standard
350
18
  0
DICTIONARY
  5
19
102
{ACAD_REACTORS
330
C
102
}
330
C
100
AcDbDictionary
281
     1
  0
ACDBDICTIONARYWDFLT
  5
E
102
{ACAD_REACTORS
330
C
102
}
330
C
100
AcDbDictionary
281
     1
  3
Normal
350
F
100
AcDbDictionaryWithDefault
340
F
  0
DICTIONARY
  5
47
102
{ACAD_REACTORS
330
C
102
}
330
C
100
AcDbDictionary
281
     1
  3
A0
350
48
  3
A1
350
49
  3
A2
350
4A
  3
A3
350
4B
  3
A4
350
4C
  3
A5
350
4D
  3
A6
350
4E
  3
A7
350
4F
  3
A8
350
50
  3
A9
350
51
  3
B0
350
52
  3
B1
350
53
  3
B2
350
54
  3
B3
350
55
  3
B4
350
56
  3
B5
350
57
  3
B6
350
58
  3
B7
350
59
  3
B8
350
5A
  3
B9
350
5B
  3
C0
350
5C
  3
C1
350
5D
  3
C2
350
5E
  3
C3
350
5F
  3
C4
350
60
  3
C5
350
61
  3
C6
350
62
  3
C7
350
63
  3
C8
350
64
  3
C9
350
65
  3
D0
350
66
  3
D1
350
67
  3
D2
350
68
  0
DICTIONARY
  5
153
102
{ACAD_REACTORS
330
C
102
}
330
C
100
AcDbDictionary
281
     1
  0
XRECORD
  5
423
102
{ACAD_REACTORS
330
C
102
}
330
C
100
AcDbXrecord
280
     1
  1
DWGPROPS COOKIE
  2

  3

  4

  6

  7

  8
12016016
  9

300
=
301
=
302
=
303
=
304
=
305
=
306
=
307
=
308
=
309
=
 40
0.0
 41
2458313.105131528
 42
2458320.376332882
  1

 90
        0
  0
DICTIONARY
  5
21C
102
{ACAD_REACTORS
330
21B
102
}
330
21B
100
AcDbDictionary
281
     1
  0
LAYOUT
  5
1E
102
{ACAD_REACTORS
330
1A
102
}
330
1A
100
AcDbPlotSettings
  1

  2
none_device
  4

  6

 40
0.0
 41
0.0
 42
0.0
 43
0.0
 44
0.0
 45
0.0
 46
0.0
 47
0.0
 48
0.0
 49
0.0
140
0.0
141
0.0
142
1.0
143
1.0
 70
   688
 72
     1
 73
     0
 74
     5
  7

 75
    16
147
1.0
148
0.0
149
0.0
100
AcDbLayout
  1
Layout1
 70
     1
 71
     1
 10
0.0
 20
0.0
 11
420.0
 21
297.0
 12
0.0
 22
0.0
 32
0.0
 14
1.000000000000000E+20
 24
1.000000000000000E+20
 34
1.000000000000000E+20
 15
-1.000000000000000E+20
 25
-1.000000000000000E+20
 35
-1.000000000000000E+20
146
0.0
 13
0.0
 23
0.0
 33
0.0
 16
1.0
 26
0.0
 36
0.0
 17
0.0
 27
1.0
 37
0.0
 76
     0
330
1B
  0
LAYOUT
  5
26
102
{ACAD_REACTORS
330
1A
102
}
330
1A
100
AcDbPlotSettings
  1

  2
none_device
  4

  6

 40
0.0
 41
0.0
 42
0.0
 43
0.0
 44
0.0
 45
0.0
 46
0.0
 47
0.0
 48
0.0
 49
0.0
140
0.0
141
0.0
142
1.0
143
1.0
 70
   688
 72
     1
 73
     0
 74
     5
  7

 75
    16
147
1.0
148
0.0
149
0.0
100
AcDbLayout
  1
Layout2
 70
     1
 71
     2
 10
0.0
 20
0.0
 11
0.0
 21
0.0
 12
0.0
 22
0.0
 32
0.0
 14
0.0
 24
0.0
 34
0.0
 15
0.0
 25
0.0
 35
0.0
146
0.0
 13
0.0
 23
0.0
 33
0.0
 16
1.0
 26
0.0
 36
0.0
 17
0.0
 27
1.0
 37
0.0
 76
     0
330
23
  0
LAYOUT
  5
22
102
{ACAD_REACTORS
330
1A
102
}
330
1A
100
AcDbPlotSettings
  1

  2
none_device
  4
ANSI_A_(11.00_x_8.50_Inches)
  6

 40
6.35
 41
19.05
 42
6.35000508
 43
19.05000254
 44
279.4
 45
215.9
 46
116.0200047679344
 47
80.62491509949692
 48
0.0
 49
0.0
140
0.0
141
0.0
142
0.0752558462788414
143
1.0
 70
  1696
 72
     0
 73
     0
 74
     0
  7

 75
     0
147
0.0235690232323232
148
0.0
149
0.0
100
AcDbLayout
  1
Model
 70
     1
 71
     0
 10
0.0
 20
0.0
 11
420.0
 21
297.0
 12
0.0
 22
0.0
 32
0.0
 14
-49.12500000000004
 24
-49.97180738881174
 34
0.0
 15
81.41936447236121
 25
35.59618750000007
 35
0.0
146
0.0
 13
0.0
 23
0.0
 33
0.0
 16
1.0
 26
0.0
 36
0.0
 17
0.0
 27
1.0
 37
0.0
 76
     0
330
1F
331
29
  0
MLINESTYLE
  5
18
102
{ACAD_REACTORS
330
17
102
}
330
17
100
AcDbMlineStyle
  2
Standard
 70
     0
  3

 62
   256
 51
90.0
 52
90.0
 71
     2
 49
0.5
 62
   256
  6
BYLAYER
 49
-0.5
 62
   256
  6
BYLAYER
  0
ACDBPLACEHOLDER
  5
F
102
{ACAD_REACTORS
330
E
102
}
330
E
  0
SCALE
  5
48
102
{ACAD_REACTORS
330
47
102
}
330
47
100
AcDbScale
 70
     0
300
1:1
140
1.0
141
1.0
290
     1
  0
SCALE
  5
49
102
{ACAD_REACTORS
330
47
102
}
330
47
100
AcDbScale
 70
     0
300
1:2
140
1.0
141
2.0
290
     0
  0
SCALE
  5
4A
102
{ACAD_REACTORS
330
47
102
}
330
47
100
AcDbScale
 70
     0
300
1:4
140
1.0
141
4.0
290
     0
  0
SCALE
  5
4B
102
{ACAD_REACTORS
330
47
102
}
330
47
100
AcDbScale
 70
     0
300
1:5
140
1.0
141
5.0
290
     0
  0
SCALE
  5
4C
102
{ACAD_REACTORS
330
47
102
}
330
47
100
AcDbScale
 70
     0
300
1:8
140
1.0
141
8.0
290
     0
  0
SCALE
  5
4D
102
{ACAD_REACTORS
330
47
102
}
330
47
100
AcDbScale
 70
     0
300
1:10
140
1.0
141
10.0
290
     0
  0
SCALE
  5
4E
102
{ACAD_REACTORS
330
47
102
}
330
47
100
AcDbScale
 70
     0
300
1:16
140
1.0
141
16.0
290
     0
  0
SCALE
  5
4F
102
{ACAD_REACTORS
330
47
102
}
330
47
100
AcDbScale
 70
     0
300
1:20
140
1.0
141
20.0
290
     0
  0
SCALE
  5
50
102
{ACAD_REACTORS
330
47
102
}
330
47
100
AcDbScale
 70
     0
300
1:30
140
1.0
141
30.0
290
     0
  0
SCALE
  5
51
102
{ACAD_REACTORS
330
47
102
}
330
47
100
AcDbScale
 70
     0
300
1:40
140
1.0
141
40.0
290
     0
  0
SCALE
  5
52
102
{ACAD_REACTORS
330
47
102
}
330
47
100
AcDbScale
 70
     0
300
1:50
140
1.0
141
50.0
290
     0
  0
SCALE
  5
53
102
{ACAD_REACTORS
330
47
102
}
330
47
100
AcDbScale
 70
     0
300
1:100
140
1.0
141
100.0
290
     0
  0
SCALE
  5
54
102
{ACAD_REACTORS
330
47
102
}
330
47
100
AcDbScale
 70
     0
300
2:1
140
2.0
141
1.0
290
     0
  0
SCALE
  5
55
102
{ACAD_REACTORS
330
47
102
}
330
47
100
AcDbScale
 70
     0
300
4:1
140
4.0
141
1.0
290
     0
  0
SCALE
  5
56
102
{ACAD_REACTORS
330
47
102
}
330
47
100
AcDbScale
 70
     0
300
8:1
140
8.0
141
1.0
290
     0
  0
SCALE
  5
57
102
{ACAD_REACTORS
330
47
102
}
330
47
100
AcDbScale
 70
     0
300
10:1
140
10.0
141
1.0
290
     0
  0
SCALE
  5
58
102
{ACAD_REACTORS
330
47
102
}
330
47
100
AcDbScale
 70
     0
300
100:1
140
100.0
141
1.0
290
     0
  0
SCALE
  5
59
102
{ACAD_REACTORS
330
47
102
}
330
47
100
AcDbScale
 70
     0
300
1/128" = 1'-0"
140
0.0078125
141
12.0
290
     0
  0
SCALE
  5
5A
102
{ACAD_REACTORS
330
47
102
}
330
47
100
AcDbScale
 70
     0
300
1/64" = 1'-0"
140
0.015625
141
12.0
290
     0
  0
SCALE
  5
5B
102
{ACAD_REACTORS
330
47
102
}
330
47
100
AcDbScale
 70
     0
300
1/32" = 1'-0"
140
0.03125
141
12.0
290
     0
  0
SCALE
  5
5C
102
{ACAD_REACTORS
330
47
102
}
330
47
100
AcDbScale
 70
     0
300
1/16" = 1'-0"
140
0.0625
141
12.0
290
     0
  0
SCALE
  5
5D
102
{ACAD_REACTORS
330
47
102
}
330
47
100
AcDbScale
 70
     0
300
3/32" = 1'-0"
140
0.09375
141
12.0
290
     0
  0
SCALE
  5
5E
102
{ACAD_REACTORS
330
47
102
}
330
47
100
AcDbScale
 70
     0
300
1/8" = 1'-0"
140
0.125
141
12.0
290
     0
  0
SCALE
  5
5F
102
{ACAD_REACTORS
330
47
102
}
330
47
100
AcDbScale
 70
     0
300
3/16" = 1'-0"
140
0.1875
141
12.0
290
     0
  0
SCALE
  5
60
102
{ACAD_REACTORS
330
47
102
}
330
47
100
AcDbScale
 70
     0
300
1/4" = 1'-0"
140
0.25
141
12.0
290
     0
  0
SCALE
  5
61
102
{ACAD_REACTORS
330
47
102
}
330
47
100
AcDbScale
 70
     0
300
3/8" = 1'-0"
140
0.375
141
12.0
290
     0
  0
SCALE
  5
62
102
{ACAD_REACTORS
330
47
102
}
330
47
100
AcDbScale
 70
     0
300
1/2" = 1'-0"
140
0.5
141
12.0
290
     0
  0
SCALE
  5
63
102
{ACAD_REACTORS
330
47
102
}
330
47
100
AcDbScale
 70
     0
300
3/4" = 1'-0"
140
0.75
141
12.0
290
     0
  0
SCALE
  5
64
102
{ACAD_REACTORS
330
47
102
}
330
47
100
AcDbScale
 70
     0
300
1" = 1'-0"
140
1.0
141
12.0
290
     0
  0
SCALE
  5
65
102
{ACAD_REACTORS
330
47
102
}
330
47
100
AcDbScale
 70
     0
300
1-1/2" = 1'-0"
140
1.5
141
12.0
290
     0
  0
SCALE
  5
66
102
{ACAD_REACTORS
330
47
102
}
330
47
100
AcDbScale
 70
     0
300
3" = 1'-0"
140
3.0
141
12.0
290
     0
  0
SCALE
  5
67
102
{ACAD_REACTORS
330
47
102
}
330
47
100
AcDbScale
 70
     0
300
6" = 1'-0"
140
6.0
141
12.0
290
     0
  0
SCALE
  5
68
102
{ACAD_REACTORS
330
47
102
}
330
47
100
AcDbScale
 70
     0
300
1'-0" = 1'-0"
140
12.0
141
12.0
290
     0
  0
ENDSEC
  0
EOF
