  0
SECTION
  2
HEADER
  9
$ACADVER
  1
AC1015
  9
$ACADMAINTVER
 70
     6
  9
$DWGCODEPAGE
  3
ANSI_949
  9
$INSBASE
 10
0.0
 20
0.0
 30
0.0
  9
$EXTMIN
 10
-49.12500000000004
 20
-49.97180738881174
 30
0.0
  9
$EXTMAX
 10
81.41936447236121
 20
34.96122323803248
 30
0.0
  9
$LIMMIN
 10
0.0
 20
0.0
  9
$LIMMAX
 10
420.0
 20
297.0
  9
$ORTHOMODE
 70
     1
  9
$REGENMODE
 70
     1
  9
$FILLMODE
 70
     1
  9
$QTEXTMODE
 70
     0
  9
$MIRRTEXT
 70
     1
  9
$LTSCALE
 40
1.0
  9
$ATTMODE
 70
     1
  9
$TEXTSIZE
 40
3.5
  9
$TRACEWID
 40
1.0
  9
$TEXTSTYLE
  7
Standard
  9
$CLAYER
  8
0
  9
$CELTYPE
  6
ByLayer
  9
$CECOLOR
 62
   256
  9
$CELTSCALE
 40
1.0
  9
$DISPSILH
 70
     0
  9
$DIMSCALE
 40
1.0
  9
$DIMASZ
 40
3.302
  9
$DIMEXO
 40
1.0
  9
$DIMDLI
 40
3.75
  9
$DIMRND
 40
0.0
  9
$DIMDLE
 40
0.0
  9
$DIMEXE
 40
1.0
  9
$DIMTP
 40
0.0
  9
$DIMTM
 40
0.0
  9
$DIMTXT
 40
3.5
  9
$DIMCEN
 40
2.5
  9
$DIMTSZ
 40
0.0
  9
$DIMTOL
 70
     0
  9
$DIMLIM
 70
     0
  9
$DIMTIH
 70
     1
  9
$DIMTOH
 70
     1
  9
$DIMSE1
 70
     0
  9
$DIMSE2
 70
     0
  9
$DIMTAD
 70
     1
  9
$DIMZIN
 70
     0
  9
$DIMBLK
  1

  9
$DIMASO
 70
     1
  9
$DIMSHO
 70
     1
  9
$DIMPOST
  1

  9
$DIMAPOST
  1

  9
$DIMALT
 70
     0
  9
$DIMALTD
 70
     3
  9
$DIMALTF
 40
0.0393700787401575
  9
$DIMLFAC
 40
1.0
  9
$DIMTOFL
 70
     1
  9
$DIMTVP
 40
0.0
  9
$DIMTIX
 70
     0
  9
$DIMSOXD
 70
     0
  9
$DIMSAH
 70
     0
  9
$DIMBLK1
  1

  9
$DIMBLK2
  1

  9
$DIMSTYLE
  2
ISO-25
  9
$DIMCLRD
 70
     0
  9
$DIMCLRE
 70
     0
  9
$DIMCLRT
 70
     0
  9
$DIMTFAC
 40
1.0
  9
$DIMGAP
 40
1.524
  9
$DIMJUST
 70
     0
  9
$DIMSD1
 70
     0
  9
$DIMSD2
 70
     0
  9
$DIMTOLJ
 70
     0
  9
$DIMTZIN
 70
     0
  9
$DIMALTZ
 70
     0
  9
$DIMALTTZ
 70
     0
  9
$DIMUPT
 70
     0
  9
$DIMDEC
 70
     2
  9
$DIMTDEC
 70
     2
  9
$DIMALTU
 70
     2
  9
$DIMALTTD
 70
     3
  9
$DIMTXSTY
  7
Standard
  9
$DIMAUNIT
 70
     0
  9
$DIMADEC
 70
     2
  9
$DIMALTRND
 40
0.0
  9
$DIMAZIN
 70
     0
  9
$DIMDSEP
 70
    44
  9
$DIMATFIT
 70
     3
  9
$DIMFRAC
 70
     0
  9
$DIMLDRBLK
  1

  9
$DIMLUNIT
 70
     2
  9
$DIMLWD
 70
    -2
  9
$DIMLWE
 70
    -2
  9
$DIMTMOVE
 70
     0
  9
$LUNITS
 70
     2
  9
$LUPREC
 70
     2
  9
$SKETCHINC
 40
1.0
  9
$FILLETRAD
 40
10.0
  9
$AUNITS
 70
     0
  9
$AUPREC
 70
     2
  9
$MENU
  1
.
  9
$ELEVATION
 40
0.0
  9
$PELEVATION
 40
0.0
  9
$THICKNESS
 40
0.0
  9
$LIMCHECK
 70
     0
  9
$CHAMFERA
 40
0.0
  9
$CHAMFERB
 40
0.0
  9
$CHAMFERC
 40
0.0
  9
$CHAMFERD
 40
0.0
  9
$SKPOLY
 70
     0
  9
$TDCREATE
 40
2458313.479919734
  9
$TDUCREATE
 40
2458313.104919734
  9
$TDUPDATE
 40
2458320.751397303
  9
$TDUUPDATE
 40
2458320.376397303
  9
$TDINDWG
 40
0.0017819097
  9
$TDUSRTIMER
 40
2458320.376349456
  9
$USRTIMER
 70
     1
  9
$ANGBASE
 50
0.0
  9
$ANGDIR
 70
     0
  9
$PDMODE
 70
     0
  9
$PDSIZE
 40
-1.0
  9
$PLINEWID
 40
0.0
  9
$SPLFRAME
 70
     0
  9
$SPLINETYPE
 70
     6
  9
$SPLINESEGS
 70
     8
  9
$HANDSEED
  5
3CE
  9
$SURFTAB1
 70
     6
  9
$SURFTAB2
 70
     6
  9
$SURFTYPE
 70
     6
  9
$SURFU
 70
     6
  9
$SURFV
 70
     6
  9
$UCSBASE
  2

  9
$UCSNAME
  2

  9
$UCSORG
 10
0.0
 20
0.0
 30
0.0
  9
$UCSXDIR
 10
1.0
 20
0.0
 30
0.0
  9
$UCSYDIR
 10
0.0
 20
1.0
 30
0.0
  9
$UCSORTHOREF
  2

  9
$UCSORTHOVIEW
 70
     0
  9
$UCSORGTOP
 10
0.0
 20
0.0
 30
0.0
  9
$UCSORGBOTTOM
 10
0.0
 20
0.0
 30
0.0
  9
$UCSORGLEFT
 10
0.0
 20
0.0
 30
0.0
  9
$UCSORGRIGHT
 10
0.0
 20
0.0
 30
0.0
  9
$UCSORGFRONT
 10
0.0
 20
0.0
 30
0.0
  9
$UCSORGBACK
 10
0.0
 20
0.0
 30
0.0
  9
$PUCSBASE
  2

  9
$PUCSNAME
  2

  9
$PUCSORG
 10
0.0
 20
0.0
 30
0.0
  9
$PUCSXDIR
 10
1.0
 20
0.0
 30
0.0
  9
$PUCSYDIR
 10
0.0
 20
1.0
 30
0.0
  9
$PUCSORTHOREF
  2

  9
$PUCSORTHOVIEW
 70
     0
  9
$PUCSORGTOP
 10
0.0
 20
0.0
 30
0.0
  9
$PUCSORGBOTTOM
 10
0.0
 20
0.0
 30
0.0
  9
$PUCSORGLEFT
 10
0.0
 20
0.0
 30
0.0
  9
$PUCSORGRIGHT
 10
0.0
 20
0.0
 30
0.0
  9
$PUCSORGFRONT
 10
0.0
 20
0.0
 30
0.0
  9
$PUCSORGBACK
 10
0.0
 20
0.0
 30
0.0
  9
$USERI1
 70
     0
  9
$USERI2
 70
     0
  9
$USERI3
 70
     0
  9
$USERI4
 70
     0
  9
$USERI5
 70
     0
  9
$USERR1
 40
0.0
  9
$USERR2
 40
0.0
  9
$USERR3
 40
0.0
  9
$USERR4
 40
0.0
  9
$USERR5
 40
0.0
  9
$WORLDVIEW
 70
     1
  9
$SHADEDGE
 70
     3
  9
$SHADEDIF
 70
    70
  9
$TILEMODE
 70
     1
  9
$MAXACTVP
 70
    64
  9
$PINSBASE
 10
0.0
 20
0.0
 30
0.0
  9
$PLIMCHECK
 70
     0
  9
$PEXTMIN
 10
1.000000000000000E+20
 20
1.000000000000000E+20
 30
1.000000000000000E+20
  9
$PEXTMAX
 10
-1.000000000000000E+20
 20
-1.000000000000000E+20
 30
-1.000000000000000E+20
  9
$PLIMMIN
 10
0.0
 20
0.0
  9
$PLIMMAX
 10
0.0
 20
0.0
  9
$UNITMODE
 70
     0
  9
$VISRETAIN
 70
     1
  9
$PLINEGEN
 70
     0
  9
$PSLTSCALE
 70
     1
  9
$TREEDEPTH
 70
  3020
  9
$CMLSTYLE
  2
Standard
  9
$CMLJUST
 70
     0
  9
$CMLSCALE
 40
20.0
  9
$PROXYGRAPHICS
 70
     1
  9
$MEASUREMENT
 70
     1
  9
$CELWEIGHT
370
    -1
  9
$ENDCAPS
280
     0
  9
$JOINSTYLE
280
     0
  9
$LWDISPLAY
290
     1
  9
$INSUNITS
 70
     4
  9
$HYPERLINKBASE
  1

  9
$STYLESHEET
  1

  9
$XEDIT
290
     1
  9
$CEPSNTYPE
380
     0
  9
$PSTYLEMODE
290
     1
  9
$FINGERPRINTGUID
  2
{6EDBA717-A823-40C1-B00E-8FB4B4063374}
  9
$VERSIONGUID
  2
{FAEB1C32-E019-11D5-929B-00C0DF256EC4}
  9
$EXTNAMES
290
     1
  9
$PSVPSCALE
 40
0.0
  9
$OLESTARTUP
290
     0
  0
ENDSEC
  0
SECTION
  2
CLASSES
  0
CLASS
  1
ACDBDICTIONARYWDFLT
  2
AcDbDictionaryWithDefault
  3
ObjectDBX Classes
 90
        0
280
     0
281
     0
  0
CLASS
  1
VISUALSTYLE
  2
AcDbVisualStyle
  3
ObjectDBX Classes
 90
     4095
280
     0
281
     0
  0
CLASS
  1
MATERIAL
  2
AcDbMaterial
  3
ObjectDBX Classes
 90
     1153
280
     0
281
     0
  0
CLASS
  1
SCALE
  2
AcDbScale
  3
ObjectDBX Classes
 90
     1153
280
     0
281
     0
  0
CLASS
  1
SUN
  2
AcDbSun
  3
SCENEOE
 90
     1153
280
     0
281
     0
  0
CLASS
  1
ACDBPLACEHOLDER
  2
AcDbPlaceHolder
  3
ObjectDBX Classes
 90
        0
280
     0
281
     0
  0
CLASS
  1
LAYOUT
  2
AcDbLayout
  3
ObjectDBX Classes
 90
        0
280
     0
281
     0
  0
CLASS
  1
TABLESTYLE
  2
AcDbTableStyle
  3
ObjectDBX Classes
 90
     4095
280
     0
281
     0
  0
CLASS
  1
MLEADERSTYLE
  2
AcDbMLeaderStyle
  3
ACDB_MLEADERSTYLE_CLASS
 90
     4095
280
     0
281
     0
  0
CLASS
  1
RASTERVARIABLES
  2
AcDbRasterVariables
  3
ISM
 90
        0
280
     0
281
     0
  0
ENDSEC
  0
SECTION
  2
TABLES
  0
TABLE
  2
VPORT
  5
8
330
0
100
AcDbSymbolTable
 70
     1
  0
VPORT
  5
29
330
8
100
AcDbSymbolTableRecord
100
AcDbViewportTableRecord
  2
*Active
 70
     0
 10
0.0
 20
0.0
 11
1.0
 21
1.0
 12
30.54873071173652
 22
9.053128510567525
 13
0.0
 23
0.0
 14
10.0
 24
10.0
 15
10.0
 25
10.0
 16
0.0
 26
0.0
 36
1.0
 17
0.0
 27
0.0
 37
0.0
 40
141.8598223586892
 41
1.632093933463796
 42
50.0
 43
0.0
 44
0.0
 50
0.0
 51
0.0
 71
    16
 72
  2000
 73
     1
 74
     3
 75
     0
 76
     0
 77
     0
 78
     0
281
     0
 65
     1
110
0.0
120
0.0
130
0.0
111
1.0
121
0.0
131
0.0
112
0.0
122
1.0
132
0.0
 79
     0
146
0.0
  0
ENDTAB
  0
TABLE
  2
LTYPE
  5
5
330
0
100
AcDbSymbolTable
 70
     6
  0
LTYPE
  5
14
330
5
100
AcDbSymbolTableRecord
100
AcDbLinetypeTableRecord
  2
ByBlock
 70
     0
  3

 72
    65
 73
     0
 40
0.0
  0
LTYPE
  5
15
330
5
100
AcDbSymbolTableRecord
100
AcDbLinetypeTableRecord
  2
ByLayer
 70
     0
  3

 72
    65
 73
     0
 40
0.0
  0
LTYPE
  5
16
330
5
100
AcDbSymbolTableRecord
100
AcDbLinetypeTableRecord
  2
Continuous
 70
     0
  3
Solid line
 72
    65
 73
     0
 40
0.0
  0
LTYPE
  5
6A
330
5
100
AcDbSymbolTableRecord
100
AcDbLinetypeTableRecord
  2
HIDDEN
 70
     0
  3
Hidden __ __ __ __ __ __ __ __ __ __ __ __ __ __
 72
    65
 73
     2
 40
1.905
 49
1.27
 74
     0
 49
-0.635
 74
     0
  0
LTYPE
  5
6B
330
5
100
AcDbSymbolTableRecord
100
AcDbLinetypeTableRecord
  2
PHANTOM
 70
     0
  3
Phantom ______  __  __  ______  __  __  ______
 72
    65
 73
     6
 40
12.7
 49
6.35
 74
     0
 49
-1.27
 74
     0
 49
1.27
 74
     0
 49
-1.27
 74
     0
 49
1.27
 74
     0
 49
-1.27
 74
     0
  0
LTYPE
  5
6C
330
5
100
AcDbSymbolTableRecord
100
AcDbLinetypeTableRecord
  2
CENTER
 70
     0
  3
Center ____ _ ____ _ ____ _ ____ _ ____ _ ____
 72
    65
 73
     4
 40
10.16
 49
6.35
 74
     0
 49
-1.27
 74
     0
 49
1.27
 74
     0
 49
-1.27
 74
     0
  0
LTYPE
  5
6D
330
5
100
AcDbSymbolTableRecord
100
AcDbLinetypeTableRecord
  2
CENTERX2
 70
     0
  3
Center (2x) ________  __  ________  __  _____
 72
    65
 73
     4
 40
20.32
 49
12.7
 74
     0
 49
-2.54
 74
     0
 49
2.54
 74
     0
 49
-2.54
 74
     0
  0
LTYPE
  5
6E
330
5
100
AcDbSymbolTableRecord
100
AcDbLinetypeTableRecord
  2
DOT2
 70
     0
  3
Dot (.5x) ........................................
 72
    65
 73
     2
 40
0.635
 49
0.0
 74
     0
 49
-0.635
 74
     0
  0
ENDTAB
  0
TABLE
  2
LAYER
  5
2
102
{ACAD_XDICTIONARY
360
1F5
102
}
330
0
100
AcDbSymbolTable
 70
    18
  0
LAYER
  5
10
330
2
100
AcDbSymbolTableRecord
100
AcDbLayerTableRecord
  2
0
 70
     0
 62
     7
  6
Continuous
370
    -3
390
F
  0
LAYER
  5
6F
330
2
100
AcDbSymbolTableRecord
100
AcDbLayerTableRecord
  2
FORMAT
 70
     0
 62
     2
  6
Continuous
370
    -3
390
F
  0
LAYER
  5
70
330
2
100
AcDbSymbolTableRecord
100
AcDbLayerTableRecord
  2
외형선
 70
     0
 62
     4
  6
Continuous
370
    30
390
F
  0
LAYER
  5
71
330
2
100
AcDbSymbolTableRecord
100
AcDbLayerTableRecord
  2
숨은선
 70
     0
 62
     2
  6
HIDDEN
370
    15
390
F
  0
LAYER
  5
72
330
2
100
AcDbSymbolTableRecord
100
AcDbLayerTableRecord
  2
중심선
 70
     0
 62
     1
  6
CENTERX2
370
    -3
390
F
  0
LAYER
  5
73
330
2
100
AcDbSymbolTableRecord
100
AcDbLayerTableRecord
  2
파단선
 70
     0
 62
     4
  6
Continuous
370
    -3
390
F
  0
LAYER
  5
74
330
2
100
AcDbSymbolTableRecord
100
AcDbLayerTableRecord
  2
해칭선
 70
     0
 62
   100
  6
Continuous
370
    -3
390
F
  0
LAYER
  5
75
330
2
100
AcDbSymbolTableRecord
100
AcDbLayerTableRecord
  2
가는실선
 70
     0
 62
     4
  6
Continuous
370
    -3
390
F
  0
LAYER
  5
76
330
2
100
AcDbSymbolTableRecord
100
AcDbLayerTableRecord
  2
치수_보조선
 70
     0
 62
     4
  6
Continuous
370
    -3
390
F
  0
LAYER
  5
77
330
2
100
AcDbSymbolTableRecord
100
AcDbLayerTableRecord
  2
치수문자_일반주서
 70
     0
 62
     7
  6
Continuous
370
    15
390
F
  0
LAYER
  5
78
330
2
100
AcDbSymbolTableRecord
100
AcDbLayerTableRecord
  2
개별주서
 70
     0
 62
   100
  6
Continuous
370
    30
390
F
  0
LAYER
  5
79
330
2
100
AcDbSymbolTableRecord
100
AcDbLayerTableRecord
  2
중간선
 70
     0
 62
     2
  6
Continuous
370
    15
390
F
  0
LAYER
  5
7A
330
2
100
AcDbSymbolTableRecord
100
AcDbLayerTableRecord
  2
윤곽선
 70
     0
 62
     3
  6
Continuous
370
    40
390
F
  0
LAYER
  5
7B
330
2
100
AcDbSymbolTableRecord
100
AcDbLayerTableRecord
  2
중심마크
 70
     0
 62
   100
  6
Continuous
370
    30
390
F
  0
LAYER
  5
7C
330
2
100
AcDbSymbolTableRecord
100
AcDbLayerTableRecord
  2
가상선
 70
     0
 62
     4
  6
PHANTOM
370
    -3
390
F
  0
LAYER
  5
7D
330
2
100
AcDbSymbolTableRecord
100
AcDbLayerTableRecord
  2
특수지정선
 70
     0
 62
     5
  6
CENTERX2
370
    60
390
F
  0
LAYER
  5
7E
330
2
100
AcDbSymbolTableRecord
100
AcDbLayerTableRecord
  2
참조1
 70
     0
 62
    -4
  6
Continuous
370
    -3
390
F
  0
LAYER
  5
159
330
2
100
AcDbSymbolTableRecord
100
AcDbLayerTableRecord
  2
Defpoints
 70
     0
 62
     7
  6
Continuous
290
     0
370
    -3
390
F
  0
ENDTAB
  0
TABLE
  2
STYLE
  5
3
330
0
100
AcDbSymbolTable
 70
     2
  0
STYLE
  5
11
330
3
100
AcDbSymbolTableRecord
100
AcDbTextStyleTableRecord
  2
Standard
 70
     0
 40
0.0
 41
1.0
 50
0.0
 71
     0
 42
3.5
  3
txt
  4

  0
STYLE
  5
94
330
3
100
AcDbSymbolTableRecord
100
AcDbTextStyleTableRecord
  2
SLDTEXTSTYLE0
 70
     0
 40
0.0
 41
0.75
 50
0.0
 71
     0
 42
3.5
  3
TXT
  4

  0
ENDTAB
  0
TABLE
  2
VIEW
  5
6
330
0
100
AcDbSymbolTable
 70
     0
  0
ENDTAB
  0
TABLE
  2
UCS
  5
7
330
0
100
AcDbSymbolTable
 70
     0
  0
ENDTAB
  0
TABLE
  2
APPID
  5
9
330
0
100
AcDbSymbolTable
 70
     1
  0
APPID
  5
12
330
9
100
AcDbSymbolTableRecord
100
AcDbRegAppTableRecord
  2
ACAD
 70
     0
  0
ENDTAB
  0
TABLE
  2
DIMSTYLE
  5
A
330
0
100
AcDbSymbolTable
 70
     3
100
AcDbDimStyleTable
  0
DIMSTYLE
105
27
330
A
100
AcDbSymbolTableRecord
100
AcDbDimStyleTableRecord
  2
ISO-25
 70
     0
 41
2.5
 42
0.625
 43
3.75
 44
1.25
 73
     0
 74
     0
 77
     1
 78
     8
140
2.5
141
2.5
143
0.03937007874016
147
0.625
171
     3
172
     1
178
     0
271
     2
272
     2
274
     3
278
    44
283
     0
284
     8
340
11
  0
DIMSTYLE
105
D5
102
{ACAD_REACTORS
330
D4
330
E9
330
112
330
FE
102
}
330
A
100
AcDbSymbolTableRecord
100
AcDbDimStyleTableRecord
  2
SLDDIMSTYLE0
 70
     0
 41
3.302
 44
0.0
 45
0.000000001
 73
     0
 74
     0
 77
     1
 78
    12
 79
     3
140
3.5
143
0.0393700787401575
147
0.875
148
0.000000001
170
     1
172
     1
173
     1
178
     0
271
     2
272
     2
276
     2
284
    12
289
     0
340
94
  0
DIMSTYLE
105
FF
330
A
100
AcDbSymbolTableRecord
100
AcDbDimStyleTableRecord
  2
SLDDIMSTYLE1
 70
     0
 41
3.302
 44
0.0
 45
0.000000001
 73
     0
 74
     0
 77
     1
 78
     4
 79
     1
140
3.5
143
0.0393700787401575
147
0.875
148
0.000000001
170
     1
173
     1
178
     0
271
     2
272
     2
276
     2
284
    12
340
94
  0
ENDTAB
  0
TABLE
  2
BLOCK_RECORD
  5
1
330
0
100
AcDbSymbolTable
 70
    19
  0
BLOCK_RECORD
  5
1F
330
1
100
AcDbSymbolTableRecord
100
AcDbBlockTableRecord
  2
*Model_Space
340
22
  0
BLOCK_RECORD
  5
1B
330
1
100
AcDbSymbolTableRecord
100
AcDbBlockTableRecord
  2
*Paper_Space
340
1E
  0
BLOCK_RECORD
  5
23
330
1
100
AcDbSymbolTableRecord
100
AcDbBlockTableRecord
  2
*Paper_Space0
340
26
  0
BLOCK_RECORD
  5
7F
330
1
100
AcDbSymbolTableRecord
100
AcDbBlockTableRecord
  2
블럭10
340
0
102
{BLKREFS
331
CD
102
}
  0
BLOCK_RECORD
  5
D6
330
1
100
AcDbSymbolTableRecord
100
AcDbBlockTableRecord
  2
_D
340
0
  0
BLOCK_RECORD
  5
EA
330
1
100
AcDbSymbolTableRecord
100
AcDbBlockTableRecord
  2
_D_1
340
0
  0
BLOCK_RECORD
  5
100
330
1
100
AcDbSymbolTableRecord
100
AcDbBlockTableRecord
  2
_D_2
340
0
  0
BLOCK_RECORD
  5
113
330
1
100
AcDbSymbolTableRecord
100
AcDbBlockTableRecord
  2
_D_3
340
0
  0
BLOCK_RECORD
  5
12D
330
1
100
AcDbSymbolTableRecord
100
AcDbBlockTableRecord
  2
SW_DOWELSYMBOL_0
340
0
102
{BLKREFS
331
133
102
}
  0
BLOCK_RECORD
  5
1F9
330
1
100
AcDbSymbolTableRecord
100
AcDbBlockTableRecord
  2
*D7
340
0
  0
BLOCK_RECORD
  5
208
330
1
100
AcDbSymbolTableRecord
100
AcDbBlockTableRecord
  2
*D8
340
0
  0
BLOCK_RECORD
  5
217
330
1
100
AcDbSymbolTableRecord
100
AcDbBlockTableRecord
  2
*D9
340
0
  0
BLOCK_RECORD
  5
267
330
1
100
AcDbSymbolTableRecord
100
AcDbBlockTableRecord
  2
*D10
340
0
  0
BLOCK_RECORD
  5
276
330
1
100
AcDbSymbolTableRecord
100
AcDbBlockTableRecord
  2
*D11
340
0
  0
BLOCK_RECORD
  5
285
330
1
100
AcDbSymbolTableRecord
100
AcDbBlockTableRecord
  2
*D12
340
0
  0
BLOCK_RECORD
  5
322
330
1
100
AcDbSymbolTableRecord
100
AcDbBlockTableRecord
  2
*D13
340
0
  0
BLOCK_RECORD
  5
331
330
1
100
AcDbSymbolTableRecord
100
AcDbBlockTableRecord
  2
*D14
340
0
  0
BLOCK_RECORD
  5
340
330
1
100
AcDbSymbolTableRecord
100
AcDbBlockTableRecord
  2
*D15
340
0
  0
BLOCK_RECORD
  5
380
330
1
100
AcDbSymbolTableRecord
100
AcDbBlockTableRecord
  2
*D16
340
0
  0
BLOCK_RECORD
  5
38F
330
1
100
AcDbSymbolTableRecord
100
AcDbBlockTableRecord
  2
*D17
340
0
  0
BLOCK_RECORD
  5
39E
330
1
100
AcDbSymbolTableRecord
100
AcDbBlockTableRecord
  2
*D18
340
0
  0
ENDTAB
  0
ENDSEC
  0
SECTION
  2
BLOCKS
  0
BLOCK
  5
20
330
1F
100
AcDbEntity
  8
0
100
AcDbBlockBegin
  2
*Model_Space
 70
     0
 10
0.0
 20
0.0
 30
0.0
  3
*Model_Space
  1
*Model_Space
  0
ENDBLK
  5
21
330
1F
100
AcDbEntity
  8
0
100
AcDbBlockEnd
  0
BLOCK
  5
1C
330
1B
100
AcDbEntity
 67
     1
  8
0
100
AcDbBlockBegin
  2
*Paper_Space
 70
     0
 10
0.0
 20
0.0
 30
0.0
  3
*Paper_Space
  1
*Paper_Space
  0
ENDBLK
  5
1D
330
1B
100
AcDbEntity
 67
     1
  8
0
100
AcDbBlockEnd
  0
BLOCK
  5
24
330
23
100
AcDbEntity
  8
0
100
AcDbBlockBegin
  2
*Paper_Space0
 70
     0
 10
0.0
 20
0.0
 30
0.0
  3
*Paper_Space0
  1
*Paper_Space0
  0
ENDBLK
  5
25
330
23
100
AcDbEntity
  8
0
100
AcDbBlockEnd
  0
BLOCK
  5
80
330
7F
100
AcDbEntity
  8
0
100
AcDbBlockBegin
  2
블럭10
 70
     2
 10
0.0
 20
0.0
 30
0.0
  3
블럭10
  1
블럭10
  0
ELLIPSE
  5
82
330
7F
100
AcDbEntity
  8
중심선
100
AcDbEllipse
 10
20.54032771741204
 20
12.0471743016438
 30
0.0
 11
6.600054785286829
 21
-1.261213355974178E-13
 31
0.0
210
0.0
220
0.0
230
1.0
 40
0.636358354079598
 41
0.9219305317359503
 42
6.513795318482858
  0
ELLIPSE
  5
83
330
7F
100
AcDbEntity
  8
중심선
100
AcDbEllipse
 10
20.54032771746488
 20
12.04717430159265
 30
0.0
 11
3.960054785062283
 21
1.540847449632565E-10
 31
0.0
210
0.0
220
0.0
230
1.0
 40
0.3939339440162632
 41
1.131841032648279
 42
5.62031148352944
  0
LINE
  5
84
330
7F
100
AcDbEntity
  8
중심선
100
AcDbLine
 10
2.268634060543552
 20
16.24717430164393
 30
0.0
 11
5.714909304380834
 21
16.24717430164393
 31
0.0
  0
LINE
  5
85
330
7F
100
AcDbEntity
  8
중심선
100
AcDbLine
 10
5.245725140726316
 20
7.84717430164391
 30
0.0
 11
8.692000384563599
 21
7.84717430164391
 31
0.0
  0
LINE
  5
86
330
7F
100
AcDbEntity
  8
중심선
100
AcDbLine
 10
15.74043728645272
 20
16.24717430164393
 30
0.0
 11
8.692000384563599
 21
7.84717430164391
 31
0.0
  0
LINE
  5
87
330
7F
100
AcDbEntity
  8
중심선
100
AcDbLine
 10
0.1404042013395286
 20
13.71084872107135
 30
0.0
 11
3.58671253028996
 21
13.71088815037384
 31
0.0
  0
LINE
  5
88
330
7F
100
AcDbEntity
  8
중심선
100
AcDbLine
 10
2.750260043222114
 20
10.84717430164391
 30
0.0
 11
6.196535287059397
 21
10.84717430164391
 31
0.0
  0
LINE
  5
89
330
7F
100
AcDbEntity
  8
중심선
100
AcDbLine
 10
12.29416204261559
 20
16.24717430164393
 30
0.0
 11
5.245725140726316
 21
7.84717430164391
 31
0.0
  0
LINE
  5
8A
330
7F
100
AcDbEntity
  8
중심선
100
AcDbLine
 10
10.72767329541681
 20
16.24717430164393
 30
0.0
 11
6.196535287059397
 21
10.84717430164391
 31
0.0
  0
LINE
  5
8B
330
7F
100
AcDbEntity
  8
중심선
100
AcDbLine
 10
7.28139805157953
 20
16.24717430164393
 30
0.0
 11
2.750260043222114
 21
10.84717430164391
 31
0.0
  0
LINE
  5
8C
330
7F
100
AcDbEntity
  8
중심선
100
AcDbLine
 10
5.714909304380834
 20
16.24717430164393
 30
0.0
 11
3.58671253028996
 21
13.71088815037384
 31
0.0
  0
LINE
  5
8D
330
7F
100
AcDbEntity
  8
중심선
100
AcDbLine
 10
2.268634060543552
 20
16.24717430164393
 30
0.0
 11
0.1404042013395286
 21
13.71084872107135
 31
0.0
  0
LINE
  5
8E
330
7F
100
AcDbEntity
  8
중심선
100
AcDbLine
 10
7.28139805157953
 20
16.24717430164393
 30
0.0
 11
10.72767329541681
 21
16.24717430164393
 31
0.0
  0
LINE
  5
8F
330
7F
100
AcDbEntity
  8
중심선
100
AcDbLine
 10
12.29416204261559
 20
16.24717430164393
 30
0.0
 11
15.74043728645272
 21
16.24717430164393
 31
0.0
  0
LINE
  5
90
330
7F
100
AcDbEntity
  8
중심선
100
AcDbLine
 10
19.22036997980202
 20
11.08717430171403
 30
0.0
 11
23.66174974927406
 21
11.08717430171406
 31
0.0
  0
LINE
  5
91
330
7F
100
AcDbEntity
  8
중심선
100
AcDbLine
 10
19.22039502424796
 20
13.00717430171391
 30
0.0
 11
19.22036997980202
 21
11.08717430171403
 31
0.0
  0
LINE
  5
92
330
7F
100
AcDbEntity
  8
중심선
100
AcDbLine
 10
19.22039502424796
 20
13.00717430171391
 30
0.0
 11
26.96566020931264
 21
13.00717430171391
 31
0.0
  0
LINE
  5
93
330
7F
100
AcDbEntity
  8
중심선
100
AcDbLine
 10
22.22332737316547
 20
13.45928029700563
 30
0.0
 11
24.52862924686651
 21
15.39360700705356
 31
0.0
  0
ATTDEF
  5
95
330
7F
100
AcDbEntity
  8
FORMAT
 62
     2
100
AcDbText
 10
4.408487351596664
 20
2.075366912832191
 30
0.0
 40
4.233333333333333
  1
E2006004
 41
0.75
  7
SLDTEXTSTYLE0
 11
4.408487351596664
 21
-0.0412997538344756
 31
0.0
100
AcDbAttributeDefinition
  3

  2
AUTOATTR0
 70
     0
 74
     1
  0
ENDBLK
  5
81
330
7F
100
AcDbEntity
  8
0
100
AcDbBlockEnd
  0
BLOCK
  5
D7
330
D6
100
AcDbEntity
  8
0
100
AcDbBlockBegin
  2
_D
 70
     0
 10
0.0
 20
0.0
 30
0.0
  3
_D
  1
_D
  0
LINE
  5
D9
330
D6
100
AcDbEntity
  8
치수문자_일반주서
 62
     0
370
    -2
100
AcDbLine
 10
31.81249999999999
 20
0.7937500000000041
 30
0.0
 11
50.04433659074267
 21
0.7937500000000703
 31
0.0
  0
LINE
  5
DA
330
D6
100
AcDbEntity
  8
치수문자_일반주서
 62
     0
370
    -2
100
AcDbLine
 10
31.81249999999999
 20
-0.7937499999999958
 30
0.0
 11
50.04433659074268
 21
-0.7937499999999282
 31
0.0
  0
LINE
  5
DB
330
D6
100
AcDbEntity
  8
치수문자_일반주서
 62
     0
370
    -2
100
AcDbLine
 10
50.04433659074267
 20
0.7937500000000703
 30
0.0
 11
50.04433659074253
 21
33.64775000000007
 31
0.0
  0
LINE
  5
DC
330
D6
100
AcDbEntity
  8
치수문자_일반주서
 62
     0
370
    -2
100
AcDbLine
 10
50.04433659074267
 20
0.7937500000000703
 30
0.0
 11
50.04433659074268
 21
-0.7937499999999282
 31
0.0
  0
LINE
  5
DD
330
D6
100
AcDbEntity
  8
치수문자_일반주서
 62
     0
370
    -2
100
AcDbLine
 10
50.04433659074266
 20
4.09575000000007
 30
0.0
 11
50.04433659074265
 21
7.39775000000007
 31
0.0
  0
LINE
  5
DE
330
D6
100
AcDbEntity
  8
치수문자_일반주서
 62
     0
370
    -2
100
AcDbLine
 10
50.0443365907427
 20
-4.095749999999928
 30
0.0
 11
50.04433659074271
 21
-7.397749999999927
 31
0.0
  0
SOLID
  5
DF
330
D6
100
AcDbEntity
  8
치수문자_일반주서
 62
     0
100
AcDbTrace
 10
49.49400325740933
 20
4.095750000000067
 30
0.0
 11
50.59466992407599
 21
4.095750000000073
 31
0.0
 12
50.04433659074267
 22
0.7937500000000703
 32
0.0
 13
50.04433659074267
 23
0.7937500000000703
 33
0.0
  0
SOLID
  5
E0
330
D6
100
AcDbEntity
  8
치수문자_일반주서
 62
     0
100
AcDbTrace
 10
50.59466992407603
 20
-4.095749999999925
 30
0.0
 11
49.49400325740936
 21
-4.095749999999931
 31
0.0
 12
50.04433659074268
 22
-0.7937499999999282
 32
0.0
 13
50.04433659074268
 23
-0.7937499999999282
 33
0.0
  0
MTEXT
  5
E1
330
D6
100
AcDbEntity
  8
치수문자_일반주서
 62
     0
100
AcDbMText
 10
45.66933659074259
 20
20.52275000000005
 30
0.0
 40
3.5
 41
0.0
 71
     2
 72
     1
  1
\A1;%%c1.59 [1/16]
  7
SLDTEXTSTYLE0
 11
-4.475859752819529E-15
 21
1.0
 31
0.0
 73
     1
 44
1.0
  0
POINT
  5
E2
330
D6
100
AcDbEntity
  8
Defpoints
 62
     0
100
AcDbPoint
 10
31.74999999999999
 20
0.7937500000000038
 30
0.0
  0
POINT
  5
E3
330
D6
100
AcDbEntity
  8
Defpoints
 62
     0
100
AcDbPoint
 10
31.74999999999999
 20
-0.7937499999999961
 30
0.0
  0
POINT
  5
E4
330
D6
100
AcDbEntity
  8
Defpoints
 62
     0
100
AcDbPoint
 10
50.04433659074268
 20
-0.7937499999999277
 30
0.0
  0
ENDBLK
  5
D8
330
D6
100
AcDbEntity
  8
0
100
AcDbBlockEnd
  0
BLOCK
  5
EB
330
EA
100
AcDbEntity
  8
0
100
AcDbBlockBegin
  2
_D_1
 70
     0
 10
0.0
 20
0.0
 30
0.0
  3
_D_1
  1
_D_1
  0
LINE
  5
ED
330
EA
100
AcDbEntity
  8
치수문자_일반주서
 62
     0
370
    -2
100
AcDbLine
 10
31.74999999999999
 20
0.8562500000000038
 30
0.0
 11
31.74999999999999
 21
17.70501823325128
 31
0.0
  0
LINE
  5
EE
330
EA
100
AcDbEntity
  8
치수문자_일반주서
 62
     0
370
    -2
100
AcDbLine
 10
26.19374999999999
 20
0.8348581802483265
 30
0.0
 11
26.19374999999999
 21
17.70501823325128
 31
0.0
  0
LINE
  5
EF
330
EA
100
AcDbEntity
  8
치수문자_일반주서
 62
     0
370
    -2
100
AcDbLine
 10
26.19374999999999
 20
17.70501823325128
 30
0.0
 11
-15.07583740151252
 21
17.70501823325128
 31
0.0
  0
LINE
  5
F0
330
EA
100
AcDbEntity
  8
치수문자_일반주서
 62
     0
370
    -2
100
AcDbLine
 10
31.74999999999999
 20
17.70501823325128
 30
0.0
 11
26.19374999999999
 21
17.70501823325128
 31
0.0
  0
LINE
  5
F1
330
EA
100
AcDbEntity
  8
치수문자_일반주서
 62
     0
370
    -2
100
AcDbLine
 10
35.05199999999999
 20
17.70501823325128
 30
0.0
 11
38.35399999999999
 21
17.70501823325128
 31
0.0
  0
LINE
  5
F2
330
EA
100
AcDbEntity
  8
치수문자_일반주서
 62
     0
370
    -2
100
AcDbLine
 10
22.89174999999999
 20
17.70501823325128
 30
0.0
 11
19.58974999999999
 21
17.70501823325128
 31
0.0
  0
SOLID
  5
F3
330
EA
100
AcDbEntity
  8
치수문자_일반주서
 62
     0
100
AcDbTrace
 10
35.05199999999999
 20
18.25535156658461
 30
0.0
 11
35.05199999999999
 21
17.15468489991795
 31
0.0
 12
31.74999999999999
 22
17.70501823325128
 32
0.0
 13
31.74999999999999
 23
17.70501823325128
 33
0.0
  0
SOLID
  5
F4
330
EA
100
AcDbEntity
  8
치수문자_일반주서
 62
     0
100
AcDbTrace
 10
22.89174999999999
 20
17.15468489991795
 30
0.0
 11
22.89174999999999
 21
18.25535156658461
 31
0.0
 12
26.19374999999999
 22
17.70501823325128
 32
0.0
 13
26.19374999999999
 23
17.70501823325128
 33
0.0
  0
MTEXT
  5
F5
330
EA
100
AcDbEntity
  8
치수문자_일반주서
 62
     0
100
AcDbMText
 10
-1.950837401512516
 20
22.08001823325128
 30
0.0
 40
3.5
 41
0.0
 71
     2
 72
     1
  1
\A1;5.56 [7/32]
  7
SLDTEXTSTYLE0
 73
     1
 44
1.0
  0
POINT
  5
F6
330
EA
100
AcDbEntity
  8
Defpoints
 62
     0
100
AcDbPoint
 10
31.74999999999999
 20
0.7937500000000038
 30
0.0
  0
POINT
  5
F7
330
EA
100
AcDbEntity
  8
Defpoints
 62
     0
100
AcDbPoint
 10
26.19374999999999
 20
0.7723581802483265
 30
0.0
  0
POINT
  5
F8
330
EA
100
AcDbEntity
  8
Defpoints
 62
     0
100
AcDbPoint
 10
26.19374999999999
 20
17.70501823325128
 30
0.0
  0
ENDBLK
  5
EC
330
EA
100
AcDbEntity
  8
0
100
AcDbBlockEnd
  0
BLOCK
  5
101
330
100
100
AcDbEntity
  8
0
100
AcDbBlockBegin
  2
_D_2
 70
     0
 10
0.0
 20
0.0
 30
0.0
  3
_D_2
  1
_D_2
  0
LINE
  5
103
330
100
100
AcDbEntity
  8
치수문자_일반주서
 62
     0
370
    -2
100
AcDbLine
 10
31.74999999999999
 20
0.8562500000000038
 30
0.0
 11
31.74999999999999
 21
30.58622323803248
 31
0.0
  0
LINE
  5
104
330
100
100
AcDbEntity
  8
치수문자_일반주서
 62
     0
370
    -2
100
AcDbLine
 10
-31.75000000000001
 20
0.856250000000001
 30
0.0
 11
-31.75000000000001
 21
30.58622323803248
 31
0.0
  0
LINE
  5
105
330
100
100
AcDbEntity
  8
치수문자_일반주서
 62
     0
370
    -2
100
AcDbLine
 10
28.44799999999999
 20
30.58622323803248
 30
0.0
 11
-28.44800000000001
 21
30.58622323803248
 31
0.0
  0
SOLID
  5
106
330
100
100
AcDbEntity
  8
치수문자_일반주서
 62
     0
100
AcDbTrace
 10
28.44799999999999
 20
30.03588990469915
 30
0.0
 11
28.44799999999999
 21
31.13655657136582
 31
0.0
 12
31.74999999999999
 22
30.58622323803248
 32
0.0
 13
31.74999999999999
 23
30.58622323803248
 33
0.0
  0
SOLID
  5
107
330
100
100
AcDbEntity
  8
치수문자_일반주서
 62
     0
100
AcDbTrace
 10
-28.44800000000001
 20
31.13655657136582
 30
0.0
 11
-28.44800000000001
 21
30.03588990469915
 31
0.0
 12
-31.75000000000001
 22
30.58622323803248
 32
0.0
 13
-31.75000000000001
 23
30.58622323803248
 33
0.0
  0
MTEXT
  5
108
330
100
100
AcDbEntity
  8
치수문자_일반주서
 62
     0
100
AcDbMText
 10
0.0479702716431873
 20
34.96122323803248
 30
0.0
 40
3.5
 41
0.0
 71
     2
 72
     1
  1
\A1;63.5 [2 1/2]
  7
SLDTEXTSTYLE0
 73
     1
 44
1.0
  0
POINT
  5
109
330
100
100
AcDbEntity
  8
Defpoints
 62
     0
100
AcDbPoint
 10
31.74999999999999
 20
0.7937500000000038
 30
0.0
  0
POINT
  5
10A
330
100
100
AcDbEntity
  8
Defpoints
 62
     0
100
AcDbPoint
 10
-31.75000000000001
 20
0.793750000000001
 30
0.0
  0
POINT
  5
10B
330
100
100
AcDbEntity
  8
Defpoints
 62
     0
100
AcDbPoint
 10
-31.75000000000001
 20
30.58622323803248
 30
0.0
  0
ENDBLK
  5
102
330
100
100
AcDbEntity
  8
0
100
AcDbBlockEnd
  0
BLOCK
  5
114
330
113
100
AcDbEntity
  8
0
100
AcDbBlockBegin
  2
_D_3
 70
     0
 10
0.0
 20
0.0
 30
0.0
  3
_D_3
  1
_D_3
  0
LINE
  5
116
330
113
100
AcDbEntity
  8
치수문자_일반주서
 62
     0
370
    -2
100
AcDbLine
 10
-19.33161934298442
 20
2.381250000000002
 30
0.0
 11
-44.75000000000001
 21
2.381249999999907
 31
0.0
  0
LINE
  5
117
330
113
100
AcDbEntity
  8
치수문자_일반주서
 62
     0
370
    -2
100
AcDbLine
 10
-19.3316193429844
 20
-2.381250000000004
 30
0.0
 11
-44.74999999999999
 21
-2.381250000000099
 31
0.0
  0
LINE
  5
118
330
113
100
AcDbEntity
  8
치수문자_일반주서
 62
     0
370
    -2
100
AcDbLine
 10
-44.75
 20
-0.9207500000000923
 30
0.0
 11
-44.75
 21
0.9207499999999009
 31
0.0
  0
SOLID
  5
119
330
113
100
AcDbEntity
  8
치수문자_일반주서
 62
     0
100
AcDbTrace
 10
-44.19966666666667
 20
-0.9207500000000907
 30
0.0
 11
-45.30033333333333
 21
-0.920750000000094
 31
0.0
 12
-44.75000000000001
 22
2.381249999999907
 32
0.0
 13
-44.75000000000001
 23
2.381249999999907
 33
0.0
  0
SOLID
  5
11A
330
113
100
AcDbEntity
  8
치수문자_일반주서
 62
     0
100
AcDbTrace
 10
-45.30033333333333
 20
0.9207499999998993
 30
0.0
 11
-44.19966666666667
 21
0.9207499999999026
 31
0.0
 12
-44.74999999999999
 22
-2.381250000000099
 32
0.0
 13
-44.74999999999999
 23
-2.381250000000099
 33
0.0
  0
MTEXT
  5
11B
330
113
100
AcDbEntity
  8
치수문자_일반주서
 62
     0
100
AcDbMText
 10
-49.125
 20
-0.0000000000000122
 30
0.0
 40
3.5
 41
0.0
 71
     2
 72
     1
  1
\A1;%%c4.76 [3/16]
  7
SLDTEXTSTYLE0
 11
-2.983906501879682E-15
 21
1.0
 31
0.0
 73
     1
 44
1.0
  0
POINT
  5
11C
330
113
100
AcDbEntity
  8
Defpoints
 62
     0
100
AcDbPoint
 10
-19.26911934298442
 20
2.381250000000003
 30
0.0
  0
POINT
  5
11D
330
113
100
AcDbEntity
  8
Defpoints
 62
     0
100
AcDbPoint
 10
-19.2691193429844
 20
-2.381250000000003
 30
0.0
  0
POINT
  5
11E
330
113
100
AcDbEntity
  8
Defpoints
 62
     0
100
AcDbPoint
 10
-44.74999999999999
 20
-2.381250000000098
 30
0.0
  0
ENDBLK
  5
115
330
113
100
AcDbEntity
  8
0
100
AcDbBlockEnd
  0
BLOCK
  5
12E
330
12D
100
AcDbEntity
  8
0
100
AcDbBlockBegin
  2
SW_DOWELSYMBOL_0
 70
     0
 10
0.0
 20
0.0
 30
0.0
  3
SW_DOWELSYMBOL_0
  1
SW_DOWELSYMBOL_0
  0
CIRCLE
  5
130
330
12D
100
AcDbEntity
  8
해칭선
 62
     0
100
AcDbCircle
 10
0.0
 20
0.0
 30
0.0
 40
3.000000000000005
  0
HATCH
  5
131
330
12D
100
AcDbEntity
  8
0
  6
Continuous
 62
     0
370
     0
100
AcDbHatch
 10
0.0
 20
0.0
 30
0.0
210
0.0
220
0.0
230
1.0
  2
SOLID
 70
     1
 71
     0
 91
        1
 92
        0
 93
        3
 72
     2
 10
0.0
 20
0.0
 40
3.000000000000005
 50
0.0
 51
90.0
 73
     1
 72
     1
 10
0.0
 20
3.000000000000005
 11
0.0
 21
0.0
 72
     1
 10
0.0
 20
0.0
 11
3.000000000000004
 21
0.0
 97
        0
 75
     0
 76
     1
 98
        1
 10
0.0
 20
0.0
  0
HATCH
  5
132
330
12D
100
AcDbEntity
  8
0
  6
Continuous
 62
     0
370
     0
100
AcDbHatch
 10
0.0
 20
0.0
 30
0.0
210
0.0
220
0.0
230
1.0
  2
SOLID
 70
     1
 71
     0
 91
        1
 92
        0
 93
        3
 72
     2
 10
0.0
 20
0.0
 40
3.000000000000005
 50
180.0
 51
270.0000000000007
 73
     1
 72
     1
 10
0.0
 20
-3.000000000000005
 11
0.0
 21
0.0
 72
     1
 10
0.0
 20
0.0
 11
-3.000000000000004
 21
0.0
 97
        0
 75
     0
 76
     1
 98
        1
 10
0.0
 20
0.0
  0
ENDBLK
  5
12F
330
12D
100
AcDbEntity
  8
0
100
AcDbBlockEnd
  0
BLOCK
  5
1FA
330
1F9
100
AcDbEntity
  8
0
100
AcDbBlockBegin
  2
*D7
 70
     1
 10
0.0
 20
0.0
 30
0.0
  3
*D7
  1
*D8
  0
LINE
  5
1FC
330
1F9
100
AcDbEntity
  8
치수문자_일반주서
 62
     0
370
    -2
100
AcDbLine
 10
66.56250000000001
 20
6.603999999999927
 30
0.0
 11
85.50000000000003
 21
6.603999999999999
 31
0.0
  0
LINE
  5
1FD
330
1F9
100
AcDbEntity
  8
치수문자_일반주서
 62
     0
370
    -2
100
AcDbLine
 10
66.56250000000001
 20
8.190829134588462
 30
0.0
 11
85.50000000000003
 21
8.190829134588533
 31
0.0
  0
LINE
  5
1FE
330
1F9
100
AcDbEntity
  8
치수문자_일반주서
 62
     0
370
    -2
100
AcDbLine
 10
85.50000000000003
 20
8.190829134588533
 30
0.0
 11
85.50000000000003
 21
41.04482913458853
 31
0.0
  0
LINE
  5
1FF
330
1F9
100
AcDbEntity
  8
치수문자_일반주서
 62
     0
370
    -2
100
AcDbLine
 10
85.50000000000003
 20
6.603999999999999
 30
0.0
 11
85.50000000000003
 21
8.190829134588533
 31
0.0
  0
LINE
  5
200
330
1F9
100
AcDbEntity
  8
치수문자_일반주서
 62
     0
370
    -2
100
AcDbLine
 10
85.50000000000003
 20
3.302
 30
0.0
 11
85.50000000000003
 21
0.0
 31
0.0
  0
LINE
  5
201
330
1F9
100
AcDbEntity
  8
치수문자_일반주서
 62
     0
370
    -2
100
AcDbLine
 10
85.50000000000003
 20
11.49282913458853
 30
0.0
 11
85.50000000000003
 21
14.79482913458853
 31
0.0
  0
SOLID
  5
202
330
1F9
100
AcDbEntity
  8
치수문자_일반주서
 62
     0
100
AcDbTrace
 10
86.05033333333336
 20
3.302
 30
0.0
 11
84.9496666666667
 21
3.302
 31
0.0
 12
85.50000000000003
 22
6.603999999999999
 32
0.0
 13
85.50000000000003
 23
6.603999999999999
 33
0.0
  0
SOLID
  5
203
330
1F9
100
AcDbEntity
  8
치수문자_일반주서
 62
     0
100
AcDbTrace
 10
84.9496666666667
 20
11.49282913458853
 30
0.0
 11
86.05033333333336
 21
11.49282913458853
 31
0.0
 12
85.50000000000003
 22
8.190829134588533
 32
0.0
 13
85.50000000000003
 23
8.190829134588533
 33
0.0
  0
MTEXT
  5
204
330
1F9
100
AcDbEntity
  8
치수문자_일반주서
 62
     0
100
AcDbMText
 10
81.12500000000003
 20
27.91982913458853
 30
0.0
 40
3.5
 41
0.0
 71
     2
 72
     1
  1
\A1;%%c1.59 [1/16]
  7
SLDTEXTSTYLE0
 11
0.0
 21
1.0
 31
0.0
 73
     1
 44
1.0
  0
POINT
  5
205
330
1F9
100
AcDbEntity
  8
Defpoints
 62
     0
100
AcDbPoint
 10
66.50000000000001
 20
6.603999999999927
 30
0.0
  0
POINT
  5
206
330
1F9
100
AcDbEntity
  8
Defpoints
 62
     0
100
AcDbPoint
 10
66.50000000000001
 20
8.190829134588462
 30
0.0
  0
POINT
  5
207
330
1F9
100
AcDbEntity
  8
Defpoints
 62
     0
100
AcDbPoint
 10
85.50000000000011
 20
8.190829134588533
 30
0.0
  0
ENDBLK
  5
1FB
330
1F9
100
AcDbEntity
  8
0
100
AcDbBlockEnd
  0
BLOCK
  5
209
330
208
100
AcDbEntity
  8
0
100
AcDbBlockBegin
  2
*D8
 70
     1
 10
0.0
 20
0.0
 30
0.0
  3
*D8
  1
*D9
  0
LINE
  5
20B
330
208
100
AcDbEntity
  8
치수문자_일반주서
 62
     0
370
    -2
100
AcDbLine
 10
66.50000000000001
 20
8.253329134588462
 30
0.0
 11
66.50000000000001
 21
30.31347284919941
 31
0.0
  0
LINE
  5
20C
330
208
100
AcDbEntity
  8
치수문자_일반주서
 62
     0
370
    -2
100
AcDbLine
 10
60.94375000000002
 20
7.957107888956587
 30
0.0
 11
60.94375000000002
 21
30.31347284919941
 31
0.0
  0
LINE
  5
20D
330
208
100
AcDbEntity
  8
치수문자_일반주서
 62
     0
370
    -2
100
AcDbLine
 10
60.94375000000002
 20
30.31347284919941
 30
0.0
 11
28.08975000000002
 21
30.31347284919941
 31
0.0
  0
LINE
  5
20E
330
208
100
AcDbEntity
  8
치수문자_일반주서
 62
     0
370
    -2
100
AcDbLine
 10
66.50000000000001
 20
30.31347284919941
 30
0.0
 11
60.94375000000002
 21
30.31347284919941
 31
0.0
  0
LINE
  5
20F
330
208
100
AcDbEntity
  8
치수문자_일반주서
 62
     0
370
    -2
100
AcDbLine
 10
69.80200000000002
 20
30.31347284919941
 30
0.0
 11
73.10400000000001
 21
30.31347284919941
 31
0.0
  0
LINE
  5
210
330
208
100
AcDbEntity
  8
치수문자_일반주서
 62
     0
370
    -2
100
AcDbLine
 10
57.64175000000002
 20
30.31347284919941
 30
0.0
 11
54.33975000000002
 21
30.31347284919941
 31
0.0
  0
SOLID
  5
211
330
208
100
AcDbEntity
  8
치수문자_일반주서
 62
     0
100
AcDbTrace
 10
69.80200000000002
 20
30.86380618253275
 30
0.0
 11
69.80200000000002
 21
29.76313951586608
 31
0.0
 12
66.50000000000001
 22
30.31347284919941
 32
0.0
 13
66.50000000000001
 23
30.31347284919941
 33
0.0
  0
SOLID
  5
212
330
208
100
AcDbEntity
  8
치수문자_일반주서
 62
     0
100
AcDbTrace
 10
57.64175000000002
 20
29.76313951586608
 30
0.0
 11
57.64175000000002
 21
30.86380618253275
 31
0.0
 12
60.94375000000002
 22
30.31347284919941
 32
0.0
 13
60.94375000000002
 23
30.31347284919941
 33
0.0
  0
MTEXT
  5
213
330
208
100
AcDbEntity
  8
치수문자_일반주서
 62
     0
100
AcDbMText
 10
41.21475000000002
 20
34.68847284919941
 30
0.0
 40
3.5
 41
0.0
 71
     2
 72
     1
  1
\A1;5.56 [7/32]
  7
SLDTEXTSTYLE0
 73
     1
 44
1.0
  0
POINT
  5
214
330
208
100
AcDbEntity
  8
Defpoints
 62
     0
100
AcDbPoint
 10
66.50000000000001
 20
8.190829134588462
 30
0.0
  0
POINT
  5
215
330
208
100
AcDbEntity
  8
Defpoints
 62
     0
100
AcDbPoint
 10
60.94375000000002
 20
7.894607888956587
 30
0.0
  0
POINT
  5
216
330
208
100
AcDbEntity
  8
Defpoints
 62
     0
100
AcDbPoint
 10
60.94375000000002
 20
30.31347284919941
 30
0.0
  0
ENDBLK
  5
20A
330
208
100
AcDbEntity
  8
0
100
AcDbBlockEnd
  0
BLOCK
  5
218
330
217
100
AcDbEntity
  8
0
100
AcDbBlockBegin
  2
*D9
 70
     1
 10
0.0
 20
0.0
 30
0.0
  3
*D9
  1
*D10
  0
LINE
  5
21A
330
217
100
AcDbEntity
  8
치수문자_일반주서
 62
     0
370
    -2
100
AcDbLine
 10
3.000000000000028
 20
9.41082913458845
 30
0.0
 11
3.000000000000028
 21
43.77832913458848
 31
0.0
  0
LINE
  5
21B
330
217
100
AcDbEntity
  8
치수문자_일반주서
 62
     0
370
    -2
100
AcDbLine
 10
66.50000000000001
 20
8.253329134588462
 30
0.0
 11
66.50000000000001
 21
43.77832913458848
 31
0.0
  0
LINE
  5
21C
330
217
100
AcDbEntity
  8
치수문자_일반주서
 62
     0
370
    -2
100
AcDbLine
 10
6.302000000000028
 20
43.77832913458848
 30
0.0
 11
63.19800000000001
 21
43.77832913458848
 31
0.0
  0
SOLID
  5
21D
330
217
100
AcDbEntity
  8
치수문자_일반주서
 62
     0
100
AcDbTrace
 10
6.302000000000028
 20
44.32866246792182
 30
0.0
 11
6.302000000000028
 21
43.22799580125515
 31
0.0
 12
3.000000000000028
 22
43.77832913458848
 32
0.0
 13
3.000000000000028
 23
43.77832913458848
 33
0.0
  0
SOLID
  5
21E
330
217
100
AcDbEntity
  8
치수문자_일반주서
 62
     0
100
AcDbTrace
 10
63.19800000000001
 20
43.22799580125515
 30
0.0
 11
63.19800000000001
 21
44.32866246792182
 31
0.0
 12
66.50000000000001
 22
43.77832913458848
 32
0.0
 13
66.50000000000001
 23
43.77832913458848
 33
0.0
  0
MTEXT
  5
21F
330
217
100
AcDbEntity
  8
치수문자_일반주서
 62
     0
100
AcDbMText
 10
34.75000000000003
 20
48.15332913458848
 30
0.0
 40
3.5
 41
0.0
 71
     2
 72
     1
  1
\A1;63.5 [2 1/2]
  7
SLDTEXTSTYLE0
 73
     1
 44
1.0
  0
POINT
  5
220
330
217
100
AcDbEntity
  8
Defpoints
 62
     0
100
AcDbPoint
 10
3.000000000000028
 20
9.34832913458845
 30
0.0
  0
POINT
  5
221
330
217
100
AcDbEntity
  8
Defpoints
 62
     0
100
AcDbPoint
 10
66.50000000000001
 20
8.190829134588462
 30
0.0
  0
POINT
  5
222
330
217
100
AcDbEntity
  8
Defpoints
 62
     0
100
AcDbPoint
 10
66.50000000000001
 20
43.77832913458848
 30
0.0
  0
ENDBLK
  5
219
330
217
100
AcDbEntity
  8
0
100
AcDbBlockEnd
  0
BLOCK
  5
268
330
267
100
AcDbEntity
  8
0
100
AcDbBlockBegin
  2
*D10
 70
     1
 10
0.0
 20
0.0
 30
0.0
  3
*D10
  1
*D11
  0
LINE
  5
26A
330
267
100
AcDbEntity
  8
치수문자_일반주서
 62
     0
370
    -2
100
AcDbLine
 10
129.1523093989475
 20
-34.1589996626121
 30
0.0
 11
148.0898093989475
 21
-34.15899966261203
 31
0.0
  0
LINE
  5
26B
330
267
100
AcDbEntity
  8
치수문자_일반주서
 62
     0
370
    -2
100
AcDbLine
 10
129.1523093989475
 20
-32.57217052802357
 30
0.0
 11
148.0898093989475
 21
-32.5721705280235
 31
0.0
  0
LINE
  5
26C
330
267
100
AcDbEntity
  8
치수문자_일반주서
 62
     0
370
    -2
100
AcDbLine
 10
148.0898093989475
 20
-32.5721705280235
 30
0.0
 11
148.0898093989475
 21
0.2818294719765007
 31
0.0
  0
LINE
  5
26D
330
267
100
AcDbEntity
  8
치수문자_일반주서
 62
     0
370
    -2
100
AcDbLine
 10
148.0898093989475
 20
-34.15899966261203
 30
0.0
 11
148.0898093989475
 21
-32.5721705280235
 31
0.0
  0
LINE
  5
26E
330
267
100
AcDbEntity
  8
치수문자_일반주서
 62
     0
370
    -2
100
AcDbLine
 10
148.0898093989475
 20
-37.46099966261203
 30
0.0
 11
148.0898093989475
 21
-40.76299966261203
 31
0.0
  0
LINE
  5
26F
330
267
100
AcDbEntity
  8
치수문자_일반주서
 62
     0
370
    -2
100
AcDbLine
 10
148.0898093989475
 20
-29.2701705280235
 30
0.0
 11
148.0898093989475
 21
-25.9681705280235
 31
0.0
  0
SOLID
  5
270
330
267
100
AcDbEntity
  8
치수문자_일반주서
 62
     0
100
AcDbTrace
 10
148.6401427322809
 20
-37.46099966261203
 30
0.0
 11
147.5394760656142
 21
-37.46099966261203
 31
0.0
 12
148.0898093989475
 22
-34.15899966261203
 32
0.0
 13
148.0898093989475
 23
-34.15899966261203
 33
0.0
  0
SOLID
  5
271
330
267
100
AcDbEntity
  8
치수문자_일반주서
 62
     0
100
AcDbTrace
 10
147.5394760656142
 20
-29.2701705280235
 30
0.0
 11
148.6401427322809
 21
-29.2701705280235
 31
0.0
 12
148.0898093989475
 22
-32.5721705280235
 32
0.0
 13
148.0898093989475
 23
-32.5721705280235
 33
0.0
  0
MTEXT
  5
272
330
267
100
AcDbEntity
  8
치수문자_일반주서
 62
     0
100
AcDbMText
 10
143.7148093989475
 20
-12.8431705280235
 30
0.0
 40
3.5
 41
0.0
 71
     2
 72
     1
  1
\A1;%%c1.59 [1/16]
  7
SLDTEXTSTYLE0
 11
0.0
 21
1.0
 31
0.0
 73
     1
 44
1.0
  0
POINT
  5
273
330
267
100
AcDbEntity
  8
Defpoints
 62
     0
100
AcDbPoint
 10
129.0898093989475
 20
-34.1589996626121
 30
0.0
  0
POINT
  5
274
330
267
100
AcDbEntity
  8
Defpoints
 62
     0
100
AcDbPoint
 10
129.0898093989475
 20
-32.57217052802357
 30
0.0
  0
POINT
  5
275
330
267
100
AcDbEntity
  8
Defpoints
 62
     0
100
AcDbPoint
 10
148.0898093989475
 20
-32.5721705280235
 30
0.0
  0
ENDBLK
  5
269
330
267
100
AcDbEntity
  8
0
100
AcDbBlockEnd
  0
BLOCK
  5
277
330
276
100
AcDbEntity
  8
0
100
AcDbBlockBegin
  2
*D11
 70
     1
 10
0.0
 20
0.0
 30
0.0
  3
*D11
  1
*D12
  0
LINE
  5
279
330
276
100
AcDbEntity
  8
치수문자_일반주서
 62
     0
370
    -2
100
AcDbLine
 10
129.0898093989475
 20
-32.50967052802357
 30
0.0
 11
129.0898093989475
 21
-10.44952681341262
 31
0.0
  0
LINE
  5
27A
330
276
100
AcDbEntity
  8
치수문자_일반주서
 62
     0
370
    -2
100
AcDbLine
 10
123.5335593989475
 20
-32.80589177365545
 30
0.0
 11
123.5335593989475
 21
-10.44952681341262
 31
0.0
  0
LINE
  5
27B
330
276
100
AcDbEntity
  8
치수문자_일반주서
 62
     0
370
    -2
100
AcDbLine
 10
123.5335593989475
 20
-10.44952681341262
 30
0.0
 11
90.67955939894752
 21
-10.44952681341262
 31
0.0
  0
LINE
  5
27C
330
276
100
AcDbEntity
  8
치수문자_일반주서
 62
     0
370
    -2
100
AcDbLine
 10
129.0898093989475
 20
-10.44952681341262
 30
0.0
 11
123.5335593989475
 21
-10.44952681341262
 31
0.0
  0
LINE
  5
27D
330
276
100
AcDbEntity
  8
치수문자_일반주서
 62
     0
370
    -2
100
AcDbLine
 10
132.3918093989475
 20
-10.44952681341262
 30
0.0
 11
135.6938093989475
 21
-10.44952681341262
 31
0.0
  0
LINE
  5
27E
330
276
100
AcDbEntity
  8
치수문자_일반주서
 62
     0
370
    -2
100
AcDbLine
 10
120.2315593989475
 20
-10.44952681341262
 30
0.0
 11
116.9295593989475
 21
-10.44952681341262
 31
0.0
  0
SOLID
  5
27F
330
276
100
AcDbEntity
  8
치수문자_일반주서
 62
     0
100
AcDbTrace
 10
132.3918093989475
 20
-9.899193480079285
 30
0.0
 11
132.3918093989475
 21
-10.99986014674595
 31
0.0
 12
129.0898093989475
 22
-10.44952681341262
 32
0.0
 13
129.0898093989475
 23
-10.44952681341262
 33
0.0
  0
SOLID
  5
280
330
276
100
AcDbEntity
  8
치수문자_일반주서
 62
     0
100
AcDbTrace
 10
120.2315593989475
 20
-10.99986014674595
 30
0.0
 11
120.2315593989475
 21
-9.899193480079285
 31
0.0
 12
123.5335593989475
 22
-10.44952681341262
 32
0.0
 13
123.5335593989475
 23
-10.44952681341262
 33
0.0
  0
MTEXT
  5
281
330
276
100
AcDbEntity
  8
치수문자_일반주서
 62
     0
100
AcDbMText
 10
103.8045593989475
 20
-6.074526813412618
 30
0.0
 40
3.5
 41
0.0
 71
     2
 72
     1
  1
\A1;5.56 [7/32]
  7
SLDTEXTSTYLE0
 73
     1
 44
1.0
  0
POINT
  5
282
330
276
100
AcDbEntity
  8
Defpoints
 62
     0
100
AcDbPoint
 10
129.0898093989475
 20
-32.57217052802357
 30
0.0
  0
POINT
  5
283
330
276
100
AcDbEntity
  8
Defpoints
 62
     0
100
AcDbPoint
 10
123.5335593989475
 20
-32.86839177365545
 30
0.0
  0
POINT
  5
284
330
276
100
AcDbEntity
  8
Defpoints
 62
     0
100
AcDbPoint
 10
123.5335593989475
 20
-10.44952681341262
 30
0.0
  0
ENDBLK
  5
278
330
276
100
AcDbEntity
  8
0
100
AcDbBlockEnd
  0
BLOCK
  5
286
330
285
100
AcDbEntity
  8
0
100
AcDbBlockBegin
  2
*D12
 70
     1
 10
0.0
 20
0.0
 30
0.0
  3
*D12
  1
*D13
  0
LINE
  5
288
330
285
100
AcDbEntity
  8
치수문자_일반주서
 62
     0
370
    -2
100
AcDbLine
 10
65.58980939894752
 20
-31.35217052802358
 30
0.0
 11
65.58980939894752
 21
3.01532947197645
 31
0.0
  0
LINE
  5
289
330
285
100
AcDbEntity
  8
치수문자_일반주서
 62
     0
370
    -2
100
AcDbLine
 10
129.0898093989475
 20
-32.50967052802357
 30
0.0
 11
129.0898093989475
 21
3.01532947197645
 31
0.0
  0
LINE
  5
28A
330
285
100
AcDbEntity
  8
치수문자_일반주서
 62
     0
370
    -2
100
AcDbLine
 10
68.89180939894752
 20
3.01532947197645
 30
0.0
 11
125.7878093989475
 21
3.01532947197645
 31
0.0
  0
SOLID
  5
28B
330
285
100
AcDbEntity
  8
치수문자_일반주서
 62
     0
100
AcDbTrace
 10
68.89180939894752
 20
3.565662805309783
 30
0.0
 11
68.89180939894752
 21
2.464996138643117
 31
0.0
 12
65.58980939894752
 22
3.01532947197645
 32
0.0
 13
65.58980939894752
 23
3.01532947197645
 33
0.0
  0
SOLID
  5
28C
330
285
100
AcDbEntity
  8
치수문자_일반주서
 62
     0
100
AcDbTrace
 10
125.7878093989475
 20
2.464996138643117
 30
0.0
 11
125.7878093989475
 21
3.565662805309783
 31
0.0
 12
129.0898093989475
 22
3.01532947197645
 32
0.0
 13
129.0898093989475
 23
3.01532947197645
 33
0.0
  0
MTEXT
  5
28D
330
285
100
AcDbEntity
  8
치수문자_일반주서
 62
     0
100
AcDbMText
 10
97.33980939894752
 20
7.39032947197645
 30
0.0
 40
3.5
 41
0.0
 71
     2
 72
     1
  1
\A1;63.5 [2 1/2]
  7
SLDTEXTSTYLE0
 73
     1
 44
1.0
  0
POINT
  5
28E
330
285
100
AcDbEntity
  8
Defpoints
 62
     0
100
AcDbPoint
 10
65.58980939894752
 20
-31.41467052802358
 30
0.0
  0
POINT
  5
28F
330
285
100
AcDbEntity
  8
Defpoints
 62
     0
100
AcDbPoint
 10
129.0898093989475
 20
-32.57217052802357
 30
0.0
  0
POINT
  5
290
330
285
100
AcDbEntity
  8
Defpoints
 62
     0
100
AcDbPoint
 10
129.0898093989475
 20
3.01532947197645
 30
0.0
  0
ENDBLK
  5
287
330
285
100
AcDbEntity
  8
0
100
AcDbBlockEnd
  0
BLOCK
  5
323
330
322
100
AcDbEntity
  8
0
100
AcDbBlockBegin
  2
*D13
 70
     1
 10
0.0
 20
0.0
 30
0.0
  3
*D13
  1
*D15
  0
LINE
  5
325
330
322
100
AcDbEntity
  8
치수문자_일반주서
 62
     0
370
    -2
100
AcDbLine
 10
66.5625
 20
8.191499999999934
 30
0.0
 11
84.7943365907426
 21
8.191500000000001
 31
0.0
  0
LINE
  5
326
330
322
100
AcDbEntity
  8
치수문자_일반주서
 62
     0
370
    -2
100
AcDbLine
 10
66.5625
 20
6.603999999999933
 30
0.0
 11
84.7943365907426
 21
6.604000000000003
 31
0.0
  0
LINE
  5
327
330
322
100
AcDbEntity
  8
치수문자_일반주서
 62
     0
370
    -2
100
AcDbLine
 10
84.7943365907426
 20
8.191500000000001
 30
0.0
 11
84.7943365907426
 21
41.0455
 31
0.0
  0
LINE
  5
328
330
322
100
AcDbEntity
  8
치수문자_일반주서
 62
     0
370
    -2
100
AcDbLine
 10
84.7943365907426
 20
8.191500000000001
 30
0.0
 11
84.7943365907426
 21
6.604000000000003
 31
0.0
  0
LINE
  5
329
330
322
100
AcDbEntity
  8
치수문자_일반주서
 62
     0
370
    -2
100
AcDbLine
 10
84.7943365907426
 20
11.4935
 30
0.0
 11
84.7943365907426
 21
14.7955
 31
0.0
  0
LINE
  5
32A
330
322
100
AcDbEntity
  8
치수문자_일반주서
 62
     0
370
    -2
100
AcDbLine
 10
84.7943365907426
 20
3.302000000000003
 30
0.0
 11
84.7943365907426
 21
0.0000000000000036
 31
0.0
  0
SOLID
  5
32B
330
322
100
AcDbEntity
  8
치수문자_일반주서
 62
     0
100
AcDbTrace
 10
84.24400325740928
 20
11.4935
 30
0.0
 11
85.34466992407593
 21
11.4935
 31
0.0
 12
84.7943365907426
 22
8.191500000000001
 32
0.0
 13
84.7943365907426
 23
8.191500000000001
 33
0.0
  0
SOLID
  5
32C
330
322
100
AcDbEntity
  8
치수문자_일반주서
 62
     0
100
AcDbTrace
 10
85.34466992407593
 20
3.302000000000003
 30
0.0
 11
84.24400325740928
 21
3.302000000000003
 31
0.0
 12
84.7943365907426
 22
6.604000000000003
 32
0.0
 13
84.7943365907426
 23
6.604000000000003
 33
0.0
  0
MTEXT
  5
32D
330
322
100
AcDbEntity
  8
치수문자_일반주서
 62
     0
100
AcDbMText
 10
80.4193365907426
 20
27.9205
 30
0.0
 40
3.5
 41
0.0
 71
     2
 72
     1
  1
\A1;%%c1.59 [1/16]
  7
SLDTEXTSTYLE0
 11
0.0
 21
1.0
 31
0.0
 73
     1
 44
1.0
  0
POINT
  5
32E
330
322
100
AcDbEntity
  8
Defpoints
 62
     0
100
AcDbPoint
 10
66.5
 20
8.191499999999934
 30
0.0
  0
POINT
  5
32F
330
322
100
AcDbEntity
  8
Defpoints
 62
     0
100
AcDbPoint
 10
66.5
 20
6.603999999999933
 30
0.0
  0
POINT
  5
330
330
322
100
AcDbEntity
  8
Defpoints
 62
     0
100
AcDbPoint
 10
84.79433659074269
 20
6.604000000000002
 30
0.0
  0
ENDBLK
  5
324
330
322
100
AcDbEntity
  8
0
100
AcDbBlockEnd
  0
BLOCK
  5
332
330
331
100
AcDbEntity
  8
0
100
AcDbBlockBegin
  2
*D14
 70
     1
 10
0.0
 20
0.0
 30
0.0
  3
*D14
  1
*D16
  0
LINE
  5
334
330
331
100
AcDbEntity
  8
치수문자_일반주서
 62
     0
370
    -2
100
AcDbLine
 10
66.5
 20
8.253999999999934
 30
0.0
 11
66.5
 21
25.10276823325121
 31
0.0
  0
LINE
  5
335
330
331
100
AcDbEntity
  8
치수문자_일반주서
 62
     0
370
    -2
100
AcDbLine
 10
60.94374999999999
 20
8.232608180248256
 30
0.0
 11
60.94374999999999
 21
25.10276823325121
 31
0.0
  0
LINE
  5
336
330
331
100
AcDbEntity
  8
치수문자_일반주서
 62
     0
370
    -2
100
AcDbLine
 10
60.94374999999999
 20
25.10276823325121
 30
0.0
 11
19.67416259848749
 21
25.10276823325121
 31
0.0
  0
LINE
  5
337
330
331
100
AcDbEntity
  8
치수문자_일반주서
 62
     0
370
    -2
100
AcDbLine
 10
66.5
 20
25.10276823325121
 30
0.0
 11
60.94374999999999
 21
25.10276823325121
 31
0.0
  0
LINE
  5
338
330
331
100
AcDbEntity
  8
치수문자_일반주서
 62
     0
370
    -2
100
AcDbLine
 10
69.80199999999999
 20
25.10276823325121
 30
0.0
 11
73.10399999999998
 21
25.10276823325121
 31
0.0
  0
LINE
  5
339
330
331
100
AcDbEntity
  8
치수문자_일반주서
 62
     0
370
    -2
100
AcDbLine
 10
57.64174999999999
 20
25.10276823325121
 30
0.0
 11
54.33975
 21
25.10276823325121
 31
0.0
  0
SOLID
  5
33A
330
331
100
AcDbEntity
  8
치수문자_일반주서
 62
     0
100
AcDbTrace
 10
69.80199999999999
 20
25.65310156658455
 30
0.0
 11
69.80199999999999
 21
24.55243489991788
 31
0.0
 12
66.5
 22
25.10276823325121
 32
0.0
 13
66.5
 23
25.10276823325121
 33
0.0
  0
SOLID
  5
33B
330
331
100
AcDbEntity
  8
치수문자_일반주서
 62
     0
100
AcDbTrace
 10
57.64174999999999
 20
24.55243489991788
 30
0.0
 11
57.64174999999999
 21
25.65310156658455
 31
0.0
 12
60.94374999999999
 22
25.10276823325121
 32
0.0
 13
60.94374999999999
 23
25.10276823325121
 33
0.0
  0
MTEXT
  5
33C
330
331
100
AcDbEntity
  8
치수문자_일반주서
 62
     0
100
AcDbMText
 10
32.79916259848749
 20
29.47776823325121
 30
0.0
 40
3.5
 41
0.0
 71
     2
 72
     1
  1
\A1;5.56 [7/32]
  7
SLDTEXTSTYLE0
 73
     1
 44
1.0
  0
POINT
  5
33D
330
331
100
AcDbEntity
  8
Defpoints
 62
     0
100
AcDbPoint
 10
66.5
 20
8.191499999999934
 30
0.0
  0
POINT
  5
33E
330
331
100
AcDbEntity
  8
Defpoints
 62
     0
100
AcDbPoint
 10
60.94374999999999
 20
8.170108180248256
 30
0.0
  0
POINT
  5
33F
330
331
100
AcDbEntity
  8
Defpoints
 62
     0
100
AcDbPoint
 10
60.94374999999999
 20
25.10276823325121
 30
0.0
  0
ENDBLK
  5
333
330
331
100
AcDbEntity
  8
0
100
AcDbBlockEnd
  0
BLOCK
  5
341
330
340
100
AcDbEntity
  8
0
100
AcDbBlockBegin
  2
*D15
 70
     1
 10
0.0
 20
0.0
 30
0.0
  3
*D15
  1
*D17
  0
LINE
  5
343
330
340
100
AcDbEntity
  8
치수문자_일반주서
 62
     0
370
    -2
100
AcDbLine
 10
66.5
 20
8.253999999999934
 30
0.0
 11
66.5
 21
37.98397323803241
 31
0.0
  0
LINE
  5
344
330
340
100
AcDbEntity
  8
치수문자_일반주서
 62
     0
370
    -2
100
AcDbLine
 10
3.000000000000007
 20
9.36524999999993
 30
0.0
 11
3.000000000000007
 21
37.98397323803241
 31
0.0
  0
LINE
  5
345
330
340
100
AcDbEntity
  8
치수문자_일반주서
 62
     0
370
    -2
100
AcDbLine
 10
63.198
 20
37.98397323803241
 30
0.0
 11
6.302000000000007
 21
37.98397323803241
 31
0.0
  0
SOLID
  5
346
330
340
100
AcDbEntity
  8
치수문자_일반주서
 62
     0
100
AcDbTrace
 10
63.198
 20
37.43363990469908
 30
0.0
 11
63.198
 21
38.53430657136575
 31
0.0
 12
66.5
 22
37.98397323803241
 32
0.0
 13
66.5
 23
37.98397323803241
 33
0.0
  0
SOLID
  5
347
330
340
100
AcDbEntity
  8
치수문자_일반주서
 62
     0
100
AcDbTrace
 10
6.302000000000007
 20
38.53430657136575
 30
0.0
 11
6.302000000000007
 21
37.43363990469908
 31
0.0
 12
3.000000000000007
 22
37.98397323803241
 32
0.0
 13
3.000000000000007
 23
37.98397323803241
 33
0.0
  0
MTEXT
  5
348
330
340
100
AcDbEntity
  8
치수문자_일반주서
 62
     0
100
AcDbMText
 10
34.79797027164319
 20
42.35897323803241
 30
0.0
 40
3.5
 41
0.0
 71
     2
 72
     1
  1
\A1;63.5 [2 1/2]
  7
SLDTEXTSTYLE0
 73
     1
 44
1.0
  0
POINT
  5
349
330
340
100
AcDbEntity
  8
Defpoints
 62
     0
100
AcDbPoint
 10
66.5
 20
8.191499999999934
 30
0.0
  0
POINT
  5
34A
330
340
100
AcDbEntity
  8
Defpoints
 62
     0
100
AcDbPoint
 10
3.000000000000007
 20
9.30274999999993
 30
0.0
  0
POINT
  5
34B
330
340
100
AcDbEntity
  8
Defpoints
 62
     0
100
AcDbPoint
 10
3.000000000000007
 20
37.98397323803241
 30
0.0
  0
ENDBLK
  5
342
330
340
100
AcDbEntity
  8
0
100
AcDbBlockEnd
  0
BLOCK
  5
381
330
380
100
AcDbEntity
  8
0
100
AcDbBlockBegin
  2
*D16
 70
     1
 10
0.0
 20
0.0
 30
0.0
  3
*D16
  1
*D18
  0
LINE
  5
383
330
380
100
AcDbEntity
  8
치수문자_일반주서
 62
     0
370
    -2
100
AcDbLine
 10
196.6258585459004
 20
-28.2517593372117
 30
0.0
 11
214.857695136643
 21
-28.25175933721163
 31
0.0
  0
LINE
  5
384
330
380
100
AcDbEntity
  8
치수문자_일반주서
 62
     0
370
    -2
100
AcDbLine
 10
196.6258585459004
 20
-29.8392593372117
 30
0.0
 11
214.857695136643
 21
-29.83925933721163
 31
0.0
  0
LINE
  5
385
330
380
100
AcDbEntity
  8
치수문자_일반주서
 62
     0
370
    -2
100
AcDbLine
 10
214.857695136643
 20
-28.25175933721163
 30
0.0
 11
214.857695136643
 21
4.602240662788365
 31
0.0
  0
LINE
  5
386
330
380
100
AcDbEntity
  8
치수문자_일반주서
 62
     0
370
    -2
100
AcDbLine
 10
214.857695136643
 20
-28.25175933721163
 30
0.0
 11
214.857695136643
 21
-29.83925933721163
 31
0.0
  0
LINE
  5
387
330
380
100
AcDbEntity
  8
치수문자_일반주서
 62
     0
370
    -2
100
AcDbLine
 10
214.857695136643
 20
-24.94975933721163
 30
0.0
 11
214.857695136643
 21
-21.64775933721164
 31
0.0
  0
LINE
  5
388
330
380
100
AcDbEntity
  8
치수문자_일반주서
 62
     0
370
    -2
100
AcDbLine
 10
214.857695136643
 20
-33.14125933721164
 30
0.0
 11
214.857695136643
 21
-36.44325933721164
 31
0.0
  0
SOLID
  5
389
330
380
100
AcDbEntity
  8
치수문자_일반주서
 62
     0
100
AcDbTrace
 10
214.3073618033096
 20
-24.94975933721163
 30
0.0
 11
215.4080284699763
 21
-24.94975933721163
 31
0.0
 12
214.857695136643
 22
-28.25175933721163
 32
0.0
 13
214.857695136643
 23
-28.25175933721163
 33
0.0
  0
SOLID
  5
38A
330
380
100
AcDbEntity
  8
치수문자_일반주서
 62
     0
100
AcDbTrace
 10
215.4080284699763
 20
-33.14125933721164
 30
0.0
 11
214.3073618033096
 21
-33.14125933721164
 31
0.0
 12
214.857695136643
 22
-29.83925933721163
 32
0.0
 13
214.857695136643
 23
-29.83925933721163
 33
0.0
  0
MTEXT
  5
38B
330
380
100
AcDbEntity
  8
치수문자_일반주서
 62
     0
100
AcDbMText
 10
210.482695136643
 20
-8.522759337211635
 30
0.0
 40
3.5
 41
0.0
 71
     2
 72
     1
  1
\A1;%%c1.59 [1/16]
  7
SLDTEXTSTYLE0
 11
0.0
 21
1.0
 31
0.0
 73
     1
 44
1.0
  0
POINT
  5
38C
330
380
100
AcDbEntity
  8
Defpoints
 62
     0
100
AcDbPoint
 10
196.5633585459004
 20
-28.2517593372117
 30
0.0
  0
POINT
  5
38D
330
380
100
AcDbEntity
  8
Defpoints
 62
     0
100
AcDbPoint
 10
196.5633585459004
 20
-29.8392593372117
 30
0.0
  0
POINT
  5
38E
330
380
100
AcDbEntity
  8
Defpoints
 62
     0
100
AcDbPoint
 10
214.857695136643
 20
-29.83925933721163
 30
0.0
  0
ENDBLK
  5
382
330
380
100
AcDbEntity
  8
0
100
AcDbBlockEnd
  0
BLOCK
  5
390
330
38F
100
AcDbEntity
  8
0
100
AcDbBlockBegin
  2
*D17
 70
     1
 10
0.0
 20
0.0
 30
0.0
  3
*D17
  1
*D19
  0
LINE
  5
392
330
38F
100
AcDbEntity
  8
치수문자_일반주서
 62
     0
370
    -2
100
AcDbLine
 10
196.5633585459004
 20
-28.1892593372117
 30
0.0
 11
196.5633585459004
 21
-11.34049110396042
 31
0.0
  0
LINE
  5
393
330
38F
100
AcDbEntity
  8
치수문자_일반주서
 62
     0
370
    -2
100
AcDbLine
 10
191.0071085459004
 20
-28.21065115696338
 30
0.0
 11
191.0071085459004
 21
-11.34049110396042
 31
0.0
  0
LINE
  5
394
330
38F
100
AcDbEntity
  8
치수문자_일반주서
 62
     0
370
    -2
100
AcDbLine
 10
191.0071085459004
 20
-11.34049110396042
 30
0.0
 11
149.7375211443879
 21
-11.34049110396042
 31
0.0
  0
LINE
  5
395
330
38F
100
AcDbEntity
  8
치수문자_일반주서
 62
     0
370
    -2
100
AcDbLine
 10
196.5633585459004
 20
-11.34049110396042
 30
0.0
 11
191.0071085459004
 21
-11.34049110396042
 31
0.0
  0
LINE
  5
396
330
38F
100
AcDbEntity
  8
치수문자_일반주서
 62
     0
370
    -2
100
AcDbLine
 10
199.8653585459004
 20
-11.34049110396042
 30
0.0
 11
203.1673585459004
 21
-11.34049110396042
 31
0.0
  0
LINE
  5
397
330
38F
100
AcDbEntity
  8
치수문자_일반주서
 62
     0
370
    -2
100
AcDbLine
 10
187.7051085459004
 20
-11.34049110396042
 30
0.0
 11
184.4031085459004
 21
-11.34049110396042
 31
0.0
  0
SOLID
  5
398
330
38F
100
AcDbEntity
  8
치수문자_일반주서
 62
     0
100
AcDbTrace
 10
199.8653585459004
 20
-10.79015777062709
 30
0.0
 11
199.8653585459004
 21
-11.89082443729376
 31
0.0
 12
196.5633585459004
 22
-11.34049110396042
 32
0.0
 13
196.5633585459004
 23
-11.34049110396042
 33
0.0
  0
SOLID
  5
399
330
38F
100
AcDbEntity
  8
치수문자_일반주서
 62
     0
100
AcDbTrace
 10
187.7051085459004
 20
-11.89082443729376
 30
0.0
 11
187.7051085459004
 21
-10.79015777062709
 31
0.0
 12
191.0071085459004
 22
-11.34049110396042
 32
0.0
 13
191.0071085459004
 23
-11.34049110396042
 33
0.0
  0
MTEXT
  5
39A
330
38F
100
AcDbEntity
  8
치수문자_일반주서
 62
     0
100
AcDbMText
 10
162.8625211443879
 20
-6.965491103960424
 30
0.0
 40
3.5
 41
0.0
 71
     2
 72
     1
  1
\A1;5.56 [7/32]
  7
SLDTEXTSTYLE0
 73
     1
 44
1.0
  0
POINT
  5
39B
330
38F
100
AcDbEntity
  8
Defpoints
 62
     0
100
AcDbPoint
 10
196.5633585459004
 20
-28.2517593372117
 30
0.0
  0
POINT
  5
39C
330
38F
100
AcDbEntity
  8
Defpoints
 62
     0
100
AcDbPoint
 10
191.0071085459004
 20
-28.27315115696338
 30
0.0
  0
POINT
  5
39D
330
38F
100
AcDbEntity
  8
Defpoints
 62
     0
100
AcDbPoint
 10
191.0071085459004
 20
-11.34049110396042
 30
0.0
  0
ENDBLK
  5
391
330
38F
100
AcDbEntity
  8
0
100
AcDbBlockEnd
  0
BLOCK
  5
39F
330
39E
100
AcDbEntity
  8
0
100
AcDbBlockBegin
  2
*D18
 70
     1
 10
0.0
 20
0.0
 30
0.0
  3
*D18
  1
*D20
  0
LINE
  5
3A1
330
39E
100
AcDbEntity
  8
치수문자_일반주서
 62
     0
370
    -2
100
AcDbLine
 10
196.5633585459004
 20
-28.1892593372117
 30
0.0
 11
196.5633585459004
 21
1.540713900820776
 31
0.0
  0
LINE
  5
3A2
330
39E
100
AcDbEntity
  8
치수문자_일반주서
 62
     0
370
    -2
100
AcDbLine
 10
133.0633585459004
 20
-27.0780093372117
 30
0.0
 11
133.0633585459004
 21
1.540713900820776
 31
0.0
  0
LINE
  5
3A3
330
39E
100
AcDbEntity
  8
치수문자_일반주서
 62
     0
370
    -2
100
AcDbLine
 10
193.2613585459004
 20
1.540713900820776
 30
0.0
 11
136.3653585459004
 21
1.540713900820776
 31
0.0
  0
SOLID
  5
3A4
330
39E
100
AcDbEntity
  8
치수문자_일반주서
 62
     0
100
AcDbTrace
 10
193.2613585459004
 20
0.9903805674874432
 30
0.0
 11
193.2613585459004
 21
2.09104723415411
 31
0.0
 12
196.5633585459004
 22
1.540713900820776
 32
0.0
 13
196.5633585459004
 23
1.540713900820776
 33
0.0
  0
SOLID
  5
3A5
330
39E
100
AcDbEntity
  8
치수문자_일반주서
 62
     0
100
AcDbTrace
 10
136.3653585459004
 20
2.09104723415411
 30
0.0
 11
136.3653585459004
 21
0.9903805674874432
 31
0.0
 12
133.0633585459004
 22
1.540713900820776
 32
0.0
 13
133.0633585459004
 23
1.540713900820776
 33
0.0
  0
MTEXT
  5
3A6
330
39E
100
AcDbEntity
  8
치수문자_일반주서
 62
     0
100
AcDbMText
 10
164.8613288175436
 20
5.915713900820776
 30
0.0
 40
3.5
 41
0.0
 71
     2
 72
     1
  1
\A1;63.5 [2 1/2]
  7
SLDTEXTSTYLE0
 73
     1
 44
1.0
  0
POINT
  5
3A7
330
39E
100
AcDbEntity
  8
Defpoints
 62
     0
100
AcDbPoint
 10
196.5633585459004
 20
-28.2517593372117
 30
0.0
  0
POINT
  5
3A8
330
39E
100
AcDbEntity
  8
Defpoints
 62
     0
100
AcDbPoint
 10
133.0633585459004
 20
-27.1405093372117
 30
0.0
  0
POINT
  5
3A9
330
39E
100
AcDbEntity
  8
Defpoints
 62
     0
100
AcDbPoint
 10
133.0633585459004
 20
1.540713900820776
 30
0.0
  0
ENDBLK
  5
3A0
330
39E
100
AcDbEntity
  8
0
100
AcDbBlockEnd
  0
ENDSEC
  0
SECTION
  2
ENTITIES
  0
LINE
  5
96
330
1F
100
AcDbEntity
  8
외형선
  6
Continuous
370
    15
100
AcDbLine
 10
26.19374999999997
 20
-0.1798880253230007
 30
0.0
 11
26.28358063458901
 21
-0.2301962495276597
 31
0.0
  0
LINE
  5
97
330
1F
100
AcDbEntity
  8
0
  6
Continuous
 62
     1
370
    25
100
AcDbLine
 10
27.17599234606582
 20
0.213813586868853
 30
0.0
 11
27.12887144154043
 21
0.2385988727844041
 31
0.0
  0
LINE
  5
98
330
1F
100
AcDbEntity
  8
0
  6
Continuous
 62
     1
370
    25
100
AcDbLine
 10
31.45700713729191
 20
0.2337360864035145
 30
0.0
 11
31.43190523341953
 21
0.2473817303633557
 31
0.0
  0
LINE
  5
99
330
1F
100
AcDbEntity
  8
0
  6
Continuous
 62
     1
370
    25
100
AcDbLine
 10
28.03308667478116
 20
0.7937499999999998
 30
0.0
 11
27.54941291204517
 21
0.7937499999999998
 31
0.0
  0
LINE
  5
9A
330
1F
100
AcDbEntity
  8
0
  6
Continuous
 62
     1
370
    25
100
AcDbLine
 10
29.70796518395405
 20
-0.7937500000000005
 30
0.0
 11
30.19205912803747
 21
-0.7937500000000005
 31
0.0
  0
LINE
  5
9B
330
1F
100
AcDbEntity
  8
0
  6
Continuous
 62
     1
370
    25
100
AcDbLine
 10
30.19205912803747
 20
0.7937499999999998
 30
0.0
 11
29.70796518395405
 21
0.7937499999999998
 31
0.0
  0
LINE
  5
9C
330
1F
100
AcDbEntity
  8
0
  6
Continuous
 62
     1
370
    25
100
AcDbLine
 10
27.54941291204517
 20
-0.7937500000000005
 30
0.0
 11
28.03308667478115
 21
-0.7937500000000005
 31
0.0
  0
LINE
  5
9D
330
1F
100
AcDbEntity
  8
외형선
  6
Continuous
370
    15
100
AcDbLine
 10
19.2691193429844
 20
-2.381250000000007
 30
0.0
 11
25.19375
 21
-0.7937500000000001
 31
0.0
  0
LINE
  5
9E
330
1F
100
AcDbEntity
  8
외형선
  6
Continuous
370
    15
100
AcDbLine
 10
25.19375
 20
0.7937499999999994
 30
0.0
 11
19.2691193429844
 21
2.381250000000006
 31
0.0
  0
LINE
  5
9F
330
1F
100
AcDbEntity
  8
외형선
  6
Continuous
370
    15
100
AcDbLine
 10
-19.2691193429844
 20
-2.381250000000003
 30
0.0
 11
19.2691193429844
 21
-2.381250000000003
 31
0.0
  0
LINE
  5
A0
330
1F
100
AcDbEntity
  8
외형선
  6
Continuous
370
    15
100
AcDbLine
 10
19.2691193429844
 20
2.381250000000003
 30
0.0
 11
-19.26911934298442
 21
2.381250000000003
 31
0.0
  0
LINE
  5
A3
330
1F
100
AcDbEntity
  8
외형선
  6
Continuous
370
    15
100
AcDbLine
 10
25.19375
 20
-0.7937500000000002
 30
0.0
 11
25.87353382284589
 21
-0.7937500000000002
 31
0.0
  0
LINE
  5
A4
330
1F
100
AcDbEntity
  8
외형선
  6
Continuous
370
    15
100
AcDbLine
 10
25.87353382284589
 20
0.7937499999999995
 30
0.0
 11
25.19375
 21
0.7937499999999995
 31
0.0
  0
SPLINE
  5
A5
330
1F
100
AcDbEntity
  8
0
  6
Continuous
 62
     1
370
    25
100
AcDbSpline
210
0.0
220
0.0
230
1.0
 70
     8
 71
     3
 72
    13
 73
     9
 74
     0
 42
0.000000001
 43
0.00000001
 40
0.0
 40
0.0
 40
0.0
 40
0.0
 40
0.1893398430275082
 40
0.3786585155742347
 40
0.5670660440730314
 40
0.7554701402647773
 40
0.9438816784343627
 40
1.0
 40
1.0
 40
1.0
 40
1.0
 10
26.19374999999449
 20
-0.1830352531682463
 30
0.0
 10
26.36273631730475
 20
-0.2755835202881862
 30
0.0
 10
26.70069005721443
 20
-0.4606697065142557
 30
0.0
 10
27.20678713301461
 20
-0.6690112750221552
 30
0.0
 10
27.71202478718977
 20
-0.7908937446709621
 30
0.0
 10
28.21645631262984
 20
-0.8006127748443881
 30
0.0
 10
28.60282632031254
 20
-0.7439640272720195
 30
0.0
 10
28.82106234584417
 20
-0.6608231086984552
 30
0.0
 10
28.87114637022979
 20
-0.6417427035126597
 30
0.0
  0
SPLINE
  5
A6
330
1F
100
AcDbEntity
  8
외형선
  6
Continuous
370
    15
100
AcDbSpline
210
0.0
220
0.0
230
1.0
 70
    24
 71
     3
 72
    20
 73
    16
 74
     0
 42
0.000000001
 43
0.00000001
 40
0.0
 40
0.0
 40
0.0
 40
0.0
 40
0.0554194665819762
 40
0.1115414234981218
 40
0.1941972056706313
 40
0.2792500111256429
 40
0.3619057932981634
 40
0.4469585987531886
 40
0.5296143809262597
 40
0.6146671863807406
 40
0.6973229685524467
 40
0.7823757740065818
 40
0.8650315561796346
 40
0.9500843616352379
 40
0.9999999999999999
 40
0.9999999999999999
 40
0.9999999999999999
 40
0.9999999999999999
 10
26.19375000000002
 20
0.6618836664496724
 30
0.0
 10
26.19375
 20
0.6502995906551944
 30
0.0
 10
26.19374999999997
 20
0.6269846007479039
 30
0.0
 10
26.19375000000003
 20
0.5801006908842125
 30
0.0
 10
26.19375000000002
 20
0.5202873660156696
 30
0.0
 10
26.19375
 20
0.4467624230741481
 30
0.0
 10
26.19374999999999
 20
0.3681924170087348
 30
0.0
 10
26.1937500000001
 20
0.2881670218707097
 30
0.0
 10
26.19374999999988
 20
0.2075272012764821
 30
0.0
 10
26.19375000000008
 20
0.1299906535501588
 30
0.0
 10
26.19374999999996
 20
0.0564052004058956
 30
0.0
 10
26.19375000000005
 20
-0.0100000766505474
 30
0.0
 10
26.19374999999993
 20
-0.0678753474188178
 30
0.0
 10
26.19375000000003
 20
-0.1105926852136799
 30
0.0
 10
26.19375000000003
 20
-0.1289304777317432
 30
0.0
 10
26.19375000000002
 20
-0.135712378699335
 30
0.0
  0
SPLINE
  5
A7
330
1F
100
AcDbEntity
  8
외형선
  6
Continuous
370
    15
100
AcDbSpline
210
0.0
220
0.0
230
1.0
 70
    24
 71
     3
 72
     9
 73
     5
 74
     0
 42
0.000000001
 43
0.00000001
 40
0.0
 40
0.0
 40
0.0
 40
0.0
 40
0.2812640398799923
 40
1.0
 40
1.0
 40
1.0
 40
1.0
 10
26.19374999999999
 20
-0.1792942273652942
 30
0.0
 10
26.19375
 20
-0.1807259869683707
 30
0.0
 10
26.19374999999999
 20
-0.1858164336663818
 30
0.0
 10
26.19375
 20
-0.1841982790692918
 30
0.0
 10
26.19374999999999
 20
-0.1830352531713297
 30
0.0
  0
SPLINE
  5
A8
330
1F
100
AcDbEntity
  8
0
  6
Continuous
 62
     1
370
    25
100
AcDbSpline
210
0.0
220
0.0
230
1.0
 70
     8
 71
     3
 72
    14
 73
    10
 74
     0
 42
0.000000001
 43
0.00000001
 40
0.0
 40
0.0
 40
0.0
 40
0.0
 40
0.1373143092705698
 40
0.2808752619230704
 40
0.4244222775422571
 40
0.5679636232660598
 40
0.7115075839965567
 40
0.8557457273134822
 40
1.0
 40
1.0
 40
1.0
 40
1.0
 10
29.70796518395405
 20
-0.79153856134717
 30
0.0
 10
29.54710851211011
 20
-0.7829469450617714
 30
0.0
 10
29.21807754602766
 20
-0.7653728663854636
 30
0.0
 10
28.72090955155818
 20
-0.6099186628722154
 30
0.0
 10
28.21645566812713
 20
-0.3794388343430122
 30
0.0
 10
27.71202495979724
 20
-0.0956989811001266
 30
0.0
 10
27.20678708673715
 20
0.1989579957385413
 30
0.0
 10
26.70069006880857
 20
0.4740328958439398
 30
0.0
 10
26.36273632116964
 20
0.5992644090525509
 30
0.0
 10
26.19374999999453
 20
0.6618836664514163
 30
0.0
  0
SPLINE
  5
A9
330
1F
100
AcDbEntity
  8
0
  6
Continuous
 62
     1
370
    25
100
AcDbSpline
210
0.0
220
0.0
230
1.0
 70
     8
 71
     3
 72
    17
 73
    13
 74
     0
 42
0.000000001
 43
0.00000001
 40
0.0
 40
0.0
 40
0.0
 40
0.0
 40
0.1048400628880727
 40
0.2096684033911394
 40
0.3139922309625503
 40
0.4183141580185636
 40
0.5226402057995772
 40
0.6269763826355065
 40
0.7313286651656903
 40
0.8357029797699296
 40
0.9401051843331412
 40
1.0
 40
1.0
 40
1.0
 40
1.0
 10
26.19374999999448
 20
0.7723581802490573
 30
0.0
 10
26.36273632069208
 20
0.7396322515184224
 30
0.0
 10
26.70069006737612
 20
0.6741840532111598
 30
0.0
 10
27.20678709245458
 20
0.4578341704102664
 30
0.0
 10
27.71202493847204
 20
0.1880682237279685
 30
0.0
 10
28.21645574775381
 20
-0.1082881033783955
 30
0.0
 10
28.72090925435103
 20
-0.389766140881711
 30
0.0
 10
29.22542192849753
 20
-0.6191770157991886
 30
0.0
 10
29.73002746713073
 20
-0.7671151035904686
 30
0.0
 10
30.23476238793184
 20
-0.8088594365456309
 30
0.0
 10
30.66785381576366
 20
-0.7648971370370804
 30
0.0
 10
30.9327192422861
 20
-0.6734938282715613
 30
0.0
 10
31.02927647671354
 20
-0.6401725646102633
 30
0.0
  0
SPLINE
  5
AA
330
1F
100
AcDbEntity
  8
0
  6
Continuous
 62
     1
370
    25
100
AcDbSpline
210
0.0
220
0.0
230
1.0
 70
     8
 71
     3
 72
    17
 73
    13
 74
     0
 42
0.000000001
 43
0.00000001
 40
0.0
 40
0.0
 40
0.0
 40
0.0
 40
0.1002741491529346
 40
0.2005105501112934
 40
0.3007146430671243
 40
0.400891967545672
 40
0.5010481458807439
 40
0.6011888661467937
 40
0.7013198646568322
 40
0.8014469081401235
 40
0.901575775717286
 40
1.0
 40
1.0
 40
1.0
 40
1.0
 10
31.74999999999999
 20
-0.7937499999999961
 30
0.0
 10
31.58156055755643
 20
-0.7721276024784233
 30
0.0
 10
31.24474508168246
 20
-0.734727734297864
 30
0.0
 10
30.7396571711005
 20
-0.5523873601369234
 30
0.0
 10
30.2347612355342
 20
-0.3039887735361767
 30
0.0
 10
29.73002777511745
 20
-0.0130798730356167
 30
0.0
 10
29.22542184857403
 20
0.2790379635265093
 30
0.0
 10
28.720909266136
 20
0.5339723596155795
 30
0.0
 10
28.21645578051962
 20
0.7181835635251911
 30
0.0
 10
27.71202479562919
 20
0.8049437462120851
 30
0.0
 10
27.21046331192162
 20
0.7911355132495903
 30
0.0
 10
26.87702331681127
 20
0.6967368993524887
 30
0.0
 10
26.71173466501467
 20
0.6499428139058486
 30
0.0
  0
LINE
  5
AB
330
1F
100
AcDbEntity
  8
0
  6
Continuous
 62
     1
370
    25
100
AcDbLine
 10
31.75
 20
-0.7188845709717485
 30
0.0
 11
31.75
 21
0.0680095709717577
 31
0.0
  0
SPLINE
  5
AC
330
1F
100
AcDbEntity
  8
0
  6
Continuous
 62
     1
370
    25
100
AcDbSpline
210
0.0
220
0.0
230
1.0
 70
     8
 71
     3
 72
    15
 73
    11
 74
     0
 42
0.000000001
 43
0.00000001
 40
0.0
 40
0.0
 40
0.0
 40
0.0
 40
0.0493377862704249
 40
0.1850686581644944
 40
0.3208127082195739
 40
0.4565777121971886
 40
0.5923713804699127
 40
0.7282013342967137
 40
0.8640750826868079
 40
1.0
 40
1.0
 40
1.0
 40
1.0
 10
28.03308667478116
 20
0.7814200155472504
 30
0.0
 10
28.09420760139952
 20
0.7846772022759428
 30
0.0
 10
28.32347544517823
 20
0.7968950827857474
 30
0.0
 10
28.72090938764018
 20
0.7077148095065691
 30
0.0
 10
29.22542181601045
 20
0.5259286336687305
 30
0.0
 10
29.73002778384519
 20
0.2672752140795088
 30
0.0
 10
30.23476123319552
 20
-0.0256684345329143
 30
0.0
 10
30.73965717172441
 20
-0.3138753429549071
 30
0.0
 10
31.24474508152637
 20
-0.5670169669537815
 30
0.0
 10
31.58156055750438
 20
-0.6682556832189878
 30
0.0
 10
31.74999999999999
 20
-0.7188845709717485
 30
0.0
  0
SPLINE
  5
AD
330
1F
100
AcDbEntity
  8
0
  6
Continuous
 62
     1
370
    25
100
AcDbSpline
210
0.0
220
0.0
230
1.0
 70
     8
 71
     3
 72
    13
 73
     9
 74
     0
 42
0.000000001
 43
0.00000001
 40
0.0
 40
0.0
 40
0.0
 40
0.0
 40
0.1754993229363602
 40
0.3509325791681302
 40
0.5263092900926902
 40
0.7016391509598932
 40
0.8769320019507316
 40
1.0
 40
1.0
 40
1.0
 40
1.0
 10
31.75
 20
0.0680095709717575
 30
0.0
 10
31.58156055590641
 20
0.1639339064964648
 30
0.0
 10
31.24474507673305
 20
0.355746466838259
 30
0.0
 10
30.73965719088682
 20
0.5934159129025506
 30
0.0
 10
30.23476116136961
 20
0.7534293132732677
 30
0.0
 10
29.73002805189484
 20
0.8096445615425906
 30
0.0
 10
29.27550631181237
 20
0.7738102603743061
 30
0.0
 10
28.98922981146926
 20
0.6803098066962099
 30
0.0
 10
28.87114637022981
 20
0.6417427035126588
 30
0.0
  0
LINE
  5
AE
330
1F
100
AcDbEntity
  8
0
  6
Continuous
 62
     1
370
    25
100
AcDbLine
 10
31.74999999999999
 20
-0.7937499999999961
 30
0.0
 11
31.75
 21
-0.7188845709717485
 31
0.0
  0
LINE
  5
AF
330
1F
100
AcDbEntity
  8
외형선
  6
Continuous
370
    15
100
AcDbLine
 10
26.19375000000002
 20
0.6618836664496724
 30
0.0
 11
26.19374999999999
 21
0.7723581802483265
 31
0.0
  0
SPLINE
  5
B0
330
1F
100
AcDbEntity
  8
0
  6
Continuous
 62
     1
370
    25
100
AcDbSpline
210
0.0
220
0.0
230
1.0
 70
     8
 71
     3
 72
     9
 73
     5
 74
     0
 42
0.000000001
 43
0.00000001
 40
0.0
 40
0.0
 40
0.0
 40
0.0
 40
0.9787102338249097
 40
1.0
 40
1.0
 40
1.0
 40
1.0
 10
26.19374999999448
 20
-0.772358180249058
 30
0.0
 10
26.36273756135735
 20
-0.7474071222943633
 30
0.0
 10
26.53540108884743
 20
-0.7219133069725561
 30
0.0
 10
26.70805882224239
 20
-0.6514431079650317
 30
0.0
 10
26.71173466501468
 20
-0.6499428139058493
 30
0.0
  0
SPLINE
  5
B1
330
1F
100
AcDbEntity
  8
0
  6
Continuous
 62
     1
370
    25
100
AcDbSpline
210
0.0
220
0.0
230
1.0
 70
     8
 71
     3
 72
    11
 73
     7
 74
     0
 42
0.000000001
 43
0.00000001
 40
0.0
 40
0.0
 40
0.0
 40
0.0
 40
0.0273866595794897
 40
0.3514807461844602
 40
0.6756793278480597
 40
1.0
 40
1.0
 40
1.0
 40
1.0
 10
30.19205912803747
 20
0.7896459561010477
 30
0.0
 10
30.20627969338002
 20
0.7909905399565625
 30
0.0
 10
30.38878661443229
 20
0.8082469466925589
 30
0.0
 10
30.73965885168635
 20
0.7405751901941291
 30
0.0
 10
31.24474466129492
 20
0.5889941844797227
 30
0.0
 10
31.58156041740963
 20
0.4206869649214224
 30
0.0
 10
31.74999999999999
 20
0.3365175123507853
 30
0.0
  0
LINE
  5
B2
330
1F
100
AcDbEntity
  8
0
  6
Continuous
 62
     1
370
    25
100
AcDbLine
 10
31.75
 20
0.0680095709717576
 30
0.0
 11
31.75
 21
0.3365175123507852
 31
0.0
  0
SPLINE
  5
B3
330
1F
100
AcDbEntity
  8
0
  6
Continuous
 62
     1
370
    25
100
AcDbSpline
210
0.0
220
0.0
230
1.0
 70
     8
 71
     3
 72
     9
 73
     5
 74
     0
 42
0.000000001
 43
0.00000001
 40
0.0
 40
0.0
 40
0.0
 40
0.0
 40
0.7010993661609357
 40
0.9999999999999999
 40
0.9999999999999999
 40
0.9999999999999999
 40
0.9999999999999999
 10
31.74999999999999
 20
0.7937500000000038
 30
0.0
 10
31.58155888348114
 20
0.7762369828132636
 30
0.0
 10
31.34130603966359
 20
0.7554209973528051
 30
0.0
 10
31.10108014799714
 20
0.6666933227793379
 30
0.0
 10
31.02927647671351
 20
0.6401725646102624
 30
0.0
  0
SPLINE
  5
B4
330
1F
100
AcDbEntity
  8
0
  6
Continuous
 62
     1
370
    25
100
AcDbSpline
210
0.0
220
0.0
230
1.0
 70
     8
 71
     3
 72
    10
 73
     6
 74
     0
 42
0.000000001
 43
0.00000001
 40
0.0
 40
0.0
 40
0.0
 40
0.0
 40
0.2521484816812818
 40
0.6260533349643164
 40
1.0
 40
1.0
 40
1.0
 40
1.0
 10
27.54941291204517
 20
-0.7821134674918536
 30
0.0
 10
27.4354747392843
 20
-0.7818555833654917
 30
0.0
 10
27.15258042018687
 20
-0.7812152891377943
 30
0.0
 10
26.70068989291183
 20
-0.6624698321184911
 30
0.0
 10
26.3627362625352
 20
-0.5129060191930713
 30
0.0
 10
26.19374999999453
 20
-0.4381199317365425
 30
0.0
  0
LINE
  5
B5
330
1F
100
AcDbEntity
  8
외형선
  6
Continuous
370
    15
100
AcDbLine
 10
26.19375000000002
 20
-0.4381199317391721
 30
0.0
 11
26.19374999999999
 21
-0.1830352531713297
 31
0.0
  0
SPLINE
  5
B6
330
1F
100
AcDbEntity
  8
외형선
  6
Continuous
370
    15
100
AcDbSpline
210
0.0
220
0.0
230
1.0
 70
    24
 71
     3
 72
    10
 73
     6
 74
     0
 42
0.000000001
 43
0.00000001
 40
0.0
 40
0.0
 40
0.0
 40
0.0
 40
0.0582492970202847
 40
0.5694400622428695
 40
0.9999999999999999
 40
0.9999999999999999
 40
0.9999999999999999
 40
0.9999999999999999
 10
26.19375000000003
 20
-0.4757958560721518
 30
0.0
 10
26.19375000000002
 20
-0.4803156112232828
 30
0.0
 10
26.19375000000002
 20
-0.5245003445375116
 30
0.0
 10
26.19375
 20
-0.6299693545509771
 30
0.0
 10
26.19374999999999
 20
-0.7276839482561859
 30
0.0
 10
26.19374999999999
 20
-0.7723581802483271
 30
0.0
  0
LINE
  5
B7
330
1F
100
AcDbEntity
  8
0
  6
Continuous
 62
     1
370
    25
100
AcDbLine
 10
31.75
 20
0.3365175123507852
 30
0.0
 11
31.74999999999999
 21
0.7937500000000038
 31
0.0
  0
LINE
  5
B8
330
1F
100
AcDbEntity
  8
외형선
  6
Continuous
370
    15
100
AcDbLine
 10
25.19375
 20
-0.0000000000000004
 30
0.0
 11
25.19375
 21
0.7937499999999994
 31
0.0
  0
LINE
  5
B9
330
1F
100
AcDbEntity
  8
외형선
  6
Continuous
370
    15
100
AcDbLine
 10
25.19375
 20
-0.7937500000000001
 30
0.0
 11
25.19375
 21
-0.0000000000000004
 31
0.0
  0
LINE
  5
BA
330
1F
100
AcDbEntity
  8
외형선
  6
Continuous
370
    15
100
AcDbLine
 10
19.2691193429844
 20
-0.0000000000000004
 30
0.0
 11
19.2691193429844
 21
2.381250000000006
 31
0.0
  0
LINE
  5
BB
330
1F
100
AcDbEntity
  8
외형선
  6
Continuous
370
    15
100
AcDbLine
 10
19.2691193429844
 20
-2.381250000000007
 30
0.0
 11
19.2691193429844
 21
-0.0000000000000004
 31
0.0
  0
SPLINE
  5
C0
330
1F
100
AcDbEntity
  8
외형선
  6
Continuous
370
    15
100
AcDbSpline
210
0.0
220
0.0
230
1.0
 70
    24
 71
     3
 72
    16
 73
    12
 74
     0
 42
0.000000001
 43
0.00000001
 40
0.0
 40
0.0
 40
0.0
 40
0.0
 40
0.0406303089501332
 40
0.1857633481443775
 40
0.3308963873388669
 40
0.4760294265332385
 40
0.6211624657276149
 40
0.7662955049219734
 40
0.8380799666778485
 40
0.9832130058685391
 40
1.0
 40
1.0
 40
1.0
 40
1.0
 10
26.19374999999999
 20
-0.1751844611818803
 30
0.0
 10
26.19374999999999
 20
-0.1744499762728735
 30
0.0
 10
26.19374999999997
 20
-0.1710918827859133
 30
0.0
 10
26.19375000000003
 20
-0.1148754973983244
 30
0.0
 10
26.19374999999997
 20
-0.0081920612513952
 30
0.0
 10
26.19375
 20
0.1358865697442653
 30
0.0
 10
26.19374999999996
 20
0.2965086783008963
 30
0.0
 10
26.19374999999997
 20
0.4302019347384923
 30
0.0
 10
26.19374999999996
 20
0.551311944323671
 30
0.0
 10
26.19375000000013
 20
0.6199231670807764
 30
0.0
 10
26.19375
 20
0.6579420718370056
 30
0.0
 10
26.19374999999996
 20
0.6618836664496847
 30
0.0
  0
SPLINE
  5
C1
330
1F
100
AcDbEntity
  8
외형선
  6
Continuous
370
    15
100
AcDbSpline
210
0.0
220
0.0
230
1.0
 70
     8
 71
     3
 72
    10
 73
     6
 74
     0
 42
0.000000001
 43
0.00000001
 40
0.0
 40
0.0
 40
0.0
 40
0.0
 40
0.5
 40
0.5
 40
1.0
 40
1.0
 40
1.0
 40
1.0
 10
26.19374999999452
 20
-0.1830352531682609
 30
0.0
 10
26.11003097926413
 20
-0.1361488787152769
 30
0.0
 10
26.02537763848961
 20
-0.0880705024737355
 30
0.0
 10
25.85838361475655
 20
0.0080920356594929
 30
0.0
 10
25.77725395975581
 20
0.0559381481772058
 30
0.0
 10
25.69388531036096
 20
0.1036439520384155
 30
0.0
  0
SPLINE
  5
C2
330
1F
100
AcDbEntity
  8
외형선
  6
Continuous
370
    15
100
AcDbSpline
210
0.0
220
0.0
230
1.0
 70
     8
 71
     3
 72
    10
 73
     6
 74
     0
 42
0.000000001
 43
0.00000001
 40
0.0
 40
0.0
 40
0.0
 40
0.0
 40
0.5
 40
0.5
 40
1.0
 40
1.0
 40
1.0
 40
1.0
 10
26.19374999999452
 20
0.6618836664514235
 30
0.0
 10
26.11003097926413
 20
0.6884799474257378
 30
0.0
 10
26.02537763848964
 20
0.7114846603399236
 30
0.0
 10
25.85838361475658
 20
0.7491948731273821
 30
0.0
 10
25.77725395975581
 20
0.7638803633051048
 30
0.0
 10
25.69388531036094
 20
0.7744316405788375
 30
0.0
  0
LINE
  5
C3
330
1F
100
AcDbEntity
  8
외형선
  6
Continuous
370
    15
100
AcDbLine
 10
25.87353382284589
 20
0.7817085068150755
 30
0.0
 11
26.19374999999452
 21
0.7723581802490532
 31
0.0
  0
LINE
  5
C4
330
1F
100
AcDbEntity
  8
외형선
  6
Continuous
370
    15
100
AcDbLine
 10
25.69388531036096
 20
0.1036127753497106
 30
0.0
 11
25.69388531036096
 21
0.7744443483906736
 31
0.0
  0
SPLINE
  5
C5
330
1F
100
AcDbEntity
  8
외형선
  6
Continuous
370
    15
100
AcDbSpline
210
0.0
220
0.0
230
1.0
 70
     8
 71
     3
 72
    10
 73
     6
 74
     0
 42
0.000000001
 43
0.00000001
 40
0.0
 40
0.0
 40
0.0
 40
0.0
 40
0.5
 40
0.5
 40
1.0
 40
1.0
 40
1.0
 40
1.0
 10
26.19374999999452
 20
-0.4381199317365306
 30
0.0
 10
26.11003097926413
 20
-0.3979399657270462
 30
0.0
 10
26.02537763848964
 20
-0.3551708486103917
 30
0.0
 10
25.85838361475658
 20
-0.2665779354734513
 30
0.0
 10
25.77725395975581
 20
-0.2210003905430548
 30
0.0
 10
25.69388531036094
 20
-0.1740537174850635
 30
0.0
  0
LINE
  5
C6
330
1F
100
AcDbEntity
  8
외형선
  6
Continuous
370
    15
100
AcDbLine
 10
25.69388531036096
 20
-0.7869583567663101
 30
0.0
 11
25.69388531036096
 21
-0.1739971659129699
 31
0.0
  0
SPLINE
  5
C7
330
1F
100
AcDbEntity
  8
외형선
  6
Continuous
370
    15
100
AcDbSpline
210
0.0
220
0.0
230
1.0
 70
     8
 71
     3
 72
    10
 73
     6
 74
     0
 42
0.000000001
 43
0.00000001
 40
0.0
 40
0.0
 40
0.0
 40
0.0
 40
0.5
 40
0.5
 40
1.0
 40
1.0
 40
1.0
 40
1.0
 10
26.19374999999452
 20
-0.7723581802490539
 30
0.0
 10
26.11003097926413
 20
-0.7834694232417501
 30
0.0
 10
26.02537763848961
 20
-0.7903166075666542
 30
0.0
 10
25.85838361475655
 20
-0.7951674493844217
 30
0.0
 10
25.77725395975581
 20
-0.793237231628614
 30
0.0
 10
25.69388531036096
 20
-0.7869542513423887
 30
0.0
  0
SPLINE
  5
C8
330
1F
100
AcDbEntity
  8
외형선
  6
Continuous
370
    15
100
AcDbSpline
210
0.0
220
0.0
230
1.0
 70
    24
 71
     3
 72
    10
 73
     6
 74
     0
 42
0.000000001
 43
0.00000001
 40
0.0
 40
0.0
 40
0.0
 40
0.0
 40
0.4609732333889048
 40
0.9739554856064168
 40
1.0
 40
1.0
 40
1.0
 40
1.0
 10
26.19375000000002
 20
-0.7723581802483237
 30
0.0
 10
26.19374999999999
 20
-0.7247441128031665
 30
0.0
 10
26.19374999999996
 20
-0.6241439503179822
 30
0.0
 10
26.19375000000008
 20
-0.5190063101307435
 30
0.0
 10
26.19374999999999
 20
-0.4777779157921656
 30
0.0
 10
26.19375
 20
-0.4757858560721517
 30
0.0
  0
LINE
  5
C9
330
1F
100
AcDbEntity
  8
중심선
 48
0.5
100
AcDbLine
 10
-34.75000000000001
 20
-0.0000000000000043
 30
0.0
 11
34.75
 21
0.0000000000000043
 31
0.0
  0
LINE
  5
CA
330
1F
100
AcDbEntity
  8
참조1
100
AcDbLine
 10
-7.744119342984384
 20
0.0010749287238892
 30
0.0
 11
-7.744119342984377
 21
-39.99892507127611
 31
0.0
  0
LINE
  5
CB
330
1F
100
AcDbEntity
  8
참조1
100
AcDbLine
 10
-7.744119342984377
 20
-39.99892507127611
 30
0.0
 11
-29.25297615729306
 21
-39.9989250712761
 31
0.0
  0
CIRCLE
  5
CC
330
1F
100
AcDbEntity
  8
해칭선
100
AcDbCircle
 10
0.0
 20
0.0
 30
0.0
 40
3.000000000000004
  0
INSERT
  5
CD
330
1F
100
AcDbEntity
  8
0
  6
Continuous
 62
     7
100
AcDbBlockReference
 66
     1
  2
블럭10
 10
-13.9402729321252
 20
-52.04717430164393
 30
0.0
  0
ATTRIB
  5
CE
330
CD
100
AcDbEntity
  8
FORMAT
 62
     2
100
AcDbText
 10
-23.12156822086649
 20
-49.97180738881174
 30
0.0
 40
4.233333333333333
  1
E1006004 [ 4 FLUTE ]
 41
0.75
  7
SLDTEXTSTYLE0
 11
-23.12156822086649
 21
-52.08847405547841
 31
0.0
100
AcDbAttribute
  2
AUTOATTR0
 70
     0
 74
     1
  0
SEQEND
  5
CF
330
CD
100
AcDbEntity
  8
0
  6
Continuous
 62
     7
  0
HATCH
  5
D0
330
1F
100
AcDbEntity
  8
중심선
100
AcDbHatch
 10
0.0
 20
0.0
 30
0.0
210
0.0
220
0.0
230
1.0
  2
SOLID
 70
     1
 71
     0
 91
        1
 92
        0
 93
        4
 72
     1
 10
-8.225363627744372
 20
-35.8
 11
-11.67163887158165
 21
-35.8
 72
     1
 10
-11.67163887158165
 20
-35.8
 11
-13.79986873078568
 21
-38.3363255805726
 72
     1
 10
-13.79986873078568
 20
-38.3363255805726
 11
-10.35356040183525
 21
-38.33628615127011
 72
     1
 10
-10.35356040183525
 20
-38.33628615127011
 11
-8.225363627744372
 21
-35.8
 97
        0
 75
     0
 76
     1
 98
        1
 10
7.744119342984384
 20
-0.0010749287238935
  0
HATCH
  5
D1
330
1F
100
AcDbEntity
  8
중심선
100
AcDbHatch
 10
0.0
 20
0.0
 30
0.0
210
0.0
220
0.0
230
1.0
  2
SOLID
 70
     1
 71
     0
 91
        1
 92
        0
 93
        4
 72
     1
 10
-3.212599636708392
 20
-35.8
 11
-6.658874880545675
 21
-35.8
 72
     1
 10
-6.658874880545675
 20
-35.8
 11
-11.19001288890309
 21
-41.20000000000002
 72
     1
 10
-11.19001288890309
 20
-41.20000000000002
 11
-7.743737645065808
 21
-41.20000000000002
 72
     1
 10
-7.743737645065808
 20
-41.20000000000002
 11
-3.212599636708392
 21
-35.8
 97
        0
 75
     0
 76
     1
 98
        1
 10
7.744119342984384
 20
-0.0010749287238935
  0
HATCH
  5
D2
330
1F
100
AcDbEntity
  8
중심선
100
AcDbHatch
 10
0.0
 20
0.0
 30
0.0
210
0.0
220
0.0
230
1.0
  2
SOLID
 70
     1
 71
     0
 91
        1
 92
        0
 93
        4
 72
     1
 10
1.800164354327476
 20
-35.8
 11
-1.646110889509639
 21
-35.8
 72
     1
 10
-1.646110889509639
 20
-35.8
 11
-8.69454779139889
 21
-44.20000000000002
 72
     1
 10
-8.69454779139889
 20
-44.20000000000002
 11
-5.248272547561607
 21
-44.20000000000002
 72
     1
 10
-5.248272547561607
 20
-44.20000000000002
 11
1.800164354327476
 21
-35.8
 97
        0
 75
     0
 76
     1
 98
        1
 10
7.744119342984384
 20
-0.0010749287238935
  0
HATCH
  5
D3
330
1F
100
AcDbEntity
  8
중심선
100
AcDbHatch
 10
0.0
 20
0.0
 30
0.0
210
0.0
220
0.0
230
1.0
  2
SOLID
 70
     1
 71
     0
 91
        1
 92
        0
 93
        6
 72
     3
 10
6.600054785339675
 20
-40.00000000005127
 11
3.960054785062284
 21
1.540882976769353E-10
 40
0.3939339440162627
 50
17.09539180608436
 51
320.0019657685081
 73
     0
 72
     1
 10
8.28305444104027
 20
-38.5878940046383
 11
10.58835631474134
 21
-36.65356729459035
 72
     3
 10
6.600054785286829
 20
-40.00000000000015
 11
6.60005478528683
 21
-1.278976924368180E-13
 40
0.636358354079598
 50
39.99873849337413
 51
368.4976242363724
 73
     1
 72
     1
 10
13.02538727718744
 20
-39.03999999993002
 11
5.280122092122751
 21
-39.03999999993002
 72
     1
 10
5.280122092122751
 20
-39.03999999993002
 11
5.280097047676817
 21
-40.95999999992991
 72
     1
 10
5.280097047676817
 20
-40.95999999992991
 11
9.721476817148854
 21
-40.95999999992988
 97
        0
 75
     0
 76
     1
 98
        1
 10
7.744119342984384
 20
-0.0010749287238935
  0
DIMENSION
  5
D4
330
1F
100
AcDbEntity
  8
치수문자_일반주서
100
AcDbDimension
  2
_D
 10
50.04433659074268
 20
-0.7937499999999282
 30
0.0
 11
50.04433659074259
 21
20.52275000000007
 31
0.0
 70
   160
  1
%%c<>
 71
     2
 42
1.5875
 52
-270.0
  3
SLDDIMSTYLE0
100
AcDbAlignedDimension
 13
31.74999999999999
 23
0.7937500000000038
 33
0.0
 14
31.74999999999999
 24
-0.7937499999999961
 34
0.0
 50
90.0000000000002
100
AcDbRotatedDimension
1001
ACAD
1000
DSTYLE
1002
{
1070
   171
1070
     6
1070
   273
1070
     7
1002
}
  0
DIMENSION
  5
E9
330
1F
100
AcDbEntity
  8
치수문자_일반주서
100
AcDbDimension
  2
_D_1
 10
26.19374999999999
 20
17.70501823325128
 30
0.0
 11
-1.950837401512516
 21
17.70501823325128
 31
0.0
 70
   160
  1
<>
 71
     2
 42
5.556250000000006
  3
SLDDIMSTYLE0
100
AcDbAlignedDimension
 13
31.74999999999999
 23
0.7937500000000038
 33
0.0
 14
26.19374999999999
 24
0.7723581802483265
 34
0.0
 50
0.0000000000005129
100
AcDbRotatedDimension
1001
ACAD
1000
DSTYLE
1002
{
1070
   171
1070
     6
1070
   273
1070
     7
1002
}
  0
DIMENSION
  5
FE
330
1F
100
AcDbEntity
  8
치수문자_일반주서
100
AcDbDimension
  2
_D_2
 10
-31.75000000000001
 20
30.58622323803248
 30
0.0
 11
0.0479702716431873
 21
30.58622323803248
 31
0.0
 70
   160
  1
<>
 71
     2
 42
63.5
  3
SLDDIMSTYLE0
100
AcDbAlignedDimension
 13
31.74999999999999
 23
0.7937500000000038
 33
0.0
 14
-31.75000000000001
 24
0.793750000000001
 34
0.0
100
AcDbRotatedDimension
1001
ACAD
1000
DSTYLE
1002
{
1070
   171
1070
     6
1070
   273
1070
     7
1002
}
  0
DIMENSION
  5
112
330
1F
100
AcDbEntity
  8
치수문자_일반주서
100
AcDbDimension
  2
_D_3
 10
-44.74999999999999
 20
-2.381250000000099
 30
0.0
 11
-44.75
 21
0.000000000000001
 31
0.0
 70
   160
  1
%%c<>
 71
     2
 42
4.762500000000006
 52
-270.0
  3
SLDDIMSTYLE0
100
AcDbAlignedDimension
 13
-19.26911934298442
 23
2.381250000000003
 33
0.0
 14
-19.2691193429844
 24
-2.381250000000003
 34
0.0
 50
90.0000000000002
100
AcDbRotatedDimension
1001
ACAD
1000
DSTYLE
1002
{
1070
   171
1070
     6
1070
   273
1070
     7
1002
}
  0
LINE
  5
126
330
1F
100
AcDbEntity
  8
참조1
100
AcDbLine
 10
68.7193644723612
 20
7.441074928723896
 30
0.0
 11
68.7193644723612
 21
-7.438925071276109
 31
0.0
  0
LINE
  5
127
330
1F
100
AcDbEntity
  8
참조1
100
AcDbLine
 10
81.41936447236121
 20
5.441074928723896
 30
0.0
 11
68.7193644723612
 21
5.441074928723896
 31
0.0
  0
SOLID
  5
128
330
1F
100
AcDbEntity
  8
참조1
100
AcDbTrace
 10
68.7193644723612
 20
5.441074928723896
 30
0.0
 11
75.0693644723612
 21
4.425074928723896
 31
0.0
 12
75.0693644723612
 22
6.457074928723896
 32
0.0
 13
75.0693644723612
 23
6.457074928723896
 33
0.0
  0
LINE
  5
129
330
1F
100
AcDbEntity
  8
참조1
100
AcDbLine
 10
81.41936447236121
 20
-5.438925071276109
 30
0.0
 11
68.7193644723612
 21
-5.438925071276109
 31
0.0
  0
SOLID
  5
12A
330
1F
100
AcDbEntity
  8
참조1
100
AcDbTrace
 10
68.7193644723612
 20
-5.438925071276109
 30
0.0
 11
75.0693644723612
 21
-6.454925071276109
 31
0.0
 12
75.0693644723612
 22
-4.422925071276109
 32
0.0
 13
75.0693644723612
 23
-4.422925071276109
 33
0.0
  0
MTEXT
  5
12B
330
1F
100
AcDbEntity
  8
참조1
100
AcDbMText
 10
78.1037146049872
 20
11.01136670591223
 30
0.0
 40
3.5
 41
0.0
 71
     1
 72
     1
  1
A
  7
SLDTEXTSTYLE0
 73
     1
 44
1.0
  0
MTEXT
  5
12C
330
1F
100
AcDbEntity
  8
참조1
100
AcDbMText
 10
78.1037146049872
 20
0.1313667059122219
 30
0.0
 40
3.5
 41
0.0
 71
     1
 72
     1
  1
A
  7
SLDTEXTSTYLE0
 73
     1
 44
1.0
  0
INSERT
  5
133
330
1F
100
AcDbEntity
  8
해칭선
100
AcDbBlockReference
  2
SW_DOWELSYMBOL_0
 10
0.0
 20
0.0
 30
0.0
  0
LINE
  5
34D
330
1F
100
AcDbEntity
  8
외형선
  6
Continuous
370
    15
100
AcDbLine
 10
-26.19374999999997
 20
0.1798880253230076
 30
0.0
 11
-26.28358063458902
 21
0.2301962495276671
 31
0.0
  0
LINE
  5
34E
330
1F
100
AcDbEntity
  8
0
  6
Continuous
 62
     1
370
    25
100
AcDbLine
 10
-27.17599234606582
 20
-0.213813586868847
 30
0.0
 11
-27.12887144154045
 21
-0.2385988727843956
 31
0.0
  0
LINE
  5
34F
330
1F
100
AcDbEntity
  8
0
  6
Continuous
 62
     1
370
    25
100
AcDbLine
 10
-31.4570071372919
 20
-0.2337360864035089
 30
0.0
 11
-31.43190523341955
 21
-0.2473817303633493
 31
0.0
  0
LINE
  5
350
330
1F
100
AcDbEntity
  8
0
  6
Continuous
 62
     1
370
    25
100
AcDbLine
 10
-28.03308667478118
 20
-0.7937499999999905
 30
0.0
 11
-27.54941291204518
 21
-0.7937499999999905
 31
0.0
  0
LINE
  5
351
330
1F
100
AcDbEntity
  8
0
  6
Continuous
 62
     1
370
    25
100
AcDbLine
 10
-29.70796518395407
 20
0.7937500000000081
 30
0.0
 11
-30.19205912803751
 21
0.7937500000000081
 31
0.0
  0
LINE
  5
352
330
1F
100
AcDbEntity
  8
0
  6
Continuous
 62
     1
370
    25
100
AcDbLine
 10
-30.19205912803751
 20
-0.7937499999999905
 30
0.0
 11
-29.70796518395407
 21
-0.7937499999999905
 31
0.0
  0
LINE
  5
353
330
1F
100
AcDbEntity
  8
0
  6
Continuous
 62
     1
370
    25
100
AcDbLine
 10
-27.54941291204518
 20
0.7937500000000081
 30
0.0
 11
-28.03308667478115
 21
0.7937500000000081
 31
0.0
  0
LINE
  5
354
330
1F
100
AcDbEntity
  8
외형선
  6
Continuous
370
    15
100
AcDbLine
 10
-19.2691193429844
 20
2.38125000000001
 30
0.0
 11
-25.19375000000003
 21
0.7937500000000081
 31
0.0
  0
LINE
  5
355
330
1F
100
AcDbEntity
  8
외형선
  6
Continuous
370
    15
100
AcDbLine
 10
-25.19375000000003
 20
-0.7937499999999905
 30
0.0
 11
-19.2691193429844
 21
-2.381250000000003
 31
0.0
  0
LINE
  5
358
330
1F
100
AcDbEntity
  8
외형선
  6
Continuous
370
    15
100
AcDbLine
 10
-25.19375000000003
 20
0.7937500000000081
 30
0.0
 11
-25.87353382284591
 21
0.7937500000000081
 31
0.0
  0
LINE
  5
359
330
1F
100
AcDbEntity
  8
외형선
  6
Continuous
370
    15
100
AcDbLine
 10
-25.87353382284591
 20
-0.7937499999999905
 30
0.0
 11
-25.19375000000003
 21
-0.7937499999999905
 31
0.0
  0
SPLINE
  5
35A
330
1F
100
AcDbEntity
  8
0
  6
Continuous
 62
     1
370
    25
100
AcDbSpline
210
0.0
220
0.0
230
1.0
 70
     8
 71
     3
 72
    13
 73
     9
 74
     0
 42
0.000000001
 43
0.00000001
 40
0.0
 40
0.0
 40
0.0
 40
0.0
 40
0.1893398430275082
 40
0.3786585155742347
 40
0.5670660440730314
 40
0.7554701402647773
 40
0.9438816784343627
 40
1.0
 40
1.0
 40
1.0
 40
1.0
 10
-26.19374999999452
 20
0.1830352531682545
 30
0.0
 10
-26.36273631730476
 20
0.2755835202881921
 30
0.0
 10
-26.70069005721445
 20
0.4606697065142614
 30
0.0
 10
-27.20678713301462
 20
0.6690112750221625
 30
0.0
 10
-27.71202478718977
 20
0.7908937446709688
 30
0.0
 10
-28.21645631262985
 20
0.800612774844394
 30
0.0
 10
-28.60282632031255
 20
0.7439640272720264
 30
0.0
 10
-28.82106234584416
 20
0.6608231086984641
 30
0.0
 10
-28.87114637022979
 20
0.6417427035126674
 30
0.0
  0
SPLINE
  5
35B
330
1F
100
AcDbEntity
  8
외형선
  6
Continuous
370
    15
100
AcDbSpline
210
0.0
220
0.0
230
1.0
 70
    24
 71
     3
 72
    20
 73
    16
 74
     0
 42
0.000000001
 43
0.00000001
 40
0.0
 40
0.0
 40
0.0
 40
0.0
 40
0.0554194665819762
 40
0.1115414234981218
 40
0.1941972056706313
 40
0.2792500111256429
 40
0.3619057932981634
 40
0.4469585987531886
 40
0.5296143809262597
 40
0.6146671863807406
 40
0.6973229685524467
 40
0.7823757740065818
 40
0.8650315561796346
 40
0.9500843616352379
 40
0.9999999999999999
 40
0.9999999999999999
 40
0.9999999999999999
 40
0.9999999999999999
 10
-26.19375000000003
 20
-0.6618836664496631
 30
0.0
 10
-26.19375000000003
 20
-0.6502995906551893
 30
0.0
 10
-26.19374999999997
 20
-0.626984600747898
 30
0.0
 10
-26.19375000000003
 20
-0.5801006908842067
 30
0.0
 10
-26.19375000000003
 20
-0.5202873660156638
 30
0.0
 10
-26.19375000000003
 20
-0.4467624230741426
 30
0.0
 10
-26.19375
 20
-0.3681924170087268
 30
0.0
 10
-26.19375000000012
 20
-0.2881670218707041
 30
0.0
 10
-26.19374999999989
 20
-0.2075272012764754
 30
0.0
 10
-26.19375000000009
 20
-0.129990653550154
 30
0.0
 10
-26.19374999999997
 20
-0.0564052004058892
 30
0.0
 10
-26.19375000000009
 20
0.010000076650554
 30
0.0
 10
-26.19374999999994
 20
0.067875347418825
 30
0.0
 10
-26.19375000000003
 20
0.110592685213687
 30
0.0
 10
-26.19375000000003
 20
0.1289304777317513
 30
0.0
 10
-26.19375000000003
 20
0.1357123786993436
 30
0.0
  0
SPLINE
  5
35C
330
1F
100
AcDbEntity
  8
외형선
  6
Continuous
370
    15
100
AcDbSpline
210
0.0
220
0.0
230
1.0
 70
    24
 71
     3
 72
     9
 73
     5
 74
     0
 42
0.000000001
 43
0.00000001
 40
0.0
 40
0.0
 40
0.0
 40
0.0
 40
0.2812640398799923
 40
1.0
 40
1.0
 40
1.0
 40
1.0
 10
-26.19375
 20
0.1792942273653021
 30
0.0
 10
-26.19375000000003
 20
0.1807259869683778
 30
0.0
 10
-26.19375
 20
0.1858164336663871
 30
0.0
 10
-26.19375000000003
 20
0.1841982790692976
 30
0.0
 10
-26.19375
 20
0.1830352531713383
 30
0.0
  0
SPLINE
  5
35D
330
1F
100
AcDbEntity
  8
0
  6
Continuous
 62
     1
370
    25
100
AcDbSpline
210
0.0
220
0.0
230
1.0
 70
     8
 71
     3
 72
    14
 73
    10
 74
     0
 42
0.000000001
 43
0.00000001
 40
0.0
 40
0.0
 40
0.0
 40
0.0
 40
0.1373143092705698
 40
0.2808752619230704
 40
0.4244222775422571
 40
0.5679636232660598
 40
0.7115075839965567
 40
0.8557457273134822
 40
1.0
 40
1.0
 40
1.0
 40
1.0
 10
-29.70796518395407
 20
0.7915385613471758
 30
0.0
 10
-29.54710851211014
 20
0.7829469450617789
 30
0.0
 10
-29.21807754602768
 20
0.765372866385471
 30
0.0
 10
-28.72090955155819
 20
0.6099186628722232
 30
0.0
 10
-28.21645566812715
 20
0.3794388343430181
 30
0.0
 10
-27.71202495979725
 20
0.0956989811001331
 30
0.0
 10
-27.20678708673717
 20
-0.1989579957385336
 30
0.0
 10
-26.70069006880858
 20
-0.4740328958439318
 30
0.0
 10
-26.36273632116966
 20
-0.5992644090525429
 30
0.0
 10
-26.19374999999454
 20
-0.6618836664514111
 30
0.0
  0
SPLINE
  5
35E
330
1F
100
AcDbEntity
  8
0
  6
Continuous
 62
     1
370
    25
100
AcDbSpline
210
0.0
220
0.0
230
1.0
 70
     8
 71
     3
 72
    17
 73
    13
 74
     0
 42
0.000000001
 43
0.00000001
 40
0.0
 40
0.0
 40
0.0
 40
0.0
 40
0.1048400628880727
 40
0.2096684033911394
 40
0.3139922309625503
 40
0.4183141580185636
 40
0.5226402057995772
 40
0.6269763826355065
 40
0.7313286651656903
 40
0.8357029797699296
 40
0.9401051843331412
 40
1.0
 40
1.0
 40
1.0
 40
1.0
 10
-26.19374999999449
 20
-0.7723581802490519
 30
0.0
 10
-26.36273632069209
 20
-0.7396322515184172
 30
0.0
 10
-26.70069006737612
 20
-0.6741840532111515
 30
0.0
 10
-27.2067870924546
 20
-0.4578341704102603
 30
0.0
 10
-27.71202493847205
 20
-0.188068223727962
 30
0.0
 10
-28.21645574775381
 20
0.1082881033784043
 30
0.0
 10
-28.72090925435104
 20
0.3897661408817167
 30
0.0
 10
-29.22542192849756
 20
0.6191770157991935
 30
0.0
 10
-29.73002746713076
 20
0.7671151035904752
 30
0.0
 10
-30.23476238793186
 20
0.8088594365456369
 30
0.0
 10
-30.66785381576367
 20
0.7648971370370868
 30
0.0
 10
-30.93271924228612
 20
0.6734938282715691
 30
0.0
 10
-31.02927647671357
 20
0.6401725646102693
 30
0.0
  0
SPLINE
  5
35F
330
1F
100
AcDbEntity
  8
0
  6
Continuous
 62
     1
370
    25
100
AcDbSpline
210
0.0
220
0.0
230
1.0
 70
     8
 71
     3
 72
    17
 73
    13
 74
     0
 42
0.000000001
 43
0.00000001
 40
0.0
 40
0.0
 40
0.0
 40
0.0
 40
0.1002741491529346
 40
0.2005105501112934
 40
0.3007146430671243
 40
0.400891967545672
 40
0.5010481458807439
 40
0.6011888661467937
 40
0.7013198646568322
 40
0.8014469081401235
 40
0.901575775717286
 40
1.0
 40
1.0
 40
1.0
 40
1.0
 10
-31.75000000000001
 20
0.793750000000001
 30
0.0
 10
-31.58156055755644
 20
0.772127602478429
 30
0.0
 10
-31.24474508168249
 20
0.7347277342978716
 30
0.0
 10
-30.73965717110051
 20
0.5523873601369312
 30
0.0
 10
-30.23476123553423
 20
0.3039887735361847
 30
0.0
 10
-29.73002777511747
 20
0.0130798730356235
 30
0.0
 10
-29.22542184857404
 20
-0.2790379635265002
 30
0.0
 10
-28.72090926613601
 20
-0.5339723596155733
 30
0.0
 10
-28.21645578051963
 20
-0.718183563525182
 30
0.0
 10
-27.7120247956292
 20
-0.8049437462120769
 30
0.0
 10
-27.21046331192162
 20
-0.791135513249584
 30
0.0
 10
-26.8770233168113
 20
-0.696736899352482
 30
0.0
 10
-26.71173466501467
 20
-0.64994281390584
 30
0.0
  0
LINE
  5
360
330
1F
100
AcDbEntity
  8
0
  6
Continuous
 62
     1
370
    25
100
AcDbLine
 10
-31.75000000000001
 20
0.7188845709717543
 30
0.0
 11
-31.75000000000001
 21
-0.0680095709717518
 31
0.0
  0
SPLINE
  5
361
330
1F
100
AcDbEntity
  8
0
  6
Continuous
 62
     1
370
    25
100
AcDbSpline
210
0.0
220
0.0
230
1.0
 70
     8
 71
     3
 72
    15
 73
    11
 74
     0
 42
0.000000001
 43
0.00000001
 40
0.0
 40
0.0
 40
0.0
 40
0.0
 40
0.0493377862704249
 40
0.1850686581644944
 40
0.3208127082195739
 40
0.4565777121971886
 40
0.5923713804699127
 40
0.7282013342967137
 40
0.8640750826868079
 40
1.0
 40
1.0
 40
1.0
 40
1.0
 10
-28.03308667478118
 20
-0.7814200155472425
 30
0.0
 10
-28.09420760139955
 20
-0.7846772022759351
 30
0.0
 10
-28.32347544517825
 20
-0.7968950827857403
 30
0.0
 10
-28.72090938764018
 20
-0.7077148095065643
 30
0.0
 10
-29.22542181601046
 20
-0.5259286336687216
 30
0.0
 10
-29.73002778384521
 20
-0.2672752140795024
 30
0.0
 10
-30.23476123319552
 20
0.0256684345329229
 30
0.0
 10
-30.73965717172442
 20
0.3138753429549136
 30
0.0
 10
-31.2447450815264
 20
0.5670169669537887
 30
0.0
 10
-31.5815605575044
 20
0.6682556832189926
 30
0.0
 10
-31.75000000000001
 20
0.7188845709717543
 30
0.0
  0
SPLINE
  5
362
330
1F
100
AcDbEntity
  8
0
  6
Continuous
 62
     1
370
    25
100
AcDbSpline
210
0.0
220
0.0
230
1.0
 70
     8
 71
     3
 72
    13
 73
     9
 74
     0
 42
0.000000001
 43
0.00000001
 40
0.0
 40
0.0
 40
0.0
 40
0.0
 40
0.1754993229363602
 40
0.3509325791681302
 40
0.5263092900926902
 40
0.7016391509598932
 40
0.8769320019507316
 40
1.0
 40
1.0
 40
1.0
 40
1.0
 10
-31.75000000000001
 20
-0.0680095709717518
 30
0.0
 10
-31.58156055590644
 20
-0.1639339064964586
 30
0.0
 10
-31.24474507673307
 20
-0.3557464668382534
 30
0.0
 10
-30.73965719088682
 20
-0.593415912902545
 30
0.0
 10
-30.23476116136963
 20
-0.7534293132732605
 30
0.0
 10
-29.73002805189487
 20
-0.8096445615425855
 30
0.0
 10
-29.27550631181237
 20
-0.7738102603742992
 30
0.0
 10
-28.98922981146928
 20
-0.6803098066962027
 30
0.0
 10
-28.87114637022982
 20
-0.6417427035126498
 30
0.0
  0
LINE
  5
363
330
1F
100
AcDbEntity
  8
0
  6
Continuous
 62
     1
370
    25
100
AcDbLine
 10
-31.75000000000001
 20
0.793750000000001
 30
0.0
 11
-31.75000000000001
 21
0.7188845709717543
 31
0.0
  0
LINE
  5
364
330
1F
100
AcDbEntity
  8
외형선
  6
Continuous
370
    15
100
AcDbLine
 10
-26.19375000000003
 20
-0.6618836664496631
 30
0.0
 11
-26.19375
 21
-0.77235818024832
 31
0.0
  0
SPLINE
  5
365
330
1F
100
AcDbEntity
  8
0
  6
Continuous
 62
     1
370
    25
100
AcDbSpline
210
0.0
220
0.0
230
1.0
 70
     8
 71
     3
 72
     9
 73
     5
 74
     0
 42
0.000000001
 43
0.00000001
 40
0.0
 40
0.0
 40
0.0
 40
0.0
 40
0.9787102338249097
 40
1.0
 40
1.0
 40
1.0
 40
1.0
 10
-26.19374999999449
 20
0.7723581802490659
 30
0.0
 10
-26.36273756135734
 20
0.7474071222943709
 30
0.0
 10
-26.53540108884744
 20
0.7219133069725617
 30
0.0
 10
-26.70805882224241
 20
0.6514431079650381
 30
0.0
 10
-26.7117346650147
 20
0.6499428139058575
 30
0.0
  0
SPLINE
  5
366
330
1F
100
AcDbEntity
  8
0
  6
Continuous
 62
     1
370
    25
100
AcDbSpline
210
0.0
220
0.0
230
1.0
 70
     8
 71
     3
 72
    11
 73
     7
 74
     0
 42
0.000000001
 43
0.00000001
 40
0.0
 40
0.0
 40
0.0
 40
0.0
 40
0.0273866595794897
 40
0.3514807461844602
 40
0.6756793278480597
 40
1.0
 40
1.0
 40
1.0
 40
1.0
 10
-30.19205912803751
 20
-0.7896459561010422
 30
0.0
 10
-30.20627969338003
 20
-0.790990539956555
 30
0.0
 10
-30.38878661443233
 20
-0.8082469466925507
 30
0.0
 10
-30.73965885168636
 20
-0.7405751901941234
 30
0.0
 10
-31.24474466129494
 20
-0.5889941844797147
 30
0.0
 10
-31.58156041740964
 20
-0.4206869649214174
 30
0.0
 10
-31.75000000000001
 20
-0.3365175123507794
 30
0.0
  0
LINE
  5
367
330
1F
100
AcDbEntity
  8
0
  6
Continuous
 62
     1
370
    25
100
AcDbLine
 10
-31.75000000000001
 20
-0.0680095709717518
 30
0.0
 11
-31.75000000000001
 21
-0.3365175123507794
 31
0.0
  0
SPLINE
  5
368
330
1F
100
AcDbEntity
  8
0
  6
Continuous
 62
     1
370
    25
100
AcDbSpline
210
0.0
220
0.0
230
1.0
 70
     8
 71
     3
 72
     9
 73
     5
 74
     0
 42
0.000000001
 43
0.00000001
 40
0.0
 40
0.0
 40
0.0
 40
0.0
 40
0.7010993661609357
 40
0.9999999999999999
 40
0.9999999999999999
 40
0.9999999999999999
 40
0.9999999999999999
 10
-31.75000000000001
 20
-0.7937499999999976
 30
0.0
 10
-31.58155888348114
 20
-0.7762369828132575
 30
0.0
 10
-31.34130603966361
 20
-0.7554209973527987
 30
0.0
 10
-31.10108014799716
 20
-0.6666933227793327
 30
0.0
 10
-31.02927647671351
 20
-0.6401725646102553
 30
0.0
  0
SPLINE
  5
369
330
1F
100
AcDbEntity
  8
0
  6
Continuous
 62
     1
370
    25
100
AcDbSpline
210
0.0
220
0.0
230
1.0
 70
     8
 71
     3
 72
    10
 73
     6
 74
     0
 42
0.000000001
 43
0.00000001
 40
0.0
 40
0.0
 40
0.0
 40
0.0
 40
0.2521484816812818
 40
0.6260533349643164
 40
1.0
 40
1.0
 40
1.0
 40
1.0
 10
-27.54941291204518
 20
0.7821134674918592
 30
0.0
 10
-27.43547473928431
 20
0.7818555833654964
 30
0.0
 10
-27.15258042018687
 20
0.7812152891378029
 30
0.0
 10
-26.70068989291185
 20
0.6624698321184982
 30
0.0
 10
-26.36273626253521
 20
0.51290601919308
 30
0.0
 10
-26.19374999999454
 20
0.4381199317365495
 30
0.0
  0
LINE
  5
36A
330
1F
100
AcDbEntity
  8
외형선
  6
Continuous
370
    15
100
AcDbLine
 10
-26.19375000000003
 20
0.4381199317391785
 30
0.0
 11
-26.19375
 21
0.1830352531713383
 31
0.0
  0
SPLINE
  5
36B
330
1F
100
AcDbEntity
  8
외형선
  6
Continuous
370
    15
100
AcDbSpline
210
0.0
220
0.0
230
1.0
 70
    24
 71
     3
 72
    10
 73
     6
 74
     0
 42
0.000000001
 43
0.00000001
 40
0.0
 40
0.0
 40
0.0
 40
0.0
 40
0.0582492970202847
 40
0.5694400622428695
 40
0.9999999999999999
 40
0.9999999999999999
 40
0.9999999999999999
 40
0.9999999999999999
 10
-26.19375000000003
 20
0.4757958560721586
 30
0.0
 10
-26.19375000000003
 20
0.4803156112232879
 30
0.0
 10
-26.19375000000003
 20
0.5245003445375199
 30
0.0
 10
-26.19375000000003
 20
0.6299693545509849
 30
0.0
 10
-26.19375
 20
0.7276839482561906
 30
0.0
 10
-26.19375
 20
0.772358180248334
 30
0.0
  0
LINE
  5
36C
330
1F
100
AcDbEntity
  8
0
  6
Continuous
 62
     1
370
    25
100
AcDbLine
 10
-31.75000000000001
 20
-0.3365175123507794
 30
0.0
 11
-31.75000000000001
 21
-0.7937499999999976
 31
0.0
  0
LINE
  5
36D
330
1F
100
AcDbEntity
  8
외형선
  6
Continuous
370
    15
100
AcDbLine
 10
-25.19375000000003
 20
0.0000000000000052
 30
0.0
 11
-25.19375000000003
 21
-0.7937499999999905
 31
0.0
  0
LINE
  5
36E
330
1F
100
AcDbEntity
  8
외형선
  6
Continuous
370
    15
100
AcDbLine
 10
-25.19375000000003
 20
0.7937500000000081
 30
0.0
 11
-25.19375000000003
 21
0.0000000000000052
 31
0.0
  0
LINE
  5
36F
330
1F
100
AcDbEntity
  8
외형선
  6
Continuous
370
    15
100
AcDbLine
 10
-19.2691193429844
 20
0.0000000000000016
 30
0.0
 11
-19.2691193429844
 21
-2.381250000000003
 31
0.0
  0
LINE
  5
370
330
1F
100
AcDbEntity
  8
외형선
  6
Continuous
370
    15
100
AcDbLine
 10
-19.2691193429844
 20
2.38125000000001
 30
0.0
 11
-19.2691193429844
 21
0.0000000000000016
 31
0.0
  0
SPLINE
  5
371
330
1F
100
AcDbEntity
  8
외형선
  6
Continuous
370
    15
100
AcDbSpline
210
0.0
220
0.0
230
1.0
 70
    24
 71
     3
 72
    16
 73
    12
 74
     0
 42
0.000000001
 43
0.00000001
 40
0.0
 40
0.0
 40
0.0
 40
0.0
 40
0.0406303089501332
 40
0.1857633481443775
 40
0.3308963873388669
 40
0.4760294265332385
 40
0.6211624657276149
 40
0.7662955049219734
 40
0.8380799666778485
 40
0.9832130058685391
 40
1.0
 40
1.0
 40
1.0
 40
1.0
 10
-26.19375
 20
0.175184461181887
 30
0.0
 10
-26.19375
 20
0.1744499762728803
 30
0.0
 10
-26.19374999999997
 20
0.1710918827859212
 30
0.0
 10
-26.19375000000003
 20
0.1148754973983318
 30
0.0
 10
-26.19374999999997
 20
0.0081920612514014
 30
0.0
 10
-26.19375000000003
 20
-0.1358865697442601
 30
0.0
 10
-26.19374999999997
 20
-0.2965086783008904
 30
0.0
 10
-26.19374999999997
 20
-0.4302019347384861
 30
0.0
 10
-26.19374999999997
 20
-0.551311944323663
 30
0.0
 10
-26.19375000000014
 20
-0.6199231670807689
 30
0.0
 10
-26.19375000000003
 20
-0.6579420718370007
 30
0.0
 10
-26.19374999999997
 20
-0.6618836664496773
 30
0.0
  0
SPLINE
  5
372
330
1F
100
AcDbEntity
  8
외형선
  6
Continuous
370
    15
100
AcDbSpline
210
0.0
220
0.0
230
1.0
 70
     8
 71
     3
 72
    10
 73
     6
 74
     0
 42
0.000000001
 43
0.00000001
 40
0.0
 40
0.0
 40
0.0
 40
0.0
 40
0.5
 40
0.5
 40
1.0
 40
1.0
 40
1.0
 40
1.0
 10
-26.19374999999452
 20
0.1830352531682687
 30
0.0
 10
-26.11003097926415
 20
0.1361488787152839
 30
0.0
 10
-26.02537763848961
 20
0.0880705024737426
 30
0.0
 10
-25.85838361475655
 20
-0.0080920356594857
 30
0.0
 10
-25.77725395975583
 20
-0.0559381481771998
 30
0.0
 10
-25.69388531036098
 20
-0.1036439520384091
 30
0.0
  0
SPLINE
  5
373
330
1F
100
AcDbEntity
  8
외형선
  6
Continuous
370
    15
100
AcDbSpline
210
0.0
220
0.0
230
1.0
 70
     8
 71
     3
 72
    10
 73
     6
 74
     0
 42
0.000000001
 43
0.00000001
 40
0.0
 40
0.0
 40
0.0
 40
0.0
 40
0.5
 40
0.5
 40
1.0
 40
1.0
 40
1.0
 40
1.0
 10
-26.19374999999452
 20
-0.6618836664514182
 30
0.0
 10
-26.11003097926415
 20
-0.6884799474257318
 30
0.0
 10
-26.02537763848967
 20
-0.7114846603399149
 30
0.0
 10
-25.85838361475658
 20
-0.7491948731273742
 30
0.0
 10
-25.77725395975583
 20
-0.7638803633051002
 30
0.0
 10
-25.69388531036095
 20
-0.7744316405788308
 30
0.0
  0
LINE
  5
374
330
1F
100
AcDbEntity
  8
외형선
  6
Continuous
370
    15
100
AcDbLine
 10
-25.87353382284591
 20
-0.7817085068150665
 30
0.0
 11
-26.19374999999452
 21
-0.7723581802490448
 31
0.0
  0
LINE
  5
375
330
1F
100
AcDbEntity
  8
외형선
  6
Continuous
370
    15
100
AcDbLine
 10
-25.69388531036098
 20
-0.1036127753497046
 30
0.0
 11
-25.69388531036098
 21
-0.7744443483906683
 31
0.0
  0
SPLINE
  5
376
330
1F
100
AcDbEntity
  8
외형선
  6
Continuous
370
    15
100
AcDbSpline
210
0.0
220
0.0
230
1.0
 70
     8
 71
     3
 72
    10
 73
     6
 74
     0
 42
0.000000001
 43
0.00000001
 40
0.0
 40
0.0
 40
0.0
 40
0.0
 40
0.5
 40
0.5
 40
1.0
 40
1.0
 40
1.0
 40
1.0
 10
-26.19374999999452
 20
0.4381199317365353
 30
0.0
 10
-26.11003097926415
 20
0.3979399657270529
 30
0.0
 10
-26.02537763848967
 20
0.3551708486103972
 30
0.0
 10
-25.85838361475658
 20
0.2665779354734584
 30
0.0
 10
-25.77725395975583
 20
0.2210003905430627
 30
0.0
 10
-25.69388531036095
 20
0.174053717485071
 30
0.0
  0
LINE
  5
377
330
1F
100
AcDbEntity
  8
외형선
  6
Continuous
370
    15
100
AcDbLine
 10
-25.69388531036098
 20
0.786958356766318
 30
0.0
 11
-25.69388531036098
 21
0.1739971659129774
 31
0.0
  0
SPLINE
  5
378
330
1F
100
AcDbEntity
  8
외형선
  6
Continuous
370
    15
100
AcDbSpline
210
0.0
220
0.0
230
1.0
 70
     8
 71
     3
 72
    10
 73
     6
 74
     0
 42
0.000000001
 43
0.00000001
 40
0.0
 40
0.0
 40
0.0
 40
0.0
 40
0.5
 40
0.5
 40
1.0
 40
1.0
 40
1.0
 40
1.0
 10
-26.19374999999452
 20
0.7723581802490623
 30
0.0
 10
-26.11003097926415
 20
0.7834694232417564
 30
0.0
 10
-26.02537763848961
 20
0.7903166075666607
 30
0.0
 10
-25.85838361475655
 20
0.7951674493844275
 30
0.0
 10
-25.77725395975583
 20
0.7932372316286215
 30
0.0
 10
-25.69388531036098
 20
0.7869542513423954
 30
0.0
  0
SPLINE
  5
379
330
1F
100
AcDbEntity
  8
외형선
  6
Continuous
370
    15
100
AcDbSpline
210
0.0
220
0.0
230
1.0
 70
    24
 71
     3
 72
    10
 73
     6
 74
     0
 42
0.000000001
 43
0.00000001
 40
0.0
 40
0.0
 40
0.0
 40
0.0
 40
0.4609732333889048
 40
0.9739554856064168
 40
1.0
 40
1.0
 40
1.0
 40
1.0
 10
-26.19375000000003
 20
0.7723581802483305
 30
0.0
 10
-26.19375
 20
0.7247441128031741
 30
0.0
 10
-26.19374999999997
 20
0.6241439503179879
 30
0.0
 10
-26.19375000000009
 20
0.5190063101307504
 30
0.0
 10
-26.19375
 20
0.4777779157921723
 30
0.0
 10
-26.19375000000003
 20
0.475785856072159
 30
0.0
  0
ENDSEC
  0
SECTION
  2
OBJECTS
  0
DICTIONARY
  5
C
330
0
100
AcDbDictionary
281
     1
  3
ACAD_GROUP
350
D
  3
ACAD_IMAGE_VARS
350
157
  3
ACAD_LAYOUT
350
1A
  3
ACAD_MLINESTYLE
350
17
  3
ACAD_PLOTSETTINGS
350
19
  3
ACAD_PLOTSTYLENAME
350
E
  3
ACAD_SCALELIST
350
47
  3
APPDATA
350
155
  3
DWGPROPS
350
3CD
  0
DICTIONARY
  5
1F5
330
2
100
AcDbDictionary
280
     1
281
     1
  3
ACAD_LAYERSTATES
360
1F6
  0
DICTIONARY
  5
D
102
{ACAD_REACTORS
330
C
102
}
330
C
100
AcDbDictionary
281
     1
  0
RASTERVARIABLES
  5
157
102
{ACAD_REACTORS
330
C
102
}
330
C
100
AcDbRasterVariables
 90
        0
 70
     1
 71
     1
 72
     1
  0
DICTIONARY
  5
1A
102
{ACAD_REACTORS
330
C
102
}
330
C
100
AcDbDictionary
281
     1
  3
Layout1
350
1E
  3
Layout2
350
26
  3
Model
350
22
  0
DICTIONARY
  5
17
102
{ACAD_REACTORS
330
C
102
}
330
C
100
AcDbDictionary
281
     1
  3
Standard
350
18
  0
DICTIONARY
  5
19
102
{ACAD_REACTORS
330
C
102
}
330
C
100
AcDbDictionary
281
     1
  0
ACDBDICTIONARYWDFLT
  5
E
102
{ACAD_REACTORS
330
C
102
}
330
C
100
AcDbDictionary
281
     1
  3
Normal
350
F
100
AcDbDictionaryWithDefault
340
F
  0
DICTIONARY
  5
47
102
{ACAD_REACTORS
330
C
102
}
330
C
100
AcDbDictionary
281
     1
  3
A0
350
48
  3
A1
350
49
  3
A2
350
4A
  3
A3
350
4B
  3
A4
350
4C
  3
A5
350
4D
  3
A6
350
4E
  3
A7
350
4F
  3
A8
350
50
  3
A9
350
51
  3
B0
350
52
  3
B1
350
53
  3
B2
350
54
  3
B3
350
55
  3
B4
350
56
  3
B5
350
57
  3
B6
350
58
  3
B7
350
59
  3
B8
350
5A
  3
B9
350
5B
  3
C0
350
5C
  3
C1
350
5D
  3
C2
350
5E
  3
C3
350
5F
  3
C4
350
60
  3
C5
350
61
  3
C6
350
62
  3
C7
350
63
  3
C8
350
64
  3
C9
350
65
  3
D0
350
66
  3
D1
350
67
  3
D2
350
68
  0
DICTIONARY
  5
155
102
{ACAD_REACTORS
330
C
102
}
330
C
100
AcDbDictionary
281
     1
  0
XRECORD
  5
3CD
102
{ACAD_REACTORS
330
C
102
}
330
C
100
AcDbXrecord
280
     1
  1
DWGPROPS COOKIE
  2

  3

  4

  6

  7

  8
12016016
  9

300
=
301
=
302
=
303
=
304
=
305
=
306
=
307
=
308
=
309
=
 40
0.0
 41
2458313.104919734
 42
2458320.376397303
  1

 90
        0
  0
DICTIONARY
  5
1F6
102
{ACAD_REACTORS
330
1F5
102
}
330
1F5
100
AcDbDictionary
281
     1
  0
LAYOUT
  5
1E
102
{ACAD_REACTORS
330
1A
102
}
330
1A
100
AcDbPlotSettings
  1

  2
none_device
  4

  6

 40
0.0
 41
0.0
 42
0.0
 43
0.0
 44
0.0
 45
0.0
 46
0.0
 47
0.0
 48
0.0
 49
0.0
140
0.0
141
0.0
142
1.0
143
1.0
 70
   688
 72
     1
 73
     0
 74
     5
  7

 75
    16
147
1.0
148
0.0
149
0.0
100
AcDbLayout
  1
Layout1
 70
     1
 71
     1
 10
0.0
 20
0.0
 11
420.0
 21
297.0
 12
0.0
 22
0.0
 32
0.0
 14
1.000000000000000E+20
 24
1.000000000000000E+20
 34
1.000000000000000E+20
 15
-1.000000000000000E+20
 25
-1.000000000000000E+20
 35
-1.000000000000000E+20
146
0.0
 13
0.0
 23
0.0
 33
0.0
 16
1.0
 26
0.0
 36
0.0
 17
0.0
 27
1.0
 37
0.0
 76
     0
330
1B
  0
LAYOUT
  5
26
102
{ACAD_REACTORS
330
1A
102
}
330
1A
100
AcDbPlotSettings
  1

  2
none_device
  4

  6

 40
0.0
 41
0.0
 42
0.0
 43
0.0
 44
0.0
 45
0.0
 46
0.0
 47
0.0
 48
0.0
 49
0.0
140
0.0
141
0.0
142
1.0
143
1.0
 70
   688
 72
     1
 73
     0
 74
     5
  7

 75
    16
147
1.0
148
0.0
149
0.0
100
AcDbLayout
  1
Layout2
 70
     1
 71
     2
 10
0.0
 20
0.0
 11
0.0
 21
0.0
 12
0.0
 22
0.0
 32
0.0
 14
0.0
 24
0.0
 34
0.0
 15
0.0
 25
0.0
 35
0.0
146
0.0
 13
0.0
 23
0.0
 33
0.0
 16
1.0
 26
0.0
 36
0.0
 17
0.0
 27
1.0
 37
0.0
 76
     0
330
23
  0
LAYOUT
  5
22
102
{ACAD_REACTORS
330
1A
102
}
330
1A
100
AcDbPlotSettings
  1

  2
none_device
  4
ANSI_A_(11.00_x_8.50_Inches)
  6

 40
6.35
 41
19.05
 42
6.35000508
 43
19.05000254
 44
279.4
 45
215.9
 46
116.0200047679344
 47
80.81387414645758
 48
0.0
 49
0.0
140
0.0
141
0.0
142
0.0752558462788414
143
1.0
 70
  1696
 72
     0
 73
     0
 74
     0
  7

 75
     0
147
0.0235690232323232
148
0.0
149
0.0
100
AcDbLayout
  1
Model
 70
     1
 71
     0
 10
0.0
 20
0.0
 11
420.0
 21
297.0
 12
0.0
 22
0.0
 32
0.0
 14
-49.12500000000004
 24
-49.97180738881174
 34
0.0
 15
81.41936447236121
 25
34.96122323803248
 35
0.0
146
0.0
 13
0.0
 23
0.0
 33
0.0
 16
1.0
 26
0.0
 36
0.0
 17
0.0
 27
1.0
 37
0.0
 76
     0
330
1F
331
29
  0
MLINESTYLE
  5
18
102
{ACAD_REACTORS
330
17
102
}
330
17
100
AcDbMlineStyle
  2
Standard
 70
     0
  3

 62
   256
 51
90.0
 52
90.0
 71
     2
 49
0.5
 62
   256
  6
BYLAYER
 49
-0.5
 62
   256
  6
BYLAYER
  0
ACDBPLACEHOLDER
  5
F
102
{ACAD_REACTORS
330
E
102
}
330
E
  0
SCALE
  5
48
102
{ACAD_REACTORS
330
47
102
}
330
47
100
AcDbScale
 70
     0
300
1:1
140
1.0
141
1.0
290
     1
  0
SCALE
  5
49
102
{ACAD_REACTORS
330
47
102
}
330
47
100
AcDbScale
 70
     0
300
1:2
140
1.0
141
2.0
290
     0
  0
SCALE
  5
4A
102
{ACAD_REACTORS
330
47
102
}
330
47
100
AcDbScale
 70
     0
300
1:4
140
1.0
141
4.0
290
     0
  0
SCALE
  5
4B
102
{ACAD_REACTORS
330
47
102
}
330
47
100
AcDbScale
 70
     0
300
1:5
140
1.0
141
5.0
290
     0
  0
SCALE
  5
4C
102
{ACAD_REACTORS
330
47
102
}
330
47
100
AcDbScale
 70
     0
300
1:8
140
1.0
141
8.0
290
     0
  0
SCALE
  5
4D
102
{ACAD_REACTORS
330
47
102
}
330
47
100
AcDbScale
 70
     0
300
1:10
140
1.0
141
10.0
290
     0
  0
SCALE
  5
4E
102
{ACAD_REACTORS
330
47
102
}
330
47
100
AcDbScale
 70
     0
300
1:16
140
1.0
141
16.0
290
     0
  0
SCALE
  5
4F
102
{ACAD_REACTORS
330
47
102
}
330
47
100
AcDbScale
 70
     0
300
1:20
140
1.0
141
20.0
290
     0
  0
SCALE
  5
50
102
{ACAD_REACTORS
330
47
102
}
330
47
100
AcDbScale
 70
     0
300
1:30
140
1.0
141
30.0
290
     0
  0
SCALE
  5
51
102
{ACAD_REACTORS
330
47
102
}
330
47
100
AcDbScale
 70
     0
300
1:40
140
1.0
141
40.0
290
     0
  0
SCALE
  5
52
102
{ACAD_REACTORS
330
47
102
}
330
47
100
AcDbScale
 70
     0
300
1:50
140
1.0
141
50.0
290
     0
  0
SCALE
  5
53
102
{ACAD_REACTORS
330
47
102
}
330
47
100
AcDbScale
 70
     0
300
1:100
140
1.0
141
100.0
290
     0
  0
SCALE
  5
54
102
{ACAD_REACTORS
330
47
102
}
330
47
100
AcDbScale
 70
     0
300
2:1
140
2.0
141
1.0
290
     0
  0
SCALE
  5
55
102
{ACAD_REACTORS
330
47
102
}
330
47
100
AcDbScale
 70
     0
300
4:1
140
4.0
141
1.0
290
     0
  0
SCALE
  5
56
102
{ACAD_REACTORS
330
47
102
}
330
47
100
AcDbScale
 70
     0
300
8:1
140
8.0
141
1.0
290
     0
  0
SCALE
  5
57
102
{ACAD_REACTORS
330
47
102
}
330
47
100
AcDbScale
 70
     0
300
10:1
140
10.0
141
1.0
290
     0
  0
SCALE
  5
58
102
{ACAD_REACTORS
330
47
102
}
330
47
100
AcDbScale
 70
     0
300
100:1
140
100.0
141
1.0
290
     0
  0
SCALE
  5
59
102
{ACAD_REACTORS
330
47
102
}
330
47
100
AcDbScale
 70
     0
300
1/128" = 1'-0"
140
0.0078125
141
12.0
290
     0
  0
SCALE
  5
5A
102
{ACAD_REACTORS
330
47
102
}
330
47
100
AcDbScale
 70
     0
300
1/64" = 1'-0"
140
0.015625
141
12.0
290
     0
  0
SCALE
  5
5B
102
{ACAD_REACTORS
330
47
102
}
330
47
100
AcDbScale
 70
     0
300
1/32" = 1'-0"
140
0.03125
141
12.0
290
     0
  0
SCALE
  5
5C
102
{ACAD_REACTORS
330
47
102
}
330
47
100
AcDbScale
 70
     0
300
1/16" = 1'-0"
140
0.0625
141
12.0
290
     0
  0
SCALE
  5
5D
102
{ACAD_REACTORS
330
47
102
}
330
47
100
AcDbScale
 70
     0
300
3/32" = 1'-0"
140
0.09375
141
12.0
290
     0
  0
SCALE
  5
5E
102
{ACAD_REACTORS
330
47
102
}
330
47
100
AcDbScale
 70
     0
300
1/8" = 1'-0"
140
0.125
141
12.0
290
     0
  0
SCALE
  5
5F
102
{ACAD_REACTORS
330
47
102
}
330
47
100
AcDbScale
 70
     0
300
3/16" = 1'-0"
140
0.1875
141
12.0
290
     0
  0
SCALE
  5
60
102
{ACAD_REACTORS
330
47
102
}
330
47
100
AcDbScale
 70
     0
300
1/4" = 1'-0"
140
0.25
141
12.0
290
     0
  0
SCALE
  5
61
102
{ACAD_REACTORS
330
47
102
}
330
47
100
AcDbScale
 70
     0
300
3/8" = 1'-0"
140
0.375
141
12.0
290
     0
  0
SCALE
  5
62
102
{ACAD_REACTORS
330
47
102
}
330
47
100
AcDbScale
 70
     0
300
1/2" = 1'-0"
140
0.5
141
12.0
290
     0
  0
SCALE
  5
63
102
{ACAD_REACTORS
330
47
102
}
330
47
100
AcDbScale
 70
     0
300
3/4" = 1'-0"
140
0.75
141
12.0
290
     0
  0
SCALE
  5
64
102
{ACAD_REACTORS
330
47
102
}
330
47
100
AcDbScale
 70
     0
300
1" = 1'-0"
140
1.0
141
12.0
290
     0
  0
SCALE
  5
65
102
{ACAD_REACTORS
330
47
102
}
330
47
100
AcDbScale
 70
     0
300
1-1/2" = 1'-0"
140
1.5
141
12.0
290
     0
  0
SCALE
  5
66
102
{ACAD_REACTORS
330
47
102
}
330
47
100
AcDbScale
 70
     0
300
3" = 1'-0"
140
3.0
141
12.0
290
     0
  0
SCALE
  5
67
102
{ACAD_REACTORS
330
47
102
}
330
47
100
AcDbScale
 70
     0
300
6" = 1'-0"
140
6.0
141
12.0
290
     0
  0
SCALE
  5
68
102
{ACAD_REACTORS
330
47
102
}
330
47
100
AcDbScale
 70
     0
300
1'-0" = 1'-0"
140
12.0
141
12.0
290
     0
  0
ENDSEC
  0
EOF
