  0
SECTION
  2
HEADER
  9
$ACADVER
  1
AC1015
  9
$ACADMAINTVER
 70
     6
  9
$DWGCODEPAGE
  3
ANSI_949
  9
$INSBASE
 10
0.0
 20
0.0
 30
0.0
  9
$EXTMIN
 10
-55.08442116787315
 20
-49.97073246008785
 30
0.0
  9
$EXTMAX
 10
74.547203865082
 20
38.53604254884249
 30
0.0
  9
$LIMMIN
 10
0.0
 20
0.0
  9
$LIMMAX
 10
420.0
 20
297.0
  9
$ORTHOMODE
 70
     1
  9
$REGENMODE
 70
     1
  9
$FILLMODE
 70
     1
  9
$QTEXTMODE
 70
     0
  9
$MIRRTEXT
 70
     1
  9
$LTSCALE
 40
1.0
  9
$ATTMODE
 70
     1
  9
$TEXTSIZE
 40
3.5
  9
$TRACEWID
 40
1.0
  9
$TEXTSTYLE
  7
Standard
  9
$CLAYER
  8
0
  9
$CELTYPE
  6
ByLayer
  9
$CECOLOR
 62
   256
  9
$CELTSCALE
 40
1.0
  9
$DISPSILH
 70
     0
  9
$DIMSCALE
 40
1.0
  9
$DIMASZ
 40
3.302
  9
$DIMEXO
 40
1.0
  9
$DIMDLI
 40
3.75
  9
$DIMRND
 40
0.0
  9
$DIMDLE
 40
0.0
  9
$DIMEXE
 40
1.0
  9
$DIMTP
 40
0.0
  9
$DIMTM
 40
0.0
  9
$DIMTXT
 40
3.5
  9
$DIMCEN
 40
2.5
  9
$DIMTSZ
 40
0.0
  9
$DIMTOL
 70
     0
  9
$DIMLIM
 70
     0
  9
$DIMTIH
 70
     1
  9
$DIMTOH
 70
     1
  9
$DIMSE1
 70
     0
  9
$DIMSE2
 70
     0
  9
$DIMTAD
 70
     1
  9
$DIMZIN
 70
     0
  9
$DIMBLK
  1

  9
$DIMASO
 70
     1
  9
$DIMSHO
 70
     1
  9
$DIMPOST
  1

  9
$DIMAPOST
  1

  9
$DIMALT
 70
     0
  9
$DIMALTD
 70
     3
  9
$DIMALTF
 40
0.0393700787401575
  9
$DIMLFAC
 40
1.0
  9
$DIMTOFL
 70
     1
  9
$DIMTVP
 40
0.0
  9
$DIMTIX
 70
     0
  9
$DIMSOXD
 70
     0
  9
$DIMSAH
 70
     0
  9
$DIMBLK1
  1

  9
$DIMBLK2
  1

  9
$DIMSTYLE
  2
ISO-25
  9
$DIMCLRD
 70
     0
  9
$DIMCLRE
 70
     0
  9
$DIMCLRT
 70
     0
  9
$DIMTFAC
 40
1.0
  9
$DIMGAP
 40
1.524
  9
$DIMJUST
 70
     0
  9
$DIMSD1
 70
     0
  9
$DIMSD2
 70
     0
  9
$DIMTOLJ
 70
     0
  9
$DIMTZIN
 70
     0
  9
$DIMALTZ
 70
     0
  9
$DIMALTTZ
 70
     0
  9
$DIMUPT
 70
     0
  9
$DIMDEC
 70
     2
  9
$DIMTDEC
 70
     2
  9
$DIMALTU
 70
     2
  9
$DIMALTTD
 70
     3
  9
$DIMTXSTY
  7
Standard
  9
$DIMAUNIT
 70
     0
  9
$DIMADEC
 70
     2
  9
$DIMALTRND
 40
0.0
  9
$DIMAZIN
 70
     0
  9
$DIMDSEP
 70
    44
  9
$DIMATFIT
 70
     3
  9
$DIMFRAC
 70
     0
  9
$DIMLDRBLK
  1

  9
$DIMLUNIT
 70
     2
  9
$DIMLWD
 70
    -2
  9
$DIMLWE
 70
    -2
  9
$DIMTMOVE
 70
     0
  9
$LUNITS
 70
     2
  9
$LUPREC
 70
     2
  9
$SKETCHINC
 40
1.0
  9
$FILLETRAD
 40
10.0
  9
$AUNITS
 70
     0
  9
$AUPREC
 70
     2
  9
$MENU
  1
.
  9
$ELEVATION
 40
0.0
  9
$PELEVATION
 40
0.0
  9
$THICKNESS
 40
0.0
  9
$LIMCHECK
 70
     0
  9
$CHAMFERA
 40
0.0
  9
$CHAMFERB
 40
0.0
  9
$CHAMFERC
 40
0.0
  9
$CHAMFERD
 40
0.0
  9
$SKPOLY
 70
     0
  9
$TDCREATE
 40
2458313.389110695
  9
$TDUCREATE
 40
2458313.014110695
  9
$TDUPDATE
 40
2458317.688933646
  9
$TDUUPDATE
 40
2458317.313933646
  9
$TDINDWG
 40
0.0035735995
  9
$TDUSRTIMER
 40
0.0004558102
  9
$USRTIMER
 70
     1
  9
$ANGBASE
 50
0.0
  9
$ANGDIR
 70
     0
  9
$PDMODE
 70
     0
  9
$PDSIZE
 40
-1.0
  9
$PLINEWID
 40
0.0
  9
$SPLFRAME
 70
     0
  9
$SPLINETYPE
 70
     6
  9
$SPLINESEGS
 70
     8
  9
$HANDSEED
  5
266
  9
$SURFTAB1
 70
     6
  9
$SURFTAB2
 70
     6
  9
$SURFTYPE
 70
     6
  9
$SURFU
 70
     6
  9
$SURFV
 70
     6
  9
$UCSBASE
  2

  9
$UCSNAME
  2

  9
$UCSORG
 10
0.0
 20
0.0
 30
0.0
  9
$UCSXDIR
 10
1.0
 20
0.0
 30
0.0
  9
$UCSYDIR
 10
0.0
 20
1.0
 30
0.0
  9
$UCSORTHOREF
  2

  9
$UCSORTHOVIEW
 70
     0
  9
$UCSORGTOP
 10
0.0
 20
0.0
 30
0.0
  9
$UCSORGBOTTOM
 10
0.0
 20
0.0
 30
0.0
  9
$UCSORGLEFT
 10
0.0
 20
0.0
 30
0.0
  9
$UCSORGRIGHT
 10
0.0
 20
0.0
 30
0.0
  9
$UCSORGFRONT
 10
0.0
 20
0.0
 30
0.0
  9
$UCSORGBACK
 10
0.0
 20
0.0
 30
0.0
  9
$PUCSBASE
  2

  9
$PUCSNAME
  2

  9
$PUCSORG
 10
0.0
 20
0.0
 30
0.0
  9
$PUCSXDIR
 10
1.0
 20
0.0
 30
0.0
  9
$PUCSYDIR
 10
0.0
 20
1.0
 30
0.0
  9
$PUCSORTHOREF
  2

  9
$PUCSORTHOVIEW
 70
     0
  9
$PUCSORGTOP
 10
0.0
 20
0.0
 30
0.0
  9
$PUCSORGBOTTOM
 10
0.0
 20
0.0
 30
0.0
  9
$PUCSORGLEFT
 10
0.0
 20
0.0
 30
0.0
  9
$PUCSORGRIGHT
 10
0.0
 20
0.0
 30
0.0
  9
$PUCSORGFRONT
 10
0.0
 20
0.0
 30
0.0
  9
$PUCSORGBACK
 10
0.0
 20
0.0
 30
0.0
  9
$USERI1
 70
     0
  9
$USERI2
 70
     0
  9
$USERI3
 70
     0
  9
$USERI4
 70
     0
  9
$USERI5
 70
     0
  9
$USERR1
 40
0.0
  9
$USERR2
 40
0.0
  9
$USERR3
 40
0.0
  9
$USERR4
 40
0.0
  9
$USERR5
 40
0.0
  9
$WORLDVIEW
 70
     1
  9
$SHADEDGE
 70
     3
  9
$SHADEDIF
 70
    70
  9
$TILEMODE
 70
     1
  9
$MAXACTVP
 70
    64
  9
$PINSBASE
 10
0.0
 20
0.0
 30
0.0
  9
$PLIMCHECK
 70
     0
  9
$PEXTMIN
 10
1.000000000000000E+20
 20
1.000000000000000E+20
 30
1.000000000000000E+20
  9
$PEXTMAX
 10
-1.000000000000000E+20
 20
-1.000000000000000E+20
 30
-1.000000000000000E+20
  9
$PLIMMIN
 10
0.0
 20
0.0
  9
$PLIMMAX
 10
0.0
 20
0.0
  9
$UNITMODE
 70
     0
  9
$VISRETAIN
 70
     1
  9
$PLINEGEN
 70
     0
  9
$PSLTSCALE
 70
     1
  9
$TREEDEPTH
 70
  3020
  9
$CMLSTYLE
  2
Standard
  9
$CMLJUST
 70
     0
  9
$CMLSCALE
 40
20.0
  9
$PROXYGRAPHICS
 70
     1
  9
$MEASUREMENT
 70
     1
  9
$CELWEIGHT
370
    -1
  9
$ENDCAPS
280
     0
  9
$JOINSTYLE
280
     0
  9
$LWDISPLAY
290
     1
  9
$INSUNITS
 70
     4
  9
$HYPERLINKBASE
  1

  9
$STYLESHEET
  1

  9
$XEDIT
290
     1
  9
$CEPSNTYPE
380
     0
  9
$PSTYLEMODE
290
     1
  9
$FINGERPRINTGUID
  2
{652FF43D-EE5C-432C-94F7-D1D92CFCD5BB}
  9
$VERSIONGUID
  2
{FAEB1C32-E019-11D5-929B-00C0DF256EC4}
  9
$EXTNAMES
290
     1
  9
$PSVPSCALE
 40
0.0
  9
$OLESTARTUP
290
     0
  0
ENDSEC
  0
SECTION
  2
CLASSES
  0
CLASS
  1
ACDBDICTIONARYWDFLT
  2
AcDbDictionaryWithDefault
  3
ObjectDBX Classes
 90
        0
280
     0
281
     0
  0
CLASS
  1
VISUALSTYLE
  2
AcDbVisualStyle
  3
ObjectDBX Classes
 90
     4095
280
     0
281
     0
  0
CLASS
  1
MATERIAL
  2
AcDbMaterial
  3
ObjectDBX Classes
 90
     1153
280
     0
281
     0
  0
CLASS
  1
SCALE
  2
AcDbScale
  3
ObjectDBX Classes
 90
     1153
280
     0
281
     0
  0
CLASS
  1
SUN
  2
AcDbSun
  3
SCENEOE
 90
     1153
280
     0
281
     0
  0
CLASS
  1
ACDBPLACEHOLDER
  2
AcDbPlaceHolder
  3
ObjectDBX Classes
 90
        0
280
     0
281
     0
  0
CLASS
  1
LAYOUT
  2
AcDbLayout
  3
ObjectDBX Classes
 90
        0
280
     0
281
     0
  0
CLASS
  1
TABLESTYLE
  2
AcDbTableStyle
  3
ObjectDBX Classes
 90
     4095
280
     0
281
     0
  0
CLASS
  1
MLEADERSTYLE
  2
AcDbMLeaderStyle
  3
ACDB_MLEADERSTYLE_CLASS
 90
     4095
280
     0
281
     0
  0
CLASS
  1
DICTIONARYVAR
  2
AcDbDictionaryVar
  3
ObjectDBX Classes
 90
        0
280
     0
281
     0
  0
ENDSEC
  0
SECTION
  2
TABLES
  0
TABLE
  2
VPORT
  5
8
330
0
100
AcDbSymbolTable
 70
     1
  0
VPORT
  5
29
330
8
100
AcDbSymbolTableRecord
100
AcDbViewportTableRecord
  2
*Active
 70
     0
 10
0.0
 20
0.0
 11
1.0
 21
1.0
 12
9.731391348604433
 22
-5.717344955622686
 13
0.0
 23
0.0
 14
10.0
 24
10.0
 15
10.0
 25
10.0
 16
0.0
 26
0.0
 36
1.0
 17
0.0
 27
0.0
 37
0.0
 40
90.27691050910894
 41
1.782762691853601
 42
50.0
 43
0.0
 44
0.0
 50
0.0
 51
0.0
 71
    16
 72
  2000
 73
     1
 74
     3
 75
     0
 76
     0
 77
     0
 78
     0
281
     0
 65
     1
110
0.0
120
0.0
130
0.0
111
1.0
121
0.0
131
0.0
112
0.0
122
1.0
132
0.0
 79
     0
146
0.0
  0
ENDTAB
  0
TABLE
  2
LTYPE
  5
5
330
0
100
AcDbSymbolTable
 70
     6
  0
LTYPE
  5
14
330
5
100
AcDbSymbolTableRecord
100
AcDbLinetypeTableRecord
  2
ByBlock
 70
     0
  3

 72
    65
 73
     0
 40
0.0
  0
LTYPE
  5
15
330
5
100
AcDbSymbolTableRecord
100
AcDbLinetypeTableRecord
  2
ByLayer
 70
     0
  3

 72
    65
 73
     0
 40
0.0
  0
LTYPE
  5
16
330
5
100
AcDbSymbolTableRecord
100
AcDbLinetypeTableRecord
  2
Continuous
 70
     0
  3
Solid line
 72
    65
 73
     0
 40
0.0
  0
LTYPE
  5
6A
330
5
100
AcDbSymbolTableRecord
100
AcDbLinetypeTableRecord
  2
HIDDEN
 70
     0
  3
Hidden __ __ __ __ __ __ __ __ __ __ __ __ __ __
 72
    65
 73
     2
 40
1.905
 49
1.27
 74
     0
 49
-0.635
 74
     0
  0
LTYPE
  5
6B
330
5
100
AcDbSymbolTableRecord
100
AcDbLinetypeTableRecord
  2
PHANTOM
 70
     0
  3
Phantom ______  __  __  ______  __  __  ______
 72
    65
 73
     6
 40
12.7
 49
6.35
 74
     0
 49
-1.27
 74
     0
 49
1.27
 74
     0
 49
-1.27
 74
     0
 49
1.27
 74
     0
 49
-1.27
 74
     0
  0
LTYPE
  5
6C
330
5
100
AcDbSymbolTableRecord
100
AcDbLinetypeTableRecord
  2
CENTER
 70
     0
  3
Center ____ _ ____ _ ____ _ ____ _ ____ _ ____
 72
    65
 73
     4
 40
10.16
 49
6.35
 74
     0
 49
-1.27
 74
     0
 49
1.27
 74
     0
 49
-1.27
 74
     0
  0
LTYPE
  5
6D
330
5
100
AcDbSymbolTableRecord
100
AcDbLinetypeTableRecord
  2
CENTERX2
 70
     0
  3
Center (2x) ________  __  ________  __  _____
 72
    65
 73
     4
 40
20.32
 49
12.7
 74
     0
 49
-2.54
 74
     0
 49
2.54
 74
     0
 49
-2.54
 74
     0
  0
LTYPE
  5
6E
330
5
100
AcDbSymbolTableRecord
100
AcDbLinetypeTableRecord
  2
DOT2
 70
     0
  3
Dot (.5x) ........................................
 72
    65
 73
     2
 40
0.635
 49
0.0
 74
     0
 49
-0.635
 74
     0
  0
ENDTAB
  0
TABLE
  2
LAYER
  5
2
102
{ACAD_XDICTIONARY
360
18D
102
}
330
0
100
AcDbSymbolTable
 70
    18
  0
LAYER
  5
10
330
2
100
AcDbSymbolTableRecord
100
AcDbLayerTableRecord
  2
0
 70
     0
 62
     7
  6
Continuous
370
    -3
390
F
  0
LAYER
  5
6F
330
2
100
AcDbSymbolTableRecord
100
AcDbLayerTableRecord
  2
FORMAT
 70
     0
 62
     2
  6
Continuous
370
    -3
390
F
  0
LAYER
  5
70
330
2
100
AcDbSymbolTableRecord
100
AcDbLayerTableRecord
  2
외형선
 70
     0
 62
     4
  6
Continuous
370
    30
390
F
  0
LAYER
  5
71
330
2
100
AcDbSymbolTableRecord
100
AcDbLayerTableRecord
  2
숨은선
 70
     0
 62
     2
  6
HIDDEN
370
    15
390
F
  0
LAYER
  5
72
330
2
100
AcDbSymbolTableRecord
100
AcDbLayerTableRecord
  2
중심선
 70
     0
 62
     1
  6
CENTERX2
370
    -3
390
F
  0
LAYER
  5
73
330
2
100
AcDbSymbolTableRecord
100
AcDbLayerTableRecord
  2
파단선
 70
     0
 62
     4
  6
Continuous
370
    -3
390
F
  0
LAYER
  5
74
330
2
100
AcDbSymbolTableRecord
100
AcDbLayerTableRecord
  2
해칭선
 70
     0
 62
   100
  6
Continuous
370
    -3
390
F
  0
LAYER
  5
75
330
2
100
AcDbSymbolTableRecord
100
AcDbLayerTableRecord
  2
가는실선
 70
     0
 62
     4
  6
Continuous
370
    -3
390
F
  0
LAYER
  5
76
330
2
100
AcDbSymbolTableRecord
100
AcDbLayerTableRecord
  2
치수_보조선
 70
     0
 62
     4
  6
Continuous
370
    -3
390
F
  0
LAYER
  5
77
330
2
100
AcDbSymbolTableRecord
100
AcDbLayerTableRecord
  2
치수문자_일반주서
 70
     0
 62
     7
  6
Continuous
370
    15
390
F
  0
LAYER
  5
78
330
2
100
AcDbSymbolTableRecord
100
AcDbLayerTableRecord
  2
개별주서
 70
     0
 62
   100
  6
Continuous
370
    30
390
F
  0
LAYER
  5
79
330
2
100
AcDbSymbolTableRecord
100
AcDbLayerTableRecord
  2
중간선
 70
     0
 62
     2
  6
Continuous
370
    15
390
F
  0
LAYER
  5
7A
330
2
100
AcDbSymbolTableRecord
100
AcDbLayerTableRecord
  2
윤곽선
 70
     0
 62
     3
  6
Continuous
370
    40
390
F
  0
LAYER
  5
7B
330
2
100
AcDbSymbolTableRecord
100
AcDbLayerTableRecord
  2
중심마크
 70
     0
 62
   100
  6
Continuous
370
    30
390
F
  0
LAYER
  5
7C
330
2
100
AcDbSymbolTableRecord
100
AcDbLayerTableRecord
  2
가상선
 70
     0
 62
     4
  6
PHANTOM
370
    -3
390
F
  0
LAYER
  5
7D
330
2
100
AcDbSymbolTableRecord
100
AcDbLayerTableRecord
  2
특수지정선
 70
     0
 62
     5
  6
CENTERX2
370
    60
390
F
  0
LAYER
  5
7E
330
2
100
AcDbSymbolTableRecord
100
AcDbLayerTableRecord
  2
참조1
 70
     0
 62
    -4
  6
Continuous
370
    -3
390
F
  0
LAYER
  5
156
330
2
100
AcDbSymbolTableRecord
100
AcDbLayerTableRecord
  2
Defpoints
 70
     0
 62
     7
  6
Continuous
290
     0
370
    -3
390
F
  0
ENDTAB
  0
TABLE
  2
STYLE
  5
3
330
0
100
AcDbSymbolTable
 70
     2
  0
STYLE
  5
11
330
3
100
AcDbSymbolTableRecord
100
AcDbTextStyleTableRecord
  2
Standard
 70
     0
 40
0.0
 41
1.0
 50
0.0
 71
     0
 42
3.5
  3
txt
  4

  0
STYLE
  5
94
330
3
100
AcDbSymbolTableRecord
100
AcDbTextStyleTableRecord
  2
SLDTEXTSTYLE0
 70
     0
 40
0.0
 41
0.75
 50
0.0
 71
     0
 42
3.5
  3
TXT
  4

  0
ENDTAB
  0
TABLE
  2
VIEW
  5
6
330
0
100
AcDbSymbolTable
 70
     0
  0
ENDTAB
  0
TABLE
  2
UCS
  5
7
330
0
100
AcDbSymbolTable
 70
     0
  0
ENDTAB
  0
TABLE
  2
APPID
  5
9
330
0
100
AcDbSymbolTable
 70
     2
  0
APPID
  5
12
330
9
100
AcDbSymbolTableRecord
100
AcDbRegAppTableRecord
  2
ACAD
 70
     0
  0
APPID
  5
15D
330
9
100
AcDbSymbolTableRecord
100
AcDbRegAppTableRecord
  2
PE_URL
 70
     0
  0
ENDTAB
  0
TABLE
  2
DIMSTYLE
  5
A
330
0
100
AcDbSymbolTable
 70
     3
100
AcDbDimStyleTable
  0
DIMSTYLE
105
27
330
A
100
AcDbSymbolTableRecord
100
AcDbDimStyleTableRecord
  2
ISO-25
 70
     0
 41
2.5
 42
0.625
 43
3.75
 44
1.25
 73
     0
 74
     0
 77
     1
 78
     8
140
2.5
141
2.5
143
0.03937007874016
147
0.625
171
     3
172
     1
178
     0
271
     2
272
     2
274
     3
278
    44
283
     0
284
     8
340
11
  0
DIMSTYLE
105
D4
102
{ACAD_REACTORS
330
D3
330
E8
330
FC
330
111
102
}
330
A
100
AcDbSymbolTableRecord
100
AcDbDimStyleTableRecord
  2
SLDDIMSTYLE0
 70
     0
 41
3.302
 44
0.0
 45
0.000000001
 73
     0
 74
     0
 77
     1
 78
    12
 79
     3
140
3.5
143
0.0393700787401575
147
0.875
148
0.000000001
170
     1
172
     1
173
     1
178
     0
271
     2
272
     2
276
     2
284
    12
289
     0
340
94
  0
DIMSTYLE
105
112
330
A
100
AcDbSymbolTableRecord
100
AcDbDimStyleTableRecord
  2
SLDDIMSTYLE1
 70
     0
 41
3.302
 44
0.0
 45
0.000000001
 73
     0
 74
     0
 77
     1
 78
     4
 79
     1
140
3.5
143
0.0393700787401575
147
0.875
148
0.000000001
170
     1
173
     1
178
     0
271
     2
272
     2
276
     2
284
    12
340
94
  0
ENDTAB
  0
TABLE
  2
BLOCK_RECORD
  5
1
330
0
100
AcDbSymbolTable
 70
     9
  0
BLOCK_RECORD
  5
1F
330
1
100
AcDbSymbolTableRecord
100
AcDbBlockTableRecord
  2
*Model_Space
340
22
  0
BLOCK_RECORD
  5
1B
330
1
100
AcDbSymbolTableRecord
100
AcDbBlockTableRecord
  2
*Paper_Space
340
1E
  0
BLOCK_RECORD
  5
23
330
1
100
AcDbSymbolTableRecord
100
AcDbBlockTableRecord
  2
*Paper_Space0
340
26
  0
BLOCK_RECORD
  5
7F
330
1
100
AcDbSymbolTableRecord
100
AcDbBlockTableRecord
  2
블럭10
340
0
102
{BLKREFS
331
CC
102
}
  0
BLOCK_RECORD
  5
D5
330
1
100
AcDbSymbolTableRecord
100
AcDbBlockTableRecord
  2
_D
340
0
  0
BLOCK_RECORD
  5
E9
330
1
100
AcDbSymbolTableRecord
100
AcDbBlockTableRecord
  2
_D_1
340
0
  0
BLOCK_RECORD
  5
FD
330
1
100
AcDbSymbolTableRecord
100
AcDbBlockTableRecord
  2
_D_2
340
0
  0
BLOCK_RECORD
  5
113
330
1
100
AcDbSymbolTableRecord
100
AcDbBlockTableRecord
  2
_D_3
340
0
  0
BLOCK_RECORD
  5
12C
330
1
100
AcDbSymbolTableRecord
100
AcDbBlockTableRecord
  2
SW_DOWELSYMBOL_0
340
0
102
{BLKREFS
331
132
102
}
  0
BLOCK_RECORD
  5
191
330
1
100
AcDbSymbolTableRecord
100
AcDbBlockTableRecord
  2
*D7
340
0
  0
BLOCK_RECORD
  5
1A3
330
1
100
AcDbSymbolTableRecord
100
AcDbBlockTableRecord
  2
*D8
340
0
  0
ENDTAB
  0
ENDSEC
  0
SECTION
  2
BLOCKS
  0
BLOCK
  5
20
330
1F
100
AcDbEntity
  8
0
100
AcDbBlockBegin
  2
*Model_Space
 70
     0
 10
0.0
 20
0.0
 30
0.0
  3
*Model_Space
  1

  0
ENDBLK
  5
21
330
1F
100
AcDbEntity
  8
0
100
AcDbBlockEnd
  0
BLOCK
  5
1C
330
1B
100
AcDbEntity
 67
     1
  8
0
100
AcDbBlockBegin
  2
*Paper_Space
 70
     0
 10
0.0
 20
0.0
 30
0.0
  3
*Paper_Space
  1

  0
ENDBLK
  5
1D
330
1B
100
AcDbEntity
 67
     1
  8
0
100
AcDbBlockEnd
  0
BLOCK
  5
24
330
23
100
AcDbEntity
  8
0
100
AcDbBlockBegin
  2
*Paper_Space0
 70
     0
 10
0.0
 20
0.0
 30
0.0
  3
*Paper_Space0
  1

  0
ENDBLK
  5
25
330
23
100
AcDbEntity
  8
0
100
AcDbBlockEnd
  0
BLOCK
  5
80
330
7F
100
AcDbEntity
  8
0
100
AcDbBlockBegin
  2
블럭10
 70
     2
 10
0.0
 20
0.0
 30
0.0
  3
블럭10
  1

  0
ELLIPSE
  5
82
330
7F
100
AcDbEntity
  8
중심선
100
AcDbEllipse
 10
20.54032771741204
 20
12.0471743016438
 30
0.0
 11
6.600054785286829
 21
-1.261213355974178E-13
 31
0.0
210
0.0
220
0.0
230
1.0
 40
0.636358354079598
 41
0.9219305317359503
 42
6.513795318482858
  0
ELLIPSE
  5
83
330
7F
100
AcDbEntity
  8
중심선
100
AcDbEllipse
 10
20.54032771746488
 20
12.04717430159265
 30
0.0
 11
3.960054785062283
 21
1.540847449632565E-10
 31
0.0
210
0.0
220
0.0
230
1.0
 40
0.3939339440162632
 41
1.131841032648279
 42
5.62031148352944
  0
LINE
  5
84
330
7F
100
AcDbEntity
  8
중심선
100
AcDbLine
 10
2.268634060543552
 20
16.24717430164393
 30
0.0
 11
5.714909304380834
 21
16.24717430164393
 31
0.0
  0
LINE
  5
85
330
7F
100
AcDbEntity
  8
중심선
100
AcDbLine
 10
5.245725140726316
 20
7.84717430164391
 30
0.0
 11
8.692000384563599
 21
7.84717430164391
 31
0.0
  0
LINE
  5
86
330
7F
100
AcDbEntity
  8
중심선
100
AcDbLine
 10
15.74043728645272
 20
16.24717430164393
 30
0.0
 11
8.692000384563599
 21
7.84717430164391
 31
0.0
  0
LINE
  5
87
330
7F
100
AcDbEntity
  8
중심선
100
AcDbLine
 10
0.1404042013395286
 20
13.71084872107135
 30
0.0
 11
3.58671253028996
 21
13.71088815037384
 31
0.0
  0
LINE
  5
88
330
7F
100
AcDbEntity
  8
중심선
100
AcDbLine
 10
2.750260043222114
 20
10.84717430164391
 30
0.0
 11
6.196535287059397
 21
10.84717430164391
 31
0.0
  0
LINE
  5
89
330
7F
100
AcDbEntity
  8
중심선
100
AcDbLine
 10
12.29416204261559
 20
16.24717430164393
 30
0.0
 11
5.245725140726316
 21
7.84717430164391
 31
0.0
  0
LINE
  5
8A
330
7F
100
AcDbEntity
  8
중심선
100
AcDbLine
 10
10.72767329541681
 20
16.24717430164393
 30
0.0
 11
6.196535287059397
 21
10.84717430164391
 31
0.0
  0
LINE
  5
8B
330
7F
100
AcDbEntity
  8
중심선
100
AcDbLine
 10
7.28139805157953
 20
16.24717430164393
 30
0.0
 11
2.750260043222114
 21
10.84717430164391
 31
0.0
  0
LINE
  5
8C
330
7F
100
AcDbEntity
  8
중심선
100
AcDbLine
 10
5.714909304380834
 20
16.24717430164393
 30
0.0
 11
3.58671253028996
 21
13.71088815037384
 31
0.0
  0
LINE
  5
8D
330
7F
100
AcDbEntity
  8
중심선
100
AcDbLine
 10
2.268634060543552
 20
16.24717430164393
 30
0.0
 11
0.1404042013395286
 21
13.71084872107135
 31
0.0
  0
LINE
  5
8E
330
7F
100
AcDbEntity
  8
중심선
100
AcDbLine
 10
7.28139805157953
 20
16.24717430164393
 30
0.0
 11
10.72767329541681
 21
16.24717430164393
 31
0.0
  0
LINE
  5
8F
330
7F
100
AcDbEntity
  8
중심선
100
AcDbLine
 10
12.29416204261559
 20
16.24717430164393
 30
0.0
 11
15.74043728645272
 21
16.24717430164393
 31
0.0
  0
LINE
  5
90
330
7F
100
AcDbEntity
  8
중심선
100
AcDbLine
 10
19.22036997980202
 20
11.08717430171403
 30
0.0
 11
23.66174974927406
 21
11.08717430171406
 31
0.0
  0
LINE
  5
91
330
7F
100
AcDbEntity
  8
중심선
100
AcDbLine
 10
19.22039502424796
 20
13.00717430171391
 30
0.0
 11
19.22036997980202
 21
11.08717430171403
 31
0.0
  0
LINE
  5
92
330
7F
100
AcDbEntity
  8
중심선
100
AcDbLine
 10
19.22039502424796
 20
13.00717430171391
 30
0.0
 11
26.96566020931264
 21
13.00717430171391
 31
0.0
  0
LINE
  5
93
330
7F
100
AcDbEntity
  8
중심선
100
AcDbLine
 10
22.22332737316547
 20
13.45928029700563
 30
0.0
 11
24.52862924686651
 21
15.39360700705356
 31
0.0
  0
ATTDEF
  5
95
330
7F
100
AcDbEntity
  8
FORMAT
 62
     2
100
AcDbText
 10
4.408487351596664
 20
2.075366912832191
 30
0.0
 40
4.233333333333333
  1
E1001011
 41
0.75
  7
SLDTEXTSTYLE0
 11
4.408487351596664
 21
-0.0412997538344756
 31
0.0
100
AcDbAttributeDefinition
  3

  2
AUTOATTR0
 70
     0
 74
     1
  0
ENDBLK
  5
81
330
7F
100
AcDbEntity
  8
0
100
AcDbBlockEnd
  0
BLOCK
  5
D6
330
D5
100
AcDbEntity
  8
0
100
AcDbBlockBegin
  2
_D
 70
     0
 10
0.0
 20
0.0
 30
0.0
  3
_D
  1

  0
LINE
  5
D8
330
D5
100
AcDbEntity
  8
치수문자_일반주서
 62
     0
370
    -2
100
AcDbLine
 10
-32.68134233574612
 20
2.38232492872389
 30
0.0
 11
-50.70942116787304
 21
2.382324928723822
 31
0.0
  0
LINE
  5
D9
330
D5
100
AcDbEntity
  8
치수문자_일반주서
 62
     0
370
    -2
100
AcDbLine
 10
-32.68134233574612
 20
-2.380175071276108
 30
0.0
 11
-50.70942116787302
 21
-2.380175071276174
 31
0.0
  0
LINE
  5
DA
330
D5
100
AcDbEntity
  8
치수문자_일반주서
 62
     0
370
    -2
100
AcDbLine
 10
-50.70942116787304
 20
2.382324928723822
 30
0.0
 11
-50.70942116787315
 21
36.98632492872386
 31
0.0
  0
LINE
  5
DB
330
D5
100
AcDbEntity
  8
치수문자_일반주서
 62
     0
370
    -2
100
AcDbLine
 10
-50.70942116787304
 20
2.382324928723822
 30
0.0
 11
-50.70942116787302
 21
-2.380175071276174
 31
0.0
  0
LINE
  5
DC
330
D5
100
AcDbEntity
  8
치수문자_일반주서
 62
     0
370
    -2
100
AcDbLine
 10
-50.70942116787305
 20
5.684324928723822
 30
0.0
 11
-50.70942116787305
 21
8.986324928723821
 31
0.0
  0
LINE
  5
DD
330
D5
100
AcDbEntity
  8
치수문자_일반주서
 62
     0
370
    -2
100
AcDbLine
 10
-50.70942116787302
 20
-5.682175071276173
 30
0.0
 11
-50.70942116787301
 21
-8.984175071276173
 31
0.0
  0
SOLID
  5
DE
330
D5
100
AcDbEntity
  8
치수문자_일반주서
 62
     0
100
AcDbTrace
 10
-51.25975450120638
 20
5.68432492872382
 30
0.0
 11
-50.15908783453971
 21
5.684324928723823
 31
0.0
 12
-50.70942116787304
 22
2.382324928723822
 32
0.0
 13
-50.70942116787304
 23
2.382324928723822
 33
0.0
  0
SOLID
  5
DF
330
D5
100
AcDbEntity
  8
치수문자_일반주서
 62
     0
100
AcDbTrace
 10
-50.15908783453968
 20
-5.682175071276172
 30
0.0
 11
-51.25975450120635
 21
-5.682175071276175
 31
0.0
 12
-50.70942116787302
 22
-2.380175071276174
 32
0.0
 13
-50.70942116787302
 23
-2.380175071276174
 33
0.0
  0
MTEXT
  5
E0
330
D5
100
AcDbEntity
  8
치수문자_일반주서
 62
     0
100
AcDbMText
 10
-55.0844211678731
 20
22.98632492872385
 30
0.0
 40
3.5
 41
0.0
 71
     2
 72
     1
  1
\A1;%%c4.76 [3/16]
  7
SLDTEXTSTYLE0
 11
-2.983906501879687E-15
 21
1.0
 31
0.0
 73
     1
 44
1.0
  0
POINT
  5
1B5
330
D5
100
AcDbEntity
  8
Defpoints
 62
     0
100
AcDbPoint
 10
-32.61884233574612
 20
2.38232492872389
 30
0.0
  0
POINT
  5
1B6
330
D5
100
AcDbEntity
  8
Defpoints
 62
     0
100
AcDbPoint
 10
-32.61884233574612
 20
-2.380175071276108
 30
0.0
  0
POINT
  5
1B7
330
D5
100
AcDbEntity
  8
Defpoints
 62
     0
100
AcDbPoint
 10
-50.70942116787302
 20
-2.380175071276175
 30
0.0
  0
ENDBLK
  5
D7
330
D5
100
AcDbEntity
  8
0
100
AcDbBlockEnd
  0
BLOCK
  5
EA
330
E9
100
AcDbEntity
  8
0
100
AcDbBlockBegin
  2
_D_1
 70
     0
 10
0.0
 20
0.0
 30
0.0
  3
_D_1
  1

  0
LINE
  5
EC
330
E9
100
AcDbEntity
  8
치수문자_일반주서
 62
     0
370
    -2
100
AcDbLine
 10
10.15307883212697
 20
-2.179892691394563
 30
0.0
 11
45.82644876724163
 21
-2.179892691394432
 31
0.0
  0
LINE
  5
ED
330
E9
100
AcDbEntity
  8
치수문자_일반주서
 62
     0
370
    -2
100
AcDbLine
 10
10.15307883212697
 20
2.182042548842351
 30
0.0
 11
45.82644876724162
 21
2.182042548842482
 31
0.0
  0
LINE
  5
EE
330
E9
100
AcDbEntity
  8
치수문자_일반주서
 62
     0
370
    -2
100
AcDbLine
 10
45.82644876724162
 20
2.182042548842482
 30
0.0
 11
45.82644876724149
 21
38.53604254884248
 31
0.0
  0
LINE
  5
EF
330
E9
100
AcDbEntity
  8
치수문자_일반주서
 62
     0
370
    -2
100
AcDbLine
 10
45.82644876724163
 20
-2.179892691394432
 30
0.0
 11
45.82644876724162
 21
2.182042548842482
 31
0.0
  0
LINE
  5
F0
330
E9
100
AcDbEntity
  8
치수문자_일반주서
 62
     0
370
    -2
100
AcDbLine
 10
45.82644876724164
 20
-5.481892691394432
 30
0.0
 11
45.82644876724166
 21
-8.783892691394431
 31
0.0
  0
LINE
  5
F1
330
E9
100
AcDbEntity
  8
치수문자_일반주서
 62
     0
370
    -2
100
AcDbLine
 10
45.8264487672416
 20
5.484042548842481
 30
0.0
 11
45.82644876724159
 21
8.786042548842481
 31
0.0
  0
SOLID
  5
F2
330
E9
100
AcDbEntity
  8
치수문자_일반주서
 62
     0
100
AcDbTrace
 10
46.37678210057498
 20
-5.48189269139443
 30
0.0
 11
45.27611543390831
 21
-5.481892691394433
 31
0.0
 12
45.82644876724163
 22
-2.179892691394432
 32
0.0
 13
45.82644876724163
 23
-2.179892691394432
 33
0.0
  0
SOLID
  5
F3
330
E9
100
AcDbEntity
  8
치수문자_일반주서
 62
     0
100
AcDbTrace
 10
45.27611543390827
 20
5.48404254884248
 30
0.0
 11
46.37678210057494
 21
5.484042548842483
 31
0.0
 12
45.82644876724162
 22
2.182042548842482
 32
0.0
 13
45.82644876724162
 23
2.182042548842482
 33
0.0
  0
MTEXT
  5
F4
330
E9
100
AcDbEntity
  8
치수문자_일반주서
 62
     0
100
AcDbMText
 10
41.45144876724154
 20
23.66104254884247
 30
0.0
 40
3.5
 41
0.0
 71
     2
 72
     1
  1
\A1;%%c4.36 [11/64]
  7
SLDTEXTSTYLE0
 11
-3.257924277305446E-15
 21
1.0
 31
0.0
 73
     1
 44
1.0
  0
POINT
  5
F5
330
E9
100
AcDbEntity
  8
Defpoints
 62
     0
100
AcDbPoint
 10
10.09057883212697
 20
-2.179892691394563
 30
0.0
  0
POINT
  5
F6
330
E9
100
AcDbEntity
  8
Defpoints
 62
     0
100
AcDbPoint
 10
10.09057883212697
 20
2.18204254884235
 30
0.0
  0
POINT
  5
F7
330
E9
100
AcDbEntity
  8
Defpoints
 62
     0
100
AcDbPoint
 10
45.82644876724162
 20
2.182042548842484
 30
0.0
  0
ENDBLK
  5
EB
330
E9
100
AcDbEntity
  8
0
100
AcDbBlockEnd
  0
BLOCK
  5
FE
330
FD
100
AcDbEntity
  8
0
100
AcDbBlockBegin
  2
_D_2
 70
     0
 10
0.0
 20
0.0
 30
0.0
  3
_D_2
  1

  0
LINE
  5
100
330
FD
100
AcDbEntity
  8
치수문자_일반주서
 62
     0
370
    -2
100
AcDbLine
 10
10.09057883212697
 20
2.24454254884235
 30
0.0
 11
10.09057883212697
 21
12.38232492872387
 31
0.0
  0
LINE
  5
101
330
FD
100
AcDbEntity
  8
치수문자_일반주서
 62
     0
370
    -2
100
AcDbLine
 10
3.740578832616071
 20
1.799535130397209
 30
0.0
 11
3.74057883261607
 21
12.38232492872387
 31
0.0
  0
LINE
  5
102
330
FD
100
AcDbEntity
  8
치수문자_일반주서
 62
     0
370
    -2
100
AcDbLine
 10
10.09057883212697
 20
12.38232492872387
 30
0.0
 11
39.44457883212696
 21
12.38232492872387
 31
0.0
  0
LINE
  5
103
330
FD
100
AcDbEntity
  8
치수문자_일반주서
 62
     0
370
    -2
100
AcDbLine
 10
10.09057883212697
 20
12.38232492872387
 30
0.0
 11
3.74057883261607
 21
12.38232492872387
 31
0.0
  0
LINE
  5
104
330
FD
100
AcDbEntity
  8
치수문자_일반주서
 62
     0
370
    -2
100
AcDbLine
 10
13.39257883212696
 20
12.38232492872387
 30
0.0
 11
16.69457883212696
 21
12.38232492872387
 31
0.0
  0
LINE
  5
105
330
FD
100
AcDbEntity
  8
치수문자_일반주서
 62
     0
370
    -2
100
AcDbLine
 10
0.43857883261607
 20
12.38232492872387
 30
0.0
 11
-2.86342116738393
 21
12.38232492872387
 31
0.0
  0
SOLID
  5
106
330
FD
100
AcDbEntity
  8
치수문자_일반주서
 62
     0
100
AcDbTrace
 10
13.39257883212696
 20
12.9326582620572
 30
0.0
 11
13.39257883212696
 21
11.83199159539054
 31
0.0
 12
10.09057883212697
 22
12.38232492872387
 32
0.0
 13
10.09057883212697
 23
12.38232492872387
 33
0.0
  0
SOLID
  5
107
330
FD
100
AcDbEntity
  8
치수문자_일반주서
 62
     0
100
AcDbTrace
 10
0.43857883261607
 20
11.83199159539054
 30
0.0
 11
0.43857883261607
 21
12.9326582620572
 31
0.0
 12
3.74057883261607
 22
12.38232492872387
 32
0.0
 13
3.74057883261607
 23
12.38232492872387
 33
0.0
  0
MTEXT
  5
108
330
FD
100
AcDbEntity
  8
치수문자_일반주서
 62
     0
100
AcDbMText
 10
28.06957883212696
 20
16.75732492872387
 30
0.0
 40
3.5
 41
0.0
 71
     2
 72
     1
  1
\A1;6.35 [1/4]
  7
SLDTEXTSTYLE0
 73
     1
 44
1.0
  0
POINT
  5
109
330
FD
100
AcDbEntity
  8
Defpoints
 62
     0
100
AcDbPoint
 10
10.09057883212697
 20
2.18204254884235
 30
0.0
  0
POINT
  5
10A
330
FD
100
AcDbEntity
  8
Defpoints
 62
     0
100
AcDbPoint
 10
3.740578832616071
 20
1.737035130397209
 30
0.0
  0
POINT
  5
10B
330
FD
100
AcDbEntity
  8
Defpoints
 62
     0
100
AcDbPoint
 10
3.740578832616071
 20
12.38232492872387
 30
0.0
  0
ENDBLK
  5
FF
330
FD
100
AcDbEntity
  8
0
100
AcDbBlockEnd
  0
BLOCK
  5
114
330
113
100
AcDbEntity
  8
0
100
AcDbBlockBegin
  2
_D_3
 70
     0
 10
0.0
 20
0.0
 30
0.0
  3
_D_3
  1

  0
LINE
  5
116
330
113
100
AcDbEntity
  8
치수문자_일반주서
 62
     0
370
    -2
100
AcDbLine
 10
-40.70942116787303
 20
2.014824928723889
 30
0.0
 11
-40.70942116787303
 21
22.38232492872388
 31
0.0
  0
LINE
  5
117
330
113
100
AcDbEntity
  8
치수문자_일반주서
 62
     0
370
    -2
100
AcDbLine
 10
10.09057883212697
 20
2.24454254884235
 30
0.0
 11
10.09057883212697
 21
22.38232492872388
 31
0.0
  0
LINE
  5
118
330
113
100
AcDbEntity
  8
치수문자_일반주서
 62
     0
370
    -2
100
AcDbLine
 10
-37.40742116787303
 20
22.38232492872388
 30
0.0
 11
6.788578832126966
 21
22.38232492872388
 31
0.0
  0
SOLID
  5
119
330
113
100
AcDbEntity
  8
치수문자_일반주서
 62
     0
100
AcDbTrace
 10
-37.40742116787303
 20
22.93265826205721
 30
0.0
 11
-37.40742116787303
 21
21.83199159539054
 31
0.0
 12
-40.70942116787303
 22
22.38232492872388
 32
0.0
 13
-40.70942116787303
 23
22.38232492872388
 33
0.0
  0
SOLID
  5
11A
330
113
100
AcDbEntity
  8
치수문자_일반주서
 62
     0
100
AcDbTrace
 10
6.788578832126966
 20
21.83199159539054
 30
0.0
 11
6.788578832126966
 21
22.93265826205721
 31
0.0
 12
10.09057883212697
 22
22.38232492872388
 32
0.0
 13
10.09057883212697
 23
22.38232492872388
 33
0.0
  0
MTEXT
  5
11B
330
113
100
AcDbEntity
  8
치수문자_일반주서
 62
     0
100
AcDbMText
 10
-15.30942116787304
 20
26.75732492872388
 30
0.0
 40
3.5
 41
0.0
 71
     2
 72
     1
  1
\A1;50.8 [2]
  7
SLDTEXTSTYLE0
 73
     1
 44
1.0
  0
POINT
  5
11C
330
113
100
AcDbEntity
  8
Defpoints
 62
     0
100
AcDbPoint
 10
-40.70942116787303
 20
1.952324928723889
 30
0.0
  0
POINT
  5
11D
330
113
100
AcDbEntity
  8
Defpoints
 62
     0
100
AcDbPoint
 10
10.09057883212697
 20
2.18204254884235
 30
0.0
  0
POINT
  5
11E
330
113
100
AcDbEntity
  8
Defpoints
 62
     0
100
AcDbPoint
 10
10.09057883212697
 20
22.38232492872388
 30
0.0
  0
ENDBLK
  5
115
330
113
100
AcDbEntity
  8
0
100
AcDbBlockEnd
  0
BLOCK
  5
12D
330
12C
100
AcDbEntity
  8
0
100
AcDbBlockBegin
  2
SW_DOWELSYMBOL_0
 70
     0
 10
0.0
 20
0.0
 30
0.0
  3
SW_DOWELSYMBOL_0
  1

  0
CIRCLE
  5
12F
330
12C
100
AcDbEntity
  8
해칭선
 62
     0
100
AcDbCircle
 10
0.0
 20
0.0
 30
0.0
 40
3.000000000000001
  0
HATCH
  5
130
330
12C
100
AcDbEntity
  8
0
  6
Continuous
 62
     0
370
     0
100
AcDbHatch
 10
0.0
 20
0.0
 30
0.0
210
0.0
220
0.0
230
1.0
  2
SOLID
 70
     1
 71
     0
 91
        1
 92
        0
 93
        3
 72
     2
 10
0.0
 20
0.0
 40
3.000000000000001
 50
0.0
 51
90.0
 73
     1
 72
     1
 10
0.0
 20
3.000000000000001
 11
0.0
 21
0.0
 72
     1
 10
0.0
 20
0.0
 11
3.000000000000001
 21
0.0
 97
        0
 75
     0
 76
     1
 98
        1
 10
0.0
 20
0.0
  0
HATCH
  5
131
330
12C
100
AcDbEntity
  8
0
  6
Continuous
 62
     0
370
     0
100
AcDbHatch
 10
0.0
 20
0.0
 30
0.0
210
0.0
220
0.0
230
1.0
  2
SOLID
 70
     1
 71
     0
 91
        1
 92
        0
 93
        3
 72
     2
 10
0.0
 20
0.0
 40
3.000000000000001
 50
180.0
 51
270.0000000000007
 73
     1
 72
     1
 10
0.0
 20
-3.000000000000001
 11
0.0
 21
0.0
 72
     1
 10
0.0
 20
0.0
 11
-3.000000000000001
 21
0.0
 97
        0
 75
     0
 76
     1
 98
        1
 10
0.0
 20
0.0
  0
ENDBLK
  5
12E
330
12C
100
AcDbEntity
  8
0
100
AcDbBlockEnd
  0
BLOCK
  5
192
330
191
100
AcDbEntity
  8
0
100
AcDbBlockBegin
  2
*D7
 70
     1
 10
0.0
 20
0.0
 30
0.0
  3
*D7
  1

  0
LINE
  5
194
330
191
100
AcDbEntity
  8
치수문자_일반주서
 62
     0
370
    -2
100
AcDbLine
 10
11.3665
 20
1.204062975115862
 30
0.0
 11
11.3665
 21
11.9366547059388
 31
0.0
  0
LINE
  5
195
330
191
100
AcDbEntity
  8
치수문자_일반주서
 62
     0
370
    -2
100
AcDbLine
 10
6.603999999999999
 20
0.8732315656415455
 30
0.0
 11
6.603999999999999
 21
11.9366547059388
 31
0.0
  0
LINE
  5
196
330
191
100
AcDbEntity
  8
치수문자_일반주서
 62
     0
370
    -2
100
AcDbLine
 10
11.3665
 20
11.9366547059388
 30
0.0
 11
43.3455
 21
11.9366547059388
 31
0.0
  0
LINE
  5
197
330
191
100
AcDbEntity
  8
치수문자_일반주서
 62
     0
370
    -2
100
AcDbLine
 10
11.3665
 20
11.9366547059388
 30
0.0
 11
6.603999999999999
 21
11.9366547059388
 31
0.0
  0
LINE
  5
198
330
191
100
AcDbEntity
  8
치수문자_일반주서
 62
     0
370
    -2
100
AcDbLine
 10
14.6685
 20
11.9366547059388
 30
0.0
 11
17.9705
 21
11.9366547059388
 31
0.0
  0
LINE
  5
199
330
191
100
AcDbEntity
  8
치수문자_일반주서
 62
     0
370
    -2
100
AcDbLine
 10
3.302
 20
11.9366547059388
 30
0.0
 11
0.0
 21
11.9366547059388
 31
0.0
  0
SOLID
  5
19A
330
191
100
AcDbEntity
  8
치수문자_일반주서
 62
     0
100
AcDbTrace
 10
14.6685
 20
12.48698803927213
 30
0.0
 11
14.6685
 21
11.38632137260547
 31
0.0
 12
11.3665
 22
11.9366547059388
 32
0.0
 13
11.3665
 23
11.9366547059388
 33
0.0
  0
SOLID
  5
19B
330
191
100
AcDbEntity
  8
치수문자_일반주서
 62
     0
100
AcDbTrace
 10
3.302
 20
11.38632137260547
 30
0.0
 11
3.302
 21
12.48698803927213
 31
0.0
 12
6.603999999999999
 22
11.9366547059388
 32
0.0
 13
6.603999999999999
 23
11.9366547059388
 33
0.0
  0
MTEXT
  5
19C
330
191
100
AcDbEntity
  8
치수문자_일반주서
 62
     0
100
AcDbMText
 10
30.658
 20
16.3116547059388
 30
0.0
 40
3.5
 41
0.0
 71
     2
 72
     1
  1
\A1;4.76 [3/16]
  7
SLDTEXTSTYLE0
 73
     1
 44
1.0
  0
POINT
  5
19D
330
191
100
AcDbEntity
  8
Defpoints
 62
     0
100
AcDbPoint
 10
11.3665
 20
1.141562975115862
 30
0.0
  0
POINT
  5
19E
330
191
100
AcDbEntity
  8
Defpoints
 62
     0
100
AcDbPoint
 10
6.603999999999999
 20
0.8107315656415455
 30
0.0
  0
POINT
  5
19F
330
191
100
AcDbEntity
  8
Defpoints
 62
     0
100
AcDbPoint
 10
6.603999999999999
 20
11.9366547059388
 30
0.0
  0
ENDBLK
  5
193
330
191
100
AcDbEntity
  8
0
100
AcDbBlockEnd
  0
BLOCK
  5
1A4
330
1A3
100
AcDbEntity
  8
0
100
AcDbBlockBegin
  2
*D8
 70
     1
 10
0.0
 20
0.0
 30
0.0
  3
*D8
  1

  0
LINE
  5
1A6
330
1A3
100
AcDbEntity
  8
치수문자_일반주서
 62
     0
370
    -2
100
AcDbLine
 10
65.5840260954285
 20
-15.12841452074671
 30
0.0
 11
65.5840260954285
 21
-4.395822789923777
 31
0.0
  0
LINE
  5
1A7
330
1A3
100
AcDbEntity
  8
치수문자_일반주서
 62
     0
370
    -2
100
AcDbLine
 10
60.8215260954285
 20
-15.45924593022103
 30
0.0
 11
60.8215260954285
 21
-4.395822789923777
 31
0.0
  0
LINE
  5
1A8
330
1A3
100
AcDbEntity
  8
치수문자_일반주서
 62
     0
370
    -2
100
AcDbLine
 10
65.5840260954285
 20
-4.395822789923777
 30
0.0
 11
97.5630260954285
 21
-4.395822789923777
 31
0.0
  0
LINE
  5
1A9
330
1A3
100
AcDbEntity
  8
치수문자_일반주서
 62
     0
370
    -2
100
AcDbLine
 10
65.5840260954285
 20
-4.395822789923777
 30
0.0
 11
60.8215260954285
 21
-4.395822789923777
 31
0.0
  0
LINE
  5
1AA
330
1A3
100
AcDbEntity
  8
치수문자_일반주서
 62
     0
370
    -2
100
AcDbLine
 10
68.88602609542849
 20
-4.395822789923777
 30
0.0
 11
72.18802609542848
 21
-4.395822789923777
 31
0.0
  0
LINE
  5
1AB
330
1A3
100
AcDbEntity
  8
치수문자_일반주서
 62
     0
370
    -2
100
AcDbLine
 10
57.5195260954285
 20
-4.395822789923777
 30
0.0
 11
54.2175260954285
 21
-4.395822789923777
 31
0.0
  0
SOLID
  5
1AC
330
1A3
100
AcDbEntity
  8
치수문자_일반주서
 62
     0
100
AcDbTrace
 10
68.88602609542849
 20
-3.845489456590444
 30
0.0
 11
68.88602609542849
 21
-4.946156123257111
 31
0.0
 12
65.5840260954285
 22
-4.395822789923777
 32
0.0
 13
65.5840260954285
 23
-4.395822789923777
 33
0.0
  0
SOLID
  5
1AD
330
1A3
100
AcDbEntity
  8
치수문자_일반주서
 62
     0
100
AcDbTrace
 10
57.5195260954285
 20
-4.946156123257111
 30
0.0
 11
57.5195260954285
 21
-3.845489456590444
 31
0.0
 12
60.8215260954285
 22
-4.395822789923777
 32
0.0
 13
60.8215260954285
 23
-4.395822789923777
 33
0.0
  0
MTEXT
  5
1AE
330
1A3
100
AcDbEntity
  8
치수문자_일반주서
 62
     0
100
AcDbMText
 10
84.8755260954285
 20
-0.020822789923777
 30
0.0
 40
3.5
 41
0.0
 71
     2
 72
     1
  1
\A1;4.76 [3/16]
  7
SLDTEXTSTYLE0
 73
     1
 44
1.0
  0
POINT
  5
1AF
330
1A3
100
AcDbEntity
  8
Defpoints
 62
     0
100
AcDbPoint
 10
65.5840260954285
 20
-15.19091452074671
 30
0.0
  0
POINT
  5
1B0
330
1A3
100
AcDbEntity
  8
Defpoints
 62
     0
100
AcDbPoint
 10
60.8215260954285
 20
-15.52174593022103
 30
0.0
  0
POINT
  5
1B1
330
1A3
100
AcDbEntity
  8
Defpoints
 62
     0
100
AcDbPoint
 10
60.8215260954285
 20
-4.395822789923777
 30
0.0
  0
ENDBLK
  5
1A5
330
1A3
100
AcDbEntity
  8
0
100
AcDbBlockEnd
  0
ENDSEC
  0
SECTION
  2
ENTITIES
  0
LINE
  5
96
330
1F
100
AcDbEntity
  8
외형선
  6
Continuous
370
    15
100
AcDbLine
 10
2.000000000000016
 20
2.382324928723893
 30
0.0
 11
-32.61884233574612
 21
2.38232492872389
 31
0.0
  0
LINE
  5
97
330
1F
100
AcDbEntity
  8
외형선
  6
Continuous
370
    15
100
AcDbLine
 10
-32.61884233574612
 20
-2.380175071276108
 30
0.0
 11
2.000000000000014
 21
-2.380175071276105
 31
0.0
  0
LINE
  5
98
330
1F
100
AcDbEntity
  8
외형선
  6
Continuous
370
    15
100
AcDbLine
 10
2.000000000000016
 20
-2.380175071276107
 30
0.0
 11
2.740578832126966
 21
-2.181737571276106
 31
0.0
  0
LINE
  5
99
330
1F
100
AcDbEntity
  8
외형선
  6
Continuous
370
    15
100
AcDbLine
 10
2.740578832126966
 20
2.183887428723894
 30
0.0
 11
2.000000000000016
 21
2.382324928723894
 31
0.0
  0
LINE
  5
9C
330
1F
100
AcDbEntity
  8
외형선
  6
Continuous
370
    15
100
AcDbLine
 10
2.850491003160382
 20
2.183887428723894
 30
0.0
 11
2.740578832126966
 21
2.183887428723894
 31
0.0
  0
LINE
  5
9D
330
1F
100
AcDbEntity
  8
외형선
  6
Continuous
370
    15
100
AcDbLine
 10
2.740578832126966
 20
-2.181737571276106
 30
0.0
 11
2.850491003160382
 21
-2.181737571276106
 31
0.0
  0
SPLINE
  5
9E
330
1F
100
AcDbEntity
  8
외형선
  6
Continuous
370
    15
100
AcDbSpline
210
0.0
220
0.0
230
1.0
 70
     8
 71
     3
 72
    11
 73
     7
 74
     0
 42
0.000000001
 43
0.00000001
 40
0.0
 40
0.0
 40
0.0
 40
0.0
 40
0.2459372465768251
 40
0.6710156579713398
 40
0.8454243764888604
 40
1.0
 40
1.0
 40
1.0
 40
1.0
 10
3.298625209197226
 20
1.704207906219013
 30
0.0
 10
3.269151860067415
 20
1.705896099896646
 30
0.0
 10
3.188736717447762
 20
1.710502170783215
 30
0.0
 10
3.063293726148546
 20
1.710376112536184
 30
0.0
 10
2.935976325205612
 20
1.708377959739714
 30
0.0
 10
2.874112009614041
 20
1.707563579968978
 30
0.0
 10
2.845044622708363
 20
1.707180937864918
 30
0.0
  0
LINE
  5
9F
330
1F
100
AcDbEntity
  8
외형선
  6
Continuous
370
    15
100
AcDbLine
 10
2.845044622708363
 20
-1.705007087860679
 30
0.0
 11
3.618288051241988
 21
-1.727820061228032
 31
0.0
  0
LINE
  5
A0
330
1F
100
AcDbEntity
  8
0
  6
Continuous
 62
     1
370
    15
100
AcDbLine
 10
4.436175439467362
 20
0.5603814533397432
 30
0.0
 11
3.878114875172122
 21
0.8372943158043109
 31
0.0
1001
PE_URL
1000

  0
SPLINE
  5
A1
330
1F
100
AcDbEntity
  8
0
  6
Continuous
 62
     1
370
    15
100
AcDbSpline
210
0.0
220
0.0
230
1.0
 70
     8
 71
     3
 72
    20
 73
    16
 74
     0
 42
0.000000001
 43
0.00000001
 40
0.0
 40
0.0
 40
0.0
 40
0.0
 40
0.1136455080819454
 40
0.2101864048586845
 40
0.2909251232591484
 40
0.3575069963697521
 40
0.4111189059482379
 40
0.4634882297762741
 40
0.5210085604832982
 40
0.5866986015514863
 40
0.6469361808611737
 40
0.7018458485770765
 40
0.7742907295404328
 40
0.8740151870721921
 40
1.0
 40
1.0
 40
1.0
 40
1.0
 10
9.28278303677407
 20
1.494358465367929
 30
0.0
 10
9.14594169105482
 20
1.483146601998778
 30
0.0
 10
8.892854780905985
 20
1.462410355638477
 30
0.0
 10
8.52368793313512
 20
1.444277541671916
 30
0.0
 10
8.201775759004324
 20
1.438178844518293
 30
0.0
 10
7.938026495101701
 20
1.436960360834243
 30
0.0
 10
7.715017807185674
 20
1.439383713105392
 30
0.0
 10
7.509309525220164
 20
1.444488851357611
 30
0.0
 10
7.285232005981621
 20
1.45307714132164
 30
0.0
 10
7.051096547844478
 20
1.465719266837481
 30
0.0
 10
6.819791883890806
 20
1.482002690253324
 30
0.0
 10
6.578323656381318
 20
1.502390333869369
 30
0.0
 10
6.28784349092569
 20
1.531356436968426
 30
0.0
 10
5.907592196170622
 20
1.576312075091891
 30
0.0
 10
5.619516110091924
 20
1.619834157087055
 30
0.0
 10
5.458719826715065
 20
1.644127006677261
 30
0.0
1001
PE_URL
1000

  0
SPLINE
  5
A2
330
1F
100
AcDbEntity
  8
0
  6
Continuous
 62
     1
370
    15
100
AcDbSpline
210
0.0
220
0.0
230
1.0
 70
     8
 71
     3
 72
    13
 73
     9
 74
     0
 42
0.000000001
 43
0.00000001
 40
0.0
 40
0.0
 40
0.0
 40
0.0
 40
0.220802206811904
 40
0.421344304015247
 40
0.6061439996605289
 40
0.7628724608771302
 40
0.8885794537467153
 40
1.0
 40
1.0
 40
1.0
 40
1.0
 10
5.458719826715065
 20
-1.641977149229474
 30
0.0
 10
5.571748039243197
 20
-1.624276378711635
 30
0.0
 10
5.787433354301312
 20
-1.590499004191434
 30
0.0
 10
6.11880319646253
 20
-1.546985788940087
 30
0.0
 10
6.423609379201451
 20
-1.515163205491763
 30
0.0
 10
6.685692824723057
 20
-1.490763888337018
 30
0.0
 10
6.902550025317193
 20
-1.473511232641164
 30
0.0
 10
7.02959552327375
 20
-1.465722252806688
 30
0.0
 10
7.089291157250727
 20
-1.462062397898552
 30
0.0
1001
PE_URL
1000

  0
LINE
  5
A3
330
1F
100
AcDbEntity
  8
외형선
  6
Continuous
370
    15
100
AcDbLine
 10
2.000000000000016
 20
2.382324928723894
 30
0.0
 11
2.000000000000016
 21
-2.380175071276105
 31
0.0
  0
LINE
  5
A5
330
1F
100
AcDbEntity
  8
외형선
  6
Continuous
370
    15
100
AcDbLine
 10
2.740578832126966
 20
2.183887428723894
 30
0.0
 11
2.740578832126966
 21
-2.181737571276106
 31
0.0
  0
SPLINE
  5
A7
330
1F
100
AcDbEntity
  8
외형선
  6
Continuous
370
    15
100
AcDbSpline
210
0.0
220
0.0
230
1.0
 70
     8
 71
     3
 72
    10
 73
     6
 74
     0
 42
0.000000001
 43
0.00000001
 40
0.0
 40
0.0
 40
0.0
 40
0.0
 40
0.5
 40
0.5
 40
1.0
 40
1.0
 40
1.0
 40
1.0
 10
3.740578832126966
 20
0.9101273705409527
 30
0.0
 10
3.592781292076443
 20
0.9879012680297232
 30
0.0
 10
3.446067503258606
 20
1.063399325336316
 30
0.0
 10
3.148630948048661
 20
1.209819057281553
 30
0.0
 10
2.999130076478778
 20
1.280520635572279
 30
0.0
 10
2.850398950535235
 20
1.347979549953215
 30
0.0
  0
LINE
  5
A8
330
1F
100
AcDbEntity
  8
외형선
  6
Continuous
370
    15
100
AcDbLine
 10
3.740578832126966
 20
0.9101273705409525
 30
0.0
 11
3.740578832126962
 21
0.3266859252457165
 31
0.0
  0
SPLINE
  5
A9
330
1F
100
AcDbEntity
  8
외형선
  6
Continuous
370
    15
100
AcDbSpline
210
0.0
220
0.0
230
1.0
 70
     8
 71
     3
 72
    10
 73
     6
 74
     0
 42
0.000000001
 43
0.00000001
 40
0.0
 40
0.0
 40
0.0
 40
0.0
 40
0.5
 40
0.5
 40
1.0
 40
1.0
 40
1.0
 40
1.0
 10
2.850491003160382
 20
0.8211457447537074
 30
0.0
 10
2.999207104169161
 20
0.7417089533645597
 30
0.0
 10
3.148692472334465
 20
0.6602324751223931
 30
0.0
 10
3.446098023497834
 20
0.4948921056167409
 30
0.0
 10
3.592796537861956
 20
0.4112653904707926
 30
0.0
 10
3.740578832127001
 20
0.3266859252456956
 30
0.0
  0
LINE
  5
AA
330
1F
100
AcDbEntity
  8
외형선
  6
Continuous
370
    15
100
AcDbLine
 10
2.850491003160382
 20
1.348053164818716
 30
0.0
 11
2.850491003160382
 21
2.183887428723894
 31
0.0
  0
LINE
  5
AB
330
1F
100
AcDbEntity
  8
외형선
  6
Continuous
370
    15
100
AcDbLine
 10
2.850491003160382
 20
-2.181737571276106
 30
0.0
 11
2.850491003160382
 21
0.8218368023177816
 31
0.0
  0
SPLINE
  5
AC
330
1F
100
AcDbEntity
  8
외형선
  6
Continuous
370
    15
100
AcDbSpline
210
0.0
220
0.0
230
1.0
 70
    24
 71
     3
 72
    10
 73
     6
 74
     0
 42
0.000000001
 43
0.00000001
 40
0.0
 40
0.0
 40
0.0
 40
0.0
 40
0.5010032298337328
 40
0.7497202723412572
 40
1.0
 40
1.0
 40
1.0
 40
1.0
 10
3.740578832126966
 20
0.2917080341624267
 30
0.0
 10
3.740578832126966
 20
0.2757436598538455
 30
0.0
 10
3.740578832126966
 20
0.2518539634573584
 30
0.0
 10
3.740578832126966
 20
0.2061848559351629
 30
0.0
 10
3.740578832126966
 20
0.1798923444319746
 30
0.0
 10
3.740578832126966
 20
0.1667049191580801
 30
0.0
  0
SPLINE
  5
AD
330
1F
100
AcDbEntity
  8
외형선
  6
Continuous
370
    15
100
AcDbSpline
210
0.0
220
0.0
230
1.0
 70
     8
 71
     3
 72
    10
 73
     6
 74
     0
 42
0.000000001
 43
0.00000001
 40
0.0
 40
0.0
 40
0.0
 40
0.0
 40
0.4999999999999999
 40
0.4999999999999999
 40
1.0
 40
1.0
 40
1.0
 40
1.0
 10
3.740578832126987
 20
0.1667049191575318
 30
0.0
 10
3.592792865686205
 20
0.2262291236989751
 30
0.0
 10
3.446090672245688
 20
0.28522861089596
 30
0.0
 10
3.148677653293502
 20
0.4021746021784142
 30
0.0
 10
2.999188550896465
 20
0.4599543930664599
 30
0.0
 10
2.850468830889172
 20
0.5164410292592939
 30
0.0
  0
LINE
  5
AE
330
1F
100
AcDbEntity
  8
외형선
  6
Continuous
370
    15
100
AcDbLine
 10
3.740578832616071
 20
1.737035130397209
 30
0.0
 11
3.298880019935044
 21
1.699028084286111
 31
0.0
  0
SPLINE
  5
AF
330
1F
100
AcDbEntity
  8
외형선
  6
Continuous
370
    15
100
AcDbSpline
210
0.0
220
0.0
230
1.0
 70
    24
 71
     3
 72
    13
 73
     9
 74
     0
 42
0.000000001
 43
0.00000001
 40
0.0
 40
0.0
 40
0.0
 40
0.0
 40
0.1339944315553491
 40
0.2697530175177159
 40
0.465929068935686
 40
0.667794239134687
 40
0.8442354136431043
 40
1.0
 40
1.0
 40
1.0
 40
1.0
 10
3.74057883212674
 20
1.737035130372637
 30
0.0
 10
3.740578832126834
 20
1.73339249039946
 30
0.0
 10
3.740578832127026
 20
1.726059251897759
 30
0.0
 10
3.740578832126943
 20
1.668004154376689
 30
0.0
 10
3.740578832126973
 20
1.555073303096684
 30
0.0
 10
3.740578832126962
 20
1.370708095836873
 30
0.0
 10
3.740578832126966
 20
1.154378428532292
 30
0.0
 10
3.740578832126966
 20
0.9880945364391096
 30
0.0
 10
3.740578832126966
 20
0.9101273705409526
 30
0.0
  0
SPLINE
  5
B0
330
1F
100
AcDbEntity
  8
외형선
  6
Continuous
370
    15
100
AcDbSpline
210
0.0
220
0.0
230
1.0
 70
     8
 71
     3
 72
    10
 73
     6
 74
     0
 42
0.000000001
 43
0.00000001
 40
0.0
 40
0.0
 40
0.0
 40
0.0
 40
0.5000000000000001
 40
0.5000000000000001
 40
1.0
 40
1.0
 40
1.0
 40
1.0
 10
3.740578832616096
 20
-1.734885272949424
 30
0.0
 10
3.592790972177095
 20
-1.727467350785133
 30
0.0
 10
3.446086881185682
 20
-1.716082486652994
 30
0.0
 10
3.148670010581574
 20
-1.685328946768945
 30
0.0
 10
2.999178982184034
 20
-1.665975326183837
 30
0.0
 10
2.85045739561159
 20
-1.642845445357676
 30
0.0
  0
SPLINE
  5
B1
330
1F
100
AcDbEntity
  8
외형선
  6
Continuous
370
    15
100
AcDbSpline
210
0.0
220
0.0
230
1.0
 70
    24
 71
     3
 72
    14
 73
    10
 74
     0
 42
0.000000001
 43
0.00000001
 40
0.0
 40
0.0
 40
0.0
 40
0.0
 40
0.25
 40
0.25
 40
0.5
 40
0.5
 40
0.75
 40
0.75
 40
1.0
 40
1.0
 40
1.0
 40
1.0
 10
3.740578832126904
 20
0.1667049191575652
 30
0.0
 10
3.740578832126904
 20
-0.0255747768354917
 30
0.0
 10
3.740578832126904
 20
-0.2215230476958664
 30
0.0
 10
3.740578832126904
 20
-0.6020332723139358
 30
0.0
 10
3.740578832126907
 20
-0.7863881040025253
 30
0.0
 10
3.740578832126907
 20
-1.12435550609174
 30
0.0
 10
3.740578832126904
 20
-1.277787993330715
 30
0.0
 10
3.740578832126904
 20
-1.54047409438645
 30
0.0
 10
3.740578832126904
 20
-1.649686076473141
 30
0.0
 10
3.740578832126904
 20
-1.734885272924869
 30
0.0
  0
SPLINE
  5
B2
330
1F
100
AcDbEntity
  8
0
  6
Continuous
 62
     1
370
    15
100
AcDbSpline
210
0.0
220
0.0
230
1.0
 70
     8
 71
     3
 72
    26
 73
    22
 74
     0
 42
0.000000001
 43
0.00000001
 40
0.0
 40
0.0
 40
0.0
 40
0.0
 40
0.1250000000000001
 40
0.1250000000000001
 40
0.2500000000000002
 40
0.2500000000000002
 40
0.3125000000000003
 40
0.3125000000000003
 40
0.3750000000000004
 40
0.3750000000000004
 40
0.5000000000000002
 40
0.5000000000000002
 40
0.6250000000000001
 40
0.6250000000000001
 40
0.7499999999999999
 40
0.7499999999999999
 40
0.8125
 40
0.8125
 40
0.875
 40
0.875
 40
1.0
 40
1.0
 40
1.0
 40
1.0
 10
10.09057883212697
 20
-2.070285062396362
 30
0.0
 10
9.828725028564499
 20
-2.022267464160125
 30
0.0
 10
9.56092921905983
 20
-1.958613904875683
 30
0.0
 10
9.03092914252341
 20
-1.80385135858282
 30
0.0
 10
8.769349929748628
 20
-1.713001033024876
 30
0.0
 10
8.370522339915938
 20
-1.558131181310883
 30
0.0
 10
8.237491466905233
 20
-1.503521284030566
 30
0.0
 10
7.973443772575386
 20
-1.389268205087505
 30
0.0
 10
7.842962411810067
 20
-1.329721635237514
 30
0.0
 10
7.446236988318999
 20
-1.143300688225989
 30
0.0
 10
7.178235141620194
 20
-1.009063623521111
 30
0.0
 10
6.652714334444587
 20
-0.729557153400927
 30
0.0
 10
6.386933867458554
 20
-0.5828676590200282
 30
0.0
 10
5.856133218792387
 20
-0.2831752772076166
 30
0.0
 10
5.594990189453503
 20
-0.1309463958889668
 30
0.0
 10
5.196338754809734
 20
0.0984991376780871
 30
0.0
 10
5.063186004292453
 20
0.1749933111653015
 30
0.0
 10
4.798540025707434
 20
0.3267451399574043
 30
0.0
 10
4.667998042188895
 20
0.4018238600802461
 30
0.0
 10
4.272220323023998
 20
0.6252371760098585
 30
0.0
 10
4.004132965929919
 20
0.7714401354346239
 30
0.0
 10
3.740578832122258
 20
0.910127370543429
 30
0.0
1001
PE_URL
1000

  0
SPLINE
  5
B3
330
1F
100
AcDbEntity
  8
0
  6
Continuous
 62
     1
370
    15
100
AcDbSpline
210
0.0
220
0.0
230
1.0
 70
     8
 71
     3
 72
    14
 73
    10
 74
     0
 42
0.000000001
 43
0.00000001
 40
0.0
 40
0.0
 40
0.0
 40
0.0
 40
0.1596555373226294
 40
0.3191313066387507
 40
0.4785129223641143
 40
0.6378869608659509
 40
0.7973400760966811
 40
0.9569581135678579
 40
1.0
 40
1.0
 40
1.0
 40
1.0
 10
10.09057883212697
 20
-1.721103592092353
 30
0.0
 10
9.788594992101391
 20
-1.656480887331003
 30
0.0
 10
9.18496733804515
 20
-1.527308241302792
 30
0.0
 10
8.280084560542099
 20
-1.21991690634162
 30
0.0
 10
7.375798578555967
 20
-0.8502337589123307
 30
0.0
 10
6.471563631515757
 20
-0.4293956343620401
 30
0.0
 10
5.56682274461823
 20
0.0127691323393887
 30
0.0
 10
4.881935116948309
 20
0.3547008068456359
 30
0.0
 10
4.498609656766556
 20
0.528376347902657
 30
0.0
 10
4.417197157413385
 20
0.5652623921201773
 30
0.0
1001
PE_URL
1000

  0
LINE
  5
B4
330
1F
100
AcDbEntity
  8
0
  6
Continuous
 62
     1
370
    15
100
AcDbLine
 10
10.09057883212693
 20
-2.070285062396363
 30
0.0
 11
10.09057883212697
 21
-1.721103592092353
 31
0.0
1001
PE_URL
1000

  0
SPLINE
  5
B5
330
1F
100
AcDbEntity
  8
0
  6
Continuous
 62
     1
370
    15
100
AcDbSpline
210
0.0
220
0.0
230
1.0
 70
     8
 71
     3
 72
    26
 73
    22
 74
     0
 42
0.000000001
 43
0.00000001
 40
0.0
 40
0.0
 40
0.0
 40
0.0
 40
0.1249999999999999
 40
0.1249999999999999
 40
0.1874999999999999
 40
0.1874999999999999
 40
0.2499999999999999
 40
0.2499999999999999
 40
0.3749999999999998
 40
0.3749999999999998
 40
0.4999999999999998
 40
0.4999999999999998
 40
0.6249999999999998
 40
0.6249999999999998
 40
0.6874999999999999
 40
0.6874999999999999
 40
0.75
 40
0.75
 40
0.875
 40
0.875
 40
1.0
 40
1.0
 40
1.0
 40
1.0
 10
3.740578832127001
 20
0.3266859252456962
 30
0.0
 10
4.00413296593452
 20
0.1758473704231233
 30
0.0
 10
4.272220323028396
 20
0.021745838810539
 30
0.0
 10
4.667998042192925
 20
-0.2067413502914461
 30
0.0
 10
4.798540025711386
 20
-0.282398066332735
 30
0.0
 10
5.063186004296242
 20
-0.4330754894255109
 30
0.0
 10
5.196338754813425
 20
-0.5079105435572143
 30
0.0
 10
5.594990189456881
 20
-0.7290399534886921
 30
0.0
 10
5.856133218795557
 20
-0.8713268849758996
 30
0.0
 10
6.386933867461357
 20
-1.142567117197284
 30
0.0
 10
6.652714334447117
 20
-1.270773587431732
 30
0.0
 10
7.178235141622393
 20
-1.505844226984199
 30
0.0
 10
7.446236988321001
 20
-1.613881074764532
 30
0.0
 10
7.842962411811747
 20
-1.756279084233204
 30
0.0
 10
7.973443772576962
 20
-1.800410182750951
 30
0.0
 10
8.237491466906627
 20
-1.882264712782551
 30
0.0
 10
8.370522339917231
 20
-1.919908003125065
 30
0.0
 10
8.769349929749625
 20
-2.021981852928743
 30
0.0
 10
9.0309291425242
 20
-2.075296528335865
 30
0.0
 10
9.560929219060231
 20
-2.15124706634558
 30
0.0
 10
9.828725028564698
 20
-2.173635730529648
 30
0.0
 10
10.09057883212697
 20
-2.179892691394563
 30
0.0
1001
PE_URL
1000

  0
SPLINE
  5
B6
330
1F
100
AcDbEntity
  8
0
  6
Continuous
 62
     1
370
    15
100
AcDbSpline
210
0.0
220
0.0
230
1.0
 70
     8
 71
     3
 72
     9
 73
     5
 74
     0
 42
0.000000001
 43
0.00000001
 40
0.0
 40
0.0
 40
0.0
 40
0.0
 40
0.022720890293932
 40
1.0
 40
1.0
 40
1.0
 40
1.0
 10
4.672853573497004
 20
-0.2085236642217321
 30
0.0
 10
4.66579327025244
 20
-0.2057698264901948
 30
0.0
 10
4.355052663118252
 20
-0.0845669292484083
 30
0.0
 10
4.044285291948974
 20
0.0425126758374417
 30
0.0
 10
3.740578832126969
 20
0.1667049191575398
 30
0.0
1001
PE_URL
1000

  0
SPLINE
  5
B7
330
1F
100
AcDbEntity
  8
외형선
  6
Continuous
370
    15
100
AcDbSpline
210
0.0
220
0.0
230
1.0
 70
    24
 71
     3
 72
    10
 73
     6
 74
     0
 42
0.000000001
 43
0.00000001
 40
0.0
 40
0.0
 40
0.0
 40
0.0
 40
0.5009556198213057
 40
0.749696392786005
 40
1.0
 40
1.0
 40
1.0
 40
1.0
 10
3.740578832126966
 20
0.2916980341624267
 30
0.0
 10
3.740578832126966
 20
0.2757366109711951
 30
0.0
 10
3.740578832126962
 20
0.2518498215696398
 30
0.0
 10
3.740578832126962
 20
0.206184817855638
 30
0.0
 10
3.740578832126962
 20
0.1798923317123267
 30
0.0
 10
3.740578832126962
 20
0.16670491915808
 30
0.0
  0
LINE
  5
B8
330
1F
100
AcDbEntity
  8
0
  6
Continuous
 62
     1
370
    15
100
AcDbLine
 10
10.09057883212697
 20
-2.179892691394563
 30
0.0
 11
10.09057883212689
 21
-2.07028506239636
 31
0.0
1001
PE_URL
1000

  0
SPLINE
  5
B9
330
1F
100
AcDbEntity
  8
0
  6
Continuous
 62
     1
370
    15
100
AcDbSpline
210
0.0
220
0.0
230
1.0
 70
     8
 71
     3
 72
     8
 73
     4
 74
     0
 42
0.000000001
 43
0.00000001
 40
0.0
 40
0.0
 40
0.0
 40
0.0
 40
1.0
 40
1.0
 40
1.0
 40
1.0
 10
8.739349207432774
 20
0.6122767553435702
 30
0.0
 10
8.66202902336137
 20
0.7038978278167374
 30
0.0
 10
8.592996548591657
 20
0.7921107289930419
 30
0.0
 10
8.53422290985107
 20
0.8761048684800694
 30
0.0
1001
PE_URL
1000

  0
LINE
  5
BA
330
1F
100
AcDbEntity
  8
0
  6
Continuous
 62
     1
370
    15
100
AcDbLine
 10
8.561838405917173
 20
0.8992770210439133
 30
0.0
 11
10.09057883212697
 21
0.0010749287238945
 31
0.0
1001
PE_URL
1000

  0
LINE
  5
BB
330
1F
100
AcDbEntity
  8
0
  6
Continuous
 62
     1
370
    15
100
AcDbLine
 10
10.09057883212697
 20
0.0010749287238945
 30
0.0
 11
10.09057883212697
 21
-0.5822663144064398
 31
0.0
1001
PE_URL
1000

  0
SPLINE
  5
BC
330
1F
100
AcDbEntity
  8
0
  6
Continuous
 62
     1
370
    15
100
AcDbSpline
210
0.0
220
0.0
230
1.0
 70
     8
 71
     3
 72
    10
 73
     6
 74
     0
 42
0.000000001
 43
0.00000001
 40
0.0
 40
0.0
 40
0.0
 40
0.0
 40
0.5
 40
0.5
 40
1.0
 40
1.0
 40
1.0
 40
1.0
 10
10.09057883212697
 20
-0.5822663144064403
 30
0.0
 10
9.856668486121876
 20
-0.3983716333151467
 30
0.0
 10
9.626668811632136
 20
-0.2069323498113152
 30
0.0
 10
9.174682245064789
 20
0.191404753481004
 30
0.0
 10
8.950593883214946
 20
0.4004083128425659
 30
0.0
 10
8.73934920743277
 20
0.6122767553435706
 30
0.0
1001
PE_URL
1000

  0
SPLINE
  5
BD
330
1F
100
AcDbEntity
  8
0
  6
Continuous
 62
     1
370
    15
100
AcDbSpline
210
0.0
220
0.0
230
1.0
 70
     8
 71
     3
 72
    20
 73
    16
 74
     0
 42
0.000000001
 43
0.00000001
 40
0.0
 40
0.0
 40
0.0
 40
0.0
 40
0.1250000000000001
 40
0.1250000000000001
 40
0.2500000000000002
 40
0.2500000000000002
 40
0.5
 40
0.5
 40
0.6249999999999999
 40
0.6249999999999999
 40
0.7499999999999998
 40
0.7499999999999998
 40
0.8749999999999999
 40
0.8749999999999999
 40
1.0
 40
1.0
 40
1.0
 40
1.0
 10
8.739349207426189
 20
0.6122767553464155
 30
0.0
 10
8.530868050302377
 20
0.7023988511102738
 30
0.0
 10
8.320553000238217
 20
0.7899799840714807
 30
0.0
 10
7.904819405336502
 20
0.9565132334274642
 30
0.0
 10
7.698750501457116
 20
1.035590077930796
 30
0.0
 10
7.071265653383691
 20
1.258790441658144
 30
0.0
 10
6.657953446352339
 20
1.386663912938687
 30
0.0
 10
6.030320243463999
 20
1.538256401889029
 30
0.0
 10
5.823904563946739
 20
1.581790207115808
 30
0.0
 10
5.408600174579844
 20
1.654344598599174
 30
0.0
 10
5.198319650723169
 20
1.683380785889011
 30
0.0
 10
4.781061621213665
 20
1.725718229454509
 30
0.0
 10
4.575754491796459
 20
1.739053564674733
 30
0.0
 10
4.158230109206739
 20
1.749973013883923
 30
0.0
 10
3.948000132862687
 20
1.747446236261216
 30
0.0
 10
3.740578832616096
 20
1.737035130397211
 30
0.0
1001
PE_URL
1000

  0
SPLINE
  5
BE
330
1F
100
AcDbEntity
  8
0
  6
Continuous
 62
     1
370
    15
100
AcDbSpline
210
0.0
220
0.0
230
1.0
 70
    24
 71
     3
 72
    10
 73
     6
 74
     0
 42
0.000000001
 43
0.00000001
 40
0.0
 40
0.0
 40
0.0
 40
0.0
 40
0.5
 40
0.5
 40
1.0
 40
1.0
 40
1.0
 40
1.0
 10
10.09057883212697
 20
-1.721103592092353
 30
0.0
 10
10.09057883212697
 20
-1.589085181335974
 30
0.0
 10
10.09057883212697
 20
-1.422274857240695
 30
0.0
 10
10.09057883212697
 20
-1.0344569074222
 30
0.0
 10
10.09057883212697
 20
-0.8137852243115432
 30
0.0
 10
10.09057883212697
 20
-0.58226631440651
 30
0.0
1001
PE_URL
1000

  0
SPLINE
  5
BF
330
1F
100
AcDbEntity
  8
외형선
  6
Continuous
370
    15
100
AcDbSpline
210
0.0
220
0.0
230
1.0
 70
    24
 71
     3
 72
    13
 73
     9
 74
     0
 42
0.000000001
 43
0.00000001
 40
0.0
 40
0.0
 40
0.0
 40
0.0
 40
0.1339944315553628
 40
0.2697530175177424
 40
0.4659290689357323
 40
0.6677942391347537
 40
0.8442354136431404
 40
1.0
 40
1.0
 40
1.0
 40
1.0
 10
3.740578832126966
 20
1.737035130372659
 30
0.0
 10
3.740578832126966
 20
1.733392490399464
 30
0.0
 10
3.740578832126962
 20
1.726059251897728
 30
0.0
 10
3.740578832126966
 20
1.668004154376641
 30
0.0
 10
3.740578832126962
 20
1.555073303096603
 30
0.0
 10
3.740578832126966
 20
1.370708095836779
 30
0.0
 10
3.740578832126962
 20
1.15437842853222
 30
0.0
 10
3.740578832126962
 20
0.9880945364390851
 30
0.0
 10
3.740578832126962
 20
0.910127370540953
 30
0.0
  0
SPLINE
  5
C0
330
1F
100
AcDbEntity
  8
0
  6
Continuous
 62
     1
370
    15
100
AcDbSpline
210
0.0
220
0.0
230
1.0
 70
    24
 71
     3
 72
     8
 73
     4
 74
     0
 42
0.000000001
 43
0.00000001
 40
0.0
 40
0.0
 40
0.0
 40
0.0
 40
1.0
 40
1.0
 40
1.0
 40
1.0
 10
8.762170878797187
 20
1.067375925150377
 30
0.0
 10
8.690329732613474
 20
1.007094045884268
 30
0.0
 10
8.613775547022765
 20
0.942857456989981
 30
0.0
 10
8.534222909851096
 20
0.8761048684800514
 30
0.0
1001
PE_URL
1000

  0
LINE
  5
C1
330
1F
100
AcDbEntity
  8
0
  6
Continuous
 62
     1
370
    15
100
AcDbLine
 10
10.09057883212697
 20
1.529043678723894
 30
0.0
 11
9.281999436770477
 21
1.490137876220282
 31
0.0
1001
PE_URL
1000

  0
SPLINE
  5
C2
330
1F
100
AcDbEntity
  8
0
  6
Continuous
 62
     1
370
    15
100
AcDbSpline
210
0.0
220
0.0
230
1.0
 70
     8
 71
     3
 72
     8
 73
     4
 74
     0
 42
0.000000001
 43
0.00000001
 40
0.0
 40
0.0
 40
0.0
 40
0.0
 40
1.0
 40
1.0
 40
1.0
 40
1.0
 10
10.09057883212697
 20
1.529043678723895
 30
0.0
 10
9.641528181043718
 20
1.407128892030067
 30
0.0
 10
9.19683772127041
 20
1.257490658228362
 30
0.0
 10
8.762170878796626
 20
1.06737592515071
 30
0.0
1001
PE_URL
1000

  0
SPLINE
  5
C3
330
1F
100
AcDbEntity
  8
0
  6
Continuous
 62
     1
370
    15
100
AcDbSpline
210
0.0
220
0.0
230
1.0
 70
     8
 71
     3
 72
     9
 73
     5
 74
     0
 42
0.000000001
 43
0.00000001
 40
0.0
 40
0.0
 40
0.0
 40
0.0
 40
0.4645541654052446
 40
1.0
 40
1.0
 40
1.0
 40
1.0
 10
5.460400214203631
 20
-1.636728765968072
 30
0.0
 10
5.19409638844362
 20
-1.674398793133606
 30
0.0
 10
4.620850369806144
 20
-1.75548735065988
 30
0.0
 10
4.047550083103161
 20
-1.742069698766028
 30
0.0
 10
3.740578832616071
 20
-1.734885272949422
 30
0.0
1001
PE_URL
1000

  0
SPLINE
  5
C4
330
1F
100
AcDbEntity
  8
외형선
  6
Continuous
370
    15
100
AcDbSpline
210
0.0
220
0.0
230
1.0
 70
    24
 71
     3
 72
    14
 73
    10
 74
     0
 42
0.000000001
 43
0.00000001
 40
0.0
 40
0.0
 40
0.0
 40
0.0
 40
0.25
 40
0.25
 40
0.5
 40
0.5
 40
0.75
 40
0.75
 40
1.0
 40
1.0
 40
1.0
 40
1.0
 10
3.740578832126904
 20
0.1667049191575652
 30
0.0
 10
3.740578832126904
 20
-0.0255747768354917
 30
0.0
 10
3.740578832126904
 20
-0.2215230476958664
 30
0.0
 10
3.740578832126904
 20
-0.6020332723139358
 30
0.0
 10
3.740578832126907
 20
-0.7863881040025253
 30
0.0
 10
3.740578832126907
 20
-1.12435550609174
 30
0.0
 10
3.740578832126904
 20
-1.277787993330715
 30
0.0
 10
3.740578832126904
 20
-1.54047409438645
 30
0.0
 10
3.740578832126904
 20
-1.649686076473141
 30
0.0
 10
3.740578832126904
 20
-1.734885272924869
 30
0.0
  0
LINE
  5
C5
330
1F
100
AcDbEntity
  8
0
  6
Continuous
 62
     1
370
    15
100
AcDbLine
 10
10.09057883212697
 20
0.0010749287238945
 30
0.0
 11
10.09057883212697
 21
1.529043678723894
 31
0.0
1001
PE_URL
1000

  0
SPLINE
  5
C6
330
1F
100
AcDbEntity
  8
0
  6
Continuous
 62
     1
370
    15
100
AcDbSpline
210
0.0
220
0.0
230
1.0
 70
    24
 71
     3
 72
    10
 73
     6
 74
     0
 42
0.000000001
 43
0.00000001
 40
0.0
 40
0.0
 40
0.0
 40
0.0
 40
0.5
 40
0.5
 40
1.0
 40
1.0
 40
1.0
 40
1.0
 10
10.09057883212697
 20
1.529043678723893
 30
0.0
 10
10.09057883212697
 20
1.621665339286108
 30
0.0
 10
10.09057883212697
 20
1.729300286547897
 30
0.0
 10
10.09057883212697
 20
1.95511811600876
 30
0.0
 10
10.09057883212697
 20
2.072724287809295
 30
0.0
 10
10.09057883212697
 20
2.18204254884235
 30
0.0
1001
PE_URL
1000

  0
SPLINE
  5
C7
330
1F
100
AcDbEntity
  8
0
  6
Continuous
 62
     1
370
    15
100
AcDbSpline
210
0.0
220
0.0
230
1.0
 70
     8
 71
     3
 72
    14
 73
    10
 74
     0
 42
0.000000001
 43
0.00000001
 40
0.0
 40
0.0
 40
0.0
 40
0.0
 40
0.0814751808540341
 40
0.1869711733598833
 40
0.3872427890908635
 40
0.5882313713991935
 40
0.6780369995636195
 40
0.8451989602521965
 40
1.0
 40
1.0
 40
1.0
 40
1.0
 10
7.086865637733524
 20
1.464503699502443
 30
0.0
 10
7.168447369684159
 20
1.4991684935494
 30
0.0
 10
7.355663059022348
 20
1.578718083366818
 30
0.0
 10
7.743792235368794
 20
1.726341030545252
 30
0.0
 10
8.250262284674722
 20
1.895502697113581
 30
0.0
 10
8.743048951041809
 20
2.018096205558209
 30
0.0
 10
9.200580741913537
 20
2.104764324412229
 30
0.0
 10
9.613475813125763
 20
2.160814164036575
 30
0.0
 10
9.935667728974739
 20
2.175149881268612
 30
0.0
 10
10.09057883212683
 20
2.182042548842347
 30
0.0
1001
PE_URL
1000

  0
LINE
  5
C8
330
1F
100
AcDbEntity
  8
중심선
 62
     1
100
AcDbLine
 10
-43.70942116787306
 20
0.0010749287238892
 30
0.0
 11
13.09057883212695
 21
0.0010749287238962
 31
0.0
  0
LINE
  5
C9
330
1F
100
AcDbEntity
  8
참조1
100
AcDbLine
 10
-15.30942116787305
 20
0.0010749287238892
 30
0.0
 11
-15.30942116787305
 21
-39.99892507127611
 31
0.0
  0
LINE
  5
CA
330
1F
100
AcDbEntity
  8
참조1
100
AcDbLine
 10
-15.30942116787305
 20
-39.99892507127611
 30
0.0
 11
-36.12513676457226
 21
-39.9989250712761
 31
0.0
  0
CIRCLE
  5
CB
330
1F
100
AcDbEntity
  8
해칭선
100
AcDbCircle
 10
-15.30942116787305
 20
0.0010749287238927
 30
0.0
 40
3.000000000000001
  0
INSERT
  5
CC
330
1F
100
AcDbEntity
  8
0
  6
Continuous
 62
     7
100
AcDbBlockReference
 66
     1
  2
블럭10
 10
-29.24969409999825
 20
-52.04609937292004
 30
0.0
  0
ATTRIB
  5
CD
330
CC
100
AcDbEntity
  8
FORMAT
 62
     2
100
AcDbText
 10
-38.43098938873953
 20
-49.97073246008785
 30
0.0
 40
4.233333333333333
  1
E1001011 [ 2 FLUTE ]
 41
0.75
  7
SLDTEXTSTYLE0
 11
-38.43098938873953
 21
-52.08739912675452
 31
0.0
100
AcDbAttribute
  2
AUTOATTR0
 70
     0
 74
     1
  0
SEQEND
  5
CE
330
CC
100
AcDbEntity
  8
0
  6
Continuous
 62
     7
  0
HATCH
  5
CF
330
1F
100
AcDbEntity
  8
중심선
100
AcDbHatch
 10
0.0
 20
0.0
 30
0.0
210
0.0
220
0.0
230
1.0
  2
SOLID
 70
     1
 71
     0
 91
        1
 92
        0
 93
        4
 72
     1
 10
-23.5347847956174
 20
-35.7989250712761
 11
-26.98106003945468
 21
-35.7989250712761
 72
     1
 10
-26.98106003945468
 20
-35.7989250712761
 11
-29.10928989865871
 21
-38.3352506518487
 72
     1
 10
-29.10928989865871
 20
-38.3352506518487
 11
-25.66298156970828
 21
-38.33521122254621
 72
     1
 10
-25.66298156970828
 20
-38.33521122254621
 11
-23.5347847956174
 21
-35.7989250712761
 97
        0
 75
     0
 76
     1
 98
        1
 10
-6.66520948914253
 20
0.0
  0
HATCH
  5
D0
330
1F
100
AcDbEntity
  8
중심선
100
AcDbHatch
 10
0.0
 20
0.0
 30
0.0
210
0.0
220
0.0
230
1.0
  2
SOLID
 70
     1
 71
     0
 91
        1
 92
        0
 93
        4
 72
     1
 10
-18.52202080458145
 20
-35.7989250712761
 11
-21.96829604841874
 21
-35.7989250712761
 72
     1
 10
-21.96829604841873
 20
-35.7989250712761
 11
-26.49943405677612
 21
-41.19892507127612
 72
     1
 10
-26.49943405677612
 20
-41.19892507127612
 11
-23.05315881293884
 21
-41.19892507127612
 72
     1
 10
-23.05315881293884
 20
-41.19892507127612
 11
-18.52202080458145
 21
-35.7989250712761
 97
        0
 75
     0
 76
     1
 98
        1
 10
-6.66520948914253
 20
0.0
  0
HATCH
  5
D1
330
1F
100
AcDbEntity
  8
중심선
100
AcDbHatch
 10
0.0
 20
0.0
 30
0.0
210
0.0
220
0.0
230
1.0
  2
SOLID
 70
     1
 71
     0
 91
        1
 92
        0
 93
        4
 72
     1
 10
-13.50925681354556
 20
-35.7989250712761
 11
-16.95553205738264
 21
-35.7989250712761
 72
     1
 10
-16.95553205738264
 20
-35.7989250712761
 11
-24.00396895927192
 21
-44.19892507127612
 72
     1
 10
-24.00396895927192
 20
-44.19892507127612
 11
-20.55769371543464
 21
-44.19892507127612
 72
     1
 10
-20.55769371543464
 20
-44.19892507127612
 11
-13.50925681354556
 21
-35.7989250712761
 97
        0
 75
     0
 76
     1
 98
        1
 10
-6.66520948914253
 20
0.0
  0
HATCH
  5
D2
330
1F
100
AcDbEntity
  8
중심선
100
AcDbHatch
 10
0.0
 20
0.0
 30
0.0
210
0.0
220
0.0
230
1.0
  2
SOLID
 70
     1
 71
     0
 91
        1
 92
        0
 93
        6
 72
     3
 10
-8.709366382533355
 20
-39.99892507132738
 11
3.960054785062284
 21
1.540882976769353E-10
 40
0.3939339440162627
 50
17.09539180608436
 51
320.0019657685077
 73
     0
 72
     1
 10
-7.026366726832787
 20
-38.58681907591441
 11
-4.721064853131693
 21
-36.65249236586646
 72
     3
 10
-8.709366382586202
 20
-39.99892507127625
 11
6.600054785286829
 21
-1.278976924368180E-13
 40
0.636358354079598
 50
39.99873849337413
 51
368.4976242363724
 73
     1
 72
     1
 10
-2.284033890685592
 20
-39.03892507120613
 11
-10.02929907575028
 21
-39.03892507120613
 72
     1
 10
-10.02929907575028
 20
-39.03892507120613
 11
-10.02932412019621
 21
-40.95892507120602
 72
     1
 10
-10.02932412019621
 20
-40.95892507120602
 11
-5.587944350724176
 21
-40.95892507120599
 97
        0
 75
     0
 76
     1
 98
        1
 10
-6.66520948914253
 20
0.0
  0
DIMENSION
  5
D3
330
1F
100
AcDbEntity
  8
치수문자_일반주서
100
AcDbDimension
  2
_D
 10
-50.70942116787302
 20
-2.380175071276174
 30
0.0
 11
-50.7094211678731
 21
22.98632492872386
 31
0.0
 70
   160
  1
%%c<>
 71
     2
 42
4.762499999999998
 52
-270.0
  3
SLDDIMSTYLE0
100
AcDbAlignedDimension
 13
-32.61884233574612
 23
2.38232492872389
 33
0.0
 14
-32.61884233574612
 24
-2.380175071276108
 34
0.0
 50
90.0000000000002
100
AcDbRotatedDimension
1001
PE_URL
1000

1001
ACAD
1000
DSTYLE
1002
{
1070
   171
1070
     8
1070
   273
1070
     7
1002
}
  0
DIMENSION
  5
E8
330
1F
100
AcDbEntity
  8
치수문자_일반주서
100
AcDbDimension
  2
_D_1
 10
45.82644876724162
 20
2.182042548842482
 30
0.0
 11
45.82644876724154
 21
23.66104254884248
 31
0.0
 70
   160
  1
%%c<>
 71
     2
 42
4.361935240236914
 52
-270.0
  3
SLDDIMSTYLE0
100
AcDbAlignedDimension
 13
10.09057883212697
 23
-2.179892691394563
 33
0.0
 14
10.09057883212697
 24
2.18204254884235
 34
0.0
 50
90.0000000000002
100
AcDbRotatedDimension
1001
PE_URL
1000

1001
ACAD
1000
DSTYLE
1002
{
1070
   171
1070
     8
1070
   273
1070
     7
1002
}
  0
DIMENSION
  5
FC
330
1F
100
AcDbEntity
  8
치수문자_일반주서
100
AcDbDimension
  2
_D_2
 10
3.74057883261607
 20
12.38232492872387
 30
0.0
 11
28.06957883212696
 21
12.38232492872387
 31
0.0
 70
   160
  1
<>
 71
     2
 42
6.349999999510894
  3
SLDDIMSTYLE0
100
AcDbAlignedDimension
 13
10.09057883212697
 23
2.18204254884235
 33
0.0
 14
3.740578832616071
 24
1.737035130397209
 34
0.0
100
AcDbRotatedDimension
1001
PE_URL
1000

1001
ACAD
1000
DSTYLE
1002
{
1070
   171
1070
     8
1070
   273
1070
     7
1002
}
  0
DIMENSION
  5
111
330
1F
100
AcDbEntity
  8
치수문자_일반주서
100
AcDbDimension
  2
_D_3
 10
10.09057883212697
 20
22.38232492872388
 30
0.0
 11
-15.30942116787304
 21
22.38232492872388
 31
0.0
 70
   160
  1
<>
 71
     2
 42
50.8
  3
SLDDIMSTYLE0
100
AcDbAlignedDimension
 13
-40.70942116787303
 23
1.952324928723889
 33
0.0
 14
10.09057883212697
 24
2.18204254884235
 34
0.0
100
AcDbRotatedDimension
1001
PE_URL
1000

1001
ACAD
1000
DSTYLE
1002
{
1070
   171
1070
     8
1070
   273
1070
     7
1002
}
  0
LINE
  5
125
330
1F
100
AcDbEntity
  8
참조1
100
AcDbLine
 10
61.84720386508201
 20
7.441074928723896
 30
0.0
 11
61.84720386508201
 21
-7.438925071276109
 31
0.0
  0
LINE
  5
126
330
1F
100
AcDbEntity
  8
참조1
100
AcDbLine
 10
74.54720386508201
 20
5.441074928723896
 30
0.0
 11
61.84720386508201
 21
5.441074928723896
 31
0.0
  0
SOLID
  5
127
330
1F
100
AcDbEntity
  8
참조1
100
AcDbTrace
 10
61.84720386508201
 20
5.441074928723896
 30
0.0
 11
68.197203865082
 21
4.425074928723896
 31
0.0
 12
68.197203865082
 22
6.457074928723896
 32
0.0
 13
68.197203865082
 23
6.457074928723896
 33
0.0
  0
LINE
  5
128
330
1F
100
AcDbEntity
  8
참조1
100
AcDbLine
 10
74.54720386508201
 20
-5.438925071276109
 30
0.0
 11
61.84720386508201
 21
-5.438925071276109
 31
0.0
  0
SOLID
  5
129
330
1F
100
AcDbEntity
  8
참조1
100
AcDbTrace
 10
61.84720386508201
 20
-5.438925071276109
 30
0.0
 11
68.197203865082
 21
-6.454925071276109
 31
0.0
 12
68.197203865082
 22
-4.422925071276109
 32
0.0
 13
68.197203865082
 23
-4.422925071276109
 33
0.0
  0
MTEXT
  5
12A
330
1F
100
AcDbEntity
  8
참조1
100
AcDbMText
 10
71.231553997708
 20
11.01136670591222
 30
0.0
 40
3.5
 41
0.0
 71
     1
 72
     1
  1
A
  7
SLDTEXTSTYLE0
 73
     1
 44
1.0
  0
MTEXT
  5
12B
330
1F
100
AcDbEntity
  8
참조1
100
AcDbMText
 10
71.231553997708
 20
0.1313667059122192
 30
0.0
 40
3.5
 41
0.0
 71
     1
 72
     1
  1
A
  7
SLDTEXTSTYLE0
 73
     1
 44
1.0
  0
INSERT
  5
132
330
1F
100
AcDbEntity
  8
해칭선
100
AcDbBlockReference
  2
SW_DOWELSYMBOL_0
 10
-15.30942116787305
 20
0.0010749287238927
 30
0.0
  0
LINE
  5
239
330
1F
100
AcDbEntity
  8
외형선
  6
Continuous
370
    15
100
AcDbLine
 10
-32.61884233574612
 20
2.382324928723889
 30
0.0
 11
-33.35942116787307
 21
2.183887428723889
 31
0.0
  0
LINE
  5
23A
330
1F
100
AcDbEntity
  8
외형선
  6
Continuous
370
    15
100
AcDbLine
 10
-33.35942116787307
 20
-2.181737571276109
 30
0.0
 11
-32.61884233574612
 21
-2.38017507127611
 31
0.0
  0
LINE
  5
23B
330
1F
100
AcDbEntity
  8
외형선
  6
Continuous
370
    15
100
AcDbLine
 10
-33.46933333890648
 20
-2.181737571276109
 30
0.0
 11
-33.35942116787307
 21
-2.181737571276109
 31
0.0
  0
LINE
  5
23C
330
1F
100
AcDbEntity
  8
외형선
  6
Continuous
370
    15
100
AcDbLine
 10
-33.35942116787307
 20
2.183887428723889
 30
0.0
 11
-33.46933333890648
 21
2.183887428723889
 31
0.0
  0
SPLINE
  5
23D
330
1F
100
AcDbEntity
  8
외형선
  6
Continuous
370
    15
100
AcDbSpline
210
0.0
220
0.0
230
1.0
 70
     8
 71
     3
 72
    11
 73
     7
 74
     0
 42
0.000000001
 43
0.00000001
 40
0.0
 40
0.0
 40
0.0
 40
0.0
 40
0.2459372465768251
 40
0.6710156579713398
 40
0.8454243764888604
 40
1.0
 40
1.0
 40
1.0
 40
1.0
 10
-33.91746754494333
 20
-1.702058048771228
 30
0.0
 10
-33.88799419581352
 20
-1.703746242448862
 30
0.0
 10
-33.80757905319386
 20
-1.708352313335432
 30
0.0
 10
-33.68213606189465
 20
-1.708226255088402
 30
0.0
 10
-33.55481866095171
 20
-1.706228102291931
 30
0.0
 10
-33.49295434536015
 20
-1.705413722521193
 30
0.0
 10
-33.46388695845447
 20
-1.705031080417136
 30
0.0
  0
LINE
  5
23E
330
1F
100
AcDbEntity
  8
외형선
  6
Continuous
370
    15
100
AcDbLine
 10
-33.46388695845447
 20
1.707156945308462
 30
0.0
 11
-34.23713038698809
 21
1.729969918675813
 31
0.0
  0
LINE
  5
23F
330
1F
100
AcDbEntity
  8
0
  6
Continuous
 62
     1
370
    15
100
AcDbLine
 10
-35.05501777521346
 20
-0.5582315958919608
 30
0.0
 11
-34.49695721091823
 21
-0.8351444583565275
 31
0.0
1001
PE_URL
1000

  0
SPLINE
  5
240
330
1F
100
AcDbEntity
  8
0
  6
Continuous
 62
     1
370
    15
100
AcDbSpline
210
0.0
220
0.0
230
1.0
 70
     8
 71
     3
 72
    20
 73
    16
 74
     0
 42
0.000000001
 43
0.00000001
 40
0.0
 40
0.0
 40
0.0
 40
0.0
 40
0.1136455080819454
 40
0.2101864048586845
 40
0.2909251232591484
 40
0.3575069963697521
 40
0.4111189059482379
 40
0.4634882297762741
 40
0.5210085604832982
 40
0.5866986015514863
 40
0.6469361808611737
 40
0.7018458485770765
 40
0.7742907295404328
 40
0.8740151870721921
 40
1.0
 40
1.0
 40
1.0
 40
1.0
 10
-39.90162537252017
 20
-1.492208607920144
 30
0.0
 10
-39.76478402680092
 20
-1.480996744550996
 30
0.0
 10
-39.51169711665209
 20
-1.460260498190692
 30
0.0
 10
-39.14253026888122
 20
-1.442127684224133
 30
0.0
 10
-38.82061809475043
 20
-1.436028987070511
 30
0.0
 10
-38.5568688308478
 20
-1.434810503386458
 30
0.0
 10
-38.33386014293178
 20
-1.43723385565761
 30
0.0
 10
-38.12815186096627
 20
-1.442338993909829
 30
0.0
 10
-37.90407434172772
 20
-1.450927283873856
 30
0.0
 10
-37.66993888359058
 20
-1.463569409389699
 30
0.0
 10
-37.43863421963691
 20
-1.479852832805541
 30
0.0
 10
-37.19716599212742
 20
-1.500240476421585
 30
0.0
 10
-36.90668582667179
 20
-1.529206579520643
 30
0.0
 10
-36.52643453191672
 20
-1.574162217644108
 30
0.0
 10
-36.23835844583802
 20
-1.617684299639272
 30
0.0
 10
-36.07756216246116
 20
-1.641977149229479
 30
0.0
1001
PE_URL
1000

  0
SPLINE
  5
241
330
1F
100
AcDbEntity
  8
0
  6
Continuous
 62
     1
370
    15
100
AcDbSpline
210
0.0
220
0.0
230
1.0
 70
     8
 71
     3
 72
    13
 73
     9
 74
     0
 42
0.000000001
 43
0.00000001
 40
0.0
 40
0.0
 40
0.0
 40
0.0
 40
0.220802206811904
 40
0.421344304015247
 40
0.6061439996605289
 40
0.7628724608771302
 40
0.8885794537467153
 40
1.0
 40
1.0
 40
1.0
 40
1.0
 10
-36.07756216246116
 20
1.644127006677259
 30
0.0
 10
-36.1905903749893
 20
1.626426236159418
 30
0.0
 10
-36.40627569004742
 20
1.592648861639216
 30
0.0
 10
-36.73764553220863
 20
1.549135646387871
 30
0.0
 10
-37.04245171494755
 20
1.517313062939547
 30
0.0
 10
-37.30453516046916
 20
1.492913745784801
 30
0.0
 10
-37.52139236106329
 20
1.475661090088948
 30
0.0
 10
-37.64843785901985
 20
1.467872110254472
 30
0.0
 10
-37.70813349299683
 20
1.464212255346336
 30
0.0
1001
PE_URL
1000

  0
LINE
  5
242
330
1F
100
AcDbEntity
  8
외형선
  6
Continuous
370
    15
100
AcDbLine
 10
-32.61884233574612
 20
-2.38017507127611
 30
0.0
 11
-32.61884233574612
 21
2.382324928723889
 31
0.0
  0
LINE
  5
243
330
1F
100
AcDbEntity
  8
외형선
  6
Continuous
370
    15
100
AcDbLine
 10
-33.35942116787307
 20
-2.181737571276109
 30
0.0
 11
-33.35942116787307
 21
2.183887428723889
 31
0.0
  0
SPLINE
  5
244
330
1F
100
AcDbEntity
  8
외형선
  6
Continuous
370
    15
100
AcDbSpline
210
0.0
220
0.0
230
1.0
 70
     8
 71
     3
 72
    10
 73
     6
 74
     0
 42
0.000000001
 43
0.00000001
 40
0.0
 40
0.0
 40
0.0
 40
0.0
 40
0.5
 40
0.5
 40
1.0
 40
1.0
 40
1.0
 40
1.0
 10
-34.35942116787307
 20
-0.9079775130931687
 30
0.0
 10
-34.21162362782255
 20
-0.9857514105819405
 30
0.0
 10
-34.06490983900471
 20
-1.061249467888533
 30
0.0
 10
-33.76747328379476
 20
-1.20766919983377
 30
0.0
 10
-33.61797241222488
 20
-1.278370778124497
 30
0.0
 10
-33.46924128628134
 20
-1.345829692505433
 30
0.0
  0
LINE
  5
245
330
1F
100
AcDbEntity
  8
외형선
  6
Continuous
370
    15
100
AcDbLine
 10
-34.35942116787307
 20
-0.9079775130931687
 30
0.0
 11
-34.35942116787307
 21
-0.3245360677979328
 31
0.0
  0
SPLINE
  5
246
330
1F
100
AcDbEntity
  8
외형선
  6
Continuous
370
    15
100
AcDbSpline
210
0.0
220
0.0
230
1.0
 70
     8
 71
     3
 72
    10
 73
     6
 74
     0
 42
0.000000001
 43
0.00000001
 40
0.0
 40
0.0
 40
0.0
 40
0.0
 40
0.5
 40
0.5
 40
1.0
 40
1.0
 40
1.0
 40
1.0
 10
-33.46933333890648
 20
-0.818995887305924
 30
0.0
 10
-33.61804943991527
 20
-0.7395590959167748
 30
0.0
 10
-33.76753480808057
 20
-0.6580826176746086
 30
0.0
 10
-34.06494035924393
 20
-0.492742248168959
 30
0.0
 10
-34.21163887360806
 20
-0.4091155330230087
 30
0.0
 10
-34.3594211678731
 20
-0.3245360677979114
 30
0.0
  0
LINE
  5
247
330
1F
100
AcDbEntity
  8
외형선
  6
Continuous
370
    15
100
AcDbLine
 10
-33.46933333890648
 20
-1.345903307370932
 30
0.0
 11
-33.46933333890648
 21
-2.181737571276109
 31
0.0
  0
LINE
  5
248
330
1F
100
AcDbEntity
  8
외형선
  6
Continuous
370
    15
100
AcDbLine
 10
-33.46933333890648
 20
2.183887428723889
 30
0.0
 11
-33.46933333890648
 21
-0.8196869448699999
 31
0.0
  0
SPLINE
  5
249
330
1F
100
AcDbEntity
  8
외형선
  6
Continuous
370
    15
100
AcDbSpline
210
0.0
220
0.0
230
1.0
 70
    24
 71
     3
 72
    10
 73
     6
 74
     0
 42
0.000000001
 43
0.00000001
 40
0.0
 40
0.0
 40
0.0
 40
0.0
 40
0.5010032298337328
 40
0.7497202723412572
 40
1.0
 40
1.0
 40
1.0
 40
1.0
 10
-34.35942116787307
 20
-0.2895581767146425
 30
0.0
 10
-34.35942116787307
 20
-0.2735938024060616
 30
0.0
 10
-34.35942116787307
 20
-0.2497041060095739
 30
0.0
 10
-34.35942116787307
 20
-0.2040349984873799
 30
0.0
 10
-34.35942116787307
 20
-0.1777424869841902
 30
0.0
 10
-34.35942116787307
 20
-0.1645550617102955
 30
0.0
  0
SPLINE
  5
24A
330
1F
100
AcDbEntity
  8
외형선
  6
Continuous
370
    15
100
AcDbSpline
210
0.0
220
0.0
230
1.0
 70
     8
 71
     3
 72
    10
 73
     6
 74
     0
 42
0.000000001
 43
0.00000001
 40
0.0
 40
0.0
 40
0.0
 40
0.0
 40
0.4999999999999999
 40
0.4999999999999999
 40
1.0
 40
1.0
 40
1.0
 40
1.0
 10
-34.35942116787309
 20
-0.1645550617097484
 30
0.0
 10
-34.21163520143231
 20
-0.2240792662511915
 30
0.0
 10
-34.06493300799179
 20
-0.2830787534481765
 30
0.0
 10
-33.76751998903961
 20
-0.4000247447306293
 30
0.0
 10
-33.61803088664257
 20
-0.4578045356186777
 30
0.0
 10
-33.46931116663527
 20
-0.5142911718115108
 30
0.0
  0
LINE
  5
24B
330
1F
100
AcDbEntity
  8
외형선
  6
Continuous
370
    15
100
AcDbLine
 10
-34.35942116836218
 20
-1.734885272949427
 30
0.0
 11
-33.91772235568115
 21
-1.696878226838329
 31
0.0
  0
SPLINE
  5
24C
330
1F
100
AcDbEntity
  8
외형선
  6
Continuous
370
    15
100
AcDbSpline
210
0.0
220
0.0
230
1.0
 70
    24
 71
     3
 72
    13
 73
     9
 74
     0
 42
0.000000001
 43
0.00000001
 40
0.0
 40
0.0
 40
0.0
 40
0.0
 40
0.1339944315553491
 40
0.2697530175177159
 40
0.465929068935686
 40
0.667794239134687
 40
0.8442354136431043
 40
1.0
 40
1.0
 40
1.0
 40
1.0
 10
-34.35942116787284
 20
-1.734885272924853
 30
0.0
 10
-34.35942116787294
 20
-1.731242632951677
 30
0.0
 10
-34.35942116787313
 20
-1.723909394449976
 30
0.0
 10
-34.35942116787304
 20
-1.665854296928906
 30
0.0
 10
-34.35942116787307
 20
-1.552923445648901
 30
0.0
 10
-34.35942116787307
 20
-1.368558238389088
 30
0.0
 10
-34.35942116787307
 20
-1.15222857108451
 30
0.0
 10
-34.35942116787307
 20
-0.9859446789913271
 30
0.0
 10
-34.35942116787307
 20
-0.9079775130931687
 30
0.0
  0
SPLINE
  5
24D
330
1F
100
AcDbEntity
  8
외형선
  6
Continuous
370
    15
100
AcDbSpline
210
0.0
220
0.0
230
1.0
 70
     8
 71
     3
 72
    10
 73
     6
 74
     0
 42
0.000000001
 43
0.00000001
 40
0.0
 40
0.0
 40
0.0
 40
0.0
 40
0.5000000000000001
 40
0.5000000000000001
 40
1.0
 40
1.0
 40
1.0
 40
1.0
 10
-34.3594211683622
 20
1.737035130397206
 30
0.0
 10
-34.21163330792319
 20
1.729617208232916
 30
0.0
 10
-34.06492921693179
 20
1.718232344100777
 30
0.0
 10
-33.76751234632768
 20
1.687478804216727
 30
0.0
 10
-33.61802131793014
 20
1.66812518363162
 30
0.0
 10
-33.46929973135769
 20
1.644995302805459
 30
0.0
  0
SPLINE
  5
24E
330
1F
100
AcDbEntity
  8
외형선
  6
Continuous
370
    15
100
AcDbSpline
210
0.0
220
0.0
230
1.0
 70
    24
 71
     3
 72
    14
 73
    10
 74
     0
 42
0.000000001
 43
0.00000001
 40
0.0
 40
0.0
 40
0.0
 40
0.0
 40
0.25
 40
0.25
 40
0.5
 40
0.5
 40
0.75
 40
0.75
 40
1.0
 40
1.0
 40
1.0
 40
1.0
 10
-34.35942116787301
 20
-0.1645550617097804
 30
0.0
 10
-34.35942116787301
 20
0.027724634283274
 30
0.0
 10
-34.35942116787301
 20
0.2236729051436512
 30
0.0
 10
-34.35942116787301
 20
0.6041831297617186
 30
0.0
 10
-34.35942116787301
 20
0.7885379614503094
 30
0.0
 10
-34.35942116787301
 20
1.126505363539522
 30
0.0
 10
-34.35942116787301
 20
1.279937850778499
 30
0.0
 10
-34.35942116787301
 20
1.542623951834234
 30
0.0
 10
-34.35942116787301
 20
1.651835933920925
 30
0.0
 10
-34.35942116787301
 20
1.737035130372654
 30
0.0
  0
SPLINE
  5
24F
330
1F
100
AcDbEntity
  8
0
  6
Continuous
 62
     1
370
    15
100
AcDbSpline
210
0.0
220
0.0
230
1.0
 70
     8
 71
     3
 72
    26
 73
    22
 74
     0
 42
0.000000001
 43
0.00000001
 40
0.0
 40
0.0
 40
0.0
 40
0.0
 40
0.1250000000000001
 40
0.1250000000000001
 40
0.2500000000000002
 40
0.2500000000000002
 40
0.3125000000000003
 40
0.3125000000000003
 40
0.3750000000000004
 40
0.3750000000000004
 40
0.5000000000000002
 40
0.5000000000000002
 40
0.6250000000000001
 40
0.6250000000000001
 40
0.7499999999999999
 40
0.7499999999999999
 40
0.8125
 40
0.8125
 40
0.875
 40
0.875
 40
1.0
 40
1.0
 40
1.0
 40
1.0
 10
-40.70942116787307
 20
2.072434919844145
 30
0.0
 10
-40.4475673643106
 20
2.024417321607906
 30
0.0
 10
-40.17977155480593
 20
1.960763762323467
 30
0.0
 10
-39.64977147826951
 20
1.806001216030602
 30
0.0
 10
-39.38819226549473
 20
1.71515089047266
 30
0.0
 10
-38.98936467566204
 20
1.560281038758667
 30
0.0
 10
-38.85633380265133
 20
1.505671141478349
 30
0.0
 10
-38.59228610832149
 20
1.391418062535287
 30
0.0
 10
-38.46180474755617
 20
1.331871492685298
 30
0.0
 10
-38.0650793240651
 20
1.145450545673771
 30
0.0
 10
-37.79707747736629
 20
1.011213480968895
 30
0.0
 10
-37.27155667019069
 20
0.7317070108487087
 30
0.0
 10
-37.00577620320465
 20
0.5850175164678113
 30
0.0
 10
-36.47497555453849
 20
0.2853251346553982
 30
0.0
 10
-36.21383252519961
 20
0.133096253336749
 30
0.0
 10
-35.81518109055584
 20
-0.096349280230303
 30
0.0
 10
-35.68202834003856
 20
-0.172843453717519
 30
0.0
 10
-35.41738236145353
 20
-0.3245952825096197
 30
0.0
 10
-35.28684037793499
 20
-0.3996740026324623
 30
0.0
 10
-34.8910626587701
 20
-0.6230873185620744
 30
0.0
 10
-34.62297530167602
 20
-0.7692902779868405
 30
0.0
 10
-34.35942116786836
 20
-0.9079775130956449
 30
0.0
1001
PE_URL
1000

  0
SPLINE
  5
250
330
1F
100
AcDbEntity
  8
0
  6
Continuous
 62
     1
370
    15
100
AcDbSpline
210
0.0
220
0.0
230
1.0
 70
     8
 71
     3
 72
    14
 73
    10
 74
     0
 42
0.000000001
 43
0.00000001
 40
0.0
 40
0.0
 40
0.0
 40
0.0
 40
0.1596555373226294
 40
0.3191313066387507
 40
0.4785129223641143
 40
0.6378869608659509
 40
0.7973400760966811
 40
0.9569581135678579
 40
1.0
 40
1.0
 40
1.0
 40
1.0
 10
-40.70942116787307
 20
1.723253449540135
 30
0.0
 10
-40.40743732784749
 20
1.658630744778787
 30
0.0
 10
-39.80380967379125
 20
1.529458098750574
 30
0.0
 10
-38.8989268962882
 20
1.222066763789403
 30
0.0
 10
-37.99464091430207
 20
0.8523836163601146
 30
0.0
 10
-37.09040596726186
 20
0.4315454918098247
 30
0.0
 10
-36.18566508036433
 20
-0.0106192748916065
 30
0.0
 10
-35.50077745269441
 20
-0.3525509493978518
 30
0.0
 10
-35.11745199251266
 20
-0.5262264904548744
 30
0.0
 10
-35.03603949315949
 20
-0.5631125346723955
 30
0.0
1001
PE_URL
1000

  0
LINE
  5
251
330
1F
100
AcDbEntity
  8
0
  6
Continuous
 62
     1
370
    15
100
AcDbLine
 10
-40.70942116787303
 20
2.072434919844145
 30
0.0
 11
-40.70942116787307
 21
1.723253449540135
 31
0.0
1001
PE_URL
1000

  0
SPLINE
  5
252
330
1F
100
AcDbEntity
  8
0
  6
Continuous
 62
     1
370
    15
100
AcDbSpline
210
0.0
220
0.0
230
1.0
 70
     8
 71
     3
 72
    26
 73
    22
 74
     0
 42
0.000000001
 43
0.00000001
 40
0.0
 40
0.0
 40
0.0
 40
0.0
 40
0.1249999999999999
 40
0.1249999999999999
 40
0.1874999999999999
 40
0.1874999999999999
 40
0.2499999999999999
 40
0.2499999999999999
 40
0.3749999999999998
 40
0.3749999999999998
 40
0.4999999999999998
 40
0.4999999999999998
 40
0.6249999999999998
 40
0.6249999999999998
 40
0.6874999999999999
 40
0.6874999999999999
 40
0.75
 40
0.75
 40
0.875
 40
0.875
 40
1.0
 40
1.0
 40
1.0
 40
1.0
 10
-34.3594211678731
 20
-0.3245360677979114
 30
0.0
 10
-34.62297530168063
 20
-0.1736975129753411
 30
0.0
 10
-34.8910626587745
 20
-0.0195959813627553
 30
0.0
 10
-35.28684037793903
 20
0.208891207739228
 30
0.0
 10
-35.41738236145748
 20
0.2845479237805186
 30
0.0
 10
-35.68202834004234
 20
0.4352253468732954
 30
0.0
 10
-35.81518109055953
 20
0.5100604010049992
 30
0.0
 10
-36.21383252520298
 20
0.7311898109364741
 30
0.0
 10
-36.47497555454166
 20
0.8734767424236836
 30
0.0
 10
-37.00577620320746
 20
1.144716974645068
 30
0.0
 10
-37.27155667019322
 20
1.272923444879517
 30
0.0
 10
-37.7970774773685
 20
1.507994084431981
 30
0.0
 10
-38.0650793240671
 20
1.616030932212315
 30
0.0
 10
-38.46180474755785
 20
1.758428941680986
 30
0.0
 10
-38.59228610832307
 20
1.802560040198735
 30
0.0
 10
-38.85633380265273
 20
1.884414570230334
 30
0.0
 10
-38.98936467566333
 20
1.922057860572849
 30
0.0
 10
-39.38819226549573
 20
2.024131710376526
 30
0.0
 10
-39.6497714782703
 20
2.077446385783649
 30
0.0
 10
-40.17977155480634
 20
2.153396923793363
 30
0.0
 10
-40.4475673643108
 20
2.17578558797743
 30
0.0
 10
-40.70942116787307
 20
2.182042548842347
 30
0.0
1001
PE_URL
1000

  0
SPLINE
  5
253
330
1F
100
AcDbEntity
  8
0
  6
Continuous
 62
     1
370
    15
100
AcDbSpline
210
0.0
220
0.0
230
1.0
 70
     8
 71
     3
 72
     9
 73
     5
 74
     0
 42
0.000000001
 43
0.00000001
 40
0.0
 40
0.0
 40
0.0
 40
0.0
 40
0.022720890293932
 40
1.0
 40
1.0
 40
1.0
 40
1.0
 10
-35.2916959092431
 20
0.2106735216695164
 30
0.0
 10
-35.28463560599855
 20
0.2079196839379769
 30
0.0
 10
-34.97389499886435
 20
0.08671678669619
 30
0.0
 10
-34.66312762769508
 20
-0.04036281838966
 30
0.0
 10
-34.35942116787307
 20
-0.1645550617097555
 30
0.0
1001
PE_URL
1000

  0
SPLINE
  5
254
330
1F
100
AcDbEntity
  8
외형선
  6
Continuous
370
    15
100
AcDbSpline
210
0.0
220
0.0
230
1.0
 70
    24
 71
     3
 72
    10
 73
     6
 74
     0
 42
0.000000001
 43
0.00000001
 40
0.0
 40
0.0
 40
0.0
 40
0.0
 40
0.5009556198213057
 40
0.749696392786005
 40
1.0
 40
1.0
 40
1.0
 40
1.0
 10
-34.35942116787307
 20
-0.2895481767146428
 30
0.0
 10
-34.35942116787307
 20
-0.2735867535234107
 30
0.0
 10
-34.35942116787307
 20
-0.2496999641218558
 30
0.0
 10
-34.35942116787307
 20
-0.2040349604078564
 30
0.0
 10
-34.35942116787307
 20
-0.1777424742645444
 30
0.0
 10
-34.35942116787307
 20
-0.1645550617102955
 30
0.0
  0
LINE
  5
255
330
1F
100
AcDbEntity
  8
0
  6
Continuous
 62
     1
370
    15
100
AcDbLine
 10
-40.70942116787307
 20
2.182042548842347
 30
0.0
 11
-40.70942116787299
 21
2.072434919844142
 31
0.0
1001
PE_URL
1000

  0
SPLINE
  5
256
330
1F
100
AcDbEntity
  8
0
  6
Continuous
 62
     1
370
    15
100
AcDbSpline
210
0.0
220
0.0
230
1.0
 70
     8
 71
     3
 72
     8
 73
     4
 74
     0
 42
0.000000001
 43
0.00000001
 40
0.0
 40
0.0
 40
0.0
 40
0.0
 40
1.0
 40
1.0
 40
1.0
 40
1.0
 10
-39.35819154317888
 20
-0.6101268978957854
 30
0.0
 10
-39.28087135910747
 20
-0.701747970368956
 30
0.0
 10
-39.21183888433776
 20
-0.789960871545258
 30
0.0
 10
-39.15306524559718
 20
-0.8739550110322867
 30
0.0
1001
PE_URL
1000

  0
LINE
  5
257
330
1F
100
AcDbEntity
  8
0
  6
Continuous
 62
     1
370
    15
100
AcDbLine
 10
-39.18068074166327
 20
-0.8971271635961315
 30
0.0
 11
-40.70942116787307
 21
0.001074928723888
 31
0.0
1001
PE_URL
1000

  0
LINE
  5
258
330
1F
100
AcDbEntity
  8
0
  6
Continuous
 62
     1
370
    15
100
AcDbLine
 10
-40.70942116787307
 20
0.001074928723888
 30
0.0
 11
-40.70942116787307
 21
0.5844161718542225
 31
0.0
1001
PE_URL
1000

  0
SPLINE
  5
259
330
1F
100
AcDbEntity
  8
0
  6
Continuous
 62
     1
370
    15
100
AcDbSpline
210
0.0
220
0.0
230
1.0
 70
     8
 71
     3
 72
    10
 73
     6
 74
     0
 42
0.000000001
 43
0.00000001
 40
0.0
 40
0.0
 40
0.0
 40
0.0
 40
0.5
 40
0.5
 40
1.0
 40
1.0
 40
1.0
 40
1.0
 10
-40.70942116787307
 20
0.5844161718542225
 30
0.0
 10
-40.47551082186798
 20
0.4005214907629302
 30
0.0
 10
-40.24551114737824
 20
0.2090822072590974
 30
0.0
 10
-39.79352458081089
 20
-0.1892548960332192
 30
0.0
 10
-39.56943621896104
 20
-0.3982584553947817
 30
0.0
 10
-39.35819154317888
 20
-0.610126897895789
 30
0.0
1001
PE_URL
1000

  0
SPLINE
  5
25A
330
1F
100
AcDbEntity
  8
0
  6
Continuous
 62
     1
370
    15
100
AcDbSpline
210
0.0
220
0.0
230
1.0
 70
     8
 71
     3
 72
    20
 73
    16
 74
     0
 42
0.000000001
 43
0.00000001
 40
0.0
 40
0.0
 40
0.0
 40
0.0
 40
0.1250000000000001
 40
0.1250000000000001
 40
0.2500000000000002
 40
0.2500000000000002
 40
0.5
 40
0.5
 40
0.6249999999999999
 40
0.6249999999999999
 40
0.7499999999999998
 40
0.7499999999999998
 40
0.8749999999999999
 40
0.8749999999999999
 40
1.0
 40
1.0
 40
1.0
 40
1.0
 10
-39.35819154317229
 20
-0.6101268978986312
 30
0.0
 10
-39.14971038604848
 20
-0.7002489936624912
 30
0.0
 10
-38.93939533598432
 20
-0.787830126623696
 30
0.0
 10
-38.52366174108261
 20
-0.9543633759796819
 30
0.0
 10
-38.31759283720322
 20
-1.033440220483012
 30
0.0
 10
-37.69010798912979
 20
-1.256640584210359
 30
0.0
 10
-37.27679578209844
 20
-1.384514055490904
 30
0.0
 10
-36.6491625792101
 20
-1.536106544441246
 30
0.0
 10
-36.44274689969284
 20
-1.579640349668026
 30
0.0
 10
-36.02744251032595
 20
-1.652194741151391
 30
0.0
 10
-35.81716198646927
 20
-1.681230928441227
 30
0.0
 10
-35.39990395695977
 20
-1.723568372006724
 30
0.0
 10
-35.19459682754256
 20
-1.736903707226951
 30
0.0
 10
-34.77707244495284
 20
-1.747823156436141
 30
0.0
 10
-34.56684246860879
 20
-1.745296378813432
 30
0.0
 10
-34.3594211683622
 20
-1.734885272949427
 30
0.0
1001
PE_URL
1000

  0
SPLINE
  5
25B
330
1F
100
AcDbEntity
  8
0
  6
Continuous
 62
     1
370
    15
100
AcDbSpline
210
0.0
220
0.0
230
1.0
 70
    24
 71
     3
 72
    10
 73
     6
 74
     0
 42
0.000000001
 43
0.00000001
 40
0.0
 40
0.0
 40
0.0
 40
0.0
 40
0.5
 40
0.5
 40
1.0
 40
1.0
 40
1.0
 40
1.0
 10
-40.70942116787307
 20
1.723253449540135
 30
0.0
 10
-40.70942116787307
 20
1.591235038783758
 30
0.0
 10
-40.70942116787307
 20
1.424424714688477
 30
0.0
 10
-40.70942116787307
 20
1.036606764869983
 30
0.0
 10
-40.70942116787307
 20
0.8159350817593278
 30
0.0
 10
-40.70942116787307
 20
0.5844161718542935
 30
0.0
1001
PE_URL
1000

  0
SPLINE
  5
25C
330
1F
100
AcDbEntity
  8
외형선
  6
Continuous
370
    15
100
AcDbSpline
210
0.0
220
0.0
230
1.0
 70
    24
 71
     3
 72
    13
 73
     9
 74
     0
 42
0.000000001
 43
0.00000001
 40
0.0
 40
0.0
 40
0.0
 40
0.0
 40
0.1339944315553628
 40
0.2697530175177424
 40
0.4659290689357323
 40
0.6677942391347537
 40
0.8442354136431404
 40
1.0
 40
1.0
 40
1.0
 40
1.0
 10
-34.35942116787307
 20
-1.734885272924878
 30
0.0
 10
-34.35942116787307
 20
-1.73124263295168
 30
0.0
 10
-34.35942116787307
 20
-1.723909394449944
 30
0.0
 10
-34.35942116787307
 20
-1.665854296928856
 30
0.0
 10
-34.35942116787307
 20
-1.552923445648819
 30
0.0
 10
-34.35942116787307
 20
-1.368558238388996
 30
0.0
 10
-34.35942116787307
 20
-1.152228571084436
 30
0.0
 10
-34.35942116787307
 20
-0.9859446789913022
 30
0.0
 10
-34.35942116787307
 20
-0.9079775130931687
 30
0.0
  0
SPLINE
  5
25D
330
1F
100
AcDbEntity
  8
0
  6
Continuous
 62
     1
370
    15
100
AcDbSpline
210
0.0
220
0.0
230
1.0
 70
    24
 71
     3
 72
     8
 73
     4
 74
     0
 42
0.000000001
 43
0.00000001
 40
0.0
 40
0.0
 40
0.0
 40
0.0
 40
1.0
 40
1.0
 40
1.0
 40
1.0
 10
-39.38101321454329
 20
-1.065226067702593
 30
0.0
 10
-39.30917206835957
 20
-1.004944188436486
 30
0.0
 10
-39.23261788276886
 20
-0.940707599542197
 30
0.0
 10
-39.1530652455972
 20
-0.8739550110322689
 30
0.0
1001
PE_URL
1000

  0
LINE
  5
25E
330
1F
100
AcDbEntity
  8
0
  6
Continuous
 62
     1
370
    15
100
AcDbLine
 10
-40.70942116787307
 20
-1.526893821276111
 30
0.0
 11
-39.90084177251658
 21
-1.487988018772498
 31
0.0
1001
PE_URL
1000

  0
SPLINE
  5
25F
330
1F
100
AcDbEntity
  8
0
  6
Continuous
 62
     1
370
    15
100
AcDbSpline
210
0.0
220
0.0
230
1.0
 70
     8
 71
     3
 72
     8
 73
     4
 74
     0
 42
0.000000001
 43
0.00000001
 40
0.0
 40
0.0
 40
0.0
 40
0.0
 40
1.0
 40
1.0
 40
1.0
 40
1.0
 10
-40.70942116787307
 20
-1.526893821276111
 30
0.0
 10
-40.26037051678982
 20
-1.404979034582283
 30
0.0
 10
-39.81568005701651
 20
-1.25534080078058
 30
0.0
 10
-39.38101321454273
 20
-1.065226067702927
 30
0.0
1001
PE_URL
1000

  0
SPLINE
  5
260
330
1F
100
AcDbEntity
  8
0
  6
Continuous
 62
     1
370
    15
100
AcDbSpline
210
0.0
220
0.0
230
1.0
 70
     8
 71
     3
 72
     9
 73
     5
 74
     0
 42
0.000000001
 43
0.00000001
 40
0.0
 40
0.0
 40
0.0
 40
0.0
 40
0.4645541654052446
 40
1.0
 40
1.0
 40
1.0
 40
1.0
 10
-36.07924254994973
 20
1.638878623415856
 30
0.0
 10
-35.81293872418972
 20
1.676548650581388
 30
0.0
 10
-35.23969270555224
 20
1.757637208107663
 30
0.0
 10
-34.66639241884926
 20
1.74421955621381
 30
0.0
 10
-34.35942116836218
 20
1.737035130397206
 30
0.0
1001
PE_URL
1000

  0
SPLINE
  5
261
330
1F
100
AcDbEntity
  8
외형선
  6
Continuous
370
    15
100
AcDbSpline
210
0.0
220
0.0
230
1.0
 70
    24
 71
     3
 72
    14
 73
    10
 74
     0
 42
0.000000001
 43
0.00000001
 40
0.0
 40
0.0
 40
0.0
 40
0.0
 40
0.25
 40
0.25
 40
0.5
 40
0.5
 40
0.75
 40
0.75
 40
1.0
 40
1.0
 40
1.0
 40
1.0
 10
-34.35942116787301
 20
-0.1645550617097804
 30
0.0
 10
-34.35942116787301
 20
0.027724634283274
 30
0.0
 10
-34.35942116787301
 20
0.2236729051436512
 30
0.0
 10
-34.35942116787301
 20
0.6041831297617186
 30
0.0
 10
-34.35942116787301
 20
0.7885379614503094
 30
0.0
 10
-34.35942116787301
 20
1.126505363539522
 30
0.0
 10
-34.35942116787301
 20
1.279937850778499
 30
0.0
 10
-34.35942116787301
 20
1.542623951834234
 30
0.0
 10
-34.35942116787301
 20
1.651835933920925
 30
0.0
 10
-34.35942116787301
 20
1.737035130372654
 30
0.0
  0
LINE
  5
262
330
1F
100
AcDbEntity
  8
0
  6
Continuous
 62
     1
370
    15
100
AcDbLine
 10
-40.70942116787307
 20
0.001074928723888
 30
0.0
 11
-40.70942116787307
 21
-1.526893821276111
 31
0.0
1001
PE_URL
1000

  0
SPLINE
  5
263
330
1F
100
AcDbEntity
  8
0
  6
Continuous
 62
     1
370
    15
100
AcDbSpline
210
0.0
220
0.0
230
1.0
 70
    24
 71
     3
 72
    10
 73
     6
 74
     0
 42
0.000000001
 43
0.00000001
 40
0.0
 40
0.0
 40
0.0
 40
0.0
 40
0.5
 40
0.5
 40
1.0
 40
1.0
 40
1.0
 40
1.0
 10
-40.70942116787307
 20
-1.526893821276111
 30
0.0
 10
-40.70942116787307
 20
-1.619515481838324
 30
0.0
 10
-40.70942116787307
 20
-1.727150429100114
 30
0.0
 10
-40.70942116787307
 20
-1.952968258560976
 30
0.0
 10
-40.70942116787307
 20
-2.070574430361511
 30
0.0
 10
-40.70942116787307
 20
-2.179892691394567
 30
0.0
1001
PE_URL
1000

  0
SPLINE
  5
264
330
1F
100
AcDbEntity
  8
0
  6
Continuous
 62
     1
370
    15
100
AcDbSpline
210
0.0
220
0.0
230
1.0
 70
     8
 71
     3
 72
    14
 73
    10
 74
     0
 42
0.000000001
 43
0.00000001
 40
0.0
 40
0.0
 40
0.0
 40
0.0
 40
0.0814751808540341
 40
0.1869711733598833
 40
0.3872427890908635
 40
0.5882313713991935
 40
0.6780369995636195
 40
0.8451989602521965
 40
1.0
 40
1.0
 40
1.0
 40
1.0
 10
-37.70570797347963
 20
-1.462353842054661
 30
0.0
 10
-37.78728970543026
 20
-1.497018636101618
 30
0.0
 10
-37.97450539476845
 20
-1.576568225919036
 30
0.0
 10
-38.3626345711149
 20
-1.72419117309747
 30
0.0
 10
-38.86910462042083
 20
-1.893352839665798
 30
0.0
 10
-39.36189128678791
 20
-2.015946348110425
 30
0.0
 10
-39.81942307765964
 20
-2.102614466964447
 30
0.0
 10
-40.23231814887187
 20
-2.15866430658879
 30
0.0
 10
-40.55451006472084
 20
-2.17300002382083
 30
0.0
 10
-40.70942116787293
 20
-2.179892691394564
 30
0.0
1001
PE_URL
1000

  0
ENDSEC
  0
SECTION
  2
OBJECTS
  0
DICTIONARY
  5
C
330
0
100
AcDbDictionary
281
     1
  3
ACAD_DETAILVIEWSTYLE
350
20B
  3
ACAD_GROUP
350
D
  3
ACAD_LAYOUT
350
1A
  3
ACAD_MLINESTYLE
350
17
  3
ACAD_PLOTSETTINGS
350
19
  3
ACAD_PLOTSTYLENAME
350
E
  3
ACAD_SCALELIST
350
47
  3
ACAD_SECTIONVIEWSTYLE
350
20C
  3
AcDbVariableDictionary
350
206
  3
APPDATA
350
154
  3
DWGPROPS
350
265
  0
DICTIONARY
  5
18D
330
2
100
AcDbDictionary
280
     1
281
     1
  3
ACAD_LAYERSTATES
360
18E
  0
DICTIONARY
  5
20B
102
{ACAD_REACTORS
330
C
102
}
330
C
100
AcDbDictionary
281
     1
  0
DICTIONARY
  5
D
102
{ACAD_REACTORS
330
C
102
}
330
C
100
AcDbDictionary
281
     1
  0
DICTIONARY
  5
1A
102
{ACAD_REACTORS
330
C
102
}
330
C
100
AcDbDictionary
281
     1
  3
Layout1
350
1E
  3
Layout2
350
26
  3
Model
350
22
  0
DICTIONARY
  5
17
102
{ACAD_REACTORS
330
C
102
}
330
C
100
AcDbDictionary
281
     1
  3
Standard
350
18
  0
DICTIONARY
  5
19
102
{ACAD_REACTORS
330
C
102
}
330
C
100
AcDbDictionary
281
     1
  0
ACDBDICTIONARYWDFLT
  5
E
102
{ACAD_REACTORS
330
C
102
}
330
C
100
AcDbDictionary
281
     1
  3
Normal
350
F
100
AcDbDictionaryWithDefault
340
F
  0
DICTIONARY
  5
47
102
{ACAD_REACTORS
330
C
102
}
330
C
100
AcDbDictionary
281
     1
  3
A0
350
48
  3
A1
350
49
  3
A2
350
4A
  3
A3
350
4B
  3
A4
350
4C
  3
A5
350
4D
  3
A6
350
4E
  3
A7
350
4F
  3
A8
350
50
  3
A9
350
51
  3
B0
350
52
  3
B1
350
53
  3
B2
350
54
  3
B3
350
55
  3
B4
350
56
  3
B5
350
57
  3
B6
350
58
  3
B7
350
59
  3
B8
350
5A
  3
B9
350
5B
  3
C0
350
5C
  3
C1
350
5D
  3
C2
350
5E
  3
C3
350
5F
  3
C4
350
60
  3
C5
350
61
  3
C6
350
62
  3
C7
350
63
  3
C8
350
64
  3
C9
350
65
  3
D0
350
66
  3
D1
350
67
  3
D2
350
68
  0
DICTIONARY
  5
20C
102
{ACAD_REACTORS
330
C
102
}
330
C
100
AcDbDictionary
281
     1
  0
DICTIONARY
  5
206
102
{ACAD_REACTORS
330
C
102
}
330
C
100
AcDbDictionary
281
     1
  0
DICTIONARY
  5
154
102
{ACAD_REACTORS
330
C
102
}
330
C
100
AcDbDictionary
281
     1
  0
XRECORD
  5
265
102
{ACAD_REACTORS
330
C
102
}
330
C
100
AcDbXrecord
280
     1
  1
DWGPROPS COOKIE
  2

  3

  4

  6

  7

  8
120170442
  9

300
=
301
=
302
=
303
=
304
=
305
=
306
=
307
=
308
=
309
=
 40
0.0
 41
2458313.014110695
 42
2458317.313933646
  1

 90
        0
  0
DICTIONARY
  5
18E
102
{ACAD_REACTORS
330
18D
102
}
330
18D
100
AcDbDictionary
281
     1
  0
LAYOUT
  5
1E
102
{ACAD_REACTORS
330
1A
102
}
330
1A
100
AcDbPlotSettings
  1

  2
none_device
  4

  6

 40
0.0
 41
0.0
 42
0.0
 43
0.0
 44
0.0
 45
0.0
 46
0.0
 47
0.0
 48
0.0
 49
0.0
140
0.0
141
0.0
142
1.0
143
1.0
 70
   688
 72
     1
 73
     0
 74
     5
  7

 75
    16
147
1.0
148
0.0
149
0.0
100
AcDbLayout
  1
Layout1
 70
     1
 71
     1
 10
0.0
 20
0.0
 11
420.0
 21
297.0
 12
0.0
 22
0.0
 32
0.0
 14
1.000000000000000E+20
 24
1.000000000000000E+20
 34
1.000000000000000E+20
 15
-1.000000000000000E+20
 25
-1.000000000000000E+20
 35
-1.000000000000000E+20
146
0.0
 13
0.0
 23
0.0
 33
0.0
 16
1.0
 26
0.0
 36
0.0
 17
0.0
 27
1.0
 37
0.0
 76
     0
330
1B
  0
LAYOUT
  5
26
102
{ACAD_REACTORS
330
1A
102
}
330
1A
100
AcDbPlotSettings
  1

  2
none_device
  4

  6

 40
0.0
 41
0.0
 42
0.0
 43
0.0
 44
0.0
 45
0.0
 46
0.0
 47
0.0
 48
0.0
 49
0.0
140
0.0
141
0.0
142
1.0
143
1.0
 70
   688
 72
     1
 73
     0
 74
     5
  7

 75
    16
147
1.0
148
0.0
149
0.0
100
AcDbLayout
  1
Layout2
 70
     1
 71
     2
 10
0.0
 20
0.0
 11
0.0
 21
0.0
 12
0.0
 22
0.0
 32
0.0
 14
0.0
 24
0.0
 34
0.0
 15
0.0
 25
0.0
 35
0.0
146
0.0
 13
0.0
 23
0.0
 33
0.0
 16
1.0
 26
0.0
 36
0.0
 17
0.0
 27
1.0
 37
0.0
 76
     0
330
23
  0
LAYOUT
  5
22
102
{ACAD_REACTORS
330
1A
102
}
330
1A
100
AcDbPlotSettings
  1

  2
none_device
  4
ANSI_A_(11.00_x_8.50_Inches)
  6

 40
6.35
 41
19.05
 42
6.35000508
 43
19.05000254
 44
279.4
 45
215.9
 46
107.2262797389679
 47
77.62074405537412
 48
0.0
 49
0.0
140
0.0
141
0.0
142
0.0742079710430167
143
1.0
 70
  1696
 72
     0
 73
     0
 74
     0
  7

 75
     0
147
0.0235690232323232
148
0.0
149
0.0
100
AcDbLayout
  1
Model
 70
     1
 71
     0
 10
0.0
 20
0.0
 11
420.0
 21
297.0
 12
0.0
 22
0.0
 32
0.0
 14
-55.08442116787315
 24
-49.97073246008785
 34
0.0
 15
74.547203865082
 25
38.53604254884249
 35
0.0
146
0.0
 13
0.0
 23
0.0
 33
0.0
 16
1.0
 26
0.0
 36
0.0
 17
0.0
 27
1.0
 37
0.0
 76
     0
330
1F
331
29
  0
MLINESTYLE
  5
18
102
{ACAD_REACTORS
330
17
102
}
330
17
100
AcDbMlineStyle
  2
Standard
 70
     0
  3

 62
   256
 51
90.0
 52
90.0
 71
     2
 49
0.5
 62
   256
  6
BYLAYER
 49
-0.5
 62
   256
  6
BYLAYER
  0
ACDBPLACEHOLDER
  5
F
102
{ACAD_REACTORS
330
E
102
}
330
E
  0
SCALE
  5
48
102
{ACAD_REACTORS
330
47
102
}
330
47
100
AcDbScale
 70
     0
300
1:1
140
1.0
141
1.0
290
     1
  0
SCALE
  5
49
102
{ACAD_REACTORS
330
47
102
}
330
47
100
AcDbScale
 70
     0
300
1:2
140
1.0
141
2.0
290
     0
  0
SCALE
  5
4A
102
{ACAD_REACTORS
330
47
102
}
330
47
100
AcDbScale
 70
     0
300
1:4
140
1.0
141
4.0
290
     0
  0
SCALE
  5
4B
102
{ACAD_REACTORS
330
47
102
}
330
47
100
AcDbScale
 70
     0
300
1:5
140
1.0
141
5.0
290
     0
  0
SCALE
  5
4C
102
{ACAD_REACTORS
330
47
102
}
330
47
100
AcDbScale
 70
     0
300
1:8
140
1.0
141
8.0
290
     0
  0
SCALE
  5
4D
102
{ACAD_REACTORS
330
47
102
}
330
47
100
AcDbScale
 70
     0
300
1:10
140
1.0
141
10.0
290
     0
  0
SCALE
  5
4E
102
{ACAD_REACTORS
330
47
102
}
330
47
100
AcDbScale
 70
     0
300
1:16
140
1.0
141
16.0
290
     0
  0
SCALE
  5
4F
102
{ACAD_REACTORS
330
47
102
}
330
47
100
AcDbScale
 70
     0
300
1:20
140
1.0
141
20.0
290
     0
  0
SCALE
  5
50
102
{ACAD_REACTORS
330
47
102
}
330
47
100
AcDbScale
 70
     0
300
1:30
140
1.0
141
30.0
290
     0
  0
SCALE
  5
51
102
{ACAD_REACTORS
330
47
102
}
330
47
100
AcDbScale
 70
     0
300
1:40
140
1.0
141
40.0
290
     0
  0
SCALE
  5
52
102
{ACAD_REACTORS
330
47
102
}
330
47
100
AcDbScale
 70
     0
300
1:50
140
1.0
141
50.0
290
     0
  0
SCALE
  5
53
102
{ACAD_REACTORS
330
47
102
}
330
47
100
AcDbScale
 70
     0
300
1:100
140
1.0
141
100.0
290
     0
  0
SCALE
  5
54
102
{ACAD_REACTORS
330
47
102
}
330
47
100
AcDbScale
 70
     0
300
2:1
140
2.0
141
1.0
290
     0
  0
SCALE
  5
55
102
{ACAD_REACTORS
330
47
102
}
330
47
100
AcDbScale
 70
     0
300
4:1
140
4.0
141
1.0
290
     0
  0
SCALE
  5
56
102
{ACAD_REACTORS
330
47
102
}
330
47
100
AcDbScale
 70
     0
300
8:1
140
8.0
141
1.0
290
     0
  0
SCALE
  5
57
102
{ACAD_REACTORS
330
47
102
}
330
47
100
AcDbScale
 70
     0
300
10:1
140
10.0
141
1.0
290
     0
  0
SCALE
  5
58
102
{ACAD_REACTORS
330
47
102
}
330
47
100
AcDbScale
 70
     0
300
100:1
140
100.0
141
1.0
290
     0
  0
SCALE
  5
59
102
{ACAD_REACTORS
330
47
102
}
330
47
100
AcDbScale
 70
     0
300
1/128" = 1'-0"
140
0.0078125
141
12.0
290
     0
  0
SCALE
  5
5A
102
{ACAD_REACTORS
330
47
102
}
330
47
100
AcDbScale
 70
     0
300
1/64" = 1'-0"
140
0.015625
141
12.0
290
     0
  0
SCALE
  5
5B
102
{ACAD_REACTORS
330
47
102
}
330
47
100
AcDbScale
 70
     0
300
1/32" = 1'-0"
140
0.03125
141
12.0
290
     0
  0
SCALE
  5
5C
102
{ACAD_REACTORS
330
47
102
}
330
47
100
AcDbScale
 70
     0
300
1/16" = 1'-0"
140
0.0625
141
12.0
290
     0
  0
SCALE
  5
5D
102
{ACAD_REACTORS
330
47
102
}
330
47
100
AcDbScale
 70
     0
300
3/32" = 1'-0"
140
0.09375
141
12.0
290
     0
  0
SCALE
  5
5E
102
{ACAD_REACTORS
330
47
102
}
330
47
100
AcDbScale
 70
     0
300
1/8" = 1'-0"
140
0.125
141
12.0
290
     0
  0
SCALE
  5
5F
102
{ACAD_REACTORS
330
47
102
}
330
47
100
AcDbScale
 70
     0
300
3/16" = 1'-0"
140
0.1875
141
12.0
290
     0
  0
SCALE
  5
60
102
{ACAD_REACTORS
330
47
102
}
330
47
100
AcDbScale
 70
     0
300
1/4" = 1'-0"
140
0.25
141
12.0
290
     0
  0
SCALE
  5
61
102
{ACAD_REACTORS
330
47
102
}
330
47
100
AcDbScale
 70
     0
300
3/8" = 1'-0"
140
0.375
141
12.0
290
     0
  0
SCALE
  5
62
102
{ACAD_REACTORS
330
47
102
}
330
47
100
AcDbScale
 70
     0
300
1/2" = 1'-0"
140
0.5
141
12.0
290
     0
  0
SCALE
  5
63
102
{ACAD_REACTORS
330
47
102
}
330
47
100
AcDbScale
 70
     0
300
3/4" = 1'-0"
140
0.75
141
12.0
290
     0
  0
SCALE
  5
64
102
{ACAD_REACTORS
330
47
102
}
330
47
100
AcDbScale
 70
     0
300
1" = 1'-0"
140
1.0
141
12.0
290
     0
  0
SCALE
  5
65
102
{ACAD_REACTORS
330
47
102
}
330
47
100
AcDbScale
 70
     0
300
1-1/2" = 1'-0"
140
1.5
141
12.0
290
     0
  0
SCALE
  5
66
102
{ACAD_REACTORS
330
47
102
}
330
47
100
AcDbScale
 70
     0
300
3" = 1'-0"
140
3.0
141
12.0
290
     0
  0
SCALE
  5
67
102
{ACAD_REACTORS
330
47
102
}
330
47
100
AcDbScale
 70
     0
300
6" = 1'-0"
140
6.0
141
12.0
290
     0
  0
SCALE
  5
68
102
{ACAD_REACTORS
330
47
102
}
330
47
100
AcDbScale
 70
     0
300
1'-0" = 1'-0"
140
12.0
141
12.0
290
     0
  0
ENDSEC
  0
EOF
