  0
SECTION
  2
HEADER
  9
$ACADVER
  1
AC1015
  9
$ACADMAINTVER
 70
     6
  9
$DWGCODEPAGE
  3
ANSI_949
  9
$INSBASE
 10
0.0
 20
0.0
 30
0.0
  9
$EXTMIN
 10
1.000000000000000E+20
 20
1.000000000000000E+20
 30
1.000000000000000E+20
  9
$EXTMAX
 10
-1.000000000000000E+20
 20
-1.000000000000000E+20
 30
-1.000000000000000E+20
  9
$LIMMIN
 10
0.0
 20
0.0
  9
$LIMMAX
 10
420.0
 20
297.0
  9
$ORTHOMODE
 70
     1
  9
$REGENMODE
 70
     1
  9
$FILLMODE
 70
     1
  9
$QTEXTMODE
 70
     0
  9
$MIRRTEXT
 70
     1
  9
$LTSCALE
 40
1.0
  9
$ATTMODE
 70
     1
  9
$TEXTSIZE
 40
3.5
  9
$TRACEWID
 40
1.0
  9
$TEXTSTYLE
  7
Standard
  9
$CLAYER
  8
0
  9
$CELTYPE
  6
ByLayer
  9
$CECOLOR
 62
   256
  9
$CELTSCALE
 40
1.0
  9
$DISPSILH
 70
     0
  9
$DIMSCALE
 40
1.0
  9
$DIMASZ
 40
3.302
  9
$DIMEXO
 40
1.0
  9
$DIMDLI
 40
3.75
  9
$DIMRND
 40
0.0
  9
$DIMDLE
 40
0.0
  9
$DIMEXE
 40
1.0
  9
$DIMTP
 40
0.0
  9
$DIMTM
 40
0.0
  9
$DIMTXT
 40
3.5
  9
$DIMCEN
 40
2.5
  9
$DIMTSZ
 40
0.0
  9
$DIMTOL
 70
     0
  9
$DIMLIM
 70
     0
  9
$DIMTIH
 70
     1
  9
$DIMTOH
 70
     1
  9
$DIMSE1
 70
     0
  9
$DIMSE2
 70
     0
  9
$DIMTAD
 70
     1
  9
$DIMZIN
 70
     0
  9
$DIMBLK
  1

  9
$DIMASO
 70
     1
  9
$DIMSHO
 70
     1
  9
$DIMPOST
  1

  9
$DIMAPOST
  1

  9
$DIMALT
 70
     0
  9
$DIMALTD
 70
     3
  9
$DIMALTF
 40
0.0393700787401575
  9
$DIMLFAC
 40
1.0
  9
$DIMTOFL
 70
     1
  9
$DIMTVP
 40
0.0
  9
$DIMTIX
 70
     0
  9
$DIMSOXD
 70
     0
  9
$DIMSAH
 70
     0
  9
$DIMBLK1
  1

  9
$DIMBLK2
  1

  9
$DIMSTYLE
  2
ISO-25
  9
$DIMCLRD
 70
     0
  9
$DIMCLRE
 70
     0
  9
$DIMCLRT
 70
     0
  9
$DIMTFAC
 40
1.0
  9
$DIMGAP
 40
1.524
  9
$DIMJUST
 70
     0
  9
$DIMSD1
 70
     0
  9
$DIMSD2
 70
     0
  9
$DIMTOLJ
 70
     0
  9
$DIMTZIN
 70
     0
  9
$DIMALTZ
 70
     0
  9
$DIMALTTZ
 70
     0
  9
$DIMUPT
 70
     0
  9
$DIMDEC
 70
     2
  9
$DIMTDEC
 70
     2
  9
$DIMALTU
 70
     2
  9
$DIMALTTD
 70
     3
  9
$DIMTXSTY
  7
Standard
  9
$DIMAUNIT
 70
     0
  9
$DIMADEC
 70
     2
  9
$DIMALTRND
 40
0.0
  9
$DIMAZIN
 70
     0
  9
$DIMDSEP
 70
    44
  9
$DIMATFIT
 70
     3
  9
$DIMFRAC
 70
     0
  9
$DIMLDRBLK
  1

  9
$DIMLUNIT
 70
     2
  9
$DIMLWD
 70
    -2
  9
$DIMLWE
 70
    -2
  9
$DIMTMOVE
 70
     0
  9
$LUNITS
 70
     2
  9
$LUPREC
 70
     2
  9
$SKETCHINC
 40
1.0
  9
$FILLETRAD
 40
10.0
  9
$AUNITS
 70
     0
  9
$AUPREC
 70
     2
  9
$MENU
  1
.
  9
$ELEVATION
 40
0.0
  9
$PELEVATION
 40
0.0
  9
$THICKNESS
 40
0.0
  9
$LIMCHECK
 70
     0
  9
$CHAMFERA
 40
0.0
  9
$CHAMFERB
 40
0.0
  9
$CHAMFERC
 40
0.0
  9
$CHAMFERD
 40
0.0
  9
$SKPOLY
 70
     0
  9
$TDCREATE
 40
2458299.630667014
  9
$TDUCREATE
 40
2458299.255667014
  9
$TDUPDATE
 40
2458302.64906934
  9
$TDUUPDATE
 40
2458302.27406934
  9
$TDINDWG
 40
0.0020888542
  9
$TDUSRTIMER
 40
2458302.271980764
  9
$USRTIMER
 70
     1
  9
$ANGBASE
 50
0.0
  9
$ANGDIR
 70
     0
  9
$PDMODE
 70
     0
  9
$PDSIZE
 40
-1.0
  9
$PLINEWID
 40
0.0
  9
$SPLFRAME
 70
     0
  9
$SPLINETYPE
 70
     6
  9
$SPLINESEGS
 70
     8
  9
$HANDSEED
  5
5A3
  9
$SURFTAB1
 70
     6
  9
$SURFTAB2
 70
     6
  9
$SURFTYPE
 70
     6
  9
$SURFU
 70
     6
  9
$SURFV
 70
     6
  9
$UCSBASE
  2

  9
$UCSNAME
  2

  9
$UCSORG
 10
0.0
 20
0.0
 30
0.0
  9
$UCSXDIR
 10
1.0
 20
0.0
 30
0.0
  9
$UCSYDIR
 10
0.0
 20
1.0
 30
0.0
  9
$UCSORTHOREF
  2

  9
$UCSORTHOVIEW
 70
     0
  9
$UCSORGTOP
 10
0.0
 20
0.0
 30
0.0
  9
$UCSORGBOTTOM
 10
0.0
 20
0.0
 30
0.0
  9
$UCSORGLEFT
 10
0.0
 20
0.0
 30
0.0
  9
$UCSORGRIGHT
 10
0.0
 20
0.0
 30
0.0
  9
$UCSORGFRONT
 10
0.0
 20
0.0
 30
0.0
  9
$UCSORGBACK
 10
0.0
 20
0.0
 30
0.0
  9
$PUCSBASE
  2

  9
$PUCSNAME
  2

  9
$PUCSORG
 10
0.0
 20
0.0
 30
0.0
  9
$PUCSXDIR
 10
1.0
 20
0.0
 30
0.0
  9
$PUCSYDIR
 10
0.0
 20
1.0
 30
0.0
  9
$PUCSORTHOREF
  2

  9
$PUCSORTHOVIEW
 70
     0
  9
$PUCSORGTOP
 10
0.0
 20
0.0
 30
0.0
  9
$PUCSORGBOTTOM
 10
0.0
 20
0.0
 30
0.0
  9
$PUCSORGLEFT
 10
0.0
 20
0.0
 30
0.0
  9
$PUCSORGRIGHT
 10
0.0
 20
0.0
 30
0.0
  9
$PUCSORGFRONT
 10
0.0
 20
0.0
 30
0.0
  9
$PUCSORGBACK
 10
0.0
 20
0.0
 30
0.0
  9
$USERI1
 70
     0
  9
$USERI2
 70
     0
  9
$USERI3
 70
     0
  9
$USERI4
 70
     0
  9
$USERI5
 70
     0
  9
$USERR1
 40
0.0
  9
$USERR2
 40
0.0
  9
$USERR3
 40
0.0
  9
$USERR4
 40
0.0
  9
$USERR5
 40
0.0
  9
$WORLDVIEW
 70
     1
  9
$SHADEDGE
 70
     3
  9
$SHADEDIF
 70
    70
  9
$TILEMODE
 70
     1
  9
$MAXACTVP
 70
    64
  9
$PINSBASE
 10
0.0
 20
0.0
 30
0.0
  9
$PLIMCHECK
 70
     0
  9
$PEXTMIN
 10
1.000000000000000E+20
 20
1.000000000000000E+20
 30
1.000000000000000E+20
  9
$PEXTMAX
 10
-1.000000000000000E+20
 20
-1.000000000000000E+20
 30
-1.000000000000000E+20
  9
$PLIMMIN
 10
0.0
 20
0.0
  9
$PLIMMAX
 10
0.0
 20
0.0
  9
$UNITMODE
 70
     0
  9
$VISRETAIN
 70
     1
  9
$PLINEGEN
 70
     0
  9
$PSLTSCALE
 70
     1
  9
$TREEDEPTH
 70
  3020
  9
$CMLSTYLE
  2
Standard
  9
$CMLJUST
 70
     0
  9
$CMLSCALE
 40
20.0
  9
$PROXYGRAPHICS
 70
     1
  9
$MEASUREMENT
 70
     1
  9
$CELWEIGHT
370
    -1
  9
$ENDCAPS
280
     0
  9
$JOINSTYLE
280
     0
  9
$LWDISPLAY
290
     1
  9
$INSUNITS
 70
     4
  9
$HYPERLINKBASE
  1

  9
$STYLESHEET
  1

  9
$XEDIT
290
     1
  9
$CEPSNTYPE
380
     0
  9
$PSTYLEMODE
290
     1
  9
$FINGERPRINTGUID
  2
{4237D701-0310-444D-9157-8DCA304BE7B1}
  9
$VERSIONGUID
  2
{FAEB1C32-E019-11D5-929B-00C0DF256EC4}
  9
$EXTNAMES
290
     1
  9
$PSVPSCALE
 40
0.0
  9
$OLESTARTUP
290
     0
  0
ENDSEC
  0
SECTION
  2
CLASSES
  0
CLASS
  1
ACDBDICTIONARYWDFLT
  2
AcDbDictionaryWithDefault
  3
ObjectDBX Classes
 90
        0
280
     0
281
     0
  0
CLASS
  1
VISUALSTYLE
  2
AcDbVisualStyle
  3
ObjectDBX Classes
 90
     4095
280
     0
281
     0
  0
CLASS
  1
MATERIAL
  2
AcDbMaterial
  3
ObjectDBX Classes
 90
     1153
280
     0
281
     0
  0
CLASS
  1
SCALE
  2
AcDbScale
  3
ObjectDBX Classes
 90
     1153
280
     0
281
     0
  0
CLASS
  1
SUN
  2
AcDbSun
  3
SCENEOE
 90
     1153
280
     0
281
     0
  0
CLASS
  1
ACDBPLACEHOLDER
  2
AcDbPlaceHolder
  3
ObjectDBX Classes
 90
        0
280
     0
281
     0
  0
CLASS
  1
LAYOUT
  2
AcDbLayout
  3
ObjectDBX Classes
 90
        0
280
     0
281
     0
  0
CLASS
  1
TABLESTYLE
  2
AcDbTableStyle
  3
ObjectDBX Classes
 90
     4095
280
     0
281
     0
  0
CLASS
  1
MLEADERSTYLE
  2
AcDbMLeaderStyle
  3
ACDB_MLEADERSTYLE_CLASS
 90
     4095
280
     0
281
     0
  0
CLASS
  1
RASTERVARIABLES
  2
AcDbRasterVariables
  3
ISM
 90
        0
280
     0
281
     0
  0
CLASS
  1
DIMASSOC
  2
AcDbDimAssoc
  3
"AcDbDimAssoc|Product Desc:     AcDim ARX App For Dimension|Company:          Autodesk, Inc.|WEB Address:      www.autodesk.com"
 90
        0
280
     0
281
     0
  0
ENDSEC
  0
SECTION
  2
TABLES
  0
TABLE
  2
VPORT
  5
8
330
0
100
AcDbSymbolTable
 70
     1
  0
VPORT
  5
29
330
8
100
AcDbSymbolTableRecord
100
AcDbViewportTableRecord
  2
*Active
 70
     0
 10
0.0
 20
0.0
 11
1.0
 21
1.0
 12
6.852874397079468
 22
-11.74126296918956
 13
0.0
 23
0.0
 14
10.0
 24
10.0
 15
10.0
 25
10.0
 16
0.0
 26
0.0
 36
1.0
 17
0.0
 27
0.0
 37
0.0
 40
125.6612358309589
 41
1.595744680851064
 42
50.0
 43
0.0
 44
0.0
 50
0.0
 51
0.0
 71
    16
 72
  2000
 73
     1
 74
     3
 75
     0
 76
     0
 77
     0
 78
     0
281
     0
 65
     1
110
0.0
120
0.0
130
0.0
111
1.0
121
0.0
131
0.0
112
0.0
122
1.0
132
0.0
 79
     0
146
0.0
  0
ENDTAB
  0
TABLE
  2
LTYPE
  5
5
330
0
100
AcDbSymbolTable
 70
     6
  0
LTYPE
  5
14
330
5
100
AcDbSymbolTableRecord
100
AcDbLinetypeTableRecord
  2
ByBlock
 70
     0
  3

 72
    65
 73
     0
 40
0.0
  0
LTYPE
  5
15
330
5
100
AcDbSymbolTableRecord
100
AcDbLinetypeTableRecord
  2
ByLayer
 70
     0
  3

 72
    65
 73
     0
 40
0.0
  0
LTYPE
  5
16
330
5
100
AcDbSymbolTableRecord
100
AcDbLinetypeTableRecord
  2
Continuous
 70
     0
  3
Solid line
 72
    65
 73
     0
 40
0.0
  0
LTYPE
  5
6A
330
5
100
AcDbSymbolTableRecord
100
AcDbLinetypeTableRecord
  2
HIDDEN
 70
     0
  3
Hidden __ __ __ __ __ __ __ __ __ __ __ __ __ __
 72
    65
 73
     2
 40
1.905
 49
1.27
 74
     0
 49
-0.635
 74
     0
  0
LTYPE
  5
6B
330
5
100
AcDbSymbolTableRecord
100
AcDbLinetypeTableRecord
  2
PHANTOM
 70
     0
  3
Phantom ______  __  __  ______  __  __  ______
 72
    65
 73
     6
 40
12.7
 49
6.35
 74
     0
 49
-1.27
 74
     0
 49
1.27
 74
     0
 49
-1.27
 74
     0
 49
1.27
 74
     0
 49
-1.27
 74
     0
  0
LTYPE
  5
6C
330
5
100
AcDbSymbolTableRecord
100
AcDbLinetypeTableRecord
  2
CENTER
 70
     0
  3
Center ____ _ ____ _ ____ _ ____ _ ____ _ ____
 72
    65
 73
     4
 40
10.16
 49
6.35
 74
     0
 49
-1.27
 74
     0
 49
1.27
 74
     0
 49
-1.27
 74
     0
  0
LTYPE
  5
6D
330
5
100
AcDbSymbolTableRecord
100
AcDbLinetypeTableRecord
  2
CENTERX2
 70
     0
  3
Center (2x) ________  __  ________  __  _____
 72
    65
 73
     4
 40
20.32
 49
12.7
 74
     0
 49
-2.54
 74
     0
 49
2.54
 74
     0
 49
-2.54
 74
     0
  0
LTYPE
  5
6E
330
5
100
AcDbSymbolTableRecord
100
AcDbLinetypeTableRecord
  2
DOT2
 70
     0
  3
Dot (.5x) ........................................
 72
    65
 73
     2
 40
0.635
 49
0.0
 74
     0
 49
-0.635
 74
     0
  0
ENDTAB
  0
TABLE
  2
LAYER
  5
2
330
0
100
AcDbSymbolTable
 70
    18
  0
LAYER
  5
10
330
2
100
AcDbSymbolTableRecord
100
AcDbLayerTableRecord
  2
0
 70
     0
 62
     7
  6
Continuous
370
    -3
390
F
  0
LAYER
  5
6F
330
2
100
AcDbSymbolTableRecord
100
AcDbLayerTableRecord
  2
FORMAT
 70
     0
 62
     2
  6
Continuous
370
    -3
390
F
  0
LAYER
  5
70
330
2
100
AcDbSymbolTableRecord
100
AcDbLayerTableRecord
  2
외형선
 70
     0
 62
     4
  6
Continuous
370
    30
390
F
  0
LAYER
  5
71
330
2
100
AcDbSymbolTableRecord
100
AcDbLayerTableRecord
  2
숨은선
 70
     0
 62
     2
  6
HIDDEN
370
    15
390
F
  0
LAYER
  5
72
330
2
100
AcDbSymbolTableRecord
100
AcDbLayerTableRecord
  2
중심선
 70
     0
 62
     1
  6
CENTERX2
370
    -3
390
F
  0
LAYER
  5
73
330
2
100
AcDbSymbolTableRecord
100
AcDbLayerTableRecord
  2
파단선
 70
     0
 62
     4
  6
Continuous
370
    -3
390
F
  0
LAYER
  5
74
330
2
100
AcDbSymbolTableRecord
100
AcDbLayerTableRecord
  2
해칭선
 70
     0
 62
   100
  6
Continuous
370
    -3
390
F
  0
LAYER
  5
75
330
2
100
AcDbSymbolTableRecord
100
AcDbLayerTableRecord
  2
가는실선
 70
     0
 62
     4
  6
Continuous
370
    -3
390
F
  0
LAYER
  5
76
330
2
100
AcDbSymbolTableRecord
100
AcDbLayerTableRecord
  2
치수_보조선
 70
     0
 62
     4
  6
Continuous
370
    -3
390
F
  0
LAYER
  5
77
330
2
100
AcDbSymbolTableRecord
100
AcDbLayerTableRecord
  2
치수문자_일반주서
 70
     0
 62
     7
  6
Continuous
370
    15
390
F
  0
LAYER
  5
78
330
2
100
AcDbSymbolTableRecord
100
AcDbLayerTableRecord
  2
개별주서
 70
     0
 62
   100
  6
Continuous
370
    30
390
F
  0
LAYER
  5
79
330
2
100
AcDbSymbolTableRecord
100
AcDbLayerTableRecord
  2
중간선
 70
     0
 62
     2
  6
Continuous
370
    15
390
F
  0
LAYER
  5
7A
330
2
100
AcDbSymbolTableRecord
100
AcDbLayerTableRecord
  2
윤곽선
 70
     0
 62
     3
  6
Continuous
370
    40
390
F
  0
LAYER
  5
7B
330
2
100
AcDbSymbolTableRecord
100
AcDbLayerTableRecord
  2
중심마크
 70
     0
 62
   100
  6
Continuous
370
    30
390
F
  0
LAYER
  5
7C
330
2
100
AcDbSymbolTableRecord
100
AcDbLayerTableRecord
  2
가상선
 70
     0
 62
     4
  6
PHANTOM
370
    -3
390
F
  0
LAYER
  5
7D
330
2
100
AcDbSymbolTableRecord
100
AcDbLayerTableRecord
  2
특수지정선
 70
     0
 62
     5
  6
CENTERX2
370
    60
390
F
  0
LAYER
  5
7E
330
2
100
AcDbSymbolTableRecord
100
AcDbLayerTableRecord
  2
참조1
 70
     0
 62
    -4
  6
Continuous
370
    -3
390
F
  0
LAYER
  5
160
330
2
100
AcDbSymbolTableRecord
100
AcDbLayerTableRecord
  2
Defpoints
 70
     0
 62
     7
  6
Continuous
290
     0
370
    -3
390
F
  0
ENDTAB
  0
TABLE
  2
STYLE
  5
3
330
0
100
AcDbSymbolTable
 70
     2
  0
STYLE
  5
11
330
3
100
AcDbSymbolTableRecord
100
AcDbTextStyleTableRecord
  2
Standard
 70
     0
 40
0.0
 41
1.0
 50
0.0
 71
     0
 42
3.5
  3
txt
  4

  0
STYLE
  5
94
330
3
100
AcDbSymbolTableRecord
100
AcDbTextStyleTableRecord
  2
SLDTEXTSTYLE0
 70
     0
 40
0.0
 41
0.75
 50
0.0
 71
     0
 42
3.5
  3
TXT
  4

  0
ENDTAB
  0
TABLE
  2
VIEW
  5
6
330
0
100
AcDbSymbolTable
 70
     0
  0
ENDTAB
  0
TABLE
  2
UCS
  5
7
330
0
100
AcDbSymbolTable
 70
     0
  0
ENDTAB
  0
TABLE
  2
APPID
  5
9
330
0
100
AcDbSymbolTable
 70
     1
  0
APPID
  5
12
330
9
100
AcDbSymbolTableRecord
100
AcDbRegAppTableRecord
  2
ACAD
 70
     0
  0
ENDTAB
  0
TABLE
  2
DIMSTYLE
  5
A
330
0
100
AcDbSymbolTable
 70
     3
100
AcDbDimStyleTable
  0
DIMSTYLE
105
27
330
A
100
AcDbSymbolTableRecord
100
AcDbDimStyleTableRecord
  2
ISO-25
 70
     0
 41
2.5
 42
0.625
 43
3.75
 44
1.25
 73
     0
 74
     0
 77
     1
 78
     8
140
2.5
141
2.5
143
0.03937007874016
147
0.625
171
     3
172
     1
178
     0
271
     2
272
     2
274
     3
278
    44
283
     0
284
     8
340
11
  0
DIMSTYLE
105
DF
102
{ACAD_REACTORS
330
1A1
330
1BC
330
1C9
330
3BD
330
3BF
330
3C0
330
593
102
}
330
A
100
AcDbSymbolTableRecord
100
AcDbDimStyleTableRecord
  2
SLDDIMSTYLE0
 70
     0
 41
3.302
 44
0.0
 45
0.000000001
 73
     0
 74
     0
 77
     1
 78
     4
 79
     1
140
3.5
143
0.0393700787401575
147
0.875
148
0.000000001
170
     1
173
     1
178
     0
271
     2
272
     2
276
     2
284
    12
340
94
  0
DIMSTYLE
105
F2
102
{ACAD_REACTORS
330
1AF
330
3BE
102
}
330
A
100
AcDbSymbolTableRecord
100
AcDbDimStyleTableRecord
  2
SLDDIMSTYLE1
 70
     0
 41
3.302
 44
0.0
 45
0.000000001
 73
     0
 74
     0
 77
     1
 78
     4
 79
     1
140
3.5
143
0.0393700787401575
147
0.875
148
0.000000001
170
     1
172
     1
173
     1
178
     0
271
     2
272
     2
276
     2
284
    12
289
     0
340
94
  0
ENDTAB
  0
TABLE
  2
BLOCK_RECORD
  5
1
330
0
100
AcDbSymbolTable
 70
    17
  0
BLOCK_RECORD
  5
1F
330
1
100
AcDbSymbolTableRecord
100
AcDbBlockTableRecord
  2
*Model_Space
340
22
  0
BLOCK_RECORD
  5
1B
330
1
100
AcDbSymbolTableRecord
100
AcDbBlockTableRecord
  2
*Paper_Space
340
1E
  0
BLOCK_RECORD
  5
23
330
1
100
AcDbSymbolTableRecord
100
AcDbBlockTableRecord
  2
*Paper_Space0
340
26
  0
BLOCK_RECORD
  5
7F
330
1
100
AcDbSymbolTableRecord
100
AcDbBlockTableRecord
  2
블럭10
340
0
102
{BLKREFS
331
D6
102
}
  0
BLOCK_RECORD
  5
E0
330
1
100
AcDbSymbolTableRecord
100
AcDbBlockTableRecord
  2
_D
340
0
  0
BLOCK_RECORD
  5
F3
330
1
100
AcDbSymbolTableRecord
100
AcDbBlockTableRecord
  2
_D_1
340
0
  0
BLOCK_RECORD
  5
108
330
1
100
AcDbSymbolTableRecord
100
AcDbBlockTableRecord
  2
_D_2
340
0
  0
BLOCK_RECORD
  5
11B
330
1
100
AcDbSymbolTableRecord
100
AcDbBlockTableRecord
  2
_D_3
340
0
  0
BLOCK_RECORD
  5
135
330
1
100
AcDbSymbolTableRecord
100
AcDbBlockTableRecord
  2
SW_DOWELSYMBOL_0
340
0
102
{BLKREFS
331
0
331
1D6
331
3C1
102
}
  0
BLOCK_RECORD
  5
375
330
1
100
AcDbSymbolTableRecord
100
AcDbBlockTableRecord
  2
*D8
340
0
  0
BLOCK_RECORD
  5
382
330
1
100
AcDbSymbolTableRecord
100
AcDbBlockTableRecord
  2
*D9
340
0
  0
BLOCK_RECORD
  5
38E
330
1
100
AcDbSymbolTableRecord
100
AcDbBlockTableRecord
  2
*D10
340
0
  0
BLOCK_RECORD
  5
39A
330
1
100
AcDbSymbolTableRecord
100
AcDbBlockTableRecord
  2
*D11
340
0
  0
BLOCK_RECORD
  5
558
330
1
100
AcDbSymbolTableRecord
100
AcDbBlockTableRecord
  2
*D12
340
0
  0
BLOCK_RECORD
  5
565
330
1
100
AcDbSymbolTableRecord
100
AcDbBlockTableRecord
  2
*D13
340
0
  0
BLOCK_RECORD
  5
571
330
1
100
AcDbSymbolTableRecord
100
AcDbBlockTableRecord
  2
*D14
340
0
  0
BLOCK_RECORD
  5
57D
330
1
100
AcDbSymbolTableRecord
100
AcDbBlockTableRecord
  2
*D15
340
0
  0
BLOCK_RECORD
  5
596
330
1
100
AcDbSymbolTableRecord
100
AcDbBlockTableRecord
  2
*D16
340
0
  0
ENDTAB
  0
ENDSEC
  0
SECTION
  2
BLOCKS
  0
BLOCK
  5
20
330
1F
100
AcDbEntity
  8
0
100
AcDbBlockBegin
  2
*Model_Space
 70
     0
 10
0.0
 20
0.0
 30
0.0
  3
*Model_Space
  1
*Model_Space
  0
ENDBLK
  5
21
330
1F
100
AcDbEntity
  8
0
100
AcDbBlockEnd
  0
BLOCK
  5
1C
330
1B
100
AcDbEntity
 67
     1
  8
0
100
AcDbBlockBegin
  2
*Paper_Space
 70
     0
 10
0.0
 20
0.0
 30
0.0
  3
*Paper_Space
  1
*Paper_Space
  0
ENDBLK
  5
1D
330
1B
100
AcDbEntity
 67
     1
  8
0
100
AcDbBlockEnd
  0
BLOCK
  5
24
330
23
100
AcDbEntity
  8
0
100
AcDbBlockBegin
  2
*Paper_Space0
 70
     0
 10
0.0
 20
0.0
 30
0.0
  3
*Paper_Space0
  1
*Paper_Space0
  0
ENDBLK
  5
25
330
23
100
AcDbEntity
  8
0
100
AcDbBlockEnd
  0
BLOCK
  5
80
330
7F
100
AcDbEntity
  8
0
100
AcDbBlockBegin
  2
블럭10
 70
     2
 10
0.0
 20
0.0
 30
0.0
  3
블럭10
  1
블럭10
  0
ELLIPSE
  5
82
330
7F
100
AcDbEntity
  8
중심선
100
AcDbEllipse
 10
20.54032771741204
 20
12.0471743016438
 30
0.0
 11
6.600054785286829
 21
-1.261213355974178E-13
 31
0.0
210
0.0
220
0.0
230
1.0
 40
0.636358354079598
 41
0.9219305317359503
 42
6.513795318482858
  0
ELLIPSE
  5
83
330
7F
100
AcDbEntity
  8
중심선
100
AcDbEllipse
 10
20.54032771746488
 20
12.04717430159265
 30
0.0
 11
3.960054785062283
 21
1.540847449632565E-10
 31
0.0
210
0.0
220
0.0
230
1.0
 40
0.3939339440162632
 41
1.131841032648279
 42
5.62031148352944
  0
LINE
  5
84
330
7F
100
AcDbEntity
  8
중심선
100
AcDbLine
 10
2.268634060543552
 20
16.24717430164393
 30
0.0
 11
5.714909304380834
 21
16.24717430164393
 31
0.0
  0
LINE
  5
85
330
7F
100
AcDbEntity
  8
중심선
100
AcDbLine
 10
5.245725140726316
 20
7.84717430164391
 30
0.0
 11
8.692000384563599
 21
7.84717430164391
 31
0.0
  0
LINE
  5
86
330
7F
100
AcDbEntity
  8
중심선
100
AcDbLine
 10
15.74043728645272
 20
16.24717430164393
 30
0.0
 11
8.692000384563599
 21
7.84717430164391
 31
0.0
  0
LINE
  5
87
330
7F
100
AcDbEntity
  8
중심선
100
AcDbLine
 10
0.1404042013395286
 20
13.71084872107135
 30
0.0
 11
3.58671253028996
 21
13.71088815037384
 31
0.0
  0
LINE
  5
88
330
7F
100
AcDbEntity
  8
중심선
100
AcDbLine
 10
2.750260043222114
 20
10.84717430164391
 30
0.0
 11
6.196535287059397
 21
10.84717430164391
 31
0.0
  0
LINE
  5
89
330
7F
100
AcDbEntity
  8
중심선
100
AcDbLine
 10
12.29416204261559
 20
16.24717430164393
 30
0.0
 11
5.245725140726316
 21
7.84717430164391
 31
0.0
  0
LINE
  5
8A
330
7F
100
AcDbEntity
  8
중심선
100
AcDbLine
 10
10.72767329541681
 20
16.24717430164393
 30
0.0
 11
6.196535287059397
 21
10.84717430164391
 31
0.0
  0
LINE
  5
8B
330
7F
100
AcDbEntity
  8
중심선
100
AcDbLine
 10
7.28139805157953
 20
16.24717430164393
 30
0.0
 11
2.750260043222114
 21
10.84717430164391
 31
0.0
  0
LINE
  5
8C
330
7F
100
AcDbEntity
  8
중심선
100
AcDbLine
 10
5.714909304380834
 20
16.24717430164393
 30
0.0
 11
3.58671253028996
 21
13.71088815037384
 31
0.0
  0
LINE
  5
8D
330
7F
100
AcDbEntity
  8
중심선
100
AcDbLine
 10
2.268634060543552
 20
16.24717430164393
 30
0.0
 11
0.1404042013395286
 21
13.71084872107135
 31
0.0
  0
LINE
  5
8E
330
7F
100
AcDbEntity
  8
중심선
100
AcDbLine
 10
7.28139805157953
 20
16.24717430164393
 30
0.0
 11
10.72767329541681
 21
16.24717430164393
 31
0.0
  0
LINE
  5
8F
330
7F
100
AcDbEntity
  8
중심선
100
AcDbLine
 10
12.29416204261559
 20
16.24717430164393
 30
0.0
 11
15.74043728645272
 21
16.24717430164393
 31
0.0
  0
LINE
  5
90
330
7F
100
AcDbEntity
  8
중심선
100
AcDbLine
 10
19.22036997980202
 20
11.08717430171403
 30
0.0
 11
23.66174974927406
 21
11.08717430171406
 31
0.0
  0
LINE
  5
91
330
7F
100
AcDbEntity
  8
중심선
100
AcDbLine
 10
19.22039502424796
 20
13.00717430171391
 30
0.0
 11
19.22036997980202
 21
11.08717430171403
 31
0.0
  0
LINE
  5
92
330
7F
100
AcDbEntity
  8
중심선
100
AcDbLine
 10
19.22039502424796
 20
13.00717430171391
 30
0.0
 11
26.96566020931264
 21
13.00717430171391
 31
0.0
  0
LINE
  5
93
330
7F
100
AcDbEntity
  8
중심선
100
AcDbLine
 10
22.22332737316547
 20
13.45928029700563
 30
0.0
 11
24.52862924686651
 21
15.39360700705356
 31
0.0
  0
ATTDEF
  5
95
330
7F
100
AcDbEntity
  8
FORMAT
 62
     2
100
AcDbText
 10
-9.522313950597932
 20
2.075366912832191
 30
0.0
 40
4.233333333333333
  1
EH970032 [ 4 FLUTE ]
 41
0.75
  7
SLDTEXTSTYLE0
 11
-9.522313950597932
 21
-0.0412997538344756
 31
0.0
100
AcDbAttributeDefinition
  3

  2
AUTOATTR0
 70
     0
 74
     1
  0
ENDBLK
  5
81
330
7F
100
AcDbEntity
  8
0
100
AcDbBlockEnd
  0
BLOCK
  5
E1
330
E0
100
AcDbEntity
  8
0
100
AcDbBlockBegin
  2
_D
 70
     0
 10
0.0
 20
0.0
 30
0.0
  3
_D
  1
_D
  0
SOLID
  5
E3
330
E0
100
AcDbEntity
  8
치수문자_일반주서
100
AcDbTrace
 10
48.97580345719317
 20
6.353060170746936
 30
0.0
 11
48.46780345719317
 21
3.051060170746936
 31
0.0
 12
49.48380345719318
 22
3.051060170746936
 32
0.0
 13
49.48380345719318
 23
3.051060170746936
 33
0.0
  0
SOLID
  5
E4
330
E0
100
AcDbEntity
  8
치수문자_일반주서
100
AcDbTrace
 10
48.97580345719317
 20
-6.346939829253051
 30
0.0
 11
49.48380345719318
 21
-3.044939829253051
 31
0.0
 12
48.46780345719317
 22
-3.044939829253051
 32
0.0
 13
48.46780345719317
 23
-3.044939829253051
 33
0.0
  0
LINE
  5
E5
330
E0
100
AcDbEntity
  8
치수문자_일반주서
100
AcDbLine
 10
38.18292174115044
 20
10.33905106426227
 30
0.0
 11
38.18292174115045
 21
9.62811357869777
 31
0.0
  0
LINE
  5
E6
330
E0
100
AcDbEntity
  8
치수문자_일반주서
100
AcDbLine
 10
38.18292174115045
 20
9.62811357869777
 30
0.0
 11
43.73917173220975
 21
9.628113578697809
 31
0.0
  0
LINE
  5
E7
330
E0
100
AcDbEntity
  8
치수문자_일반주서
100
AcDbLine
 10
43.73917173220975
 20
9.628113578697809
 30
0.0
 11
43.73917173220975
 21
10.33905106426231
 31
0.0
  0
LINE
  5
E8
330
E0
100
AcDbEntity
  8
치수문자_일반주서
100
AcDbLine
 10
38.18292174115037
 20
21.16778392639953
 30
0.0
 11
38.18292174115037
 21
21.87872141196403
 31
0.0
  0
LINE
  5
E9
330
E0
100
AcDbEntity
  8
치수문자_일반주서
100
AcDbLine
 10
38.18292174115037
 20
21.87872141196403
 30
0.0
 11
43.73917173220967
 21
21.87872141196407
 31
0.0
  0
LINE
  5
EA
330
E0
100
AcDbEntity
  8
치수문자_일반주서
100
AcDbLine
 10
43.73917173220967
 20
21.87872141196407
 30
0.0
 11
43.73917173220968
 21
21.16778392639957
 31
0.0
  0
LINE
  5
EB
330
E0
100
AcDbEntity
  8
치수문자_일반주서
100
AcDbLine
 10
8.906181774532035
 20
6.353060170746938
 30
0.0
 11
49.97580345719317
 21
6.353060170746936
 31
0.0
  0
LINE
  5
EC
330
E0
100
AcDbEntity
  8
치수문자_일반주서
100
AcDbLine
 10
48.97580345719317
 20
6.353060170746936
 30
0.0
 11
48.97580345719317
 21
24.211386438152
 31
0.0
  0
LINE
  5
ED
330
E0
100
AcDbEntity
  8
치수문자_일반주서
100
AcDbLine
 10
48.97580345719317
 20
6.353060170746936
 30
0.0
 11
48.97580345719317
 21
-6.346939829253051
 31
0.0
  0
MTEXT
  5
EE
330
E0
100
AcDbEntity
  8
치수문자_일반주서
100
AcDbMText
 10
39.22743481763085
 20
11.22772296487365
 30
0.0
 40
3.5
 41
0.0
 71
     1
 72
     1
  1
0.50
  7
SLDTEXTSTYLE0
 11
-7.044195017643634E-15
 21
1.0
 31
0.0
 73
     1
 44
1.0
  0
MTEXT
  5
EF
330
E0
100
AcDbEntity
  8
치수문자_일반주서
100
AcDbMText
 10
44.46406636799135
 20
7.295448552509915
 30
0.0
 40
3.5
 41
0.0
 71
     1
 72
     1
  1
%%c
  7
SLDTEXTSTYLE0
 11
-7.044195017643634E-15
 21
1.0
 31
0.0
 73
     1
 44
1.0
  0
MTEXT
  5
F0
330
E0
100
AcDbEntity
  8
치수문자_일반주서
100
AcDbMText
 10
44.46406636799131
 20
12.573885950884
 30
0.0
 40
3.5
 41
0.0
 71
     1
 72
     1
  1
12.70
  7
SLDTEXTSTYLE0
 11
-7.044195017643634E-15
 21
1.0
 31
0.0
 73
     1
 44
1.0
  0
ENDBLK
  5
E2
330
E0
100
AcDbEntity
  8
0
100
AcDbBlockEnd
  0
BLOCK
  5
F4
330
F3
100
AcDbEntity
  8
0
100
AcDbBlockBegin
  2
_D_1
 70
     0
 10
0.0
 20
0.0
 30
0.0
  3
_D_1
  1
_D_1
  0
SOLID
  5
F6
330
F3
100
AcDbEntity
  8
치수문자_일반주서
100
AcDbTrace
 10
35.40000000000001
 20
16.50237832927206
 30
0.0
 11
38.70200000000001
 21
15.99437832927206
 31
0.0
 12
38.70200000000001
 22
17.01037832927206
 32
0.0
 13
38.70200000000001
 23
17.01037832927206
 33
0.0
  0
SOLID
  5
F7
330
F3
100
AcDbEntity
  8
치수문자_일반주서
100
AcDbTrace
 10
10.0
 20
16.50237832927204
 30
0.0
 11
6.698000000000004
 21
17.01037832927204
 31
0.0
 12
6.698000000000004
 22
15.99437832927205
 32
0.0
 13
6.698000000000004
 23
15.99437832927205
 33
0.0
  0
LINE
  5
F8
330
F3
100
AcDbEntity
  8
치수문자_일반주서
100
AcDbLine
 10
17.28563391817735
 20
27.29526004531483
 30
0.0
 11
16.57469643261285
 21
27.29526004531482
 31
0.0
  0
LINE
  5
F9
330
F3
100
AcDbEntity
  8
치수문자_일반주서
100
AcDbLine
 10
16.57469643261285
 20
27.29526004531482
 30
0.0
 11
16.57469643261289
 21
21.73901005425552
 31
0.0
  0
LINE
  5
FA
330
F3
100
AcDbEntity
  8
치수문자_일반주서
100
AcDbLine
 10
16.57469643261289
 20
21.73901005425552
 30
0.0
 11
17.28563391817739
 21
21.73901005425552
 31
0.0
  0
LINE
  5
FB
330
F3
100
AcDbEntity
  8
치수문자_일반주서
100
AcDbLine
 10
28.11436678031461
 20
27.2952600453149
 30
0.0
 11
28.82530426587911
 21
27.29526004531491
 31
0.0
  0
LINE
  5
FC
330
F3
100
AcDbEntity
  8
치수문자_일반주서
100
AcDbLine
 10
28.82530426587911
 20
27.29526004531491
 30
0.0
 11
28.82530426587915
 21
21.7390100542556
 31
0.0
  0
LINE
  5
FD
330
F3
100
AcDbEntity
  8
치수문자_일반주서
100
AcDbLine
 10
28.82530426587915
 20
21.7390100542556
 30
0.0
 11
28.11436678031465
 21
21.7390100542556
 31
0.0
  0
LINE
  5
FE
330
F3
100
AcDbEntity
  8
치수문자_일반주서
100
AcDbLine
 10
35.40000000000001
 20
7.078851785837108
 30
0.0
 11
35.40000000000001
 21
17.50237832927206
 31
0.0
  0
LINE
  5
FF
330
F3
100
AcDbEntity
  8
치수문자_일반주서
100
AcDbLine
 10
10.00000000000001
 20
7.011305930491002
 30
0.0
 11
10.0
 21
17.50237832927204
 31
0.0
  0
LINE
  5
100
330
F3
100
AcDbEntity
  8
치수문자_일반주서
100
AcDbLine
 10
35.40000000000001
 20
16.50237832927206
 30
0.0
 11
41.75000000000001
 21
16.50237832927206
 31
0.0
  0
LINE
  5
101
330
F3
100
AcDbEntity
  8
치수문자_일반주서
100
AcDbLine
 10
35.40000000000001
 20
16.50237832927206
 30
0.0
 11
10.0
 21
16.50237832927204
 31
0.0
  0
LINE
  5
102
330
F3
100
AcDbEntity
  8
치수문자_일반주서
100
AcDbLine
 10
10.0
 20
16.50237832927204
 30
0.0
 11
3.650000000000004
 21
16.50237832927204
 31
0.0
  0
MTEXT
  5
103
330
F3
100
AcDbEntity
  8
치수문자_일반주서
100
AcDbMText
 10
16.0609377071262
 20
21.06758759513379
 30
0.0
 40
3.5
 41
0.0
 71
     1
 72
     1
  1

  7
SLDTEXTSTYLE0
 73
     1
 44
1.0
  0
MTEXT
  5
104
330
F3
100
AcDbEntity
  8
치수문자_일반주서
100
AcDbMText
 10
18.17430581878873
 20
26.25074696883442
 30
0.0
 40
3.5
 41
0.0
 71
     1
 72
     1
  1
1.00
  7
SLDTEXTSTYLE0
 73
     1
 44
1.0
  0
MTEXT
  5
105
330
F3
100
AcDbEntity
  8
치수문자_일반주서
100
AcDbMText
 10
16.88125010561204
 20
21.01411541847395
 30
0.0
 40
3.5
 41
0.0
 71
     1
 72
     1
  1
25.40
  7
SLDTEXTSTYLE0
 73
     1
 44
1.0
  0
MTEXT
  5
106
330
F3
100
AcDbEntity
  8
치수문자_일반주서
100
AcDbMText
 10
30.67100751101977
 20
21.0675875951339
 30
0.0
 40
3.5
 41
0.0
 71
     1
 72
     1
  1

  7
SLDTEXTSTYLE0
 73
     1
 44
1.0
  0
ENDBLK
  5
F5
330
F3
100
AcDbEntity
  8
0
100
AcDbBlockEnd
  0
BLOCK
  5
109
330
108
100
AcDbEntity
  8
0
100
AcDbBlockBegin
  2
_D_2
 70
     0
 10
0.0
 20
0.0
 30
0.0
  3
_D_2
  1
_D_2
  0
SOLID
  5
10B
330
108
100
AcDbEntity
  8
치수문자_일반주서
100
AcDbTrace
 10
35.40000000000001
 20
31.97383433278054
 30
0.0
 11
32.09800000000001
 21
32.48183433278054
 31
0.0
 12
32.09800000000001
 22
31.46583433278055
 32
0.0
 13
32.09800000000001
 23
31.46583433278055
 33
0.0
  0
SOLID
  5
10C
330
108
100
AcDbEntity
  8
치수문자_일반주서
100
AcDbTrace
 10
-40.8
 20
31.97383433278052
 30
0.0
 11
-37.498
 21
31.46583433278052
 31
0.0
 12
-37.498
 22
32.48183433278052
 32
0.0
 13
-37.498
 23
32.48183433278052
 33
0.0
  0
LINE
  5
10D
330
108
100
AcDbEntity
  8
치수문자_일반주서
100
AcDbLine
 10
-8.114366081822645
 20
42.76671604882331
 30
0.0
 11
-8.825303567387145
 21
42.76671604882331
 31
0.0
  0
LINE
  5
10E
330
108
100
AcDbEntity
  8
치수문자_일반주서
100
AcDbLine
 10
-8.825303567387145
 20
42.76671604882331
 30
0.0
 11
-8.825303567387106
 21
37.210466057764
 31
0.0
  0
LINE
  5
10F
330
108
100
AcDbEntity
  8
치수문자_일반주서
100
AcDbLine
 10
-8.825303567387106
 20
37.210466057764
 30
0.0
 11
-8.114366081822606
 21
37.21046605776401
 31
0.0
  0
LINE
  5
110
330
108
100
AcDbEntity
  8
치수문자_일반주서
100
AcDbLine
 10
2.714366780314613
 20
42.76671604882338
 30
0.0
 11
3.425304265879113
 21
42.76671604882339
 31
0.0
  0
LINE
  5
111
330
108
100
AcDbEntity
  8
치수문자_일반주서
100
AcDbLine
 10
3.425304265879113
 20
42.76671604882339
 30
0.0
 11
3.425304265879152
 21
37.21046605776409
 31
0.0
  0
LINE
  5
112
330
108
100
AcDbEntity
  8
치수문자_일반주서
100
AcDbLine
 10
3.425304265879152
 20
37.21046605776409
 30
0.0
 11
2.714366780314652
 21
37.21046605776408
 31
0.0
  0
LINE
  5
113
330
108
100
AcDbEntity
  8
치수문자_일반주서
100
AcDbLine
 10
35.40000000000001
 20
7.078851785837108
 30
0.0
 11
35.40000000000001
 21
32.97383433278055
 31
0.0
  0
LINE
  5
114
330
108
100
AcDbEntity
  8
치수문자_일반주서
100
AcDbLine
 10
-40.79999999999999
 20
6.353060170746928
 30
0.0
 11
-40.8
 21
32.97383433278052
 31
0.0
  0
LINE
  5
115
330
108
100
AcDbEntity
  8
치수문자_일반주서
100
AcDbLine
 10
35.40000000000001
 20
31.97383433278054
 30
0.0
 11
-40.8
 21
31.97383433278052
 31
0.0
  0
MTEXT
  5
116
330
108
100
AcDbEntity
  8
치수문자_일반주서
100
AcDbMText
 10
-9.339062292873797
 20
36.53904359864227
 30
0.0
 40
3.5
 41
0.0
 71
     1
 72
     1
  1

  7
SLDTEXTSTYLE0
 73
     1
 44
1.0
  0
MTEXT
  5
117
330
108
100
AcDbEntity
  8
치수문자_일반주서
100
AcDbMText
 10
-7.225694181211267
 20
41.7222029723429
 30
0.0
 40
3.5
 41
0.0
 71
     1
 72
     1
  1
3.00
  7
SLDTEXTSTYLE0
 73
     1
 44
1.0
  0
MTEXT
  5
118
330
108
100
AcDbEntity
  8
치수문자_일반주서
100
AcDbMText
 10
-8.518749894387959
 20
36.48557142198242
 30
0.0
 40
3.5
 41
0.0
 71
     1
 72
     1
  1
76.20
  7
SLDTEXTSTYLE0
 73
     1
 44
1.0
  0
MTEXT
  5
119
330
108
100
AcDbEntity
  8
치수문자_일반주서
100
AcDbMText
 10
5.27100751101977
 20
36.53904359864237
 30
0.0
 40
3.5
 41
0.0
 71
     1
 72
     1
  1

  7
SLDTEXTSTYLE0
 73
     1
 44
1.0
  0
ENDBLK
  5
10A
330
108
100
AcDbEntity
  8
0
100
AcDbBlockEnd
  0
BLOCK
  5
11C
330
11B
100
AcDbEntity
  8
0
100
AcDbBlockBegin
  2
_D_3
 70
     0
 10
0.0
 20
0.0
 30
0.0
  3
_D_3
  1
_D_3
  0
SOLID
  5
11E
330
11B
100
AcDbEntity
  8
치수문자_일반주서
100
AcDbTrace
 10
-53.61000000000001
 20
6.353060170746928
 30
0.0
 11
-53.102
 21
9.655060170746928
 31
0.0
 12
-54.11800000000001
 22
9.655060170746928
 32
0.0
 13
-54.11800000000001
 23
9.655060170746928
 33
0.0
  0
SOLID
  5
11F
330
11B
100
AcDbEntity
  8
치수문자_일반주서
100
AcDbTrace
 10
-53.61000000000001
 20
-6.346939829253062
 30
0.0
 11
-54.11800000000001
 21
-9.648939829253061
 31
0.0
 12
-53.102
 22
-9.648939829253061
 32
0.0
 13
-53.102
 23
-9.648939829253061
 33
0.0
  0
LINE
  5
120
330
11B
100
AcDbEntity
  8
치수문자_일반주서
100
AcDbLine
 10
-64.40288171604271
 20
-5.411306260321777
 30
0.0
 11
-64.40288171604271
 21
-6.122243745886277
 31
0.0
  0
LINE
  5
121
330
11B
100
AcDbEntity
  8
치수문자_일반주서
100
AcDbLine
 10
-64.40288171604271
 20
-6.122243745886277
 30
0.0
 11
-58.84663172498342
 21
-6.122243745886238
 31
0.0
  0
LINE
  5
122
330
11B
100
AcDbEntity
  8
치수문자_일반주서
100
AcDbLine
 10
-58.84663172498342
 20
-6.122243745886238
 30
0.0
 11
-58.84663172498342
 21
-5.411306260321738
 31
0.0
  0
LINE
  5
123
330
11B
100
AcDbEntity
  8
치수문자_일반주서
100
AcDbLine
 10
-64.4028817160428
 20
5.417426601815481
 30
0.0
 11
-64.4028817160428
 21
6.128364087379981
 31
0.0
  0
LINE
  5
124
330
11B
100
AcDbEntity
  8
치수문자_일반주서
100
AcDbLine
 10
-64.4028817160428
 20
6.128364087379981
 30
0.0
 11
-58.8466317249835
 21
6.12836408738002
 31
0.0
  0
LINE
  5
125
330
11B
100
AcDbEntity
  8
치수문자_일반주서
100
AcDbLine
 10
-58.8466317249835
 20
6.12836408738002
 30
0.0
 11
-58.8466317249835
 21
5.41742660181552
 31
0.0
  0
LINE
  5
126
330
11B
100
AcDbEntity
  8
치수문자_일반주서
100
AcDbLine
 10
-40.79999999999998
 20
6.353060170746929
 30
0.0
 11
-54.61000000000001
 21
6.353060170746928
 31
0.0
  0
LINE
  5
127
330
11B
100
AcDbEntity
  8
치수문자_일반주서
100
AcDbLine
 10
-40.79999999999998
 20
-6.346939829253061
 30
0.0
 11
-54.61000000000001
 21
-6.346939829253062
 31
0.0
  0
LINE
  5
128
330
11B
100
AcDbEntity
  8
치수문자_일반주서
100
AcDbLine
 10
-53.61000000000001
 20
6.353060170746928
 30
0.0
 11
-53.61000000000001
 21
12.70306017074693
 31
0.0
  0
LINE
  5
129
330
11B
100
AcDbEntity
  8
치수문자_일반주서
100
AcDbLine
 10
-53.61000000000001
 20
6.353060170746928
 30
0.0
 11
-53.61000000000001
 21
-6.346939829253062
 31
0.0
  0
LINE
  5
12A
330
11B
100
AcDbEntity
  8
치수문자_일반주서
100
AcDbLine
 10
-53.61000000000001
 20
-6.346939829253062
 30
0.0
 11
-53.61000000000001
 21
-12.69693982925306
 31
0.0
  0
MTEXT
  5
12B
330
11B
100
AcDbEntity
  8
치수문자_일반주서
100
AcDbMText
 10
-63.35836863956233
 20
-4.522634359710399
 30
0.0
 40
3.5
 41
0.0
 71
     1
 72
     1
  1
0.50
  7
SLDTEXTSTYLE0
 11
-7.044195017643634E-15
 21
1.0
 31
0.0
 73
     1
 44
1.0
  0
MTEXT
  5
12C
330
11B
100
AcDbEntity
  8
치수문자_일반주서
100
AcDbMText
 10
-58.12173708920182
 20
-8.45490877207413
 30
0.0
 40
3.5
 41
0.0
 71
     1
 72
     1
  1
%%c
  7
SLDTEXTSTYLE0
 11
-7.044195017643634E-15
 21
1.0
 31
0.0
 73
     1
 44
1.0
  0
MTEXT
  5
12D
330
11B
100
AcDbEntity
  8
치수문자_일반주서
100
AcDbMText
 10
-58.12173708920185
 20
-3.17647137370005
 30
0.0
 40
3.5
 41
0.0
 71
     1
 72
     1
  1
12.70
  7
SLDTEXTSTYLE0
 11
-7.044195017643634E-15
 21
1.0
 31
0.0
 73
     1
 44
1.0
  0
ENDBLK
  5
11D
330
11B
100
AcDbEntity
  8
0
100
AcDbBlockEnd
  0
BLOCK
  5
136
330
135
100
AcDbEntity
  8
0
100
AcDbBlockBegin
  2
SW_DOWELSYMBOL_0
 70
     0
 10
0.0
 20
0.0
 30
0.0
  3
SW_DOWELSYMBOL_0
  1
SW_DOWELSYMBOL_0
  0
CIRCLE
  5
138
330
135
100
AcDbEntity
  8
해칭선
 62
     0
100
AcDbCircle
 10
0.0
 20
0.0
 30
0.0
 40
3.000000000000004
  0
HATCH
  5
139
330
135
100
AcDbEntity
  8
0
  6
Continuous
 62
     0
370
     0
100
AcDbHatch
 10
0.0
 20
0.0
 30
0.0
210
0.0
220
0.0
230
1.0
  2
SOLID
 70
     1
 71
     0
 91
        1
 92
        0
 93
        3
 72
     2
 10
0.0000000000000069
 20
-0.0000000000000035
 40
3.000000000000004
 50
0.0
 51
90.0
 73
     1
 72
     1
 10
0.0000000000000069
 20
3.000000000000001
 11
0.0000000000000069
 21
-0.0000000000000036
 72
     1
 10
0.0000000000000069
 20
-0.0000000000000035
 11
3.000000000000012
 21
-0.0000000000000035
 97
        0
 75
     0
 76
     1
 98
        1
 10
0.0
 20
0.0
  0
HATCH
  5
13A
330
135
100
AcDbEntity
  8
0
  6
Continuous
 62
     0
370
     0
100
AcDbHatch
 10
0.0
 20
0.0
 30
0.0
210
0.0
220
0.0
230
1.0
  2
SOLID
 70
     1
 71
     0
 91
        1
 92
        0
 93
        3
 72
     2
 10
0.0000000000000069
 20
-0.0000000000000035
 40
3.000000000000004
 50
180.0
 51
270.0000000000008
 73
     1
 72
     1
 10
0.0000000000000069
 20
-3.000000000000008
 11
0.0000000000000069
 21
-0.0000000000000036
 72
     1
 10
0.0000000000000069
 20
-0.0000000000000035
 11
-2.999999999999997
 21
-0.0000000000000035
 97
        0
 75
     0
 76
     1
 98
        1
 10
0.0
 20
0.0
  0
ENDBLK
  5
137
330
135
100
AcDbEntity
  8
0
100
AcDbBlockEnd
  0
BLOCK
  5
376
330
375
100
AcDbEntity
  8
0
100
AcDbBlockBegin
  2
*D8
 70
     1
 10
0.0
 20
0.0
 30
0.0
  3
*D8
  1
*D8
  0
LINE
  5
378
330
375
100
AcDbEntity
  8
치수문자_일반주서
 62
     0
370
    -2
100
AcDbLine
 10
61.94280682657951
 20
19.83609434762065
 30
0.0
 11
107.7496093507122
 21
19.83609434762082
 31
0.0
  0
LINE
  5
379
330
375
100
AcDbEntity
  8
치수문자_일반주서
 62
     0
370
    -2
100
AcDbLine
 10
80.47250041513769
 20
7.136094347620643
 30
0.0
 11
107.7496093507123
 21
7.136094347620745
 31
0.0
  0
LINE
  5
37A
330
375
100
AcDbEntity
  8
치수문자_일반주서
 62
     0
370
    -2
100
AcDbLine
 10
107.7496093507122
 20
19.83609434762082
 30
0.0
 11
107.7496093507121
 21
50.26309434762081
 31
0.0
  0
LINE
  5
37B
330
375
100
AcDbEntity
  8
치수문자_일반주서
 62
     0
370
    -2
100
AcDbLine
 10
107.7496093507122
 20
16.53409434762082
 30
0.0
 11
107.7496093507123
 21
10.43809434762074
 31
0.0
  0
SOLID
  5
37C
330
375
100
AcDbEntity
  8
치수문자_일반주서
 62
     0
100
AcDbTrace
 10
108.2999426840456
 20
16.53409434762083
 30
0.0
 11
107.1992760173789
 21
16.53409434762082
 31
0.0
 12
107.7496093507122
 22
19.83609434762082
 32
0.0
 13
107.7496093507122
 23
19.83609434762082
 33
0.0
  0
SOLID
  5
37D
330
375
100
AcDbEntity
  8
치수문자_일반주서
 62
     0
100
AcDbTrace
 10
107.1992760173789
 20
10.43809434762074
 30
0.0
 11
108.2999426840456
 21
10.43809434762075
 31
0.0
 12
107.7496093507123
 22
7.136094347620745
 32
0.0
 13
107.7496093507123
 23
7.136094347620745
 33
0.0
  0
MTEXT
  5
37E
330
375
100
AcDbEntity
  8
치수문자_일반주서
 62
     0
100
AcDbMText
 10
103.3746093507122
 20
36.9193443476208
 30
0.0
 40
3.5
 41
0.0
 71
     2
 72
     1
  1
\A1;%%c12.70 [1/2]
  7
SLDTEXTSTYLE0
 11
-3.356894814614626E-15
 21
1.0
 31
0.0
 73
     1
 44
1.0
  0
POINT
  5
37F
330
375
100
AcDbEntity
  8
Defpoints
 62
     0
100
AcDbPoint
 10
61.88030682657951
 20
19.83609434762065
 30
0.0
  0
POINT
  5
380
330
375
100
AcDbEntity
  8
Defpoints
 62
     0
100
AcDbPoint
 10
80.41000041513769
 20
7.136094347620643
 30
0.0
  0
POINT
  5
381
330
375
100
AcDbEntity
  8
Defpoints
 62
     0
100
AcDbPoint
 10
107.7496093507123
 20
7.136094347620745
 30
0.0
  0
ENDBLK
  5
377
330
375
100
AcDbEntity
  8
0
100
AcDbBlockEnd
  0
BLOCK
  5
383
330
382
100
AcDbEntity
  8
0
100
AcDbBlockBegin
  2
*D9
 70
     1
 10
0.0
 20
0.0
 30
0.0
  3
*D9
  1
*D9
  0
LINE
  5
385
330
382
100
AcDbEntity
  8
치수문자_일반주서
 62
     0
370
    -2
100
AcDbLine
 10
15.12250000000006
 20
19.83609434762064
 30
0.0
 11
4.375000000000017
 21
19.83609434762059
 31
0.0
  0
LINE
  5
386
330
382
100
AcDbEntity
  8
치수문자_일반주서
 62
     0
370
    -2
100
AcDbLine
 10
15.12250000000006
 20
7.136094347620649
 30
0.0
 11
4.375000000000061
 21
7.136094347620606
 31
0.0
  0
LINE
  5
387
330
382
100
AcDbEntity
  8
치수문자_일반주서
 62
     0
370
    -2
100
AcDbLine
 10
4.375000000000028
 20
16.5340943476206
 30
0.0
 11
4.37500000000005
 21
10.43809434762061
 31
0.0
  0
SOLID
  5
388
330
382
100
AcDbEntity
  8
치수문자_일반주서
 62
     0
100
AcDbTrace
 10
4.925333333333362
 20
16.5340943476206
 30
0.0
 11
3.824666666666695
 21
16.53409434762059
 31
0.0
 12
4.375000000000017
 22
19.83609434762059
 32
0.0
 13
4.375000000000017
 23
19.83609434762059
 33
0.0
  0
SOLID
  5
389
330
382
100
AcDbEntity
  8
치수문자_일반주서
 62
     0
100
AcDbTrace
 10
3.824666666666717
 20
10.4380943476206
 30
0.0
 11
4.925333333333383
 21
10.43809434762061
 31
0.0
 12
4.375000000000061
 22
7.136094347620606
 32
0.0
 13
4.375000000000061
 23
7.136094347620606
 33
0.0
  0
MTEXT
  5
38A
330
382
100
AcDbEntity
  8
치수문자_일반주서
 62
     0
100
AcDbMText
 10
0.0000000000000426
 20
12.46875000000001
 30
0.0
 40
3.5
 41
0.0
 71
     2
 72
     1
  1
\A1;%%c12.70 [1/2]
  7
SLDTEXTSTYLE0
 11
-3.496765431890261E-15
 21
1.0
 31
0.0
 73
     1
 44
1.0
  0
POINT
  5
38B
330
382
100
AcDbEntity
  8
Defpoints
 62
     0
100
AcDbPoint
 10
15.18500000000006
 20
19.83609434762064
 30
0.0
  0
POINT
  5
38C
330
382
100
AcDbEntity
  8
Defpoints
 62
     0
100
AcDbPoint
 10
15.18500000000006
 20
7.136094347620649
 30
0.0
  0
POINT
  5
38D
330
382
100
AcDbEntity
  8
Defpoints
 62
     0
100
AcDbPoint
 10
4.375000000000057
 20
7.136094347620609
 30
0.0
  0
ENDBLK
  5
384
330
382
100
AcDbEntity
  8
0
100
AcDbBlockEnd
  0
BLOCK
  5
38F
330
38E
100
AcDbEntity
  8
0
100
AcDbBlockBegin
  2
*D10
 70
     1
 10
0.0
 20
0.0
 30
0.0
  3
*D10
  1
*D10
  0
LINE
  5
391
330
38E
100
AcDbEntity
  8
치수문자_일반주서
 62
     0
370
    -2
100
AcDbLine
 10
90.38500000000005
 20
19.26984803453227
 30
0.0
 11
90.38500000000005
 21
36.53506319716041
 31
0.0
  0
LINE
  5
392
330
38E
100
AcDbEntity
  8
치수문자_일반주서
 62
     0
370
    -2
100
AcDbLine
 10
64.98500000000004
 20
19.1546097797711
 30
0.0
 11
64.98500000000004
 21
36.53506319716041
 31
0.0
  0
LINE
  5
393
330
38E
100
AcDbEntity
  8
치수문자_일반주서
 62
     0
370
    -2
100
AcDbLine
 10
87.08300000000006
 20
36.53506319716041
 30
0.0
 11
68.28700000000003
 21
36.53506319716041
 31
0.0
  0
SOLID
  5
394
330
38E
100
AcDbEntity
  8
치수문자_일반주서
 62
     0
100
AcDbTrace
 10
87.08300000000006
 20
35.98472986382708
 30
0.0
 11
87.08300000000006
 21
37.08539653049375
 31
0.0
 12
90.38500000000005
 22
36.53506319716041
 32
0.0
 13
90.38500000000005
 23
36.53506319716041
 33
0.0
  0
SOLID
  5
395
330
38E
100
AcDbEntity
  8
치수문자_일반주서
 62
     0
100
AcDbTrace
 10
68.28700000000003
 20
37.08539653049375
 30
0.0
 11
68.28700000000003
 21
35.98472986382708
 31
0.0
 12
64.98500000000004
 22
36.53506319716041
 32
0.0
 13
64.98500000000004
 23
36.53506319716041
 33
0.0
  0
MTEXT
  5
396
330
38E
100
AcDbEntity
  8
치수문자_일반주서
 62
     0
100
AcDbMText
 10
77.68500000000004
 20
40.91006319716041
 30
0.0
 40
3.5
 41
0.0
 71
     2
 72
     1
  1
\A1;25.40 [1]
  7
SLDTEXTSTYLE0
 73
     1
 44
1.0
  0
POINT
  5
397
330
38E
100
AcDbEntity
  8
Defpoints
 62
     0
100
AcDbPoint
 10
90.38500000000005
 20
19.20734803453227
 30
0.0
  0
POINT
  5
398
330
38E
100
AcDbEntity
  8
Defpoints
 62
     0
100
AcDbPoint
 10
64.98500000000004
 20
19.0921097797711
 30
0.0
  0
POINT
  5
399
330
38E
100
AcDbEntity
  8
Defpoints
 62
     0
100
AcDbPoint
 10
64.98500000000004
 20
36.53506319716041
 30
0.0
  0
ENDBLK
  5
390
330
38E
100
AcDbEntity
  8
0
100
AcDbBlockEnd
  0
BLOCK
  5
39B
330
39A
100
AcDbEntity
  8
0
100
AcDbBlockBegin
  2
*D11
 70
     1
 10
0.0
 20
0.0
 30
0.0
  3
*D11
  1
*D11
  0
LINE
  5
39D
330
39A
100
AcDbEntity
  8
치수문자_일반주서
 62
     0
370
    -2
100
AcDbLine
 10
90.38500000000005
 20
19.26984803453227
 30
0.0
 11
90.38500000000005
 21
53.20472819815626
 31
0.0
  0
LINE
  5
39E
330
39A
100
AcDbEntity
  8
치수문자_일반주서
 62
     0
370
    -2
100
AcDbLine
 10
14.18500000000005
 20
18.89859434762064
 30
0.0
 11
14.18500000000005
 21
53.20472819815626
 31
0.0
  0
LINE
  5
39F
330
39A
100
AcDbEntity
  8
치수문자_일반주서
 62
     0
370
    -2
100
AcDbLine
 10
87.08300000000006
 20
53.20472819815626
 30
0.0
 11
17.48700000000005
 21
53.20472819815626
 31
0.0
  0
SOLID
  5
3A0
330
39A
100
AcDbEntity
  8
치수문자_일반주서
 62
     0
100
AcDbTrace
 10
87.08300000000006
 20
52.65439486482293
 30
0.0
 11
87.08300000000006
 21
53.75506153148959
 31
0.0
 12
90.38500000000005
 22
53.20472819815626
 32
0.0
 13
90.38500000000005
 23
53.20472819815626
 33
0.0
  0
SOLID
  5
3A1
330
39A
100
AcDbEntity
  8
치수문자_일반주서
 62
     0
100
AcDbTrace
 10
17.48700000000005
 20
53.75506153148959
 30
0.0
 11
17.48700000000005
 21
52.65439486482293
 31
0.0
 12
14.18500000000005
 22
53.20472819815626
 32
0.0
 13
14.18500000000005
 23
53.20472819815626
 33
0.0
  0
MTEXT
  5
3A2
330
39A
100
AcDbEntity
  8
치수문자_일반주서
 62
     0
100
AcDbMText
 10
55.61654407083706
 20
57.57972819815626
 30
0.0
 40
3.5
 41
0.0
 71
     2
 72
     1
  1
\A1;76.20 [3]
  7
SLDTEXTSTYLE0
 73
     1
 44
1.0
  0
POINT
  5
3A3
330
39A
100
AcDbEntity
  8
Defpoints
 62
     0
100
AcDbPoint
 10
90.38500000000005
 20
19.20734803453227
 30
0.0
  0
POINT
  5
3A4
330
39A
100
AcDbEntity
  8
Defpoints
 62
     0
100
AcDbPoint
 10
14.18500000000005
 20
18.83609434762064
 30
0.0
  0
POINT
  5
3A5
330
39A
100
AcDbEntity
  8
Defpoints
 62
     0
100
AcDbPoint
 10
14.18500000000005
 20
53.20472819815626
 30
0.0
  0
ENDBLK
  5
39C
330
39A
100
AcDbEntity
  8
0
100
AcDbBlockEnd
  0
BLOCK
  5
559
330
558
100
AcDbEntity
  8
0
100
AcDbBlockBegin
  2
*D12
 70
     1
 10
0.0
 20
0.0
 30
0.0
  3
*D12
  1
*D12
  0
LINE
  5
55B
330
558
100
AcDbEntity
  8
치수문자_일반주서
 62
     0
370
    -2
100
AcDbLine
 10
31.41715231323242
 20
6.350000078479453
 30
0.0
 11
57.71860935071217
 21
6.350000078479553
 31
0.0
  0
LINE
  5
55C
330
558
100
AcDbEntity
  8
치수문자_일반주서
 62
     0
370
    -2
100
AcDbLine
 10
30.44150041513763
 20
-6.350000000000001
 30
0.0
 11
57.71860935071221
 21
-6.349999999999898
 31
0.0
  0
LINE
  5
55D
330
558
100
AcDbEntity
  8
치수문자_일반주서
 62
     0
370
    -2
100
AcDbLine
 10
57.71860935071217
 20
6.350000078479553
 30
0.0
 11
57.71860935071207
 21
36.77700000000017
 31
0.0
  0
LINE
  5
55E
330
558
100
AcDbEntity
  8
치수문자_일반주서
 62
     0
370
    -2
100
AcDbLine
 10
57.71860935071219
 20
3.048000078479554
 30
0.0
 11
57.7186093507122
 21
-3.047999999999899
 31
0.0
  0
SOLID
  5
55F
330
558
100
AcDbEntity
  8
치수문자_일반주서
 62
     0
100
AcDbTrace
 10
58.26894268404552
 20
3.048000078479555
 30
0.0
 11
57.16827601737885
 21
3.048000078479552
 31
0.0
 12
57.71860935071217
 22
6.350000078479553
 32
0.0
 13
57.71860935071217
 23
6.350000078479553
 33
0.0
  0
SOLID
  5
560
330
558
100
AcDbEntity
  8
치수문자_일반주서
 62
     0
100
AcDbTrace
 10
57.16827601737887
 20
-3.047999999999901
 30
0.0
 11
58.26894268404553
 21
-3.047999999999897
 31
0.0
 12
57.71860935071221
 22
-6.349999999999898
 32
0.0
 13
57.71860935071221
 23
-6.349999999999898
 33
0.0
  0
MTEXT
  5
561
330
558
100
AcDbEntity
  8
치수문자_일반주서
 62
     0
100
AcDbMText
 10
53.34360935071211
 20
23.43325000000016
 30
0.0
 40
3.5
 41
0.0
 71
     2
 72
     1
  1
\A1;%%c12.70 [1/2]
  7
SLDTEXTSTYLE0
 11
-3.356894793870768E-15
 21
1.0
 31
0.0
 73
     1
 44
1.0
  0
POINT
  5
562
330
558
100
AcDbEntity
  8
Defpoints
 62
     0
100
AcDbPoint
 10
31.35465231323242
 20
6.350000078479453
 30
0.0
  0
POINT
  5
563
330
558
100
AcDbEntity
  8
Defpoints
 62
     0
100
AcDbPoint
 10
30.37900041513763
 20
-6.350000000000001
 30
0.0
  0
POINT
  5
564
330
558
100
AcDbEntity
  8
Defpoints
 62
     0
100
AcDbPoint
 10
57.71860935071221
 20
-6.349999999999898
 30
0.0
  0
ENDBLK
  5
55A
330
558
100
AcDbEntity
  8
0
100
AcDbBlockEnd
  0
BLOCK
  5
566
330
565
100
AcDbEntity
  8
0
100
AcDbBlockBegin
  2
*D13
 70
     1
 10
0.0
 20
0.0
 30
0.0
  3
*D13
  1
*D13
  0
LINE
  5
568
330
565
100
AcDbEntity
  8
치수문자_일반주서
 62
     0
370
    -2
100
AcDbLine
 10
-34.9085
 20
6.349999999999993
 30
0.0
 11
-45.65600000000004
 21
6.349999999999952
 31
0.0
  0
LINE
  5
569
330
565
100
AcDbEntity
  8
치수문자_일반주서
 62
     0
370
    -2
100
AcDbLine
 10
-34.9085
 20
-6.349999999999995
 30
0.0
 11
-45.656
 21
-6.350000000000037
 31
0.0
  0
LINE
  5
56A
330
565
100
AcDbEntity
  8
치수문자_일반주서
 62
     0
370
    -2
100
AcDbLine
 10
-45.65600000000003
 20
3.047999999999952
 30
0.0
 11
-45.65600000000001
 21
-3.048000000000037
 31
0.0
  0
SOLID
  5
56B
330
565
100
AcDbEntity
  8
치수문자_일반주서
 62
     0
100
AcDbTrace
 10
-45.10566666666669
 20
3.047999999999954
 30
0.0
 11
-46.20633333333336
 21
3.04799999999995
 31
0.0
 12
-45.65600000000004
 22
6.349999999999952
 32
0.0
 13
-45.65600000000004
 23
6.349999999999952
 33
0.0
  0
SOLID
  5
56C
330
565
100
AcDbEntity
  8
치수문자_일반주서
 62
     0
100
AcDbTrace
 10
-46.20633333333335
 20
-3.048000000000039
 30
0.0
 11
-45.10566666666668
 21
-3.048000000000036
 31
0.0
 12
-45.656
 22
-6.350000000000037
 32
0.0
 13
-45.656
 23
-6.350000000000037
 33
0.0
  0
MTEXT
  5
56D
330
565
100
AcDbEntity
  8
치수문자_일반주서
 62
     0
100
AcDbMText
 10
-50.03100000000002
 20
-1.017344347620639
 30
0.0
 40
3.5
 41
0.0
 71
     2
 72
     1
  1
\A1;%%c12.70 [1/2]
  7
SLDTEXTSTYLE0
 11
-3.356894814614650E-15
 21
1.0
 31
0.0
 73
     1
 44
1.0
  0
POINT
  5
56E
330
565
100
AcDbEntity
  8
Defpoints
 62
     0
100
AcDbPoint
 10
-34.846
 20
6.349999999999993
 30
0.0
  0
POINT
  5
56F
330
565
100
AcDbEntity
  8
Defpoints
 62
     0
100
AcDbPoint
 10
-34.846
 20
-6.349999999999995
 30
0.0
  0
POINT
  5
570
330
565
100
AcDbEntity
  8
Defpoints
 62
     0
100
AcDbPoint
 10
-45.656
 20
-6.350000000000035
 30
0.0
  0
ENDBLK
  5
567
330
565
100
AcDbEntity
  8
0
100
AcDbBlockEnd
  0
BLOCK
  5
572
330
571
100
AcDbEntity
  8
0
100
AcDbBlockBegin
  2
*D14
 70
     1
 10
0.0
 20
0.0
 30
0.0
  3
*D14
  1
*D14
  0
LINE
  5
574
330
571
100
AcDbEntity
  8
치수문자_일반주서
 62
     0
370
    -2
100
AcDbLine
 10
40.35399999999998
 20
5.78375368691163
 30
0.0
 11
40.35399999999998
 21
18.90471261070128
 31
0.0
  0
LINE
  5
575
330
571
100
AcDbEntity
  8
치수문자_일반주서
 62
     0
370
    -2
100
AcDbLine
 10
14.95399999999998
 20
5.668515432150456
 30
0.0
 11
14.95399999999998
 21
18.90471261070128
 31
0.0
  0
LINE
  5
576
330
571
100
AcDbEntity
  8
치수문자_일반주서
 62
     0
370
    -2
100
AcDbLine
 10
37.05199999999999
 20
18.90471261070128
 30
0.0
 11
18.25599999999998
 21
18.90471261070128
 31
0.0
  0
SOLID
  5
577
330
571
100
AcDbEntity
  8
치수문자_일반주서
 62
     0
100
AcDbTrace
 10
37.05199999999999
 20
18.35437927736795
 30
0.0
 11
37.05199999999999
 21
19.45504594403462
 31
0.0
 12
40.35399999999998
 22
18.90471261070128
 32
0.0
 13
40.35399999999998
 23
18.90471261070128
 33
0.0
  0
SOLID
  5
578
330
571
100
AcDbEntity
  8
치수문자_일반주서
 62
     0
100
AcDbTrace
 10
18.25599999999998
 20
19.45504594403462
 30
0.0
 11
18.25599999999998
 21
18.35437927736795
 31
0.0
 12
14.95399999999998
 22
18.90471261070128
 32
0.0
 13
14.95399999999998
 23
18.90471261070128
 33
0.0
  0
MTEXT
  5
579
330
571
100
AcDbEntity
  8
치수문자_일반주서
 62
     0
100
AcDbMText
 10
27.65399999999999
 20
23.27971261070128
 30
0.0
 40
3.5
 41
0.0
 71
     2
 72
     1
  1
\A1;25.40 [1]
  7
SLDTEXTSTYLE0
 73
     1
 44
1.0
  0
POINT
  5
57A
330
571
100
AcDbEntity
  8
Defpoints
 62
     0
100
AcDbPoint
 10
40.35399999999998
 20
5.72125368691163
 30
0.0
  0
POINT
  5
57B
330
571
100
AcDbEntity
  8
Defpoints
 62
     0
100
AcDbPoint
 10
14.95399999999998
 20
5.606015432150456
 30
0.0
  0
POINT
  5
57C
330
571
100
AcDbEntity
  8
Defpoints
 62
     0
100
AcDbPoint
 10
14.95399999999998
 20
18.90471261070128
 30
0.0
  0
ENDBLK
  5
573
330
571
100
AcDbEntity
  8
0
100
AcDbBlockEnd
  0
BLOCK
  5
57E
330
57D
100
AcDbEntity
  8
0
100
AcDbBlockBegin
  2
*D15
 70
     1
 10
0.0
 20
0.0
 30
0.0
  3
*D15
  1
*D15
  0
LINE
  5
580
330
57D
100
AcDbEntity
  8
치수문자_일반주서
 62
     0
370
    -2
100
AcDbLine
 10
40.35399999999998
 20
5.78375368691163
 30
0.0
 11
40.35399999999998
 21
39.71863385053561
 31
0.0
  0
LINE
  5
581
330
57D
100
AcDbEntity
  8
치수문자_일반주서
 62
     0
370
    -2
100
AcDbLine
 10
-35.84600000000001
 20
5.412499999999993
 30
0.0
 11
-35.84600000000002
 21
39.71863385053561
 31
0.0
  0
LINE
  5
582
330
57D
100
AcDbEntity
  8
치수문자_일반주서
 62
     0
370
    -2
100
AcDbLine
 10
37.05199999999998
 20
39.71863385053561
 30
0.0
 11
-32.54400000000002
 21
39.71863385053561
 31
0.0
  0
SOLID
  5
583
330
57D
100
AcDbEntity
  8
치수문자_일반주서
 62
     0
100
AcDbTrace
 10
37.05199999999998
 20
39.16830051720228
 30
0.0
 11
37.05199999999998
 21
40.26896718386894
 31
0.0
 12
40.35399999999998
 22
39.71863385053561
 32
0.0
 13
40.35399999999998
 23
39.71863385053561
 33
0.0
  0
SOLID
  5
584
330
57D
100
AcDbEntity
  8
치수문자_일반주서
 62
     0
100
AcDbTrace
 10
-32.54400000000002
 20
40.26896718386894
 30
0.0
 11
-32.54400000000002
 21
39.16830051720228
 31
0.0
 12
-35.84600000000002
 22
39.71863385053561
 32
0.0
 13
-35.84600000000002
 23
39.71863385053561
 33
0.0
  0
MTEXT
  5
585
330
57D
100
AcDbEntity
  8
치수문자_일반주서
 62
     0
100
AcDbMText
 10
5.585544070836998
 20
44.09363385053561
 30
0.0
 40
3.5
 41
0.0
 71
     2
 72
     1
  1
\A1;76.20 [3]
  7
SLDTEXTSTYLE0
 73
     1
 44
1.0
  0
POINT
  5
586
330
57D
100
AcDbEntity
  8
Defpoints
 62
     0
100
AcDbPoint
 10
40.35399999999998
 20
5.72125368691163
 30
0.0
  0
POINT
  5
587
330
57D
100
AcDbEntity
  8
Defpoints
 62
     0
100
AcDbPoint
 10
-35.84600000000001
 20
5.349999999999993
 30
0.0
  0
POINT
  5
588
330
57D
100
AcDbEntity
  8
Defpoints
 62
     0
100
AcDbPoint
 10
-35.84600000000001
 20
39.71863385053561
 30
0.0
  0
ENDBLK
  5
57F
330
57D
100
AcDbEntity
  8
0
100
AcDbBlockEnd
  0
BLOCK
  5
597
330
596
100
AcDbEntity
  8
0
100
AcDbBlockBegin
  2
*D16
 70
     1
 10
0.0
 20
0.0
 30
0.0
  3
*D16
  1
*D16
  0
LINE
  5
599
330
596
100
AcDbEntity
  8
치수문자_일반주서
 62
     0
370
    -2
100
AcDbLine
 10
40.354
 20
0.2838249681517491
 30
0.0
 11
40.354
 21
27.87497532554944
 31
0.0
  0
LINE
  5
59A
330
596
100
AcDbEntity
  8
치수문자_일반주서
 62
     0
370
    -2
100
AcDbLine
 10
2.254
 20
6.158500000000001
 30
0.0
 11
2.254
 21
27.87497532554944
 31
0.0
  0
LINE
  5
59B
330
596
100
AcDbEntity
  8
치수문자_일반주서
 62
     0
370
    -2
100
AcDbLine
 10
37.052
 20
27.87497532554944
 30
0.0
 11
5.556
 21
27.87497532554944
 31
0.0
  0
SOLID
  5
59C
330
596
100
AcDbEntity
  8
치수문자_일반주서
 62
     0
100
AcDbTrace
 10
37.052
 20
27.3246419922161
 30
0.0
 11
37.052
 21
28.42530865888277
 31
0.0
 12
40.354
 22
27.87497532554944
 32
0.0
 13
40.354
 23
27.87497532554944
 33
0.0
  0
SOLID
  5
59D
330
596
100
AcDbEntity
  8
치수문자_일반주서
 62
     0
100
AcDbTrace
 10
5.556
 20
28.42530865888277
 30
0.0
 11
5.556
 21
27.3246419922161
 31
0.0
 12
2.254
 22
27.87497532554944
 32
0.0
 13
2.254
 23
27.87497532554944
 33
0.0
  0
MTEXT
  5
59E
330
596
100
AcDbEntity
  8
치수문자_일반주서
 62
     0
100
AcDbMText
 10
21.304
 20
30.49997532554944
 30
0.0
 40
3.5
 41
0.0
 71
     5
 72
     1
  1
\A1;38.10 [1 1/2]
  7
SLDTEXTSTYLE0
 73
     1
 44
1.0
  0
POINT
  5
59F
330
596
100
AcDbEntity
  8
Defpoints
 62
     0
100
AcDbPoint
 10
40.354
 20
0.2213249681517491
 30
0.0
  0
POINT
  5
5A0
330
596
100
AcDbEntity
  8
Defpoints
 62
     0
100
AcDbPoint
 10
2.254
 20
6.096000000000001
 30
0.0
  0
POINT
  5
5A1
330
596
100
AcDbEntity
  8
Defpoints
 62
     0
100
AcDbPoint
 10
2.254
 20
27.87497532554944
 30
0.0
  0
ENDBLK
  5
598
330
596
100
AcDbEntity
  8
0
100
AcDbBlockEnd
  0
ENDSEC
  0
SECTION
  2
ENTITIES
  0
LINE
  5
D1
330
1F
100
AcDbEntity
  8
참조1
100
AcDbLine
 10
2.254000000000002
 20
-0.0000000000000008
 30
0.0
 11
2.254000000000007
 21
-40.00000000000001
 31
0.0
  0
LINE
  5
D2
330
1F
100
AcDbEntity
  8
참조1
100
AcDbLine
 10
-8.3806439846677
 20
-6.34693982925306
 30
0.0
 11
59.76193635892476
 21
-6.34693982925306
 31
0.0
  0
LINE
  5
D3
330
1F
100
AcDbEntity
  8
참조1
100
AcDbLine
 10
59.76193635892476
 20
-6.34693982925306
 30
0.0
 11
59.76193635892476
 21
-6.61037802524411
 31
0.0
  0
LINE
  5
D4
330
1F
100
AcDbEntity
  8
참조1
100
AcDbLine
 10
2.254000000000007
 20
-40.00000000000001
 30
0.0
 11
-12.84808613673692
 21
-40.0
 31
0.0
  0
INSERT
  5
D6
330
1F
100
AcDbEntity
  8
0
  6
Continuous
 62
     7
100
AcDbBlockReference
 66
     1
  2
블럭10
 10
-11.6862729321252
 20
-52.04717430164393
 30
0.0
  0
ATTRIB
  5
D7
330
D6
100
AcDbEntity
  8
FORMAT
 62
     2
100
AcDbText
 10
-21.20858688272314
 20
-49.97180738881174
 30
0.0
 40
4.233333333333333
  1
EH970032 [ 4 FLUTE ]
 41
0.75
  7
SLDTEXTSTYLE0
 11
-21.20858688272314
 21
-52.08847405547841
 31
0.0
100
AcDbAttribute
  2
AUTOATTR0
 70
     0
 74
     1
  0
SEQEND
  5
D8
330
D6
100
AcDbEntity
  8
0
  6
Continuous
 62
     7
  0
HATCH
  5
D9
330
1F
100
AcDbEntity
  8
중심선
100
AcDbHatch
 10
0.0
 20
0.0
 30
0.0
210
0.0
220
0.0
230
1.0
  2
SOLID
 70
     1
 71
     0
 91
        1
 92
        0
 93
        4
 72
     1
 10
-5.971363627744354
 20
-35.8
 11
-9.417638871581637
 21
-35.8
 72
     1
 10
-9.417638871581637
 20
-35.8
 11
-11.54586873078566
 21
-38.33632558057259
 72
     1
 10
-11.54586873078566
 20
-38.33632558057259
 11
-8.099560401835227
 21
-38.3362861512701
 72
     1
 10
-8.099560401835227
 20
-38.3362861512701
 11
-5.971363627744353
 21
-35.8
 97
        0
 75
     0
 76
     1
 98
        1
 10
4.953999999999996
 20
0.0000000000000027
  0
HATCH
  5
DA
330
1F
100
AcDbEntity
  8
중심선
100
AcDbHatch
 10
0.0
 20
0.0
 30
0.0
210
0.0
220
0.0
230
1.0
  2
SOLID
 70
     1
 71
     0
 91
        1
 92
        0
 93
        4
 72
     1
 10
-0.9585996367084029
 20
-35.8
 11
-4.404874880545685
 21
-35.8
 72
     1
 10
-4.404874880545685
 20
-35.8
 11
-8.936012888903072
 21
-41.20000000000002
 72
     1
 10
-8.936012888903072
 20
-41.20000000000002
 11
-5.489737645065791
 21
-41.20000000000002
 72
     1
 10
-5.489737645065792
 20
-41.20000000000002
 11
-0.9585996367084029
 21
-35.8
 97
        0
 75
     0
 76
     1
 98
        1
 10
4.953999999999996
 20
0.0000000000000027
  0
HATCH
  5
DB
330
1F
100
AcDbEntity
  8
중심선
100
AcDbHatch
 10
0.0
 20
0.0
 30
0.0
210
0.0
220
0.0
230
1.0
  2
SOLID
 70
     1
 71
     0
 91
        1
 92
        0
 93
        4
 72
     1
 10
4.054164354327493
 20
-35.8
 11
0.607889110490377
 21
-35.8
 72
     1
 10
0.607889110490377
 20
-35.8
 11
-6.440547791398871
 21
-44.20000000000002
 72
     1
 10
-6.440547791398871
 20
-44.20000000000002
 11
-2.994272547561589
 21
-44.20000000000002
 72
     1
 10
-2.994272547561589
 20
-44.20000000000002
 11
4.054164354327493
 21
-35.8
 97
        0
 75
     0
 76
     1
 98
        1
 10
4.953999999999996
 20
0.0000000000000027
  0
HATCH
  5
DC
330
1F
100
AcDbEntity
  8
중심선
100
AcDbHatch
 10
0.0
 20
0.0
 30
0.0
210
0.0
220
0.0
230
1.0
  2
SOLID
 70
     1
 71
     0
 91
        1
 92
        0
 93
        6
 72
     3
 10
8.854054785339692
 20
-40.00000000005127
 11
3.960054785062283
 21
1.540882976769353E-10
 40
0.3939339440162628
 50
17.09539180608437
 51
320.0019657685086
 73
     0
 72
     1
 10
10.53705444104029
 20
-38.58789400463833
 11
12.84235631474133
 21
-36.65356729459038
 72
     3
 10
8.854054785286845
 20
-40.00000000000015
 11
6.600054785286829
 21
-1.278976924368180E-13
 40
0.636358354079598
 50
39.9987384933741
 51
368.4976242363725
 73
     1
 72
     1
 10
15.27938727718746
 20
-39.03999999993002
 11
7.534122092122769
 21
-39.03999999992999
 72
     1
 10
7.534122092122768
 20
-39.03999999992999
 11
7.534097047676834
 21
-40.95999999992991
 72
     1
 10
7.534097047676834
 20
-40.95999999992991
 11
11.97547681714887
 21
-40.95999999992988
 97
        0
 75
     0
 76
     1
 98
        1
 10
4.953999999999996
 20
0.0000000000000027
  0
LINE
  5
12E
330
1F
100
AcDbEntity
  8
참조1
100
AcDbLine
 10
85.12425449291733
 20
7.440000000000005
 30
0.0
 11
85.12425449291733
 21
-7.44
 31
0.0
  0
LINE
  5
12F
330
1F
100
AcDbEntity
  8
참조1
100
AcDbLine
 10
97.82425449291733
 20
5.440000000000005
 30
0.0
 11
85.12425449291733
 21
5.440000000000005
 31
0.0
  0
SOLID
  5
130
330
1F
100
AcDbEntity
  8
참조1
100
AcDbTrace
 10
85.12425449291733
 20
5.440000000000005
 30
0.0
 11
91.47425449291732
 21
4.424000000000005
 31
0.0
 12
91.47425449291732
 22
6.456000000000005
 32
0.0
 13
91.47425449291732
 23
6.456000000000005
 33
0.0
  0
LINE
  5
131
330
1F
100
AcDbEntity
  8
참조1
100
AcDbLine
 10
97.82425449291733
 20
-5.44
 30
0.0
 11
85.12425449291733
 21
-5.44
 31
0.0
  0
SOLID
  5
132
330
1F
100
AcDbEntity
  8
참조1
100
AcDbTrace
 10
85.12425449291733
 20
-5.44
 30
0.0
 11
91.47425449291732
 21
-6.456
 31
0.0
 12
91.47425449291732
 22
-4.423999999999999
 32
0.0
 13
91.47425449291732
 23
-4.423999999999999
 33
0.0
  0
MTEXT
  5
133
330
1F
100
AcDbEntity
  8
참조1
100
AcDbMText
 10
94.7243693034799
 20
11.06571756601608
 30
0.0
 40
3.5
 41
0.0
 71
     1
 72
     1
  1
A
  7
SLDTEXTSTYLE0
 73
     1
 44
1.0
  0
MTEXT
  5
134
330
1F
100
AcDbEntity
  8
참조1
100
AcDbMText
 10
94.7243693034799
 20
0.1857175660160754
 30
0.0
 40
3.5
 41
0.0
 71
     1
 72
     1
  1
A
  7
SLDTEXTSTYLE0
 73
     1
 44
1.0
  0
LINE
  5
3A7
330
1F
100
AcDbEntity
  8
외형선
  6
Continuous
370
    15
100
AcDbLine
 10
2.000000000000003
 20
6.349999999999999
 30
0.0
 11
-34.846
 21
6.349999999999993
 31
0.0
  0
LINE
  5
3A8
330
1F
100
AcDbEntity
  8
외형선
  6
Continuous
370
    15
100
AcDbLine
 10
-34.846
 20
-6.350000000000006
 30
0.0
 11
2.000000000000003
 21
-6.350000000000001
 31
0.0
  0
LINE
  5
3A9
330
1F
100
AcDbEntity
  8
외형선
  6
Continuous
370
    15
100
AcDbLine
 10
-34.846
 20
6.349999999999993
 30
0.0
 11
-35.84600000000001
 21
5.349999999999993
 31
0.0
  0
LINE
  5
3AA
330
1F
100
AcDbEntity
  8
외형선
  6
Continuous
370
    15
100
AcDbLine
 10
-35.84600000000001
 20
-5.350000000000008
 30
0.0
 11
-34.846
 21
-6.350000000000008
 31
0.0
  0
SPLINE
  5
3AC
330
1F
100
AcDbEntity
  8
외형선
  6
Continuous
370
    15
100
AcDbSpline
210
0.0
220
0.0
230
1.0
 70
    24
 71
     3
 72
    24
 73
    20
 74
     0
 42
0.000000001
 43
0.00000001
 40
0.0
 40
0.0
 40
0.0
 40
0.0
 40
0.0625000000000001
 40
0.0625000000000001
 40
0.1250000000000003
 40
0.1250000000000003
 40
0.2500000000000004
 40
0.2500000000000004
 40
0.3750000000000004
 40
0.3750000000000004
 40
0.5000000000000004
 40
0.5000000000000004
 40
0.6250000000000004
 40
0.6250000000000004
 40
0.7500000000000002
 40
0.7500000000000002
 40
0.8750000000000001
 40
0.8750000000000001
 40
1.0
 40
1.0
 40
1.0
 40
1.0
 10
14.95399999999998
 20
3.767761228063249
 30
0.0
 10
14.95399999999998
 20
3.689320214778031
 30
0.0
 10
14.95399999999998
 20
3.610625019737305
 30
0.0
 10
14.95399999999998
 20
3.453905449575514
 30
0.0
 10
14.95399999999998
 20
3.372545740845381
 30
0.0
 10
14.95399999999998
 20
3.109066912338682
 30
0.0
 10
14.95399999999998
 20
2.911200562210829
 30
0.0
 10
14.95399999999998
 20
2.464571461335235
 30
0.0
 10
14.95399999999998
 20
2.215665972465552
 30
0.0
 10
14.95399999999998
 20
1.664994750658031
 30
0.0
 10
14.95399999999998
 20
1.363046944688056
 30
0.0
 10
14.95399999999998
 20
0.7140111164503002
 30
0.0
 10
14.95399999999998
 20
0.366800969806099
 30
0.0
 10
14.95399999999998
 20
-0.3503075946601948
 30
0.0
 10
14.95399999999998
 20
-0.7200931827307491
 30
0.0
 10
14.95399999999998
 20
-1.44432966735321
 30
0.0
 10
14.95399999999998
 20
-1.798337180956964
 30
0.0
 10
14.95399999999998
 20
-2.445626910608326
 30
0.0
 10
14.95399999999998
 20
-2.738342425724974
 30
0.0
 10
14.95399999999998
 20
-2.982463910006513
 30
0.0
  0
LINE
  5
3AE
330
1F
100
AcDbEntity
  8
외형선
  6
Continuous
370
    15
100
AcDbLine
 10
14.95399999999998
 20
-2.982463910006513
 30
0.0
 11
14.95399999999998
 21
-5.111406394372094
 31
0.0
  0
LINE
  5
3B3
330
1F
100
AcDbEntity
  8
외형선
  6
Continuous
370
    15
100
AcDbLine
 10
14.95399999999998
 20
5.606015432150456
 30
0.0
 11
14.95399999999998
 21
3.767761228063164
 31
0.0
  0
LINE
  5
3B5
330
1F
100
AcDbEntity
  8
외형선
  6
Continuous
370
    15
100
AcDbLine
 10
-34.846
 20
6.349999999999993
 30
0.0
 11
-34.846
 21
-6.349999999999999
 31
0.0
  0
LINE
  5
3B6
330
1F
100
AcDbEntity
  8
외형선
  6
Continuous
370
    15
100
AcDbLine
 10
-35.84600000000001
 20
5.349999999999993
 30
0.0
 11
-35.84600000000001
 21
-5.350000000000013
 31
0.0
  0
SPLINE
  5
3B7
330
1F
100
AcDbEntity
  8
외형선
  6
Continuous
370
    15
100
AcDbSpline
210
0.0
220
0.0
230
1.0
 70
    24
 71
     3
 72
     9
 73
     5
 74
     0
 42
0.000000001
 43
0.00000001
 40
0.0
 40
0.0
 40
0.0
 40
0.0
 40
0.49921776293312
 40
1.0
 40
1.0
 40
1.0
 40
1.0
 10
14.95399999999998
 20
-5.164850210841469
 30
0.0
 10
14.95399999999998
 20
-5.232458330742074
 30
0.0
 10
14.95399999999998
 20
-5.367886444323967
 30
0.0
 10
14.95399999999998
 20
-5.526556357883103
 30
0.0
 10
14.95399999999998
 20
-5.606015432150456
 30
0.0
  0
SPLINE
  5
3B8
330
1F
100
AcDbEntity
  8
외형선
  6
Continuous
370
    15
100
AcDbSpline
210
0.0
220
0.0
230
1.0
 70
    24
 71
     3
 72
    24
 73
    20
 74
     0
 42
0.000000001
 43
0.00000001
 40
0.0
 40
0.0
 40
0.0
 40
0.0
 40
0.0625
 40
0.0625
 40
0.125
 40
0.125
 40
0.25
 40
0.25
 40
0.3749999999999999
 40
0.3749999999999999
 40
0.4999999999999999
 40
0.4999999999999999
 40
0.6249999999999999
 40
0.6249999999999999
 40
0.75
 40
0.75
 40
0.875
 40
0.875
 40
1.0
 40
1.0
 40
1.0
 40
1.0
 10
14.95399999999998
 20
3.767761228063249
 30
0.0
 10
14.95399999999998
 20
3.689320214778042
 30
0.0
 10
14.95399999999998
 20
3.610625019737326
 30
0.0
 10
14.95399999999998
 20
3.453905449575557
 30
0.0
 10
14.95399999999998
 20
3.372545740845431
 30
0.0
 10
14.95399999999998
 20
3.109066912338771
 30
0.0
 10
14.95399999999998
 20
2.91120056221095
 30
0.0
 10
14.95399999999998
 20
2.464571461335439
 30
0.0
 10
14.95399999999998
 20
2.215665972465801
 30
0.0
 10
14.95399999999998
 20
1.664994750658384
 30
0.0
 10
14.95399999999998
 20
1.363046944688469
 30
0.0
 10
14.95399999999998
 20
0.7140111164508385
 30
0.0
 10
14.95399999999998
 20
0.3668009698067012
 30
0.0
 10
14.95399999999998
 20
-0.3503075946594771
 30
0.0
 10
14.95399999999998
 20
-0.7200931827299835
 30
0.0
 10
14.95399999999998
 20
-1.444329667352378
 30
0.0
 10
14.95399999999998
 20
-1.798337180956122
 30
0.0
 10
14.95399999999998
 20
-2.445626910607507
 30
0.0
 10
14.95399999999998
 20
-2.73834242572419
 30
0.0
 10
14.95399999999998
 20
-2.982463910005793
 30
0.0
  0
SPLINE
  5
3B9
330
1F
100
AcDbEntity
  8
외형선
  6
Continuous
370
    15
100
AcDbSpline
210
0.0
220
0.0
230
1.0
 70
    24
 71
     3
 72
     9
 73
     5
 74
     0
 42
0.000000001
 43
0.00000001
 40
0.0
 40
0.0
 40
0.0
 40
0.0
 40
0.4992177629341465
 40
1.0
 40
1.0
 40
1.0
 40
1.0
 10
14.95399999999998
 20
-5.164850210841469
 30
0.0
 10
14.95399999999998
 20
-5.232458330742072
 30
0.0
 10
14.95399999999998
 20
-5.367886444323681
 30
0.0
 10
14.95399999999998
 20
-5.526556357882463
 30
0.0
 10
14.95399999999998
 20
-5.606015432149476
 30
0.0
  0
LINE
  5
3BA
330
1F
100
AcDbEntity
  8
중심선
100
AcDbLine
 10
-38.846
 20
-0.0000000000000027
 30
0.0
 11
43.354
 21
0.000000000000008
 31
0.0
  0
CIRCLE
  5
3BB
330
1F
100
AcDbEntity
  8
해칭선
100
AcDbCircle
 10
-0.0000000000000009
 20
0.0
 30
0.0
 40
3.000000000000005
  0
POINT
  5
3BC
330
1F
100
AcDbEntity
  8
치수문자_일반주서
100
AcDbPoint
 10
4.953999999999996
 20
-0.3168705809327355
 30
0.0
  0
DIMENSION
  5
3BD
330
1F
100
AcDbEntity
  8
치수문자_일반주서
100
AcDbDimension
  2
*D12
 10
57.71860935071221
 20
-6.349999999999898
 30
0.0
 11
57.71860935071211
 21
23.43325000000017
 31
0.0
 70
   160
  1
%%c<>
 71
     2
 42
12.70000007847945
 52
-270.0
  3
SLDDIMSTYLE0
100
AcDbAlignedDimension
 13
31.35465231323242
 23
6.350000078479453
 33
0.0
 14
30.37900041513763
 24
-6.350000000000001
 34
0.0
 50
90.0000000000002
100
AcDbRotatedDimension
1001
ACAD
1000
DSTYLE
1002
{
1070
   171
1070
     6
1070
   273
1070
     7
1002
}
  0
DIMENSION
  5
3BE
330
1F
100
AcDbEntity
  8
치수문자_일반주서
100
AcDbDimension
  2
*D13
 10
-45.656
 20
-6.350000000000037
 30
0.0
 11
-45.65600000000002
 21
-1.017344347620624
 31
0.0
 70
   160
  1
%%c<>
 71
     2
 42
12.69999999999999
 52
-270.0
  3
SLDDIMSTYLE1
100
AcDbAlignedDimension
 13
-34.846
 23
6.349999999999993
 33
0.0
 14
-34.846
 24
-6.349999999999995
 34
0.0
 50
90.0000000000002
100
AcDbRotatedDimension
1001
ACAD
1000
DSTYLE
1002
{
1070
   171
1070
     6
1070
   273
1070
     7
1002
}
  0
DIMENSION
  5
3BF
330
1F
100
AcDbEntity
  8
치수문자_일반주서
100
AcDbDimension
  2
*D14
 10
14.95399999999998
 20
18.90471261070128
 30
0.0
 11
27.65399999999999
 21
18.90471261070128
 31
0.0
 70
   160
  1
<>
 71
     2
 42
25.4
  3
SLDDIMSTYLE0
100
AcDbAlignedDimension
 13
40.35399999999998
 23
5.72125368691163
 33
0.0
 14
14.95399999999998
 24
5.606015432150456
 34
0.0
 50
0.000000000000008
100
AcDbRotatedDimension
1001
ACAD
1000
DSTYLE
1002
{
1070
   171
1070
     6
1070
   273
1070
     7
1002
}
  0
DIMENSION
  5
3C0
330
1F
100
AcDbEntity
  8
치수문자_일반주서
100
AcDbDimension
  2
*D15
 10
-35.84600000000002
 20
39.71863385053561
 30
0.0
 11
5.585544070836998
 21
39.71863385053561
 31
0.0
 70
   160
  1
<>
 71
     2
 42
76.19999999999999
  3
SLDDIMSTYLE0
100
AcDbAlignedDimension
 13
40.35399999999998
 23
5.72125368691163
 33
0.0
 14
-35.84600000000001
 24
5.349999999999993
 34
0.0
100
AcDbRotatedDimension
1001
ACAD
1000
DSTYLE
1002
{
1070
   171
1070
     6
1070
   273
1070
     7
1002
}
  0
INSERT
  5
3C1
330
1F
100
AcDbEntity
  8
해칭선
100
AcDbBlockReference
  2
SW_DOWELSYMBOL_0
 10
-0.0000000000000009
 20
0.0
 30
0.0
  0
LINE
  5
3C2
330
1F
100
AcDbEntity
  8
외형선
  6
Continuous
 62
     1
370
    15
100
AcDbLine
 10
32.01431926870346
 20
6.235247477889067
 30
0.0
 11
31.95619232241311
 21
6.274001051982252
 31
0.0
  0
LINE
  5
3C3
330
1F
100
AcDbEntity
  8
외형선
  6
Continuous
 62
     1
370
    15
100
AcDbLine
 10
22.03154213015236
 20
6.225868438680975
 30
0.0
 11
21.95619316681224
 21
6.274001051982252
 31
0.0
  0
SPLINE
  5
3C4
330
1F
100
AcDbEntity
  8
외형선
  6
Continuous
 62
     1
370
    15
100
AcDbSpline
210
0.0
220
0.0
230
1.0
 70
     8
 71
     3
 72
     9
 73
     5
 74
     0
 42
0.000000001
 43
0.00000001
 40
0.0
 40
0.0
 40
0.0
 40
0.0
 40
0.4982452857612906
 40
1.0
 40
1.0
 40
1.0
 40
1.0
 10
31.95619232241311
 20
6.274001051982252
 30
0.0
 10
31.92273215887679
 20
6.295910678948373
 30
0.0
 10
31.85557615260337
 20
6.339884255000668
 30
0.0
 10
31.77720067508674
 20
6.346620257480224
 30
0.0
 10
31.73787540976204
 20
6.350000078479453
 30
0.0
  0
SPLINE
  5
3C5
330
1F
100
AcDbEntity
  8
외형선
  6
Continuous
 62
     1
370
    15
100
AcDbSpline
210
0.0
220
0.0
230
1.0
 70
     8
 71
     3
 72
     9
 73
     5
 74
     0
 42
0.000000001
 43
0.00000001
 40
0.0
 40
0.0
 40
0.0
 40
0.0
 40
0.4982464040356857
 40
1.0
 40
1.0
 40
1.0
 40
1.0
 10
21.95619316681224
 20
6.274001051982252
 30
0.0
 10
21.92273253079563
 20
6.295910678666309
 30
0.0
 10
21.85557572696206
 20
6.339884155457294
 30
0.0
 10
21.7772002099128
 20
6.34662022923754
 30
0.0
 10
21.73787501239775
 20
6.350000078479453
 30
0.0
  0
SPLINE
  5
3C6
330
1F
100
AcDbEntity
  8
외형선
  6
Continuous
 62
     1
370
    15
100
AcDbSpline
210
0.0
220
0.0
230
1.0
 70
     8
 71
     3
 72
    11
 73
     7
 74
     0
 42
0.000000001
 43
0.00000001
 40
0.0
 40
0.0
 40
0.0
 40
0.0
 40
0.15185436487732
 40
0.4390224248099825
 40
0.7262120466483682
 40
1.0
 40
1.0
 40
1.0
 40
1.0
 10
19.03051407917338
 20
-6.232342993219699
 30
0.0
 10
19.06370281522991
 20
-6.211540960680661
 30
0.0
 10
19.15965395493992
 20
-6.151400715297252
 30
0.0
 10
19.35287588732259
 20
-6.125830532036299
 30
0.0
 10
19.57523299399859
 20
-6.158431379331144
 30
0.0
 10
19.69667337094539
 20
-6.236935789895321
 30
0.0
 10
19.75594296340146
 20
-6.275250265995662
 30
0.0
  0
LINE
  5
3C7
330
1F
100
AcDbEntity
  8
외형선
  6
Continuous
 62
     1
370
    15
100
AcDbLine
 10
31.73782077217102
 20
6.350000078479453
 30
0.0
 11
30.97148385429381
 21
6.350000078479453
 31
0.0
  0
SPLINE
  5
3C8
330
1F
100
AcDbEntity
  8
외형선
  6
Continuous
 62
     1
370
    15
100
AcDbSpline
210
0.0
220
0.0
230
1.0
 70
     8
 71
     3
 72
    11
 73
     7
 74
     0
 42
0.000000001
 43
0.00000001
 40
0.0
 40
0.0
 40
0.0
 40
0.0
 40
0.1608565760231981
 40
0.4449419076331294
 40
0.7290496258620677
 40
1.0
 40
1.0
 40
1.0
 40
1.0
 10
29.02397162501015
 20
-6.23620860278606
 30
0.0
 10
29.05943763751904
 20
-6.21389809548304
 30
0.0
 10
29.15753941024093
 20
-6.152185482140875
 30
0.0
 10
29.35330870911531
 20
-6.125774708912881
 30
0.0
 10
29.57568895824108
 20
-6.158650431761411
 30
0.0
 10
29.69701715637507
 20
-6.237135012062576
 30
0.0
 10
29.75624324663479
 20
-6.275447085499759
 30
0.0
  0
LINE
  5
3C9
330
1F
100
AcDbEntity
  8
외형선
  6
Continuous
 62
     1
370
    15
100
AcDbLine
 10
21.7377930560112
 20
6.350000078479453
 30
0.0
 11
20.97145241284369
 21
6.350000078479453
 31
0.0
  0
SPLINE
  5
3CA
330
1F
100
AcDbEntity
  8
외형선
  6
Continuous
 62
     1
370
    15
100
AcDbSpline
210
0.0
220
0.0
230
1.0
 70
     8
 71
     3
 72
    11
 73
     7
 74
     0
 42
0.000000001
 43
0.00000001
 40
0.0
 40
0.0
 40
0.0
 40
0.0
 40
0.1740496112098005
 40
0.453634295661995
 40
0.7332440473059452
 40
0.9999999999999999
 40
0.9999999999999999
 40
0.9999999999999999
 40
0.9999999999999999
 10
39.01372995758055
 20
-6.242082143823306
 30
0.0
 10
39.05262715794447
 20
-6.217474580438174
 30
0.0
 10
39.15400689655857
 20
-6.153338644674929
 30
0.0
 10
39.35364568588939
 20
-6.125642016999701
 30
0.0
 10
39.57608358843527
 20
-6.158847240801701
 30
0.0
 10
39.69729731231456
 20
-6.23729583335088
 30
0.0
 10
39.75647833728789
 20
-6.27559733887514
 30
0.0
  0
SPLINE
  5
3CB
330
1F
100
AcDbEntity
  8
외형선
  6
Continuous
 62
     1
370
    15
100
AcDbSpline
210
0.0
220
0.0
230
1.0
 70
     8
 71
     3
 72
     9
 73
     5
 74
     0
 42
0.000000001
 43
0.00000001
 40
0.0
 40
0.0
 40
0.0
 40
0.0
 40
0.4989205591095898
 40
1.0
 40
1.0
 40
1.0
 40
1.0
 10
19.7540449279944
 20
-6.273878738284107
 30
0.0
 10
19.7879639987286
 20
-6.296065030523091
 30
0.0
 10
19.85594891158685
 20
-6.340533617423129
 30
0.0
 10
19.9353390373834
 20
-6.346711002648854
 30
0.0
 10
19.97511979722976
 20
-6.349806363383929
 30
0.0
  0
SPLINE
  5
3CC
330
1F
100
AcDbEntity
  8
외형선
  6
Continuous
 62
     1
370
    15
100
AcDbSpline
210
0.0
220
0.0
230
1.0
 70
     8
 71
     3
 72
     9
 73
     5
 74
     0
 42
0.000000001
 43
0.00000001
 40
0.0
 40
0.0
 40
0.0
 40
0.0
 40
0.498918315462715
 40
1.0
 40
1.0
 40
1.0
 40
1.0
 10
29.75403787477808
 20
-6.273873150348659
 30
0.0
 10
29.78794730025642
 20
-6.296055728663528
 30
0.0
 10
29.85591318650956
 20
-6.340517071587564
 30
0.0
 10
29.93528589563003
 20
-6.346711674531487
 30
0.0
 10
29.97505810642241
 20
-6.349815676609674
 30
0.0
  0
SPLINE
  5
3CD
330
1F
100
AcDbEntity
  8
외형선
  6
Continuous
 62
     1
370
    15
100
AcDbSpline
210
0.0
220
0.0
230
1.0
 70
     8
 71
     3
 72
     9
 73
     5
 74
     0
 42
0.000000001
 43
0.00000001
 40
0.0
 40
0.0
 40
0.0
 40
0.0
 40
0.8682769192448677
 40
1.0
 40
1.0
 40
1.0
 40
1.0
 10
39.75404448095955
 20
-6.273878738284107
 30
0.0
 10
39.78324899546087
 20
-6.29568635048616
 30
0.0
 10
39.8168840188664
 20
-6.320802314896464
 30
0.0
 10
39.85642929036817
 20
-6.328711874968856
 30
0.0
 10
39.86163831535973
 20
-6.32975374658903
 30
0.0
  0
SPLINE
  5
3CE
330
1F
100
AcDbEntity
  8
외형선
  6
Continuous
 62
     1
370
    15
100
AcDbSpline
210
0.0
220
0.0
230
1.0
 70
     8
 71
     3
 72
     9
 73
     5
 74
     0
 42
0.000000001
 43
0.00000001
 40
0.0
 40
0.0
 40
0.0
 40
0.0
 40
0.5010863366244599
 40
0.9999999999999999
 40
0.9999999999999999
 40
0.9999999999999999
 40
0.9999999999999999
 10
30.97020732148485
 20
6.349816918373114
 30
0.0
 10
30.93112378017549
 20
6.346194491772571
 30
0.0
 10
30.85312616089763
 20
6.338965345144969
 30
0.0
 10
30.78656596458746
 20
6.295176240553004
 30
0.0
 10
30.75335817321139
 20
6.273329257965094
 30
0.0
  0
SPLINE
  5
3CF
330
1F
100
AcDbEntity
  8
외형선
  6
Continuous
 62
     1
370
    15
100
AcDbSpline
210
0.0
220
0.0
230
1.0
 70
     8
 71
     3
 72
     9
 73
     5
 74
     0
 42
0.000000001
 43
0.00000001
 40
0.0
 40
0.0
 40
0.0
 40
0.0
 40
0.5010994702795778
 40
1.0
 40
1.0
 40
1.0
 40
1.0
 10
20.97040436450638
 20
6.349845478932067
 30
0.0
 10
20.93122832442328
 20
6.346216631645702
 30
0.0
 10
20.85304815779648
 20
6.338974861295511
 30
0.0
 10
20.78629724611961
 20
6.294977296801622
 30
0.0
 10
20.7529951809247
 20
6.273026888569205
 30
0.0
  0
LINE
  5
3D0
330
1F
100
AcDbEntity
  8
외형선
  6
Continuous
 62
     1
370
    15
100
AcDbLine
 10
19.97125418766337
 20
-6.350000078479449
 30
0.0
 11
20.73640770498909
 21
-6.350000078479449
 31
0.0
  0
LINE
  5
3D1
330
1F
100
AcDbEntity
  8
외형선
  6
Continuous
 62
     1
370
    15
100
AcDbLine
 10
29.97121112330752
 20
-6.350000078479449
 30
0.0
 11
30.73643293762207
 21
-6.350000078479449
 31
0.0
  0
SPLINE
  5
3D2
330
1F
100
AcDbEntity
  8
외형선
  6
Continuous
 62
     1
370
    15
100
AcDbSpline
210
0.0
220
0.0
230
1.0
 70
     8
 71
     3
 72
    11
 73
     7
 74
     0
 42
0.000000001
 43
0.00000001
 40
0.0
 40
0.0
 40
0.0
 40
0.0
 40
0.2448146100909787
 40
0.5001278439751721
 40
0.7553836794704902
 40
1.0
 40
1.0
 40
1.0
 40
1.0
 10
30.75594104115166
 20
6.275249645113951
 30
0.0
 10
30.69730866857482
 20
6.23728372884447
 30
0.0
 10
30.57752953417964
 20
6.1597237668743
 30
0.0
 10
30.35521925382804
 20
6.124891354369999
 30
0.0
 10
30.13290424063878
 20
6.15973398538356
 30
0.0
 10
30.01299780320113
 20
6.237367658655372
 30
0.0
 10
29.9543206570943
 20
6.275358299414321
 30
0.0
  0
LINE
  5
3D3
330
1F
100
AcDbEntity
  8
외형선
  6
Continuous
 62
     1
370
    15
100
AcDbLine
 10
39.87234231615065
 20
-6.324991583824153
 30
0.0
 11
40.354
 21
-5.843333279093112
 31
0.0
  0
SPLINE
  5
3D4
330
1F
100
AcDbEntity
  8
외형선
  6
Continuous
 62
     1
370
    15
100
AcDbSpline
210
0.0
220
0.0
230
1.0
 70
     8
 71
     3
 72
    11
 73
     7
 74
     0
 42
0.000000001
 43
0.00000001
 40
0.0
 40
0.0
 40
0.0
 40
0.0
 40
0.2448246109549875
 40
0.5001290878413069
 40
0.7553765372865742
 40
1.0
 40
1.0
 40
1.0
 40
1.0
 10
20.75585868740081
 20
6.275194386641185
 30
0.0
 10
20.69723299806214
 20
6.237240772794919
 30
0.0
 10
20.57747211120256
 20
6.159708917646966
 30
0.0
 10
20.3551705984246
 20
6.124891756047375
 30
0.0
 10
20.1328635322957
 20
6.159748799249861
 30
0.0
 10
20.01297540394068
 20
6.237378804773299
 30
0.0
 10
19.95430535856881
 20
6.275368854403502
 30
0.0
  0
SPLINE
  5
3D5
330
1F
100
AcDbEntity
  8
외형선
  6
Continuous
 62
     1
370
    15
100
AcDbSpline
210
0.0
220
0.0
230
1.0
 70
     8
 71
     3
 72
     9
 73
     5
 74
     0
 42
0.000000001
 43
0.00000001
 40
0.0
 40
0.0
 40
0.0
 40
0.0
 40
0.5019270478503162
 40
1.0
 40
1.0
 40
1.0
 40
1.0
 10
20.73588616434732
 20
-6.349876523017879
 30
0.0
 10
20.77553740522795
 20
-6.346732621241469
 30
0.0
 10
20.85453542107608
 20
-6.340468958444499
 30
0.0
 10
20.92238313027555
 20
-6.296108723616922
 30
0.0
 10
20.95617623909311
 20
-6.274014090498294
 30
0.0
  0
SPLINE
  5
3D6
330
1F
100
AcDbEntity
  8
외형선
  6
Continuous
 62
     1
370
    15
100
AcDbSpline
210
0.0
220
0.0
230
1.0
 70
     8
 71
     3
 72
     9
 73
     5
 74
     0
 42
0.000000001
 43
0.00000001
 40
0.0
 40
0.0
 40
0.0
 40
0.0
 40
0.5019525694865505
 40
1.0
 40
1.0
 40
1.0
 40
1.0
 10
30.73559102201461
 20
-6.349837407469745
 30
0.0
 10
30.77529212721956
 20
-6.346734021722592
 30
0.0
 10
30.85438546714522
 20
-6.340551394247792
 30
0.0
 10
30.92233718384592
 20
-6.296133716996034
 30
0.0
 10
30.95618036174774
 20
-6.274011606971423
 30
0.0
  0
LINE
  5
3D7
330
1F
100
AcDbEntity
  8
외형선
  6
Continuous
 62
     1
370
    15
100
AcDbLine
 10
40.354
 20
5.843333279093115
 30
0.0
 11
39.88257444683708
 21
6.314757590492575
 31
0.0
  0
SPLINE
  5
3D8
330
1F
100
AcDbEntity
  8
외형선
  6
Continuous
 62
     1
370
    15
100
AcDbSpline
210
0.0
220
0.0
230
1.0
 70
     8
 71
     3
 72
     9
 73
     5
 74
     0
 42
0.000000001
 43
0.00000001
 40
0.0
 40
0.0
 40
0.0
 40
0.0
 40
0.4984825658930221
 40
0.9999999999999999
 40
0.9999999999999999
 40
0.9999999999999999
 40
0.9999999999999999
 10
29.95641923729577
 20
6.273822238047926
 30
0.0
 10
29.92334070921831
 20
6.295529073635563
 30
0.0
 10
29.85698226392715
 20
6.339074900657109
 30
0.0
 10
29.77931007977348
 20
6.346222806000383
 30
0.0
 10
29.74035612527527
 20
6.349807605147368
 30
0.0
  0
SPLINE
  5
3D9
330
1F
100
AcDbEntity
  8
외형선
  6
Continuous
 62
     1
370
    15
100
AcDbSpline
210
0.0
220
0.0
230
1.0
 70
     8
 71
     3
 72
     9
 73
     5
 74
     0
 42
0.000000001
 43
0.00000001
 40
0.0
 40
0.0
 40
0.0
 40
0.0
 40
0.4985380946158935
 40
1.0
 40
1.0
 40
1.0
 40
1.0
 10
19.9559395192464
 20
6.27419787148635
 30
0.0
 10
19.92294137822813
 20
6.295805782444361
 30
0.0
 10
19.8567515697168
 20
6.339148329766956
 30
0.0
 10
19.77922451901324
 20
6.346248421421371
 30
0.0
 10
19.74034765644867
 20
6.349808846910803
 30
0.0
  0
SPLINE
  5
3DA
330
1F
100
AcDbEntity
  8
외형선
  6
Continuous
 62
     1
370
    15
100
AcDbSpline
210
0.0
220
0.0
230
1.0
 70
     8
 71
     3
 72
     9
 73
     5
 74
     0
 42
0.000000001
 43
0.00000001
 40
0.0
 40
0.0
 40
0.0
 40
0.0
 40
0.4939020030540943
 40
1.0
 40
1.0
 40
1.0
 40
1.0
 10
20.95350644771257
 20
-6.275879219174381
 30
0.0
 10
21.01262506472709
 20
-6.236639920047007
 30
0.0
 10
21.13232212335206
 20
-6.1571923800801
 30
0.0
 10
21.27802739503426
 20
-6.144083614387934
 30
0.0
 10
21.35176854117708
 20
-6.137449294328685
 30
0.0
  0
SPLINE
  5
3DB
330
1F
100
AcDbEntity
  8
외형선
  6
Continuous
 62
     1
370
    15
100
AcDbSpline
210
0.0
220
0.0
230
1.0
 70
     8
 71
     3
 72
     9
 73
     5
 74
     0
 42
0.000000001
 43
0.00000001
 40
0.0
 40
0.0
 40
0.0
 40
0.0
 40
0.2099876162790711
 40
0.9999999999999999
 40
0.9999999999999999
 40
0.9999999999999999
 40
0.9999999999999999
 10
39.88050815248488
 20
6.315549214680998
 30
0.0
 10
39.87157838384027
 20
6.320813393651874
 30
0.0
 10
39.82905316829266
 20
6.345882390882081
 30
0.0
 10
39.7793073777118
 20
6.348103328413273
 30
0.0
 10
39.74000758711496
 20
6.349857896566397
 30
0.0
  0
LINE
  5
3DC
330
1F
100
AcDbEntity
  8
외형선
  6
Continuous
 62
     1
370
    15
100
AcDbLine
 10
39.73774509414034
 20
6.350000078479453
 30
0.0
 11
38.97260771973924
 21
6.350000078479453
 31
0.0
  0
SPLINE
  5
3DD
330
1F
100
AcDbEntity
  8
외형선
  6
Continuous
 62
     1
370
    15
100
AcDbSpline
210
0.0
220
0.0
230
1.0
 70
     8
 71
     3
 72
     9
 73
     5
 74
     0
 42
0.000000001
 43
0.00000001
 40
0.0
 40
0.0
 40
0.0
 40
0.0
 40
0.5051284949534123
 40
1.0
 40
1.0
 40
1.0
 40
1.0
 10
30.95369186782836
 20
-6.275763735175128
 30
0.0
 10
31.01280271448909
 20
-6.236401572703381
 30
0.0
 10
31.12982412043104
 20
-6.158476524195929
 30
0.0
 10
31.27219608368546
 20
-6.145474797985709
 30
0.0
 10
31.34265191141762
 20
-6.13904061416785
 30
0.0
  0
LINE
  5
3DE
330
1F
100
AcDbEntity
  8
외형선
  6
Continuous
 62
     1
370
    15
100
AcDbLine
 10
29.73682827536264
 20
6.350000078479453
 30
0.0
 11
28.97262594882647
 21
6.350000078479453
 31
0.0
  0
LINE
  5
3DF
330
1F
100
AcDbEntity
  8
외형선
  6
Continuous
 62
     1
370
    15
100
AcDbLine
 10
19.73687196060019
 20
6.350000078479453
 30
0.0
 11
18.97263796909649
 21
6.350000078479453
 31
0.0
  0
SPLINE
  5
3E0
330
1F
100
AcDbEntity
  8
외형선
  6
Continuous
 62
     1
370
    15
100
AcDbSpline
210
0.0
220
0.0
230
1.0
 70
     8
 71
     3
 72
    14
 73
    10
 74
     0
 42
0.000000001
 43
0.00000001
 40
0.0
 40
0.0
 40
0.0
 40
0.0
 40
0.0000774639406452
 40
0.0000774639406452
 40
0.0000774639406452
 40
0.0001596261908222
 40
0.0001596261908222
 40
0.0001596261908222
 40
0.0002439474106489
 40
0.0002439474106489
 40
0.0002439474106489
 40
0.0002439474106489
 10
20.51894550095586
 20
-1.511527438341306
 30
0.0
 10
20.49833632539162
 20
-1.492927442924379
 30
0.0
 10
20.4765149955534
 20
-1.47283247955465
 30
0.0
 10
20.45406892889352
 20
-1.451804797915297
 30
0.0
 10
20.43026012865809
 20
-1.42950049493201
 30
0.0
 10
20.40558554442056
 20
-1.405981535617609
 30
0.0
 10
20.38052075172078
 20
-1.381807188622576
 30
0.0
 10
20.35479828151233
 20
-1.356998528609505
 30
0.0
 10
20.32849063762245
 20
-1.331333628038574
 30
0.0
 10
20.30205184317866
 20
-1.30533957736522
 30
0.0
  0
SPLINE
  5
3E1
330
1F
100
AcDbEntity
  8
외형선
  6
Continuous
 62
     1
370
    15
100
AcDbSpline
210
0.0
220
0.0
230
1.0
 70
     8
 71
     3
 72
    12
 73
     8
 74
     0
 42
0.000000001
 43
0.00000001
 40
0.0
 40
0.0
 40
0.0
 40
0.0
 40
0.2500000000000001
 40
0.2500000000000001
 40
0.5
 40
0.5
 40
1.0
 40
1.0
 40
1.0
 40
1.0
 10
20.30205176569708
 20
-1.305338002195295
 30
0.0
 10
20.29030054300688
 20
-1.066440213043459
 30
0.0
 10
20.27883916441533
 20
-0.826597541895846
 30
0.0
 10
20.25471702499098
 20
-0.3362725803173516
 30
0.0
 10
20.24232020969974
 20
-0.0875505096752986
 30
0.0
 10
20.20447377532433
 20
0.6618157283870447
 30
0.0
 10
20.17836367594157
 20
1.165605237693438
 30
0.0
 10
20.15245684113652
 20
1.652386266936237
 30
0.0
  0
SPLINE
  5
3E2
330
1F
100
AcDbEntity
  8
외형선
  6
Continuous
 62
     1
370
    15
100
AcDbSpline
210
0.0
220
0.0
230
1.0
 70
     8
 71
     3
 72
    14
 73
    10
 74
     0
 42
0.000000001
 43
0.00000001
 40
0.0
 40
0.0
 40
0.0
 40
0.0
 40
0.0000835178459695
 40
0.0000835178459695
 40
0.0000835178459695
 40
0.0001566789112429
 40
0.0001566789112429
 40
0.0001566789112429
 40
0.0002323646009647
 40
0.0002323646009647
 40
0.0002323646009647
 40
0.0002323646009647
 10
20.15245641318876
 20
1.652394307993757
 30
0.0
 10
20.17867858799309
 20
1.627027339266395
 30
0.0
 10
20.20518836211881
 20
1.600983102939542
 30
0.0
 10
20.23151049968122
 20
1.574821711880166
 30
0.0
 10
20.25457589740003
 20
1.551897172099491
 30
0.0
 10
20.2776501360686
 20
1.528730725522043
 30
0.0
 10
20.30028600688685
 20
1.505848968968384
 30
0.0
 10
20.32366840562073
 20
1.48221257522128
 30
0.0
 10
20.34681038860512
 20
1.458649070313737
 30
0.0
 10
20.3688540349533
 20
1.436139851113357
 30
0.0
  0
SPLINE
  5
3E3
330
1F
100
AcDbEntity
  8
외형선
  6
Continuous
 62
     1
370
    15
100
AcDbSpline
210
0.0
220
0.0
230
1.0
 70
     8
 71
     3
 72
    12
 73
     8
 74
     0
 42
0.000000001
 43
0.00000001
 40
0.0
 40
0.0
 40
0.0
 40
0.0
 40
0.25
 40
0.25
 40
0.5
 40
0.5
 40
1.0
 40
1.0
 40
1.0
 40
1.0
 10
20.51894550095571
 20
-1.511527438338606
 30
0.0
 10
20.50685053798805
 20
-1.273474394285368
 30
0.0
 10
20.4953711810425
 20
-1.036013788694897
 30
0.0
 10
20.47143974903571
 20
-0.5511216734900968
 30
0.0
 10
20.45909951709519
 20
-0.3043803570976378
 30
0.0
 10
20.42129902471654
 20
0.4413574812926742
 30
0.0
 10
20.39505142388039
 20
0.9458681484270572
 30
0.0
 10
20.36885403495507
 20
1.436139851081923
 30
0.0
  0
SPLINE
  5
3E4
330
1F
100
AcDbEntity
  8
외형선
  6
Continuous
 62
     1
370
    15
100
AcDbSpline
210
0.0
220
0.0
230
1.0
 70
     8
 71
     3
 72
    14
 73
    10
 74
     0
 42
0.000000001
 43
0.00000001
 40
0.0
 40
0.0
 40
0.0
 40
0.0
 40
0.0000770831688956
 40
0.0000770831688956
 40
0.0000770831688956
 40
0.000158879815403
 40
0.000158879815403
 40
0.000158879815403
 40
0.0002428445135846
 40
0.0002428445135846
 40
0.0002428445135846
 40
0.0002428445135846
 10
30.520193969785
 20
-1.536070909905429
 30
0.0
 10
30.49962641296316
 20
-1.517740007545579
 30
0.0
 10
30.47783894858057
 20
-1.497923833461082
 30
0.0
 10
30.45541389472193
 20
-1.477177706013786
 30
0.0
 10
30.43161665594517
 20
-1.45516212684647
 30
0.0
 10
30.40693091698549
 20
-1.431942658561392
 30
0.0
 10
30.38186063370332
 20
-1.408047039527122
 30
0.0
 10
30.35612682542427
 20
-1.383518984857186
 30
0.0
 10
30.32981395184015
 20
-1.358113130563093
 30
0.0
 10
30.30338245459717
 20
-1.332355902961626
 30
0.0
  0
SPLINE
  5
3E5
330
1F
100
AcDbEntity
  8
외형선
  6
Continuous
 62
     1
370
    15
100
AcDbSpline
210
0.0
220
0.0
230
1.0
 70
     8
 71
     3
 72
    12
 73
     8
 74
     0
 42
0.000000001
 43
0.00000001
 40
0.0
 40
0.0
 40
0.0
 40
0.0
 40
0.2500000000000001
 40
0.2500000000000001
 40
0.5000000000000001
 40
0.5000000000000001
 40
1.0
 40
1.0
 40
1.0
 40
1.0
 10
30.30338239406192
 20
-1.33235467546957
 30
0.0
 10
30.29160350639404
 20
-1.093504487173017
 30
0.0
 10
30.28017791899788
 20
-0.8540694893744627
 30
0.0
 10
30.25610806632853
 20
-0.3643163638317715
 30
0.0
 10
30.24373338606049
 20
-0.1157914796813584
 30
0.0
 10
30.20593914927472
 20
0.6332788438761385
 30
0.0
 10
30.17984453033479
 20
1.13727268903816
 30
0.0
 10
30.15393179856197
 20
1.624658242235786
 30
0.0
  0
SPLINE
  5
3E6
330
1F
100
AcDbEntity
  8
외형선
  6
Continuous
 62
     1
370
    15
100
AcDbSpline
210
0.0
220
0.0
230
1.0
 70
     8
 71
     3
 72
    14
 73
    10
 74
     0
 42
0.000000001
 43
0.00000001
 40
0.0
 40
0.0
 40
0.0
 40
0.0
 40
0.0000829593681411
 40
0.0000829593681411
 40
0.0000829593681411
 40
0.0001559742325412
 40
0.0001559742325412
 40
0.0001559742325412
 40
0.0002315418283832
 40
0.0002315418283832
 40
0.0002315418283832
 40
0.0002315418283832
 10
30.15393174257771
 20
1.624659295229084
 30
0.0
 10
30.18003949564239
 20
1.599490433266749
 30
0.0
 10
30.20644428736962
 20
1.573674924755896
 30
0.0
 10
30.23267269344251
 20
1.547768086612497
 30
0.0
 10
30.25576358297139
 20
1.524960298142713
 30
0.0
 10
30.27887208102011
 20
1.501929317499692
 30
0.0
 10
30.30154356812438
 20
1.479206261186808
 30
0.0
 10
30.32497242410865
 20
1.455724113261188
 30
0.0
 10
30.34816521694554
 20
1.432338765041796
 30
0.0
 10
30.3702480067197
 20
1.410039952604888
 30
0.0
  0
SPLINE
  5
3E7
330
1F
100
AcDbEntity
  8
외형선
  6
Continuous
 62
     1
370
    15
100
AcDbSpline
210
0.0
220
0.0
230
1.0
 70
     8
 71
     3
 72
    12
 73
     8
 74
     0
 42
0.000000001
 43
0.00000001
 40
0.0
 40
0.0
 40
0.0
 40
0.0
 40
0.25
 40
0.25
 40
0.5
 40
0.5
 40
1.0
 40
1.0
 40
1.0
 40
1.0
 10
30.52019396978489
 20
-1.536070909901734
 30
0.0
 10
30.50807813335861
 20
-1.298167390318002
 30
0.0
 10
30.4965843601004
 20
-1.060833833564817
 30
0.0
 10
30.47271139025802
 20
-0.5766719997143595
 30
0.0
 10
30.46039701464575
 20
-0.3302185568495259
 30
0.0
 10
30.42266145602197
 20
0.4149247732950032
 30
0.0
 10
30.39643994879311
 20
0.9194050306741888
 30
0.0
 10
30.37024800672294
 20
1.410039952543859
 30
0.0
  0
SPLINE
  5
3E8
330
1F
100
AcDbEntity
  8
외형선
  6
Continuous
 62
     1
370
    15
100
AcDbSpline
210
0.0
220
0.0
230
1.0
 70
     8
 71
     3
 72
    14
 73
    10
 74
     0
 42
0.000000001
 43
0.00000001
 40
0.0
 40
0.0
 40
0.0
 40
0.0
 40
0.0000825708095055
 40
0.0000825708095055
 40
0.0000825708095055
 40
0.0001555326320944
 40
0.0001555326320944
 40
0.0001555326320944
 40
0.0002310552253596
 40
0.0002310552253596
 40
0.0002310552253596
 40
0.0002310552253596
 10
39.50067015679713
 20
-0.5638808565039382
 30
0.0
 10
39.47467702191648
 20
-0.538077402787418
 30
0.0
 10
39.44839035704422
 20
-0.512116819469969
 30
0.0
 10
39.4222816362464
 20
-0.4866038142561804
 30
0.0
 10
39.39920518707626
 20
-0.4640538941528574
 30
0.0
 10
39.37611287051158
 20
-0.4417023233887631
 30
0.0
 10
39.35346085736825
 20
-0.4201406765610001
 30
0.0
 10
39.33004905656034
 20
-0.3978558148390432
 30
0.0
 10
39.30687644974773
 20
-0.3761946284623887
 30
0.0
 10
39.28481756897685
 20
-0.35623514998922
 30
0.0
  0
SPLINE
  5
3E9
330
1F
100
AcDbEntity
  8
외형선
  6
Continuous
 62
     1
370
    15
100
AcDbSpline
210
0.0
220
0.0
230
1.0
 70
     8
 71
     3
 72
    10
 73
     6
 74
     0
 42
0.000000001
 43
0.00000001
 40
0.0
 40
0.0
 40
0.0
 40
0.0
 40
0.5000000000000001
 40
0.5000000000000001
 40
1.0
 40
1.0
 40
1.0
 40
1.0
 10
39.28481757079953
 20
-0.3562351863540369
 30
0.0
 10
39.26031471003029
 20
0.1323669422568914
 30
0.0
 10
39.23458884929869
 20
0.6323070535770343
 30
0.0
 10
39.18275343216715
 20
1.613379988955484
 30
0.0
 10
39.15666405865494
 20
2.094124421168499
 30
0.0
 10
39.13148264087603
 20
2.545544605515409
 30
0.0
  0
SPLINE
  5
3EA
330
1F
100
AcDbEntity
  8
외형선
  6
Continuous
 62
     1
370
    15
100
AcDbSpline
210
0.0
220
0.0
230
1.0
 70
     8
 71
     3
 72
    14
 73
    10
 74
     0
 42
0.000000001
 43
0.00000001
 40
0.0
 40
0.0
 40
0.0
 40
0.0
 40
0.0000773236163103
 40
0.0000773236163103
 40
0.0000773236163103
 40
0.0001592876546558
 40
0.0001592876546558
 40
0.0001592876546558
 40
0.0002434134918074
 40
0.0002434134918074
 40
0.0002434134918074
 40
0.0002434134918074
 10
39.13148264087303
 20
2.545544605522891
 30
0.0
 10
39.15211615411863
 20
2.530856744051085
 30
0.0
 10
39.1739726915398
 20
2.514294547336994
 30
0.0
 10
39.19646796703574
 20
2.496397769828026
 30
0.0
 10
39.22031445348904
 20
2.477425996732745
 30
0.0
 10
39.24504918691919
 20
2.456820354168468
 30
0.0
 10
39.27016930520654
 20
2.435086308763791
 30
0.0
 10
39.29595108412423
 20
2.412779791445733
 30
0.0
 10
39.32231220375283
 20
2.389135249888402
 30
0.0
 10
39.34879417722533
 20
2.364638414211346
 30
0.0
  0
SPLINE
  5
3EB
330
1F
100
AcDbEntity
  8
외형선
  6
Continuous
 62
     1
370
    15
100
AcDbSpline
210
0.0
220
0.0
230
1.0
 70
     8
 71
     3
 72
    10
 73
     6
 74
     0
 42
0.000000001
 43
0.00000001
 40
0.0
 40
0.0
 40
0.0
 40
0.0
 40
0.5
 40
0.5
 40
1.0
 40
1.0
 40
1.0
 40
1.0
 10
39.5006705611073
 20
-0.5638890696009566
 30
0.0
 10
39.47668129872453
 20
-0.0765735718465974
 30
0.0
 10
39.45136279452572
 20
0.4247274876938478
 30
0.0
 10
39.40002852798057
 20
1.414782293406181
 30
0.0
 10
39.37403189312096
 20
1.903155310532061
 30
0.0
 10
39.34877534012202
 20
2.364982861586744
 30
0.0
  0
SPLINE
  5
3EC
330
1F
100
AcDbEntity
  8
외형선
  6
Continuous
 62
     1
370
    15
100
AcDbSpline
210
0.0
220
0.0
230
1.0
 70
     8
 71
     3
 72
    14
 73
    10
 74
     0
 42
0.000000001
 43
0.00000001
 40
0.0
 40
0.0
 40
0.0
 40
0.0
 40
0.0000833544657104
 40
0.0000833544657104
 40
0.0000833544657104
 40
0.0001564333610495
 40
0.0001564333610495
 40
0.0001564333610495
 40
0.0002320617510058
 40
0.0002320617510058
 40
0.0002320617510058
 40
0.0002320617510058
 10
29.4993757234772
 20
-0.5375983187192146
 30
0.0
 10
29.47326167076085
 20
-0.511415403618467
 30
0.0
 10
29.44686425203723
 20
-0.485070673934767
 30
0.0
 10
29.42062470404548
 20
-0.4592110498926614
 30
0.0
 10
29.39761295045941
 20
-0.4365324848323224
 30
0.0
 10
29.37457534596689
 20
-0.4140701226317445
 30
0.0
 10
29.35196375754024
 20
-0.3924159052685594
 30
0.0
 10
29.32859858615423
 20
-0.3700400115288387
 30
0.0
 10
29.30545854300577
 20
-0.3483070437148781
 30
0.0
 10
29.28341588685595
 20
-0.3282987643134829
 30
0.0
  0
SPLINE
  5
3ED
330
1F
100
AcDbEntity
  8
외형선
  6
Continuous
 62
     1
370
    15
100
AcDbSpline
210
0.0
220
0.0
230
1.0
 70
     8
 71
     3
 72
    10
 73
     6
 74
     0
 42
0.000000001
 43
0.00000001
 40
0.0
 40
0.0
 40
0.0
 40
0.0
 40
0.5
 40
0.5
 40
1.0
 40
1.0
 40
1.0
 40
1.0
 10
29.28341588985734
 20
-0.3282988241095763
 30
0.0
 10
29.25886344026823
 20
0.1608013277622051
 30
0.0
 10
29.23310534294729
 20
0.6608651349406971
 30
0.0
 10
29.18124856394178
 20
1.641353453504583
 30
0.0
 10
29.1551701160181
 20
2.121389752702162
 30
0.0
 10
29.13001970398873
 20
2.571755776552908
 30
0.0
  0
SPLINE
  5
3EE
330
1F
100
AcDbEntity
  8
외형선
  6
Continuous
 62
     1
370
    15
100
AcDbSpline
210
0.0
220
0.0
230
1.0
 70
     8
 71
     3
 72
    14
 73
    10
 74
     0
 42
0.000000001
 43
0.00000001
 40
0.0
 40
0.0
 40
0.0
 40
0.0
 40
0.0000774290020068
 40
0.0000774290020068
 40
0.0000774290020068
 40
0.000159655336858
 40
0.000159655336858
 40
0.000159655336858
 40
0.0002440432775616
 40
0.0002440432775616
 40
0.0002440432775616
 40
0.0002440432775616
 10
29.1300197039901
 20
2.57175577655731
 30
0.0
 10
29.15065974994355
 20
2.557118949374689
 30
0.0
 10
29.17251579024159
 20
2.540586063037533
 30
0.0
 10
29.19499991940387
 20
2.522699081114005
 30
0.0
 10
29.21887827196059
 20
2.503702941327423
 30
0.0
 10
29.24363579921723
 20
2.483045270632506
 30
0.0
 10
29.26876653833719
 20
2.461235450507478
 30
0.0
 10
29.29455736912969
 20
2.438852766982923
 30
0.0
 10
29.32091409144705
 20
2.41510733437723
 30
0.0
 10
29.34737991294366
 20
2.39048581482712
 30
0.0
  0
SPLINE
  5
3EF
330
1F
100
AcDbEntity
  8
외형선
  6
Continuous
 62
     1
370
    15
100
AcDbSpline
210
0.0
220
0.0
230
1.0
 70
     8
 71
     3
 72
    10
 73
     6
 74
     0
 42
0.000000001
 43
0.00000001
 40
0.0
 40
0.0
 40
0.0
 40
0.0
 40
0.4999999999999999
 40
0.4999999999999999
 40
1.0
 40
1.0
 40
1.0
 40
1.0
 10
29.49937571709046
 20
-0.5375981891026482
 30
0.0
 10
29.47533130122006
 20
-0.0496244758454436
 30
0.0
 10
29.44997228607008
 20
0.4520030405359821
 30
0.0
 10
29.39859648188471
 20
1.441917890219874
 30
0.0
 10
29.37259891464373
 20
1.929823706141467
 30
0.0
 10
29.34736127144919
 20
2.390826331449877
 30
0.0
  0
SPLINE
  5
3F0
330
1F
100
AcDbEntity
  8
외형선
  6
Continuous
 62
     1
370
    15
100
AcDbSpline
210
0.0
220
0.0
230
1.0
 70
     8
 71
     3
 72
    14
 73
    10
 74
     0
 42
0.000000001
 43
0.00000001
 40
0.0
 40
0.0
 40
0.0
 40
0.0
 40
0.0000825981393153
 40
0.0000825981393153
 40
0.0000825981393153
 40
0.0001555663176032
 40
0.0001555663176032
 40
0.0001555663176032
 40
0.0002310937605346
 40
0.0002310937605346
 40
0.0002310937605346
 40
0.0002310937605346
 10
19.49805209049542
 20
-0.5107485727734185
 30
0.0
 10
19.47204989635867
 20
-0.4849186205614684
 30
0.0
 10
19.44575473336272
 20
-0.4589552218482522
 30
0.0
 10
19.41963824257479
 20
-0.4334654473337833
 30
0.0
 10
19.39656050866637
 20
-0.4109415087844637
 30
0.0
 10
19.37346746449203
 20
-0.3886363260755372
 30
0.0
 10
19.3508149572732
 20
-0.367143703009293
 30
0.0
 10
19.32740315005138
 20
-0.3449306586403962
 30
0.0
 10
19.304230914038
 20
-0.323366303635761
 30
0.0
 10
19.28217205267056
 20
-0.3035318091202965
 30
0.0
  0
SPLINE
  5
3F1
330
1F
100
AcDbEntity
  8
외형선
  6
Continuous
 62
     1
370
    15
100
AcDbSpline
210
0.0
220
0.0
230
1.0
 70
     8
 71
     3
 72
    10
 73
     6
 74
     0
 42
0.000000001
 43
0.00000001
 40
0.0
 40
0.0
 40
0.0
 40
0.0
 40
0.5
 40
0.5
 40
1.0
 40
1.0
 40
1.0
 40
1.0
 10
19.28217205267032
 20
-0.3035318091188044
 30
0.0
 10
19.25758651399201
 20
0.185792895948798
 30
0.0
 10
19.23181181509677
 20
0.6857391443081768
 30
0.0
 10
19.17995941921003
 20
1.665290363197887
 30
0.0
 10
19.15390195491002
 20
2.144508140563578
 30
0.0
 10
19.12878859853057
 20
2.593790777882798
 30
0.0
  0
SPLINE
  5
3F2
330
1F
100
AcDbEntity
  8
외형선
  6
Continuous
 62
     1
370
    15
100
AcDbSpline
210
0.0
220
0.0
230
1.0
 70
     8
 71
     3
 72
    14
 73
    10
 74
     0
 42
0.000000001
 43
0.00000001
 40
0.0
 40
0.0
 40
0.0
 40
0.0
 40
0.0000773409744664
 40
0.0000773409744664
 40
0.0000773409744664
 40
0.0001593059771871
 40
0.0001593059771871
 40
0.0001593059771871
 40
0.0002434322609844
 40
0.0002434322609844
 40
0.0002434322609844
 40
0.0002434322609844
 10
19.12878859852706
 20
2.593790777894337
 30
0.0
 10
19.14942265699824
 20
2.579290580327686
 30
0.0
 10
19.1712800362926
 20
2.562898059374695
 30
0.0
 10
19.19377659962106
 20
2.5451519456047
 30
0.0
 10
19.21761940646038
 20
2.526343865606502
 30
0.0
 10
19.24235059275476
 20
2.505882409864388
 30
0.0
 10
19.26746770999499
 20
2.484271440021371
 30
0.0
 10
19.29324623027842
 20
2.462091393676343
 30
0.0
 10
19.31960460199315
 20
2.438551991931381
 30
0.0
 10
19.34608455081763
 20
2.41413654722241
 30
0.0
  0
SPLINE
  5
3F3
330
1F
100
AcDbEntity
  8
외형선
  6
Continuous
 62
     1
370
    15
100
AcDbSpline
210
0.0
220
0.0
230
1.0
 70
     8
 71
     3
 72
    10
 73
     6
 74
     0
 42
0.000000001
 43
0.00000001
 40
0.0
 40
0.0
 40
0.0
 40
0.0
 40
0.5000000000000001
 40
0.5000000000000001
 40
1.0
 40
1.0
 40
1.0
 40
1.0
 10
19.49805239792903
 20
-0.5107548060240275
 30
0.0
 10
19.47397498136852
 20
-0.0225824748018111
 30
0.0
 10
19.44860051773498
 20
0.4788777411018659
 30
0.0
 10
19.39723339322164
 20
1.467714474433412
 30
0.0
 10
19.37125995405848
 20
1.954710524923162
 30
0.0
 10
19.34606321511383
 20
2.414525905624441
 30
0.0
  0
SPLINE
  5
3F4
330
1F
100
AcDbEntity
  8
외형선
  6
Continuous
 62
     1
370
    15
100
AcDbSpline
210
0.0
220
0.0
230
1.0
 70
     8
 71
     3
 72
     8
 73
     4
 74
     0
 42
0.000000001
 43
0.00000001
 40
0.0
 40
0.0
 40
0.0
 40
0.0
 40
1.0
 40
1.0
 40
1.0
 40
1.0
 10
30.30338245082234
 20
-1.332355899283097
 30
0.0
 10
30.03399723664871
 20
-1.069842723768285
 30
0.0
 10
29.76492862905701
 20
-0.8038514837675406
 30
0.0
 10
29.49937569753815
 20
-0.5375982927117589
 30
0.0
  0
SPLINE
  5
3F5
330
1F
100
AcDbEntity
  8
외형선
  6
Continuous
 62
     1
370
    15
100
AcDbSpline
210
0.0
220
0.0
230
1.0
 70
     8
 71
     3
 72
     8
 73
     4
 74
     0
 42
0.000000001
 43
0.00000001
 40
0.0
 40
0.0
 40
0.0
 40
0.0
 40
1.0
 40
1.0
 40
1.0
 40
1.0
 10
30.15393168901916
 20
1.624659346861383
 30
0.0
 10
29.88308346499685
 20
1.885767284152256
 30
0.0
 10
29.61491775896292
 20
2.141602232578596
 30
0.0
 10
29.34687344517301
 20
2.39095697879515
 30
0.0
  0
SPLINE
  5
3F6
330
1F
100
AcDbEntity
  8
외형선
  6
Continuous
 62
     1
370
    15
100
AcDbSpline
210
0.0
220
0.0
230
1.0
 70
     8
 71
     3
 72
     8
 73
     4
 74
     0
 42
0.000000001
 43
0.00000001
 40
0.0
 40
0.0
 40
0.0
 40
0.0
 40
1.0
 40
1.0
 40
1.0
 40
1.0
 10
22.40843516391778
 20
-3.259274264194818
 30
0.0
 10
22.1396875336778
 20
-3.027942609869878
 30
0.0
 10
21.87220811554807
 20
-2.788183627740653
 30
0.0
 10
21.60130301870833
 20
-2.540491051392077
 30
0.0
  0
SPLINE
  5
3F7
330
1F
100
AcDbEntity
  8
외형선
  6
Continuous
 62
     1
370
    15
100
AcDbSpline
210
0.0
220
0.0
230
1.0
 70
     8
 71
     3
 72
    10
 73
     6
 74
     0
 42
0.000000001
 43
0.00000001
 40
0.0
 40
0.0
 40
0.0
 40
0.0
 40
0.5000000000000001
 40
0.5000000000000001
 40
1.0
 40
1.0
 40
1.0
 40
1.0
 10
21.60130305976564
 20
-2.540491805621538
 30
0.0
 10
21.57567622251699
 20
-2.078321513590903
 30
0.0
 10
21.55079136516494
 20
-1.596457376036152
 30
0.0
 10
21.50434394977242
 20
-0.6351552049823495
 30
0.0
 10
21.47956472449478
 20
-0.1339426122973135
 30
0.0
 10
21.45396453249282
 20
0.3693176784709822
 30
0.0
  0
SPLINE
  5
3F8
330
1F
100
AcDbEntity
  8
외형선
  6
Continuous
 62
     1
370
    15
100
AcDbSpline
210
0.0
220
0.0
230
1.0
 70
     8
 71
     3
 72
     8
 73
     4
 74
     0
 42
0.000000001
 43
0.00000001
 40
0.0
 40
0.0
 40
0.0
 40
0.0
 40
1.0
 40
1.0
 40
1.0
 40
1.0
 10
22.25963132674316
 20
-0.4365283169525851
 30
0.0
 10
21.99308057633698
 20
-0.1690311205546875
 30
0.0
 10
21.72416262629924
 20
0.1004278716673186
 30
0.0
 10
21.45396586158421
 20
0.3693185209567575
 30
0.0
  0
SPLINE
  5
3F9
330
1F
100
AcDbEntity
  8
외형선
  6
Continuous
 62
     1
370
    15
100
AcDbSpline
210
0.0
220
0.0
230
1.0
 70
     8
 71
     3
 72
    10
 73
     6
 74
     0
 42
0.000000001
 43
0.00000001
 40
0.0
 40
0.0
 40
0.0
 40
0.0
 40
0.5
 40
0.5
 40
1.0
 40
1.0
 40
1.0
 40
1.0
 10
22.40795581937232
 20
-3.259295417235268
 30
0.0
 10
22.38192390239486
 20
-2.824801891394482
 30
0.0
 10
22.35603708956419
 20
-2.359747148634706
 30
0.0
 10
22.30665573700489
 20
-1.409630737744517
 30
0.0
 10
22.28410201739804
 20
-0.9313718052381956
 30
0.0
 10
22.25963062554804
 20
-0.4365283690839403
 30
0.0
  0
LINE
  5
3FA
330
1F
100
AcDbEntity
  8
외형선
  6
Continuous
 62
     1
370
    15
100
AcDbLine
 10
39.84733320061363
 20
-0.9072571216772003
 30
0.0
 11
39.84733320061363
 21
1.896507417162259
 31
0.0
  0
SPLINE
  5
3FB
330
1F
100
AcDbEntity
  8
외형선
  6
Continuous
 62
     1
370
    15
100
AcDbSpline
210
0.0
220
0.0
230
1.0
 70
     8
 71
     3
 72
     8
 73
     4
 74
     0
 42
0.000000001
 43
0.00000001
 40
0.0
 40
0.0
 40
0.0
 40
0.0
 40
1.0
 40
1.0
 40
1.0
 40
1.0
 10
39.84733316246667
 20
-0.9072571234935252
 30
0.0
 10
39.73199168475557
 20
-0.7932615700176866
 30
0.0
 10
39.61635389025645
 20
-0.6787203956466596
 30
0.0
 10
39.50067627466581
 20
-0.5638869297272207
 30
0.0
  0
SPLINE
  5
3FC
330
1F
100
AcDbEntity
  8
외형선
  6
Continuous
 62
     1
370
    15
100
AcDbSpline
210
0.0
220
0.0
230
1.0
 70
     8
 71
     3
 72
     8
 73
     4
 74
     0
 42
0.000000001
 43
0.00000001
 40
0.0
 40
0.0
 40
0.0
 40
0.0
 40
1.0
 40
1.0
 40
1.0
 40
1.0
 10
39.84733316246815
 20
1.896507415028066
 30
0.0
 10
39.68134620306904
 20
2.054692888716265
 30
0.0
 10
39.51474528420931
 20
2.211131948573706
 30
0.0
 10
39.34829590250952
 20
2.365099330377125
 30
0.0
  0
SPLINE
  5
3FD
330
1F
100
AcDbEntity
  8
외형선
  6
Continuous
 62
     1
370
    15
100
AcDbSpline
210
0.0
220
0.0
230
1.0
 70
     8
 71
     3
 72
     8
 73
     4
 74
     0
 42
0.000000001
 43
0.00000001
 40
0.0
 40
0.0
 40
0.0
 40
0.0
 40
1.0
 40
1.0
 40
1.0
 40
1.0
 10
20.30205184950598
 20
-1.305339583586128
 30
0.0
 10
20.03619531041108
 20
-1.043955186381605
 30
0.0
 10
19.76713007423701
 20
-0.7780441340915045
 30
0.0
 10
19.49805645321338
 20
-0.51075290659207
 30
0.0
  0
SPLINE
  5
3FE
330
1F
100
AcDbEntity
  8
외형선
  6
Continuous
 62
     1
370
    15
100
AcDbSpline
210
0.0
220
0.0
230
1.0
 70
     8
 71
     3
 72
     8
 73
     4
 74
     0
 42
0.000000001
 43
0.00000001
 40
0.0
 40
0.0
 40
0.0
 40
0.0
 40
1.0
 40
1.0
 40
1.0
 40
1.0
 10
20.15246113053864
 20
1.652389744490994
 30
0.0
 10
19.88504940506764
 20
1.911080215816345
 30
0.0
 10
19.61501012949993
 20
2.166185307588404
 30
0.0
 10
19.34558023430725
 20
2.414601537665686
 30
0.0
  0
SPLINE
  5
3FF
330
1F
100
AcDbEntity
  8
외형선
  6
Continuous
 62
     1
370
    15
100
AcDbSpline
210
0.0
220
0.0
230
1.0
 70
     8
 71
     3
 72
     8
 73
     4
 74
     0
 42
0.000000001
 43
0.00000001
 40
0.0
 40
0.0
 40
0.0
 40
0.0
 40
1.0
 40
1.0
 40
1.0
 40
1.0
 10
32.40972380479633
 20
-3.280807007689144
 30
0.0
 10
32.14052995141003
 20
-3.050975683375351
 30
0.0
 10
31.8704676325831
 20
-2.812071309002749
 30
0.0
 10
31.60277516042673
 20
-2.567004678578445
 30
0.0
  0
SPLINE
  5
400
330
1F
100
AcDbEntity
  8
외형선
  6
Continuous
 62
     1
370
    15
100
AcDbSpline
210
0.0
220
0.0
230
1.0
 70
     8
 71
     3
 72
    10
 73
     6
 74
     0
 42
0.000000001
 43
0.00000001
 40
0.0
 40
0.0
 40
0.0
 40
0.0
 40
0.4999999999999999
 40
0.4999999999999999
 40
1.0
 40
1.0
 40
1.0
 40
1.0
 10
31.60277520323473
 20
-2.567005442571928
 30
0.0
 10
31.57711501570074
 20
-2.105485187157586
 30
0.0
 10
31.55217653944942
 20
-1.623852425865574
 30
0.0
 10
31.50559484075083
 20
-0.662247529023186
 30
0.0
 10
31.48097453631199
 20
-0.1621617884628064
 30
0.0
 10
31.455395894979
 20
0.341165574310172
 30
0.0
  0
SPLINE
  5
401
330
1F
100
AcDbEntity
  8
외형선
  6
Continuous
 62
     1
370
    15
100
AcDbSpline
210
0.0
220
0.0
230
1.0
 70
     8
 71
     3
 72
     8
 73
     4
 74
     0
 42
0.000000001
 43
0.00000001
 40
0.0
 40
0.0
 40
0.0
 40
0.0
 40
1.0
 40
1.0
 40
1.0
 40
1.0
 10
32.26089908045378
 20
-0.4626812065978454
 30
0.0
 10
31.9915910186158
 20
-0.1949856932474345
 30
0.0
 10
31.72201683205217
 20
0.0740376791876942
 30
0.0
 10
31.45539589413952
 20
0.341165570107667
 30
0.0
  0
SPLINE
  5
402
330
1F
100
AcDbEntity
  8
외형선
  6
Continuous
 62
     1
370
    15
100
AcDbSpline
210
0.0
220
0.0
230
1.0
 70
     8
 71
     3
 72
    10
 73
     6
 74
     0
 42
0.000000001
 43
0.00000001
 40
0.0
 40
0.0
 40
0.0
 40
0.0
 40
0.5
 40
0.5
 40
1.0
 40
1.0
 40
1.0
 40
1.0
 10
32.40924750499448
 20
-3.280827978652002
 30
0.0
 10
32.38322559180024
 20
-2.847577360562485
 30
0.0
 10
32.35732976586229
 20
-2.38347801949597
 30
0.0
 10
32.30789518030633
 20
-1.434561831096882
 30
0.0
 10
32.28533639486524
 20
-0.9568062374069326
 30
0.0
 10
32.260922887188
 20
-0.462671790350039
 30
0.0
  0
SPLINE
  5
403
330
1F
100
AcDbEntity
  8
외형선
  6
Continuous
 62
     1
370
    15
100
AcDbSpline
210
0.0
220
0.0
230
1.0
 70
     8
 71
     3
 72
     9
 73
     5
 74
     0
 42
0.000000001
 43
0.00000001
 40
0.0
 40
0.0
 40
0.0
 40
0.0
 40
0.9198297076636267
 40
1.0
 40
1.0
 40
1.0
 40
1.0
 10
35.10743525409697
 20
-5.450015266736354
 30
0.0
 10
35.18499180626321
 20
-5.36960167839366
 30
0.0
 10
35.26930801340474
 20
-5.282179422216545
 30
0.0
 10
35.35716368209343
 20
-5.235385857066073
 30
0.0
 10
35.36420709673561
 20
-5.231634403268496
 30
0.0
  0
SPLINE
  5
404
330
1F
100
AcDbEntity
  8
외형선
  6
Continuous
 62
     1
370
    15
100
AcDbSpline
210
0.0
220
0.0
230
1.0
 70
     8
 71
     3
 72
    14
 73
    10
 74
     0
 42
0.000000001
 43
0.00000001
 40
0.0
 40
0.0
 40
0.0
 40
0.0
 40
0.0000836926509638
 40
0.0000836926509638
 40
0.0000836926509638
 40
0.0001568235353281
 40
0.0001568235353281
 40
0.0001568235353281
 40
0.0002324950665655
 40
0.0002324950665655
 40
0.0002324950665655
 40
0.0002324950665655
 10
34.891043064841
 20
-5.611347723362267
 30
0.0
 10
34.91726177511191
 20
-5.598996898888511
 30
0.0
 10
34.94376779519304
 20
-5.584088286568185
 30
0.0
 10
34.97011522418754
 20
-5.566743409392795
 30
0.0
 10
34.9931450147655
 20
-5.55158257950563
 30
0.0
 10
35.01620055473958
 20
-5.534456606433136
 30
0.0
 10
35.03883164097132
 20
-5.51543160066458
 30
0.0
 10
35.06221373044417
 20
-5.495775257944412
 30
0.0
 10
35.08537186214252
 20
-5.473895411623954
 30
0.0
 10
35.10743553752579
 20
-5.450015352780663
 30
0.0
  0
SPLINE
  5
405
330
1F
100
AcDbEntity
  8
외형선
  6
Continuous
 62
     1
370
    15
100
AcDbSpline
210
0.0
220
0.0
230
1.0
 70
     8
 71
     3
 72
     8
 73
     4
 74
     0
 42
0.000000001
 43
0.00000001
 40
0.0
 40
0.0
 40
0.0
 40
0.0
 40
1.0
 40
1.0
 40
1.0
 40
1.0
 10
34.89094096194806
 20
-5.611395820089167
 30
0.0
 10
34.62453190661286
 20
-5.736888778076472
 30
0.0
 10
34.3545663671448
 20
-5.847873904901159
 30
0.0
 10
34.08427521909493
 20
-5.942791568734658
 30
0.0
  0
SPLINE
  5
406
330
1F
100
AcDbEntity
  8
외형선
  6
Continuous
 62
     1
370
    15
100
AcDbSpline
210
0.0
220
0.0
230
1.0
 70
     8
 71
     3
 72
    14
 73
    10
 74
     0
 42
0.000000001
 43
0.00000001
 40
0.0
 40
0.0
 40
0.0
 40
0.0
 40
0.0000771920700499
 40
0.0000771920700499
 40
0.0000771920700499
 40
0.0001591328833914
 40
0.0001591328833914
 40
0.0001591328833914
 40
0.0002432398638302
 40
0.0002432398638302
 40
0.0002432398638302
 40
0.0002432398638302
 10
33.86757624522761
 20
-5.951539715827036
 30
0.0
 10
33.88817949018346
 20
-5.958747043524336
 30
0.0
 10
33.91000385572552
 20
-5.963131407617307
 30
0.0
 10
33.93246526815457
 20
-5.964938546355238
 30
0.0
 10
33.95630947615446
 20
-5.966856938267948
 30
0.0
 10
33.9810423302648
 20
-5.965887333555354
 30
0.0
 10
34.00615903358104
 20
-5.962242000241896
 30
0.0
 10
34.03193888095012
 20
-5.95850042097302
 30
0.0
 10
34.0582968542502
 20
-5.951916266429033
 30
0.0
 10
34.08477329834076
 20
-5.942616640885599
 30
0.0
  0
SPLINE
  5
407
330
1F
100
AcDbEntity
  8
외형선
  6
Continuous
 62
     1
370
    15
100
AcDbSpline
210
0.0
220
0.0
230
1.0
 70
     8
 71
     3
 72
    10
 73
     6
 74
     0
 42
0.000000001
 43
0.00000001
 40
0.0
 40
0.0
 40
0.0
 40
0.0
 40
0.5
 40
0.5
 40
1.0
 40
1.0
 40
1.0
 40
1.0
 10
33.00200128160415
 20
-6.168424382242999
 30
0.0
 10
33.14060869724466
 20
-6.043506562722579
 30
0.0
 10
33.29729941469715
 20
-5.973729631808776
 30
0.0
 10
33.59547946401821
 20
-5.906174323253647
 30
0.0
 10
33.74103977798285
 20
-5.907275339652482
 30
0.0
 10
33.86757624522863
 20
-5.951539715825485
 30
0.0
  0
SPLINE
  5
408
330
1F
100
AcDbEntity
  8
외형선
  6
Continuous
 62
     1
370
    15
100
AcDbSpline
210
0.0
220
0.0
230
1.0
 70
     8
 71
     3
 72
    14
 73
    10
 74
     0
 42
0.000000001
 43
0.00000001
 40
0.0
 40
0.0
 40
0.0
 40
0.0
 40
0.0000828077821379
 40
0.0000828077821379
 40
0.0000828077821379
 40
0.0001558367657269
 40
0.0001558367657269
 40
0.0001558367657269
 40
0.0002314123918217
 40
0.0002314123918217
 40
0.0002314123918217
 40
0.0002314123918217
 10
32.78642390677447
 20
-6.273341348607683
 30
0.0
 10
32.81243545142216
 20
-6.269307914574578
 30
0.0
 10
32.83873298201945
 20
-6.262406340788027
 30
0.0
 10
32.86484500627918
 20
-6.252535120390557
 30
0.0
 10
32.88787986195547
 20
-6.243827172858682
 30
0.0
 10
32.91092431547017
 20
-6.232749212169973
 30
0.0
 10
32.93352659703288
 20
-6.219161126999619
 30
0.0
 10
32.95688233076811
 20
-6.205120079934086
 30
0.0
 10
32.97999507556332
 20
-6.188257139832724
 30
0.0
 10
33.00200128160412
 20
-6.168424382243056
 30
0.0
  0
SPLINE
  5
409
330
1F
100
AcDbEntity
  8
외형선
  6
Continuous
 62
     1
370
    15
100
AcDbSpline
210
0.0
220
0.0
230
1.0
 70
     8
 71
     3
 72
     8
 73
     4
 74
     0
 42
0.000000001
 43
0.00000001
 40
0.0
 40
0.0
 40
0.0
 40
0.0
 40
1.0
 40
1.0
 40
1.0
 40
1.0
 10
32.78640688939403
 20
-6.273343987352756
 30
0.0
 10
32.51936637808616
 20
-6.314751431829245
 30
0.0
 10
32.24995459017289
 20
-6.339540726180952
 30
0.0
 10
31.98138663049734
 20
-6.347320200862678
 30
0.0
  0
SPLINE
  5
40A
330
1F
100
AcDbEntity
  8
외형선
  6
Continuous
 62
     1
370
    15
100
AcDbSpline
210
0.0
220
0.0
230
1.0
 70
     8
 71
     3
 72
    14
 73
    10
 74
     0
 42
0.000000001
 43
0.00000001
 40
0.0
 40
0.0
 40
0.0
 40
0.0
 40
0.0000773960648032
 40
0.0000773960648032
 40
0.0000773960648032
 40
0.000159308161792
 40
0.000159308161792
 40
0.000159308161792
 40
0.0002433787086392
 40
0.0002433787086392
 40
0.0002433787086392
 40
0.0002433787086392
 10
31.76469113347713
 20
-6.278746720851582
 30
0.0
 10
31.78533507059302
 20
-6.294188551424592
 30
0.0
 10
31.80720276150663
 20
-6.306938833636063
 30
0.0
 10
31.82971052082707
 20
-6.317065474826076
 30
0.0
 10
31.8535329638678
 20
-6.327783615601841
 30
0.0
 10
31.87824248713595
 20
-6.33564161198441
 30
0.0
 10
31.90333849297665
 20
-6.340676560430519
 30
0.0
 10
31.92909480384808
 20
-6.34584398421192
 30
0.0
 10
31.95543129442337
 20
-6.348074100029062
 30
0.0
 10
31.98189025729517
 20
-6.347305592726339
 30
0.0
  0
SPLINE
  5
40B
330
1F
100
AcDbEntity
  8
외형선
  6
Continuous
 62
     1
370
    15
100
AcDbSpline
210
0.0
220
0.0
230
1.0
 70
     8
 71
     3
 72
    10
 73
     6
 74
     0
 42
0.000000001
 43
0.00000001
 40
0.0
 40
0.0
 40
0.0
 40
0.0
 40
0.5
 40
0.5
 40
1.0
 40
1.0
 40
1.0
 40
1.0
 10
30.89727263112531
 20
-6.214175289751293
 30
0.0
 10
31.03658834265761
 20
-6.128125356895647
 30
0.0
 10
31.19386446618052
 20
-6.104485978821226
 30
0.0
 10
31.49211961053753
 20
-6.132324201579901
 30
0.0
 10
31.63789580133581
 20
-6.183902795228202
 30
0.0
 10
31.76469113347659
 20
-6.27874672085114
 30
0.0
  0
SPLINE
  5
40C
330
1F
100
AcDbEntity
  8
외형선
  6
Continuous
 62
     1
370
    15
100
AcDbSpline
210
0.0
220
0.0
230
1.0
 70
     8
 71
     3
 72
    14
 73
    10
 74
     0
 42
0.000000001
 43
0.00000001
 40
0.0
 40
0.0
 40
0.0
 40
0.0
 40
0.0000830902061258
 40
0.0000830902061258
 40
0.0000830902061258
 40
0.0001561462835063
 40
0.0001561462835063
 40
0.0001561462835063
 40
0.0002317446088393
 40
0.0002317446088393
 40
0.0002317446088393
 40
0.0002317446088393
 10
30.68094970719705
 20
-6.251915323914427
 30
0.0
 10
30.70709219234181
 20
-6.256482016489353
 30
0.0
 10
30.73352555413517
 20
-6.258150505933993
 30
0.0
 10
30.75977574920502
 20
-6.25660940403166
 30
0.0
 10
30.78286270862828
 20
-6.255254010024426
 30
0.0
 10
30.80596190949005
 20
-6.251406760170592
 30
0.0
 10
30.82862134068467
 20
-6.244721453243494
 30
0.0
 10
30.85203431509354
 20
-6.237813825304609
 30
0.0
 10
30.87520718272161
 20
-6.227804264779887
 30
0.0
 10
30.89727263112522
 20
-6.21417528975132
 30
0.0
  0
SPLINE
  5
40D
330
1F
100
AcDbEntity
  8
외형선
  6
Continuous
 62
     1
370
    15
100
AcDbSpline
210
0.0
220
0.0
230
1.0
 70
     8
 71
     3
 72
     8
 73
     4
 74
     0
 42
0.000000001
 43
0.00000001
 40
0.0
 40
0.0
 40
0.0
 40
0.0
 40
1.0
 40
1.0
 40
1.0
 40
1.0
 10
30.68145833642751
 20
-6.252004153869417
 30
0.0
 10
30.41255755609936
 20
-6.205052229420938
 30
0.0
 10
30.14244453886812
 20
-6.141222724365345
 30
0.0
 10
29.87435989406592
 20
-6.061331534841169
 30
0.0
  0
SPLINE
  5
40E
330
1F
100
AcDbEntity
  8
외형선
  6
Continuous
 62
     1
370
    15
100
AcDbSpline
210
0.0
220
0.0
230
1.0
 70
     8
 71
     3
 72
    14
 73
    10
 74
     0
 42
0.000000001
 43
0.00000001
 40
0.0
 40
0.0
 40
0.0
 40
0.0
 40
0.0000777380005401
 40
0.0000777380005401
 40
0.0000777380005401
 40
0.0001598285635507
 40
0.0001598285635507
 40
0.0001598285635507
 40
0.0002440683946728
 40
0.0002440683946728
 40
0.0002440683946728
 40
0.0002440683946728
 10
29.65686238706165
 20
-5.922153555711897
 30
0.0
 10
29.67756885435569
 20
-5.944252296081298
 30
0.0
 10
29.69950214582287
 20
-5.964078272629858
 30
0.0
 10
29.72207725683302
 20
-5.981515793024779
 30
0.0
 10
29.7459181256408
 20
-5.99993101303765
 30
0.0
 10
29.77064439926855
 20
-6.015815487857064
 30
0.0
 10
29.79575880523246
 20
-6.029032490432878
 30
0.0
 10
29.8215297885381
 20
-6.042595031120523
 30
0.0
 10
29.8478815961047
 20
-6.053440807966846
 30
0.0
 10
29.87435990226841
 20
-6.06133153728707
 30
0.0
  0
SPLINE
  5
40F
330
1F
100
AcDbEntity
  8
외형선
  6
Continuous
 62
     1
370
    15
100
AcDbSpline
210
0.0
220
0.0
230
1.0
 70
     8
 71
     3
 72
    10
 73
     6
 74
     0
 42
0.000000001
 43
0.00000001
 40
0.0
 40
0.0
 40
0.0
 40
0.0
 40
0.5
 40
0.5
 40
1.0
 40
1.0
 40
1.0
 40
1.0
 10
28.78983869126418
 20
-5.582331230782752
 30
0.0
 10
28.92915094870841
 20
-5.544449826169479
 30
0.0
 10
29.08679859362232
 20
-5.569141655923967
 30
0.0
 10
29.38529920897517
 20
-5.689992315405415
 30
0.0
 10
29.53034152368423
 20
-5.787125611476706
 30
0.0
 10
29.6568623870604
 20
-5.922153555710675
 30
0.0
  0
SPLINE
  5
410
330
1F
100
AcDbEntity
  8
외형선
  6
Continuous
 62
     1
370
    15
100
AcDbSpline
210
0.0
220
0.0
230
1.0
 70
     8
 71
     3
 72
    14
 73
    10
 74
     0
 42
0.000000001
 43
0.00000001
 40
0.0
 40
0.0
 40
0.0
 40
0.0
 40
0.0000826216054695
 40
0.0000826216054695
 40
0.0000826216054695
 40
0.0001555938486495
 40
0.0001555938486495
 40
0.0001555938486495
 40
0.0002311245824471
 40
0.0002311245824471
 40
0.0002311245824471
 40
0.0002311245824471
 10
28.57393046327543
 20
-5.549149700214282
 30
0.0
 10
28.59994003431713
 20
-5.561751031742541
 30
0.0
 10
28.62624255950638
 20
-5.571761312331513
 30
0.0
 10
28.65236626715864
 20
-5.578700064894231
 30
0.0
 10
28.67544513911038
 20
-5.58483007461687
 30
0.0
 10
28.69853923361712
 20
-5.588603760670675
 30
0.0
 10
28.72119285760863
 20
-5.589511040725252
 30
0.0
 10
28.74460554452248
 20
-5.59044872133074
 30
0.0
 10
28.76777867948917
 20
-5.588329728316917
 30
0.0
 10
28.7898386912682
 20
-5.582331230788351
 30
0.0
  0
SPLINE
  5
411
330
1F
100
AcDbEntity
  8
외형선
  6
Continuous
 62
     1
370
    15
100
AcDbSpline
210
0.0
220
0.0
230
1.0
 70
     8
 71
     3
 72
     8
 73
     4
 74
     0
 42
0.000000001
 43
0.00000001
 40
0.0
 40
0.0
 40
0.0
 40
0.0
 40
1.0
 40
1.0
 40
1.0
 40
1.0
 10
28.57392909969623
 20
-5.549149039578078
 30
0.0
 10
28.30469350554928
 20
-5.418707507882426
 30
0.0
 10
28.03543401310774
 20
-5.273343706343513
 30
0.0
 10
27.76935794499468
 20
-5.114963200058571
 30
0.0
  0
SPLINE
  5
412
330
1F
100
AcDbEntity
  8
외형선
  6
Continuous
 62
     1
370
    15
100
AcDbSpline
210
0.0
220
0.0
230
1.0
 70
     8
 71
     3
 72
    14
 73
    10
 74
     0
 42
0.000000001
 43
0.00000001
 40
0.0
 40
0.0
 40
0.0
 40
0.0
 40
0.0000774535624717
 40
0.0000774535624717
 40
0.0000774535624717
 40
0.0001596009968579
 40
0.0001596009968579
 40
0.0001596009968579
 40
0.0002439075868753
 40
0.0002439075868753
 40
0.0002439075868753
 40
0.0002439075868753
 10
27.55300672355608
 20
-4.920515021561282
 30
0.0
 10
27.57361096738235
 20
-4.946751231262982
 30
0.0
 10
27.59542711885092
 20
-4.971407802919226
 30
0.0
 10
27.6178678752944
 20
-4.994198018217861
 30
0.0
 10
27.64166995778539
 20
-5.018370758824568
 30
0.0
 10
27.66633803180151
 20
-5.040621429410767
 30
0.0
 10
27.69140020618636
 20
-5.060643119007135
 30
0.0
 10
27.717120109294
 20
-5.081190255443185
 30
0.0
 10
27.74342535315597
 20
-5.099528793347379
 30
0.0
 10
27.76986162829801
 20
-5.115262997395614
 30
0.0
  0
SPLINE
  5
413
330
1F
100
AcDbEntity
  8
외형선
  6
Continuous
 62
     1
370
    15
100
AcDbSpline
210
0.0
220
0.0
230
1.0
 70
     8
 71
     3
 72
    10
 73
     6
 74
     0
 42
0.000000001
 43
0.00000001
 40
0.0
 40
0.0
 40
0.0
 40
0.0
 40
0.5
 40
0.5
 40
1.0
 40
1.0
 40
1.0
 40
1.0
 10
26.68691633033439
 20
-4.345072799849606
 30
0.0
 10
26.82594911980081
 20
-4.359552078680418
 30
0.0
 10
26.98335372314797
 20
-4.429348853782828
 30
0.0
 10
27.28173095413537
 20
-4.628491608269424
 30
0.0
 10
27.42693733515859
 20
-4.759985815109482
 30
0.0
 10
27.5530067235556
 20
-4.920515021561012
 30
0.0
  0
SPLINE
  5
414
330
1F
100
AcDbEntity
  8
외형선
  6
Continuous
 62
     1
370
    15
100
AcDbSpline
210
0.0
220
0.0
230
1.0
 70
     8
 71
     3
 72
    14
 73
    10
 74
     0
 42
0.000000001
 43
0.00000001
 40
0.0
 40
0.0
 40
0.0
 40
0.0
 40
0.0000828533876865
 40
0.0000828533876865
 40
0.0000828533876865
 40
0.0001558412638074
 40
0.0001558412638074
 40
0.0001558412638074
 40
0.000231386972449
 40
0.000231386972449
 40
0.000231386972449
 40
0.000231386972449
 10
26.47077544440343
 20
-4.24438863867493
 30
0.0
 10
26.49684528677244
 20
-4.263732321419307
 30
0.0
 10
26.52321244356125
 20
-4.28105094124984
 30
0.0
 10
26.54940422211778
 20
-4.295737846912625
 30
0.0
 10
26.5724836640443
 20
-4.308679525752534
 30
0.0
 10
26.59558140191865
 20
-4.319664166379222
 30
0.0
 10
26.61824193288448
 20
-4.328070416721398
 30
0.0
 10
26.64166123834952
 20
-4.336758145392724
 30
0.0
 10
26.66484459266622
 20
-4.34277418493146
 30
0.0
 10
26.68691633033434
 20
-4.345072799849599
 30
0.0
  0
SPLINE
  5
415
330
1F
100
AcDbEntity
  8
외형선
  6
Continuous
 62
     1
370
    15
100
AcDbSpline
210
0.0
220
0.0
230
1.0
 70
     8
 71
     3
 72
     8
 73
     4
 74
     0
 42
0.000000001
 43
0.00000001
 40
0.0
 40
0.0
 40
0.0
 40
0.0
 40
1.0
 40
1.0
 40
1.0
 40
1.0
 10
26.47077544428224
 20
-4.244388638586162
 30
0.0
 10
26.19988313802206
 20
-4.043388005126377
 30
0.0
 10
25.93233780433293
 20
-3.831714702478922
 30
0.0
 10
25.66368464884357
 20
-3.610010123100944
 30
0.0
  0
SPLINE
  5
416
330
1F
100
AcDbEntity
  8
외형선
  6
Continuous
 62
     1
370
    15
100
AcDbSpline
210
0.0
220
0.0
230
1.0
 70
     8
 71
     3
 72
    14
 73
    10
 74
     0
 42
0.000000001
 43
0.00000001
 40
0.0
 40
0.0
 40
0.0
 40
0.0
 40
0.0000775366881741
 40
0.0000775366881741
 40
0.0000775366881741
 40
0.0001597617016645
 40
0.0001597617016645
 40
0.0001597617016645
 40
0.0002441440457806
 40
0.0002441440457806
 40
0.0002441440457806
 40
0.0002441440457806
 10
25.44663063230621
 20
-3.38158198352249
 30
0.0
 10
25.46731166950611
 20
-3.409141935202643
 30
0.0
 10
25.48921042120663
 20
-3.435971768274338
 30
0.0
 10
25.51173831752577
 20
-3.461642125325734
 30
0.0
 10
25.53562972450696
 20
-3.488866191833234
 30
0.0
 10
25.56039933033123
 20
-3.514981499213472
 30
0.0
 10
25.58554255375021
 20
-3.539565253869834
 30
0.0
 10
25.61134484711465
 20
-3.564793413325471
 30
0.0
 10
25.63771318074845
 20
-3.588578306867187
 30
0.0
 10
25.66419141902925
 20
-3.610428322835598
 30
0.0
  0
SPLINE
  5
417
330
1F
100
AcDbEntity
  8
외형선
  6
Continuous
 62
     1
370
    15
100
AcDbSpline
210
0.0
220
0.0
230
1.0
 70
     8
 71
     3
 72
    10
 73
     6
 74
     0
 42
0.000000001
 43
0.00000001
 40
0.0
 40
0.0
 40
0.0
 40
0.0
 40
0.5
 40
0.5
 40
1.0
 40
1.0
 40
1.0
 40
1.0
 10
24.57908086395978
 20
-2.631510551776326
 30
0.0
 10
24.7181585717004
 20
-2.697038356902584
 30
0.0
 10
24.87567776838415
 20
-2.804925271256155
 30
0.0
 10
25.17453881238697
 20
-3.061414272385167
 30
0.0
 10
25.32012576790961
 20
-3.212999145225932
 30
0.0
 10
25.4466306323057
 20
-3.381581983522234
 30
0.0
  0
SPLINE
  5
418
330
1F
100
AcDbEntity
  8
외형선
  6
Continuous
 62
     1
370
    15
100
AcDbSpline
210
0.0
220
0.0
230
1.0
 70
     8
 71
     3
 72
    14
 73
    10
 74
     0
 42
0.000000001
 43
0.00000001
 40
0.0
 40
0.0
 40
0.0
 40
0.0
 40
0.0000830869303063
 40
0.0000830869303063
 40
0.0000830869303063
 40
0.0001561265071296
 40
0.0001561265071296
 40
0.0001561265071296
 40
0.000231719408637
 40
0.000231719408637
 40
0.000231719408637
 40
0.000231719408637
 10
24.36285802869552
 20
-2.473734288399807
 30
0.0
 10
24.38896058035801
 20
-2.497791571603851
 30
0.0
 10
24.41536488949687
 20
-2.520612177567481
 30
0.0
 10
24.44159785398297
 20
-2.541532569232738
 30
0.0
 10
24.46466520506653
 20
-2.559928432178533
 30
0.0
 10
24.48775409583834
 20
-2.576977670176052
 30
0.0
 10
24.51041043831617
 20
-2.592018115484723
 30
0.0
 10
24.53382348065223
 20
-2.607560897074886
 30
0.0
 10
24.55700515327463
 20
-2.621109367496241
 30
0.0
 10
24.57908086396023
 20
-2.631510551779047
 30
0.0
  0
SPLINE
  5
419
330
1F
100
AcDbEntity
  8
외형선
  6
Continuous
 62
     1
370
    15
100
AcDbSpline
210
0.0
220
0.0
230
1.0
 70
     8
 71
     3
 72
     8
 73
     4
 74
     0
 42
0.000000001
 43
0.00000001
 40
0.0
 40
0.0
 40
0.0
 40
0.0
 40
1.0
 40
1.0
 40
1.0
 40
1.0
 10
24.36285802882523
 20
-2.473734288521473
 30
0.0
 10
24.09326075706293
 20
-2.225261342210596
 30
0.0
 10
23.82700374574413
 20
-1.971145205722787
 30
0.0
 10
23.55667642307899
 20
-1.71110424002872
 30
0.0
  0
SPLINE
  5
41A
330
1F
100
AcDbEntity
  8
외형선
  6
Continuous
 62
     1
370
    15
100
AcDbSpline
210
0.0
220
0.0
230
1.0
 70
     8
 71
     3
 72
    14
 73
    10
 74
     0
 42
0.000000001
 43
0.00000001
 40
0.0
 40
0.0
 40
0.0
 40
0.0
 40
0.0000770274230941
 40
0.0000770274230941
 40
0.0000770274230941
 40
0.0001589830361792
 40
0.0001589830361792
 40
0.0001589830361792
 40
0.0002431111891845
 40
0.0002431111891845
 40
0.0002431111891845
 40
0.0002431111891845
 10
23.34025319574465
 20
-1.474796720228407
 30
0.0
 10
23.36080234669948
 20
-1.500484269195108
 30
0.0
 10
23.38256841721305
 20
-1.526374287671746
 30
0.0
 10
23.40496746294589
 20
-1.551944084319596
 30
0.0
 10
23.42880030204504
 20
-1.579150638410108
 30
0.0
 10
23.45352084449332
 20
-1.606190141146125
 30
0.0
 10
23.4786214166842
 20
-1.632552244640844
 30
0.0
 10
23.50438665480175
 20
-1.659612419550622
 30
0.0
 10
23.53072638291846
 20
-1.686142060583573
 30
0.0
 10
23.55717986638635
 20
-1.711588522505177
 30
0.0
  0
SPLINE
  5
41B
330
1F
100
AcDbEntity
  8
외형선
  6
Continuous
 62
     1
370
    15
100
AcDbSpline
210
0.0
220
0.0
230
1.0
 70
     8
 71
     3
 72
    10
 73
     6
 74
     0
 42
0.000000001
 43
0.00000001
 40
0.0
 40
0.0
 40
0.0
 40
0.0
 40
0.5
 40
0.5
 40
1.0
 40
1.0
 40
1.0
 40
1.0
 10
22.47552285803645
 20
-0.6343230433561571
 30
0.0
 10
22.6139656407996
 20
-0.7434283660701295
 30
0.0
 10
22.77085274285298
 20
-0.8772186982283996
 30
0.0
 10
23.06882109770624
 20
-1.16230962739797
 30
0.0
 10
23.21407450962552
 20
-1.317066545129957
 30
0.0
 10
23.34025319574411
 20
-1.474796720228308
 30
0.0
  0
SPLINE
  5
41C
330
1F
100
AcDbEntity
  8
외형선
  6
Continuous
 62
     1
370
    15
100
AcDbSpline
210
0.0
220
0.0
230
1.0
 70
     8
 71
     3
 72
    14
 73
    10
 74
     0
 42
0.000000001
 43
0.00000001
 40
0.0
 40
0.0
 40
0.0
 40
0.0
 40
0.0000832058996124
 40
0.0000832058996124
 40
0.0000832058996124
 40
0.000156254481429
 40
0.000156254481429
 40
0.000156254481429
 40
0.00023185982547
 40
0.00023185982547
 40
0.00023185982547
 40
0.00023185982547
 10
22.25963058622211
 20
-0.4365275737993057
 30
0.0
 10
22.28570225479026
 20
-0.4626918160882552
 30
0.0
 10
22.3120795719543
 20
-0.4885461157440316
 30
0.0
 10
22.3382904034479
 20
-0.5134428142112837
 30
0.0
 10
22.3613082312761
 20
-0.5353065967071116
 30
0.0
 10
22.38435128075193
 20
-0.556577653628433
 30
0.0
 10
22.40696608534833
 20
-0.5766238603474276
 30
0.0
 10
22.43033699758918
 20
-0.5973402957247158
 30
0.0
 10
22.45348102919678
 20
-0.6169521064192223
 30
0.0
 10
22.47552285803637
 20
-0.6343230433561429
 30
0.0
  0
SPLINE
  5
41D
330
1F
100
AcDbEntity
  8
외형선
  6
Continuous
 62
     1
370
    15
100
AcDbSpline
210
0.0
220
0.0
230
1.0
 70
     8
 71
     3
 72
    14
 73
    10
 74
     0
 42
0.000000001
 43
0.00000001
 40
0.0
 40
0.0
 40
0.0
 40
0.0
 40
0.0000773417724628
 40
0.0000773417724628
 40
0.0000773417724628
 40
0.0001593047083674
 40
0.0001593047083674
 40
0.0001593047083674
 40
0.0002434282543285
 40
0.0002434282543285
 40
0.0002434282543285
 40
0.0002434282543285
 10
21.23658088342694
 20
0.5896066725498672
 30
0.0
 10
21.25723207065653
 20
0.5683046252143926
 30
0.0
 10
21.27910521965891
 20
0.5458970757316495
 30
0.0
 10
21.30161512454866
 20
0.5229458138895682
 30
0.0
 10
21.32547123299898
 20
0.4986219531599021
 30
0.0
 10
21.35021301500723
 20
0.4735143264957218
 30
0.0
 10
21.3753372748225
 20
0.4481575155494726
 30
0.0
 10
21.40112295671961
 20
0.422133160372721
 30
0.0
 10
21.42748483308867
 20
0.3956715412206835
 30
0.0
 10
21.45396441648154
 20
0.3693199590737111
 30
0.0
  0
SPLINE
  5
41E
330
1F
100
AcDbEntity
  8
외형선
  6
Continuous
 62
     1
370
    15
100
AcDbSpline
210
0.0
220
0.0
230
1.0
 70
     8
 71
     3
 72
    10
 73
     6
 74
     0
 42
0.000000001
 43
0.00000001
 40
0.0
 40
0.0
 40
0.0
 40
0.0
 40
0.5
 40
0.5
 40
1.0
 40
1.0
 40
1.0
 40
1.0
 10
20.3688540349534
 20
1.436139851113308
 30
0.0
 10
20.50775353424708
 20
1.294306724821991
 30
0.0
 10
20.6649086949417
 20
1.147731892470245
 30
0.0
 10
20.96381295547782
 20
0.8626863510790672
 30
0.0
 10
21.10973960589613
 20
0.7204455859741588
 30
0.0
 10
21.23658088342644
 20
0.5896066725498317
 30
0.0
  0
SPLINE
  5
41F
330
1F
100
AcDbEntity
  8
외형선
  6
Continuous
 62
     1
370
    15
100
AcDbSpline
210
0.0
220
0.0
230
1.0
 70
     8
 71
     3
 72
    10
 73
     6
 74
     0
 42
0.000000001
 43
0.00000001
 40
0.0
 40
0.0
 40
0.0
 40
0.0
 40
0.5
 40
0.5
 40
1.0
 40
1.0
 40
1.0
 40
1.0
 10
18.26267607681558
 20
3.349063764712603
 30
0.0
 10
18.40167735322062
 20
3.191376070573788
 30
0.0
 10
18.55857124246991
 20
3.049106964367659
 30
0.0
 10
18.85656246311806
 20
2.796397154683866
 30
0.0
 10
19.00215001431014
 20
2.682783667641544
 30
0.0
 10
19.12878859853044
 20
2.593790777884982
 30
0.0
  0
SPLINE
  5
420
330
1F
100
AcDbEntity
  8
외형선
  6
Continuous
 62
     1
370
    15
100
AcDbSpline
210
0.0
220
0.0
230
1.0
 70
     8
 71
     3
 72
    14
 73
    10
 74
     0
 42
0.000000001
 43
0.00000001
 40
0.0
 40
0.0
 40
0.0
 40
0.0
 40
0.0000825863271163
 40
0.0000825863271163
 40
0.0000825863271163
 40
0.00015557414617
 40
0.00015557414617
 40
0.00015557414617
 40
0.000231116554271
 40
0.000231116554271
 40
0.000231116554271
 40
0.000231116554271
 10
18.04703946995607
 20
3.558209949247192
 30
0.0
 10
18.07301693817726
 20
3.536732187793588
 30
0.0
 10
18.09928274921134
 20
3.513703196106966
 30
0.0
 10
18.1253657587526
 20
3.48952979567662
 30
0.0
 10
18.14842345447795
 20
3.468160217488566
 30
0.0
 10
18.17149291596406
 20
3.445752975855711
 30
0.0
 10
18.19411996290433
 20
3.422683293658614
 30
0.0
 10
18.21750398030975
 20
3.398841832974049
 30
0.0
 10
18.24064566670269
 20
3.374055798321812
 30
0.0
 10
18.26267607681553
 20
3.34906376471266
 30
0.0
  0
SPLINE
  5
421
330
1F
100
AcDbEntity
  8
외형선
  6
Continuous
 62
     1
370
    15
100
AcDbSpline
210
0.0
220
0.0
230
1.0
 70
     8
 71
     3
 72
     8
 73
     4
 74
     0
 42
0.000000001
 43
0.00000001
 40
0.0
 40
0.0
 40
0.0
 40
0.0
 40
1.0
 40
1.0
 40
1.0
 40
1.0
 10
18.04704041190405
 20
3.558209170456116
 30
0.0
 10
17.77922859298925
 20
3.779631787041459
 30
0.0
 10
17.50997050854776
 20
3.991952517570765
 30
0.0
 10
17.24247648669889
 20
4.192651987949453
 30
0.0
  0
SPLINE
  5
422
330
1F
100
AcDbEntity
  8
외형선
  6
Continuous
 62
     1
370
    15
100
AcDbSpline
210
0.0
220
0.0
230
1.0
 70
     8
 71
     3
 72
    14
 73
    10
 74
     0
 42
0.000000001
 43
0.00000001
 40
0.0
 40
0.0
 40
0.0
 40
0.0
 40
0.0000775382967483
 40
0.0000775382967483
 40
0.0000775382967483
 40
0.0001594812728163
 40
0.0001594812728163
 40
0.0001594812728163
 40
0.0002435785256555
 40
0.0002435785256555
 40
0.0002435785256555
 40
0.0002435785256555
 10
17.0258586846886
 20
4.312080265580035
 30
0.0
 10
17.04651357009969
 20
4.305904315367498
 30
0.0
 10
17.06839344264504
 20
4.297250010566095
 30
0.0
 10
17.09091505998675
 20
4.286575108600352
 30
0.0
 10
17.11471761760805
 20
4.275293060544647
 30
0.0
 10
17.13940661619865
 20
4.261675645838188
 30
0.0
 10
17.16448404473408
 20
4.246137208134946
 30
0.0
 10
17.19021970908186
 20
4.230190915369938
 30
0.0
 10
17.21653705550051
 20
4.212115478072596
 30
0.0
 10
17.24298006286694
 20
4.192274145071031
 30
0.0
  0
SPLINE
  5
423
330
1F
100
AcDbEntity
  8
외형선
  6
Continuous
 62
     1
370
    15
100
AcDbSpline
210
0.0
220
0.0
230
1.0
 70
     8
 71
     3
 72
    10
 73
     6
 74
     0
 42
0.000000001
 43
0.00000001
 40
0.0
 40
0.0
 40
0.0
 40
0.0
 40
0.5
 40
0.5
 40
1.0
 40
1.0
 40
1.0
 40
1.0
 10
16.15872498623783
 20
4.894453141284528
 30
0.0
 10
16.29808852447463
 20
4.737540609903028
 30
0.0
 10
16.4557116019052
 20
4.615465025125792
 30
0.0
 10
16.75414728245405
 20
4.423086295246931
 30
0.0
 10
16.89928796402785
 20
4.349925765740877
 30
0.0
 10
17.02585868468806
 20
4.312080265579772
 30
0.0
  0
SPLINE
  5
424
330
1F
100
AcDbEntity
  8
외형선
  6
Continuous
 62
     1
370
    15
100
AcDbSpline
210
0.0
220
0.0
230
1.0
 70
     8
 71
     3
 72
    14
 73
    10
 74
     0
 42
0.000000001
 43
0.00000001
 40
0.0
 40
0.0
 40
0.0
 40
0.0
 40
0.0000829377392772
 40
0.0000829377392772
 40
0.0000829377392772
 40
0.000155953834336
 40
0.000155953834336
 40
0.000155953834336
 40
0.0002315199252157
 40
0.0002315199252157
 40
0.0002315199252157
 40
0.0002315199252157
 10
15.94245129597499
 20
5.075488490922814
 30
0.0
 10
15.96855957924828
 20
5.0598511046987
 30
0.0
 10
15.9949611383217
 20
5.041940384179852
 30
0.0
 10
16.02118249617753
 20
5.021970031525334
 30
0.0
 10
16.04427360716751
 20
5.004383694761642
 30
0.0
 10
16.06737926250112
 20
4.985082505790657
 30
0.0
 10
16.09004548763842
 20
4.964240748395027
 30
0.0
 10
16.11346814666777
 20
4.942703444583109
 30
0.0
 10
16.13665182654927
 20
4.919305806523439
 30
0.0
 10
16.15872498623773
 20
4.894453141284585
 30
0.0
  0
SPLINE
  5
425
330
1F
100
AcDbEntity
  8
외형선
  6
Continuous
 62
     1
370
    15
100
AcDbSpline
210
0.0
220
0.0
230
1.0
 70
     8
 71
     3
 72
     8
 73
     4
 74
     0
 42
0.000000001
 43
0.00000001
 40
0.0
 40
0.0
 40
0.0
 40
0.0
 40
1.0
 40
1.0
 40
1.0
 40
1.0
 10
15.94245148554495
 20
5.075488377378192
 30
0.0
 10
15.67260129554859
 20
5.237113397597489
 30
0.0
 10
15.40246950944011
 20
5.385079454555473
 30
0.0
 10
15.13529541024053
 20
5.517748499994844
 30
0.0
  0
SPLINE
  5
426
330
1F
100
AcDbEntity
  8
외형선
  6
Continuous
 62
     1
370
    15
100
AcDbSpline
210
0.0
220
0.0
230
1.0
 70
     8
 71
     3
 72
    14
 73
    10
 74
     0
 42
0.000000001
 43
0.00000001
 40
0.0
 40
0.0
 40
0.0
 40
0.0
 40
0.0000778903512788
 40
0.0000778903512788
 40
0.0000778903512788
 40
0.0001601756228243
 40
0.0001601756228243
 40
0.0001601756228243
 40
0.0002446068003834
 40
0.0002446068003834
 40
0.0002446068003834
 40
0.0002446068003834
 10
14.91822086881928
 20
5.564546043061369
 30
0.0
 10
14.93894725313271
 20
5.56742448591272
 30
0.0
 10
14.9608842256892
 20
5.567477503945141
 30
0.0
 10
14.98345896324711
 20
5.565059612298383
 30
0.0
 10
15.00730944147933
 20
5.562505081068919
 30
0.0
 10
15.03204459120795
 20
5.557177700233964
 30
0.0
 10
15.05716972408262
 20
5.549362356619141
 30
0.0
 10
15.08294910618988
 20
5.541343504326831
 30
0.0
 10
15.10931062313268
 20
5.530653320576476
 30
0.0
 10
15.1358021350041
 20
5.517496862195201
 30
0.0
  0
LINE
  5
427
330
1F
100
AcDbEntity
  8
외형선
  6
Continuous
 62
     1
370
    15
100
AcDbLine
 10
15.41076560103894
 20
5.366812149683638
 30
0.0
 11
15.56423824810981
 21
5.450256168842322
 31
0.0
  0
SPLINE
  5
428
330
1F
100
AcDbEntity
  8
외형선
  6
Continuous
 62
     1
370
    15
100
AcDbSpline
210
0.0
220
0.0
230
1.0
 70
     8
 71
     3
 72
    14
 73
    10
 74
     0
 42
0.000000001
 43
0.00000001
 40
0.0
 40
0.0
 40
0.0
 40
0.0
 40
0.000077130012124
 40
0.000077130012124
 40
0.000077130012124
 40
0.0001590028628162
 40
0.0001590028628162
 40
0.0001590028628162
 40
0.0002430429222846
 40
0.0002430429222846
 40
0.0002430429222846
 40
0.0002430429222846
 10
15.78117224797503
 20
5.50106838073114
 30
0.0
 10
15.76058784080665
 20
5.503463193555183
 30
0.0
 10
15.73878466660461
 20
5.503090281539499
 30
0.0
 10
15.71634641545853
 20
5.500279148494299
 30
0.0
 10
15.69252744707532
 20
5.497295034951384
 30
0.0
 10
15.66782221274896
 20
5.491544494139787
 30
0.0
 10
15.64273557302655
 20
5.483322412970053
 30
0.0
 10
15.61698576152913
 20
5.474882978969339
 30
0.0
 10
15.59066035411071
 20
5.463784054839748
 30
0.0
 10
15.564219385377
 20
5.450246572767681
 30
0.0
  0
SPLINE
  5
429
330
1F
100
AcDbEntity
  8
외형선
  6
Continuous
 62
     1
370
    15
100
AcDbSpline
210
0.0
220
0.0
230
1.0
 70
     8
 71
     3
 72
    10
 73
     6
 74
     0
 42
0.000000001
 43
0.00000001
 40
0.0
 40
0.0
 40
0.0
 40
0.0
 40
0.4999999999999998
 40
0.4999999999999998
 40
1.0
 40
1.0
 40
1.0
 40
1.0
 10
16.64779453223379
 20
5.861390380954773
 30
0.0
 10
16.50908384766057
 20
5.721006625541846
 30
0.0
 10
16.35194681103875
 20
5.629384008636094
 30
0.0
 10
16.05337436215433
 20
5.512962741739016
 30
0.0
 10
15.90770730857153
 20
5.486347151048277
 30
0.0
 10
15.78117224797493
 20
5.501068380731069
 30
0.0
  0
SPLINE
  5
42A
330
1F
100
AcDbEntity
  8
외형선
  6
Continuous
 62
     1
370
    15
100
AcDbSpline
210
0.0
220
0.0
230
1.0
 70
     8
 71
     3
 72
    14
 73
    10
 74
     0
 42
0.000000001
 43
0.00000001
 40
0.0
 40
0.0
 40
0.0
 40
0.0
 40
0.0000837488933482
 40
0.0000837488933482
 40
0.0000837488933482
 40
0.0001568516194433
 40
0.0001568516194433
 40
0.0001568516194433
 40
0.0002324908142074
 40
0.0002324908142074
 40
0.0002324908142074
 40
0.0002324908142074
 10
16.86411944791525
 20
5.998689142820949
 30
0.0
 10
16.8378650446326
 20
5.990034719771486
 30
0.0
 10
16.81132464946844
 20
5.978619775640545
 30
0.0
 10
16.78497386561284
 20
5.964460912095723
 30
0.0
 10
16.76196542030774
 20
5.952097961557349
 30
0.0
 10
16.73893746720195
 20
5.937562908548471
 30
0.0
 10
16.7163293187577
 20
5.920821226914309
 30
0.0
 10
16.69297191840998
 20
5.903524712722205
 30
0.0
 10
16.66983727304401
 20
5.883698992177105
 30
0.0
 10
16.64779453223413
 20
5.8613903809551
 30
0.0
  0
SPLINE
  5
42B
330
1F
100
AcDbEntity
  8
외형선
  6
Continuous
 62
     1
370
    15
100
AcDbSpline
210
0.0
220
0.0
230
1.0
 70
     8
 71
     3
 72
     8
 73
     4
 74
     0
 42
0.000000001
 43
0.00000001
 40
0.0
 40
0.0
 40
0.0
 40
0.0
 40
1.0
 40
1.0
 40
1.0
 40
1.0
 10
17.67125222750441
 20
6.214233088737131
 30
0.0
 10
17.40106579882287
 20
6.158849804642698
 30
0.0
 10
17.13094231322647
 20
6.0866438340826
 30
0.0
 10
16.86411946672088
 20
5.998689149019952
 30
0.0
  0
SPLINE
  5
42C
330
1F
100
AcDbEntity
  8
외형선
  6
Continuous
 62
     1
370
    15
100
AcDbSpline
210
0.0
220
0.0
230
1.0
 70
     8
 71
     3
 72
    14
 73
    10
 74
     0
 42
0.000000001
 43
0.00000001
 40
0.0
 40
0.0
 40
0.0
 40
0.0
 40
0.0000774078181156
 40
0.0000774078181156
 40
0.0000774078181156
 40
0.0001594054633182
 40
0.0001594054633182
 40
0.0001594054633182
 40
0.00024356194113
 40
0.00024356194113
 40
0.00024356194113
 40
0.00024356194113
 10
17.88825108851598
 20
6.186919276020006
 30
0.0
 10
17.86758370784993
 20
6.198083769128785
 30
0.0
 10
17.84569300957869
 20
6.206442742285737
 30
0.0
 10
17.82316443357508
 20
6.212163827898308
 30
0.0
 10
17.79929872648733
 20
6.218224475203818
 30
0.0
 10
17.77454674358598
 20
6.221370640834322
 30
0.0
 10
17.74941105576258
 20
6.221736294685726
 30
0.0
 10
17.72361446483547
 20
6.222111562826071
 30
0.0
 10
17.69724054298876
 20
6.219562248114165
 30
0.0
 10
17.67074723684037
 20
6.214129555346388
 30
0.0
  0
SPLINE
  5
42D
330
1F
100
AcDbEntity
  8
외형선
  6
Continuous
 62
     1
370
    15
100
AcDbSpline
210
0.0
220
0.0
230
1.0
 70
     8
 71
     3
 72
    10
 73
     6
 74
     0
 42
0.000000001
 43
0.00000001
 40
0.0
 40
0.0
 40
0.0
 40
0.0
 40
0.5
 40
0.5
 40
1.0
 40
1.0
 40
1.0
 40
1.0
 10
18.75579331248418
 20
6.27515014439735
 30
0.0
 10
18.61672584737329
 20
6.166753825862584
 30
0.0
 10
18.45977883207089
 20
6.117609064322209
 30
0.0
 10
18.16103535113495
 20
6.093650807243363
 30
0.0
 10
18.01512631998957
 20
6.118381435141585
 30
0.0
 10
17.88825108851607
 20
6.186919276019906
 30
0.0
  0
SPLINE
  5
42E
330
1F
100
AcDbEntity
  8
외형선
  6
Continuous
 62
     1
370
    15
100
AcDbSpline
210
0.0
220
0.0
230
1.0
 70
     8
 71
     3
 72
    14
 73
    10
 74
     0
 42
0.000000001
 43
0.00000001
 40
0.0
 40
0.0
 40
0.0
 40
0.0
 40
0.000083155873603
 40
0.000083155873603
 40
0.000083155873603
 40
0.0001562494772865
 40
0.0001562494772865
 40
0.0001562494772865
 40
0.0002318792123164
 40
0.0002318792123164
 40
0.0002318792123164
 40
0.0002318792123164
 10
18.97194742998103
 20
6.349985403293132
 30
0.0
 10
18.94581432622224
 20
6.349929368836462
 30
0.0
 10
18.91939308435895
 20
6.346942493008526
 30
0.0
 10
18.89315749209446
 20
6.340825019761751
 30
0.0
 10
18.87008962213431
 20
6.335446178837599
 30
0.0
 10
18.84701166627339
 20
6.327611182886364
 30
0.0
 10
18.824373660838
 20
6.317080391365493
 30
0.0
 10
18.80098493094713
 20
6.306200376378256
 30
0.0
 10
18.77783731792212
 20
6.292332373420648
 30
0.0
 10
18.75579331248452
 20
6.275150144397577
 30
0.0
  0
SPLINE
  5
42F
330
1F
100
AcDbEntity
  8
외형선
  6
Continuous
 62
     1
370
    15
100
AcDbSpline
210
0.0
220
0.0
230
1.0
 70
     8
 71
     3
 72
     8
 73
     4
 74
     0
 42
0.000000001
 43
0.00000001
 40
0.0
 40
0.0
 40
0.0
 40
0.0
 40
1.0
 40
1.0
 40
1.0
 40
1.0
 10
19.7773667614008
 20
6.300951838902363
 30
0.0
 10
19.50893622633813
 20
6.334169700714205
 30
0.0
 10
19.23938967833449
 20
6.350558851410177
 30
0.0
 10
18.97194743173617
 20
6.349985403296876
 30
0.0
  0
SPLINE
  5
430
330
1F
100
AcDbEntity
  8
외형선
  6
Continuous
 62
     1
370
    15
100
AcDbSpline
210
0.0
220
0.0
230
1.0
 70
     8
 71
     3
 72
    14
 73
    10
 74
     0
 42
0.000000001
 43
0.00000001
 40
0.0
 40
0.0
 40
0.0
 40
0.0
 40
0.0000770930279773
 40
0.0000770930279773
 40
0.0000770930279773
 40
0.0001589506381587
 40
0.0001589506381587
 40
0.0001589506381587
 40
0.0002429778054309
 40
0.0002429778054309
 40
0.0002429778054309
 40
0.0002429778054309
 10
19.99360192342472
 20
6.198588957101307
 30
0.0
 10
19.97305969237295
 20
6.217283499534715
 30
0.0
 10
19.95129618405577
 20
6.233462584665374
 30
0.0
 10
19.92889271165548
 20
6.247106839668745
 30
0.0
 10
19.90510374367814
 20
6.261594894892972
 30
0.0
 10
19.88042268876641
 20
6.273331177890866
 30
0.0
 10
19.85535317018808
 20
6.282271783000723
 30
0.0
 10
19.82962013653963
 20
6.29144901914951
 30
0.0
 10
19.80330391611973
 20
6.297744213097942
 30
0.0
 10
19.77686444937158
 20
6.301013979510237
 30
0.0
  0
SPLINE
  5
431
330
1F
100
AcDbEntity
  8
외형선
  6
Continuous
 62
     1
370
    15
100
AcDbSpline
210
0.0
220
0.0
230
1.0
 70
     8
 71
     3
 72
    10
 73
     6
 74
     0
 42
0.000000001
 43
0.00000001
 40
0.0
 40
0.0
 40
0.0
 40
0.0
 40
0.4999999999999999
 40
0.4999999999999999
 40
1.0
 40
1.0
 40
1.0
 40
1.0
 10
20.85885745968899
 20
6.0044861133901
 30
0.0
 10
20.71986170116498
 20
5.939885142209092
 30
0.0
 10
20.56270833330194
 20
5.938445112010625
 30
0.0
 10
20.26528205530539
 20
6.010082106298383
 30
0.0
 10
20.11997978317151
 20
6.083578262511714
 30
0.0
 10
19.99360192342477
 20
6.198588957101236
 30
0.0
  0
SPLINE
  5
432
330
1F
100
AcDbEntity
  8
외형선
  6
Continuous
 62
     1
370
    15
100
AcDbSpline
210
0.0
220
0.0
230
1.0
 70
     8
 71
     3
 72
    14
 73
    10
 74
     0
 42
0.000000001
 43
0.00000001
 40
0.0
 40
0.0
 40
0.0
 40
0.0
 40
0.0000827925012577
 40
0.0000827925012577
 40
0.0000827925012577
 40
0.0001557857620513
 40
0.0001557857620513
 40
0.0001557857620513
 40
0.000231332152489
 40
0.000231332152489
 40
0.000231332152489
 40
0.000231332152489
 10
21.07483522765142
 20
6.009525793787716
 30
0.0
 10
21.04878082683385
 20
6.017919882935487
 30
0.0
 10
21.02243577860689
 20
6.023523712666335
 30
0.0
 10
20.99627255295124
 20
6.025941710002356
 30
0.0
 10
20.97319960864519
 20
6.028074104478498
 30
0.0
 10
20.95011366060448
 20
6.027742887018383
 30
0.0
 10
20.92746891812257
 20
6.024520113314252
 30
0.0
 10
20.90406724394017
 20
6.021189613961112
 30
0.0
 10
20.88090645303481
 20
6.014733810145883
 30
0.0
 10
20.85885745968936
 20
6.004486113390242
 30
0.0
  0
SPLINE
  5
433
330
1F
100
AcDbEntity
  8
외형선
  6
Continuous
 62
     1
370
    15
100
AcDbSpline
210
0.0
220
0.0
230
1.0
 70
     8
 71
     3
 72
     8
 73
     4
 74
     0
 42
0.000000001
 43
0.00000001
 40
0.0
 40
0.0
 40
0.0
 40
0.0
 40
1.0
 40
1.0
 40
1.0
 40
1.0
 10
21.88077900195853
 20
5.702373550612122
 30
0.0
 10
21.61316660748527
 20
5.820186610339632
 30
0.0
 10
21.34327207638863
 20
5.923061972984413
 30
0.0
 10
21.0743278780918
 20
6.009689230541311
 30
0.0
  0
SPLINE
  5
434
330
1F
100
AcDbEntity
  8
외형선
  6
Continuous
 62
     1
370
    15
100
AcDbSpline
210
0.0
220
0.0
230
1.0
 70
     8
 71
     3
 72
    14
 73
    10
 74
     0
 42
0.000000001
 43
0.00000001
 40
0.0
 40
0.0
 40
0.0
 40
0.0
 40
0.0000778530641429
 40
0.0000778530641429
 40
0.0000778530641429
 40
0.0001599575290303
 40
0.0001599575290303
 40
0.0001599575290303
 40
0.0002442073705367
 40
0.0002442073705367
 40
0.0002442073705367
 40
0.0002442073705367
 10
22.09829943140845
 20
5.535241921050676
 30
0.0
 10
22.07757055043556
 20
5.559649422248042
 30
0.0
 10
22.05561407379811
 20
5.582067817605249
 30
0.0
 10
22.03301519796002
 20
5.602297699024724
 30
0.0
 10
22.00918029285959
 20
5.623634039260373
 30
0.0
 10
21.98446150395916
 20
5.642689248436411
 30
0.0
 10
21.9593543501188
 20
5.659249126454056
 30
0.0
 10
21.93359215504757
 20
5.676241048778606
 30
0.0
 10
21.90724930570537
 20
5.690720325502759
 30
0.0
 10
21.88077900052685
 20
5.70237355124243
 30
0.0
  0
SPLINE
  5
435
330
1F
100
AcDbEntity
  8
외형선
  6
Continuous
 62
     1
370
    15
100
AcDbSpline
210
0.0
220
0.0
230
1.0
 70
     8
 71
     3
 72
    10
 73
     6
 74
     0
 42
0.000000001
 43
0.00000001
 40
0.0
 40
0.0
 40
0.0
 40
0.0
 40
0.4999999999999998
 40
0.4999999999999998
 40
1.0
 40
1.0
 40
1.0
 40
1.0
 10
22.96613628056445
 20
5.079110277614986
 30
0.0
 10
22.82668219354082
 20
5.065371980279131
 30
0.0
 10
22.66889726192148
 20
5.11178355792186
 30
0.0
 10
22.37005548737021
 20
5.271426096629646
 30
0.0
 10
22.22485091009618
 20
5.386232171242255
 30
0.0
 10
22.09829943141228
 20
5.535241921046192
 30
0.0
  0
SPLINE
  5
436
330
1F
100
AcDbEntity
  8
외형선
  6
Continuous
 62
     1
370
    15
100
AcDbSpline
210
0.0
220
0.0
230
1.0
 70
     8
 71
     3
 72
    14
 73
    10
 74
     0
 42
0.000000001
 43
0.00000001
 40
0.0
 40
0.0
 40
0.0
 40
0.0
 40
0.0000829145819587
 40
0.0000829145819587
 40
0.0000829145819587
 40
0.0001559281636592
 40
0.0001559281636592
 40
0.0001559281636592
 40
0.0002314932362198
 40
0.0002314932362198
 40
0.0002314932362198
 40
0.0002314932362198
 10
23.18242105888431
 20
5.013704973106328
 30
0.0
 10
23.15631977160689
 20
5.029668904242178
 30
0.0
 10
23.12992367457406
 20
5.04326632645992
 30
0.0
 10
23.10370613558429
 20
5.053949324757176
 30
0.0
 10
23.08061277554424
 20
5.06335929745073
 30
0.0
 10
23.05750358595013
 20
5.070570755390498
 30
0.0
 10
23.03483297015852
 20
5.075014708526495
 30
0.0
 10
23.01140531426944
 20
5.079607058633548
 30
0.0
 10
22.98821553848162
 20
5.081285412218
 30
0.0
 10
22.96613628056474
 20
5.079110277615022
 30
0.0
  0
SPLINE
  5
437
330
1F
100
AcDbEntity
  8
외형선
  6
Continuous
 62
     1
370
    15
100
AcDbSpline
210
0.0
220
0.0
230
1.0
 70
     8
 71
     3
 72
     8
 73
     4
 74
     0
 42
0.000000001
 43
0.00000001
 40
0.0
 40
0.0
 40
0.0
 40
0.0
 40
1.0
 40
1.0
 40
1.0
 40
1.0
 10
23.98909840914797
 20
4.47965391708859
 30
0.0
 10
23.72260203582026
 20
4.669646956830753
 30
0.0
 10
23.45263244609089
 20
4.84843971505041
 30
0.0
 10
23.1824210588926
 20
5.013704973101219
 30
0.0
  0
SPLINE
  5
438
330
1F
100
AcDbEntity
  8
외형선
  6
Continuous
 62
     1
370
    15
100
AcDbSpline
210
0.0
220
0.0
230
1.0
 70
     8
 71
     3
 72
    14
 73
    10
 74
     0
 42
0.000000001
 43
0.00000001
 40
0.0
 40
0.0
 40
0.0
 40
0.0
 40
0.0000774960109368
 40
0.0000774960109368
 40
0.0000774960109368
 40
0.0001598077124528
 40
0.0001598077124528
 40
0.0001598077124528
 40
0.0002442799016994
 40
0.0002442799016994
 40
0.0002442799016994
 40
0.0002442799016994
 10
24.20584986886172
 20
4.266251025439984
 30
0.0
 10
24.18521718957181
 20
4.293479580614949
 30
0.0
 10
24.16337073057497
 20
4.319505411867417
 30
0.0
 10
24.14089904487014
 20
4.343971828209951
 30
0.0
 10
24.11702974126375
 20
4.369959923963456
 30
0.0
 10
24.09228437020613
 20
4.394375800151621
 30
0.0
 10
24.06716878400455
 20
4.416862756312645
 30
0.0
 10
24.0413944817345
 20
4.439939486458406
 30
0.0
 10
24.01506262033059
 20
4.461144968547855
 30
0.0
 10
23.98859272320329
 20
4.480014419003942
 30
0.0
  0
SPLINE
  5
439
330
1F
100
AcDbEntity
  8
외형선
  6
Continuous
 62
     1
370
    15
100
AcDbSpline
210
0.0
220
0.0
230
1.0
 70
     8
 71
     3
 72
    10
 73
     6
 74
     0
 42
0.000000001
 43
0.00000001
 40
0.0
 40
0.0
 40
0.0
 40
0.0
 40
0.5
 40
0.5
 40
1.0
 40
1.0
 40
1.0
 40
1.0
 10
25.0711087268769
 20
3.601964038965533
 30
0.0
 10
24.93231093696557
 20
3.640213924636565
 30
0.0
 10
24.77505225292849
 20
3.72868713948852
 30
0.0
 10
24.47694269418014
 20
3.957284504982048
 30
0.0
 10
24.33187543020709
 20
4.099937484560207
 30
0.0
 10
24.20584986886184
 20
4.266251025439906
 30
0.0
  0
SPLINE
  5
43A
330
1F
100
AcDbEntity
  8
외형선
  6
Continuous
 62
     1
370
    15
100
AcDbSpline
210
0.0
220
0.0
230
1.0
 70
     8
 71
     3
 72
    14
 73
    10
 74
     0
 42
0.000000001
 43
0.00000001
 40
0.0
 40
0.0
 40
0.0
 40
0.0
 40
0.0000824378100892
 40
0.0000824378100892
 40
0.0000824378100892
 40
0.0001553457867585
 40
0.0001553457867585
 40
0.0001553457867585
 40
0.0002308262083566
 40
0.0002308262083566
 40
0.0002308262083566
 40
0.0002308262083566
 10
25.28665896591957
 20
3.473808141376604
 30
0.0
 10
25.26072655494668
 20
3.495474668850071
 30
0.0
 10
25.23449758727859
 20
3.515468291801461
 30
0.0
 10
25.20844224146181
 20
3.533152863568666
 30
0.0
 10
25.18539311165715
 20
3.548797023238179
 30
0.0
 10
25.16232477388482
 20
3.562739246380196
 30
0.0
 10
25.13969536372231
 20
3.574328684474188
 30
0.0
 10
25.11630303020465
 20
3.586308846538933
 30
0.0
 10
25.09314763038765
 20
3.595890559408374
 30
0.0
 10
25.07110872687725
 20
3.60196403896544
 30
0.0
  0
SPLINE
  5
43B
330
1F
100
AcDbEntity
  8
외형선
  6
Continuous
 62
     1
370
    15
100
AcDbSpline
210
0.0
220
0.0
230
1.0
 70
     8
 71
     3
 72
     8
 73
     4
 74
     0
 42
0.000000001
 43
0.00000001
 40
0.0
 40
0.0
 40
0.0
 40
0.0
 40
1.0
 40
1.0
 40
1.0
 40
1.0
 10
26.09156781552815
 20
2.772096503715793
 30
0.0
 10
25.82304001491326
 20
3.014170492542028
 30
0.0
 10
25.55676687726465
 20
3.24813300113697
 30
0.0
 10
25.28665896760812
 20
3.473808139965818
 30
0.0
  0
SPLINE
  5
43C
330
1F
100
AcDbEntity
  8
외형선
  6
Continuous
 62
     1
370
    15
100
AcDbSpline
210
0.0
220
0.0
230
1.0
 70
     8
 71
     3
 72
    14
 73
    10
 74
     0
 42
0.000000001
 43
0.00000001
 40
0.0
 40
0.0
 40
0.0
 40
0.0
 40
0.000077378626905
 40
0.000077378626905
 40
0.000077378626905
 40
0.0001594761366277
 40
0.0001594761366277
 40
0.0001594761366277
 40
0.0002437349360168
 40
0.0002437349360168
 40
0.0002437349360168
 40
0.0002437349360168
 10
26.30883323774941
 20
2.53619898557444
 30
0.0
 10
26.28819437732031
 20
2.563296467743171
 30
0.0
 10
26.26633838063931
 20
2.590092014524234
 30
0.0
 10
26.24385206137545
 20
2.616105658945954
 30
0.0
 10
26.21999324606393
 20
2.643707096537994
 30
0.0
 10
26.19525422877414
 20
2.670626171970642
 30
0.0
 10
26.17013984766954
 20
2.696393538111471
 30
0.0
 10
26.14436500861244
 20
2.722838534404118
 30
0.0
 10
26.11802182919221
 20
2.748248587062597
 30
0.0
 10
26.09156781552028
 20
2.772096503722913
 30
0.0
  0
SPLINE
  5
43D
330
1F
100
AcDbEntity
  8
외형선
  6
Continuous
 62
     1
370
    15
100
AcDbSpline
210
0.0
220
0.0
230
1.0
 70
     8
 71
     3
 72
    10
 73
     6
 74
     0
 42
0.000000001
 43
0.00000001
 40
0.0
 40
0.0
 40
0.0
 40
0.0
 40
0.5
 40
0.5
 40
1.0
 40
1.0
 40
1.0
 40
1.0
 10
27.17609139693966
 20
1.732704050620225
 30
0.0
 10
27.03708695043369
 20
1.819616643596849
 30
0.0
 10
26.87965699564505
 20
1.941213152998654
 30
0.0
 10
26.58088165919822
 20
2.214854053850961
 30
0.0
 10
26.43529745990935
 20
2.37015968235134
 30
0.0
 10
26.30883323774947
 20
2.536198985574408
 30
0.0
  0
SPLINE
  5
43E
330
1F
100
AcDbEntity
  8
외형선
  6
Continuous
 62
     1
370
    15
100
AcDbSpline
210
0.0
220
0.0
230
1.0
 70
     8
 71
     3
 72
    14
 73
    10
 74
     0
 42
0.000000001
 43
0.00000001
 40
0.0
 40
0.0
 40
0.0
 40
0.0
 40
0.0000832572665079
 40
0.0000832572665079
 40
0.0000832572665079
 40
0.0001563193097535
 40
0.0001563193097535
 40
0.0001563193097535
 40
0.0002319315841865
 40
0.0002319315841865
 40
0.0002319315841865
 40
0.0002319315841865
 10
27.39243856482284
 20
1.554019093944764
 30
0.0
 10
27.36629520053755
 20
1.579409881470622
 30
0.0
 10
27.33984867476721
 20
1.603980072040639
 30
0.0
 10
27.31357272168544
 20
1.627063236596034
 30
0.0
 10
27.29050755408602
 20
1.647325757903627
 30
0.0
 10
27.26742008594494
 20
1.666577351560737
 30
0.0
 10
27.2447635856849
 20
1.684161613275212
 30
0.0
 10
27.22135159202356
 20
1.702332231820589
 30
0.0
 10
27.19816950671188
 20
1.718899702510773
 30
0.0
 10
27.17609139694001
 20
1.732704050620026
 30
0.0
  0
SPLINE
  5
43F
330
1F
100
AcDbEntity
  8
외형선
  6
Continuous
 62
     1
370
    15
100
AcDbSpline
210
0.0
220
0.0
230
1.0
 70
     8
 71
     3
 72
     8
 73
     4
 74
     0
 42
0.000000001
 43
0.00000001
 40
0.0
 40
0.0
 40
0.0
 40
0.0
 40
1.0
 40
1.0
 40
1.0
 40
1.0
 10
28.19924104563367
 20
0.7592036792438082
 30
0.0
 10
27.92853117162612
 20
1.02750382031832
 30
0.0
 10
27.66176661922976
 20
1.292444059945756
 30
0.0
 10
27.39243855843754
 20
1.554019100146211
 30
0.0
  0
SPLINE
  5
440
330
1F
100
AcDbEntity
  8
외형선
  6
Continuous
 62
     1
370
    15
100
AcDbSpline
210
0.0
220
0.0
230
1.0
 70
     8
 71
     3
 72
    14
 73
    10
 74
     0
 42
0.000000001
 43
0.00000001
 40
0.0
 40
0.0
 40
0.0
 40
0.0
 40
0.0000773191756061
 40
0.0000773191756061
 40
0.0000773191756061
 40
0.000159364880685
 40
0.000159364880685
 40
0.000159364880685
 40
0.0002435732354891
 40
0.0002435732354891
 40
0.0002435732354891
 40
0.0002435732354891
 10
28.41667496803939
 20
0.5265736578924178
 30
0.0
 10
28.39603182164833
 20
0.5506078273408379
 30
0.0
 10
28.37416855695814
 20
0.5752707340696377
 30
0.0
 10
28.35167132693195
 20
0.6000132718232125
 30
0.0
 10
28.32779770747738
 20
0.6262695678197518
 30
0.0
 10
28.30303941018321
 20
0.6528030540362311
 30
0.0
 10
28.2779015016053
 20
0.6790856015606908
 30
0.0
 10
28.25210172475454
 20
0.7060601551158259
 30
0.0
 10
28.22572871919281
 20
0.7329517865899904
 30
0.0
 10
28.19924104739016
 20
0.7592036775029785
 30
0.0
  0
SPLINE
  5
441
330
1F
100
AcDbEntity
  8
외형선
  6
Continuous
 62
     1
370
    15
100
AcDbSpline
210
0.0
220
0.0
230
1.0
 70
     8
 71
     3
 72
    10
 73
     6
 74
     0
 42
0.000000001
 43
0.00000001
 40
0.0
 40
0.0
 40
0.0
 40
0.0
 40
0.5
 40
0.5
 40
1.0
 40
1.0
 40
1.0
 40
1.0
 10
29.28341588685563
 20
-0.3282987643131987
 30
0.0
 10
29.14468675330255
 20
-0.2023733201935967
 30
0.0
 10
28.98748014985427
 20
-0.0607998732813426
 30
0.0
 10
28.68887584933904
 20
0.2281934701514574
 30
0.0
 10
28.543245922817
 20
0.3792110554701411
 30
0.0
 10
28.41667496803948
 20
0.5265736578924036
 30
0.0
  0
SPLINE
  5
442
330
1F
100
AcDbEntity
  8
외형선
  6
Continuous
 62
     1
370
    15
100
AcDbSpline
210
0.0
220
0.0
230
1.0
 70
     8
 71
     3
 72
    10
 73
     6
 74
     0
 42
0.000000001
 43
0.00000001
 40
0.0
 40
0.0
 40
0.0
 40
0.0
 40
0.5
 40
0.5
 40
1.0
 40
1.0
 40
1.0
 40
1.0
 10
31.38654248085942
 20
-2.350795217128886
 30
0.0
 10
31.24775292544632
 20
-2.1996804114418
 30
0.0
 10
31.09096196267184
 20
-2.053065804866047
 30
0.0
 10
30.79252669279026
 20
-1.779561599468695
 30
0.0
 10
30.6468006494757
 20
-1.648909527715982
 30
0.0
 10
30.52019396978494
 20
-1.536070909905344
 30
0.0
  0
SPLINE
  5
443
330
1F
100
AcDbEntity
  8
외형선
  6
Continuous
 62
     1
370
    15
100
AcDbSpline
210
0.0
220
0.0
230
1.0
 70
     8
 71
     3
 72
    14
 73
    10
 74
     0
 42
0.000000001
 43
0.00000001
 40
0.0
 40
0.0
 40
0.0
 40
0.0
 40
0.0000833153722638
 40
0.0000833153722638
 40
0.0000833153722638
 40
0.0001564280557901
 40
0.0001564280557901
 40
0.0001564280557901
 40
0.000232073269123
 40
0.000232073269123
 40
0.000232073269123
 40
0.000232073269123
 10
31.60277516077504
 20
-2.567004678897315
 30
0.0
 10
31.57660355558091
 20
-2.543045144115264
 30
0.0
 10
31.55014416530218
 20
-2.517983666450941
 30
0.0
 10
31.52387135806795
 20
-2.492316831558997
 30
0.0
 10
31.50080878102724
 20
-2.469786184117726
 30
0.0
 10
31.47773667889976
 20
-2.446639325313629
 30
0.0
 10
31.45510405475079
 20
-2.423337986946268
 30
0.0
 10
31.43172219271046
 20
-2.399265273350461
 30
0.0
 10
31.40858128555528
 20
-2.374791184831731
 30
0.0
 10
31.38654248085976
 20
-2.350795217129241
 30
0.0
  0
SPLINE
  5
444
330
1F
100
AcDbEntity
  8
외형선
  6
Continuous
 62
     1
370
    15
100
AcDbSpline
210
0.0
220
0.0
230
1.0
 70
     8
 71
     3
 72
    14
 73
    10
 74
     0
 42
0.000000001
 43
0.00000001
 40
0.0
 40
0.0
 40
0.0
 40
0.0
 40
0.000077533889074
 40
0.000077533889074
 40
0.000077533889074
 40
0.0001595467110041
 40
0.0001595467110041
 40
0.0001595467110041
 40
0.0002437143151144
 40
0.0002437143151144
 40
0.0002437143151144
 40
0.0002437143151144
 10
32.62674319751818
 20
-3.434588393888357
 30
0.0
 10
32.60605611075027
 20
-3.423768466238722
 30
0.0
 10
32.58414391266086
 20
-3.410753272908987
 30
0.0
 10
32.56159179677405
 20
-3.396052232285984
 30
0.0
 10
32.53773539119015
 20
-3.380500964752282
 30
0.0
 10
32.5129928253357
 20
-3.3629541125138
 30
0.0
 10
32.48786440451846
 20
-3.343880527812256
 30
0.0
 10
32.4620766961401
 20
-3.324306514642433
 30
0.0
 10
32.43570981666181
 20
-3.302994256282072
 30
0.0
 10
32.409220432881
 20
-3.280377231020362
 30
0.0
  0
SPLINE
  5
445
330
1F
100
AcDbEntity
  8
외형선
  6
Continuous
 62
     1
370
    15
100
AcDbSpline
210
0.0
220
0.0
230
1.0
 70
     8
 71
     3
 72
    10
 73
     6
 74
     0
 42
0.000000001
 43
0.00000001
 40
0.0
 40
0.0
 40
0.0
 40
0.0
 40
0.5
 40
0.5
 40
1.0
 40
1.0
 40
1.0
 40
1.0
 10
33.49449169254008
 20
-4.120353763448601
 30
0.0
 10
33.35513113605222
 20
-3.960646491039841
 30
0.0
 10
33.19776978173803
 20
-3.825721061137496
 30
0.0
 10
32.89943100416481
 20
-3.597211552570779
 30
0.0
 10
32.75361973120397
 20
-3.500948386008797
 30
0.0
 10
32.62674319751828
 20
-3.434588393888322
 30
0.0
  0
SPLINE
  5
446
330
1F
100
AcDbEntity
  8
외형선
  6
Continuous
 62
     1
370
    15
100
AcDbSpline
210
0.0
220
0.0
230
1.0
 70
     8
 71
     3
 72
    14
 73
    10
 74
     0
 42
0.000000001
 43
0.00000001
 40
0.0
 40
0.0
 40
0.0
 40
0.0
 40
0.0000829717421466
 40
0.0000829717421466
 40
0.0000829717421466
 40
0.000156015378072
 40
0.000156015378072
 40
0.000156015378072
 40
0.0002316037227236
 40
0.0002316037227236
 40
0.0002316037227236
 40
0.0002316037227236
 10
33.71068245744901
 20
-4.319451639921833
 30
0.0
 10
33.6845767033343
 20
-4.300360495390218
 30
0.0
 10
33.65818040086728
 20
-4.279352395780843
 30
0.0
 10
33.63196697459409
 20
-4.25675078780345
 30
0.0
 10
33.60888350913373
 20
-4.236847878826256
 30
0.0
 10
33.58578775087503
 20
-4.215576363298349
 30
0.0
 10
33.56313221830129
 20
-4.193221239337485
 30
0.0
 10
33.53972237152877
 20
-4.170121803259273
 30
0.0
 10
33.51655297697516
 20
-4.145636007232322
 30
0.0
 10
33.49449169254035
 20
-4.12035376344897
 30
0.0
  0
SPLINE
  5
447
330
1F
100
AcDbEntity
  8
외형선
  6
Continuous
 62
     1
370
    15
100
AcDbSpline
210
0.0
220
0.0
230
1.0
 70
     8
 71
     3
 72
     8
 73
     4
 74
     0
 42
0.000000001
 43
0.00000001
 40
0.0
 40
0.0
 40
0.0
 40
0.0
 40
1.0
 40
1.0
 40
1.0
 40
1.0
 10
34.51601467742941
 20
-4.872150533842944
 30
0.0
 10
34.24853740408868
 20
-4.700643465965096
 30
0.0
 10
33.97902316416453
 20
-4.515689003440737
 30
0.0
 10
33.71069119782625
 20
-4.319458031757615
 30
0.0
  0
SPLINE
  5
448
330
1F
100
AcDbEntity
  8
외형선
  6
Continuous
 62
     1
370
    15
100
AcDbSpline
210
0.0
220
0.0
230
1.0
 70
     8
 71
     3
 72
    14
 73
    10
 74
     0
 42
0.000000001
 43
0.00000001
 40
0.0
 40
0.0
 40
0.0
 40
0.0
 40
0.0000773908863454
 40
0.0000773908863454
 40
0.0000773908863454
 40
0.0001593559399926
 40
0.0001593559399926
 40
0.0001593559399926
 40
0.0002434816197803
 40
0.0002434816197803
 40
0.0002434816197803
 40
0.0002434816197803
 10
34.73290672236803
 20
-4.95913927065629
 30
0.0
 10
34.71230896870118
 20
-4.95715442279199
 30
0.0
 10
34.69048749252565
 20
-4.952514033009602
 30
0.0
 10
34.66802446890924
 20
-4.945619822554693
 30
0.0
 10
34.64423247920453
 20
-4.938317734155301
 30
0.0
 10
34.61955082845236
 20
-4.928437332461992
 30
0.0
 10
34.59447950795044
 20
-4.91633986131384
 30
0.0
 10
34.56874825810058
 20
-4.903923959541133
 30
0.0
 10
34.54243356328092
 20
-4.889090453063313
 30
0.0
 10
34.51599238974731
 20
-4.87213624289988
 30
0.0
  0
SPLINE
  5
449
330
1F
100
AcDbEntity
  8
외형선
  6
Continuous
 62
     1
370
    15
100
AcDbSpline
210
0.0
220
0.0
230
1.0
 70
     8
 71
     3
 72
    10
 73
     6
 74
     0
 42
0.000000001
 43
0.00000001
 40
0.0
 40
0.0
 40
0.0
 40
0.0
 40
0.5
 40
0.5
 40
1.0
 40
1.0
 40
1.0
 40
1.0
 10
35.59784518748631
 20
-5.436944874188238
 30
0.0
 10
35.45886604611414
 20
-5.286494062416319
 30
0.0
 10
35.30158796001734
 20
-5.178409270276229
 30
0.0
 10
35.00374238233769
 20
-5.022057323878829
 30
0.0
 10
34.85904840223165
 20
-4.971294578847771
 30
0.0
 10
34.73290672236811
 20
-4.959139270656219
 30
0.0
  0
SPLINE
  5
44A
330
1F
100
AcDbEntity
  8
외형선
  6
Continuous
 62
     1
370
    15
100
AcDbSpline
210
0.0
220
0.0
230
1.0
 70
     8
 71
     3
 72
    14
 73
    10
 74
     0
 42
0.000000001
 43
0.00000001
 40
0.0
 40
0.0
 40
0.0
 40
0.0
 40
0.0000826141340682
 40
0.0000826141340682
 40
0.0000826141340682
 40
0.0001555642151511
 40
0.0001555642151511
 40
0.0001555642151511
 40
0.0002310760197407
 40
0.0002310760197407
 40
0.0002310760197407
 40
0.0002310760197407
 10
35.81370373268223
 20
-5.59779868047536
 30
0.0
 10
35.78769650988997
 20
-5.585562258152774
 30
0.0
 10
35.76139637927561
 20
-5.570810535736764
 30
0.0
 10
35.73527498887063
 20
-5.553658477219453
 30
0.0
 10
35.7122031325824
 20
-5.538508830779331
 30
0.0
 10
35.68911592478186
 20
-5.521384773795201
 30
0.0
 10
35.66646959469011
 20
-5.502362850378485
 30
0.0
 10
35.64306332250554
 20
-5.482702608954733
 30
0.0
 10
35.61989681068013
 20
-5.460816691049611
 30
0.0
 10
35.59784518748667
 20
-5.436944874188579
 30
0.0
  0
SPLINE
  5
44B
330
1F
100
AcDbEntity
  8
외형선
  6
Continuous
 62
     1
370
    15
100
AcDbSpline
210
0.0
220
0.0
230
1.0
 70
     8
 71
     3
 72
     8
 73
     4
 74
     0
 42
0.000000001
 43
0.00000001
 40
0.0
 40
0.0
 40
0.0
 40
0.0
 40
1.0
 40
1.0
 40
1.0
 40
1.0
 10
36.61992989539772
 20
-5.932116968850702
 30
0.0
 10
36.35315701216905
 20
-5.836506854894064
 30
0.0
 10
36.08317032197294
 20
-5.724601592385848
 30
0.0
 10
35.81320297890251
 20
-5.597563058062984
 30
0.0
  0
SPLINE
  5
44C
330
1F
100
AcDbEntity
  8
외형선
  6
Continuous
 62
     1
370
    15
100
AcDbSpline
210
0.0
220
0.0
230
1.0
 70
     8
 71
     3
 72
    14
 73
    10
 74
     0
 42
0.000000001
 43
0.00000001
 40
0.0
 40
0.0
 40
0.0
 40
0.0
 40
0.0000777611987397
 40
0.0000777611987397
 40
0.0000777611987397
 40
0.0001600952667048
 40
0.0001600952667048
 40
0.0001600952667048
 40
0.0002445796503277
 40
0.0002445796503277
 40
0.0002445796503277
 40
0.0002445796503277
 10
36.83693428124566
 20
-5.942706730332698
 30
0.0
 10
36.81623245120144
 20
-5.949756353966573
 30
0.0
 10
36.79431584698295
 20
-5.953952116592599
 30
0.0
 10
36.77177485852752
 20
-5.955553344238136
 30
0.0
 10
36.74790659854979
 20
-5.957248856296228
 30
0.0
 10
36.72317541440347
 20
-5.956046677998297
 30
0.0
 10
36.69805307757315
 20
-5.952184895359248
 30
0.0
 10
36.67227551444898
 20
-5.948222391933622
 30
0.0
 10
36.64591494908359
 20
-5.941431764677584
 30
0.0
 10
36.61942329449711
 20
-5.931935387402883
 30
0.0
  0
SPLINE
  5
44D
330
1F
100
AcDbEntity
  8
외형선
  6
Continuous
 62
     1
370
    15
100
AcDbSpline
210
0.0
220
0.0
230
1.0
 70
     8
 71
     3
 72
    10
 73
     6
 74
     0
 42
0.000000001
 43
0.00000001
 40
0.0
 40
0.0
 40
0.0
 40
0.0
 40
0.5
 40
0.5
 40
1.0
 40
1.0
 40
1.0
 40
1.0
 10
37.70461948953124
 20
-6.163264542834507
 30
0.0
 10
37.56532764666632
 20
-6.037801881085652
 30
0.0
 10
37.40764945519942
 20
-5.967674470947894
 30
0.0
 10
37.10876953608636
 20
-5.899233457406264
 30
0.0
 10
36.96330769709559
 20
-5.899672611263351
 30
0.0
 10
36.8369342812457
 20
-5.942706730332614
 30
0.0
  0
SPLINE
  5
44E
330
1F
100
AcDbEntity
  8
외형선
  6
Continuous
 62
     1
370
    15
100
AcDbSpline
210
0.0
220
0.0
230
1.0
 70
     8
 71
     3
 72
    14
 73
    10
 74
     0
 42
0.000000001
 43
0.00000001
 40
0.0
 40
0.0
 40
0.0
 40
0.0
 40
0.0000829750602977
 40
0.0000829750602977
 40
0.0000829750602977
 40
0.000155992230152
 40
0.000155992230152
 40
0.000155992230152
 40
0.0002315624337211
 40
0.0002315624337211
 40
0.0002315624337211
 40
0.0002315624337211
 10
37.92093187546648
 20
-6.268923341758746
 30
0.0
 10
37.89482427069639
 20
-6.264774592345513
 30
0.0
 10
37.86841881608925
 20
-6.257760863409866
 30
0.0
 10
37.84218890617532
 20
-6.247777231846267
 30
0.0
 10
37.81910032131236
 20
-6.238989251813048
 30
0.0
 10
37.79599346108968
 20
-6.227841196070581
 30
0.0
 10
37.77332295058676
 20
-6.214189083552365
 30
0.0
 10
37.74989505302547
 20
-6.200080874849671
 30
0.0
 10
37.72670248887215
 20
-6.18315509650743
 30
0.0
 10
37.70461948953152
 20
-6.163264542834791
 30
0.0
  0
SPLINE
  5
44F
330
1F
100
AcDbEntity
  8
외형선
  6
Continuous
 62
     1
370
    15
100
AcDbSpline
210
0.0
220
0.0
230
1.0
 70
     8
 71
     3
 72
     8
 73
     4
 74
     0
 42
0.000000001
 43
0.00000001
 40
0.0
 40
0.0
 40
0.0
 40
0.0
 40
1.0
 40
1.0
 40
1.0
 40
1.0
 10
38.72741692130498
 20
-6.346608782677019
 30
0.0
 10
38.45891311752766
 20
-6.337808218407058
 30
0.0
 10
38.19162000030195
 20
-6.311938287246444
 30
0.0
 10
37.92093187830409
 20
-6.268923342209656
 30
0.0
  0
SPLINE
  5
450
330
1F
100
AcDbEntity
  8
외형선
  6
Continuous
 62
     1
370
    15
100
AcDbSpline
210
0.0
220
0.0
230
1.0
 70
     8
 71
     3
 72
    14
 73
    10
 74
     0
 42
0.000000001
 43
0.00000001
 40
0.0
 40
0.0
 40
0.0
 40
0.0
 40
0.0000773594054991
 40
0.0000773594054991
 40
0.0000773594054991
 40
0.000159536098487
 40
0.000159536098487
 40
0.000159536098487
 40
0.0002438761953797
 40
0.0002438761953797
 40
0.0002438761953797
 40
0.0002438761953797
 10
38.9447233424863
 20
-6.278854485924508
 30
0.0
 10
38.92409657531979
 20
-6.294206953370856
 30
0.0
 10
38.90225350252355
 20
-6.306861768282569
 30
0.0
 10
38.87978139030565
 20
-6.31689407307709
 30
0.0
 10
38.85590882387987
 20
-6.327551587612798
 30
0.0
 10
38.83115553039087
 20
-6.335328441236922
 30
0.0
 10
38.80602778638976
 20
-6.340273369436143
 30
0.0
 10
38.78023911079376
 20
-6.34534836340175
 30
0.0
 10
38.75388298119934
 20
-6.347476242501368
 30
0.0
 10
38.72741692005792
 20
-6.346608782636177
 30
0.0
  0
LINE
  5
451
330
1F
100
AcDbEntity
  8
외형선
  6
Continuous
 62
     1
370
    15
100
AcDbLine
 10
39.01499158922829
 20
-6.244425351421039
 30
0.0
 11
38.94472268009184
 21
-6.278854484359424
 31
0.0
  0
SPLINE
  5
452
330
1F
100
AcDbEntity
  8
외형선
  6
Continuous
 62
     1
370
    15
100
AcDbSpline
210
0.0
220
0.0
230
1.0
 70
     8
 71
     3
 72
     8
 73
     4
 74
     0
 42
0.000000001
 43
0.00000001
 40
0.0
 40
0.0
 40
0.0
 40
0.0
 40
1.0
 40
1.0
 40
1.0
 40
1.0
 10
40.08593034475524
 20
-1.140204273725511
 30
0.0
 10
40.00681679743624
 20
-1.063910241093178
 30
0.0
 10
39.9272693968573
 20
-0.9862591104265048
 30
0.0
 10
39.84733316246667
 20
-0.9072571234935252
 30
0.0
  0
SPLINE
  5
453
330
1F
100
AcDbEntity
  8
외형선
  6
Continuous
 62
     1
370
    15
100
AcDbSpline
210
0.0
220
0.0
230
1.0
 70
    24
 71
     3
 72
    18
 73
    14
 74
     0
 42
0.000000001
 43
0.00000001
 40
0.0
 40
0.0
 40
0.0
 40
0.0
 40
0.2499999999999994
 40
0.2499999999999994
 40
0.4999999999999993
 40
0.4999999999999993
 40
0.6249999999999994
 40
0.6249999999999994
 40
0.7499999999999997
 40
0.7499999999999997
 40
0.8749999999999998
 40
0.8749999999999998
 40
1.0
 40
1.0
 40
1.0
 40
1.0
 10
40.08593034475527
 20
-1.140204273725526
 30
0.0
 10
40.08266105875299
 20
-1.142493452428876
 30
0.0
 10
40.05835887544005
 20
-1.159510024379567
 30
0.0
 10
39.9505300463332
 20
-1.235012583356496
 30
0.0
 10
39.86792346357602
 20
-1.292854335308827
 30
0.0
 10
39.67403025924057
 20
-1.428619818592114
 30
0.0
 10
39.59942101729827
 20
-1.480861772221369
 30
0.0
 10
39.42671890702894
 20
-1.601789091696683
 30
0.0
 10
39.32761156366462
 20
-1.671184800612497
 30
0.0
 10
39.11398043933644
 20
-1.820770924263303
 30
0.0
 10
38.99733439693354
 20
-1.902447362454832
 30
0.0
 10
38.75031859148825
 20
-2.075409691484576
 30
0.0
 10
38.62329676886392
 20
-2.164351329203288
 30
0.0
 10
38.49307988288302
 20
-2.255530174369293
 30
0.0
  0
SPLINE
  5
454
330
1F
100
AcDbEntity
  8
외형선
  6
Continuous
 62
     1
370
    15
100
AcDbSpline
210
0.0
220
0.0
230
1.0
 70
     8
 71
     3
 72
     8
 73
     4
 74
     0
 42
0.000000001
 43
0.00000001
 40
0.0
 40
0.0
 40
0.0
 40
0.0
 40
1.0
 40
1.0
 40
1.0
 40
1.0
 10
40.35399982913333
 20
-3.206617734408485
 30
0.0
 10
39.72971630794382
 20
-2.938711671296512
 30
0.0
 10
39.10938591673613
 20
-2.621975756200679
 30
0.0
 10
38.49307988288305
 20
-2.255530174369137
 30
0.0
  0
LINE
  5
455
330
1F
100
AcDbEntity
  8
외형선
  6
Continuous
 62
     1
370
    15
100
AcDbLine
 10
40.354
 20
-5.674337347348536
 30
0.0
 11
40.354
 21
-3.206617819766204
 31
0.0
  0
SPLINE
  5
456
330
1F
100
AcDbEntity
  8
외형선
  6
Continuous
 62
     1
370
    15
100
AcDbSpline
210
0.0
220
0.0
230
1.0
 70
     8
 71
     3
 72
     8
 73
     4
 74
     0
 42
0.000000001
 43
0.00000001
 40
0.0
 40
0.0
 40
0.0
 40
0.0
 40
1.0
 40
1.0
 40
1.0
 40
1.0
 10
39.84833836313257
 20
-6.05947518152541
 30
0.0
 10
40.01205998683777
 20
-5.944951701299938
 30
0.0
 10
40.17976406558691
 20
-5.816850403932956
 30
0.0
 10
40.35399982913333
 20
-5.674337079841105
 30
0.0
  0
SPLINE
  5
457
330
1F
100
AcDbEntity
  8
외형선
  6
Continuous
 62
     1
370
    15
100
AcDbSpline
210
0.0
220
0.0
230
1.0
 70
     8
 71
     3
 72
    14
 73
    10
 74
     0
 42
0.000000001
 43
0.00000001
 40
0.0
 40
0.0
 40
0.0
 40
0.0
 40
0.0000773473858978
 40
0.0000773473858978
 40
0.0000773473858978
 40
0.0001594188433251
 40
0.0001594188433251
 40
0.0001594188433251
 40
0.0002147000697039
 40
0.0002147000697039
 40
0.0002147000697039
 40
0.0002147000697039
 10
39.6581469845581
 20
-5.930369890487579
 30
0.0
 10
39.67879618986927
 20
-5.952306344352531
 30
0.0
 10
39.70066515529038
 20
-5.971976336535799
 30
0.0
 10
39.72316733185761
 20
-5.989267411993704
 30
0.0
 10
39.74704500909144
 20
-6.007615446797142
 30
0.0
 10
39.77180643553842
 20
-6.023418322830859
 30
0.0
 10
39.79694652047996
 20
-6.036545161753035
 30
0.0
 10
39.81388615375101
 20
-6.045390153242418
 30
0.0
 10
39.83106043964854
 20
-6.053053063856505
 30
0.0
 10
39.84833836311395
 20
-6.059475181517736
 30
0.0
  0
SPLINE
  5
458
330
1F
100
AcDbEntity
  8
외형선
  6
Continuous
 62
     1
370
    15
100
AcDbSpline
210
0.0
220
0.0
230
1.0
 70
     8
 71
     3
 72
    10
 73
     6
 74
     0
 42
0.000000001
 43
0.00000001
 40
0.0
 40
0.0
 40
0.0
 40
0.0
 40
0.5
 40
0.5
 40
1.0
 40
1.0
 40
1.0
 40
1.0
 10
38.79126477796507
 20
-5.595243244212209
 30
0.0
 10
38.93005177206942
 20
-5.557132243801372
 30
0.0
 10
39.08731361163774
 20
-5.580751297259606
 30
0.0
 10
39.38596497506862
 20
-5.699594049222209
 30
0.0
 10
39.53158769949721
 20
-5.795921039981148
 30
0.0
 10
39.65814698455674
 20
-5.930369890486584
 30
0.0
  0
SPLINE
  5
459
330
1F
100
AcDbEntity
  8
외형선
  6
Continuous
 62
     1
370
    15
100
AcDbSpline
210
0.0
220
0.0
230
1.0
 70
     8
 71
     3
 72
    14
 73
    10
 74
     0
 42
0.000000001
 43
0.00000001
 40
0.0
 40
0.0
 40
0.0
 40
0.0
 40
0.0000832671960582
 40
0.0000832671960582
 40
0.0000832671960582
 40
0.0001563480838711
 40
0.0001563480838711
 40
0.0001563480838711
 40
0.000231980942129
 40
0.000231980942129
 40
0.000231980942129
 40
0.000231980942129
 10
38.57526380333019
 20
-5.562239161896851
 30
0.0
 10
38.60135285611585
 20
-5.574901291515441
 30
0.0
 10
38.6277479117592
 20
-5.584947216975176
 30
0.0
 10
38.65397645390692
 20
-5.59188423984656
 30
0.0
 10
38.67700317221414
 20
-5.597974432379938
 30
0.0
 10
38.7000550715951
 20
-5.601708739969676
 30
0.0
 10
38.722679541064
 20
-5.602573009548048
 30
0.0
 10
38.74605874700745
 20
-5.603466110554973
 30
0.0
 10
38.76921161304583
 20
-5.601299057890738
 30
0.0
 10
38.79126477796507
 20
-5.595243244212209
 30
0.0
  0
SPLINE
  5
45A
330
1F
100
AcDbEntity
  8
외형선
  6
Continuous
 62
     1
370
    15
100
AcDbSpline
210
0.0
220
0.0
230
1.0
 70
     8
 71
     3
 72
     8
 73
     4
 74
     0
 42
0.000000001
 43
0.00000001
 40
0.0
 40
0.0
 40
0.0
 40
0.0
 40
1.0
 40
1.0
 40
1.0
 40
1.0
 10
38.57526810280564
 20
-5.562241248612987
 30
0.0
 10
38.30912515810547
 20
-5.433070902520593
 30
0.0
 10
38.04043368878018
 20
-5.288616497531865
 30
0.0
 10
37.77058673203507
 20
-5.130089315556705
 30
0.0
  0
SPLINE
  5
45B
330
1F
100
AcDbEntity
  8
외형선
  6
Continuous
 62
     1
370
    15
100
AcDbSpline
210
0.0
220
0.0
230
1.0
 70
     8
 71
     3
 72
    14
 73
    10
 74
     0
 42
0.000000001
 43
0.00000001
 40
0.0
 40
0.0
 40
0.0
 40
0.0
 40
0.0000770342714237
 40
0.0000770342714237
 40
0.0000770342714237
 40
0.000158817207471
 40
0.000158817207471
 40
0.000158817207471
 40
0.0002427697860885
 40
0.0002427697860885
 40
0.0002427697860885
 40
0.0002427697860885
 10
37.5543500766331
 20
-4.937456262710778
 30
0.0
 10
37.57490414596646
 20
-4.963499046700174
 30
0.0
 10
37.59667732247746
 20
-4.987959860010686
 30
0.0
 10
37.61908748058187
 20
-5.010549818469566
 30
0.0
 10
37.64287994801704
 20
-5.034533176752485
 30
0.0
 10
37.66756096653813
 20
-5.056581391822172
 30
0.0
 10
37.6926260036267
 20
-5.076396247321799
 30
0.0
 10
37.71835503503598
 20
-5.096736015330936
 30
0.0
 10
37.74466271078413
 20
-5.114861345887975
 30
0.0
 10
37.77108819837889
 20
-5.130383896698265
 30
0.0
  0
SPLINE
  5
45C
330
1F
100
AcDbEntity
  8
외형선
  6
Continuous
 62
     1
370
    15
100
AcDbSpline
210
0.0
220
0.0
230
1.0
 70
     8
 71
     3
 72
    10
 73
     6
 74
     0
 42
0.000000001
 43
0.00000001
 40
0.0
 40
0.0
 40
0.0
 40
0.0
 40
0.5
 40
0.5
 40
1.0
 40
1.0
 40
1.0
 40
1.0
 10
36.6882424838644
 20
-4.363808844726104
 30
0.0
 10
36.82688111095564
 20
-4.378550902276667
 30
0.0
 10
36.98375162411854
 20
-4.44812995053817
 30
0.0
 10
37.28214483191857
 20
-4.646239505263098
 30
0.0
 10
37.42781371122896
 20
-4.777129897279432
 30
0.0
 10
37.55435007663148
 20
-4.93745626270974
 30
0.0
  0
SPLINE
  5
45D
330
1F
100
AcDbEntity
  8
외형선
  6
Continuous
 62
     1
370
    15
100
AcDbSpline
210
0.0
220
0.0
230
1.0
 70
     8
 71
     3
 72
    14
 73
    10
 74
     0
 42
0.000000001
 43
0.00000001
 40
0.0
 40
0.0
 40
0.0
 40
0.0
 40
0.0000833824095523
 40
0.0000833824095523
 40
0.0000833824095523
 40
0.0001565116228858
 40
0.0001565116228858
 40
0.0001565116228858
 40
0.0002321707171019
 40
0.0002321707171019
 40
0.0002321707171019
 40
0.0002321707171019
 10
36.47203142791956
 20
-4.262772964695944
 30
0.0
 10
36.49821159709127
 20
-4.282213409918699
 30
0.0
 10
36.52467892315802
 20
-4.299612859832957
 30
0.0
 10
36.55095894363984
 20
-4.314365066984645
 30
0.0
 10
36.57401460969925
 20
-4.327307292884501
 30
0.0
 10
36.59707923126571
 20
-4.338297865487047
 30
0.0
 10
36.61970463084776
 20
-4.346720945822926
 30
0.0
 10
36.64307808529439
 20
-4.355422515216911
 30
0.0
 10
36.66621054522767
 20
-4.361466091381334
 30
0.0
 10
36.68824248386437
 20
-4.363808844726111
 30
0.0
  0
SPLINE
  5
45E
330
1F
100
AcDbEntity
  8
외형선
  6
Continuous
 62
     1
370
    15
100
AcDbSpline
210
0.0
220
0.0
230
1.0
 70
     8
 71
     3
 72
     8
 73
     4
 74
     0
 42
0.000000001
 43
0.00000001
 40
0.0
 40
0.0
 40
0.0
 40
0.0
 40
1.0
 40
1.0
 40
1.0
 40
1.0
 10
36.47203157399538
 20
-4.26277307316538
 30
0.0
 10
36.20477663580489
 20
-4.064319241328223
 30
0.0
 10
35.93490720716774
 20
-3.853805947907072
 30
0.0
 10
35.66565418059531
 20
-3.633678927127579
 30
0.0
  0
SPLINE
  5
45F
330
1F
100
AcDbEntity
  8
외형선
  6
Continuous
 62
     1
370
    15
100
AcDbSpline
210
0.0
220
0.0
230
1.0
 70
     8
 71
     3
 72
    14
 73
    10
 74
     0
 42
0.000000001
 43
0.00000001
 40
0.0
 40
0.0
 40
0.0
 40
0.0
 40
0.0000774961348493
 40
0.0000774961348493
 40
0.0000774961348493
 40
0.0001594976869409
 40
0.0001594976869409
 40
0.0001594976869409
 40
0.0002436551162732
 40
0.0002436551162732
 40
0.0002436551162732
 40
0.0002436551162732
 10
35.44813179466254
 20
-3.405860232846034
 30
0.0
 10
35.46881367183096
 20
-3.433398923635461
 30
0.0
 10
35.49072020260405
 20
-3.460190683188979
 30
0.0
 10
35.51326616594794
 20
-3.485805352400429
 30
0.0
 10
35.5371243514239
 20
-3.512910848831406
 30
0.0
 10
35.56186873925054
 20
-3.538892472979721
 30
0.0
 10
35.58699844372208
 20
-3.563326226404075
 30
0.0
 10
35.61278790516664
 20
-3.588401465255212
 30
0.0
 10
35.63915609848851
 20
-3.612015477769279
 30
0.0
 10
35.66564595834383
 20
-3.633672205047918
 30
0.0
  0
SPLINE
  5
460
330
1F
100
AcDbEntity
  8
외형선
  6
Continuous
 62
     1
370
    15
100
AcDbSpline
210
0.0
220
0.0
230
1.0
 70
     8
 71
     3
 72
    10
 73
     6
 74
     0
 42
0.000000001
 43
0.00000001
 40
0.0
 40
0.0
 40
0.0
 40
0.0
 40
0.5
 40
0.5
 40
1.0
 40
1.0
 40
1.0
 40
1.0
 10
34.5803294681759
 20
-2.6534764345967
 30
0.0
 10
34.71964658778826
 20
-2.71887420724813
 30
0.0
 10
34.87682105648706
 20
-2.827617693240678
 30
0.0
 10
35.1753431595139
 20
-3.085074964075754
 30
0.0
 10
35.32122485410889
 20
-3.236878908448712
 30
0.0
 10
35.44813179466095
 20
-3.405860232845323
 30
0.0
  0
SPLINE
  5
461
330
1F
100
AcDbEntity
  8
외형선
  6
Continuous
 62
     1
370
    15
100
AcDbSpline
210
0.0
220
0.0
230
1.0
 70
     8
 71
     3
 72
    14
 73
    10
 74
     0
 42
0.000000001
 43
0.00000001
 40
0.0
 40
0.0
 40
0.0
 40
0.0
 40
0.0000830495909199
 40
0.0000830495909199
 40
0.0000830495909199
 40
0.000156110092928
 40
0.000156110092928
 40
0.000156110092928
 40
0.0002317122725225
 40
0.0002317122725225
 40
0.0002317122725225
 40
0.0002317122725225
 10
34.36410055767109
 20
-2.496269541700353
 30
0.0
 10
34.39022431826527
 20
-2.520246305897596
 30
0.0
 10
34.41663809395027
 20
-2.542984221122668
 30
0.0
 10
34.44286816867121
 20
-2.563824704478274
 30
0.0
 10
34.46595008053288
 20
-2.582163889748865
 30
0.0
 10
34.48904367914254
 20
-2.59915598424779
 30
0.0
 10
34.51169721535213
 20
-2.614142646085919
 30
0.0
 10
34.53510393165695
 20
-2.629627581362949
 30
0.0
 10
34.55827008607909
 20
-2.643121393815103
 30
0.0
 10
34.58032946817602
 20
-2.653476434597034
 30
0.0
  0
SPLINE
  5
462
330
1F
100
AcDbEntity
  8
외형선
  6
Continuous
 62
     1
370
    15
100
AcDbSpline
210
0.0
220
0.0
230
1.0
 70
     8
 71
     3
 72
     8
 73
     4
 74
     0
 42
0.000000001
 43
0.00000001
 40
0.0
 40
0.0
 40
0.0
 40
0.0
 40
1.0
 40
1.0
 40
1.0
 40
1.0
 10
34.36414126888235
 20
-2.496306906992419
 30
0.0
 10
34.09687685495625
 20
-2.251008356655173
 30
0.0
 10
33.82819177085979
 20
-1.998642953877282
 30
0.0
 10
33.56127603344636
 20
-1.742214400945573
 30
0.0
  0
SPLINE
  5
463
330
1F
100
AcDbEntity
  8
외형선
  6
Continuous
 62
     1
370
    15
100
AcDbSpline
210
0.0
220
0.0
230
1.0
 70
     8
 71
     3
 72
    14
 73
    10
 74
     0
 42
0.000000001
 43
0.00000001
 40
0.0
 40
0.0
 40
0.0
 40
0.0
 40
0.0000773650336785
 40
0.0000773650336785
 40
0.0000773650336785
 40
0.0001593215177383
 40
0.0001593215177383
 40
0.0001593215177383
 40
0.0002434392264819
 40
0.0002434392264819
 40
0.0002434392264819
 40
0.0002434392264819
 10
33.34164468009703
 20
-1.502244330067685
 30
0.0
 10
33.36224574127273
 20
-1.52813419614593
 30
0.0
 10
33.38407042486915
 20
-1.554209337144488
 30
0.0
 10
33.40653630426982
 20
-1.579943033363707
 30
0.0
 10
33.43033674846191
 20
-1.60720541601071
 30
0.0
 10
33.45502689358092
 20
-1.634279483952258
 30
0.0
 10
33.48010616174666
 20
-1.660656169238673
 30
0.0
 10
33.50584583043479
 20
-1.687727419319766
 30
0.0
 10
33.53216849095267
 20
-1.714246532973152
 30
0.0
 10
33.55861676930259
 20
-1.739659430011481
 30
0.0
  0
SPLINE
  5
464
330
1F
100
AcDbEntity
  8
외형선
  6
Continuous
 62
     1
370
    15
100
AcDbSpline
210
0.0
220
0.0
230
1.0
 70
     8
 71
     3
 72
    10
 73
     6
 74
     0
 42
0.000000001
 43
0.00000001
 40
0.0
 40
0.0
 40
0.0
 40
0.0
 40
0.5
 40
0.5
 40
1.0
 40
1.0
 40
1.0
 40
1.0
 10
32.47672841319327
 20
-0.6586172062645756
 30
0.0
 10
32.61570240805162
 20
-0.7671029018497775
 30
0.0
 10
32.77295537148946
 20
-0.901165427208876
 30
0.0
 10
33.07069003023821
 20
-1.187694816777326
 30
0.0
 10
33.21542400197974
 20
-1.343619663848652
 30
0.0
 10
33.34164468009544
 20
-1.502244330067373
 30
0.0
  0
SPLINE
  5
465
330
1F
100
AcDbEntity
  8
외형선
  6
Continuous
 62
     1
370
    15
100
AcDbSpline
210
0.0
220
0.0
230
1.0
 70
     8
 71
     3
 72
    14
 73
    10
 74
     0
 42
0.000000001
 43
0.00000001
 40
0.0
 40
0.0
 40
0.0
 40
0.0
 40
0.0000825869607741
 40
0.0000825869607741
 40
0.0000825869607741
 40
0.0001555341615876
 40
0.0001555341615876
 40
0.0001555341615876
 40
0.0002310431946713
 40
0.0002310431946713
 40
0.0002310431946713
 40
0.0002310431946713
 10
32.26092460599058
 20
-0.4627065792913596
 30
0.0
 10
32.28692254485958
 20
-0.4885488426244207
 30
0.0
 10
32.31321252820932
 20
-0.5140798340955355
 30
0.0
 10
32.33932307379679
 20
-0.5386608059761953
 30
0.0
 10
32.36239200216343
 20
-0.5603783406634006
 30
0.0
 10
32.38547567398626
 20
-0.5814999594946739
 30
0.0
 10
32.40811791519826
 20
-0.6013936883508846
 30
0.0
 10
32.43152004213711
 20
-0.6219550613890474
 30
0.0
 10
32.45468176955724
 20
-0.6414071845435059
 30
0.0
 10
32.47672841319317
 20
-0.6586172062645401
 30
0.0
  0
SPLINE
  5
466
330
1F
100
AcDbEntity
  8
외형선
  6
Continuous
 62
     1
370
    15
100
AcDbSpline
210
0.0
220
0.0
230
1.0
 70
     8
 71
     3
 72
    14
 73
    10
 74
     0
 42
0.000000001
 43
0.00000001
 40
0.0
 40
0.0
 40
0.0
 40
0.0
 40
0.0000778659879493
 40
0.0000778659879493
 40
0.0000778659879493
 40
0.0001601109222593
 40
0.0001601109222593
 40
0.0001601109222593
 40
0.0002445019073243
 40
0.0002445019073243
 40
0.0002445019073243
 40
0.0002445019073243
 10
31.23791908246102
 20
0.5637863736520901
 30
0.0
 10
31.25863797018917
 20
0.5421575479985323
 30
0.0
 10
31.28056736682221
 20
0.519408221234511
 30
0.0
 10
31.30313339707115
 20
0.4961284516071389
 30
0.0
 10
31.32697045810211
 20
0.4715374498548117
 30
0.0
 10
31.35169192924637
 20
0.4461843655587474
 30
0.0
 10
31.37680356661469
 20
0.4206034540950627
 30
0.0
 10
31.40256941728127
 20
0.3943561037123731
 30
0.0
 10
31.42891761873193
 20
0.3676941913032978
 30
0.0
 10
31.45539589524858
 20
0.341165568996364
 30
0.0
  0
SPLINE
  5
467
330
1F
100
AcDbEntity
  8
외형선
  6
Continuous
 62
     1
370
    15
100
AcDbSpline
210
0.0
220
0.0
230
1.0
 70
     8
 71
     3
 72
    10
 73
     6
 74
     0
 42
0.000000001
 43
0.00000001
 40
0.0
 40
0.0
 40
0.0
 40
0.0
 40
0.5
 40
0.5
 40
1.0
 40
1.0
 40
1.0
 40
1.0
 10
30.37024800671972
 20
1.410039952604838
 30
0.0
 10
30.50958071775814
 20
1.269344233379475
 30
0.0
 10
30.66728538730635
 20
1.123431995532781
 30
0.0
 10
30.96615271871336
 20
0.8383927960885034
 30
0.0
 10
31.1115795313205
 20
0.6956745406516136
 30
0.0
 10
31.23791908245945
 20
0.5637863736519835
 30
0.0
  0
SPLINE
  5
468
330
1F
100
AcDbEntity
  8
외형선
  6
Continuous
 62
     1
370
    15
100
AcDbSpline
210
0.0
220
0.0
230
1.0
 70
     8
 71
     3
 72
    10
 73
     6
 74
     0
 42
0.000000001
 43
0.00000001
 40
0.0
 40
0.0
 40
0.0
 40
0.0
 40
0.5
 40
0.5
 40
1.0
 40
1.0
 40
1.0
 40
1.0
 10
28.26407779377019
 20
3.324834999920639
 30
0.0
 10
28.402893042791
 20
3.167816341149471
 30
0.0
 10
28.56018124679963
 20
3.02635865273492
 30
0.0
 10
28.85852405514254
 20
2.774734028677034
 30
0.0
 10
29.00379886023115
 20
2.661264912392784
 30
0.0
 10
29.13001970398819
 20
2.57175577655699
 30
0.0
  0
SPLINE
  5
469
330
1F
100
AcDbEntity
  8
외형선
  6
Continuous
 62
     1
370
    15
100
AcDbSpline
210
0.0
220
0.0
230
1.0
 70
     8
 71
     3
 72
    14
 73
    10
 74
     0
 42
0.000000001
 43
0.00000001
 40
0.0
 40
0.0
 40
0.0
 40
0.0
 40
0.0000825819180158
 40
0.0000825819180158
 40
0.0000825819180158
 40
0.0001555412285124
 40
0.0001555412285124
 40
0.0001555412285124
 40
0.0002310672323797
 40
0.0002310672323797
 40
0.0002310672323797
 40
0.0002310672323797
 10
28.04843070491961
 20
3.534104960381501
 30
0.0
 10
28.07438489526485
 20
3.512543876354775
 30
0.0
 10
28.10063825106267
 20
3.489454418512316
 30
0.0
 10
28.12672022773934
 20
3.465242678132582
 30
0.0
 10
28.14976907067036
 20
3.443846577368521
 30
0.0
 10
28.17283888314168
 20
3.421430264048026
 30
0.0
 10
28.19547287460779
 20
3.398370680795657
 30
0.0
 10
28.21886772791106
 20
3.374535929058097
 30
0.0
 10
28.24202853442371
 20
3.349775668571303
 30
0.0
 10
28.26407779377019
 20
3.324834999920646
 30
0.0
  0
SPLINE
  5
46A
330
1F
100
AcDbEntity
  8
외형선
  6
Continuous
 62
     1
370
    15
100
AcDbSpline
210
0.0
220
0.0
230
1.0
 70
     8
 71
     3
 72
     8
 73
     4
 74
     0
 42
0.000000001
 43
0.00000001
 40
0.0
 40
0.0
 40
0.0
 40
0.0
 40
1.0
 40
1.0
 40
1.0
 40
1.0
 10
28.0484306996319
 20
3.534104964773539
 30
0.0
 10
27.77895703208356
 20
3.757966480346304
 30
0.0
 10
27.51328245281004
 20
3.971280627869411
 30
0.0
 10
27.24367686121053
 20
4.174359489117893
 30
0.0
  0
SPLINE
  5
46B
330
1F
100
AcDbEntity
  8
외형선
  6
Continuous
 62
     1
370
    15
100
AcDbSpline
210
0.0
220
0.0
230
1.0
 70
     8
 71
     3
 72
    14
 73
    10
 74
     0
 42
0.000000001
 43
0.00000001
 40
0.0
 40
0.0
 40
0.0
 40
0.0
 40
0.0000772263700246
 40
0.0000772263700246
 40
0.0000772263700246
 40
0.0001591959330456
 40
0.0001591959330456
 40
0.0001591959330456
 40
0.0002433305003152
 40
0.0002433305003152
 40
0.0002433305003152
 40
0.0002433305003152
 10
27.0270936459291
 20
4.294244941960037
 30
0.0
 10
27.04770004600937
 20
4.288047437381276
 30
0.0
 10
27.06952428501606
 20
4.279381672224406
 30
0.0
 10
27.09198126529396
 20
4.268703126151911
 30
0.0
 10
27.11581857515825
 20
4.257368217874848
 30
0.0
 10
27.1405394424948
 20
4.243686473879584
 30
0.0
 10
27.16563878144298
 20
4.228078322606925
 30
0.0
 10
27.19140025559483
 20
4.212058419198317
 30
0.0
 10
27.21773388351162
 20
4.193902373827334
 30
0.0
 10
27.24418061431625
 20
4.173980025700913
 30
0.0
  0
SPLINE
  5
46C
330
1F
100
AcDbEntity
  8
외형선
  6
Continuous
 62
     1
370
    15
100
AcDbSpline
210
0.0
220
0.0
230
1.0
 70
     8
 71
     3
 72
    10
 73
     6
 74
     0
 42
0.000000001
 43
0.00000001
 40
0.0
 40
0.0
 40
0.0
 40
0.0
 40
0.5
 40
0.5
 40
1.0
 40
1.0
 40
1.0
 40
1.0
 10
26.16020537869617
 20
4.876464746397921
 30
0.0
 10
26.29905554480056
 20
4.719726729571625
 30
0.0
 10
26.45633571689706
 20
4.597413255135101
 30
0.0
 10
26.75499732122745
 20
4.405039317335713
 30
0.0
 10
26.90061083959023
 20
4.332285442402209
 30
0.0
 10
27.0270936459275
 20
4.294244941959177
 30
0.0
  0
SPLINE
  5
46D
330
1F
100
AcDbEntity
  8
외형선
  6
Continuous
 62
     1
370
    15
100
AcDbSpline
210
0.0
220
0.0
230
1.0
 70
     8
 71
     3
 72
    14
 73
    10
 74
     0
 42
0.000000001
 43
0.00000001
 40
0.0
 40
0.0
 40
0.0
 40
0.0
 40
0.0000834553143057
 40
0.0000834553143057
 40
0.0000834553143057
 40
0.000156552508307
 40
0.000156552508307
 40
0.000156552508307
 40
0.000232196946043
 40
0.000232196946043
 40
0.000232196946043
 40
0.000232196946043
 10
25.94387013133722
 20
5.058811970149221
 30
0.0
 10
25.97003571023703
 20
5.042922148597582
 30
0.0
 10
25.99650723154842
 20
5.024762331235947
 30
0.0
 10
26.02281077945861
 20
5.004545157007548
 30
0.0
 10
26.04585667074739
 20
4.986831850763699
 30
0.0
 10
26.06892692580832
 20
4.967421235003562
 30
0.0
 10
26.09156954537488
 20
4.946485954596375
 30
0.0
 10
26.11496587926986
 20
4.924853792772004
 30
0.0
 10
26.13813549078396
 20
4.901377863608977
 30
0.0
 10
26.16020537869612
 20
4.876464746397935
 30
0.0
  0
SPLINE
  5
46E
330
1F
100
AcDbEntity
  8
외형선
  6
Continuous
 62
     1
370
    15
100
AcDbSpline
210
0.0
220
0.0
230
1.0
 70
     8
 71
     3
 72
     8
 73
     4
 74
     0
 42
0.000000001
 43
0.00000001
 40
0.0
 40
0.0
 40
0.0
 40
0.0
 40
1.0
 40
1.0
 40
1.0
 40
1.0
 10
25.94387013131638
 20
5.058811970160789
 30
0.0
 10
25.67623915185954
 20
5.221338796780045
 30
0.0
 10
25.40780859208585
 20
5.370420366390198
 30
0.0
 10
25.13709891848223
 20
5.50496056548188
 30
0.0
  0
SPLINE
  5
46F
330
1F
100
AcDbEntity
  8
외형선
  6
Continuous
 62
     1
370
    15
100
AcDbSpline
210
0.0
220
0.0
230
1.0
 70
     8
 71
     3
 72
    14
 73
    10
 74
     0
 42
0.000000001
 43
0.00000001
 40
0.0
 40
0.0
 40
0.0
 40
0.0
 40
0.0000773525174901
 40
0.0000773525174901
 40
0.0000773525174901
 40
0.0001593666076984
 40
0.0001593666076984
 40
0.0001593666076984
 40
0.0002435416583165
 40
0.0002435416583165
 40
0.0002435416583165
 40
0.0002435416583165
 10
24.91961483263387
 20
5.552038821221806
 30
0.0
 10
24.94027074996916
 20
5.554883547975641
 30
0.0
 10
24.96214844188657
 20
5.554942947828386
 30
0.0
 10
24.98466209501499
 20
5.552542644138618
 30
0.0
 10
25.00853372568293
 20
5.549997559036423
 30
0.0
 10
25.03329097942151
 20
5.544671385124217
 30
0.0
 10
25.05842989337726
 20
5.536853019269784
 30
0.0
 10
25.08423037485261
 20
5.528828901610985
 30
0.0
 10
25.1106061896244
 20
5.518127206214657
 30
0.0
 10
25.13709891837675
 20
5.504960565535483
 30
0.0
  0
SPLINE
  5
470
330
1F
100
AcDbEntity
  8
외형선
  6
Continuous
 62
     1
370
    15
100
AcDbSpline
210
0.0
220
0.0
230
1.0
 70
     8
 71
     3
 72
    10
 73
     6
 74
     0
 42
0.000000001
 43
0.00000001
 40
0.0
 40
0.0
 40
0.0
 40
0.0
 40
0.5
 40
0.5
 40
1.0
 40
1.0
 40
1.0
 40
1.0
 10
24.05236941649614
 20
5.899569853661212
 30
0.0
 10
24.19110681197443
 20
5.7603381322028
 30
0.0
 10
24.34830371280971
 20
5.670624127218303
 30
0.0
 10
24.64705940748523
 20
5.558630262498453
 30
0.0
 10
24.79286514449428
 20
5.534582892099958
 30
0.0
 10
24.91961483263239
 20
5.552038821220555
 30
0.0
  0
SPLINE
  5
471
330
1F
100
AcDbEntity
  8
외형선
  6
Continuous
 62
     1
370
    15
100
AcDbSpline
210
0.0
220
0.0
230
1.0
 70
     8
 71
     3
 72
    14
 73
    10
 74
     0
 42
0.000000001
 43
0.00000001
 40
0.0
 40
0.0
 40
0.0
 40
0.0
 40
0.0000833669051654
 40
0.0000833669051654
 40
0.0000833669051654
 40
0.0001565124894995
 40
0.0001565124894995
 40
0.0001565124894995
 40
0.0002321864126548
 40
0.0002321864126548
 40
0.0002321864126548
 40
0.0002321864126548
 10
23.83625950877473
 20
6.033811931605142
 30
0.0
 10
23.86242164379331
 20
6.025635881399984
 30
0.0
 10
23.88887008142487
 20
6.014694652315149
 30
0.0
 10
23.91513067807889
 20
6.000995151555066
 30
0.0
 10
23.93817876578656
 20
5.98897153688896
 30
0.0
 10
23.96123520533466
 20
5.974743351352273
 30
0.0
 10
23.98385262182707
 20
5.958272517279339
 30
0.0
 10
24.00721718986548
 20
5.94125757998643
 30
0.0
 10
24.03033706753572
 20
5.921680704617841
 30
0.0
 10
24.05236941649612
 20
5.89956985366124
 30
0.0
  0
SPLINE
  5
472
330
1F
100
AcDbEntity
  8
외형선
  6
Continuous
 62
     1
370
    15
100
AcDbSpline
210
0.0
220
0.0
230
1.0
 70
     8
 71
     3
 72
     8
 73
     4
 74
     0
 42
0.000000001
 43
0.00000001
 40
0.0
 40
0.0
 40
0.0
 40
0.0
 40
1.0
 40
1.0
 40
1.0
 40
1.0
 10
23.83676803043076
 20
6.033652990965247
 30
0.0
 10
23.57003228382206
 20
6.117032982624671
 30
0.0
 10
23.30044792480885
 20
6.184583008382414
 30
0.0
 10
23.0312350249057
 20
6.235343350632497
 30
0.0
  0
SPLINE
  5
473
330
1F
100
AcDbEntity
  8
외형선
  6
Continuous
 62
     1
370
    15
100
AcDbSpline
210
0.0
220
0.0
230
1.0
 70
     8
 71
     3
 72
    14
 73
    10
 74
     0
 42
0.000000001
 43
0.00000001
 40
0.0
 40
0.0
 40
0.0
 40
0.0
 40
0.0000770314278225
 40
0.0000770314278225
 40
0.0000770314278225
 40
0.0001587825001185
 40
0.0001587825001185
 40
0.0001587825001185
 40
0.0002427040194491
 40
0.0002427040194491
 40
0.0002427040194491
 40
0.0002427040194491
 10
22.81511706687195
 20
6.203950132989902
 30
0.0
 10
22.83565795979365
 20
6.215519694225022
 30
0.0
 10
22.85741895615663
 20
6.22430767796581
 30
0.0
 10
22.87981914480824
 20
6.230466356150891
 30
0.0
 10
22.90359263460198
 20
6.237002607932225
 30
0.0
 10
22.92825648045877
 20
6.240627010907203
 30
0.0
 10
22.95330739890575
 20
6.241458873549852
 30
0.0
 10
22.97902243454439
 20
6.24231278944709
 30
0.0
 10
23.00531914783592
 20
6.240231823360125
 30
0.0
 10
23.03173649013693
 20
6.23524877963841
 30
0.0
  0
SPLINE
  5
474
330
1F
100
AcDbEntity
  8
외형선
  6
Continuous
 62
     1
370
    15
100
AcDbSpline
210
0.0
220
0.0
230
1.0
 70
     8
 71
     3
 72
    10
 73
     6
 74
     0
 42
0.000000001
 43
0.00000001
 40
0.0
 40
0.0
 40
0.0
 40
0.0
 40
0.1891080617344023
 40
0.644195128763617
 40
1.0
 40
1.0
 40
1.0
 40
1.0
 10
22.03564243300753
 20
6.232891852657004
 30
0.0
 10
22.08494182018044
 20
6.204438961764544
 30
0.0
 10
22.25287979583596
 20
6.107514412149583
 30
0.0
 10
22.53620353889398
 20
6.09340040590078
 30
0.0
 10
22.73005754098891
 20
6.170235992107833
 30
0.0
 10
22.81511720800399
 20
6.203950072328253
 30
0.0
  0
LINE
  5
475
330
1F
100
AcDbEntity
  8
외형선
  6
Continuous
 62
     1
370
    15
100
AcDbLine
 10
25.3906984804471
 20
5.364719157417624
 30
0.0
 11
25.56542080426216
 21
5.462831507126494
 31
0.0
  0
SPLINE
  5
476
330
1F
100
AcDbEntity
  8
외형선
  6
Continuous
 62
     1
370
    15
100
AcDbSpline
210
0.0
220
0.0
230
1.0
 70
     8
 71
     3
 72
    14
 73
    10
 74
     0
 42
0.000000001
 43
0.00000001
 40
0.0
 40
0.0
 40
0.0
 40
0.0
 40
0.0000776939415621
 40
0.0000776939415621
 40
0.0000776939415621
 40
0.0001596856301558
 40
0.0001596856301558
 40
0.0001596856301558
 40
0.0002438272400891
 40
0.0002438272400891
 40
0.0002438272400891
 40
0.0002438272400891
 10
25.78245850773328
 20
5.513435030430599
 30
0.0
 10
25.76179244219157
 20
5.515859718185125
 30
0.0
 10
25.73990054856583
 20
5.515495471479148
 30
0.0
 10
25.71736580626714
 20
5.51267677263889
 30
0.0
 10
25.6935827507872
 20
5.509701931834832
 30
0.0
 10
25.6689144713432
 20
5.503974306609748
 30
0.0
 10
25.64385645795241
 20
5.495783167249882
 30
0.0
 10
25.61814247735729
 20
5.487377600724453
 30
0.0
 10
25.59184605663519
 20
5.476322862185927
 30
0.0
 10
25.56542133989842
 20
5.462831673166654
 30
0.0
  0
SPLINE
  5
477
330
1F
100
AcDbEntity
  8
외형선
  6
Continuous
 62
     1
370
    15
100
AcDbSpline
210
0.0
220
0.0
230
1.0
 70
     8
 71
     3
 72
    10
 73
     6
 74
     0
 42
0.000000001
 43
0.00000001
 40
0.0
 40
0.0
 40
0.0
 40
0.0
 40
0.5
 40
0.5
 40
1.0
 40
1.0
 40
1.0
 40
1.0
 10
26.6492151778914
 20
5.871231193724674
 30
0.0
 10
26.50995868578724
 20
5.730955408075551
 30
0.0
 10
26.35236842407346
 20
5.640089496785634
 30
0.0
 10
26.05381988852122
 20
5.524904592182138
 30
0.0
 10
25.90870987065476
 20
5.498622335045929
 30
0.0
 10
25.78245850773334
 20
5.513435030430556
 30
0.0
  0
SPLINE
  5
478
330
1F
100
AcDbEntity
  8
외형선
  6
Continuous
 62
     1
370
    15
100
AcDbSpline
210
0.0
220
0.0
230
1.0
 70
     8
 71
     3
 72
    14
 73
    10
 74
     0
 42
0.000000001
 43
0.00000001
 40
0.0
 40
0.0
 40
0.0
 40
0.0
 40
0.0000828815058489
 40
0.0000828815058489
 40
0.0000828815058489
 40
0.0001558799033047
 40
0.0001558799033047
 40
0.0001558799033047
 40
0.0002314326539582
 40
0.0002314326539582
 40
0.0002314326539582
 40
0.0002314326539582
 10
26.86544199844503
 20
6.007127695983725
 30
0.0
 10
26.83935264851752
 20
5.998698115976175
 30
0.0
 10
26.81296793350893
 20
5.987542954745762
 30
0.0
 10
26.78676096683006
 20
5.973670358024918
 30
0.0
 10
26.76367257605203
 20
5.961448572187506
 30
0.0
 10
26.7405677208927
 20
5.947035680643036
 30
0.0
 10
26.717901334131
 20
5.930399842475089
 30
0.0
 10
26.69447707554788
 20
5.913207769513035
 30
0.0
 10
26.67129037009358
 20
5.893467966191912
 30
0.0
 10
26.6492151778924
 20
5.871231193725676
 30
0.0
  0
SPLINE
  5
479
330
1F
100
AcDbEntity
  8
외형선
  6
Continuous
 62
     1
370
    15
100
AcDbSpline
210
0.0
220
0.0
230
1.0
 70
     8
 71
     3
 72
     8
 73
     4
 74
     0
 42
0.000000001
 43
0.00000001
 40
0.0
 40
0.0
 40
0.0
 40
0.0
 40
1.0
 40
1.0
 40
1.0
 40
1.0
 10
27.67212906175611
 20
6.219601708730472
 30
0.0
 10
27.40562258272763
 20
6.165517690770854
 30
0.0
 10
27.13588301036235
 20
6.094508338032347
 30
0.0
 10
26.86544199839318
 20
6.007127695966672
 30
0.0
  0
SPLINE
  5
47A
330
1F
100
AcDbEntity
  8
외형선
  6
Continuous
 62
     1
370
    15
100
AcDbSpline
210
0.0
220
0.0
230
1.0
 70
     8
 71
     3
 72
    14
 73
    10
 74
     0
 42
0.000000001
 43
0.00000001
 40
0.0
 40
0.0
 40
0.0
 40
0.0
 40
0.0000776604921931
 40
0.0000776604921931
 40
0.0000776604921931
 40
0.000160008545253
 40
0.000160008545253
 40
0.000160008545253
 40
0.000244511452984
 40
0.000244511452984
 40
0.000244511452984
 40
0.000244511452984
 10
27.88972016813159
 20
6.191678018122338
 30
0.0
 10
27.86902610351791
 20
6.202948744525663
 30
0.0
 10
27.84711588904652
 20
6.211399337092288
 30
0.0
 10
27.82457931609335
 20
6.21720267823111
 30
0.0
 10
27.80068100391449
 20
6.223356677710288
 30
0.0
 10
27.77590784969449
 20
6.226580409586986
 30
0.0
 10
27.75076423180002
 20
6.227014754079504
 30
0.0
 10
27.72496317869593
 20
6.227460455464395
 30
0.0
 10
27.69859992125288
 20
6.224973624776694
 30
0.0
 10
27.67212906996859
 20
6.219601710397099
 30
0.0
  0
SPLINE
  5
47B
330
1F
100
AcDbEntity
  8
외형선
  6
Continuous
 62
     1
370
    15
100
AcDbSpline
210
0.0
220
0.0
230
1.0
 70
     8
 71
     3
 72
    10
 73
     6
 74
     0
 42
0.000000001
 43
0.00000001
 40
0.0
 40
0.0
 40
0.0
 40
0.0
 40
0.5000000000000001
 40
0.5000000000000001
 40
1.0
 40
1.0
 40
1.0
 40
1.0
 10
28.7570705261247
 20
6.275962417118023
 30
0.0
 10
28.61792844545534
 20
6.167963830149147
 30
0.0
 10
28.46035732305046
 20
6.119410160527202
 30
0.0
 10
28.1615734226757
 20
6.097194255043354
 30
0.0
 10
28.0161127187435
 20
6.122840122621567
 30
0.0
 10
27.88972016813169
 20
6.191678018122299
 30
0.0
  0
SPLINE
  5
47C
330
1F
100
AcDbEntity
  8
외형선
  6
Continuous
 62
     1
370
    15
100
AcDbSpline
210
0.0
220
0.0
230
1.0
 70
     8
 71
     3
 72
    14
 73
    10
 74
     0
 42
0.000000001
 43
0.00000001
 40
0.0
 40
0.0
 40
0.0
 40
0.0
 40
0.000082861837543
 40
0.000082861837543
 40
0.000082861837543
 40
0.0001558642973654
 40
0.0001558642973654
 40
0.0001558642973654
 40
0.0002314240929223
 40
0.0002314240929223
 40
0.0002314240929223
 40
0.0002314240929223
 10
28.9731714995648
 20
6.349990887782581
 30
0.0
 10
28.94711291552011
 20
6.350034974005438
 30
0.0
 10
28.92075544139253
 20
6.347164252998318
 30
0.0
 10
28.89457154729479
 20
6.341170517978191
 30
0.0
 10
28.87149678592897
 20
6.335888492135786
 30
0.0
 10
28.84840239582354
 20
6.328145503579925
 30
0.0
 10
28.82574364933062
 20
6.317695873286165
 30
0.0
 10
28.80232647127685
 20
6.306896473890418
 30
0.0
 10
28.77914364419776
 20
6.293095016762897
 30
0.0
 10
28.75707052612576
 20
6.275962417118826
 30
0.0
  0
SPLINE
  5
47D
330
1F
100
AcDbEntity
  8
외형선
  6
Continuous
 62
     1
370
    15
100
AcDbSpline
210
0.0
220
0.0
230
1.0
 70
     8
 71
     3
 72
     8
 73
     4
 74
     0
 42
0.000000001
 43
0.00000001
 40
0.0
 40
0.0
 40
0.0
 40
0.0
 40
1.0
 40
1.0
 40
1.0
 40
1.0
 10
29.77876418816698
 20
6.297308112712513
 30
0.0
 10
29.50953481424606
 20
6.331956352345272
 30
0.0
 10
29.24337799279543
 20
6.349533749466487
 30
0.0
 10
28.97317149370197
 20
6.349990887792479
 30
0.0
  0
SPLINE
  5
47E
330
1F
100
AcDbEntity
  8
외형선
  6
Continuous
 62
     1
370
    15
100
AcDbSpline
210
0.0
220
0.0
230
1.0
 70
     8
 71
     3
 72
    14
 73
    10
 74
     0
 42
0.000000001
 43
0.00000001
 40
0.0
 40
0.0
 40
0.0
 40
0.0
 40
0.0000769679142255
 40
0.0000769679142255
 40
0.0000769679142255
 40
0.0001589488452356
 40
0.0001589488452356
 40
0.0001589488452356
 40
0.0002431051268656
 40
0.0002431051268656
 40
0.0002431051268656
 40
0.0002431051268656
 10
29.99499114768139
 20
6.193938682982135
 30
0.0
 10
29.97447331287137
 20
6.212701131478936
 30
0.0
 10
29.95274101112041
 20
6.22895684737746
 30
0.0
 10
29.93037803937714
 20
6.242686433782253
 30
0.0
 10
29.9065579561165
 20
6.257310603371656
 30
0.0
 10
29.881851142258
 20
6.269176407059461
 30
0.0
 10
29.85676638053969
 20
6.278243280151627
 30
0.0
 10
29.83101665194895
 20
6.287550505147869
 30
0.0
 10
29.80469456142373
 20
6.293973062625255
 30
0.0
 10
29.77826097350176
 20
6.297372853912811
 30
0.0
  0
SPLINE
  5
47F
330
1F
100
AcDbEntity
  8
외형선
  6
Continuous
 62
     1
370
    15
100
AcDbSpline
210
0.0
220
0.0
230
1.0
 70
     8
 71
     3
 72
    10
 73
     6
 74
     0
 42
0.000000001
 43
0.00000001
 40
0.0
 40
0.0
 40
0.0
 40
0.0
 40
0.5
 40
0.5
 40
1.0
 40
1.0
 40
1.0
 40
1.0
 10
30.86006343416716
 20
5.997411764633035
 30
0.0
 10
30.72145861727583
 20
5.933568745402858
 30
0.0
 10
30.56443044353604
 20
5.932186680701341
 30
0.0
 10
30.26634388736757
 20
6.00445457273264
 30
0.0
 10
30.12109379232038
 20
6.078624645353108
 30
0.0
 10
29.99499114768146
 20
6.193938682982099
 30
0.0
  0
SPLINE
  5
480
330
1F
100
AcDbEntity
  8
외형선
  6
Continuous
 62
     1
370
    15
100
AcDbSpline
210
0.0
220
0.0
230
1.0
 70
     8
 71
     3
 72
    14
 73
    10
 74
     0
 42
0.000000001
 43
0.00000001
 40
0.0
 40
0.0
 40
0.0
 40
0.0
 40
0.0000830786860627
 40
0.0000830786860627
 40
0.0000830786860627
 40
0.0001561032829013
 40
0.0001561032829013
 40
0.0001561032829013
 40
0.0002316854736493
 40
0.0002316854736493
 40
0.0002316854736493
 40
0.0002316854736493
 10
31.07608386595865
 20
6.001413522651261
 30
0.0
 10
31.05000887606748
 20
6.009956287458663
 30
0.0
 10
31.02363074363189
 20
6.015704769247384
 30
0.0
 10
30.99742189168203
 20
6.018250869078272
 30
0.0
 10
30.97437824795597
 20
6.020489479815835
 30
0.0
 10
30.95131151093969
 20
6.020267130165432
 30
0.0
 10
30.92867608733033
 20
6.017148192299238
 30
0.0
 10
30.90528331405014
 20
6.013924899126621
 30
0.0
 10
30.88212042646056
 20
6.007571476356687
 30
0.0
 10
30.86006343416816
 20
5.997411764633497
 30
0.0
  0
SPLINE
  5
481
330
1F
100
AcDbEntity
  8
외형선
  6
Continuous
 62
     1
370
    15
100
AcDbSpline
210
0.0
220
0.0
230
1.0
 70
     8
 71
     3
 72
     8
 73
     4
 74
     0
 42
0.000000001
 43
0.00000001
 40
0.0
 40
0.0
 40
0.0
 40
0.0
 40
1.0
 40
1.0
 40
1.0
 40
1.0
 10
31.88226364092347
 20
5.68953921795699
 30
0.0
 10
31.61168760938365
 20
5.809429535710165
 30
0.0
 10
31.34470921514066
 20
5.913405765791778
 30
0.0
 10
31.07608220306156
 20
6.001414067454561
 30
0.0
  0
SPLINE
  5
482
330
1F
100
AcDbEntity
  8
외형선
  6
Continuous
 62
     1
370
    15
100
AcDbSpline
210
0.0
220
0.0
230
1.0
 70
     8
 71
     3
 72
    14
 73
    10
 74
     0
 42
0.000000001
 43
0.00000001
 40
0.0
 40
0.0
 40
0.0
 40
0.0
 40
0.0000773663713737
 40
0.0000773663713737
 40
0.0000773663713737
 40
0.0001593865460783
 40
0.0001593865460783
 40
0.0001593865460783
 40
0.0002435671462538
 40
0.0002435671462538
 40
0.0002435671462538
 40
0.0002435671462538
 10
32.09972820787739
 20
5.522188542879895
 30
0.0
 10
32.07906916087768
 20
5.546502930734234
 30
0.0
 10
32.05718915266857
 20
5.568852419503975
 30
0.0
 10
32.03467431050457
 20
5.589036593471106
 30
0.0
 10
32.01080390445253
 20
5.610436007462595
 30
0.0
 10
31.98604932954499
 20
5.629556437881148
 30
0.0
 10
31.96091455941587
 20
5.646183891381567
 30
0.0
 10
31.93511853748101
 20
5.663248784078674
 30
0.0
 10
31.90874881945655
 20
5.677803823457679
 30
0.0
 10
31.88226364306405
 20
5.689539217008536
 30
0.0
  0
SPLINE
  5
483
330
1F
100
AcDbEntity
  8
외형선
  6
Continuous
 62
     1
370
    15
100
AcDbSpline
210
0.0
220
0.0
230
1.0
 70
     8
 71
     3
 72
    10
 73
     6
 74
     0
 42
0.000000001
 43
0.00000001
 40
0.0
 40
0.0
 40
0.0
 40
0.0
 40
0.5000000000000002
 40
0.5000000000000002
 40
1.0
 40
1.0
 40
1.0
 40
1.0
 10
32.96744604039392
 20
5.064237548769333
 30
0.0
 10
32.82855952544173
 20
5.051805389297029
 30
0.0
 10
32.67122966163876
 20
5.098455733862074
 30
0.0
 10
32.37231338898573
 20
5.258224031646924
 30
0.0
 10
32.22647707349594
 20
5.373013168101436
 30
0.0
 10
32.09972820787742
 20
5.522188542879866
 30
0.0
  0
SPLINE
  5
484
330
1F
100
AcDbEntity
  8
외형선
  6
Continuous
 62
     1
370
    15
100
AcDbSpline
210
0.0
220
0.0
230
1.0
 70
     8
 71
     3
 72
    14
 73
    10
 74
     0
 42
0.000000001
 43
0.00000001
 40
0.0
 40
0.0
 40
0.0
 40
0.0
 40
0.0000837880697946
 40
0.0000837880697946
 40
0.0000837880697946
 40
0.0001569022270286
 40
0.0001569022270286
 40
0.0001569022270286
 40
0.0002325508250212
 40
0.0002325508250212
 40
0.0002325508250212
 40
0.0002325508250212
 10
33.18383146997857
 20
4.996754353077381
 30
0.0
 10
33.15756540724109
 20
5.013044287723136
 30
0.0
 10
33.13101323998599
 20
5.026953678580376
 30
0.0
 10
33.10465080528169
 20
5.037929232670918
 30
0.0
 10
33.08163932102603
 20
5.047509675182581
 30
0.0
 10
33.05860633848846
 20
5.054907434574928
 30
0.0
 10
33.03599376673509
 20
5.059541300650657
 30
0.0
 10
33.01263248516439
 20
5.064328595582722
 30
0.0
 10
32.98949380760911
 20
5.066211112279837
 30
0.0
 10
32.96744604039492
 20
5.064237548769419
 30
0.0
  0
SPLINE
  5
485
330
1F
100
AcDbEntity
  8
외형선
  6
Continuous
 62
     1
370
    15
100
AcDbSpline
210
0.0
220
0.0
230
1.0
 70
     8
 71
     3
 72
     8
 73
     4
 74
     0
 42
0.000000001
 43
0.00000001
 40
0.0
 40
0.0
 40
0.0
 40
0.0
 40
1.0
 40
1.0
 40
1.0
 40
1.0
 10
33.99045793600942
 20
4.460384128925916
 30
0.0
 10
33.72042752860588
 20
4.651929054475622
 30
0.0
 10
33.45047135067624
 20
4.831387426920393
 30
0.0
 10
33.18382108598436
 20
4.996760793115395
 30
0.0
  0
SPLINE
  5
486
330
1F
100
AcDbEntity
  8
외형선
  6
Continuous
 62
     1
370
    15
100
AcDbSpline
210
0.0
220
0.0
230
1.0
 70
     8
 71
     3
 72
    14
 73
    10
 74
     0
 42
0.000000001
 43
0.00000001
 40
0.0
 40
0.0
 40
0.0
 40
0.0
 40
0.0000771803178637
 40
0.0000771803178637
 40
0.0000771803178637
 40
0.0001591068977165
 40
0.0001591068977165
 40
0.0001591068977165
 40
0.0002431999810359
 40
0.0002431999810359
 40
0.0002431999810359
 40
0.0002431999810359
 10
34.20710205479935
 20
4.247949725249256
 30
0.0
 10
34.18650531325977
 20
4.27506018450559
 30
0.0
 10
34.16468725129442
 20
4.300979979124846
 30
0.0
 10
34.14223156380137
 20
4.325347714527388
 30
0.0
 10
34.1183939536473
 20
4.351215039989781
 30
0.0
 10
34.09366710968092
 20
4.375520020080407
 30
0.0
 10
34.06855561634015
 20
4.397898624587177
 30
0.0
 10
34.04278091569516
 20
4.420868259414809
 30
0.0
 10
34.0164272139441
 20
4.441964379059143
 30
0.0
 10
33.98995422321133
 20
4.460741421562758
 30
0.0
  0
SPLINE
  5
487
330
1F
100
AcDbEntity
  8
외형선
  6
Continuous
 62
     1
370
    15
100
AcDbSpline
210
0.0
220
0.0
230
1.0
 70
     8
 71
     3
 72
    10
 73
     6
 74
     0
 42
0.000000001
 43
0.00000001
 40
0.0
 40
0.0
 40
0.0
 40
0.0
 40
0.5
 40
0.5
 40
1.0
 40
1.0
 40
1.0
 40
1.0
 10
35.07244219298424
 20
3.579223444723751
 30
0.0
 10
34.93377964809305
 20
3.618903059355076
 30
0.0
 10
34.77718862499216
 20
3.708811805888195
 30
0.0
 10
34.47914287333924
 20
3.938565099255537
 30
0.0
 10
34.33361722981131
 20
4.081424137165818
 30
0.0
 10
34.20710205479935
 20
4.247949725249227
 30
0.0
  0
SPLINE
  5
488
330
1F
100
AcDbEntity
  8
외형선
  6
Continuous
 62
     1
370
    15
100
AcDbSpline
210
0.0
220
0.0
230
1.0
 70
     8
 71
     3
 72
    14
 73
    10
 74
     0
 42
0.000000001
 43
0.00000001
 40
0.0
 40
0.0
 40
0.0
 40
0.0
 40
0.0000827794072153
 40
0.0000827794072153
 40
0.0000827794072153
 40
0.0001557865667158
 40
0.0001557865667158
 40
0.0001557865667158
 40
0.0002313442461552
 40
0.0002313442461552
 40
0.0002313442461552
 40
0.0002313442461552
 10
35.28805781569612
 20
3.449463434583307
 30
0.0
 10
35.26204402842342
 20
3.471306450446483
 30
0.0
 10
35.2357435207324
 20
3.491486833911444
 30
0.0
 10
35.20962787509106
 20
3.509368066541255
 30
0.0
 10
35.18658884535519
 20
3.525142757924701
 30
0.0
 10
35.16353953085954
 20
3.539233526707853
 30
0.0
 10
35.14093256152934
 20
3.550993169121774
 30
0.0
 10
35.11757076097149
 20
3.563145457944393
 30
0.0
 10
35.094451760214
 20
3.572925196364188
 30
0.0
 10
35.07244219298522
 20
3.579223444723467
 30
0.0
  0
SPLINE
  5
489
330
1F
100
AcDbEntity
  8
외형선
  6
Continuous
 62
     1
370
    15
100
AcDbSpline
210
0.0
220
0.0
230
1.0
 70
     8
 71
     3
 72
     8
 73
     4
 74
     0
 42
0.000000001
 43
0.00000001
 40
0.0
 40
0.0
 40
0.0
 40
0.0
 40
1.0
 40
1.0
 40
1.0
 40
1.0
 10
36.09331633734756
 20
2.749321258938699
 30
0.0
 10
35.82552046975053
 20
2.990117348857058
 30
0.0
 10
35.55663817362229
 20
3.223908316413243
 30
0.0
 10
35.28986616033241
 20
3.447944898736004
 30
0.0
  0
SPLINE
  5
48A
330
1F
100
AcDbEntity
  8
외형선
  6
Continuous
 62
     1
370
    15
100
AcDbSpline
210
0.0
220
0.0
230
1.0
 70
     8
 71
     3
 72
    14
 73
    10
 74
     0
 42
0.000000001
 43
0.00000001
 40
0.0
 40
0.0
 40
0.0
 40
0.0
 40
0.0000774624984094
 40
0.0000774624984094
 40
0.0000774624984094
 40
0.0001593997408489
 40
0.0001593997408489
 40
0.0001593997408489
 40
0.000243493468287
 40
0.000243493468287
 40
0.000243493468287
 40
0.000243493468287
 10
36.31006150153857
 20
2.514161407724528
 30
0.0
 10
36.28940427142328
 20
2.541274043286282
 30
0.0
 10
36.26752261616457
 20
2.568089378377592
 30
0.0
 10
36.24500042891691
 20
2.59412345469817
 30
0.0
 10
36.22117575934304
 20
2.621663109669533
 30
0.0
 10
36.19646438799556
 20
2.64852546461116
 30
0.0
 10
36.17136613788385
 20
2.674238964696815
 30
0.0
 10
36.14560833361014
 20
2.700628187031078
 30
0.0
 10
36.11927014582471
 20
2.725985154791775
 30
0.0
 10
36.09280864485865
 20
2.749777755211656
 30
0.0
  0
SPLINE
  5
48B
330
1F
100
AcDbEntity
  8
외형선
  6
Continuous
 62
     1
370
    15
100
AcDbSpline
210
0.0
220
0.0
230
1.0
 70
     8
 71
     3
 72
    10
 73
     6
 74
     0
 42
0.000000001
 43
0.00000001
 40
0.0
 40
0.0
 40
0.0
 40
0.0
 40
0.5
 40
0.5
 40
1.0
 40
1.0
 40
1.0
 40
1.0
 10
37.17759237154652
 20
1.704904950335409
 30
0.0
 10
37.03821570660135
 20
1.792712876779821
 30
0.0
 10
36.88067983330653
 20
1.915598867366119
 30
0.0
 10
36.58255123376577
 20
2.191788600639524
 30
0.0
 10
36.43684625974265
 20
2.347756283475296
 30
0.0
 10
36.31006150153857
 20
2.514161407724504
 30
0.0
  0
SPLINE
  5
48C
330
1F
100
AcDbEntity
  8
외형선
  6
Continuous
 62
     1
370
    15
100
AcDbSpline
210
0.0
220
0.0
230
1.0
 70
     8
 71
     3
 72
    14
 73
    10
 74
     0
 42
0.000000001
 43
0.00000001
 40
0.0
 40
0.0
 40
0.0
 40
0.0
 40
0.0000830504317212
 40
0.0000830504317212
 40
0.0000830504317212
 40
0.0001560965660686
 40
0.0001560965660686
 40
0.0001560965660686
 40
0.0002316868328412
 40
0.0002316868328412
 40
0.0002316868328412
 40
0.0002316868328412
 10
37.39391824807521
 20
1.526102384968643
 30
0.0
 10
37.36778290136904
 20
1.551403514434885
 30
0.0
 10
37.34135601636568
 20
1.575906683706639
 30
0.0
 10
37.31511153283029
 20
1.598951407126965
 30
0.0
 10
37.29202174501842
 20
1.619226059254953
 30
0.0
 10
37.26891911509708
 20
1.638506964899261
 30
0.0
 10
37.24625618442407
 20
1.656140808085998
 30
0.0
 10
37.22283894282566
 20
1.674361574507185
 30
0.0
 10
37.19966152630826
 20
1.691001283471384
 30
0.0
 10
37.17759237154755
 20
1.704904950334769
 30
0.0
  0
SPLINE
  5
48D
330
1F
100
AcDbEntity
  8
외형선
  6
Continuous
 62
     1
370
    15
100
AcDbSpline
210
0.0
220
0.0
230
1.0
 70
     8
 71
     3
 72
     8
 73
     4
 74
     0
 42
0.000000001
 43
0.00000001
 40
0.0
 40
0.0
 40
0.0
 40
0.0
 40
1.0
 40
1.0
 40
1.0
 40
1.0
 10
38.2004937859781
 20
0.7348971589772875
 30
0.0
 10
37.9328309350517
 20
1.000913524641736
 30
0.0
 10
37.66289443002557
 20
1.265711685718505
 30
0.0
 10
37.39391825304196
 20
1.526102380161295
 30
0.0
  0
SPLINE
  5
48E
330
1F
100
AcDbEntity
  8
외형선
  6
Continuous
 62
     1
370
    15
100
AcDbSpline
210
0.0
220
0.0
230
1.0
 70
     8
 71
     3
 72
    14
 73
    10
 74
     0
 42
0.000000001
 43
0.00000001
 40
0.0
 40
0.0
 40
0.0
 40
0.0
 40
0.0000777933285381
 40
0.0000777933285381
 40
0.0000777933285381
 40
0.0001599066355668
 40
0.0001599066355668
 40
0.0001599066355668
 40
0.0002441677400592
 40
0.0002441677400592
 40
0.0002441677400592
 40
0.0002441677400592
 10
38.41797852417989
 20
0.5013664493108978
 30
0.0
 10
38.39726725163868
 20
0.5255749396126008
 30
0.0
 10
38.37532883251083
 20
0.5504219188919821
 30
0.0
 10
38.35274825168318
 20
0.575350788678695
 30
0.0
 10
38.32891189482206
 20
0.6016660301206587
 30
0.0
 10
38.30419050128862
 20
0.6282592529067914
 30
0.0
 10
38.27908055951667
 20
0.654603331456383
 30
0.0
 10
38.25331479440419
 20
0.6816354666233524
 30
0.0
 10
38.22696797604999
 20
0.7085858206585103
 30
0.0
 10
38.20049378273835
 20
0.7348971621971332
 30
0.0
  0
SPLINE
  5
48F
330
1F
100
AcDbEntity
  8
외형선
  6
Continuous
 62
     1
370
    15
100
AcDbSpline
210
0.0
220
0.0
230
1.0
 70
     8
 71
     3
 72
    10
 73
     6
 74
     0
 42
0.000000001
 43
0.00000001
 40
0.0
 40
0.0
 40
0.0
 40
0.0
 40
0.5
 40
0.5
 40
1.0
 40
1.0
 40
1.0
 40
1.0
 10
39.28481756897584
 20
-0.3562351499883176
 30
0.0
 10
39.14555393635736
 20
-0.2302256073370641
 30
0.0
 10
38.98792639939616
 20
-0.0882953168039178
 30
0.0
 10
38.68940836722317
 20
0.2017451201599316
 30
0.0
 10
38.54438545902553
 20
0.3536149748328841
 30
0.0
 10
38.41797852417993
 20
0.5013664493108978
 30
0.0
  0
SPLINE
  5
490
330
1F
100
AcDbEntity
  8
외형선
  6
Continuous
 62
     1
370
    15
100
AcDbSpline
210
0.0
220
0.0
230
1.0
 70
     8
 71
     3
 72
    10
 73
     6
 74
     0
 42
0.000000001
 43
0.00000001
 40
0.0
 40
0.0
 40
0.0
 40
0.0
 40
0.5
 40
0.5
 40
1.0
 40
1.0
 40
1.0
 40
1.0
 10
21.38514379287004
 20
-2.325406112612252
 30
0.0
 10
21.24609815365747
 20
-2.175250283927521
 30
0.0
 10
21.08867898453554
 20
-2.02950988229713
 30
0.0
 10
20.79026663211244
 20
-1.756299013795295
 30
0.0
 10
20.64503841634741
 20
-1.625327606673319
 30
0.0
 10
20.51894550095512
 20
-1.511527438340653
 30
0.0
  0
SPLINE
  5
491
330
1F
100
AcDbEntity
  8
외형선
  6
Continuous
 62
     1
370
    15
100
AcDbSpline
210
0.0
220
0.0
230
1.0
 70
     8
 71
     3
 72
    12
 73
     8
 74
     0
 42
0.000000001
 43
0.00000001
 40
0.0
 40
0.0
 40
0.0
 40
0.0
 40
0.2500000000000001
 40
0.2500000000000001
 40
0.5000000000000001
 40
0.5000000000000001
 40
1.0
 40
1.0
 40
1.0
 40
1.0
 10
21.38514379287004
 20
-2.325406112612366
 30
0.0
 10
21.37234217051318
 20
-2.092731654028564
 30
0.0
 10
21.3597598555748
 20
-1.855818526754279
 30
0.0
 10
21.33527880550571
 20
-1.378850626109585
 30
0.0
 10
21.32364601540349
 20
-1.140588791441263
 30
0.0
 10
21.28795362049489
 20
-0.4145516600783123
 30
0.0
 10
21.26257101970532
 20
0.0883587027719885
 30
0.0
 10
21.23658088285783
 20
0.5896066835161706
 30
0.0
  0
SPLINE
  5
492
330
1F
100
AcDbEntity
  8
외형선
  6
Continuous
 62
     1
370
    15
100
AcDbSpline
210
0.0
220
0.0
230
1.0
 70
     8
 71
     3
 72
     9
 73
     5
 74
     0
 42
0.000000001
 43
0.00000001
 40
0.0
 40
0.0
 40
0.0
 40
0.0
 40
0.8530114299624526
 40
1.0
 40
1.0
 40
1.0
 40
1.0
 10
25.10597702646254
 20
-5.46389631927013
 30
0.0
 10
25.18384363949633
 20
-5.384530379002338
 30
0.0
 10
25.27512801189593
 20
-5.2914883194472
 30
0.0
 10
25.36979921773144
 20
-5.242270107853012
 30
0.0
 10
25.38371480290094
 20
-5.235035593310992
 30
0.0
  0
SPLINE
  5
493
330
1F
100
AcDbEntity
  8
외형선
  6
Continuous
 62
     1
370
    15
100
AcDbSpline
210
0.0
220
0.0
230
1.0
 70
     8
 71
     3
 72
    14
 73
    10
 74
     0
 42
0.000000001
 43
0.00000001
 40
0.0
 40
0.0
 40
0.0
 40
0.0
 40
0.0000829214104977
 40
0.0000829214104977
 40
0.0000829214104977
 40
0.0001559360992371
 40
0.0001559360992371
 40
0.0001559360992371
 40
0.0002315020119649
 40
0.0002315020119649
 40
0.0002315020119649
 40
0.0002315020119649
 10
24.88968513550043
 20
-5.623697820431398
 30
0.0
 10
24.9157887104965
 20
-5.611615927930781
 30
0.0
 10
24.94218701888549
 20
-5.596996490334983
 30
0.0
 10
24.96840665212784
 20
-5.579949514184231
 30
0.0
 10
24.9915003148825
 20
-5.56493492131889
 30
0.0
 10
25.01460972272429
 20
-5.547936627349823
 30
0.0
 10
25.03728052810937
 20
-5.529024037536639
 30
0.0
 10
25.06070828920855
 20
-5.509479975101111
 30
0.0
 10
25.08389811898133
 20
-5.487695494872379
 30
0.0
 10
25.10597748542456
 20
-5.46389612091536
 30
0.0
  0
SPLINE
  5
494
330
1F
100
AcDbEntity
  8
외형선
  6
Continuous
 62
     1
370
    15
100
AcDbSpline
210
0.0
220
0.0
230
1.0
 70
     8
 71
     3
 72
     8
 73
     4
 74
     0
 42
0.000000001
 43
0.00000001
 40
0.0
 40
0.0
 40
0.0
 40
0.0
 40
1.0
 40
1.0
 40
1.0
 40
1.0
 10
24.88968513566551
 20
-5.62369782035375
 30
0.0
 10
24.61948722593678
 20
-5.748757399353617
 30
0.0
 10
24.34949804913414
 20
-5.858550824031094
 30
0.0
 10
24.0829498744842
 20
-5.951967602065959
 30
0.0
  0
SPLINE
  5
495
330
1F
100
AcDbEntity
  8
외형선
  6
Continuous
 62
     1
370
    15
100
AcDbSpline
210
0.0
220
0.0
230
1.0
 70
     8
 71
     3
 72
    14
 73
    10
 74
     0
 42
0.000000001
 43
0.00000001
 40
0.0
 40
0.0
 40
0.0
 40
0.0
 40
0.0000775198821982
 40
0.0000775198821982
 40
0.0000775198821982
 40
0.0001598392384471
 40
0.0001598392384471
 40
0.0001598392384471
 40
0.0002443182005128
 40
0.0002443182005128
 40
0.0002443182005128
 40
0.0002443182005128
 10
23.86617150233804
 20
-5.960351374293363
 30
0.0
 10
23.8868100780565
 20
-5.967642518889799
 30
0.0
 10
23.90866249466795
 20
-5.972089332258315
 30
0.0
 10
23.93114000104751
 20
-5.973944422933779
 30
0.0
 10
23.95501039343899
 20
-5.975914469859698
 30
0.0
 10
23.97975634884333
 20
-5.974978401459548
 30
0.0
 10
24.00487226089399
 20
-5.971355922452767
 30
0.0
 10
24.03064655448327
 20
-5.967638484788007
 30
0.0
 10
24.05698190353938
 20
-5.961070444219128
 30
0.0
 10
24.08345626411439
 20
-5.951790110201013
 30
0.0
  0
SPLINE
  5
496
330
1F
100
AcDbEntity
  8
외형선
  6
Continuous
 62
     1
370
    15
100
AcDbSpline
210
0.0
220
0.0
230
1.0
 70
     8
 71
     3
 72
    10
 73
     6
 74
     0
 42
0.000000001
 43
0.00000001
 40
0.0
 40
0.0
 40
0.0
 40
0.0
 40
0.5
 40
0.5
 40
1.0
 40
1.0
 40
1.0
 40
1.0
 10
23.00077471573765
 20
-6.173117967578203
 30
0.0
 10
23.1396024902212
 20
-6.048556957899417
 30
0.0
 10
23.29688765540864
 20
-5.979586159136526
 30
0.0
 10
23.59504028427999
 20
-5.913834166497405
 30
0.0
 10
23.74012688417305
 20
-5.915822645703453
 30
0.0
 10
23.86617150233787
 20
-5.960351374293221
 30
0.0
  0
SPLINE
  5
497
330
1F
100
AcDbEntity
  8
외형선
  6
Continuous
 62
     1
370
    15
100
AcDbSpline
210
0.0
220
0.0
230
1.0
 70
     8
 71
     3
 72
    14
 73
    10
 74
     0
 42
0.000000001
 43
0.00000001
 40
0.0
 40
0.0
 40
0.0
 40
0.0
 40
0.0000824051285108
 40
0.0000824051285108
 40
0.0000824051285108
 40
0.0001553131775159
 40
0.0001553131775159
 40
0.0001553131775159
 40
0.0002307930382258
 40
0.0002307930382258
 40
0.0002307930382258
 40
0.0002307930382258
 10
22.78525136633946
 20
-6.277084956715693
 30
0.0
 10
22.81117436654823
 20
-6.273175524078378
 30
0.0
 10
22.83739370685553
 20
-6.266417648327528
 30
0.0
 10
22.86343937276446
 20
-6.256701525739909
 30
0.0
 10
22.88648904496791
 20
-6.248103034093897
 30
0.0
 10
22.90955786224059
 20
-6.237129554647335
 30
0.0
 10
22.93218738191966
 20
-6.223633170452639
 30
0.0
 10
22.95557980512544
 20
-6.20968178592005
 30
0.0
 10
22.97873494841688
 20
-6.192892797800577
 30
0.0
 10
23.00077471573765
 20
-6.173117967578231
 30
0.0
  0
SPLINE
  5
498
330
1F
100
AcDbEntity
  8
외형선
  6
Continuous
 62
     1
370
    15
100
AcDbSpline
210
0.0
220
0.0
230
1.0
 70
     8
 71
     3
 72
     8
 73
     4
 74
     0
 42
0.000000001
 43
0.00000001
 40
0.0
 40
0.0
 40
0.0
 40
0.0
 40
1.0
 40
1.0
 40
1.0
 40
1.0
 10
22.78575691924216
 20
-6.277008694920734
 30
0.0
 10
22.51533868875945
 20
-6.317811336373121
 30
0.0
 10
22.24871589229054
 20
-6.341474930719623
 30
0.0
 10
21.97995860140844
 20
-6.348086446556148
 30
0.0
  0
SPLINE
  5
499
330
1F
100
AcDbEntity
  8
외형선
  6
Continuous
 62
     1
370
    15
100
AcDbSpline
210
0.0
220
0.0
230
1.0
 70
     8
 71
     3
 72
    14
 73
    10
 74
     0
 42
0.000000001
 43
0.00000001
 40
0.0
 40
0.0
 40
0.0
 40
0.0
 40
0.0000773716945668
 40
0.0000773716945668
 40
0.0000773716945668
 40
0.0001594667864407
 40
0.0001594667864407
 40
0.0001594667864407
 40
0.0002437234058219
 40
0.0002437234058219
 40
0.0002437234058219
 40
0.0002437234058219
 10
21.76322182289762
 20
-6.278486039332388
 30
0.0
 10
21.78385756164164
 20
-6.294025219885778
 30
0.0
 10
21.80571026067151
 20
-6.30687456014696
 30
0.0
 10
21.82819317312633
 20
-6.317102970791804
 30
0.0
 10
21.85204979858827
 20
-6.32795634053718
 30
0.0
 10
21.87678658697383
 20
-6.335938894700145
 30
0.0
 10
21.9018986579525
 20
-6.34109216028332
 30
0.0
 10
21.92767121845541
 20
-6.346380965381992
 30
0.0
 10
21.95401204433331
 20
-6.348726837458964
 30
0.0
 10
21.98046359965651
 20
-6.348074003225658
 30
0.0
  0
SPLINE
  5
49A
330
1F
100
AcDbEntity
  8
외형선
  6
Continuous
 62
     1
370
    15
100
AcDbSpline
210
0.0
220
0.0
230
1.0
 70
     8
 71
     3
 72
    10
 73
     6
 74
     0
 42
0.000000001
 43
0.00000001
 40
0.0
 40
0.0
 40
0.0
 40
0.0
 40
0.2853505746322941
 40
0.717416989181348
 40
0.9999999999999999
 40
0.9999999999999999
 40
0.9999999999999999
 40
0.9999999999999999
 10
20.89602149311699
 20
-6.210676083962123
 30
0.0
 10
20.97375033884648
 20
-6.176196846903049
 30
0.0
 10
21.16917309048324
 20
-6.089510529652524
 30
0.0
 10
21.46666263180169
 20
-6.111622752315664
 30
0.0
 10
21.64602590813479
 20
-6.214679189999681
 30
0.0
 10
21.71694881502785
 20
-6.255429238080974
 30
0.0
  0
SPLINE
  5
49B
330
1F
100
AcDbEntity
  8
외형선
  6
Continuous
 62
     1
370
    15
100
AcDbSpline
210
0.0
220
0.0
230
1.0
 70
     8
 71
     3
 72
    14
 73
    10
 74
     0
 42
0.000000001
 43
0.00000001
 40
0.0
 40
0.0
 40
0.0
 40
0.0
 40
0.0000832444233647
 40
0.0000832444233647
 40
0.0000832444233647
 40
0.0001563038117358
 40
0.0001563038117358
 40
0.0001563038117358
 40
0.0002319137414355
 40
0.0002319137414355
 40
0.0002319137414355
 40
0.0002319137414355
 10
20.67968055600899
 20
-6.247544780685398
 30
0.0
 10
20.70582157026771
 20
-6.252228906912332
 30
0.0
 10
20.7322655988228
 20
-6.25401501943585
 30
0.0
 10
20.75853894189568
 20
-6.252580352586844
 30
0.0
 10
20.78160452307833
 20
-6.251320846912814
 30
0.0
 10
20.80469231130131
 20
-6.247570332785595
 30
0.0
 10
20.8273489524532
 20
-6.240975072583592
 30
0.0
 10
20.85076121353638
 20
-6.234159854355705
 30
0.0
 10
20.87394340148112
 20
-6.22423533733281
 30
0.0
 10
20.89602135154344
 20
-6.210675950613147
 30
0.0
  0
SPLINE
  5
49C
330
1F
100
AcDbEntity
  8
외형선
  6
Continuous
 62
     1
370
    15
100
AcDbSpline
210
0.0
220
0.0
230
1.0
 70
     8
 71
     3
 72
     8
 73
     4
 74
     0
 42
0.000000001
 43
0.00000001
 40
0.0
 40
0.0
 40
0.0
 40
0.0
 40
1.0
 40
1.0
 40
1.0
 40
1.0
 10
20.67968807869734
 20
-6.247546128646303
 30
0.0
 10
20.41028935772951
 20
-6.199273738791699
 30
0.0
 10
20.14356813509344
 20
-6.134310771615087
 30
0.0
 10
19.87286963155723
 20
-6.052570623778787
 30
0.0
  0
SPLINE
  5
49D
330
1F
100
AcDbEntity
  8
외형선
  6
Continuous
 62
     1
370
    15
100
AcDbSpline
210
0.0
220
0.0
230
1.0
 70
     8
 71
     3
 72
    14
 73
    10
 74
     0
 42
0.000000001
 43
0.00000001
 40
0.0
 40
0.0
 40
0.0
 40
0.0
 40
0.0000773288887893
 40
0.0000773288887893
 40
0.0000773288887893
 40
0.000159379621328
 40
0.000159379621328
 40
0.000159379621328
 40
0.0002435927059399
 40
0.0002435927059399
 40
0.0002435927059399
 40
0.0002435927059399
 10
19.65541723127354
 20
-5.912794447499745
 30
0.0
 10
19.67606309761409
 20
-5.934865409640874
 30
0.0
 10
19.6979290897673
 20
-5.954684975196268
 30
0.0
 10
19.72042895655951
 20
-5.97213570069007
 30
0.0
 10
19.74430385003035
 20
-5.990652886413979
 30
0.0
 10
19.76906321917494
 20
-6.006637543790627
 30
0.0
 10
19.79420204970117
 20
-6.019953957170169
 30
0.0
 10
19.82000264316406
 20
-6.033620916244909
 30
0.0
 10
19.84637627524785
 20
-6.044570667116584
 30
0.0
 10
19.87286446814072
 20
-6.052569064632546
 30
0.0
  0
SPLINE
  5
49E
330
1F
100
AcDbEntity
  8
외형선
  6
Continuous
 62
     1
370
    15
100
AcDbSpline
210
0.0
220
0.0
230
1.0
 70
     8
 71
     3
 72
    10
 73
     6
 74
     0
 42
0.000000001
 43
0.00000001
 40
0.0
 40
0.0
 40
0.0
 40
0.0
 40
0.5
 40
0.5
 40
1.0
 40
1.0
 40
1.0
 40
1.0
 10
18.78859398791495
 20
-5.570955917268601
 30
0.0
 10
18.92734228880314
 20
-5.534216668454671
 30
0.0
 10
19.08456645381476
 20
-5.559065377153256
 30
0.0
 10
19.38319738190576
 20
-5.680127691543386
 30
0.0
 10
19.52883752385145
 20
-5.77747748456522
 30
0.0
 10
19.65541723127351
 20
-5.912794447499716
 30
0.0
  0
SPLINE
  5
49F
330
1F
100
AcDbEntity
  8
외형선
  6
Continuous
 62
     1
370
    15
100
AcDbSpline
210
0.0
220
0.0
230
1.0
 70
     8
 71
     3
 72
    14
 73
    10
 74
     0
 42
0.000000001
 43
0.00000001
 40
0.0
 40
0.0
 40
0.0
 40
0.0
 40
0.0000833576960496
 40
0.0000833576960496
 40
0.0000833576960496
 40
0.0001564421428196
 40
0.0001564421428196
 40
0.0001564421428196
 40
0.0002320761972514
 40
0.0002320761972514
 40
0.0002320761972514
 40
0.0002320761972514
 10
18.57260693660755
 20
-5.536040523863615
 30
0.0
 10
18.59871967130028
 20
-5.548913571355452
 30
0.0
 10
18.62512107240105
 20
-5.559186758896
 30
0.0
 10
18.65136386958578
 20
-5.566350357109708
 30
0.0
 10
18.67437933446591
 20
-5.572632977896727
 30
0.0
 10
18.69742058026199
 20
-5.576567839833412
 30
0.0
 10
18.72003569079419
 20
-5.577637026112849
 30
0.0
 10
18.74340447505068
 20
-5.578741844214828
 30
0.0
 10
18.76654803928419
 20
-5.576793477706455
 30
0.0
 10
18.78859398791495
 20
-5.570955917268601
 30
0.0
  0
SPLINE
  5
4A0
330
1F
100
AcDbEntity
  8
외형선
  6
Continuous
 62
     1
370
    15
100
AcDbSpline
210
0.0
220
0.0
230
1.0
 70
     8
 71
     3
 72
     8
 73
     4
 74
     0
 42
0.000000001
 43
0.00000001
 40
0.0
 40
0.0
 40
0.0
 40
0.0
 40
1.0
 40
1.0
 40
1.0
 40
1.0
 10
18.57260693736052
 20
-5.536040524233411
 30
0.0
 10
18.30690009538484
 20
-5.405052451355057
 30
0.0
 10
18.03764030874141
 20
-5.258695881797276
 30
0.0
 10
17.76803326896244
 20
-5.09851715275624
 30
0.0
  0
SPLINE
  5
4A1
330
1F
100
AcDbEntity
  8
외형선
  6
Continuous
 62
     1
370
    15
100
AcDbSpline
210
0.0
220
0.0
230
1.0
 70
     8
 71
     3
 72
    14
 73
    10
 74
     0
 42
0.000000001
 43
0.00000001
 40
0.0
 40
0.0
 40
0.0
 40
0.0
 40
0.0000770625017707
 40
0.0000770625017707
 40
0.0000770625017707
 40
0.0001588495138866
 40
0.0001588495138866
 40
0.0001588495138866
 40
0.0002428052135024
 40
0.0002428052135024
 40
0.0002428052135024
 40
0.0002428052135024
 10
17.55175923097176
 20
-4.904722129667273
 30
0.0
 10
17.57232058232897
 20
-4.930843663766804
 30
0.0
 10
17.59410160708805
 20
-4.955401932631996
 30
0.0
 10
17.61652014921956
 20
-4.978103936957399
 30
0.0
 10
17.64031402837643
 20
-5.002198668201284
 30
0.0
 10
17.66499655620995
 20
-5.024376725137709
 30
0.0
 10
17.69006362934318
 20
-5.044336120023497
 30
0.0
 10
17.71579441330652
 20
-5.064823987718067
 30
0.0
 10
17.74210432037546
 20
-5.083113892014917
 30
0.0
 10
17.76853274715446
 20
-5.098813886844584
 30
0.0
  0
SPLINE
  5
4A2
330
1F
100
AcDbEntity
  8
외형선
  6
Continuous
 62
     1
370
    15
100
AcDbSpline
210
0.0
220
0.0
230
1.0
 70
     8
 71
     3
 72
    10
 73
     6
 74
     0
 42
0.000000001
 43
0.00000001
 40
0.0
 40
0.0
 40
0.0
 40
0.0
 40
0.5
 40
0.5
 40
1.0
 40
1.0
 40
1.0
 40
1.0
 10
16.68552373283957
 20
-4.325334558343786
 30
0.0
 10
16.82428073908568
 20
-4.341326510556651
 30
0.0
 10
16.98106469179129
 20
-4.412247627354064
 30
0.0
 10
17.27947021489576
 20
-4.612266549352387
 30
0.0
 10
17.42517619761805
 20
-4.74390862258161
 30
0.0
 10
17.55175923097159
 20
-4.904722129667159
 30
0.0
  0
SPLINE
  5
4A3
330
1F
100
AcDbEntity
  8
외형선
  6
Continuous
 62
     1
370
    15
100
AcDbSpline
210
0.0
220
0.0
230
1.0
 70
     8
 71
     3
 72
    14
 73
    10
 74
     0
 42
0.000000001
 43
0.00000001
 40
0.0
 40
0.0
 40
0.0
 40
0.0
 40
0.0000833139606638
 40
0.0000833139606638
 40
0.0000833139606638
 40
0.0001564267661217
 40
0.0001564267661217
 40
0.0001564267661217
 40
0.0002320720979597
 40
0.0002320720979597
 40
0.0002320720979597
 40
0.0002320720979597
 10
16.46930703266962
 20
-4.222828287615033
 30
0.0
 10
16.49547663050548
 20
-4.242392681182753
 30
0.0
 10
16.52193389642514
 20
-4.259935275903298
 30
0.0
 10
16.54820450611993
 20
-4.274848086951176
 30
0.0
 10
16.57126558187077
 20
-4.287938969470811
 30
0.0
 10
16.59433611284927
 20
-4.299090292386206
 30
0.0
 10
16.61696713922487
 20
-4.307684056863951
 30
0.0
 10
16.64034735011218
 20
-4.316562311984636
 30
0.0
 10
16.66348655818686
 20
-4.322794741046162
 30
0.0
 10
16.68552373283704
 20
-4.325334558338635
 30
0.0
  0
SPLINE
  5
4A4
330
1F
100
AcDbEntity
  8
외형선
  6
Continuous
 62
     1
370
    15
100
AcDbSpline
210
0.0
220
0.0
230
1.0
 70
     8
 71
     3
 72
     8
 73
     4
 74
     0
 42
0.000000001
 43
0.00000001
 40
0.0
 40
0.0
 40
0.0
 40
0.0
 40
1.0
 40
1.0
 40
1.0
 40
1.0
 10
16.46930710904367
 20
-4.222828344711092
 30
0.0
 10
16.20169302867926
 20
-4.022760037388809
 30
0.0
 10
15.93167739656124
 20
-3.810776414729712
 30
0.0
 10
15.66249679609119
 20
-3.589360023026461
 30
0.0
  0
SPLINE
  5
4A5
330
1F
100
AcDbEntity
  8
외형선
  6
Continuous
 62
     1
370
    15
100
AcDbSpline
210
0.0
220
0.0
230
1.0
 70
     8
 71
     3
 72
    14
 73
    10
 74
     0
 42
0.000000001
 43
0.00000001
 40
0.0
 40
0.0
 40
0.0
 40
0.0
 40
0.0000775293779657
 40
0.0000775293779657
 40
0.0000775293779657
 40
0.0001595397318316
 40
0.0001595397318316
 40
0.0001595397318316
 40
0.0002437049771751
 40
0.0002437049771751
 40
0.0002437049771751
 40
0.0002437049771751
 10
15.44537644875784
 20
-3.361243480529434
 30
0.0
 10
15.46606303266345
 20
-3.388792682325533
 30
0.0
 10
15.48797467192241
 20
-3.415617460989689
 30
0.0
 10
15.51052617346771
 20
-3.441284288075724
 30
0.0
 10
15.53438259410033
 20
-3.46843629930829
 30
0.0
 10
15.55912516025311
 20
-3.494486924067284
 30
0.0
 10
15.58425351100862
 20
-3.519009435186855
 30
0.0
 10
15.61004120059863
 20
-3.544175388610273
 30
0.0
 10
15.63640800180518
 20
-3.567901478386676
 30
0.0
 10
15.66289719836682
 20
-3.589689369295018
 30
0.0
  0
SPLINE
  5
4A6
330
1F
100
AcDbEntity
  8
외형선
  6
Continuous
 62
     1
370
    15
100
AcDbSpline
210
0.0
220
0.0
230
1.0
 70
     8
 71
     3
 72
    10
 73
     6
 74
     0
 42
0.000000001
 43
0.00000001
 40
0.4229219005335879
 40
0.4229219005335879
 40
0.4229219005335879
 40
0.4229219005335879
 40
0.5
 40
0.5
 40
1.0
 40
1.0
 40
1.0
 40
1.0
 10
14.95399999999998
 20
-2.852382295679919
 30
0.0
 10
14.9772896683073
 20
-2.871297535543451
 30
0.0
 10
15.00048135933983
 20
-2.890770700040785
 30
0.0
 10
15.17266571248048
 20
-3.04011196448189
 30
0.0
 10
15.31849176246513
 20
-3.192265758375828
 30
0.0
 10
15.4453764487577
 20
-3.361243480529406
 30
0.0
  0
SPLINE
  5
4A7
330
1F
100
AcDbEntity
  8
외형선
  6
Continuous
 62
     1
370
    15
100
AcDbSpline
210
0.0
220
0.0
230
1.0
 70
     8
 71
     3
 72
     8
 73
     4
 74
     0
 42
0.000000001
 43
0.00000001
 40
0.0
 40
0.0
 40
0.0
 40
0.0
 40
0.1352064271053191
 40
0.1352064271053191
 40
0.1352064271053191
 40
0.1352064271053191
 10
15.06989006146015
 20
3.62268551549296
 30
0.0
 10
15.03241165396291
 20
3.633089661793639
 30
0.0
 10
14.99361254745233
 20
3.647172777073169
 30
0.0
 10
14.95399999999998
 20
3.664439994534127
 30
0.0
  0
SPLINE
  5
4A8
330
1F
100
AcDbEntity
  8
외형선
  6
Continuous
 62
     1
370
    15
100
AcDbSpline
210
0.0
220
0.0
230
1.0
 70
     8
 71
     3
 72
    14
 73
    10
 74
     0
 42
0.000000001
 43
0.00000001
 40
0.0
 40
0.0
 40
0.0
 40
0.0
 40
0.0000828256445713
 40
0.0000828256445713
 40
0.0000828256445713
 40
0.0001558462428305
 40
0.0001558462428305
 40
0.0001558462428305
 40
0.0002314150580469
 40
0.0002314150580469
 40
0.0002314150580469
 40
0.0002314150580469
 10
15.28548319155803
 20
3.494246785781931
 30
0.0
 10
15.25946452741232
 20
3.515990179345422
 30
0.0
 10
15.23315970774616
 20
3.536050382599551
 30
0.0
 10
15.20704035905463
 20
3.55379197629994
 30
0.0
 10
15.18400662286009
 20
3.569437664628238
 30
0.0
 10
15.16096309454585
 20
3.583384707539472
 30
0.0
 10
15.13836179170753
 20
3.594987202109752
 30
0.0
 10
15.11500662635607
 20
3.606976695862254
 30
0.0
 10
15.09189474584192
 20
3.616576932687685
 30
0.0
 10
15.0698900614603
 20
3.622685515492964
 30
0.0
  0
SPLINE
  5
4A9
330
1F
100
AcDbEntity
  8
외형선
  6
Continuous
 62
     1
370
    15
100
AcDbSpline
210
0.0
220
0.0
230
1.0
 70
     8
 71
     3
 72
     8
 73
     4
 74
     0
 42
0.000000001
 43
0.00000001
 40
0.0
 40
0.0
 40
0.0
 40
0.0
 40
1.0
 40
1.0
 40
1.0
 40
1.0
 10
16.09063937728338
 20
2.797378478918254
 30
0.0
 10
15.82164876235442
 20
3.038184522204705
 30
0.0
 10
15.55177916745027
 20
3.271731704913342
 30
0.0
 10
15.28426205056389
 20
3.495267218688791
 30
0.0
  0
SPLINE
  5
4AA
330
1F
100
AcDbEntity
  8
외형선
  6
Continuous
 62
     1
370
    15
100
AcDbSpline
210
0.0
220
0.0
230
1.0
 70
     8
 71
     3
 72
    14
 73
    10
 74
     0
 42
0.000000001
 43
0.00000001
 40
0.0
 40
0.0
 40
0.0
 40
0.0
 40
0.000077413480568
 40
0.000077413480568
 40
0.000077413480568
 40
0.0001593340411862
 40
0.0001593340411862
 40
0.0001593340411862
 40
0.0002434125401128
 40
0.0002434125401128
 40
0.0002434125401128
 40
0.0002434125401128
 10
16.30736089249936
 20
2.562589019455664
 30
0.0
 10
16.28671240530003
 20
2.589719726151194
 30
0.0
 10
16.26483999103334
 20
2.616529952960795
 30
0.0
 10
16.24232745145595
 20
2.642538639835354
 30
0.0
 10
16.21850282613766
 20
2.67006317644639
 30
0.0
 10
16.19379124650277
 20
2.696886987080464
 30
0.0
 10
16.16869317376547
 20
2.722540528635267
 30
0.0
 10
16.14293496462478
 20
2.748868816686936
 30
0.0
 10
16.11659661548959
 20
2.774141989286224
 30
0.0
 10
16.09013568556113
 20
2.797829384951814
 30
0.0
  0
SPLINE
  5
4AB
330
1F
100
AcDbEntity
  8
외형선
  6
Continuous
 62
     1
370
    15
100
AcDbSpline
210
0.0
220
0.0
230
1.0
 70
     8
 71
     3
 72
    10
 73
     6
 74
     0
 42
0.000000001
 43
0.00000001
 40
0.0
 40
0.0
 40
0.0
 40
0.0
 40
0.5
 40
0.5
 40
1.0
 40
1.0
 40
1.0
 40
1.0
 10
17.17483976542222
 20
1.755863075864856
 30
0.0
 10
17.03550787596729
 20
1.842599808298513
 30
0.0
 10
16.87819157206031
 20
1.964989445549361
 30
0.0
 10
16.57994109138133
 20
2.240191688165571
 30
0.0
 10
16.43416415848013
 20
2.395978159098253
 30
0.0
 10
16.30736089249934
 20
2.56258901945565
 30
0.0
  0
SPLINE
  5
4AC
330
1F
100
AcDbEntity
  8
외형선
  6
Continuous
 62
     1
370
    15
100
AcDbSpline
210
0.0
220
0.0
230
1.0
 70
     8
 71
     3
 72
    14
 73
    10
 74
     0
 42
0.000000001
 43
0.00000001
 40
0.0
 40
0.0
 40
0.0
 40
0.0
 40
0.0000830873879051
 40
0.0000830873879051
 40
0.0000830873879051
 40
0.0001561428193784
 40
0.0001561428193784
 40
0.0001561428193784
 40
0.0002317406358612
 40
0.0002317406358612
 40
0.0002317406358612
 40
0.0002317406358612
 10
17.3911672495424
 20
1.577982035782928
 30
0.0
 10
17.36502487347027
 20
1.603245189904674
 30
0.0
 10
17.33859152424214
 20
1.627686976047113
 30
0.0
 10
17.31234124769918
 20
1.650646209865632
 30
0.0
 10
17.28925364191167
 20
1.670839282449738
 30
0.0
 10
17.26615371840218
 20
1.69002006072891
 30
0.0
 10
17.24349353965586
 20
1.707534736377032
 30
0.0
 10
17.22007974641457
 20
1.725631901404005
 30
0.0
 10
17.19690601260676
 20
1.74212642027688
 30
0.0
 10
17.17483976542232
 20
1.755863075864778
 30
0.0
  0
SPLINE
  5
4AD
330
1F
100
AcDbEntity
  8
외형선
  6
Continuous
 62
     1
370
    15
100
AcDbSpline
210
0.0
220
0.0
230
1.0
 70
     8
 71
     3
 72
     8
 73
     4
 74
     0
 42
0.000000001
 43
0.00000001
 40
0.0
 40
0.0
 40
0.0
 40
0.0
 40
1.0
 40
1.0
 40
1.0
 40
1.0
 10
18.19775613828847
 20
0.7881452848402377
 30
0.0
 10
17.92987343444969
 20
1.053917627271507
 30
0.0
 10
17.65993232704001
 20
1.31825608137108
 30
0.0
 10
17.39116725202402
 20
1.57798203338474
 30
0.0
  0
SPLINE
  5
4AE
330
1F
100
AcDbEntity
  8
외형선
  6
Continuous
 62
     1
370
    15
100
AcDbSpline
210
0.0
220
0.0
230
1.0
 70
     8
 71
     3
 72
    14
 73
    10
 74
     0
 42
0.000000001
 43
0.00000001
 40
0.0
 40
0.0
 40
0.0
 40
0.0
 40
0.0000777388500166
 40
0.0000777388500166
 40
0.0000777388500166
 40
0.0001598305528566
 40
0.0001598305528566
 40
0.0001598305528566
 40
0.0002440715457096
 40
0.0002440715457096
 40
0.0002440715457096
 40
0.0002440715457096
 10
18.41523433432208
 20
0.5544057021531374
 30
0.0
 10
18.39452916201799
 20
0.5786991891952953
 30
0.0
 10
18.37259717601738
 20
0.6036072794698955
 30
0.0
 10
18.35002333240113
 20
0.6285752101436559
 30
0.0
 10
18.32618373153646
 20
0.6549431389642324
 30
0.0
 10
18.30145868763517
 20
0.6815650485665801
 30
0.0
 10
18.27634542973454
 20
0.7079145065080867
 30
0.0
 10
18.25057562702188
 20
0.7349528276779838
 30
0.0
 10
18.22422492215432
 20
0.7618850274874136
 30
0.0
 10
18.19774760606964
 20
0.788153749841702
 30
0.0
  0
SPLINE
  5
4AF
330
1F
100
AcDbEntity
  8
외형선
  6
Continuous
 62
     1
370
    15
100
AcDbSpline
210
0.0
220
0.0
230
1.0
 70
     8
 71
     3
 72
    10
 73
     6
 74
     0
 42
0.000000001
 43
0.00000001
 40
0.0
 40
0.0
 40
0.0
 40
0.0
 40
0.5
 40
0.5
 40
1.0
 40
1.0
 40
1.0
 40
1.0
 10
19.28217205267039
 20
-0.3035318091201402
 30
0.0
 10
19.14287687076748
 20
-0.1782828456556826
 30
0.0
 10
18.98524098550157
 20
-0.0365726348911322
 30
0.0
 10
18.68675631806157
 20
0.2536926583216159
 30
0.0
 10
18.54173104258517
 20
0.405986452222078
 30
0.0
 10
18.41523433432208
 20
0.554405702153173
 30
0.0
  0
SPLINE
  5
4B0
330
1F
100
AcDbEntity
  8
외형선
  6
Continuous
 62
     1
370
    15
100
AcDbSpline
210
0.0
220
0.0
230
1.0
 70
     8
 71
     3
 72
    14
 73
    10
 74
     0
 42
0.000000001
 43
0.00000001
 40
0.0
 40
0.0
 40
0.0
 40
0.0
 40
0.000082870009807
 40
0.000082870009807
 40
0.000082870009807
 40
0.0001558609786838
 40
0.0001558609786838
 40
0.0001558609786838
 40
0.0002314093419859
 40
0.0002314093419859
 40
0.0002314093419859
 40
0.0002314093419859
 10
21.60130301790364
 20
-2.540491050656345
 30
0.0
 10
21.57522868637978
 20
-2.51665089989002
 30
0.0
 10
21.54885688031301
 20
-2.491740069669997
 30
0.0
 10
21.52266036939296
 20
-2.466251438632294
 30
0.0
 10
21.4995803889001
 20
-2.443795123402562
 30
0.0
 10
21.4764820306873
 20
-2.420740013777784
 30
0.0
 10
21.45382070791807
 20
-2.397551768500857
 30
0.0
 10
21.4304007496182
 20
-2.373587247852124
 30
0.0
 10
21.40721658557552
 20
-2.349242591762883
 30
0.0
 10
21.38514379287011
 20
-2.325406112612352
 30
0.0
  0
SPLINE
  5
4B1
330
1F
100
AcDbEntity
  8
외형선
  6
Continuous
 62
     1
370
    15
100
AcDbSpline
210
0.0
220
0.0
230
1.0
 70
     8
 71
     3
 72
    14
 73
    10
 74
     0
 42
0.000000001
 43
0.00000001
 40
0.0
 40
0.0
 40
0.0
 40
0.0
 40
0.000077530490719
 40
0.000077530490719
 40
0.000077530490719
 40
0.0001597516179622
 40
0.0001597516179622
 40
0.0001597516179622
 40
0.000244130241224
 40
0.000244130241224
 40
0.000244130241224
 40
0.000244130241224
 10
22.62548945245044
 20
-3.414387169584269
 30
0.0
 10
22.60480927671584
 20
-3.403460326460158
 30
0.0
 10
22.58291131932839
 20
-3.390336386644168
 30
0.0
 10
22.5603841011349
 20
-3.375527308882549
 30
0.0
 10
22.53649263976977
 20
-3.359821396765208
 30
0.0
 10
22.51172279259491
 20
-3.342109774739622
 30
0.0
 10
22.48657918206755
 20
-3.322867732882986
 30
0.0
 10
22.46077641166324
 20
-3.303121245496238
 30
0.0
 10
22.4344074209111
 20
-3.281631858796241
 30
0.0
 10
22.4079284181515
 20
-3.258838056912867
 30
0.0
  0
SPLINE
  5
4B2
330
1F
100
AcDbEntity
  8
외형선
  6
Continuous
 62
     1
370
    15
100
AcDbSpline
210
0.0
220
0.0
230
1.0
 70
     8
 71
     3
 72
    10
 73
     6
 74
     0
 42
0.000000001
 43
0.00000001
 40
0.0
 40
0.0
 40
0.0
 40
0.0
 40
0.5
 40
0.5
 40
1.0
 40
1.0
 40
1.0
 40
1.0
 10
23.49300775459014
 20
-4.098553858145432
 30
0.0
 10
23.35394105021591
 20
-3.93934375707057
 30
0.0
 10
23.19643073565249
 20
-3.804837457148881
 30
0.0
 10
22.89757944444031
 20
-3.577314891716237
 30
0.0
 10
22.75199406278847
 20
-3.481228769451486
 30
0.0
 10
22.62548945245044
 20
-3.414387169584255
 30
0.0
  0
SPLINE
  5
4B3
330
1F
100
AcDbEntity
  8
외형선
  6
Continuous
 62
     1
370
    15
100
AcDbSpline
210
0.0
220
0.0
230
1.0
 70
     8
 71
     3
 72
    14
 73
    10
 74
     0
 42
0.000000001
 43
0.00000001
 40
0.0
 40
0.0
 40
0.0
 40
0.0
 40
0.0000830825063237
 40
0.0000830825063237
 40
0.0000830825063237
 40
0.000156121737381
 40
0.000156121737381
 40
0.000156121737381
 40
0.0002317145012018
 40
0.0002317145012018
 40
0.0002317145012018
 40
0.0002317145012018
 10
23.70921579063507
 20
-4.298169376845176
 30
0.0
 10
23.68311614847643
 20
-4.278941826710375
 30
0.0
 10
23.6567146681235
 20
-4.25781584874755
 30
0.0
 10
23.63048439322347
 20
-4.235113996241284
 30
0.0
 10
23.60741829519202
 20
-4.215150684480345
 30
0.0
 10
23.58433056070504
 20
-4.193835354517051
 30
0.0
 10
23.56167529246963
 20
-4.171453776185348
 30
0.0
 10
23.53826329491298
 20
-4.148324610299009
 30
0.0
 10
23.51508257394802
 20
-4.123826149144146
 30
0.0
 10
23.49300775459026
 20
-4.09855385814556
 30
0.0
  0
SPLINE
  5
4B4
330
1F
100
AcDbEntity
  8
외형선
  6
Continuous
 62
     1
370
    15
100
AcDbSpline
210
0.0
220
0.0
230
1.0
 70
     8
 71
     3
 72
     8
 73
     4
 74
     0
 42
0.000000001
 43
0.00000001
 40
0.0
 40
0.0
 40
0.0
 40
0.0
 40
1.0
 40
1.0
 40
1.0
 40
1.0
 10
24.51530248747571
 20
-4.856825746990235
 30
0.0
 10
24.2449802746753
 20
-4.682889989861091
 30
0.0
 10
23.97872682532671
 20
-4.496717575317855
 30
0.0
 10
23.70921579068721
 20
-4.298169376883602
 30
0.0
  0
SPLINE
  5
4B5
330
1F
100
AcDbEntity
  8
외형선
  6
Continuous
 62
     1
370
    15
100
AcDbSpline
210
0.0
220
0.0
230
1.0
 70
     8
 71
     3
 72
    14
 73
    10
 74
     0
 42
0.000000001
 43
0.00000001
 40
0.0
 40
0.0
 40
0.0
 40
0.0
 40
0.0000770052271393
 40
0.0000770052271393
 40
0.0000770052271393
 40
0.0001589497293776
 40
0.0001589497293776
 40
0.0001589497293776
 40
0.0002430674586806
 40
0.0002430674586806
 40
0.0002430674586806
 40
0.0002430674586806
 10
24.73168984855426
 20
-4.943875158936744
 30
0.0
 10
24.71114722245875
 20
-4.941864967229132
 30
0.0
 10
24.68938779298862
 20
-4.93721269113114
 30
0.0
 10
24.66699529526305
 20
-4.930317084115056
 30
0.0
 10
24.64316581516596
 20
-4.922978968815836
 30
0.0
 10
24.61844829150619
 20
-4.913050049344174
 30
0.0
 10
24.59335052961456
 20
-4.900897701505374
 30
0.0
 10
24.56758787965039
 20
-4.888423414556361
 30
0.0
 10
24.54125045195395
 20
-4.873523343475727
 30
0.0
 10
24.51479916508761
 20
-4.856501873842308
 30
0.0
  0
SPLINE
  5
4B6
330
1F
100
AcDbEntity
  8
외형선
  6
Continuous
 62
     1
370
    15
100
AcDbSpline
210
0.0
220
0.0
230
1.0
 70
     8
 71
     3
 72
    10
 73
     6
 74
     0
 42
0.000000001
 43
0.00000001
 40
0.0
 40
0.0
 40
0.0
 40
0.0
 40
0.5
 40
0.5
 40
1.0
 40
1.0
 40
1.0
 40
1.0
 10
25.59644225867087
 20
-5.422734547334211
 30
0.0
 10
25.4579969748158
 20
-5.272318080088543
 30
0.0
 10
25.30111208395691
 20
-5.163740652820731
 30
0.0
 10
25.00313555961234
 20
-5.006817763662649
 30
0.0
 10
24.8578709839531
 20
-4.956222571134982
 30
0.0
 10
24.73168984855426
 20
-4.943875158936716
 30
0.0
  0
SPLINE
  5
4B7
330
1F
100
AcDbEntity
  8
외형선
  6
Continuous
 62
     1
370
    15
100
AcDbSpline
210
0.0
220
0.0
230
1.0
 70
     8
 71
     3
 72
    14
 73
    10
 74
     0
 42
0.000000001
 43
0.00000001
 40
0.0
 40
0.0
 40
0.0
 40
0.0
 40
0.0000832420831961
 40
0.0000832420831961
 40
0.0000832420831961
 40
0.0001562974402531
 40
0.0001562974402531
 40
0.0001562974402531
 40
0.0002319085549441
 40
0.0002319085549441
 40
0.0002319085549441
 40
0.0002319085549441
 10
25.8123664313962
 20
-5.584993071018171
 30
0.0
 10
25.78628571612508
 20
-5.572506783007209
 30
0.0
 10
25.75989911543344
 20
-5.55750090954687
 30
0.0
 10
25.73367891424887
 20
-5.540087641613705
 30
0.0
 10
25.71066068695518
 20
-5.524800857336611
 30
0.0
 10
25.68761714577836
 20
-5.507556541792975
 30
0.0
 10
25.66500152867421
 20
-5.488428568439184
 30
0.0
 10
25.64163014990581
 20
-5.468661382416111
 30
0.0
 10
25.61848538196044
 20
-5.446683710786696
 30
0.0
 10
25.59644225867097
 20
-5.422734547334282
 30
0.0
  0
SPLINE
  5
4B8
330
1F
100
AcDbEntity
  8
외형선
  6
Continuous
 62
     1
370
    15
100
AcDbSpline
210
0.0
220
0.0
230
1.0
 70
     8
 71
     3
 72
     8
 73
     4
 74
     0
 42
0.000000001
 43
0.00000001
 40
0.0
 40
0.0
 40
0.0
 40
0.0
 40
1.0
 40
1.0
 40
1.0
 40
1.0
 10
26.61811603581738
 20
-5.922717559423698
 30
0.0
 10
26.3479169383968
 20
-5.825586656493026
 30
0.0
 10
26.07883871834941
 20
-5.712568167225736
 30
0.0
 10
25.81236638920042
 20
-5.584993050816702
 30
0.0
  0
SPLINE
  5
4B9
330
1F
100
AcDbEntity
  8
외형선
  6
Continuous
 62
     1
370
    15
100
AcDbSpline
210
0.0
220
0.0
230
1.0
 70
     8
 71
     3
 72
    14
 73
    10
 74
     0
 42
0.000000001
 43
0.00000001
 40
0.0
 40
0.0
 40
0.0
 40
0.0
 40
0.0000773498252425
 40
0.0000773498252425
 40
0.0000773498252425
 40
0.0001593164299349
 40
0.0001593164299349
 40
0.0001593164299349
 40
0.0002434434035842
 40
0.0002434434035842
 40
0.0002434434035842
 40
0.0002434434035842
 10
26.83551520118602
 20
-5.933787521022334
 30
0.0
 10
26.81486164926497
 20
-5.940762113157997
 30
0.0
 10
26.79298600884905
 20
-5.944908270833801
 30
0.0
 10
26.77047353656394
 20
-5.946476998892346
 30
0.0
 10
26.74661611284246
 20
-5.948139446691168
 30
0.0
 10
26.7218730203401
 20
-5.946921717855356
 30
0.0
 10
26.69674738883885
 20
-5.943039056311004
 30
0.0
 10
26.67096040219252
 20
-5.939054195616388
 30
0.0
 10
26.64459717688382
 20
-5.932236973287043
 30
0.0
 10
26.61811613894747
 20
-5.922717596496848
 30
0.0
  0
SPLINE
  5
4BA
330
1F
100
AcDbEntity
  8
외형선
  6
Continuous
 62
     1
370
    15
100
AcDbSpline
210
0.0
220
0.0
230
1.0
 70
     8
 71
     3
 72
    10
 73
     6
 74
     0
 42
0.000000001
 43
0.00000001
 40
0.0
 40
0.0
 40
0.0
 40
0.0
 40
0.5
 40
0.5
 40
1.0
 40
1.0
 40
1.0
 40
1.0
 10
27.70326833436679
 20
-6.1582489415249
 30
0.0
 10
27.5643494441535
 20
-6.032521564022782
 30
0.0
 10
27.40720940468553
 20
-5.961527861548201
 30
0.0
 10
27.10829979936043
 20
-5.891342352536166
 30
0.0
 10
26.96236619867259
 20
-5.890950629196023
 30
0.0
 10
26.83551520118602
 20
-5.933787521022334
 30
0.0
  0
SPLINE
  5
4BB
330
1F
100
AcDbEntity
  8
외형선
  6
Continuous
 62
     1
370
    15
100
AcDbSpline
210
0.0
220
0.0
230
1.0
 70
     8
 71
     3
 72
    14
 73
    10
 74
     0
 42
0.000000001
 43
0.00000001
 40
0.0
 40
0.0
 40
0.0
 40
0.0
 40
0.0000835018592247
 40
0.0000835018592247
 40
0.0000835018592247
 40
0.0001566597582484
 40
0.0001566597582484
 40
0.0001566597582484
 40
0.0002323428070469
 40
0.0002323428070469
 40
0.0002323428070469
 40
0.0002323428070469
 10
27.91966068513966
 20
-6.264933087513849
 30
0.0
 10
27.89344180334423
 20
-6.26064827819945
 30
0.0
 10
27.86693526228413
 20
-6.253474307795382
 30
0.0
 10
27.84061624842805
 20
-6.243314344530044
 30
0.0
 10
27.81755019167776
 20
-6.234410124541394
 30
0.0
 10
27.79447521807556
 20
-6.223153312824574
 30
0.0
 10
27.77183868062953
 20
-6.209404797458059
 30
0.0
 10
27.74845540494107
 20
-6.195202743549028
 30
0.0
 10
27.72531256589832
 20
-6.178199888550561
 30
0.0
 10
27.70326833436684
 20
-6.158248941525012
 30
0.0
  0
SPLINE
  5
4BC
330
1F
100
AcDbEntity
  8
외형선
  6
Continuous
 62
     1
370
    15
100
AcDbSpline
210
0.0
220
0.0
230
1.0
 70
     8
 71
     3
 72
     8
 73
     4
 74
     0
 42
0.000000001
 43
0.00000001
 40
0.0
 40
0.0
 40
0.0
 40
0.0
 40
1.0
 40
1.0
 40
1.0
 40
1.0
 10
28.72598499677895
 20
-6.345620570948451
 30
0.0
 10
28.45660130032033
 20
-6.335648314746162
 30
0.0
 10
28.18657773483662
 20
-6.308575491227056
 30
0.0
 10
27.9191507448555
 20
-6.264849730130716
 30
0.0
  0
SPLINE
  5
4BD
330
1F
100
AcDbEntity
  8
외형선
  6
Continuous
 62
     1
370
    15
100
AcDbSpline
210
0.0
220
0.0
230
1.0
 70
     8
 71
     3
 72
    14
 73
    10
 74
     0
 42
0.000000001
 43
0.00000001
 40
0.0
 40
0.0
 40
0.0
 40
0.0
 40
0.0000773323911261
 40
0.0000773323911261
 40
0.0000773323911261
 40
0.0001592936340223
 40
0.0001592936340223
 40
0.0001592936340223
 40
0.0002434164518404
 40
0.0002434164518404
 40
0.0002434164518404
 40
0.0002434164518404
 10
28.94325958048409
 20
-6.278883738943004
 30
0.0
 10
28.92262899372912
 20
-6.294134287638239
 30
0.0
 10
28.90077514392653
 20
-6.306687900726085
 30
0.0
 10
28.878282053899
 20
-6.31661801605605
 30
0.0
 10
28.85444138744525
 20
-6.327143051395322
 30
0.0
 10
28.82971218340743
 20
-6.334798552246734
 30
0.0
 10
28.80459691816838
 20
-6.339628353645163
 30
0.0
 10
28.77882017987632
 20
-6.344585359890753
 30
0.0
 10
28.75246343029488
 20
-6.346600770293429
 30
0.0
 10
28.72598499681807
 20
-6.345620570949928
 30
0.0
  0
LINE
  5
4BE
330
1F
100
AcDbEntity
  8
외형선
  6
Continuous
 62
     1
370
    15
100
AcDbLine
 10
29.02542697175342
 20
-6.238915647069615
 30
0.0
 11
28.94325948540368
 21
-6.27888366580009
 31
0.0
  0
SPLINE
  5
4BF
330
1F
100
AcDbEntity
  8
외형선
  6
Continuous
 62
     1
370
    15
100
AcDbSpline
210
0.0
220
0.0
230
1.0
 70
     8
 71
     3
 72
    12
 73
     8
 74
     0
 42
0.000000001
 43
0.00000001
 40
0.0
 40
0.0
 40
0.0
 40
0.0
 40
0.25
 40
0.25
 40
0.5
 40
0.5
 40
1.0
 40
1.0
 40
1.0
 40
1.0
 10
31.38654248085942
 20
-2.350795217128183
 30
0.0
 10
31.3737185867586
 20
-2.118313374577883
 30
0.0
 10
31.36110940739281
 20
-1.881490867275697
 30
0.0
 10
31.33656720892668
 20
-1.404510552918974
 30
0.0
 10
31.32488530733835
 20
-1.166043959198208
 30
0.0
 10
31.28925775903435
 20
-0.4406247928859441
 30
0.0
 10
31.26390218886531
 20
0.0622203341610374
 30
0.0
 10
31.23791908247049
 20
0.5637863734387354
 30
0.0
  0
SPLINE
  5
4C0
330
1F
100
AcDbEntity
  8
외형선
  6
Continuous
 62
     1
370
    15
100
AcDbSpline
210
0.0
220
0.0
230
1.0
 70
     8
 71
     3
 72
    10
 73
     6
 74
     0
 42
0.000000001
 43
0.00000001
 40
0.0
 40
0.0
 40
0.0
 40
0.0
 40
0.4999999999999998
 40
0.4999999999999998
 40
1.0
 40
1.0
 40
1.0
 40
1.0
 10
37.39391833430926
 20
1.526100757213418
 30
0.0
 10
37.36790007421095
 20
2.017227177532139
 30
0.0
 10
37.342009105106
 20
2.492680959668104
 30
0.0
 10
37.29258544420745
 20
3.374925264322129
 30
0.0
 10
37.27003056546886
 20
3.777136268462463
 30
0.0
 10
37.24561814055278
 20
4.151967019220542
 30
0.0
  0
SPLINE
  5
4C1
330
1F
100
AcDbEntity
  8
외형선
  6
Continuous
 62
     1
370
    15
100
AcDbSpline
210
0.0
220
0.0
230
1.0
 70
     8
 71
     3
 72
     8
 73
     4
 74
     0
 42
0.000000001
 43
0.00000001
 40
0.0
 40
0.0
 40
0.0
 40
0.0
 40
1.0
 40
1.0
 40
1.0
 40
1.0
 10
38.04959620962856
 20
3.513887579696457
 30
0.0
 10
37.78219558513408
 20
3.736333662133645
 30
0.0
 10
37.51313773797324
 20
3.949876498836224
 30
0.0
 10
37.24562591810695
 20
4.151969540467163
 30
0.0
  0
SPLINE
  5
4C2
330
1F
100
AcDbEntity
  8
외형선
  6
Continuous
 62
     1
370
    15
100
AcDbSpline
210
0.0
220
0.0
230
1.0
 70
     8
 71
     3
 72
    10
 73
     6
 74
     0
 42
0.000000001
 43
0.00000001
 40
0.0
 40
0.0
 40
0.0
 40
0.0
 40
0.5000000000000001
 40
0.5000000000000001
 40
1.0
 40
1.0
 40
1.0
 40
1.0
 10
38.20049379773263
 20
0.7348968711427277
 30
0.0
 10
38.17485196742541
 20
1.23262908689274
 30
0.0
 10
38.14874288956611
 20
1.726344277008065
 30
0.0
 10
38.09775751441549
 20
2.664905138812123
 30
0.0
 10
38.07289933557374
 20
3.109439248495771
 30
0.0
 10
38.04959610323726
 20
3.513889145720007
 30
0.0
  0
SPLINE
  5
4C3
330
1F
100
AcDbEntity
  8
외형선
  6
Continuous
 62
     1
370
    15
100
AcDbSpline
210
0.0
220
0.0
230
1.0
 70
     8
 71
     3
 72
    10
 73
     6
 74
     0
 42
0.000000001
 43
0.00000001
 40
0.0
 40
0.0
 40
0.0
 40
0.0
 40
0.5000000000000001
 40
0.5000000000000001
 40
1.0
 40
1.0
 40
1.0
 40
1.0
 10
27.39243860604813
 20
1.554018316552932
 30
0.0
 10
27.36641203205236
 20
2.044805008482041
 30
0.0
 10
27.34053449308007
 20
2.519498410120419
 30
0.0
 10
27.29117720446706
 20
3.399538839043362
 30
0.0
 10
27.26862980541624
 20
3.800623487268388
 30
0.0
 10
27.24415460313476
 20
4.174377254204976
 30
0.0
  0
SPLINE
  5
4C4
330
1F
100
AcDbEntity
  8
외형선
  6
Continuous
 62
     1
370
    15
100
AcDbSpline
210
0.0
220
0.0
230
1.0
 70
     8
 71
     3
 72
    10
 73
     6
 74
     0
 42
0.000000001
 43
0.00000001
 40
0.0
 40
0.0
 40
0.0
 40
0.0
 40
0.5
 40
0.5
 40
1.0
 40
1.0
 40
1.0
 40
1.0
 10
28.19924105684607
 20
0.7592034940810324
 30
0.0
 10
28.1735790736062
 20
1.256906455549204
 30
0.0
 10
28.14746740792743
 20
1.750238811304269
 30
0.0
 10
28.09651254333432
 20
2.687387151247552
 30
0.0
 10
28.07168737694301
 20
3.130894092389059
 30
0.0
 10
28.04843063638748
 20
3.534106148552421
 30
0.0
  0
SPLINE
  5
4C5
330
1F
100
AcDbEntity
  8
외형선
  6
Continuous
 62
     1
370
    15
100
AcDbSpline
210
0.0
220
0.0
230
1.0
 70
     8
 71
     3
 72
    10
 73
     6
 74
     0
 42
0.000000001
 43
0.00000001
 40
0.0
 40
0.0
 40
0.0
 40
0.0
 40
0.5
 40
0.5
 40
1.0
 40
1.0
 40
1.0
 40
1.0
 10
17.39116730428711
 20
1.577981004351483
 30
0.0
 10
17.36514475980522
 20
2.068264915579921
 30
0.0
 10
17.33928980657413
 20
2.542108043395607
 30
0.0
 10
17.29000875256154
 20
3.419934548319723
 30
0.0
 10
17.26747078931728
 20
3.81995217865927
 30
0.0
 10
17.24295410703504
 20
4.192668759513636
 30
0.0
  0
SPLINE
  5
4C6
330
1F
100
AcDbEntity
  8
외형선
  6
Continuous
 62
     1
370
    15
100
AcDbSpline
210
0.0
220
0.0
230
1.0
 70
     8
 71
     3
 72
    10
 73
     6
 74
     0
 42
0.000000001
 43
0.00000001
 40
0.0
 40
0.0
 40
0.0
 40
0.0
 40
0.4999999999999998
 40
0.4999999999999998
 40
1.0
 40
1.0
 40
1.0
 40
1.0
 10
18.19774804812196
 20
0.7881451850513885
 30
0.0
 10
18.17206160609927
 20
1.285821581377161
 30
0.0
 10
18.14594642621806
 20
1.778705318914509
 30
0.0
 10
18.09502716924858
 20
2.714182757466275
 30
0.0
 10
18.070241022436
 20
3.156470417407248
 30
0.0
 10
18.04703944493457
 20
3.558210382444549
 30
0.0
  0
SPLINE
  5
4C7
330
1F
100
AcDbEntity
  8
외형선
  6
Continuous
 62
     1
370
    15
100
AcDbSpline
210
0.0
220
0.0
230
1.0
 70
     8
 71
     3
 72
    10
 73
     6
 74
     0
 42
0.000000001
 43
0.00000001
 40
0.0
 40
0.0
 40
0.0
 40
0.0
 40
0.5
 40
0.5
 40
1.0
 40
1.0
 40
1.0
 40
1.0
 10
38.41797852416444
 20
0.5013664496103347
 30
0.0
 10
38.39234626245025
 20
0.9972431448228933
 30
0.0
 10
38.36607459656824
 20
1.492385637238475
 30
0.0
 10
38.31445940233101
 20
2.439435843424239
 30
0.0
 10
38.28913538213163
 20
2.891002381694427
 30
0.0
 10
38.26527246162931
 20
3.304161512007012
 30
0.0
  0
SPLINE
  5
4C8
330
1F
100
AcDbEntity
  8
외형선
  6
Continuous
 62
     1
370
    15
100
AcDbSpline
210
0.0
220
0.0
230
1.0
 70
     8
 71
     3
 72
    10
 73
     6
 74
     0
 42
0.000000001
 43
0.00000001
 40
0.0
 40
0.0
 40
0.0
 40
0.0
 40
0.5
 40
0.5
 40
1.0
 40
1.0
 40
1.0
 40
1.0
 10
38.26527246162614
 20
3.304161512062271
 30
0.0
 10
38.40423353002257
 20
3.146640817112305
 30
0.0
 10
38.56103246054336
 20
3.003970973559155
 30
0.0
 10
38.8591726679368
 20
2.750180992274685
 30
0.0
 10
39.00481660057517
 20
2.635711182141374
 30
0.0
 10
39.13148264087607
 20
2.545544605515416
 30
0.0
  0
SPLINE
  5
4C9
330
1F
100
AcDbEntity
  8
외형선
  6
Continuous
 62
     1
370
    15
100
AcDbSpline
210
0.0
220
0.0
230
1.0
 70
     8
 71
     3
 72
    10
 73
     6
 74
     0
 42
0.000000001
 43
0.00000001
 40
0.0
 40
0.0
 40
0.0
 40
0.0
 40
0.5
 40
0.5
 40
1.0
 40
1.0
 40
1.0
 40
1.0
 10
28.41667496801796
 20
0.5265736583083553
 30
0.0
 10
28.39102458134279
 20
1.022363014351417
 30
0.0
 10
28.36475336385685
 20
1.51705157651151
 30
0.0
 10
28.31317617402179
 20
2.462535353765145
 30
0.0
 10
28.287889613907
 20
2.912992127785166
 30
0.0
 10
28.26407779377235
 20
3.324834999883683
 30
0.0
  0
SPLINE
  5
4CA
330
1F
100
AcDbEntity
  8
외형선
  6
Continuous
 62
     1
370
    15
100
AcDbSpline
210
0.0
220
0.0
230
1.0
 70
     8
 71
     3
 72
    10
 73
     6
 74
     0
 42
0.000000001
 43
0.00000001
 40
0.0
 40
0.0
 40
0.0
 40
0.0
 40
0.5
 40
0.5
 40
1.0
 40
1.0
 40
1.0
 40
1.0
 10
18.41523433430789
 20
0.5544057024269664
 30
0.0
 10
18.38954927155016
 20
1.05038144160049
 30
0.0
 10
18.36326321715154
 20
1.544849362813165
 30
0.0
 10
18.31169973909074
 20
2.489090757476693
 30
0.0
 10
18.28644167234937
 20
2.938527964692823
 30
0.0
 10
18.26267607681548
 20
3.349063764714731
 30
0.0
  0
SPLINE
  5
4CB
330
1F
100
AcDbEntity
  8
외형선
  6
Continuous
 62
     1
370
    15
100
AcDbSpline
210
0.0
220
0.0
230
1.0
 70
     8
 71
     3
 72
    12
 73
     8
 74
     0
 42
0.000000001
 43
0.00000001
 40
0.0
 40
0.0
 40
0.0
 40
0.0
 40
0.4999999999999998
 40
0.4999999999999998
 40
0.7499999999999999
 40
0.7499999999999999
 40
1.0
 40
1.0
 40
1.0
 40
1.0
 10
22.62548945244609
 20
-3.414387169513755
 30
0.0
 10
22.59929098688062
 20
-2.991739676809043
 30
0.0
 10
22.57306583181785
 20
-2.535652618543391
 30
0.0
 10
22.53532972327526
 20
-1.831842933610818
 30
0.0
 10
22.52301596966072
 20
-1.594015013658786
 30
0.0
 10
22.49914578045464
 20
-1.117140595623805
 30
0.0
 10
22.48764576929257
 20
-0.878513192284248
 30
0.0
 10
22.475522858036
 20
-0.6343230433465576
 30
0.0
  0
SPLINE
  5
4CC
330
1F
100
AcDbEntity
  8
외형선
  6
Continuous
 62
     1
370
    15
100
AcDbSpline
210
0.0
220
0.0
230
1.0
 70
     8
 71
     3
 72
    12
 73
     8
 74
     0
 42
0.000000001
 43
0.00000001
 40
0.0
 40
0.0
 40
0.0
 40
0.0
 40
0.5
 40
0.5
 40
0.75
 40
0.75
 40
1.0
 40
1.0
 40
1.0
 40
1.0
 10
32.62674319751781
 20
-3.434588393881252
 30
0.0
 10
32.60055453946319
 20
-3.013137447681909
 30
0.0
 10
32.57432065003678
 20
-2.557970130702851
 30
0.0
 10
32.5365455911336
 20
-1.855024008999567
 30
0.0
 10
32.52421462992642
 20
-1.617399421268042
 30
0.0
 10
32.50030275861367
 20
-1.140763895207551
 30
0.0
 10
32.48882415069394
 20
-0.9024774550529697
 30
0.0
 10
32.47672841319286
 20
-0.658617206256916
 30
0.0
  0
SPLINE
  5
4CD
330
1F
100
AcDbEntity
  8
외형선
  6
Continuous
 62
     1
370
    15
100
AcDbSpline
210
0.0
220
0.0
230
1.0
 70
     8
 71
     3
 72
    14
 73
    10
 74
     0
 42
0.000000001
 43
0.00000001
 40
0.0
 40
0.0
 40
0.0
 40
0.0
 40
0.0000826645311098
 40
0.0000826645311098
 40
0.0000826645311098
 40
0.0001556694826321
 40
0.0001556694826321
 40
0.0001556694826321
 40
0.0002312260243551
 40
0.0002312260243551
 40
0.0002312260243551
 40
0.0002312260243551
 10
38.04959619265378
 20
3.513887593818978
 30
0.0
 10
38.0755915846575
 20
3.49226246443748
 30
0.0
 10
38.10187489349255
 20
3.469104554216027
 30
0.0
 10
38.12797468472149
 20
3.44482563519217
 30
0.0
 10
38.15103090824505
 20
3.423377947009029
 30
0.0
 10
38.17409837443955
 20
3.400911747907695
 30
0.0
 10
38.19672366274676
 20
3.377806467569036
 30
0.0
 10
38.22010480029735
 20
3.353929302760796
 30
0.0
 10
38.24324358229633
 20
3.329132566336987
 30
0.0
 10
38.26527246162614
 20
3.304161512062286
 30
0.0
  0
SPLINE
  5
4CE
330
1F
100
AcDbEntity
  8
외형선
  6
Continuous
 62
     1
370
    15
100
AcDbSpline
210
0.0
220
0.0
230
1.0
 70
     8
 71
     3
 72
     8
 73
     4
 74
     0
 42
0.000000001
 43
0.00000001
 40
0.0
 40
0.0
 40
0.0
 40
0.0
 40
1.0
 40
1.0
 40
1.0
 40
1.0
 10
39.84733316246667
 20
1.896507415029942
 30
0.0
 10
40.01137311457384
 20
1.713781316366611
 30
0.0
 10
40.17940746261837
 20
1.545583653614604
 30
0.0
 10
40.35399982913333
 20
1.395149866066316
 30
0.0
  0
LINE
  5
4CF
102
{ACAD_REACTORS
102
}
330
1F
100
AcDbEntity
  8
외형선
  6
Continuous
 62
     1
370
    15
100
AcDbLine
 10
40.354
 20
1.39514993255337
 30
0.0
 11
40.354
 21
-0.9524999962498724
 31
0.0
  0
SPLINE
  5
4D0
330
1F
100
AcDbEntity
  8
외형선
  6
Continuous
 62
     1
370
    15
100
AcDbSpline
210
0.0
220
0.0
230
1.0
 70
    24
 71
     3
 72
     8
 73
     4
 74
     0
 42
0.000000001
 43
0.00000001
 40
0.0000003030761704
 40
0.0000003030761704
 40
0.0000003030761704
 40
0.0000003030761704
 40
0.000304191462904
 40
0.000304191462904
 40
0.000304191462904
 40
0.000304191462904
 10
40.35399982913333
 20
-0.9525000000000103
 30
0.0
 10
40.26487396308926
 20
-1.014906603253524
 30
0.0
 10
40.17550836059439
 20
-1.077481071777089
 30
0.0
 10
40.08593034475524
 20
-1.140204273725533
 30
0.0
  0
SPLINE
  5
4D1
330
1F
100
AcDbEntity
  8
외형선
  6
Continuous
 62
     1
370
    15
100
AcDbSpline
210
0.0
220
0.0
230
1.0
 70
     8
 71
     3
 72
    10
 73
     6
 74
     0
 42
0.000000001
 43
0.00000001
 40
0.0
 40
0.0
 40
0.0
 40
0.0
 40
0.5
 40
0.5
 40
1.0
 40
1.0
 40
1.0
 40
1.0
 10
23.49300768320836
 20
-4.098552807777291
 30
0.0
 10
23.4674203440362
 20
-3.722040226729912
 30
0.0
 10
23.44116810280272
 20
-3.303250856946607
 30
0.0
 10
23.3895358598769
 20
-2.415689693786066
 30
0.0
 10
23.36417543311228
 20
-1.947293504143185
 30
0.0
 10
23.34025319574404
 20
-1.474796720227135
 30
0.0
  0
SPLINE
  5
4D2
330
1F
100
AcDbEntity
  8
외형선
  6
Continuous
 62
     1
370
    15
100
AcDbSpline
210
0.0
220
0.0
230
1.0
 70
     8
 71
     3
 72
    10
 73
     6
 74
     0
 42
0.000000001
 43
0.00000001
 40
0.0
 40
0.0
 40
0.0
 40
0.0
 40
0.5
 40
0.5
 40
1.0
 40
1.0
 40
1.0
 40
1.0
 10
33.71068298888902
 20
-4.319459338366175
 30
0.0
 10
33.6855776083938
 20
-3.955782817114271
 30
0.0
 10
33.65965840818923
 20
-3.548111852919557
 30
0.0
 10
33.6083119609284
 20
-2.676731717481284
 30
0.0
 10
33.58290392903274
 20
-2.21337068205933
 30
0.0
 10
33.55875387582934
 20
-1.742333976972641
 30
0.0
  0
SPLINE
  5
4D3
330
1F
100
AcDbEntity
  8
외형선
  6
Continuous
 62
     1
370
    15
100
AcDbSpline
210
0.0
220
0.0
230
1.0
 70
     8
 71
     3
 72
    10
 73
     6
 74
     0
 42
0.000000001
 43
0.00000001
 40
0.0
 40
0.0
 40
0.0
 40
0.0
 40
0.5
 40
0.5
 40
1.0
 40
1.0
 40
1.0
 40
1.0
 10
34.51599367094042
 20
-4.872153001680846
 30
0.0
 10
34.49200743675111
 20
-4.558399465789273
 30
0.0
 10
34.46669102996431
 20
-4.194936551597318
 30
0.0
 10
34.41535855978941
 20
-3.392549129471543
 30
0.0
 10
34.38936161948203
 20
-2.953894074253543
 30
0.0
 10
34.36410360023865
 20
-2.496324660418035
 30
0.0
  0
SPLINE
  5
4D4
330
1F
100
AcDbEntity
  8
외형선
  6
Continuous
 62
     1
370
    15
100
AcDbSpline
210
0.0
220
0.0
230
1.0
 70
     8
 71
     3
 72
    10
 73
     6
 74
     0
 42
0.000000001
 43
0.00000001
 40
0.0
 40
0.0
 40
0.0
 40
0.0
 40
0.5
 40
0.5
 40
1.0
 40
1.0
 40
1.0
 40
1.0
 10
33.49449169253978
 20
-4.120353763444778
 30
0.0
 10
33.4689305772916
 20
-3.745465740481033
 30
0.0
 10
33.44268373052881
 20
-3.328028115247565
 30
0.0
 10
33.39101916423472
 20
-2.442392227658348
 30
0.0
 10
33.36562110605361
 20
-1.974568225598278
 30
0.0
 10
33.3416446800953
 20
-1.502244330064097
 30
0.0
  0
SPLINE
  5
4D5
330
1F
100
AcDbEntity
  8
외형선
  6
Continuous
 62
     1
370
    15
100
AcDbSpline
210
0.0
220
0.0
230
1.0
 70
     8
 71
     3
 72
    18
 73
    14
 74
     0
 42
0.000000001
 43
0.00000001
 40
0.0
 40
0.0
 40
0.0
 40
0.0
 40
0.2499999999999994
 40
0.2499999999999994
 40
0.4999999999999993
 40
0.4999999999999993
 40
0.6249999999999994
 40
0.6249999999999994
 40
0.7499999999999997
 40
0.7499999999999997
 40
0.8749999999999998
 40
0.8749999999999998
 40
1.0
 40
1.0
 40
1.0
 40
1.0
 10
40.08593034475527
 20
6.00409681921512
 30
0.0
 10
40.08266105875299
 20
5.68632002907519
 30
0.0
 10
40.05835887544005
 20
5.366730306244945
 30
0.0
 10
39.9505300463332
 20
4.75012841864342
 30
0.0
 10
39.86792346357602
 20
4.451480705929824
 30
0.0
 10
39.67403025924057
 20
4.032909763128464
 30
0.0
 10
39.59942101729827
 20
3.902778665820228
 30
0.0
 10
39.42671890702894
 20
3.664621832927405
 30
0.0
 10
39.32761156366462
 20
3.556377720370864
 30
0.0
 10
39.11398043933644
 20
3.377165647153013
 30
0.0
 10
38.99733439693354
 20
3.303881477064563
 30
0.0
 10
38.75031859148825
 20
3.195518615961467
 30
0.0
 10
38.62329676886392
 20
3.161492614657408
 30
0.0
 10
38.49307988288305
 20
3.145793119143476
 30
0.0
  0
SPLINE
  5
4D6
330
1F
100
AcDbEntity
  8
외형선
  6
Continuous
 62
     1
370
    15
100
AcDbSpline
210
0.0
220
0.0
230
1.0
 70
     8
 71
     3
 72
     8
 73
     4
 74
     0
 42
0.000000001
 43
0.00000001
 40
0.0
 40
0.0
 40
0.0
 40
0.0
 40
1.0
 40
1.0
 40
1.0
 40
1.0
 10
40.35399982913333
 20
2.254117734408486
 30
0.0
 10
39.72971630794382
 20
2.604404056304431
 30
0.0
 10
39.10938591673607
 20
2.901945966935791
 30
0.0
 10
38.49307988288302
 20
3.145793119143533
 30
0.0
  0
LINE
  5
4D7
330
1F
100
AcDbEntity
  8
외형선
  6
Continuous
 62
     1
370
    15
100
AcDbLine
 10
40.354
 20
1.411515598495801
 30
0.0
 11
40.354
 21
2.254117745906119
 31
0.0
  0
SPLINE
  5
4D8
330
1F
100
AcDbEntity
  8
외형선
  6
Continuous
 62
     1
370
    15
100
AcDbSpline
210
0.0
220
0.0
230
1.0
 70
     8
 71
     3
 72
    14
 73
    10
 74
     0
 42
0.000000001
 43
0.00000001
 40
0.0
 40
0.0
 40
0.0
 40
0.0
 40
0.0000774729706188
 40
0.0000774729706188
 40
0.0000774729706188
 40
0.0001593903547957
 40
0.0001593903547957
 40
0.0001593903547957
 40
0.0002434639071571
 40
0.0002434639071571
 40
0.0002434639071571
 40
0.0002434639071571
 10
37.02853170200514
 20
4.27337159161923
 30
0.0
 10
37.04917518600584
 20
4.266986366716771
 30
0.0
 10
37.07104313292243
 20
4.258136641646522
 30
0.0
 10
37.09355247582785
 20
4.247281920253918
 30
0.0
 10
37.11735459921657
 20
4.235803778976183
 30
0.0
 10
37.14204365037007
 20
4.22200387441979
 30
0.0
 10
37.16712083890468
 20
4.20629946636648
 30
0.0
 10
37.19285704615993
 20
4.190182352602995
 30
0.0
 10
37.2191748492548
 20
4.171952101700405
 30
0.0
 10
37.24561756537311
 20
4.1519758505761
 30
0.0
  0
SPLINE
  5
4D9
330
1F
100
AcDbEntity
  8
외형선
  6
Continuous
 62
     1
370
    15
100
AcDbSpline
210
0.0
220
0.0
230
1.0
 70
     8
 71
     3
 72
    10
 73
     6
 74
     0
 42
0.000000001
 43
0.00000001
 40
0.0
 40
0.0
 40
0.0
 40
0.0
 40
0.5
 40
0.5
 40
1.0
 40
1.0
 40
1.0
 40
1.0
 10
36.1614593804958
 20
4.861140471868388
 30
0.0
 10
36.30080614861478
 20
4.70397471281776
 30
0.0
 10
36.45838274607814
 20
4.581185419852132
 30
0.0
 10
36.75668638828233
 20
4.386829408299341
 30
0.0
 10
36.90192042992052
 20
4.312533655901311
 30
0.0
 10
37.02853170200501
 20
4.273371591619159
 30
0.0
  0
SPLINE
  5
4DA
330
1F
100
AcDbEntity
  8
외형선
  6
Continuous
 62
     1
370
    15
100
AcDbSpline
210
0.0
220
0.0
230
1.0
 70
     8
 71
     3
 72
    14
 73
    10
 74
     0
 42
0.000000001
 43
0.00000001
 40
0.0
 40
0.0
 40
0.0
 40
0.0
 40
0.0000829519334205
 40
0.0000829519334205
 40
0.0000829519334205
 40
0.0001559726307614
 40
0.0001559726307614
 40
0.0001559726307614
 40
0.0002315422402384
 40
0.0002315422402384
 40
0.0002315422402384
 40
0.0002315422402384
 10
35.94519163687177
 20
5.043187626863911
 30
0.0
 10
35.9713026987547
 20
5.027371987871091
 30
0.0
 10
35.99770640982466
 20
5.009297471913402
 30
0.0
 10
36.02392924844784
 20
4.989183371664423
 30
0.0
 10
36.04701919403793
 20
4.971472341710146
 30
0.0
 10
36.0701231468862
 20
4.952061547667525
 30
0.0
 10
36.0927874236927
 20
4.931130707240505
 30
0.0
 10
36.11620771178714
 20
4.909501677686861
 30
0.0
 10
36.13938863676421
 20
4.886033515591016
 30
0.0
 10
36.1614593804958
 20
4.861140471868388
 30
0.0
  0
SPLINE
  5
4DB
330
1F
100
AcDbEntity
  8
외형선
  6
Continuous
 62
     1
370
    15
100
AcDbSpline
210
0.0
220
0.0
230
1.0
 70
     8
 71
     3
 72
     8
 73
     4
 74
     0
 42
0.000000001
 43
0.00000001
 40
0.0
 40
0.0
 40
0.0
 40
0.0
 40
1.0
 40
1.0
 40
1.0
 40
1.0
 10
35.94519440149243
 20
5.043185952313357
 30
0.0
 10
35.67556873333859
 20
5.206500056692128
 30
0.0
 10
35.4054442659055
 20
5.356306255210888
 30
0.0
 10
35.13806067978734
 20
5.490921934746445
 30
0.0
  0
SPLINE
  5
4DC
330
1F
100
AcDbEntity
  8
외형선
  6
Continuous
 62
     1
370
    15
100
AcDbSpline
210
0.0
220
0.0
230
1.0
 70
     8
 71
     3
 72
    14
 73
    10
 74
     0
 42
0.000000001
 43
0.00000001
 40
0.0
 40
0.0
 40
0.0
 40
0.0
 40
0.00007798995804
 40
0.00007798995804
 40
0.00007798995804
 40
0.0001601744394701
 40
0.0001601744394701
 40
0.0001601744394701
 40
0.0002445009295637
 40
0.0002445009295637
 40
0.0002445009295637
 40
0.0002445009295637
 10
34.9209893268449
 20
5.53961091279342
 30
0.0
 10
34.94173567298773
 20
5.542247963834057
 30
0.0
 10
34.96371044338376
 20
5.542079015352214
 30
0.0
 10
34.9863280647552
 20
5.539439895948937
 30
0.0
 10
35.01016422859756
 20
5.536658591873546
 30
0.0
 10
35.03488346001278
 20
5.531116344934801
 30
0.0
 10
35.05999160904635
 20
5.523100938571424
 30
0.0
 10
35.08575317956479
 20
5.514876937033597
 30
0.0
 10
35.1120955133303
 20
5.503995937353323
 30
0.0
 10
35.13856690231236
 20
5.490667057907706
 30
0.0
  0
SPLINE
  5
4DD
330
1F
100
AcDbEntity
  8
외형선
  6
Continuous
 62
     1
370
    15
100
AcDbSpline
210
0.0
220
0.0
230
1.0
 70
     8
 71
     3
 72
    10
 73
     6
 74
     0
 42
0.000000001
 43
0.00000001
 40
0.0
 40
0.0
 40
0.0
 40
0.0
 40
0.5000000000000002
 40
0.5000000000000002
 40
1.0
 40
1.0
 40
1.0
 40
1.0
 10
34.05369991501078
 20
5.890556042836017
 30
0.0
 10
34.19298883828998
 20
5.750866357311401
 30
0.0
 10
34.35066537413185
 20
5.661042272536121
 30
0.0
 10
34.64939854160248
 20
5.548288100126327
 30
0.0
 10
34.79470040769587
 20
5.523558431871066
 30
0.0
 10
34.92098932684479
 20
5.539610912793321
 30
0.0
  0
SPLINE
  5
4DE
330
1F
100
AcDbEntity
  8
외형선
  6
Continuous
 62
     1
370
    15
100
AcDbSpline
210
0.0
220
0.0
230
1.0
 70
     8
 71
     3
 72
    14
 73
    10
 74
     0
 42
0.000000001
 43
0.00000001
 40
0.0
 40
0.0
 40
0.0
 40
0.0
 40
0.000082713617023
 40
0.000082713617023
 40
0.000082713617023
 40
0.0001556948031723
 40
0.0001556948031723
 40
0.0001556948031723
 40
0.0002312343010011
 40
0.0002312343010011
 40
0.0002312343010011
 40
0.0002312343010011
 10
33.83767294012246
 20
6.024918828855632
 30
0.0
 10
33.86370692740367
 20
6.016720796126918
 30
0.0
 10
33.8900363739224
 20
6.005793300254488
 30
0.0
 10
33.91618911709226
 20
5.992140608982317
 30
0.0
 10
33.93927085322501
 20
5.980091096034541
 30
0.0
 10
33.96236963192598
 20
5.965837906995261
 30
0.0
 10
33.98502973442086
 20
5.949344869489038
 30
0.0
 10
34.00844890634643
 20
5.932299347253617
 30
0.0
 10
34.03163053906053
 20
5.912688916819184
 30
0.0
 10
34.05369991500919
 20
5.890556042837658
 30
0.0
  0
SPLINE
  5
4DF
330
1F
100
AcDbEntity
  8
외형선
  6
Continuous
 62
     1
370
    15
100
AcDbSpline
210
0.0
220
0.0
230
1.0
 70
     8
 71
     3
 72
     8
 73
     4
 74
     0
 42
0.000000001
 43
0.00000001
 40
0.0
 40
0.0
 40
0.0
 40
0.0
 40
1.0
 40
1.0
 40
1.0
 40
1.0
 10
33.83768548457779
 20
6.024914878626592
 30
0.0
 10
33.56756708303915
 20
6.109974937148549
 30
0.0
 10
33.29921248699918
 20
6.178574557850083
 30
0.0
 10
33.03247535190964
 20
6.230380846821709
 30
0.0
  0
SPLINE
  5
4E0
330
1F
100
AcDbEntity
  8
외형선
  6
Continuous
 62
     1
370
    15
100
AcDbSpline
210
0.0
220
0.0
230
1.0
 70
     8
 71
     3
 72
    14
 73
    10
 74
     0
 42
0.000000001
 43
0.00000001
 40
0.0
 40
0.0
 40
0.0
 40
0.0
 40
0.0000771835996643
 40
0.0000771835996643
 40
0.0000771835996643
 40
0.0001592426596142
 40
0.0001592426596142
 40
0.0001592426596142
 40
0.0002434711404574
 40
0.0002434711404574
 40
0.0002434711404574
 40
0.0002434711404574
 10
32.81629309162707
 20
6.200161773871726
 30
0.0
 10
32.83684569167883
 20
6.211628711507394
 30
0.0
 10
32.85861093170155
 20
6.220300523428427
 30
0.0
 10
32.8810039085879
 20
6.226337803345685
 30
0.0
 10
32.90481220691136
 20
6.23275666235051
 30
0.0
 10
32.9295009565933
 20
6.236245822505722
 30
0.0
 10
32.9545635703562
 20
6.236936217166302
 30
0.0
 10
32.98028820852062
 20
6.237644848476747
 30
0.0
 10
33.00657968610699
 20
6.235412473695088
 30
0.0
 10
33.03297937361873
 20
6.230282934231325
 30
0.0
  0
SPLINE
  5
4E1
330
1F
100
AcDbEntity
  8
외형선
  6
Continuous
 62
     1
370
    15
100
AcDbSpline
210
0.0
220
0.0
230
1.0
 70
     8
 71
     3
 72
    10
 73
     6
 74
     0
 42
0.000000001
 43
0.00000001
 40
0.0
 40
0.0
 40
0.0
 40
0.0
 40
0.2087032602140873
 40
0.6492540373101255
 40
1.0
 40
1.0
 40
1.0
 40
1.0
 10
32.01830036226906
 20
6.241900225480406
 30
0.0
 10
32.07399880847197
 20
6.20929176902814
 30
0.0
 10
32.24727085526257
 20
6.107850267920909
 30
0.0
 10
32.53760217681379
 20
6.090787431853818
 30
0.0
 10
32.73070055759422
 20
6.166570760049836
 30
0.0
 10
32.81629231357573
 20
6.200162072976439
 30
0.0
  0
SPLINE
  5
4E2
330
1F
100
AcDbEntity
  8
외형선
  6
Continuous
 62
     1
370
    15
100
AcDbSpline
210
0.0
220
0.0
230
1.0
 70
     8
 71
     3
 72
     9
 73
     5
 74
     0
 42
0.000000001
 43
0.00000001
 40
0.0
 40
0.0
 40
0.0
 40
0.0
 40
0.8015274370360012
 40
1.0
 40
1.0
 40
1.0
 40
1.0
 10
15.10467029396692
 20
-5.476252486308421
 30
0.0
 10
15.18231872741778
 20
-5.397569990381977
 30
0.0
 10
15.27919430504992
 20
-5.29940429786696
 30
0.0
 10
15.38015628584499
 20
-5.248235398890462
 30
0.0
 10
15.40019446893531
 20
-5.23807977636655
 30
0.0
  0
SPLINE
  5
4E3
330
1F
100
AcDbEntity
  8
외형선
  6
Continuous
 62
     1
370
    15
100
AcDbSpline
210
0.0
220
0.0
230
1.0
 70
     8
 71
     3
 72
    14
 73
    10
 74
     0
 42
0.000000001
 43
0.00000001
 40
0.0
 40
0.0
 40
0.0
 40
0.0
 40
0.0000837883564641
 40
0.0000837883564641
 40
0.0000837883564641
 40
0.0001569040728373
 40
0.0001569040728373
 40
0.0001569040728373
 40
0.0002325552798474
 40
0.0002325552798474
 40
0.0002325552798474
 40
0.0002325552798474
 10
14.88827717845701
 20
-5.636404123171185
 30
0.0
 10
14.91454111297088
 20
-5.62424496212105
 30
0.0
 10
14.94108914128487
 20
-5.609503909418147
 30
0.0
 10
14.96745121962192
 20
-5.592296209952518
 30
0.0
 10
14.9904627266029
 20
-5.577275577234682
 30
0.0
 10
15.01350040812835
 20
-5.560279887114031
 30
0.0
 10
15.03611522420838
 20
-5.54136902439519
 30
0.0
 10
15.05947912672667
 20
-5.521831763887003
 30
0.0
 10
15.08262025901491
 20
-5.500055519900735
 30
0.0
 10
15.10467007070936
 20
-5.476252718278228
 30
0.0
  0
SPLINE
  5
4E4
330
1F
100
AcDbEntity
  8
외형선
  6
Continuous
 62
     1
370
    15
100
AcDbSpline
210
0.0
220
0.0
230
1.0
 70
     8
 71
     3
 72
     8
 73
     4
 74
     0
 42
0.000000001
 43
0.00000001
 40
0.0
 40
0.0
 40
0.0
 40
0.0
 40
0.000617378407268
 40
0.000617378407268
 40
0.000617378407268
 40
0.000617378407268
 10
14.88877103828009
 20
-5.636175467240032
 30
0.0
 10
14.88860641960278
 20
-5.636251691431251
 30
0.0
 10
14.88844179965188
 20
-5.63632791005428
 30
0.0
 10
14.88827717842813
 20
-5.636404123108771
 30
0.0
  0
SPLINE
  5
4E5
330
1F
100
AcDbEntity
  8
외형선
  6
Continuous
 62
     1
370
    15
100
AcDbSpline
210
0.0
220
0.0
230
1.0
 70
     8
 71
     3
 72
    10
 73
     6
 74
     0
 42
0.000000001
 43
0.00000001
 40
0.0
 40
0.0
 40
0.0
 40
0.0
 40
0.5
 40
0.5
 40
0.723786984908343
 40
0.723786984908343
 40
0.723786984908343
 40
0.723786984908343
 10
15.59523109704176
 20
-5.410361337778322
 30
0.0
 10
15.45625230830388
 20
-5.259450120437134
 30
0.0
 10
15.29899567608559
 20
-5.150514180596299
 30
0.0
 10
15.08348517515966
 20
-5.035787105148787
 30
0.0
 10
15.01768279075285
 20
-5.005764548941083
 30
0.0
 10
14.954
 20
-4.982207256145034
 30
0.0
  0
SPLINE
  5
4E6
330
1F
100
AcDbEntity
  8
외형선
  6
Continuous
 62
     1
370
    15
100
AcDbSpline
210
0.0
220
0.0
230
1.0
 70
     8
 71
     3
 72
    14
 73
    10
 74
     0
 42
0.000000001
 43
0.00000001
 40
0.0
 40
0.0
 40
0.0
 40
0.0
 40
0.0000826072727145
 40
0.0000826072727145
 40
0.0000826072727145
 40
0.0001555579989018
 40
0.0001555579989018
 40
0.0001555579989018
 40
0.000231069995272
 40
0.000231069995272
 40
0.000231069995272
 40
0.000231069995272
 10
15.81106484235555
 20
-5.572417234212973
 30
0.0
 10
15.7850603462649
 20
-5.559990059812359
 30
0.0
 10
15.75876363242523
 20
-5.545059560503243
 30
0.0
 10
15.73264630118625
 20
-5.527746493107908
 30
0.0
 10
15.70957591058901
 20
-5.512453229657974
 30
0.0
 10
15.68649070527399
 20
-5.495198118186518
 30
0.0
 10
15.66384676597454
 20
-5.476063449847028
 30
0.0
 10
15.64044309165248
 20
-5.456286787308012
 30
0.0
 10
15.61727966685769
 20
-5.434302951759629
 30
0.0
 10
15.59523109704152
 20
-5.410361337778066
 30
0.0
  0
SPLINE
  5
4E7
330
1F
100
AcDbEntity
  8
외형선
  6
Continuous
 62
     1
370
    15
100
AcDbSpline
210
0.0
220
0.0
230
1.0
 70
     8
 71
     3
 72
     8
 73
     4
 74
     0
 42
0.000000001
 43
0.00000001
 40
0.0
 40
0.0
 40
0.0
 40
0.0
 40
1.0
 40
1.0
 40
1.0
 40
1.0
 10
16.61719152735843
 20
-5.912695092791206
 30
0.0
 10
16.35039963674035
 20
-5.815060017784272
 30
0.0
 10
16.0806152802826
 20
-5.70123149559907
 30
0.0
 10
15.81106519932684
 20
-5.572417404804379
 30
0.0
  0
SPLINE
  5
4E8
330
1F
100
AcDbEntity
  8
외형선
  6
Continuous
 62
     1
370
    15
100
AcDbSpline
210
0.0
220
0.0
230
1.0
 70
     8
 71
     3
 72
    14
 73
    10
 74
     0
 42
0.000000001
 43
0.00000001
 40
0.0
 40
0.0
 40
0.0
 40
0.0
 40
0.0000778502093922
 40
0.0000778502093922
 40
0.0000778502093922
 40
0.0001601165043703
 40
0.0001601165043703
 40
0.0001601165043703
 40
0.0002445292927559
 40
0.0002445292927559
 40
0.0002445292927559
 40
0.0002445292927559
 10
16.83417933821466
 20
-5.925283508994974
 30
0.0
 10
16.81346291461383
 20
-5.932102940542332
 30
0.0
 10
16.79153454399995
 20
-5.936060838665594
 30
0.0
 10
16.76897504386926
 20
-5.937431380639079
 30
0.0
 10
16.74513382481559
 20
-5.938879790010883
 30
0.0
 10
16.72040798938626
 20
-5.93745898427981
 30
0.0
 10
16.69529185308282
 20
-5.933384617697169
 30
0.0
 10
16.6695214187596
 20
-5.929204110187665
 30
0.0
 10
16.64316846823975
 20
-5.922203475964277
 30
0.0
 10
16.61668529807453
 20
-5.912509815237267
 30
0.0
  0
SPLINE
  5
4E9
330
1F
100
AcDbEntity
  8
외형선
  6
Continuous
 62
     1
370
    15
100
AcDbSpline
210
0.0
220
0.0
230
1.0
 70
     8
 71
     3
 72
    10
 73
     6
 74
     0
 42
0.000000001
 43
0.00000001
 40
0.0
 40
0.0
 40
0.0
 40
0.0
 40
0.5
 40
0.5
 40
1.0
 40
1.0
 40
1.0
 40
1.0
 10
17.70187044961196
 20
-6.15294940309317
 30
0.0
 10
17.56254052546896
 20
-6.0266327521017
 30
0.0
 10
17.4048359868046
 20
-5.955430154868689
 30
0.0
 10
17.10596131004332
 20
-5.884597766565956
 30
0.0
 10
16.96052727600192
 20
-5.88369229955202
 30
0.0
 10
16.83417933821464
 20
-5.925283508994961
 30
0.0
  0
SPLINE
  5
4EA
330
1F
100
AcDbEntity
  8
외형선
  6
Continuous
 62
     1
370
    15
100
AcDbSpline
210
0.0
220
0.0
230
1.0
 70
     8
 71
     3
 72
    14
 73
    10
 74
     0
 42
0.000000001
 43
0.00000001
 40
0.0
 40
0.0
 40
0.0
 40
0.0
 40
0.0000829589553487
 40
0.0000829589553487
 40
0.0000829589553487
 40
0.0001559739390284
 40
0.0001559739390284
 40
0.0001559739390284
 40
0.0002315417310536
 40
0.0002315417310536
 40
0.0002315417310536
 40
0.0002315417310536
 10
17.91818402180595
 20
-6.26017945102799
 30
0.0
 10
17.89207699714359
 20
-6.255815827423727
 30
0.0
 10
17.8656728356233
 20
-6.248592270660363
 30
0.0
 10
17.83944494636001
 20
-6.238409813521709
 30
0.0
 10
17.81635436071059
 20
-6.229445352206464
 30
0.0
 10
17.79324608004005
 20
-6.218127410768173
 30
0.0
 10
17.77057473394462
 20
-6.204317726649532
 30
0.0
 10
17.74714600288175
 20
-6.19004670039828
 30
0.0
 10
17.72395324793753
 20
-6.172969690523611
 30
0.0
 10
17.70187044961206
 20
-6.152949403093227
 30
0.0
  0
SPLINE
  5
4EB
330
1F
100
AcDbEntity
  8
외형선
  6
Continuous
 62
     1
370
    15
100
AcDbSpline
210
0.0
220
0.0
230
1.0
 70
     8
 71
     3
 72
     8
 73
     4
 74
     0
 42
0.000000001
 43
0.00000001
 40
0.0
 40
0.0
 40
0.0
 40
0.0
 40
1.0
 40
1.0
 40
1.0
 40
1.0
 10
18.72469605877746
 20
-6.34462312550266
 30
0.0
 10
18.45674977480516
 20
-6.333554463782401
 30
0.0
 10
18.18886294674259
 20
-6.305421379020609
 30
0.0
 10
17.91819215238784
 20
-6.260180809998086
 30
0.0
  0
SPLINE
  5
4EC
330
1F
100
AcDbEntity
  8
외형선
  6
Continuous
 62
     1
370
    15
100
AcDbSpline
210
0.0
220
0.0
230
1.0
 70
     8
 71
     3
 72
    14
 73
    10
 74
     0
 42
0.000000001
 43
0.00000001
 40
0.0
 40
0.0
 40
0.0
 40
0.0
 40
0.0000774098258178
 40
0.0000774098258178
 40
0.0000774098258178
 40
0.0001596259778997
 40
0.0001596259778997
 40
0.0001596259778997
 40
0.0002440043001667
 40
0.0002440043001667
 40
0.0002440043001667
 40
0.0002440043001667
 10
18.94203194551865
 20
-6.278806342790214
 30
0.0
 10
18.92139671624684
 20
-6.293969562130623
 30
0.0
 10
18.89954553531387
 20
-6.306425484536345
 30
0.0
 10
18.8770661439628
 20
-6.316254819700926
 30
0.0
 10
18.85318988970871
 20
-6.326694946921161
 30
0.0
 10
18.82843412995588
 20
-6.334249233385374
 30
0.0
 10
18.80330495049568
 20
-6.338971682951846
 30
0.0
 10
18.77751546988862
 20
-6.343818220886159
 30
0.0
 10
18.75115981570248
 20
-6.345716328280385
 30
0.0
 10
18.7246949541725
 20
-6.344623079872174
 30
0.0
  0
LINE
  5
4ED
330
1F
100
AcDbEntity
  8
외형선
  6
Continuous
 62
     1
370
    15
100
AcDbLine
 10
19.03217617952822
 20
-6.23544057210287
 30
0.0
 11
18.94203222576776
 21
-6.278806055585544
 31
0.0
  0
LINE
  5
4EE
330
1F
100
AcDbEntity
  8
외형선
  6
Continuous
 62
     1
370
    15
100
AcDbLine
 10
35.36560780588783
 20
5.364695563912398
 30
0.0
 11
35.56683060312271
 21
5.477438991268484
 31
0.0
  0
SPLINE
  5
4EF
330
1F
100
AcDbEntity
  8
외형선
  6
Continuous
 62
     1
370
    15
100
AcDbSpline
210
0.0
220
0.0
230
1.0
 70
     8
 71
     3
 72
    14
 73
    10
 74
     0
 42
0.000000001
 43
0.00000001
 40
0.0
 40
0.0
 40
0.0
 40
0.0
 40
0.0000771426995278
 40
0.0000771426995278
 40
0.0000771426995278
 40
0.0001590107842012
 40
0.0001590107842012
 40
0.0001590107842012
 40
0.0002430455442593
 40
0.0002430455442593
 40
0.0002430455442593
 40
0.0002430455442593
 10
35.78380887976013
 20
5.526302787332255
 30
0.0
 10
35.76321972128379
 20
5.528926642713752
 30
0.0
 10
35.74141124412276
 20
5.528778194472838
 30
0.0
 10
35.71896708372104
 20
5.526183134231998
 30
0.0
 10
35.69514712206025
 20
5.523428999778417
 30
0.0
 10
35.67044055940377
 20
5.517901854897967
 30
0.0
 10
35.64535196100377
 20
5.509892457367683
 30
0.0
 10
35.61960027853041
 20
5.501671373881293
 30
0.0
 10
35.59327235459065
 20
5.490781023766814
 30
0.0
 10
35.56682816378543
 20
5.477437623078869
 30
0.0
  0
SPLINE
  5
4F0
330
1F
100
AcDbEntity
  8
외형선
  6
Continuous
 62
     1
370
    15
100
AcDbSpline
210
0.0
220
0.0
230
1.0
 70
     8
 71
     3
 72
    10
 73
     6
 74
     0
 42
0.000000001
 43
0.00000001
 40
0.0
 40
0.0
 40
0.0
 40
0.0
 40
0.5
 40
0.5
 40
1.0
 40
1.0
 40
1.0
 40
1.0
 10
36.65053715536061
 20
5.88028106196765
 30
0.0
 10
36.51183515310913
 20
5.740510114554623
 30
0.0
 10
36.35470914451342
 20
5.649807084898959
 30
0.0
 10
36.05610636869568
 20
5.535533119755299
 30
0.0
 10
35.91039413576199
 20
5.510170928152099
 30
0.0
 10
35.78380887976016
 20
5.526302787332241
 30
0.0
  0
SPLINE
  5
4F1
330
1F
100
AcDbEntity
  8
외형선
  6
Continuous
 62
     1
370
    15
100
AcDbSpline
210
0.0
220
0.0
230
1.0
 70
     8
 71
     3
 72
    14
 73
    10
 74
     0
 42
0.000000001
 43
0.00000001
 40
0.0
 40
0.0
 40
0.0
 40
0.0
 40
0.0000836560572176
 40
0.0000836560572176
 40
0.0000836560572176
 40
0.0001568075898423
 40
0.0001568075898423
 40
0.0001568075898423
 40
0.0002324909787327
 40
0.0002324909787327
 40
0.0002324909787327
 40
0.0002324909787327
 10
36.86687362493441
 20
6.016145483148931
 30
0.0
 10
36.84063429261306
 20
6.007716682949094
 30
0.0
 10
36.81410850151515
 20
5.996522286498759
 30
0.0
 10
36.7877716524946
 20
5.982572956420259
 30
0.0
 10
36.76473424050674
 20
5.970371175420481
 30
0.0
 10
36.74169201898189
 20
5.955980851376366
 30
0.0
 10
36.71908036688666
 20
5.939367529032679
 30
0.0
 10
36.69572165890554
 20
5.922205326837662
 30
0.0
 10
36.67258429605168
 20
5.902498115017443
 30
0.0
 10
36.65053715536068
 20
5.880281061967714
 30
0.0
  0
SPLINE
  5
4F2
330
1F
100
AcDbEntity
  8
외형선
  6
Continuous
 62
     1
370
    15
100
AcDbSpline
210
0.0
220
0.0
230
1.0
 70
     8
 71
     3
 72
     8
 73
     4
 74
     0
 42
0.000000001
 43
0.00000001
 40
0.0
 40
0.0
 40
0.0
 40
0.0
 40
1.0
 40
1.0
 40
1.0
 40
1.0
 10
37.67400154858888
 20
6.22500721054709
 30
0.0
 10
37.40403771781354
 20
6.171886955399379
 30
0.0
 10
37.13391861887101
 20
6.101927353623053
 30
0.0
 10
36.86688264404029
 20
6.016148380329127
 30
0.0
  0
SPLINE
  5
4F3
330
1F
100
AcDbEntity
  8
외형선
  6
Continuous
 62
     1
370
    15
100
AcDbSpline
210
0.0
220
0.0
230
1.0
 70
     8
 71
     3
 72
    14
 73
    10
 74
     0
 42
0.000000001
 43
0.00000001
 40
0.0
 40
0.0
 40
0.0
 40
0.0
 40
0.0000774249797296
 40
0.0000774249797296
 40
0.0000774249797296
 40
0.0001594224908956
 40
0.0001594224908956
 40
0.0001594224908956
 40
0.0002435782803196
 40
0.0002435782803196
 40
0.0002435782803196
 40
0.0002435782803196
 10
37.89099886970047
 20
6.19571874225577
 30
0.0
 10
37.8703294372749
 20
6.20709482404689
 30
0.0
 10
37.84843630900917
 20
6.215668176791588
 30
0.0
 10
37.82590481111646
 20
6.221601975047611
 30
0.0
 10
37.80204131041046
 20
6.227886563828448
 30
0.0
 10
37.77729135621668
 20
6.23125769393426
 30
0.0
 10
37.75215713240124
 20
6.231844720193094
 30
0.0
 10
37.72636222546242
 20
6.232447177139
 30
0.0
 10
37.69998944753337
 20
6.230122827915245
 30
0.0
 10
37.67349656702112
 20
6.224907826784942
 30
0.0
  0
SPLINE
  5
4F4
330
1F
100
AcDbEntity
  8
외형선
  6
Continuous
 62
     1
370
    15
100
AcDbSpline
210
0.0
220
0.0
230
1.0
 70
     8
 71
     3
 72
    10
 73
     6
 74
     0
 42
0.000000001
 43
0.00000001
 40
0.0
 40
0.0
 40
0.0
 40
0.0
 40
0.5
 40
0.5
 40
1.0
 40
1.0
 40
1.0
 40
1.0
 10
38.75851010061206
 20
6.276759451816615
 30
0.0
 10
38.6193799222734
 20
6.169302398018863
 30
0.0
 10
38.46243331444795
 20
6.121388867098772
 30
0.0
 10
38.16377505392751
 20
6.099878010651032
 30
0.0
 10
38.01787737923121
 20
6.125887105264467
 30
0.0
 10
37.89099886970047
 20
6.195718742255763
 30
0.0
  0
SPLINE
  5
4F5
330
1F
100
AcDbEntity
  8
외형선
  6
Continuous
 62
     1
370
    15
100
AcDbSpline
210
0.0
220
0.0
230
1.0
 70
     8
 71
     3
 72
    14
 73
    10
 74
     0
 42
0.000000001
 43
0.00000001
 40
0.0
 40
0.0
 40
0.0
 40
0.0
 40
0.0000830745910818
 40
0.0000830745910818
 40
0.0000830745910818
 40
0.0001561500998828
 40
0.0001561500998828
 40
0.0001561500998828
 40
0.0002317647985446
 40
0.0002317647985446
 40
0.0002317647985446
 40
0.0002317647985446
 10
38.97463586919957
 20
6.34987437665098
 30
0.0
 10
38.94851965527613
 20
6.350038546068148
 30
0.0
 10
38.92211486134391
 20
6.347274348421258
 30
0.0
 10
38.8958950135785
 20
6.341376780277243
 30
0.0
 10
38.87282425496113
 20
6.336187529283193
 30
0.0
 10
38.84974289528644
 20
6.328537677689645
 30
0.0
 10
38.82710178291401
 20
6.318182443547314
 30
0.0
 10
38.80370875555569
 20
6.307483310412471
 30
0.0
 10
38.78055686353902
 20
6.293787247067015
 30
0.0
 10
38.75851010061214
 20
6.276759451816672
 30
0.0
  0
SPLINE
  5
4F6
330
1F
100
AcDbEntity
  8
외형선
  6
Continuous
 62
     1
370
    15
100
AcDbSpline
210
0.0
220
0.0
230
1.0
 70
     8
 71
     3
 72
     8
 73
     4
 74
     0
 42
0.000000001
 43
0.00000001
 40
0.0
 40
0.0
 40
0.0
 40
0.0
 40
1.0
 40
1.0
 40
1.0
 40
1.0
 10
39.77944535854384
 20
6.294178073575721
 30
0.0
 10
39.51143063714716
 20
6.329565321330931
 30
0.0
 10
39.24208973947617
 20
6.348193131930556
 30
0.0
 10
38.97463586990358
 20
6.349874376646539
 30
0.0
  0
SPLINE
  5
4F7
330
1F
100
AcDbEntity
  8
외형선
  6
Continuous
 62
     1
370
    15
100
AcDbSpline
210
0.0
220
0.0
230
1.0
 70
     8
 71
     3
 72
     8
 73
     4
 74
     0
 42
0.000000001
 43
0.00000001
 40
0.0001619078223196
 40
0.0001619078223196
 40
0.0001619078223196
 40
0.0001619078223196
 40
0.0002430078274872
 40
0.0002430078274872
 40
0.0002430078274872
 40
0.0002430078274872
 10
39.85521784642489
 20
6.27575625253835
 30
0.0
 10
39.83035378463525
 20
6.284623753199894
 30
0.0
 10
39.80495877106786
 20
6.290809417388984
 30
0.0
 10
39.77944535789101
 20
6.294178073661938
 30
0.0
  0
SPLINE
  5
4F8
330
1F
100
AcDbEntity
  8
외형선
  6
Continuous
 62
     1
370
    15
100
AcDbSpline
210
0.0
220
0.0
230
1.0
 70
     8
 71
     3
 72
     8
 73
     4
 74
     0
 42
0.000000001
 43
0.00000001
 40
0.0
 40
0.0
 40
0.0
 40
0.0
 40
1.0
 40
1.0
 40
1.0
 40
1.0
 10
40.08593034475524
 20
6.00409681921512
 30
0.0
 10
40.00941839389259
 20
6.095988325411841
 30
0.0
 10
39.93250059602832
 20
6.186528641620597
 30
0.0
 10
39.85521784642489
 20
6.275756252538343
 30
0.0
  0
SPLINE
  5
4F9
330
1F
100
AcDbEntity
  8
외형선
  6
Continuous
 62
     1
370
    15
100
AcDbSpline
210
0.0
220
0.0
230
1.0
 70
     8
 71
     3
 72
    10
 73
     6
 74
     0
 42
0.000000001
 43
0.00000001
 40
0.0
 40
0.0
 40
0.0
 40
0.0
 40
0.5
 40
0.5
 40
1.0
 40
1.0
 40
1.0
 40
1.0
 10
23.7092157954246
 20
-4.298169446462235
 30
0.0
 10
23.68404762965986
 20
-3.932344432305437
 30
0.0
 10
23.65808343632714
 20
-3.522661060353992
 30
0.0
 10
23.60669367124965
 20
-2.647909028120703
 30
0.0
 10
23.58128737893331
 20
-2.183192685107026
 30
0.0
 10
23.55716174033347
 20
-1.711233936731172
 30
0.0
  0
SPLINE
  5
4FA
330
1F
100
AcDbEntity
  8
외형선
  6
Continuous
 62
     1
370
    15
100
AcDbSpline
210
0.0
220
0.0
230
1.0
 70
     8
 71
     3
 72
    10
 73
     6
 74
     0
 42
0.000000001
 43
0.00000001
 40
0.0
 40
0.0
 40
0.0
 40
0.0
 40
0.4999999999999998
 40
0.4999999999999998
 40
1.0
 40
1.0
 40
1.0
 40
1.0
 10
24.51482499328253
 20
-4.856840846272592
 30
0.0
 10
24.4907938649105
 20
-4.541464760298648
 30
0.0
 10
24.46544631866368
 20
-4.176495734713224
 30
0.0
 10
24.41408704398222
 20
-3.37160732232996
 30
0.0
 10
24.3880945038838
 20
-2.931960714432324
 30
0.0
 10
24.36285806429379
 20
-2.473734934825489
 30
0.0
  0
SPLINE
  5
4FB
330
1F
100
AcDbEntity
  8
외형선
  6
Continuous
 62
     1
370
    15
100
AcDbSpline
210
0.0
220
0.0
230
1.0
 70
     8
 71
     3
 72
    10
 73
     6
 74
     0
 42
0.000000001
 43
0.00000001
 40
0.0
 40
0.0
 40
0.0
 40
0.0
 40
0.5
 40
0.5
 40
1.0
 40
1.0
 40
1.0
 40
1.0
 10
37.17759237154655
 20
1.704904950335011
 30
0.0
 10
37.15139202739428
 20
2.190405414156293
 30
0.0
 10
37.12547767554949
 20
2.657248610652323
 30
0.0
 10
37.07632373411582
 20
3.517377956671381
 30
0.0
 10
37.05353531274406
 20
3.909461118725651
 30
0.0
 10
37.02853170196613
 20
4.273371592184634
 30
0.0
  0
SPLINE
  5
4FC
330
1F
100
AcDbEntity
  8
외형선
  6
Continuous
 62
     1
370
    15
100
AcDbSpline
210
0.0
220
0.0
230
1.0
 70
     8
 71
     3
 72
    12
 73
     8
 74
     0
 42
0.000000001
 43
0.00000001
 40
0.0
 40
0.0
 40
0.0
 40
0.0
 40
0.4999999999999998
 40
0.4999999999999998
 40
0.7499999999999999
 40
0.7499999999999999
 40
1.0
 40
1.0
 40
1.0
 40
1.0
 10
27.17609139693923
 20
1.732704050627757
 30
0.0
 10
27.14990103523266
 20
2.217516156083104
 30
0.0
 10
27.12401884498776
 20
2.683265705634667
 30
0.0
 10
27.0872283943756
 20
3.326294306051881
 30
0.0
 10
27.07553956989794
 20
3.530185479545529
 30
0.0
 10
27.05185612049241
 20
3.92290849678163
 30
0.0
 10
27.03961769537409
 20
4.112950792124408
 30
0.0
 10
27.02709362497226
 20
4.294245245300565
 30
0.0
  0
SPLINE
  5
4FD
330
1F
100
AcDbEntity
  8
외형선
  6
Continuous
 62
     1
370
    15
100
AcDbSpline
210
0.0
220
0.0
230
1.0
 70
     8
 71
     3
 72
    12
 73
     8
 74
     0
 42
0.000000001
 43
0.00000001
 40
0.0
 40
0.0
 40
0.0
 40
0.0
 40
0.5
 40
0.5
 40
0.75
 40
0.75
 40
1.0
 40
1.0
 40
1.0
 40
1.0
 10
17.17483976542009
 20
1.755863075903993
 30
0.0
 10
17.14865255727259
 20
2.240196771931363
 30
0.0
 10
17.12279215289817
 20
2.705122066232952
 30
0.0
 10
17.08605778404558
 20
3.346530840851798
 30
0.0
 10
17.07440874143944
 20
3.549735279129471
 30
0.0
 10
17.05066821902949
 20
3.941726247899132
 30
0.0
 10
17.03840432514881
 20
4.131318012136226
 30
0.0
 10
17.025858674484
 20
4.312080412603605
 30
0.0
  0
SPLINE
  5
4FE
330
1F
100
AcDbEntity
  8
외형선
  6
Continuous
 62
     1
370
    15
100
AcDbSpline
210
0.0
220
0.0
230
1.0
 70
     8
 71
     3
 72
    12
 73
     8
 74
     0
 42
0.000000001
 43
0.00000001
 40
0.0
 40
0.0
 40
0.0
 40
0.0
 40
0.2499999999999999
 40
0.2499999999999999
 40
0.4999999999999998
 40
0.4999999999999998
 40
1.0
 40
1.0
 40
1.0
 40
1.0
 10
36.31006150153641
 20
2.514161407763559
 30
0.0
 10
36.29728128053247
 20
2.743570739515596
 30
0.0
 10
36.28472694634752
 20
2.965611633117944
 30
0.0
 10
36.26031310930081
 20
3.39095597425522
 30
0.0
 10
36.24873012149723
 20
3.592805981504472
 30
0.0
 10
36.21291989812488
 20
4.178502456957296
 30
0.0
 10
36.18747931493655
 20
4.542342606658258
 30
0.0
 10
36.16145938049658
 20
4.861140471858852
 30
0.0
  0
SPLINE
  5
4FF
330
1F
100
AcDbEntity
  8
외형선
  6
Continuous
 62
     1
370
    15
100
AcDbSpline
210
0.0
220
0.0
230
1.0
 70
     8
 71
     3
 72
    12
 73
     8
 74
     0
 42
0.000000001
 43
0.00000001
 40
0.0
 40
0.0
 40
0.0
 40
0.0
 40
0.2499999999999999
 40
0.2499999999999999
 40
0.4999999999999998
 40
0.4999999999999998
 40
1.0
 40
1.0
 40
1.0
 40
1.0
 10
26.30883323774851
 20
2.536198985592214
 30
0.0
 10
26.29606732419417
 20
2.765139872175513
 30
0.0
 10
26.28353150355737
 20
2.986640533590125
 30
0.0
 10
26.259161848644
 20
3.41079158331318
 30
0.0
 10
26.24760472901074
 20
3.612000099804809
 30
0.0
 10
26.21172010321184
 20
4.196430969332972
 30
0.0
 10
26.18624332710712
 20
4.559100017039277
 30
0.0
 10
26.16020537869617
 20
4.876464746398013
 30
0.0
  0
SPLINE
  5
500
330
1F
100
AcDbEntity
  8
외형선
  6
Continuous
 62
     1
370
    15
100
AcDbSpline
210
0.0
220
0.0
230
1.0
 70
     8
 71
     3
 72
    12
 73
     8
 74
     0
 42
0.000000001
 43
0.00000001
 40
0.0
 40
0.0
 40
0.0
 40
0.0
 40
0.2500000000000001
 40
0.2500000000000001
 40
0.5000000000000001
 40
0.5000000000000001
 40
1.0
 40
1.0
 40
1.0
 40
1.0
 10
16.30736089249929
 20
2.562589019457433
 30
0.0
 10
16.29461460888507
 20
2.790923939042989
 30
0.0
 10
16.2821033665561
 20
3.011735548292186
 30
0.0
 10
16.25779112110439
 20
3.434381380224763
 30
0.0
 10
16.24626024605371
 20
3.634825159920736
 30
0.0
 10
16.21029384198431
 20
4.217633892313422
 30
0.0
 10
16.184779155833
 20
4.578841510113462
 30
0.0
 10
16.15872498623986
 20
4.894453141259723
 30
0.0
  0
SPLINE
  5
501
330
1F
100
AcDbEntity
  8
외형선
  6
Continuous
 62
     1
370
    15
100
AcDbSpline
210
0.0
220
0.0
230
1.0
 70
     8
 71
     3
 72
    10
 73
     6
 74
     0
 42
0.000000001
 43
0.00000001
 40
0.0
 40
0.0
 40
0.0
 40
0.0
 40
0.5
 40
0.5
 40
1.0
 40
1.0
 40
1.0
 40
1.0
 10
24.73168984855414
 20
-4.943875158935032
 30
0.0
 10
24.70787148544091
 20
-4.644557286040272
 30
0.0
 10
24.68258032191281
 20
-4.294196227345014
 30
0.0
 10
24.63099900539028
 20
-3.513406496596015
 30
0.0
 10
24.60472827579109
 20
-3.083228837898633
 30
0.0
 10
24.57908086396266
 20
-2.631510551807589
 30
0.0
  0
SPLINE
  5
502
330
1F
100
AcDbEntity
  8
외형선
  6
Continuous
 62
     1
370
    15
100
AcDbSpline
210
0.0
220
0.0
230
1.0
 70
     8
 71
     3
 72
    10
 73
     6
 74
     0
 42
0.000000001
 43
0.00000001
 40
0.0
 40
0.0
 40
0.0
 40
0.0
 40
0.4999999999999998
 40
0.4999999999999998
 40
1.0
 40
1.0
 40
1.0
 40
1.0
 10
34.73290672236803
 20
-4.959139270655039
 30
0.0
 10
34.70912816501115
 20
-4.661415049351336
 30
0.0
 10
34.68386137555605
 20
-4.312494234346654
 30
0.0
 10
34.6322912470757
 20
-3.534007407966118
 30
0.0
 10
34.60600728499011
 20
-3.104689205073856
 30
0.0
 10
34.58032946817602
 20
-2.653476434596963
 30
0.0
  0
SPLINE
  5
503
330
1F
100
AcDbEntity
  8
외형선
  6
Continuous
 62
     1
370
    15
100
AcDbSpline
210
0.0
220
0.0
230
1.0
 70
     8
 71
     3
 72
    12
 73
     8
 74
     0
 42
0.000000001
 43
0.00000001
 40
0.0
 40
0.0
 40
0.0
 40
0.0
 40
0.2500000000000002
 40
0.2500000000000002
 40
0.5000000000000004
 40
0.5000000000000004
 40
1.0
 40
1.0
 40
1.0
 40
1.0
 10
36.09283326844678
 20
2.749334634118479
 30
0.0
 10
36.08030106502775
 20
2.974863775419013
 30
0.0
 10
36.06802907761397
 20
3.192412853965073
 30
0.0
 10
36.04423080987341
 20
3.607891575292519
 30
0.0
 10
36.032795814973
 20
3.805478149339314
 30
0.0
 10
35.99664885938104
 20
4.381186351751686
 30
0.0
 10
35.97112996330901
 20
4.735645340680441
 30
0.0
 10
35.94519184805891
 20
5.043185122879932
 30
0.0
  0
SPLINE
  5
504
330
1F
100
AcDbEntity
  8
외형선
  6
Continuous
 62
     1
370
    15
100
AcDbSpline
210
0.0
220
0.0
230
1.0
 70
     8
 71
     3
 72
    12
 73
     8
 74
     0
 42
0.000000001
 43
0.00000001
 40
0.0
 40
0.0
 40
0.0
 40
0.0
 40
0.2499999999999997
 40
0.2499999999999997
 40
0.4999999999999994
 40
0.4999999999999994
 40
1.0
 40
1.0
 40
1.0
 40
1.0
 10
35.28814900491689
 20
3.447875369768076
 30
0.0
 10
35.27635777499114
 20
3.653228637234526
 30
0.0
 10
35.2649204951426
 20
3.849039603010872
 30
0.0
 10
35.24082490109376
 20
4.229093825199512
 30
0.0
 10
35.22843672552321
 20
4.411742552604486
 30
0.0
 10
35.19060127634424
 20
4.930675698240882
 30
0.0
 10
35.16447822249603
 20
5.237451416162773
 30
0.0
 10
35.13853955793398
 20
5.490934296793553
 30
0.0
  0
SPLINE
  5
505
330
1F
100
AcDbEntity
  8
외형선
  6
Continuous
 62
     1
370
    15
100
AcDbSpline
210
0.0
220
0.0
230
1.0
 70
     8
 71
     3
 72
    12
 73
     8
 74
     0
 42
0.000000001
 43
0.00000001
 40
0.0
 40
0.0
 40
0.0
 40
0.0
 40
0.2500000000000001
 40
0.2500000000000001
 40
0.5000000000000001
 40
0.5000000000000001
 40
1.0
 40
1.0
 40
1.0
 40
1.0
 10
26.09156782500549
 20
2.772096333168615
 30
0.0
 10
26.07905230075241
 20
2.997104035806863
 30
0.0
 10
26.06680116348565
 20
3.214060820507288
 30
0.0
 10
26.04305156224263
 20
3.628246236746555
 30
0.0
 10
26.03159642646756
 20
3.825404341327903
 30
0.0
 10
25.99537639665752
 20
4.399673352769006
 30
0.0
 10
25.96982336651851
 20
4.752833005422608
 30
0.0
 10
25.94387016394103
 20
5.058811585762462
 30
0.0
  0
SPLINE
  5
506
330
1F
100
AcDbEntity
  8
외형선
  6
Continuous
 62
     1
370
    15
100
AcDbSpline
210
0.0
220
0.0
230
1.0
 70
     8
 71
     3
 72
    12
 73
     8
 74
     0
 42
0.000000001
 43
0.00000001
 40
0.0
 40
0.0
 40
0.0
 40
0.0
 40
0.2499999999999999
 40
0.2499999999999999
 40
0.4999999999999998
 40
0.4999999999999998
 40
1.0
 40
1.0
 40
1.0
 40
1.0
 10
25.28665887614489
 20
3.47380970277323
 30
0.0
 10
25.2749146524295
 20
3.678069851568174
 30
0.0
 10
25.26345272123885
 20
3.873165587338256
 30
0.0
 10
25.23933317950224
 20
4.251519703976164
 30
0.0
 10
25.22693830098207
 20
4.43323966744743
 30
0.0
 10
25.18909945777608
 20
4.94920372081389
 30
0.0
 10
25.16299683138378
 20
5.253753865527336
 30
0.0
 10
25.13709899071499
 20
5.504959863867703
 30
0.0
  0
SPLINE
  5
507
330
1F
100
AcDbEntity
  8
외형선
  6
Continuous
 62
     1
370
    15
100
AcDbSpline
210
0.0
220
0.0
230
1.0
 70
     8
 71
     3
 72
    12
 73
     8
 74
     0
 42
0.000000001
 43
0.00000001
 40
0.0
 40
0.0
 40
0.0
 40
0.0
 40
0.25
 40
0.25
 40
0.5000000000000002
 40
0.5000000000000002
 40
1.0
 40
1.0
 40
1.0
 40
1.0
 10
16.09016003043945
 20
2.797392190161513
 30
0.0
 10
16.0776677881394
 20
3.021734868663748
 30
0.0
 10
16.06544436765946
 20
3.237953990668902
 30
0.0
 10
16.04175729454584
 20
3.650559389496816
 30
0.0
 10
16.03027772040724
 20
3.84720839290459
 30
0.0
 10
15.99399125826791
 20
4.419684994764324
 30
0.0
 10
15.96841099302693
 20
4.77129989058546
 30
0.0
 10
15.94245131501517
 20
5.075488267778737
 30
0.0
  0
SPLINE
  5
508
330
1F
100
AcDbEntity
  8
외형선
  6
Continuous
 62
     1
370
    15
100
AcDbSpline
210
0.0
220
0.0
230
1.0
 70
     8
 71
     3
 72
    12
 73
     8
 74
     0
 42
0.000000001
 43
0.00000001
 40
0.0
 40
0.0
 40
0.0
 40
0.0
 40
0.2499999999999999
 40
0.2499999999999999
 40
0.4999999999999998
 40
0.4999999999999998
 40
1.0
 40
1.0
 40
1.0
 40
1.0
 10
15.28541152330093
 20
3.49549189965241
 30
0.0
 10
15.27369895328505
 20
3.698971218906066
 30
0.0
 10
15.26220203695616
 20
3.89362648556834
 30
0.0
 10
15.23804567040657
 20
4.270781055094978
 30
0.0
 10
15.22563643241007
 20
4.451823808562444
 30
0.0
 10
15.1877681673639
 20
4.965555945798527
 30
0.0
 10
15.16166448141422
 20
5.268347482141357
 30
0.0
 10
15.13578441896182
 20
5.517667540660631
 30
0.0
  0
SPLINE
  5
509
330
1F
100
AcDbEntity
  8
외형선
  6
Continuous
 62
     1
370
    15
100
AcDbSpline
210
0.0
220
0.0
230
1.0
 70
     8
 71
     3
 72
    12
 73
     8
 74
     0
 42
0.000000001
 43
0.00000001
 40
0.0
 40
0.0
 40
0.0
 40
0.0
 40
0.25
 40
0.25
 40
0.5
 40
0.5
 40
1.0
 40
1.0
 40
1.0
 40
1.0
 10
15.59523109704174
 20
-5.410361337777839
 30
0.0
 10
15.58307526036873
 20
-5.285686501436595
 30
0.0
 10
15.57154101868499
 20
-5.150898785275461
 30
0.0
 10
15.54773656848144
 20
-4.856081055661359
 30
0.0
 10
15.53545096642697
 20
-4.695747641241435
 30
0.0
 10
15.49778234699494
 20
-4.179108492599641
 30
0.0
 10
15.47157910631065
 20
-3.786679168620746
 30
0.0
 10
15.44537644875767
 20
-3.361243480529363
 30
0.0
  0
SPLINE
  5
50A
330
1F
100
AcDbEntity
  8
외형선
  6
Continuous
 62
     1
370
    15
100
AcDbSpline
210
0.0
220
0.0
230
1.0
 70
     8
 71
     3
 72
    12
 73
     8
 74
     0
 42
0.000000001
 43
0.00000001
 40
0.0
 40
0.0
 40
0.0
 40
0.0
 40
0.2499999999999998
 40
0.2499999999999998
 40
0.4999999999999996
 40
0.4999999999999996
 40
1.0
 40
1.0
 40
1.0
 40
1.0
 10
25.59644225867052
 20
-5.422734547330728
 30
0.0
 10
25.58425979751236
 20
-5.298770144847817
 30
0.0
 10
25.5726918033102
 20
-5.164589605064346
 30
0.0
 10
25.54893017262181
 20
-4.871372681766185
 30
0.0
 10
25.53666240212735
 20
-4.711807264953332
 30
0.0
 10
25.49903471519142
 20
-4.197318939659193
 30
0.0
 10
25.47284167880111
 20
-3.806114444591816
 30
0.0
 10
25.44663063230577
 20
-3.381581983523279
 30
0.0
  0
SPLINE
  5
50B
330
1F
100
AcDbEntity
  8
외형선
  6
Continuous
 62
     1
370
    15
100
AcDbSpline
210
0.0
220
0.0
230
1.0
 70
     8
 71
     3
 72
    12
 73
     8
 74
     0
 42
0.000000001
 43
0.00000001
 40
0.0
 40
0.0
 40
0.0
 40
0.0
 40
0.2500000000000001
 40
0.2500000000000001
 40
0.5000000000000001
 40
0.5000000000000001
 40
1.0
 40
1.0
 40
1.0
 40
1.0
 10
35.59784518748546
 20
-5.436944874179242
 30
0.0
 10
35.5856362173059
 20
-5.313847830592368
 30
0.0
 10
35.5740262115348
 20
-5.180396239989588
 30
0.0
 10
35.5503229052416
 20
-4.889147047879834
 30
0.0
 10
35.53808041231126
 20
-4.730537094543183
 30
0.0
 10
35.50051440320362
 20
-4.218761224983079
 30
0.0
 10
35.47434322815765
 20
-3.829154791256445
 30
0.0
 10
35.44813179770766
 20
-3.405860282046883
 30
0.0
  0
SPLINE
  5
50C
330
1F
100
AcDbEntity
  8
외형선
  6
Continuous
 62
     1
370
    15
100
AcDbSpline
210
0.0
220
0.0
230
1.0
 70
     8
 71
     3
 72
    10
 73
     6
 74
     0
 42
0.000000001
 43
0.00000001
 40
0.0
 40
0.0
 40
0.0
 40
0.0
 40
0.5
 40
0.5
 40
1.0
 40
1.0
 40
1.0
 40
1.0
 10
15.81106486731163
 20
-5.572417476399973
 30
0.0
 10
15.78654500309694
 20
-5.334463764820039
 30
0.0
 10
15.76401003832659
 20
-5.053420754115467
 30
0.0
 10
15.71474432462776
 20
-4.38864658194858
 30
0.0
 10
15.68889511985612
 20
-4.006844217033875
 30
0.0
 10
15.66287567100342
 20
-3.589343955108869
 30
0.0
  0
SPLINE
  5
50D
330
1F
100
AcDbEntity
  8
외형선
  6
Continuous
 62
     1
370
    15
100
AcDbSpline
210
0.0
220
0.0
230
1.0
 70
     8
 71
     3
 72
    10
 73
     6
 74
     0
 42
0.000000001
 43
0.00000001
 40
0.0
 40
0.0
 40
0.0
 40
0.0
 40
0.5
 40
0.5
 40
1.0
 40
1.0
 40
1.0
 40
1.0
 10
25.81236640766356
 20
-5.584992842725309
 30
0.0
 10
25.78778912561947
 20
-5.348575523752824
 30
0.0
 10
25.76524628279862
 20
-5.068960154277748
 30
0.0
 10
25.71603538017812
 20
-4.407152525482084
 30
0.0
 10
25.69019605556342
 20
-4.026614721215405
 30
0.0
 10
25.66416742210754
 20
-3.610044277773549
 30
0.0
  0
SPLINE
  5
50E
330
1F
100
AcDbEntity
  8
외형선
  6
Continuous
 62
     1
370
    15
100
AcDbSpline
210
0.0
220
0.0
230
1.0
 70
     8
 71
     3
 72
    10
 73
     6
 74
     0
 42
0.000000001
 43
0.00000001
 40
0.0
 40
0.0
 40
0.0
 40
0.0
 40
0.5
 40
0.5
 40
1.0
 40
1.0
 40
1.0
 40
1.0
 10
35.07244219298464
 20
3.57922344471747
 30
0.0
 10
35.04918587730327
 20
3.976080683961661
 30
0.0
 10
35.02448959961417
 20
4.348912306124375
 30
0.0
 10
34.9733142710765
 20
5.013264056990557
 30
0.0
 10
34.94697284398998
 20
5.303778467118511
 30
0.0
 10
34.92098933479593
 20
5.539610840626991
 30
0.0
  0
SPLINE
  5
50F
330
1F
100
AcDbEntity
  8
외형선
  6
Continuous
 62
     1
370
    15
100
AcDbSpline
210
0.0
220
0.0
230
1.0
 70
     8
 71
     3
 72
    10
 73
     6
 74
     0
 42
0.000000001
 43
0.00000001
 40
0.0
 40
0.0
 40
0.0
 40
0.0
 40
0.5
 40
0.5
 40
1.0
 40
1.0
 40
1.0
 40
1.0
 10
35.81368488784864
 20
-5.597619037498727
 30
0.0
 10
35.78907738426923
 20
-5.36302690854222
 30
0.0
 10
35.76654539357513
 20
-5.08520055940762
 30
0.0
 10
35.71745105690138
 20
-4.42735547770354
 30
0.0
 10
35.69165412446428
 20
-4.048682007945781
 30
0.0
 10
35.66564655929446
 20
-3.633681794358192
 30
0.0
  0
SPLINE
  5
510
330
1F
100
AcDbEntity
  8
외형선
  6
Continuous
 62
     1
370
    15
100
AcDbSpline
210
0.0
220
0.0
230
1.0
 70
     8
 71
     3
 72
    10
 73
     6
 74
     0
 42
0.000000001
 43
0.00000001
 40
0.0
 40
0.0
 40
0.0
 40
0.0
 40
0.4999999999999998
 40
0.4999999999999998
 40
1.0
 40
1.0
 40
1.0
 40
1.0
 10
16.61670758697239
 20
-5.91266977190251
 30
0.0
 10
16.59106744398315
 20
-5.728680055885586
 30
0.0
 10
16.5661676528658
 20
-5.489853756309851
 30
0.0
 10
16.51969053810985
 20
-4.931484858646679
 30
0.0
 10
16.49491565263147
 20
-4.599459170167587
 30
0.0
 10
16.46930704509962
 20
-4.222828470425777
 30
0.0
  0
SPLINE
  5
511
330
1F
100
AcDbEntity
  8
외형선
  6
Continuous
 62
     1
370
    15
100
AcDbSpline
210
0.0
220
0.0
230
1.0
 70
     8
 71
     3
 72
    10
 73
     6
 74
     0
 42
0.000000001
 43
0.00000001
 40
0.0
 40
0.0
 40
0.0
 40
0.0
 40
0.5
 40
0.5
 40
1.0
 40
1.0
 40
1.0
 40
1.0
 10
25.07110872687062
 20
3.601964039073223
 30
0.0
 10
25.04792968282716
 20
3.99697436635548
 30
0.0
 10
25.02308521829
 20
4.368957066384616
 30
0.0
 10
24.97189414979806
 20
5.029783714765734
 30
0.0
 10
24.94556581607148
 20
5.318288806658138
 30
0.0
 10
24.91961484046027
 20
5.552038750711872
 30
0.0
  0
SPLINE
  5
512
330
1F
100
AcDbEntity
  8
외형선
  6
Continuous
 62
     1
370
    15
100
AcDbSpline
210
0.0
220
0.0
230
1.0
 70
     8
 71
     3
 72
    10
 73
     6
 74
     0
 42
0.000000001
 43
0.00000001
 40
0.0
 40
0.0
 40
0.0
 40
0.0
 40
0.5
 40
0.5
 40
1.0
 40
1.0
 40
1.0
 40
1.0
 10
15.06989006145801
 20
3.622685515528601
 30
0.0
 10
15.04664922346057
 20
4.016970920852528
 30
0.0
 10
15.02175547540353
 20
4.38786970612984
 30
0.0
 10
14.97050325185036
 20
5.045896593106206
 30
0.0
 10
14.94416319735209
 20
5.332687717386796
 30
0.0
 10
14.91822088511524
 20
5.564545897412216
 30
0.0
  0
SPLINE
  5
513
330
1F
100
AcDbEntity
  8
외형선
  6
Continuous
 62
     1
370
    15
100
AcDbSpline
210
0.0
220
0.0
230
1.0
 70
     8
 71
     3
 72
    10
 73
     6
 74
     0
 42
0.000000001
 43
0.00000001
 40
0.0
 40
0.0
 40
0.0
 40
0.0
 40
0.5000000000000001
 40
0.5000000000000001
 40
1.0
 40
1.0
 40
1.0
 40
1.0
 10
26.61811616665358
 20
-5.922717792962767
 30
0.0
 10
26.59246072877486
 20
-5.740793389634372
 30
0.0
 10
26.56752526191017
 20
-5.503872420355857
 30
0.0
 10
26.52094557774207
 20
-4.948729025487405
 30
0.0
 10
26.49634491603139
 20
-4.61919437305293
 30
0.0
 10
26.47077542931011
 20
-4.244388417477711
 30
0.0
  0
SPLINE
  5
514
330
1F
100
AcDbEntity
  8
외형선
  6
Continuous
 62
     1
370
    15
100
AcDbSpline
210
0.0
220
0.0
230
1.0
 70
     8
 71
     3
 72
    10
 73
     6
 74
     0
 42
0.000000001
 43
0.00000001
 40
0.0
 40
0.0
 40
0.0
 40
0.0
 40
0.5
 40
0.5
 40
1.0
 40
1.0
 40
1.0
 40
1.0
 10
36.61944594618734
 20
-5.932094217967115
 30
0.0
 10
36.59375541428922
 20
-5.751973184747436
 30
0.0
 10
36.56876680936432
 20
-5.516615143213653
 30
0.0
 10
36.52205797108928
 20
-4.96393985132202
 30
0.0
 10
36.49758715796439
 20
-4.636306901847031
 30
0.0
 10
36.47203144419427
 20
-4.262773202575114
 30
0.0
  0
SPLINE
  5
515
330
1F
100
AcDbEntity
  8
외형선
  6
Continuous
 62
     1
370
    15
100
AcDbSpline
210
0.0
220
0.0
230
1.0
 70
     8
 71
     3
 72
    10
 73
     6
 74
     0
 42
0.000000001
 43
0.00000001
 40
0.0
 40
0.0
 40
0.0
 40
0.0
 40
0.4999999999999998
 40
0.4999999999999998
 40
1.0
 40
1.0
 40
1.0
 40
1.0
 10
34.2071020547845
 20
4.24794972546666
 30
0.0
 10
34.18245979629907
 20
4.608956121794797
 30
0.0
 10
34.15665294324421
 20
4.936202259809064
 30
0.0
 10
34.10479399098443
 20
5.491779371184434
 30
0.0
 10
34.07876214669848
 20
5.719877931150172
 30
0.0
 10
34.05369991501115
 20
5.890556042835711
 30
0.0
  0
SPLINE
  5
516
330
1F
100
AcDbEntity
  8
외형선
  6
Continuous
 62
     1
370
    15
100
AcDbSpline
210
0.0
220
0.0
230
1.0
 70
     8
 71
     3
 72
    10
 73
     6
 74
     0
 42
0.000000001
 43
0.00000001
 40
0.0
 40
0.0
 40
0.0
 40
0.0
 40
0.5
 40
0.5
 40
1.0
 40
1.0
 40
1.0
 40
1.0
 10
24.2058498688601
 20
4.266251025464967
 30
0.0
 10
24.18115937408934
 20
4.626265793907677
 30
0.0
 10
24.15531946485084
 20
4.9521788905102
 30
0.0
 10
24.10343324461684
 20
5.504576463608458
 30
0.0
 10
24.07740724649623
 20
5.730831916149561
 30
0.0
 10
24.05236941649605
 20
5.899569853661801
 30
0.0
  0
SPLINE
  5
517
330
1F
100
AcDbEntity
  8
외형선
  6
Continuous
 62
     1
370
    15
100
AcDbSpline
210
0.0
220
0.0
230
1.0
 70
     8
 71
     3
 72
    12
 73
     8
 74
     0
 42
0.000000001
 43
0.00000001
 40
0.0
 40
0.0
 40
0.0
 40
0.0
 40
0.4999999999999998
 40
0.4999999999999998
 40
0.7499999999999999
 40
0.7499999999999999
 40
1.0
 40
1.0
 40
1.0
 40
1.0
 10
16.83417935548625
 20
-5.925283619621577
 30
0.0
 10
16.80815368084678
 20
-5.758586233380764
 30
0.0
 10
16.78271207778893
 20
-5.535227369582567
 30
0.0
 10
16.74690733771584
 20
-5.135693336633341
 30
0.0
 10
16.7353123072648
 20
-4.991921651473286
 30
0.0
 10
16.71087716996285
 20
-4.677045376223286
 30
0.0
 10
16.69831288729614
 20
-4.5069020934343
 30
0.0
 10
16.68552373283798
 20
-4.325334558351666
 30
0.0
  0
SPLINE
  5
518
330
1F
100
AcDbEntity
  8
외형선
  6
Continuous
 62
     1
370
    15
100
AcDbSpline
210
0.0
220
0.0
230
1.0
 70
     8
 71
     3
 72
    12
 73
     8
 74
     0
 42
0.000000001
 43
0.00000001
 40
0.0
 40
0.0
 40
0.0
 40
0.0
 40
0.4999999999999998
 40
0.4999999999999998
 40
0.7499999999999999
 40
0.7499999999999999
 40
1.0
 40
1.0
 40
1.0
 40
1.0
 10
26.835515201186
 20
-5.933787521022079
 30
0.0
 10
26.80948441258201
 20
-5.769096767023352
 30
0.0
 10
26.78401767722525
 20
-5.547634276173137
 30
0.0
 10
26.74815055827044
 20
-5.150563421403706
 30
0.0
 10
26.73659153867593
 20
-5.007787840578753
 30
0.0
 10
26.71221896370522
 20
-4.694891210449863
 30
0.0
 10
26.69968234418512
 20
-4.525716514137453
 30
0.0
 10
26.68691633038317
 20
-4.345072800539863
 30
0.0
  0
SPLINE
  5
519
330
1F
100
AcDbEntity
  8
외형선
  6
Continuous
 62
     1
370
    15
100
AcDbSpline
210
0.0
220
0.0
230
1.0
 70
     8
 71
     3
 72
    12
 73
     8
 74
     0
 42
0.000000001
 43
0.00000001
 40
0.0
 40
0.0
 40
0.0
 40
0.0
 40
0.5
 40
0.5
 40
0.75
 40
0.75
 40
1.0
 40
1.0
 40
1.0
 40
1.0
 10
36.83693428124445
 20
-5.942706730324768
 30
0.0
 10
36.81087323085887
 20
-5.779990311024842
 30
0.0
 10
36.78535609347918
 20
-5.560275643822133
 30
0.0
 10
36.74939286408403
 20
-5.16531981150349
 30
0.0
 10
36.73785285868935
 20
-5.023375656786594
 30
0.0
 10
36.71351923342556
 20
-4.712128768932895
 30
0.0
 10
36.70099791515942
 20
-4.543734949955247
 30
0.0
 10
36.68824248405744
 20
-4.363808847449543
 30
0.0
  0
SPLINE
  5
51A
330
1F
100
AcDbEntity
  8
외형선
  6
Continuous
 62
     1
370
    15
100
AcDbSpline
210
0.0
220
0.0
230
1.0
 70
     8
 71
     3
 72
    10
 73
     6
 74
     0
 42
0.000000001
 43
0.00000001
 40
0.0
 40
0.0
 40
0.0
 40
0.0
 40
0.5000000000000001
 40
0.5000000000000001
 40
1.0
 40
1.0
 40
1.0
 40
1.0
 10
33.98998059695019
 20
4.460367091959582
 30
0.0
 10
33.96520254972434
 20
4.812066316194634
 30
0.0
 10
33.93942340328368
 20
5.127378497227695
 30
0.0
 10
33.8879452122423
 20
5.656055478933395
 30
0.0
 10
33.86226571047854
 20
5.869226330703902
 30
0.0
 10
33.83767384835772
 20
6.024913079003993
 30
0.0
  0
SPLINE
  5
51B
330
1F
100
AcDbEntity
  8
외형선
  6
Continuous
 62
     1
370
    15
100
AcDbSpline
210
0.0
220
0.0
230
1.0
 70
     8
 71
     3
 72
    10
 73
     6
 74
     0
 42
0.000000001
 43
0.00000001
 40
0.0
 40
0.0
 40
0.0
 40
0.0
 40
0.5
 40
0.5
 40
1.0
 40
1.0
 40
1.0
 40
1.0
 10
23.98861719633871
 20
4.479668869124274
 30
0.0
 10
23.96379708996981
 20
4.830134213162714
 30
0.0
 10
23.93799321890411
 20
5.14386872977554
 30
0.0
 10
23.88650659235158
 20
5.668924340129549
 30
0.0
 10
23.86084339235562
 20
5.880055551098798
 30
0.0
 10
23.83628612162417
 20
6.033645504878833
 30
0.0
  0
SPLINE
  5
51C
330
1F
100
AcDbEntity
  8
외형선
  6
Continuous
 62
     1
370
    15
100
AcDbSpline
210
0.0
220
0.0
230
1.0
 70
     8
 71
     3
 72
    10
 73
     6
 74
     0
 42
0.000000001
 43
0.00000001
 40
0.0
 40
0.0
 40
0.0
 40
0.0
 40
0.5000000000000001
 40
0.5000000000000001
 40
1.0
 40
1.0
 40
1.0
 40
1.0
 10
33.18383081800866
 20
4.996762211993278
 30
0.0
 10
33.1581533888172
 20
5.30627986520703
 30
0.0
 10
33.13202816794488
 20
5.570128274983097
 30
0.0
 10
33.08105325665906
 20
5.985290373428568
 30
0.0
 10
33.05622162851557
 20
6.136545658242652
 30
0.0
 10
33.03296256216045
 20
6.230350744542956
 30
0.0
  0
SPLINE
  5
51D
330
1F
100
AcDbEntity
  8
외형선
  6
Continuous
 62
     1
370
    15
100
AcDbSpline
210
0.0
220
0.0
230
1.0
 70
     8
 71
     3
 72
    10
 73
     6
 74
     0
 42
0.000000001
 43
0.00000001
 40
0.0
 40
0.0
 40
0.0
 40
0.0
 40
0.5
 40
0.5
 40
1.0
 40
1.0
 40
1.0
 40
1.0
 10
23.18242105998405
 20
5.013704959928972
 30
0.0
 10
23.15673278211746
 20
5.321510424370849
 30
0.0
 10
23.13061691488651
 20
5.583394029693735
 30
0.0
 10
23.07969874056426
 20
5.994451357970724
 30
0.0
 10
23.05491435955389
 20
6.143571602792377
 30
0.0
 10
23.03171553241738
 20
6.23533168901558
 30
0.0
  0
SPLINE
  5
51E
330
1F
100
AcDbEntity
  8
외형선
  6
Continuous
 62
     1
370
    15
100
AcDbSpline
210
0.0
220
0.0
230
1.0
 70
     8
 71
     3
 72
    12
 73
     8
 74
     0
 42
0.000000001
 43
0.00000001
 40
0.0
 40
0.0
 40
0.0
 40
0.0
 40
0.4999999999999998
 40
0.4999999999999998
 40
0.7499999999999999
 40
0.7499999999999999
 40
1.0
 40
1.0
 40
1.0
 40
1.0
 10
17.70187044961081
 20
-6.152949403088679
 30
0.0
 10
17.6756952258229
 20
-6.052664489388003
 30
0.0
 10
17.64944587117136
 20
-5.892197336367683
 30
0.0
 10
17.61160763921496
 20
-5.574484392658088
 30
0.0
 10
17.59924908798498
 20
-5.455896735594957
 30
0.0
 10
17.5752708516194
 20
-5.197036467249741
 30
0.0
 10
17.56381383865267
 20
-5.05761091277252
 30
0.0
 10
17.55175923097157
 20
-4.90472212966696
 30
0.0
  0
SPLINE
  5
51F
330
1F
100
AcDbEntity
  8
외형선
  6
Continuous
 62
     1
370
    15
100
AcDbSpline
210
0.0
220
0.0
230
1.0
 70
     8
 71
     3
 72
    12
 73
     8
 74
     0
 42
0.000000001
 43
0.00000001
 40
0.0
 40
0.0
 40
0.0
 40
0.0
 40
0.4999999999999999
 40
0.4999999999999999
 40
0.7499999999999999
 40
0.7499999999999999
 40
1.0
 40
1.0
 40
1.0
 40
1.0
 10
27.70326833436446
 20
-6.158248941516343
 30
0.0
 10
27.67708939160329
 20
-6.060053555690625
 30
0.0
 10
27.65081561476095
 20
-5.901570101972122
 30
0.0
 10
27.61291453943258
 20
-5.586440366855466
 30
0.0
 10
27.60053076037839
 20
-5.468649350830826
 30
0.0
 10
27.57649514890717
 20
-5.211229907034673
 30
0.0
 10
27.56503970160464
 20
-5.072568155375417
 30
0.0
 10
27.5530067235556
 20
-4.920515021560861
 30
0.0
  0
SPLINE
  5
520
330
1F
100
AcDbEntity
  8
외형선
  6
Continuous
 62
     1
370
    15
100
AcDbSpline
210
0.0
220
0.0
230
1.0
 70
     8
 71
     3
 72
    12
 73
     8
 74
     0
 42
0.000000001
 43
0.00000001
 40
0.0
 40
0.0
 40
0.0
 40
0.0
 40
0.4999999999999996
 40
0.4999999999999996
 40
0.7499999999999998
 40
0.7499999999999998
 40
1.0
 40
1.0
 40
1.0
 40
1.0
 10
37.70461948953036
 20
-6.163264542831281
 30
0.0
 10
37.67846303840224
 20
-6.067185783288603
 30
0.0
 10
37.65219192280148
 20
-5.910838354882368
 30
0.0
 10
37.61426494309636
 20
-5.598670467995812
 30
0.0
 10
37.60186764086643
 20
-5.481826698315454
 30
0.0
 10
37.57779619977029
 20
-5.22618601102331
 30
0.0
 10
37.56634737390323
 20
-5.08845323869097
 30
0.0
 10
37.55435004819452
 20
-4.937455904804689
 30
0.0
  0
SPLINE
  5
521
330
1F
100
AcDbEntity
  8
외형선
  6
Continuous
 62
     1
370
    15
100
AcDbSpline
210
0.0
220
0.0
230
1.0
 70
     8
 71
     3
 72
    12
 73
     8
 74
     0
 42
0.000000001
 43
0.00000001
 40
0.0
 40
0.0
 40
0.0
 40
0.0
 40
0.4999999999999996
 40
0.4999999999999996
 40
0.7499999999999998
 40
0.7499999999999998
 40
1.0
 40
1.0
 40
1.0
 40
1.0
 10
17.9181844428309
 20
-6.260180824509173
 30
0.0
 10
17.89229782059168
 20
-6.17573296351858
 30
0.0
 10
17.86618586427904
 20
-6.031113110380143
 30
0.0
 10
17.82830414930089
 20
-5.735043123437573
 30
0.0
 10
17.81589025921047
 20
-5.623316602282354
 30
0.0
 10
17.79172452530493
 20
-5.377180362114468
 30
0.0
 10
17.78022224785341
 20
-5.243825169415399
 30
0.0
 10
17.76850773062148
 20
-5.098503562578723
 30
0.0
  0
SPLINE
  5
522
330
1F
100
AcDbEntity
  8
외형선
  6
Continuous
 62
     1
370
    15
100
AcDbSpline
210
0.0
220
0.0
230
1.0
 70
     8
 71
     3
 72
    12
 73
     8
 74
     0
 42
0.000000001
 43
0.00000001
 40
0.0
 40
0.0
 40
0.0
 40
0.0
 40
0.4999999999999998
 40
0.4999999999999998
 40
0.7499999999999999
 40
0.7499999999999999
 40
1.0
 40
1.0
 40
1.0
 40
1.0
 10
27.91963950934357
 20
-6.264865818120309
 30
0.0
 10
27.89376532869379
 20
-6.182655024041902
 30
0.0
 10
27.8676448569135
 20
-6.040239468776373
 30
0.0
 10
27.8297207206162
 20
-5.747158842324121
 30
0.0
 10
27.81728784273912
 20
-5.63637649335467
 30
0.0
 10
27.79307571334875
 20
-5.391991336550372
 30
0.0
 10
27.78152561647795
 20
-5.259345808987358
 30
0.0
 10
27.76984184190235
 20
-5.115018587910806
 30
0.0
  0
SPLINE
  5
523
330
1F
100
AcDbEntity
  8
외형선
  6
Continuous
 62
     1
370
    15
100
AcDbSpline
210
0.0
220
0.0
230
1.0
 70
     8
 71
     3
 72
    12
 73
     8
 74
     0
 42
0.000000001
 43
0.00000001
 40
0.0
 40
0.0
 40
0.0
 40
0.0
 40
0.5
 40
0.5
 40
0.75
 40
0.75
 40
1.0
 40
1.0
 40
1.0
 40
1.0
 10
37.92093182249819
 20
-6.268923177457491
 30
0.0
 10
37.8950765195288
 20
-6.188723071610549
 30
0.0
 10
37.86895647776109
 20
-6.048326069253714
 30
0.0
 10
37.83100543480276
 20
-5.758035392002323
 30
0.0
 10
37.81855908125425
 20
-5.648143693487408
 30
0.0
 10
37.79431192872795
 20
-5.4054284379885
 30
0.0
 10
37.78271530046089
 20
-5.273449874006697
 30
0.0
 10
37.77106316354235
 20
-5.130075867341428
 30
0.0
  0
SPLINE
  5
524
330
1F
100
AcDbEntity
  8
외형선
  6
Continuous
 62
     1
370
    15
100
AcDbSpline
210
0.0
220
0.0
230
1.0
 70
     8
 71
     3
 72
    10
 73
     6
 74
     0
 42
0.000000001
 43
0.00000001
 40
0.0
 40
0.0
 40
0.0
 40
0.0
 40
0.4999999999999998
 40
0.4999999999999998
 40
1.0
 40
1.0
 40
1.0
 40
1.0
 10
32.96744604039213
 20
5.06423754878968
 30
0.0
 10
32.94141247788967
 20
5.360708125416841
 30
0.0
 10
32.91507655649022
 20
5.609121673080536
 30
0.0
 10
32.86402138595369
 20
5.990827122512086
 30
0.0
 10
32.83972732793171
 20
6.123689442901067
 30
0.0
 10
32.81629302289184
 20
6.200161998173264
 30
0.0
  0
SPLINE
  5
525
330
1F
100
AcDbEntity
  8
외형선
  6
Continuous
 62
     1
370
    15
100
AcDbSpline
210
0.0
220
0.0
230
1.0
 70
     8
 71
     3
 72
    12
 73
     8
 74
     0
 42
0.000000001
 43
0.00000001
 40
0.0
 40
0.0
 40
0.0
 40
0.0
 40
0.5
 40
0.5
 40
0.75
 40
0.75
 40
1.0
 40
1.0
 40
1.0
 40
1.0
 10
22.96613628056364
 20
5.07911027762396
 30
0.0
 10
22.94009354426794
 20
5.373982132513418
 30
0.0
 10
22.91376761825581
 20
5.620564146573378
 30
0.0
 10
22.87551795672222
 20
5.903982725212422
 30
0.0
 10
22.86297378807305
 20
5.984194125903243
 30
0.0
 10
22.83854010202603
 20
6.115607002881872
 30
0.0
 10
22.82686032955445
 20
6.166613169067495
 30
0.0
 10
22.81511706687033
 20
6.203950132988878
 30
0.0
  0
SPLINE
  5
526
330
1F
100
AcDbEntity
  8
외형선
  6
Continuous
 62
     1
370
    15
100
AcDbSpline
210
0.0
220
0.0
230
1.0
 70
     8
 71
     3
 72
    10
 73
     6
 74
     0
 42
0.000000001
 43
0.00000001
 40
0.0
 40
0.0
 40
0.0
 40
0.0
 40
0.5
 40
0.5
 40
1.0
 40
1.0
 40
1.0
 40
1.0
 10
18.72469502593949
 20
-6.344623138186118
 30
0.0
 10
18.69952753738943
 20
-6.324173551563088
 30
0.0
 10
18.67356056281409
 20
-6.244384740772001
 30
0.0
 10
18.62215894307539
 20
-5.970307175310192
 30
0.0
 10
18.59674360171654
 20
-5.776164750978505
 30
0.0
 10
18.57260689985015
 20
-5.536040158182284
 30
0.0
  0
SPLINE
  5
527
330
1F
100
AcDbEntity
  8
외형선
  6
Continuous
 62
     1
370
    15
100
AcDbSpline
210
0.0
220
0.0
230
1.0
 70
     8
 71
     3
 72
    10
 73
     6
 74
     0
 42
0.000000001
 43
0.00000001
 40
0.0
 40
0.0
 40
0.0
 40
0.0
 40
0.5
 40
0.5
 40
1.0
 40
1.0
 40
1.0
 40
1.0
 10
28.72598500015951
 20
-6.345620573402111
 30
0.0
 10
28.70085948177848
 20
-6.327181616140105
 30
0.0
 10
28.67491796739558
 20
-6.249523068404055
 30
0.0
 10
28.62352787928485
 20
-5.979597400842574
 30
0.0
 10
28.59809860155972
 20
-5.787471868790059
 30
0.0
 10
28.57393029954193
 20
-5.549148085651406
 30
0.0
  0
SPLINE
  5
528
330
1F
100
AcDbEntity
  8
외형선
  6
Continuous
 62
     1
370
    15
100
AcDbSpline
210
0.0
220
0.0
230
1.0
 70
     8
 71
     3
 72
    10
 73
     6
 74
     0
 42
0.000000001
 43
0.00000001
 40
0.0
 40
0.0
 40
0.0
 40
0.0
 40
0.5
 40
0.5
 40
1.0
 40
1.0
 40
1.0
 40
1.0
 10
38.72741690652933
 20
-6.346608773892963
 30
0.0
 10
38.70231452484666
 20
-6.330383883068744
 30
0.0
 10
38.6763763081117
 20
-6.254960112618416
 30
0.0
 10
38.62495204573088
 20
-5.989179466002308
 30
0.0
 10
38.5994853729282
 20
-5.79895979102819
 30
0.0
 10
38.57526410382124
 20
-5.562242098637138
 30
0.0
  0
SPLINE
  5
529
330
1F
100
AcDbEntity
  8
외형선
  6
Continuous
 62
     1
370
    15
100
AcDbSpline
210
0.0
220
0.0
230
1.0
 70
     8
 71
     3
 72
    10
 73
     6
 74
     0
 42
0.000000001
 43
0.00000001
 40
0.0
 40
0.0
 40
0.0
 40
0.0
 40
0.5000000000000001
 40
0.5000000000000001
 40
1.0
 40
1.0
 40
1.0
 40
1.0
 10
18.94203194551696
 20
-6.278806342790044
 30
0.0
 10
18.91695797086988
 20
-6.27627769683735
 30
0.0
 10
18.89091654787066
 20
-6.214795344198984
 30
0.0
 10
18.83904514464934
 20
-5.975165356563816
 30
0.0
 10
18.81323544241583
 20
-5.797129794516404
 30
0.0
 10
18.78859398791566
 20
-5.570955917275579
 30
0.0
  0
LINE
  5
52A
330
1F
100
AcDbEntity
  8
외형선
  6
Continuous
 62
     1
370
    15
100
AcDbLine
 10
40.354
 20
-0.9524999962498724
 30
0.0
 11
40.354
 21
-3.206617819766204
 31
0.0
  0
SPLINE
  5
52B
330
1F
100
AcDbEntity
  8
외형선
  6
Continuous
 62
     1
370
    15
100
AcDbSpline
210
0.0
220
0.0
230
1.0
 70
     8
 71
     3
 72
    10
 73
     6
 74
     0
 42
0.000000001
 43
0.00000001
 40
0.0
 40
0.0
 40
0.0
 40
0.0
 40
0.5
 40
0.5
 40
1.0
 40
1.0
 40
1.0
 40
1.0
 10
28.94325958046921
 20
-6.278883738942622
 30
0.0
 10
28.91822324071427
 20
-6.278252556537107
 30
0.0
 10
28.89220352152593
 20
-6.218769547741057
 30
0.0
 10
28.84033802307303
 20
-5.983013603465845
 30
0.0
 10
28.81451251558279
 20
-5.806848220436104
 30
0.0
 10
28.78983869126907
 20
-5.582331230795272
 30
0.0
  0
SPLINE
  5
52C
330
1F
100
AcDbEntity
  8
외형선
  6
Continuous
 62
     1
370
    15
100
AcDbSpline
210
0.0
220
0.0
230
1.0
 70
     8
 71
     3
 72
    10
 73
     6
 74
     0
 42
0.000000001
 43
0.00000001
 40
0.0
 40
0.0
 40
0.0
 40
0.0
 40
0.5
 40
0.5
 40
1.0
 40
1.0
 40
1.0
 40
1.0
 10
38.94472334245569
 20
-6.278854485926439
 30
0.0
 10
38.91972204808934
 20
-6.280485233699035
 30
0.0
 10
38.8937176150277
 20
-6.223338750097663
 30
0.0
 10
38.84183898381592
 20
-5.992018763523727
 30
0.0
 10
38.81598508774545
 20
-5.817947731347499
 30
0.0
 10
38.79126477796612
 20
-5.595243244221744
 30
0.0
  0
LINE
  5
52D
330
1F
100
AcDbEntity
  8
외형선
  6
Continuous
 62
     1
370
    15
100
AcDbLine
 10
30.97148385429381
 20
6.307450433572142
 30
0.0
 11
30.96867498540877
 21
6.30634215970835
 31
0.0
  0
LINE
  5
52E
330
1F
100
AcDbEntity
  8
외형선
  6
Continuous
 62
     1
370
    15
100
AcDbLine
 10
20.97145241284369
 20
6.307998051246016
 30
0.0
 11
20.96882856671013
 21
6.306758150458342
 31
0.0
  0
SPLINE
  5
52F
330
1F
100
AcDbEntity
  8
외형선
  6
Continuous
 62
     1
370
    15
100
AcDbSpline
210
0.0
220
0.0
230
1.0
 70
     8
 71
     3
 72
     8
 73
     4
 74
     0
 42
0.000000001
 43
0.00000001
 40
0.0000003030761704
 40
0.0000003030761704
 40
0.0000003030761704
 40
0.0000003030761704
 40
0.000304191462904
 40
0.000304191462904
 40
0.000304191462904
 40
0.000304191462904
 10
40.35399982913333
 20
5.76517893863189
 30
0.0
 10
40.26487396308926
 20
5.845202448609512
 30
0.0
 10
40.17550836059439
 20
5.924829264108765
 30
0.0
 10
40.08593034475527
 20
6.00409681921512
 30
0.0
  0
LINE
  5
530
330
1F
100
AcDbEntity
  8
외형선
  6
Continuous
 62
     1
370
    15
100
AcDbLine
 10
40.354
 20
1.39514993255337
 30
0.0
 11
40.354
 21
1.411515598495801
 31
0.0
  0
LINE
  5
531
330
1F
100
AcDbEntity
  8
외형선
  6
Continuous
 62
     1
370
    15
100
AcDbLine
 10
40.354
 20
2.254117745906119
 30
0.0
 11
40.354
 21
5.765179172158247
 31
0.0
  0
LINE
  5
532
330
1F
100
AcDbEntity
  8
외형선
  6
Continuous
 62
     1
370
    15
100
AcDbLine
 10
19.97355765883126
 20
-6.340198839704196
 30
0.0
 11
19.97125418766337
 21
-6.339590996503826
 31
0.0
  0
LINE
  5
533
330
1F
100
AcDbEntity
  8
외형선
  6
Continuous
 62
     1
370
    15
100
AcDbLine
 10
29.97343760514258
 20
-6.33965680996577
 30
0.0
 11
29.97121112330752
 21
-6.339271242419879
 31
0.0
  0
SPLINE
  5
534
330
1F
100
AcDbEntity
  8
외형선
  6
Continuous
 62
     1
370
    15
100
AcDbSpline
210
0.0
220
0.0
230
1.0
 70
     8
 71
     3
 72
    10
 73
     6
 74
     0
 42
0.000000001
 43
0.00000001
 40
0.0
 40
0.0
 40
0.0
 40
0.0
 40
0.2328029168560354
 40
0.7198127979783546
 40
1.0
 40
1.0
 40
1.0
 40
1.0
 10
39.84833902899422
 20
-6.059475243091579
 30
0.0
 10
39.84902685587676
 20
-6.099952554198832
 30
0.0
 10
39.85115357576291
 20
-6.225105997103323
 30
0.0
 10
39.8567842616585
 20
-6.329882378026961
 30
0.0
 10
39.86312310827185
 20
-6.321244494570887
 30
0.0
 10
39.86543811146416
 20
-6.318089862664546
 30
0.0
  0
LINE
  5
535
330
1F
100
AcDbEntity
  8
외형선
  6
Continuous
 62
     1
370
    15
100
AcDbLine
 10
30.7559758105278
 20
6.264783442020422
 30
0.0
 11
30.75415041828154
 21
6.262393047412245
 31
0.0
  0
SPLINE
  5
536
330
1F
100
AcDbEntity
  8
외형선
  6
Continuous
 62
     1
370
    15
100
AcDbSpline
210
0.0
220
0.0
230
1.0
 70
     8
 71
     3
 72
     9
 73
     5
 74
     0
 42
0.000000001
 43
0.00000001
 40
0.0
 40
0.0
 40
0.0
 40
0.0
 40
0.9927675845794568
 40
1.0
 40
1.0
 40
1.0
 40
1.0
 10
20.75585620387394
 20
6.27177643279235
 30
0.0
 10
20.75492965572063
 20
6.273432813791834
 30
0.0
 10
20.75399635756741
 20
6.275101261699688
 30
0.0
 10
20.75302332825528
 20
6.273031920794813
 30
0.0
 10
20.75301629090309
 20
6.273016954461734
 30
0.0
  0
LINE
  5
537
330
1F
100
AcDbEntity
  8
외형선
  6
Continuous
 62
     1
370
    15
100
AcDbLine
 10
20.73640770498909
 20
-6.318628167112672
 30
0.0
 11
20.73490765476226
 21
-6.316748137275378
 31
0.0
  0
LINE
  5
538
330
1F
100
AcDbEntity
  8
외형선
  6
Continuous
 62
     1
370
    15
100
AcDbLine
 10
30.73643293762207
 20
-6.317148605982463
 30
0.0
 11
30.73467211707431
 21
-6.315077965458239
 31
0.0
  0
LINE
  5
539
330
1F
100
AcDbEntity
  8
외형선
  6
Continuous
 62
     1
370
    15
100
AcDbLine
 10
40.354
 20
-5.674337347348536
 30
0.0
 11
40.354
 21
-5.843333279093112
 31
0.0
  0
LINE
  5
53A
330
1F
100
AcDbEntity
  8
외형선
  6
Continuous
 62
     1
370
    15
100
AcDbLine
 10
39.87987485313414
 20
6.312058617671336
 30
0.0
 11
39.85521839841205
 21
6.275756284594542
 31
0.0
  0
LINE
  5
53B
330
1F
100
AcDbEntity
  8
외형선
  6
Continuous
 62
     1
370
    15
100
AcDbLine
 10
40.354
 20
5.843333279093115
 30
0.0
 11
40.354
 21
5.765179172158247
 31
0.0
  0
LINE
  5
53C
330
1F
100
AcDbEntity
  8
외형선
  6
Continuous
 62
     1
370
    15
100
AcDbLine
 10
29.73988052988051
 20
6.349088003238051
 30
0.0
 11
29.73682827536264
 21
6.346221392353381
 31
0.0
  0
LINE
  5
53D
330
1F
100
AcDbEntity
  8
외형선
  6
Continuous
 62
     1
370
    15
100
AcDbLine
 10
19.73902145310241
 20
6.349857896566397
 30
0.0
 11
19.73687196060019
 21
6.347650041182844
 31
0.0
  0
LINE
  5
53E
330
1F
100
AcDbEntity
  8
외형선
  6
Continuous
 62
     1
370
    15
100
AcDbLine
 10
39.73990824604033
 20
6.338194633523627
 30
0.0
 11
39.73774509414034
 21
6.340603033701583
 31
0.0
  0
LINE
  5
53F
330
1F
100
AcDbEntity
  8
외형선
  6
Continuous
 62
     1
370
    15
100
AcDbLine
 10
28.75707071804999
 20
6.275962417324393
 30
0.0
 11
28.75519441350299
 21
6.272852420806891
 31
0.0
  0
SPLINE
  5
540
330
1F
100
AcDbEntity
  8
외형선
  6
Continuous
 62
     1
370
    15
100
AcDbSpline
210
0.0
220
0.0
230
1.0
 70
     8
 71
     3
 72
    11
 73
     7
 74
     0
 42
0.000000001
 43
0.00000001
 40
0.0
 40
0.0
 40
0.0
 40
0.0
 40
0.2764181321771732
 40
0.5494125944279545
 40
0.7916274894399487
 40
1.0
 40
1.0
 40
1.0
 40
1.0
 10
32.09972775761284
 20
5.522188420097037
 30
0.0
 10
32.08606000577079
 20
5.639627482095825
 30
0.0
 10
32.058893788633
 20
5.873051025015143
 30
0.0
 10
32.020642949506
 20
6.095846372166789
 30
0.0
 10
31.98758814644941
 20
6.233617467138742
 30
0.0
 10
31.9660148407023
 20
6.257877241709294
 30
0.0
 10
31.95603834374743
 20
6.269096086422606
 30
0.0
  0
SPLINE
  5
541
330
1F
100
AcDbEntity
  8
외형선
  6
Continuous
 62
     1
370
    15
100
AcDbSpline
210
0.0
220
0.0
230
1.0
 70
     8
 71
     3
 72
    11
 73
     7
 74
     0
 42
0.000000001
 43
0.00000001
 40
0.0
 40
0.0
 40
0.0
 40
0.0
 40
0.0514592262364688
 40
0.3476676450005254
 40
0.639291892424562
 40
1.0
 40
1.0
 40
1.0
 40
1.0
 10
22.09829933230082
 20
5.535241837302848
 30
0.0
 10
22.09577479129311
 20
5.557924806394083
 30
0.0
 10
22.07871854519236
 20
5.711174962339483
 30
0.0
 10
22.04746876700206
 20
5.944952819250005
 30
0.0
 10
22.00316697901735
 20
6.194419304608942
 30
0.0
 10
21.97270779215404
 20
6.238874456929451
 30
0.0
 10
21.95586534126597
 20
6.263455996910735
 30
0.0
  0
SPLINE
  5
542
330
1F
100
AcDbEntity
  8
외형선
  6
Continuous
 62
     1
370
    15
100
AcDbSpline
210
0.0
220
0.0
230
1.0
 70
     8
 71
     3
 72
    11
 73
     7
 74
     0
 42
0.000000001
 43
0.00000001
 40
0.0
 40
0.0
 40
0.0
 40
0.0
 40
0.255306306587462
 40
0.5106125430778646
 40
0.765918767226559
 40
1.0
 40
1.0
 40
1.0
 40
1.0
 10
31.88226269467669
 20
5.689539015293128
 30
0.0
 10
31.86997283388343
 20
5.79249137439352
 30
0.0
 10
31.8453931156712
 20
5.998396064327664
 30
0.0
 10
31.80851839583073
 20
6.201674133162814
 30
0.0
 10
31.77267100664345
 20
6.32909330174991
 30
0.0
 10
31.74911182681673
 20
6.340978984025077
 30
0.0
 10
31.73784312391281
 20
6.34666408101718
 30
0.0
  0
SPLINE
  5
543
330
1F
100
AcDbEntity
  8
외형선
  6
Continuous
 62
     1
370
    15
100
AcDbSpline
210
0.0
220
0.0
230
1.0
 70
     8
 71
     3
 72
    11
 73
     7
 74
     0
 42
0.000000001
 43
0.00000001
 40
0.0
 40
0.0
 40
0.0
 40
0.0
 40
0.2578991501834221
 40
0.5157982914397748
 40
0.7736974876049242
 40
1.0
 40
1.0
 40
1.0
 40
1.0
 10
21.88077839001017
 20
5.702373261253043
 30
0.0
 10
21.86848907594866
 20
5.804303728542521
 30
0.0
 10
21.84391044825106
 20
6.008164659593173
 30
0.0
 10
21.8070424194853
 20
6.20800685575341
 30
0.0
 10
21.77168034343862
 20
6.331008585474122
 30
0.0
 10
21.74860679700226
 20
6.340743816721186
 30
0.0
 10
21.73782285833358
 20
6.345293795069064
 30
0.0
  0
SPLINE
  5
544
330
1F
100
AcDbEntity
  8
외형선
  6
Continuous
 62
     1
370
    15
100
AcDbSpline
210
0.0
220
0.0
230
1.0
 70
     8
 71
     3
 72
    10
 73
     6
 74
     0
 42
0.000000001
 43
0.00000001
 40
0.0
 40
0.0
 40
0.0
 40
0.0
 40
0.2206345313647408
 40
0.6565412667959952
 40
0.9999999999999999
 40
0.9999999999999999
 40
0.9999999999999999
 40
0.9999999999999999
 10
19.75592061165966
 20
-6.261279806494707
 30
0.0
 10
19.74863716733612
 20
-6.258939888685627
 30
0.0
 10
19.726963852043
 20
-6.251977004892804
 30
0.0
 10
19.69306842909328
 20
-6.133525971853142
 30
0.0
 10
19.66693430092888
 20
-5.980313609489879
 30
0.0
 10
19.6554172464609
 20
-5.912794421116511
 30
0.0
  0
SPLINE
  5
545
330
1F
100
AcDbEntity
  8
외형선
  6
Continuous
 62
     1
370
    15
100
AcDbSpline
210
0.0
220
0.0
230
1.0
 70
     8
 71
     3
 72
     9
 73
     5
 74
     0
 42
0.000000001
 43
0.00000001
 40
0.0
 40
0.0
 40
0.0
 40
0.0
 40
0.7059707174701583
 40
1.0
 40
1.0
 40
1.0
 40
1.0
 10
31.07608255529403
 20
6.001414731144911
 30
0.0
 10
31.05146868696278
 20
6.148338780707696
 30
0.0
 10
31.01660340470366
 20
6.356455131608612
 30
0.0
 10
30.98173591675807
 20
6.318585279126864
 30
0.0
 10
30.97148385429381
 20
6.307450433572142
 30
0.0
  0
SPLINE
  5
546
330
1F
100
AcDbEntity
  8
외형선
  6
Continuous
 62
     1
370
    15
100
AcDbSpline
210
0.0
220
0.0
230
1.0
 70
     8
 71
     3
 72
    10
 73
     6
 74
     0
 42
0.000000001
 43
0.00000001
 40
0.0
 40
0.0
 40
0.0
 40
0.0
 40
0.0826474080892468
 40
0.5231583933235123
 40
1.0
 40
1.0
 40
1.0
 40
1.0
 10
29.75621468607583
 20
-6.266925483942029
 30
0.0
 10
29.75354032984488
 20
-6.267839740370827
 30
0.0
 10
29.73661164519173
 20
-6.273626986885058
 30
0.0
 10
29.70311442877864
 20
-6.177287403111218
 30
0.0
 10
29.67268151929916
 20
-6.00941433130853
 30
0.0
 10
29.6568624355793
 20
-5.922153592109676
 30
0.0
  0
SPLINE
  5
547
330
1F
100
AcDbEntity
  8
외형선
  6
Continuous
 62
     1
370
    15
100
AcDbSpline
210
0.0
220
0.0
230
1.0
 70
     8
 71
     3
 72
     9
 73
     5
 74
     0
 42
0.000000001
 43
0.00000001
 40
0.0
 40
0.0
 40
0.0
 40
0.0
 40
0.7143000319233371
 40
0.9999999999999999
 40
0.9999999999999999
 40
0.9999999999999999
 40
0.9999999999999999
 10
21.07483542744317
 20
6.009525929888098
 30
0.0
 10
21.05021997635044
 20
6.155018218403376
 30
0.0
 10
21.01575903557962
 20
6.358703339519109
 30
0.0
 10
20.98129794525056
 20
6.319265453906538
 30
0.0
 10
20.97145241284369
 20
6.307998051246016
 30
0.0
  0
SPLINE
  5
548
330
1F
100
AcDbEntity
  8
외형선
  6
Continuous
 62
     1
370
    15
100
AcDbSpline
210
0.0
220
0.0
230
1.0
 70
     8
 71
     3
 72
     9
 73
     5
 74
     0
 42
0.000000001
 43
0.00000001
 40
0.0
 40
0.0
 40
0.0
 40
0.0
 40
0.4738028029617564
 40
1.0
 40
1.0
 40
1.0
 40
1.0
 10
39.75648827139534
 20
-6.268768260876338
 30
0.0
 10
39.74103642163209
 20
-6.25107595181846
 30
0.0
 10
39.70842401481079
 20
-6.213734870365836
 30
0.0
 10
39.67548203535239
 20
-6.02806741464465
 30
0.0
 10
39.65814805809654
 20
-5.930369719862933
 30
0.0
  0
SPLINE
  5
549
330
1F
100
AcDbEntity
  8
외형선
  6
Continuous
 62
     1
370
    15
100
AcDbSpline
210
0.0
220
0.0
230
1.0
 70
     8
 71
     3
 72
    10
 73
     6
 74
     0
 42
0.000000001
 43
0.00000001
 40
0.0
 40
0.0
 40
0.0
 40
0.0
 40
0.2346605454213458
 40
0.617330305251917
 40
0.9999999999999999
 40
0.9999999999999999
 40
0.9999999999999999
 40
0.9999999999999999
 10
19.97125418766337
 20
-6.339590996503826
 30
0.0
 10
19.96355813591422
 20
-6.340338493171825
 30
0.0
 10
19.9433118436923
 20
-6.342304960715007
 30
0.0
 10
19.91051584834858
 20
-6.252094656336989
 30
0.0
 10
19.88541564579851
 20
-6.119081804726714
 30
0.0
 10
19.8728655455907
 20
-6.052575384577122
 30
0.0
  0
SPLINE
  5
54A
330
1F
100
AcDbEntity
  8
외형선
  6
Continuous
 62
     1
370
    15
100
AcDbSpline
210
0.0
220
0.0
230
1.0
 70
     8
 71
     3
 72
    10
 73
     6
 74
     0
 42
0.000000001
 43
0.00000001
 40
0.0
 40
0.0
 40
0.0
 40
0.0
 40
0.223075194531342
 40
0.6115375950082912
 40
1.0
 40
1.0
 40
1.0
 40
1.0
 10
29.97121112330752
 20
-6.339271242419879
 30
0.0
 10
29.96400928292134
 20
-6.340525755094741
 30
0.0
 10
29.94426618168292
 20
-6.343964871961613
 30
0.0
 10
29.91198279263307
 20
-6.257389660381189
 30
0.0
 10
29.88690078716941
 20
-6.126684339996014
 30
0.0
 10
29.8743597843647
 20
-6.061331679423655
 30
0.0
  0
SPLINE
  5
54B
330
1F
100
AcDbEntity
  8
외형선
  6
Continuous
 62
     1
370
    15
100
AcDbSpline
210
0.0
220
0.0
230
1.0
 70
     8
 71
     3
 72
    10
 73
     6
 74
     0
 42
0.000000001
 43
0.00000001
 40
0.0
 40
0.0
 40
0.0
 40
0.0
 40
0.5041921906189015
 40
0.9000867657288831
 40
1.0
 40
1.0
 40
1.0
 40
1.0
 10
30.86006290499367
 20
5.997411906719214
 30
0.0
 10
30.84280377389127
 20
6.083375786097327
 30
0.0
 10
30.81199267490507
 20
6.236838992387717
 30
0.0
 10
30.77744777698908
 20
6.297435033676975
 30
0.0
 10
30.75957704912456
 20
6.270259706727315
 30
0.0
 10
30.7559758105278
 20
6.264783442020422
 30
0.0
  0
SPLINE
  5
54C
330
1F
100
AcDbEntity
  8
외형선
  6
Continuous
 62
     1
370
    15
100
AcDbSpline
210
0.0
220
0.0
230
1.0
 70
     8
 71
     3
 72
    10
 73
     6
 74
     0
 42
0.000000001
 43
0.00000001
 40
0.0
 40
0.0
 40
0.0
 40
0.0
 40
0.3145316546193803
 40
0.6272819430301874
 40
0.9999999999999999
 40
0.9999999999999999
 40
0.9999999999999999
 40
0.9999999999999999
 10
20.85885799709954
 20
6.004486232995993
 30
0.0
 10
20.8480589740633
 20
6.061575402034072
 30
0.0
 10
20.82652208881342
 20
6.175430412664134
 30
0.0
 10
20.79325582023975
 20
6.274335338763485
 30
0.0
 10
20.76902922548176
 20
6.272677739461392
 30
0.0
 10
20.75585620387394
 20
6.27177643279235
 30
0.0
  0
LINE
  5
54D
330
1F
100
AcDbEntity
  8
외형선
  6
Continuous
 62
     1
370
    15
100
AcDbLine
 10
20.73490765476226
 20
-6.316748137275378
 30
0.0
 11
20.67968146785097
 21
-6.247547765572871
 31
0.0
  0
LINE
  5
54E
330
1F
100
AcDbEntity
  8
외형선
  6
Continuous
 62
     1
370
    15
100
AcDbLine
 10
30.73467211707431
 20
-6.315077965458239
 30
0.0
 11
30.68094846391677
 21
-6.251915047566096
 31
0.0
  0
SPLINE
  5
54F
330
1F
100
AcDbEntity
  8
외형선
  6
Continuous
 62
     1
370
    15
100
AcDbSpline
210
0.0
220
0.0
230
1.0
 70
     8
 71
     3
 72
     9
 73
     5
 74
     0
 42
0.000000001
 43
0.00000001
 40
0.0
 40
0.0
 40
0.0
 40
0.0
 40
0.2486145328186344
 40
1.0
 40
1.0
 40
1.0
 40
1.0
 10
29.99499089304605
 20
6.193938975532858
 30
0.0
 10
29.99168077159267
 20
6.20474440679321
 30
0.0
 10
29.978366499833
 20
6.248206995797381
 30
0.0
 10
29.96448941224253
 20
6.257836604205813
 30
0.0
 10
29.95406237030028
 20
6.265072152018553
 30
0.0
  0
SPLINE
  5
550
330
1F
100
AcDbEntity
  8
외형선
  6
Continuous
 62
     1
370
    15
100
AcDbSpline
210
0.0
220
0.0
230
1.0
 70
     8
 71
     3
 72
     9
 73
     5
 74
     0
 42
0.000000001
 43
0.00000001
 40
0.0
 40
0.0
 40
0.0
 40
0.0
 40
0.5583985206614926
 40
0.9999999999999999
 40
0.9999999999999999
 40
0.9999999999999999
 40
0.9999999999999999
 10
19.99360220416385
 20
6.198588758707053
 30
0.0
 10
19.98639206557865
 20
6.221254811008463
 30
0.0
 10
19.97347989207102
 20
6.261845986419451
 30
0.0
 10
19.95996283038432
 20
6.261896421551838
 30
0.0
 10
19.95399367594719
 20
6.261918693780905
 30
0.0
  0
SPLINE
  5
551
330
1F
100
AcDbEntity
  8
외형선
  6
Continuous
 62
     1
370
    15
100
AcDbSpline
210
0.0
220
0.0
230
1.0
 70
     8
 71
     3
 72
    10
 73
     6
 74
     0
 42
0.000000001
 43
0.00000001
 40
0.0
 40
0.0
 40
0.0
 40
0.0
 40
0.1172604474387206
 40
0.850121452075984
 40
1.0
 40
1.0
 40
1.0
 40
1.0
 10
20.95479912344613
 20
-6.267530222733821
 30
0.0
 10
20.95257281110026
 20
-6.271488612544327
 30
0.0
 10
20.93643236540369
 20
-6.300186371823794
 30
0.0
 10
20.91649358810333
 20
-6.264336091059501
 30
0.0
 10
20.8989928993591
 20
-6.218464523794391
 30
0.0
 10
20.89602149311699
 20
-6.210676083962123
 30
0.0
  0
SPLINE
  5
552
330
1F
100
AcDbEntity
  8
외형선
  6
Continuous
 62
     1
370
    15
100
AcDbSpline
210
0.0
220
0.0
230
1.0
 70
     8
 71
     3
 72
     9
 73
     5
 74
     0
 42
0.000000001
 43
0.00000001
 40
0.0
 40
0.0
 40
0.0
 40
0.0
 40
0.6239015672433635
 40
1.0
 40
1.0
 40
1.0
 40
1.0
 10
30.95489389483133
 20
-6.267311672369638
 30
0.0
 10
30.94304273439525
 20
-6.272403887035149
 30
0.0
 10
30.92404749370622
 20
-6.280565774956055
 30
0.0
 10
30.9045911052333
 20
-6.232320387809405
 30
0.0
 10
30.89727358802157
 20
-6.214175373315807
 30
0.0
  0
SPLINE
  5
553
330
1F
100
AcDbEntity
  8
외형선
  6
Continuous
 62
     1
370
    15
100
AcDbSpline
210
0.0
220
0.0
230
1.0
 70
     8
 71
     3
 72
     9
 73
     5
 74
     0
 42
0.000000001
 43
0.00000001
 40
0.0
 40
0.0
 40
0.0
 40
0.0
 40
0.9857495766515524
 40
1.0
 40
1.0
 40
1.0
 40
1.0
 10
29.77826095406212
 20
6.297372902433078
 30
0.0
 10
29.7656431325207
 20
6.329205878127325
 30
0.0
 10
29.75284290227934
 20
6.361499045122513
 30
0.0
 10
29.74006265383136
 20
6.349262380883828
 30
0.0
 10
29.73988052988051
 20
6.349088003238051
 30
0.0
  0
LINE
  5
554
330
1F
100
AcDbEntity
  8
외형선
  6
Continuous
 62
     1
370
    15
100
AcDbLine
 10
19.77686419371762
 20
6.301013752818114
 30
0.0
 11
19.73902145310241
 21
6.349857896566397
 31
0.0
  0
LINE
  5
555
330
1F
100
AcDbEntity
  8
외형선
  6
Continuous
 62
     1
370
    15
100
AcDbLine
 10
39.77944599374132
 20
6.294177845120436
 30
0.0
 11
39.73990824604033
 21
6.338194633523627
 31
0.0
  0
LINE
  5
556
330
1F
100
AcDbEntity
  8
외형선
  6
Continuous
 62
     1
370
    15
100
AcDbLine
 10
38.75851031923294
 20
6.276759629448263
 30
0.0
 11
38.75514265680312
 21
6.26918797691664
 31
0.0
  0
LINE
  5
557
330
1F
100
AcDbEntity
  8
외형선
  6
Continuous
370
    15
100
AcDbLine
 10
14.95399999999998
 20
6.350000000000008
 30
0.0
 11
14.95399999999998
 21
-5.606015432150456
 31
0.0
  0
LINE
  5
58B
330
1F
100
AcDbEntity
  8
외형선
  6
Continuous
370
    15
100
AcDbLine
 10
14.95400000000003
 20
6.350000000000008
 30
0.0
 11
14.95400000000003
 21
-6.349999999999992
 31
0.0
  0
LINE
  5
58C
330
1F
100
AcDbEntity
  8
외형선
  6
Continuous
370
    15
100
AcDbLine
 10
2.254
 20
6.096000000000001
 30
0.0
 11
2.254
 21
-6.096000000000001
 31
0.0
  0
LINE
  5
58D
102
{ACAD_REACTORS
102
}
330
1F
100
AcDbEntity
  8
외형선
  6
Continuous
370
    15
100
AcDbLine
 10
2.254
 20
6.096000000000001
 30
0.0
 11
14.95399999999998
 21
6.096000000000001
 31
0.0
  0
LINE
  5
58E
330
1F
100
AcDbEntity
  8
외형선
  6
Continuous
370
    15
100
AcDbLine
 10
2.254
 20
-6.096000000000001
 30
0.0
 11
14.95399999999998
 21
-6.096000000000001
 31
0.0
  0
LINE
  5
58F
330
1F
100
AcDbEntity
  8
외형선
  6
Continuous
370
    15
100
AcDbLine
 10
2.254
 20
-6.096000000000001
 30
0.0
 11
2.0
 21
-6.350000000000001
 31
0.0
  0
LINE
  5
590
330
1F
100
AcDbEntity
  8
외형선
  6
Continuous
370
    15
100
AcDbLine
 10
2.254
 20
6.096000000000001
 30
0.0
 11
2.0
 21
6.350000000000001
 31
0.0
  0
LINE
  5
591
330
1F
100
AcDbEntity
  8
외형선
  6
Continuous
370
    15
100
AcDbLine
 10
2.0
 20
6.350000000000001
 30
0.0
 11
2.0
 21
-6.350000000000001
 31
0.0
  0
DIMENSION
  5
593
102
{ACAD_REACTORS
102
}
102
{ACAD_XDICTIONARY
360
594
102
}
330
1F
100
AcDbEntity
  8
치수문자_일반주서
100
AcDbDimension
  2
*D16
 10
2.254
 20
27.87497532554944
 30
0.0
 11
21.304
 21
30.49997532554944
 31
0.0
 70
    32
 71
     5
 42
38.1
  3
SLDDIMSTYLE0
100
AcDbAlignedDimension
 13
40.354
 23
0.2213249681517491
 33
0.0
 14
2.254
 24
6.096000000000001
 34
0.0
100
AcDbRotatedDimension
1001
ACAD
1000
DSTYLE
1002
{
1070
   171
1070
     6
1070
   273
1070
     7
1002
}
  0
ENDSEC
  0
SECTION
  2
OBJECTS
  0
DICTIONARY
  5
C
330
0
100
AcDbDictionary
281
     1
  3
ACAD_GROUP
350
D
  3
ACAD_IMAGE_VARS
350
15F
  3
ACAD_LAYOUT
350
1A
  3
ACAD_MLINESTYLE
350
17
  3
ACAD_PLOTSETTINGS
350
19
  3
ACAD_PLOTSTYLENAME
350
E
  3
ACAD_SCALELIST
350
47
  3
APPDATA
350
15D
  3
DWGPROPS
350
5A2
  0
DICTIONARY
  5
594
330
593
100
AcDbDictionary
280
     1
281
     1
  0
DICTIONARY
  5
D
102
{ACAD_REACTORS
330
C
102
}
330
C
100
AcDbDictionary
281
     1
  0
RASTERVARIABLES
  5
15F
102
{ACAD_REACTORS
330
C
102
}
330
C
100
AcDbRasterVariables
 90
        0
 70
     1
 71
     1
 72
     1
  0
DICTIONARY
  5
1A
102
{ACAD_REACTORS
330
C
102
}
330
C
100
AcDbDictionary
281
     1
  3
Layout1
350
1E
  3
Layout2
350
26
  3
Model
350
22
  0
DICTIONARY
  5
17
102
{ACAD_REACTORS
330
C
102
}
330
C
100
AcDbDictionary
281
     1
  3
Standard
350
18
  0
DICTIONARY
  5
19
102
{ACAD_REACTORS
330
C
102
}
330
C
100
AcDbDictionary
281
     1
  0
ACDBDICTIONARYWDFLT
  5
E
102
{ACAD_REACTORS
330
C
102
}
330
C
100
AcDbDictionary
281
     1
  3
Normal
350
F
100
AcDbDictionaryWithDefault
340
F
  0
DICTIONARY
  5
47
102
{ACAD_REACTORS
330
C
102
}
330
C
100
AcDbDictionary
281
     1
  3
A0
350
48
  3
A1
350
49
  3
A2
350
4A
  3
A3
350
4B
  3
A4
350
4C
  3
A5
350
4D
  3
A6
350
4E
  3
A7
350
4F
  3
A8
350
50
  3
A9
350
51
  3
B0
350
52
  3
B1
350
53
  3
B2
350
54
  3
B3
350
55
  3
B4
350
56
  3
B5
350
57
  3
B6
350
58
  3
B7
350
59
  3
B8
350
5A
  3
B9
350
5B
  3
C0
350
5C
  3
C1
350
5D
  3
C2
350
5E
  3
C3
350
5F
  3
C4
350
60
  3
C5
350
61
  3
C6
350
62
  3
C7
350
63
  3
C8
350
64
  3
C9
350
65
  3
D0
350
66
  3
D1
350
67
  3
D2
350
68
  0
DICTIONARY
  5
15D
102
{ACAD_REACTORS
330
C
102
}
330
C
100
AcDbDictionary
281
     1
  0
XRECORD
  5
5A2
102
{ACAD_REACTORS
330
C
102
}
330
C
100
AcDbXrecord
280
     1
  1
DWGPROPS COOKIE
  2

  3

  4

  6

  7

  8
12016016
  9

300
=
301
=
302
=
303
=
304
=
305
=
306
=
307
=
308
=
309
=
 40
0.0
 41
2458299.255667014
 42
2458302.27406934
  1

 90
        0
  0
LAYOUT
  5
1E
102
{ACAD_REACTORS
330
1A
102
}
330
1A
100
AcDbPlotSettings
  1

  2
none_device
  4

  6

 40
0.0
 41
0.0
 42
0.0
 43
0.0
 44
0.0
 45
0.0
 46
0.0
 47
0.0
 48
0.0
 49
0.0
140
0.0
141
0.0
142
1.0
143
1.0
 70
   688
 72
     1
 73
     0
 74
     5
  7

 75
    16
147
1.0
148
0.0
149
0.0
100
AcDbLayout
  1
Layout1
 70
     1
 71
     1
 10
0.0
 20
0.0
 11
420.0
 21
297.0
 12
0.0
 22
0.0
 32
0.0
 14
1.000000000000000E+20
 24
1.000000000000000E+20
 34
1.000000000000000E+20
 15
-1.000000000000000E+20
 25
-1.000000000000000E+20
 35
-1.000000000000000E+20
146
0.0
 13
0.0
 23
0.0
 33
0.0
 16
1.0
 26
0.0
 36
0.0
 17
0.0
 27
1.0
 37
0.0
 76
     0
330
1B
  0
LAYOUT
  5
26
102
{ACAD_REACTORS
330
1A
102
}
330
1A
100
AcDbPlotSettings
  1

  2
none_device
  4

  6

 40
0.0
 41
0.0
 42
0.0
 43
0.0
 44
0.0
 45
0.0
 46
0.0
 47
0.0
 48
0.0
 49
0.0
140
0.0
141
0.0
142
1.0
143
1.0
 70
   688
 72
     1
 73
     0
 74
     5
  7

 75
    16
147
1.0
148
0.0
149
0.0
100
AcDbLayout
  1
Layout2
 70
     1
 71
     2
 10
0.0
 20
0.0
 11
0.0
 21
0.0
 12
0.0
 22
0.0
 32
0.0
 14
0.0
 24
0.0
 34
0.0
 15
0.0
 25
0.0
 35
0.0
146
0.0
 13
0.0
 23
0.0
 33
0.0
 16
1.0
 26
0.0
 36
0.0
 17
0.0
 27
1.0
 37
0.0
 76
     0
330
23
  0
LAYOUT
  5
22
102
{ACAD_REACTORS
330
1A
102
}
330
1A
100
AcDbPlotSettings
  1

  2
none_device
  4
ANSI_A_(11.00_x_8.50_Inches)
  6

 40
6.35
 41
19.05
 42
6.35000508
 43
19.05000254
 44
279.4
 45
215.9
 46
108.3163321306011
 47
95.89024809832775
 48
0.0
 49
0.0
140
0.0
141
0.0
142
0.0692425945237784
143
1.0
 70
  1696
 72
     0
 73
     0
 74
     0
  7

 75
     0
147
0.0235690232323232
148
0.0
149
0.0
100
AcDbLayout
  1
Model
 70
     1
 71
     0
 10
0.0
 20
0.0
 11
420.0
 21
297.0
 12
0.0
 22
0.0
 32
0.0
 14
1.000000000000000E+20
 24
1.000000000000000E+20
 34
1.000000000000000E+20
 15
-1.000000000000000E+20
 25
-1.000000000000000E+20
 35
-1.000000000000000E+20
146
0.0
 13
0.0
 23
0.0
 33
0.0
 16
1.0
 26
0.0
 36
0.0
 17
0.0
 27
1.0
 37
0.0
 76
     0
330
1F
331
29
  0
MLINESTYLE
  5
18
102
{ACAD_REACTORS
330
17
102
}
330
17
100
AcDbMlineStyle
  2
Standard
 70
     0
  3

 62
   256
 51
90.0
 52
90.0
 71
     2
 49
0.5
 62
   256
  6
BYLAYER
 49
-0.5
 62
   256
  6
BYLAYER
  0
ACDBPLACEHOLDER
  5
F
102
{ACAD_REACTORS
330
E
102
}
330
E
  0
SCALE
  5
48
102
{ACAD_REACTORS
330
47
102
}
330
47
100
AcDbScale
 70
     0
300
1:1
140
1.0
141
1.0
290
     1
  0
SCALE
  5
49
102
{ACAD_REACTORS
330
47
102
}
330
47
100
AcDbScale
 70
     0
300
1:2
140
1.0
141
2.0
290
     0
  0
SCALE
  5
4A
102
{ACAD_REACTORS
330
47
102
}
330
47
100
AcDbScale
 70
     0
300
1:4
140
1.0
141
4.0
290
     0
  0
SCALE
  5
4B
102
{ACAD_REACTORS
330
47
102
}
330
47
100
AcDbScale
 70
     0
300
1:5
140
1.0
141
5.0
290
     0
  0
SCALE
  5
4C
102
{ACAD_REACTORS
330
47
102
}
330
47
100
AcDbScale
 70
     0
300
1:8
140
1.0
141
8.0
290
     0
  0
SCALE
  5
4D
102
{ACAD_REACTORS
330
47
102
}
330
47
100
AcDbScale
 70
     0
300
1:10
140
1.0
141
10.0
290
     0
  0
SCALE
  5
4E
102
{ACAD_REACTORS
330
47
102
}
330
47
100
AcDbScale
 70
     0
300
1:16
140
1.0
141
16.0
290
     0
  0
SCALE
  5
4F
102
{ACAD_REACTORS
330
47
102
}
330
47
100
AcDbScale
 70
     0
300
1:20
140
1.0
141
20.0
290
     0
  0
SCALE
  5
50
102
{ACAD_REACTORS
330
47
102
}
330
47
100
AcDbScale
 70
     0
300
1:30
140
1.0
141
30.0
290
     0
  0
SCALE
  5
51
102
{ACAD_REACTORS
330
47
102
}
330
47
100
AcDbScale
 70
     0
300
1:40
140
1.0
141
40.0
290
     0
  0
SCALE
  5
52
102
{ACAD_REACTORS
330
47
102
}
330
47
100
AcDbScale
 70
     0
300
1:50
140
1.0
141
50.0
290
     0
  0
SCALE
  5
53
102
{ACAD_REACTORS
330
47
102
}
330
47
100
AcDbScale
 70
     0
300
1:100
140
1.0
141
100.0
290
     0
  0
SCALE
  5
54
102
{ACAD_REACTORS
330
47
102
}
330
47
100
AcDbScale
 70
     0
300
2:1
140
2.0
141
1.0
290
     0
  0
SCALE
  5
55
102
{ACAD_REACTORS
330
47
102
}
330
47
100
AcDbScale
 70
     0
300
4:1
140
4.0
141
1.0
290
     0
  0
SCALE
  5
56
102
{ACAD_REACTORS
330
47
102
}
330
47
100
AcDbScale
 70
     0
300
8:1
140
8.0
141
1.0
290
     0
  0
SCALE
  5
57
102
{ACAD_REACTORS
330
47
102
}
330
47
100
AcDbScale
 70
     0
300
10:1
140
10.0
141
1.0
290
     0
  0
SCALE
  5
58
102
{ACAD_REACTORS
330
47
102
}
330
47
100
AcDbScale
 70
     0
300
100:1
140
100.0
141
1.0
290
     0
  0
SCALE
  5
59
102
{ACAD_REACTORS
330
47
102
}
330
47
100
AcDbScale
 70
     0
300
1/128" = 1'-0"
140
0.0078125
141
12.0
290
     0
  0
SCALE
  5
5A
102
{ACAD_REACTORS
330
47
102
}
330
47
100
AcDbScale
 70
     0
300
1/64" = 1'-0"
140
0.015625
141
12.0
290
     0
  0
SCALE
  5
5B
102
{ACAD_REACTORS
330
47
102
}
330
47
100
AcDbScale
 70
     0
300
1/32" = 1'-0"
140
0.03125
141
12.0
290
     0
  0
SCALE
  5
5C
102
{ACAD_REACTORS
330
47
102
}
330
47
100
AcDbScale
 70
     0
300
1/16" = 1'-0"
140
0.0625
141
12.0
290
     0
  0
SCALE
  5
5D
102
{ACAD_REACTORS
330
47
102
}
330
47
100
AcDbScale
 70
     0
300
3/32" = 1'-0"
140
0.09375
141
12.0
290
     0
  0
SCALE
  5
5E
102
{ACAD_REACTORS
330
47
102
}
330
47
100
AcDbScale
 70
     0
300
1/8" = 1'-0"
140
0.125
141
12.0
290
     0
  0
SCALE
  5
5F
102
{ACAD_REACTORS
330
47
102
}
330
47
100
AcDbScale
 70
     0
300
3/16" = 1'-0"
140
0.1875
141
12.0
290
     0
  0
SCALE
  5
60
102
{ACAD_REACTORS
330
47
102
}
330
47
100
AcDbScale
 70
     0
300
1/4" = 1'-0"
140
0.25
141
12.0
290
     0
  0
SCALE
  5
61
102
{ACAD_REACTORS
330
47
102
}
330
47
100
AcDbScale
 70
     0
300
3/8" = 1'-0"
140
0.375
141
12.0
290
     0
  0
SCALE
  5
62
102
{ACAD_REACTORS
330
47
102
}
330
47
100
AcDbScale
 70
     0
300
1/2" = 1'-0"
140
0.5
141
12.0
290
     0
  0
SCALE
  5
63
102
{ACAD_REACTORS
330
47
102
}
330
47
100
AcDbScale
 70
     0
300
3/4" = 1'-0"
140
0.75
141
12.0
290
     0
  0
SCALE
  5
64
102
{ACAD_REACTORS
330
47
102
}
330
47
100
AcDbScale
 70
     0
300
1" = 1'-0"
140
1.0
141
12.0
290
     0
  0
SCALE
  5
65
102
{ACAD_REACTORS
330
47
102
}
330
47
100
AcDbScale
 70
     0
300
1-1/2" = 1'-0"
140
1.5
141
12.0
290
     0
  0
SCALE
  5
66
102
{ACAD_REACTORS
330
47
102
}
330
47
100
AcDbScale
 70
     0
300
3" = 1'-0"
140
3.0
141
12.0
290
     0
  0
SCALE
  5
67
102
{ACAD_REACTORS
330
47
102
}
330
47
100
AcDbScale
 70
     0
300
6" = 1'-0"
140
6.0
141
12.0
290
     0
  0
SCALE
  5
68
102
{ACAD_REACTORS
330
47
102
}
330
47
100
AcDbScale
 70
     0
300
1'-0" = 1'-0"
140
12.0
141
12.0
290
     0
  0
ENDSEC
  0
EOF
