  0
SECTION
  2
HEADER
  9
$ACADVER
  1
AC1015
  9
$ACADMAINTVER
 70
     6
  9
$DWGCODEPAGE
  3
ANSI_949
  9
$INSBASE
 10
0.0
 20
0.0
 30
0.0
  9
$EXTMIN
 10
1.000000000000000E+20
 20
1.000000000000000E+20
 30
1.000000000000000E+20
  9
$EXTMAX
 10
-1.000000000000000E+20
 20
-1.000000000000000E+20
 30
-1.000000000000000E+20
  9
$LIMMIN
 10
0.0
 20
0.0
  9
$LIMMAX
 10
420.0
 20
297.0
  9
$ORTHOMODE
 70
     0
  9
$REGENMODE
 70
     1
  9
$FILLMODE
 70
     1
  9
$QTEXTMODE
 70
     0
  9
$MIRRTEXT
 70
     1
  9
$LTSCALE
 40
1.0
  9
$ATTMODE
 70
     1
  9
$TEXTSIZE
 40
3.5
  9
$TRACEWID
 40
1.0
  9
$TEXTSTYLE
  7
Standard
  9
$CLAYER
  8
0
  9
$CELTYPE
  6
ByLayer
  9
$CECOLOR
 62
   256
  9
$CELTSCALE
 40
1.0
  9
$DISPSILH
 70
     0
  9
$DIMSCALE
 40
1.0
  9
$DIMASZ
 40
3.302
  9
$DIMEXO
 40
1.0
  9
$DIMDLI
 40
3.75
  9
$DIMRND
 40
0.0
  9
$DIMDLE
 40
0.0
  9
$DIMEXE
 40
1.0
  9
$DIMTP
 40
0.0
  9
$DIMTM
 40
0.0
  9
$DIMTXT
 40
3.5
  9
$DIMCEN
 40
2.5
  9
$DIMTSZ
 40
0.0
  9
$DIMTOL
 70
     0
  9
$DIMLIM
 70
     0
  9
$DIMTIH
 70
     1
  9
$DIMTOH
 70
     1
  9
$DIMSE1
 70
     0
  9
$DIMSE2
 70
     0
  9
$DIMTAD
 70
     1
  9
$DIMZIN
 70
     0
  9
$DIMBLK
  1

  9
$DIMASO
 70
     1
  9
$DIMSHO
 70
     1
  9
$DIMPOST
  1

  9
$DIMAPOST
  1

  9
$DIMALT
 70
     0
  9
$DIMALTD
 70
     3
  9
$DIMALTF
 40
0.0393700787401575
  9
$DIMLFAC
 40
1.0
  9
$DIMTOFL
 70
     1
  9
$DIMTVP
 40
0.0
  9
$DIMTIX
 70
     0
  9
$DIMSOXD
 70
     0
  9
$DIMSAH
 70
     0
  9
$DIMBLK1
  1

  9
$DIMBLK2
  1

  9
$DIMSTYLE
  2
ISO-25
  9
$DIMCLRD
 70
     0
  9
$DIMCLRE
 70
     0
  9
$DIMCLRT
 70
     0
  9
$DIMTFAC
 40
1.0
  9
$DIMGAP
 40
1.524
  9
$DIMJUST
 70
     0
  9
$DIMSD1
 70
     0
  9
$DIMSD2
 70
     0
  9
$DIMTOLJ
 70
     0
  9
$DIMTZIN
 70
     0
  9
$DIMALTZ
 70
     0
  9
$DIMALTTZ
 70
     0
  9
$DIMUPT
 70
     0
  9
$DIMDEC
 70
     2
  9
$DIMTDEC
 70
     2
  9
$DIMALTU
 70
     2
  9
$DIMALTTD
 70
     3
  9
$DIMTXSTY
  7
Standard
  9
$DIMAUNIT
 70
     0
  9
$DIMADEC
 70
     2
  9
$DIMALTRND
 40
0.0
  9
$DIMAZIN
 70
     0
  9
$DIMDSEP
 70
    44
  9
$DIMATFIT
 70
     3
  9
$DIMFRAC
 70
     0
  9
$DIMLDRBLK
  1

  9
$DIMLUNIT
 70
     2
  9
$DIMLWD
 70
    -2
  9
$DIMLWE
 70
    -2
  9
$DIMTMOVE
 70
     0
  9
$LUNITS
 70
     2
  9
$LUPREC
 70
     2
  9
$SKETCHINC
 40
1.0
  9
$FILLETRAD
 40
10.0
  9
$AUNITS
 70
     0
  9
$AUPREC
 70
     2
  9
$MENU
  1
.
  9
$ELEVATION
 40
0.0
  9
$PELEVATION
 40
0.0
  9
$THICKNESS
 40
0.0
  9
$LIMCHECK
 70
     0
  9
$CHAMFERA
 40
0.0
  9
$CHAMFERB
 40
0.0
  9
$CHAMFERC
 40
0.0
  9
$CHAMFERD
 40
0.0
  9
$SKPOLY
 70
     0
  9
$TDCREATE
 40
2458235.829887593
  9
$TDUCREATE
 40
2458235.454887593
  9
$TDUPDATE
 40
2458283.503614676
  9
$TDUUPDATE
 40
2458283.128614676
  9
$TDINDWG
 40
0.0019229514
  9
$TDUSRTIMER
 40
2458283.1281925
  9
$USRTIMER
 70
     1
  9
$ANGBASE
 50
0.0
  9
$ANGDIR
 70
     0
  9
$PDMODE
 70
     0
  9
$PDSIZE
 40
-1.0
  9
$PLINEWID
 40
0.0
  9
$SPLFRAME
 70
     0
  9
$SPLINETYPE
 70
     6
  9
$SPLINESEGS
 70
     8
  9
$HANDSEED
  5
1CD
  9
$SURFTAB1
 70
     6
  9
$SURFTAB2
 70
     6
  9
$SURFTYPE
 70
     6
  9
$SURFU
 70
     6
  9
$SURFV
 70
     6
  9
$UCSBASE
  2

  9
$UCSNAME
  2

  9
$UCSORG
 10
0.0
 20
0.0
 30
0.0
  9
$UCSXDIR
 10
1.0
 20
0.0
 30
0.0
  9
$UCSYDIR
 10
0.0
 20
1.0
 30
0.0
  9
$UCSORTHOREF
  2

  9
$UCSORTHOVIEW
 70
     0
  9
$UCSORGTOP
 10
0.0
 20
0.0
 30
0.0
  9
$UCSORGBOTTOM
 10
0.0
 20
0.0
 30
0.0
  9
$UCSORGLEFT
 10
0.0
 20
0.0
 30
0.0
  9
$UCSORGRIGHT
 10
0.0
 20
0.0
 30
0.0
  9
$UCSORGFRONT
 10
0.0
 20
0.0
 30
0.0
  9
$UCSORGBACK
 10
0.0
 20
0.0
 30
0.0
  9
$PUCSBASE
  2

  9
$PUCSNAME
  2

  9
$PUCSORG
 10
0.0
 20
0.0
 30
0.0
  9
$PUCSXDIR
 10
1.0
 20
0.0
 30
0.0
  9
$PUCSYDIR
 10
0.0
 20
1.0
 30
0.0
  9
$PUCSORTHOREF
  2

  9
$PUCSORTHOVIEW
 70
     0
  9
$PUCSORGTOP
 10
0.0
 20
0.0
 30
0.0
  9
$PUCSORGBOTTOM
 10
0.0
 20
0.0
 30
0.0
  9
$PUCSORGLEFT
 10
0.0
 20
0.0
 30
0.0
  9
$PUCSORGRIGHT
 10
0.0
 20
0.0
 30
0.0
  9
$PUCSORGFRONT
 10
0.0
 20
0.0
 30
0.0
  9
$PUCSORGBACK
 10
0.0
 20
0.0
 30
0.0
  9
$USERI1
 70
     0
  9
$USERI2
 70
     0
  9
$USERI3
 70
     0
  9
$USERI4
 70
     0
  9
$USERI5
 70
     0
  9
$USERR1
 40
0.0
  9
$USERR2
 40
0.0
  9
$USERR3
 40
0.0
  9
$USERR4
 40
0.0
  9
$USERR5
 40
0.0
  9
$WORLDVIEW
 70
     1
  9
$SHADEDGE
 70
     3
  9
$SHADEDIF
 70
    70
  9
$TILEMODE
 70
     1
  9
$MAXACTVP
 70
    64
  9
$PINSBASE
 10
0.0
 20
0.0
 30
0.0
  9
$PLIMCHECK
 70
     0
  9
$PEXTMIN
 10
1.000000000000000E+20
 20
1.000000000000000E+20
 30
1.000000000000000E+20
  9
$PEXTMAX
 10
-1.000000000000000E+20
 20
-1.000000000000000E+20
 30
-1.000000000000000E+20
  9
$PLIMMIN
 10
0.0
 20
0.0
  9
$PLIMMAX
 10
0.0
 20
0.0
  9
$UNITMODE
 70
     0
  9
$VISRETAIN
 70
     1
  9
$PLINEGEN
 70
     0
  9
$PSLTSCALE
 70
     1
  9
$TREEDEPTH
 70
  3020
  9
$CMLSTYLE
  2
Standard
  9
$CMLJUST
 70
     0
  9
$CMLSCALE
 40
20.0
  9
$PROXYGRAPHICS
 70
     1
  9
$MEASUREMENT
 70
     1
  9
$CELWEIGHT
370
    -1
  9
$ENDCAPS
280
     0
  9
$JOINSTYLE
280
     0
  9
$LWDISPLAY
290
     1
  9
$INSUNITS
 70
     4
  9
$HYPERLINKBASE
  1

  9
$STYLESHEET
  1

  9
$XEDIT
290
     1
  9
$CEPSNTYPE
380
     0
  9
$PSTYLEMODE
290
     1
  9
$FINGERPRINTGUID
  2
{23ECEAC3-8078-4E1B-B28F-7DB95D23ABF5}
  9
$VERSIONGUID
  2
{FAEB1C32-E019-11D5-929B-00C0DF256EC4}
  9
$EXTNAMES
290
     1
  9
$PSVPSCALE
 40
0.0
  9
$OLESTARTUP
290
     0
  0
ENDSEC
  0
SECTION
  2
CLASSES
  0
CLASS
  1
ACDBDICTIONARYWDFLT
  2
AcDbDictionaryWithDefault
  3
ObjectDBX Classes
 90
        0
280
     0
281
     0
  0
CLASS
  1
VISUALSTYLE
  2
AcDbVisualStyle
  3
ObjectDBX Classes
 90
     4095
280
     0
281
     0
  0
CLASS
  1
MATERIAL
  2
AcDbMaterial
  3
ObjectDBX Classes
 90
     1153
280
     0
281
     0
  0
CLASS
  1
SCALE
  2
AcDbScale
  3
ObjectDBX Classes
 90
     1153
280
     0
281
     0
  0
CLASS
  1
SUN
  2
AcDbSun
  3
SCENEOE
 90
     1153
280
     0
281
     0
  0
CLASS
  1
ACDBPLACEHOLDER
  2
AcDbPlaceHolder
  3
ObjectDBX Classes
 90
        0
280
     0
281
     0
  0
CLASS
  1
LAYOUT
  2
AcDbLayout
  3
ObjectDBX Classes
 90
        0
280
     0
281
     0
  0
CLASS
  1
TABLESTYLE
  2
AcDbTableStyle
  3
ObjectDBX Classes
 90
     4095
280
     0
281
     0
  0
CLASS
  1
MLEADERSTYLE
  2
AcDbMLeaderStyle
  3
ACDB_MLEADERSTYLE_CLASS
 90
     4095
280
     0
281
     0
  0
CLASS
  1
RASTERVARIABLES
  2
AcDbRasterVariables
  3
ISM
 90
        0
280
     0
281
     0
  0
CLASS
  1
DIMASSOC
  2
AcDbDimAssoc
  3
"AcDbDimAssoc|Product Desc:     AcDim ARX App For Dimension|Company:          Autodesk, Inc.|WEB Address:      www.autodesk.com"
 90
        0
280
     0
281
     0
  0
ENDSEC
  0
SECTION
  2
TABLES
  0
TABLE
  2
VPORT
  5
8
330
0
100
AcDbSymbolTable
 70
     1
  0
VPORT
  5
29
330
8
100
AcDbSymbolTableRecord
100
AcDbViewportTableRecord
  2
*Active
 70
     0
 10
0.0
 20
0.0
 11
1.0
 21
1.0
 12
-75.2768044015116
 22
-13.86611970642383
 13
0.0
 23
0.0
 14
10.0
 24
10.0
 15
10.0
 25
10.0
 16
0.0
 26
0.0
 36
1.0
 17
0.0
 27
0.0
 37
0.0
 40
162.4233561497433
 41
1.335907335907336
 42
50.0
 43
0.0
 44
0.0
 50
0.0
 51
0.0
 71
    16
 72
  2000
 73
     1
 74
     3
 75
     0
 76
     0
 77
     0
 78
     0
281
     0
 65
     1
110
0.0
120
0.0
130
0.0
111
1.0
121
0.0
131
0.0
112
0.0
122
1.0
132
0.0
 79
     0
146
0.0
  0
ENDTAB
  0
TABLE
  2
LTYPE
  5
5
330
0
100
AcDbSymbolTable
 70
     6
  0
LTYPE
  5
14
330
5
100
AcDbSymbolTableRecord
100
AcDbLinetypeTableRecord
  2
ByBlock
 70
     0
  3

 72
    65
 73
     0
 40
0.0
  0
LTYPE
  5
15
330
5
100
AcDbSymbolTableRecord
100
AcDbLinetypeTableRecord
  2
ByLayer
 70
     0
  3

 72
    65
 73
     0
 40
0.0
  0
LTYPE
  5
16
330
5
100
AcDbSymbolTableRecord
100
AcDbLinetypeTableRecord
  2
Continuous
 70
     0
  3
Solid line
 72
    65
 73
     0
 40
0.0
  0
LTYPE
  5
6A
330
5
100
AcDbSymbolTableRecord
100
AcDbLinetypeTableRecord
  2
HIDDEN
 70
     0
  3
Hidden __ __ __ __ __ __ __ __ __ __ __ __ __ __
 72
    65
 73
     2
 40
1.905
 49
1.27
 74
     0
 49
-0.635
 74
     0
  0
LTYPE
  5
6B
330
5
100
AcDbSymbolTableRecord
100
AcDbLinetypeTableRecord
  2
PHANTOM
 70
     0
  3
Phantom ______  __  __  ______  __  __  ______
 72
    65
 73
     6
 40
12.7
 49
6.35
 74
     0
 49
-1.27
 74
     0
 49
1.27
 74
     0
 49
-1.27
 74
     0
 49
1.27
 74
     0
 49
-1.27
 74
     0
  0
LTYPE
  5
6C
330
5
100
AcDbSymbolTableRecord
100
AcDbLinetypeTableRecord
  2
CENTER
 70
     0
  3
Center ____ _ ____ _ ____ _ ____ _ ____ _ ____
 72
    65
 73
     4
 40
10.16
 49
6.35
 74
     0
 49
-1.27
 74
     0
 49
1.27
 74
     0
 49
-1.27
 74
     0
  0
LTYPE
  5
6D
330
5
100
AcDbSymbolTableRecord
100
AcDbLinetypeTableRecord
  2
CENTERX2
 70
     0
  3
Center (2x) ________  __  ________  __  _____
 72
    65
 73
     4
 40
20.32
 49
12.7
 74
     0
 49
-2.54
 74
     0
 49
2.54
 74
     0
 49
-2.54
 74
     0
  0
LTYPE
  5
6E
330
5
100
AcDbSymbolTableRecord
100
AcDbLinetypeTableRecord
  2
DOT2
 70
     0
  3
Dot (.5x) ........................................
 72
    65
 73
     2
 40
0.635
 49
0.0
 74
     0
 49
-0.635
 74
     0
  0
ENDTAB
  0
TABLE
  2
LAYER
  5
2
102
{ACAD_XDICTIONARY
360
1B4
102
}
330
0
100
AcDbSymbolTable
 70
    17
  0
LAYER
  5
10
330
2
100
AcDbSymbolTableRecord
100
AcDbLayerTableRecord
  2
0
 70
     0
 62
     7
  6
Continuous
370
    -3
390
F
  0
LAYER
  5
6F
330
2
100
AcDbSymbolTableRecord
100
AcDbLayerTableRecord
  2
FORMAT
 70
     0
 62
     2
  6
Continuous
370
    -3
390
F
  0
LAYER
  5
70
330
2
100
AcDbSymbolTableRecord
100
AcDbLayerTableRecord
  2
외형선
 70
     0
 62
   100
  6
Continuous
370
    30
390
F
  0
LAYER
  5
71
330
2
100
AcDbSymbolTableRecord
100
AcDbLayerTableRecord
  2
숨은선
 70
     0
 62
     2
  6
HIDDEN
370
    15
390
F
  0
LAYER
  5
72
330
2
100
AcDbSymbolTableRecord
100
AcDbLayerTableRecord
  2
중심선
 70
     0
 62
     1
  6
CENTERX2
370
    -3
390
F
  0
LAYER
  5
73
330
2
100
AcDbSymbolTableRecord
100
AcDbLayerTableRecord
  2
파단선
 70
     0
 62
     4
  6
Continuous
370
    -3
390
F
  0
LAYER
  5
74
330
2
100
AcDbSymbolTableRecord
100
AcDbLayerTableRecord
  2
해칭선
 70
     0
 62
     4
  6
Continuous
370
    -3
390
F
  0
LAYER
  5
75
330
2
100
AcDbSymbolTableRecord
100
AcDbLayerTableRecord
  2
가는실선
 70
     0
 62
     4
  6
Continuous
370
    -3
390
F
  0
LAYER
  5
76
330
2
100
AcDbSymbolTableRecord
100
AcDbLayerTableRecord
  2
치수_보조선
 70
     0
 62
     4
  6
Continuous
370
    -3
390
F
  0
LAYER
  5
77
330
2
100
AcDbSymbolTableRecord
100
AcDbLayerTableRecord
  2
치수문자_일반주서
 70
     0
 62
     7
  6
Continuous
370
    15
390
F
  0
LAYER
  5
78
330
2
100
AcDbSymbolTableRecord
100
AcDbLayerTableRecord
  2
개별주서
 70
     0
 62
   100
  6
Continuous
370
    30
390
F
  0
LAYER
  5
79
330
2
100
AcDbSymbolTableRecord
100
AcDbLayerTableRecord
  2
중간선
 70
     0
 62
     2
  6
Continuous
370
    15
390
F
  0
LAYER
  5
7A
330
2
100
AcDbSymbolTableRecord
100
AcDbLayerTableRecord
  2
윤곽선
 70
     0
 62
     3
  6
Continuous
370
    40
390
F
  0
LAYER
  5
7B
330
2
100
AcDbSymbolTableRecord
100
AcDbLayerTableRecord
  2
중심마크
 70
     0
 62
   100
  6
Continuous
370
    30
390
F
  0
LAYER
  5
7C
330
2
100
AcDbSymbolTableRecord
100
AcDbLayerTableRecord
  2
가상선
 70
     0
 62
     4
  6
PHANTOM
370
    -3
390
F
  0
LAYER
  5
7D
330
2
100
AcDbSymbolTableRecord
100
AcDbLayerTableRecord
  2
특수지정선
 70
     0
 62
     5
  6
CENTERX2
370
    60
390
F
  0
LAYER
  5
127
330
2
100
AcDbSymbolTableRecord
100
AcDbLayerTableRecord
  2
Defpoints
 70
     0
 62
     7
  6
Continuous
290
     0
370
    -3
390
F
  0
ENDTAB
  0
TABLE
  2
STYLE
  5
3
330
0
100
AcDbSymbolTable
 70
     2
  0
STYLE
  5
11
330
3
100
AcDbSymbolTableRecord
100
AcDbTextStyleTableRecord
  2
Standard
 70
     0
 40
0.0
 41
1.0
 50
0.0
 71
     0
 42
3.5
  3
txt
  4

  0
STYLE
  5
93
330
3
100
AcDbSymbolTableRecord
100
AcDbTextStyleTableRecord
  2
SLDTEXTSTYLE0
 70
     0
 40
0.0
 41
0.75
 50
0.0
 71
     0
 42
3.5
  3
TXT
  4

  0
ENDTAB
  0
TABLE
  2
VIEW
  5
6
330
0
100
AcDbSymbolTable
 70
     0
  0
ENDTAB
  0
TABLE
  2
UCS
  5
7
330
0
100
AcDbSymbolTable
 70
     0
  0
ENDTAB
  0
TABLE
  2
APPID
  5
9
330
0
100
AcDbSymbolTable
 70
     2
  0
APPID
  5
12
330
9
100
AcDbSymbolTableRecord
100
AcDbRegAppTableRecord
  2
ACAD
 70
     0
  0
APPID
  5
138
330
9
100
AcDbSymbolTableRecord
100
AcDbRegAppTableRecord
  2
PE_DIMMEASUREMENT
 70
     0
  0
ENDTAB
  0
TABLE
  2
DIMSTYLE
  5
A
330
0
100
AcDbSymbolTable
 70
     3
100
AcDbDimStyleTable
  0
DIMSTYLE
105
27
102
{ACAD_REACTORS
330
128
330
CC
330
D7
330
EF
102
}
330
A
100
AcDbSymbolTableRecord
100
AcDbDimStyleTableRecord
  2
ISO-25
 70
     0
 41
2.5
 42
0.625
 43
3.75
 44
1.25
 73
     0
 74
     0
 77
     1
 78
     8
140
2.5
141
2.5
143
0.03937007874016
147
0.625
171
     3
172
     1
178
     0
271
     2
272
     2
274
     3
278
    44
283
     0
284
     8
340
11
  0
DIMSTYLE
105
CD
330
A
100
AcDbSymbolTableRecord
100
AcDbDimStyleTableRecord
  2
SLDDIMSTYLE0
 70
     0
 41
3.302
 44
0.0
 45
0.000000001
 73
     0
 74
     0
 77
     1
 78
     4
 79
     1
140
3.5
147
0.875
173
     1
178
     0
271
     2
272
     2
276
     2
284
    12
340
93
  0
DIMSTYLE
105
E2
330
A
100
AcDbSymbolTableRecord
100
AcDbDimStyleTableRecord
  2
SLDDIMSTYLE1
 70
     0
 41
3.302
 44
0.0
 45
0.000000001
 73
     0
 74
     0
 77
     1
 78
     4
 79
     1
140
3.5
147
0.875
172
     1
173
     1
178
     0
271
     2
272
     2
276
     2
284
    12
289
     0
340
93
  0
ENDTAB
  0
TABLE
  2
BLOCK_RECORD
  5
1
330
0
100
AcDbSymbolTable
 70
     9
  0
BLOCK_RECORD
  5
1F
330
1
100
AcDbSymbolTableRecord
100
AcDbBlockTableRecord
  2
*Model_Space
340
22
  0
BLOCK_RECORD
  5
1B
330
1
100
AcDbSymbolTableRecord
100
AcDbBlockTableRecord
  2
*Paper_Space
340
1E
  0
BLOCK_RECORD
  5
23
330
1
100
AcDbSymbolTableRecord
100
AcDbBlockTableRecord
  2
*Paper_Space0
340
26
  0
BLOCK_RECORD
  5
7E
330
1
100
AcDbSymbolTableRecord
100
AcDbBlockTableRecord
  2
블럭10
340
0
102
{BLKREFS
331
C4
102
}
  0
BLOCK_RECORD
  5
CE
330
1
100
AcDbSymbolTableRecord
100
AcDbBlockTableRecord
  2
_D
340
0
  0
BLOCK_RECORD
  5
D8
330
1
100
AcDbSymbolTableRecord
100
AcDbBlockTableRecord
  2
_D_1
340
0
  0
BLOCK_RECORD
  5
E3
330
1
100
AcDbSymbolTableRecord
100
AcDbBlockTableRecord
  2
_D_2
340
0
  0
BLOCK_RECORD
  5
F0
330
1
100
AcDbSymbolTableRecord
100
AcDbBlockTableRecord
  2
_D_3
340
0
  0
BLOCK_RECORD
  5
FC
330
1
100
AcDbSymbolTableRecord
100
AcDbBlockTableRecord
  2
SW_DOWELSYMBOL_0
340
0
102
{BLKREFS
331
102
102
}
  0
BLOCK_RECORD
  5
12B
330
1
100
AcDbSymbolTableRecord
100
AcDbBlockTableRecord
  2
*D7
340
0
  0
ENDTAB
  0
ENDSEC
  0
SECTION
  2
BLOCKS
  0
BLOCK
  5
20
330
1F
100
AcDbEntity
  8
0
100
AcDbBlockBegin
  2
*Model_Space
 70
     0
 10
0.0
 20
0.0
 30
0.0
  3
*Model_Space
  1
*Model_Space
  0
ENDBLK
  5
21
330
1F
100
AcDbEntity
  8
0
100
AcDbBlockEnd
  0
BLOCK
  5
1C
330
1B
100
AcDbEntity
 67
     1
  8
0
100
AcDbBlockBegin
  2
*Paper_Space
 70
     0
 10
0.0
 20
0.0
 30
0.0
  3
*Paper_Space
  1
*Paper_Space
  0
ENDBLK
  5
1D
330
1B
100
AcDbEntity
 67
     1
  8
0
100
AcDbBlockEnd
  0
BLOCK
  5
24
330
23
100
AcDbEntity
  8
0
100
AcDbBlockBegin
  2
*Paper_Space0
 70
     0
 10
0.0
 20
0.0
 30
0.0
  3
*Paper_Space0
  1
*Paper_Space0
  0
ENDBLK
  5
25
330
23
100
AcDbEntity
  8
0
100
AcDbBlockEnd
  0
BLOCK
  5
7F
330
7E
100
AcDbEntity
  8
0
100
AcDbBlockBegin
  2
블럭10
 70
     2
 10
0.0
 20
0.0
 30
0.0
  3
블럭10
  1
블럭10
  0
ELLIPSE
  5
81
330
7E
100
AcDbEntity
  8
중심선
100
AcDbEllipse
 10
20.54032771741204
 20
12.0471743016438
 30
0.0
 11
6.600054785286829
 21
-1.261213355974178E-13
 31
0.0
210
0.0
220
0.0
230
1.0
 40
0.636358354079598
 41
0.9219305317359503
 42
6.513795318482858
  0
ELLIPSE
  5
82
330
7E
100
AcDbEntity
  8
중심선
100
AcDbEllipse
 10
20.54032771746488
 20
12.04717430159265
 30
0.0
 11
3.960054785062283
 21
1.540847449632565E-10
 31
0.0
210
0.0
220
0.0
230
1.0
 40
0.3939339440162632
 41
1.131841032648279
 42
5.62031148352944
  0
LINE
  5
83
330
7E
100
AcDbEntity
  8
중심선
100
AcDbLine
 10
2.268634060543552
 20
16.24717430164393
 30
0.0
 11
5.714909304380834
 21
16.24717430164393
 31
0.0
  0
LINE
  5
84
330
7E
100
AcDbEntity
  8
중심선
100
AcDbLine
 10
5.245725140726316
 20
7.84717430164391
 30
0.0
 11
8.692000384563599
 21
7.84717430164391
 31
0.0
  0
LINE
  5
85
330
7E
100
AcDbEntity
  8
중심선
100
AcDbLine
 10
15.74043728645272
 20
16.24717430164393
 30
0.0
 11
8.692000384563599
 21
7.84717430164391
 31
0.0
  0
LINE
  5
86
330
7E
100
AcDbEntity
  8
중심선
100
AcDbLine
 10
0.1404042013395286
 20
13.71084872107135
 30
0.0
 11
3.58671253028996
 21
13.71088815037384
 31
0.0
  0
LINE
  5
87
330
7E
100
AcDbEntity
  8
중심선
100
AcDbLine
 10
2.750260043222114
 20
10.84717430164391
 30
0.0
 11
6.196535287059397
 21
10.84717430164391
 31
0.0
  0
LINE
  5
88
330
7E
100
AcDbEntity
  8
중심선
100
AcDbLine
 10
12.29416204261559
 20
16.24717430164393
 30
0.0
 11
5.245725140726316
 21
7.84717430164391
 31
0.0
  0
LINE
  5
89
330
7E
100
AcDbEntity
  8
중심선
100
AcDbLine
 10
10.72767329541681
 20
16.24717430164393
 30
0.0
 11
6.196535287059397
 21
10.84717430164391
 31
0.0
  0
LINE
  5
8A
330
7E
100
AcDbEntity
  8
중심선
100
AcDbLine
 10
7.28139805157953
 20
16.24717430164393
 30
0.0
 11
2.750260043222114
 21
10.84717430164391
 31
0.0
  0
LINE
  5
8B
330
7E
100
AcDbEntity
  8
중심선
100
AcDbLine
 10
5.714909304380834
 20
16.24717430164393
 30
0.0
 11
3.58671253028996
 21
13.71088815037384
 31
0.0
  0
LINE
  5
8C
330
7E
100
AcDbEntity
  8
중심선
100
AcDbLine
 10
2.268634060543552
 20
16.24717430164393
 30
0.0
 11
0.1404042013395286
 21
13.71084872107135
 31
0.0
  0
LINE
  5
8D
330
7E
100
AcDbEntity
  8
중심선
100
AcDbLine
 10
7.28139805157953
 20
16.24717430164393
 30
0.0
 11
10.72767329541681
 21
16.24717430164393
 31
0.0
  0
LINE
  5
8E
330
7E
100
AcDbEntity
  8
중심선
100
AcDbLine
 10
12.29416204261559
 20
16.24717430164393
 30
0.0
 11
15.74043728645272
 21
16.24717430164393
 31
0.0
  0
LINE
  5
8F
330
7E
100
AcDbEntity
  8
중심선
100
AcDbLine
 10
19.22036997980202
 20
11.08717430171403
 30
0.0
 11
23.66174974927406
 21
11.08717430171406
 31
0.0
  0
LINE
  5
90
330
7E
100
AcDbEntity
  8
중심선
100
AcDbLine
 10
19.22039502424796
 20
13.00717430171391
 30
0.0
 11
19.22036997980202
 21
11.08717430171403
 31
0.0
  0
LINE
  5
91
330
7E
100
AcDbEntity
  8
중심선
100
AcDbLine
 10
19.22039502424796
 20
13.00717430171391
 30
0.0
 11
26.96566020931264
 21
13.00717430171391
 31
0.0
  0
LINE
  5
92
330
7E
100
AcDbEntity
  8
중심선
100
AcDbLine
 10
22.22332737316547
 20
13.45928029700563
 30
0.0
 11
24.52862924686651
 21
15.39360700705356
 31
0.0
  0
ATTDEF
  5
94
330
7E
100
AcDbEntity
  8
FORMAT
 62
     2
100
AcDbText
 10
-12.63068127447336
 20
2.075366912832191
 30
0.0
 40
4.233333333333333
  1
UGMF68913 [ 4 FLUTE ]
 41
0.75
  7
SLDTEXTSTYLE0
 11
-12.63068127447336
 21
-0.0412997538344756
 31
0.0
100
AcDbAttributeDefinition
  3

  2
AUTOATTR0
 70
     0
 74
     1
  0
ENDBLK
  5
80
330
7E
100
AcDbEntity
  8
0
100
AcDbBlockEnd
  0
BLOCK
  5
CF
330
CE
100
AcDbEntity
  8
0
100
AcDbBlockBegin
  2
_D
 70
     0
 10
0.0
 20
0.0
 30
0.0
  3
_D
  1
_D
  0
LINE
  5
D1
330
CE
100
AcDbEntity
  8
0
 62
     0
370
    -2
100
AcDbLine
 10
48.10000000000001
 20
13.71150781286814
 30
0.0
 11
48.10000000000001
 21
35.17233138772664
 31
0.0
  0
LINE
  5
D2
330
CE
100
AcDbEntity
  8
0
 62
     0
370
    -2
100
AcDbLine
 10
-53.49999999999999
 20
13.22135414949588
 30
0.0
 11
-53.49999999999999
 21
35.17233138772664
 31
0.0
  0
LINE
  5
D3
330
CE
100
AcDbEntity
  8
0
 62
     0
370
    -2
100
AcDbLine
 10
44.79800000000001
 20
34.17233138772664
 30
0.0
 11
-50.19799999999999
 21
34.17233138772664
 31
0.0
  0
SOLID
  5
D4
330
CE
100
AcDbEntity
  8
0
 62
     0
100
AcDbTrace
 10
44.79800000000001
 20
33.62199805439331
 30
0.0
 11
44.79800000000001
 21
34.72266472105998
 31
0.0
 12
48.10000000000001
 22
34.17233138772664
 32
0.0
 13
48.10000000000001
 23
34.17233138772664
 33
0.0
  0
SOLID
  5
D5
330
CE
100
AcDbEntity
  8
0
 62
     0
100
AcDbTrace
 10
-50.19799999999999
 20
34.72266472105998
 30
0.0
 11
-50.19799999999999
 21
33.62199805439331
 31
0.0
 12
-53.49999999999999
 22
34.17233138772664
 32
0.0
 13
-53.49999999999999
 23
34.17233138772664
 33
0.0
  0
MTEXT
  5
D6
330
CE
100
AcDbEntity
  8
0
 62
     0
100
AcDbMText
 10
-2.561529519760431
 20
39.77966472105997
 30
0.0
 40
3.5
 41
0.0
 71
     2
 72
     1
  1
101,60 [4]
 73
     1
 44
1.0
  0
POINT
  5
13B
330
CE
100
AcDbEntity
  8
Defpoints
 62
     0
100
AcDbPoint
 10
48.10000000000001
 20
12.71150781286814
 30
0.0
  0
POINT
  5
13C
330
CE
100
AcDbEntity
  8
Defpoints
 62
     0
100
AcDbPoint
 10
-53.49999999999999
 20
12.22135414949588
 30
0.0
  0
POINT
  5
13D
330
CE
100
AcDbEntity
  8
Defpoints
 62
     0
100
AcDbPoint
 10
-53.49999999999999
 20
34.17233138772664
 30
0.0
  0
ENDBLK
  5
D0
330
CE
100
AcDbEntity
  8
0
100
AcDbBlockEnd
  0
BLOCK
  5
D9
330
D8
100
AcDbEntity
  8
0
100
AcDbBlockBegin
  2
_D_1
 70
     0
 10
0.0
 20
0.0
 30
0.0
  3
_D_1
  1
_D_1
  0
LINE
  5
DB
330
D8
100
AcDbEntity
  8
0
 62
     0
370
    -2
100
AcDbLine
 10
48.10000000000001
 20
13.71150781286814
 30
0.0
 11
48.10000000000001
 21
25.79178641553816
 31
0.0
  0
LINE
  5
DC
330
D8
100
AcDbEntity
  8
0
 62
     0
370
    -2
100
AcDbLine
 10
10.00000000000001
 20
-10.96382807036475
 30
0.0
 11
10.00000000000001
 21
25.79178641553816
 31
0.0
  0
LINE
  5
DD
330
D8
100
AcDbEntity
  8
0
 62
     0
370
    -2
100
AcDbLine
 10
44.79800000000001
 20
24.79178641553816
 30
0.0
 11
13.30200000000001
 21
24.79178641553816
 31
0.0
  0
SOLID
  5
DE
330
D8
100
AcDbEntity
  8
0
 62
     0
100
AcDbTrace
 10
44.79800000000001
 20
24.24145308220483
 30
0.0
 11
44.79800000000001
 21
25.3421197488715
 31
0.0
 12
48.10000000000001
 22
24.79178641553816
 32
0.0
 13
48.10000000000001
 23
24.79178641553816
 33
0.0
  0
SOLID
  5
DF
330
D8
100
AcDbEntity
  8
0
 62
     0
100
AcDbTrace
 10
13.30200000000001
 20
25.3421197488715
 30
0.0
 11
13.30200000000001
 21
24.24145308220483
 31
0.0
 12
10.00000000000001
 22
24.79178641553816
 32
0.0
 13
10.00000000000001
 23
24.79178641553816
 33
0.0
  0
MTEXT
  5
E0
330
D8
100
AcDbEntity
  8
0
 62
     0
100
AcDbMText
 10
29.05000000000001
 20
30.3991197488715
 30
0.0
 40
3.5
 41
0.0
 71
     2
 72
     1
  1
38,10 [1 1/2]
 73
     1
 44
1.0
  0
POINT
  5
13E
330
D8
100
AcDbEntity
  8
Defpoints
 62
     0
100
AcDbPoint
 10
48.10000000000001
 20
12.71150781286814
 30
0.0
  0
POINT
  5
13F
330
D8
100
AcDbEntity
  8
Defpoints
 62
     0
100
AcDbPoint
 10
10.00000000000001
 20
-11.96382807036475
 30
0.0
  0
POINT
  5
140
330
D8
100
AcDbEntity
  8
Defpoints
 62
     0
100
AcDbPoint
 10
10.00000000000001
 20
24.79178641553816
 30
0.0
  0
ENDBLK
  5
DA
330
D8
100
AcDbEntity
  8
0
100
AcDbBlockEnd
  0
BLOCK
  5
E4
330
E3
100
AcDbEntity
  8
0
100
AcDbBlockBegin
  2
_D_2
 70
     0
 10
0.0
 20
0.0
 30
0.0
  3
_D_2
  1
_D_2
  0
SOLID
  5
E6
330
E3
100
AcDbEntity
  8
치수문자_일반주서
100
AcDbTrace
 10
-61.87941990844065
 20
12.72135414949588
 30
0.0
 11
-61.37141990844064
 21
16.02335414949588
 31
0.0
 12
-62.38741990844065
 22
16.02335414949588
 32
0.0
 13
-62.38741990844065
 23
16.02335414949588
 33
0.0
  0
SOLID
  5
E7
330
E3
100
AcDbEntity
  8
치수문자_일반주서
100
AcDbTrace
 10
-61.87941990844065
 20
-12.67864585050412
 30
0.0
 11
-62.38741990844065
 21
-15.98064585050412
 31
0.0
 12
-61.37141990844064
 22
-15.98064585050412
 32
0.0
 13
-61.37141990844064
 23
-15.98064585050412
 33
0.0
  0
LINE
  5
E8
330
E3
100
AcDbEntity
  8
치수문자_일반주서
100
AcDbLine
 10
-53.99999999999999
 20
12.72135414949589
 30
0.0
 11
-62.87941990844065
 21
12.72135414949588
 31
0.0
  0
LINE
  5
E9
330
E3
100
AcDbEntity
  8
치수문자_일반주서
100
AcDbLine
 10
-53.99999999999999
 20
-12.67864585050411
 30
0.0
 11
-62.87941990844065
 21
-12.67864585050412
 31
0.0
  0
LINE
  5
EA
330
E3
100
AcDbEntity
  8
치수문자_일반주서
100
AcDbLine
 10
-61.87941990844065
 20
12.72135414949588
 30
0.0
 11
-61.87941990844065
 21
19.07135414949588
 31
0.0
  0
LINE
  5
EB
330
E3
100
AcDbEntity
  8
치수문자_일반주서
100
AcDbLine
 10
-61.87941990844065
 20
12.72135414949588
 30
0.0
 11
-61.87941990844065
 21
-12.67864585050412
 31
0.0
  0
LINE
  5
EC
330
E3
100
AcDbEntity
  8
치수문자_일반주서
100
AcDbLine
 10
-61.87941990844065
 20
-12.67864585050412
 30
0.0
 11
-61.87941990844065
 21
-19.02864585050412
 31
0.0
  0
MTEXT
  5
ED
330
E3
100
AcDbEntity
  8
치수문자_일반주서
100
AcDbMText
 10
-66.39115699764247
 20
-12.03349598270691
 30
0.0
 40
3.5
 41
0.0
 71
     1
 72
     1
  1
%%c
  7
SLDTEXTSTYLE0
 11
-7.044195017643634E-15
 21
1.0
 31
0.0
 73
     1
 44
1.0
  0
MTEXT
  5
EE
330
E3
100
AcDbEntity
  8
치수문자_일반주서
100
AcDbMText
 10
-66.44462917430236
 20
-6.755058584332833
 30
0.0
 40
3.5
 41
0.0
 71
     1
 72
     1
  1
25.40
  7
SLDTEXTSTYLE0
 11
-7.044195017643634E-15
 21
1.0
 31
0.0
 73
     1
 44
1.0
  0
ENDBLK
  5
E5
330
E3
100
AcDbEntity
  8
0
100
AcDbBlockEnd
  0
BLOCK
  5
F1
330
F0
100
AcDbEntity
  8
0
100
AcDbBlockBegin
  2
_D_3
 70
     0
 10
0.0
 20
0.0
 30
0.0
  3
_D_3
  1
_D_3
  0
LINE
  5
F3
330
F0
100
AcDbEntity
  8
0
 62
     0
370
    -2
100
AcDbLine
 10
49.10000000000001
 20
-12.67864585050411
 30
0.0
 11
66.22068577202889
 21
-12.67864585050405
 31
0.0
  0
LINE
  5
F4
330
F0
100
AcDbEntity
  8
0
 62
     0
370
    -2
100
AcDbLine
 10
49.10000000000001
 20
12.7213541494959
 30
0.0
 11
66.2206857720288
 21
12.72135414949595
 31
0.0
  0
LINE
  5
F5
330
F0
100
AcDbEntity
  8
0
 62
     0
370
    -2
100
AcDbLine
 10
65.22068577202887
 20
-9.376645850504056
 30
0.0
 11
65.22068577202882
 21
9.419354149495952
 31
0.0
  0
SOLID
  5
F6
330
F0
100
AcDbEntity
  8
0
 62
     0
100
AcDbTrace
 10
64.67035243869555
 20
-9.376645850504058
 30
0.0
 11
65.7710191053622
 21
-9.376645850504055
 31
0.0
 12
65.22068577202889
 22
-12.67864585050406
 32
0.0
 13
65.22068577202889
 23
-12.67864585050406
 33
0.0
  0
SOLID
  5
F7
330
F0
100
AcDbEntity
  8
0
 62
     0
100
AcDbTrace
 10
65.77101910536214
 20
9.419354149495954
 30
0.0
 11
64.67035243869549
 21
9.41935414949595
 31
0.0
 12
65.2206857720288
 22
12.72135414949595
 32
0.0
 13
65.2206857720288
 23
12.72135414949595
 33
0.0
  0
MTEXT
  5
F8
330
F0
100
AcDbEntity
  8
0
 62
     0
100
AcDbMText
 10
59.61335243869551
 20
0.0213541494958685
 30
0.0
 40
3.5
 41
0.0
 71
     2
 72
     1
  1
%%c25,40 [1]
 11
-3.356894814614645E-15
 21
1.0
 31
0.0
 73
     1
 44
1.0
  0
POINT
  5
F9
330
F0
100
AcDbEntity
  8
Defpoints
 62
     0
100
AcDbPoint
 10
48.10000000000001
 20
-12.67864585050411
 30
0.0
  0
POINT
  5
FA
330
F0
100
AcDbEntity
  8
Defpoints
 62
     0
100
AcDbPoint
 10
48.10000000000001
 20
12.72135414949589
 30
0.0
  0
POINT
  5
FB
330
F0
100
AcDbEntity
  8
Defpoints
 62
     0
100
AcDbPoint
 10
65.22068577202884
 20
12.72135414949595
 30
0.0
  0
ENDBLK
  5
F2
330
F0
100
AcDbEntity
  8
0
100
AcDbBlockEnd
  0
BLOCK
  5
FD
330
FC
100
AcDbEntity
  8
0
100
AcDbBlockBegin
  2
SW_DOWELSYMBOL_0
 70
     0
 10
0.0
 20
0.0
 30
0.0
  3
SW_DOWELSYMBOL_0
  1
SW_DOWELSYMBOL_0
  0
CIRCLE
  5
FF
330
FC
100
AcDbEntity
  8
외형선
 62
     0
100
AcDbCircle
 10
0.0
 20
0.0
 30
0.0
 40
3.000000000000001
  0
HATCH
  5
100
330
FC
100
AcDbEntity
  8
0
  6
Continuous
 62
     0
370
    30
100
AcDbHatch
 10
0.0
 20
0.0
 30
0.0
210
0.0
220
0.0
230
1.0
  2
SOLID
 70
     1
 71
     0
 91
        1
 92
        0
 93
        3
 72
     2
 10
0.0
 20
0.0
 40
3.000000000000001
 50
0.0
 51
90.0
 73
     1
 72
     1
 10
0.0
 20
3.000000000000001
 11
0.0
 21
0.0
 72
     1
 10
0.0
 20
0.0
 11
3.000000000000003
 21
0.0
 97
        0
 75
     0
 76
     1
 98
        1
 10
0.0
 20
0.0
  0
HATCH
  5
101
330
FC
100
AcDbEntity
  8
0
  6
Continuous
 62
     0
370
    30
100
AcDbHatch
 10
0.0
 20
0.0
 30
0.0
210
0.0
220
0.0
230
1.0
  2
SOLID
 70
     1
 71
     0
 91
        1
 92
        0
 93
        3
 72
     2
 10
0.0
 20
0.0
 40
3.000000000000001
 50
180.0
 51
270.0000000000007
 73
     1
 72
     1
 10
0.0
 20
-3.000000000000001
 11
0.0
 21
0.0
 72
     1
 10
0.0
 20
0.0
 11
-3.000000000000003
 21
0.0
 97
        0
 75
     0
 76
     1
 98
        1
 10
0.0
 20
0.0
  0
ENDBLK
  5
FE
330
FC
100
AcDbEntity
  8
0
100
AcDbBlockEnd
  0
BLOCK
  5
12C
330
12B
100
AcDbEntity
  8
0
100
AcDbBlockBegin
  2
*D7
 70
     1
 10
0.0
 20
0.0
 30
0.0
  3
*D7
  1
*D7
  0
LINE
  5
12E
330
12B
100
AcDbEntity
  8
0
 62
     0
370
    -2
100
AcDbLine
 10
-53.99999999999999
 20
12.72135414949589
 30
0.0
 11
-68.58709874741214
 21
12.72135414949589
 31
0.0
  0
LINE
  5
12F
330
12B
100
AcDbEntity
  8
0
 62
     0
370
    -2
100
AcDbLine
 10
-53.99999999999999
 20
-12.6786458505041
 30
0.0
 11
-68.58709874741214
 21
-12.6786458505041
 31
0.0
  0
LINE
  5
130
330
12B
100
AcDbEntity
  8
0
 62
     0
370
    -2
100
AcDbLine
 10
-67.58709874741214
 20
9.419354149495886
 30
0.0
 11
-67.58709874741214
 21
-9.3766458505041
 31
0.0
  0
SOLID
  5
131
330
12B
100
AcDbEntity
  8
0
 62
     0
100
AcDbTrace
 10
-67.03676541407881
 20
9.419354149495886
 30
0.0
 11
-68.13743208074547
 21
9.419354149495886
 31
0.0
 12
-67.58709874741214
 22
12.72135414949589
 32
0.0
 13
-67.58709874741214
 23
12.72135414949589
 33
0.0
  0
SOLID
  5
132
330
12B
100
AcDbEntity
  8
0
 62
     0
100
AcDbTrace
 10
-68.13743208074547
 20
-9.3766458505041
 30
0.0
 11
-67.03676541407881
 21
-9.3766458505041
 31
0.0
 12
-67.58709874741214
 22
-12.6786458505041
 32
0.0
 13
-67.58709874741214
 23
-12.6786458505041
 33
0.0
  0
MTEXT
  5
133
330
12B
100
AcDbEntity
  8
0
 62
     0
100
AcDbMText
 10
-71.15276541407881
 20
0.0213541494958918
 30
0.0
 40
3.5
 41
0.0
 71
     5
 72
     1
  1
{%%c25,40 [1]}
 11
0.0
 21
1.0
 31
0.0
 73
     1
 44
1.0
  0
POINT
  5
134
330
12B
100
AcDbEntity
  8
Defpoints
 62
     0
100
AcDbPoint
 10
-52.99999999999999
 20
12.72135414949589
 30
0.0
  0
POINT
  5
135
330
12B
100
AcDbEntity
  8
Defpoints
 62
     0
100
AcDbPoint
 10
-52.99999999999999
 20
-12.6786458505041
 30
0.0
  0
POINT
  5
136
330
12B
100
AcDbEntity
  8
Defpoints
 62
     0
100
AcDbPoint
 10
-67.58709874741214
 20
-12.6786458505041
 30
0.0
  0
ENDBLK
  5
12D
330
12B
100
AcDbEntity
  8
0
100
AcDbBlockEnd
  0
ENDSEC
  0
SECTION
  2
ENTITIES
  0
LINE
  5
95
330
1F
100
AcDbEntity
  8
0
  6
Continuous
 62
     4
370
    15
100
AcDbLine
 10
8.499738871146967
 20
12.72135414949589
 30
0.0
 11
-16.06992499999998
 21
12.72135414949589
 31
0.0
  0
LINE
  5
96
330
1F
100
AcDbEntity
  8
0
  6
Continuous
 62
     4
370
    15
100
AcDbLine
 10
-52.99999999999999
 20
-12.67864585050411
 30
0.0
 11
8.499738871146969
 21
-12.67864585050411
 31
0.0
  0
LINE
  5
98
330
1F
100
AcDbEntity
  8
0
  6
Continuous
 62
     4
370
    15
100
AcDbLine
 10
-53.49999999999999
 20
-12.17864585050411
 30
0.0
 11
-52.99999999999999
 21
-12.67864585050411
 31
0.0
  0
LINE
  5
99
330
1F
100
AcDbEntity
  8
0
  6
Continuous
 62
     1
370
    15
100
AcDbLine
 10
44.33674839433132
 20
-12.67864585050411
 30
0.0
 11
48.10000000000001
 21
-12.67864585050411
 31
0.0
  0
LINE
  5
9A
330
1F
100
AcDbEntity
  8
0
  6
Continuous
 62
     1
370
    15
100
AcDbLine
 10
25.38972168308499
 20
12.72135414949589
 30
0.0
 11
17.8631242045477
 21
12.72135414949589
 31
0.0
  0
LINE
  5
9B
330
1F
100
AcDbEntity
  8
0
  6
Continuous
 62
     1
370
    15
100
AcDbLine
 10
17.8631242045476
 20
-12.67864585050411
 30
0.0
 11
25.38972168308498
 21
-12.67864585050411
 31
0.0
  0
LINE
  5
9C
330
1F
100
AcDbEntity
  8
0
  6
Continuous
 62
     1
370
    15
100
AcDbLine
 10
48.10000000000001
 20
12.72135414949589
 30
0.0
 11
44.33674839433132
 21
12.72135414949589
 31
0.0
  0
SPLINE
  5
9D
330
1F
100
AcDbEntity
  8
0
  6
Continuous
 62
     1
370
    15
100
AcDbSpline
210
0.0
220
0.0
230
1.0
 70
    24
 71
     3
 72
    24
 73
    20
 74
     0
 42
0.000000001
 43
0.00000001
 40
0.0
 40
0.0
 40
0.0
 40
0.0
 40
0.125
 40
0.125
 40
0.25
 40
0.25
 40
0.375
 40
0.375
 40
0.5
 40
0.5
 40
0.625
 40
0.625
 40
0.6875
 40
0.6875
 40
0.75
 40
0.75
 40
0.875
 40
0.875
 40
1.0
 40
1.0
 40
1.0
 40
1.0
 10
10.00000000000001
 20
4.221997809310126
 30
0.0
 10
10.00000000000001
 20
4.021729284230751
 30
0.0
 10
10.00000000000001
 20
3.791702554355109
 30
0.0
 10
10.00000000000001
 20
3.271603152474033
 30
0.0
 10
10.00000000000001
 20
2.979880608417434
 30
0.0
 10
10.00000000000001
 20
2.337410334312426
 30
0.0
 10
10.00000000000001
 20
1.992982383305538
 30
0.0
 10
10.00000000000001
 20
1.256529650777761
 30
0.0
 10
10.00000000000001
 20
0.8637593678351377
 30
0.0
 10
10.00000000000001
 20
0.0273740944972932
 30
0.0
 10
10.00000000000001
 20
-0.401657193281366
 30
0.0
 10
10.00000000000001
 20
-1.061339962752955
 30
0.0
 10
10.00000000000001
 20
-1.283936842426315
 30
0.0
 10
10.00000000000001
 20
-1.734669289241835
 30
0.0
 10
10.00000000000001
 20
-1.964201504151144
 30
0.0
 10
10.00000000000001
 20
-2.647432568471186
 30
0.0
 10
10.00000000000001
 20
-3.097375314190667
 30
0.0
 10
10.00000000000001
 20
-3.986965956561551
 30
0.0
 10
10.00000000000001
 20
-4.428103023036201
 30
0.0
 10
10.00000000000001
 20
-4.853114641082304
 30
0.0
  0
SPLINE
  5
9E
330
1F
100
AcDbEntity
  8
0
  6
Continuous
 62
     4
370
    15
100
AcDbSpline
210
0.0
220
0.0
230
1.0
 70
     8
 71
     3
 72
    14
 73
    10
 74
     0
 42
0.000000001
 43
0.00000001
 40
0.0
 40
0.0
 40
0.0
 40
0.0
 40
0.25
 40
0.25
 40
0.5
 40
0.5
 40
0.75
 40
0.75
 40
1.0
 40
1.0
 40
1.0
 40
1.0
 10
9.522359112344706
 20
-7.452911322910535
 30
0.0
 10
9.358964399746327
 20
-7.353485658570393
 30
0.0
 10
9.213723122148973
 20
-7.23919145282189
 30
0.0
 10
8.958073118978152
 20
-6.980112859072258
 30
0.0
 10
8.847803508055295
 20
-6.834131964020489
 30
0.0
 10
8.673784938047778
 20
-6.52497386252506
 30
0.0
 10
8.607725783488222
 20
-6.358439191888122
 30
0.0
 10
8.520708036802299
 20
-6.011843299813897
 30
0.0
 10
8.499738871146906
 20
-5.833802733943944
 30
0.0
 10
8.499738871146905
 20
-5.65100792504449
 30
0.0
  0
SPLINE
  5
9F
330
1F
100
AcDbEntity
  8
0
  6
Continuous
 62
     4
370
    15
100
AcDbSpline
210
0.0
220
0.0
230
1.0
 70
     8
 71
     3
 72
    16
 73
    12
 74
     0
 42
0.000000001
 43
0.00000001
 40
0.0
 40
0.0
 40
0.0
 40
0.0
 40
0.25
 40
0.25
 40
0.3749999999999998
 40
0.3749999999999998
 40
0.4999999999999997
 40
0.4999999999999997
 40
0.7499999999999997
 40
0.7499999999999997
 40
1.0
 40
1.0
 40
1.0
 40
1.0
 10
8.499738871146967
 20
1.901750814797275
 30
0.0
 10
8.499738871146967
 20
2.15005656409877
 30
0.0
 10
8.53125293981932
 20
2.392003785915317
 30
0.0
 10
8.629689430142202
 20
2.745024955296997
 30
0.0
 10
8.671437517514766
 20
2.861373032463734
 30
0.0
 10
8.770179283655896
 20
3.083093391665596
 30
0.0
 10
8.827366331371092
 20
3.189439414144286
 30
0.0
 10
9.022673091380687
 20
3.495024602881502
 30
0.0
 10
9.186550166403434
 20
3.681557666245075
 30
0.0
 10
9.558388891059138
 20
3.993890097419208
 30
0.0
 10
9.770896047188348
 20
4.124328812353405
 30
0.0
 10
10.00000000000001
 20
4.221997809310127
 30
0.0
  0
SPLINE
  5
A0
330
1F
100
AcDbEntity
  8
0
  6
Continuous
 62
     4
370
    15
100
AcDbSpline
210
0.0
220
0.0
230
1.0
 70
     8
 71
     3
 72
    16
 73
    12
 74
     0
 42
0.000000001
 43
0.00000001
 40
0.0
 40
0.0
 40
0.0
 40
0.0
 40
0.2499999999999996
 40
0.2499999999999996
 40
0.3749999999999996
 40
0.3749999999999996
 40
0.4999999999999996
 40
0.4999999999999996
 40
0.7499999999999999
 40
0.7499999999999999
 40
1.0
 40
1.0
 40
1.0
 40
1.0
 10
8.499738871146967
 20
12.58137438758164
 30
0.0
 10
8.499738871146967
 20
12.5441998214495
 30
0.0
 10
8.531252939819318
 20
12.50045040688524
 30
0.0
 10
8.6296894301422
 20
12.42643670128038
 30
0.0
 10
8.671437517514773
 20
12.4002589515373
 30
0.0
 10
8.770179283655903
 20
12.34729201103713
 30
0.0
 10
8.827366331371092
 20
12.32031135162467
 30
0.0
 10
9.022673091380685
 20
12.23888514380016
 30
0.0
 10
9.186550166403437
 20
12.18357923229242
 30
0.0
 10
9.558388891059142
 20
12.08517472554415
 30
0.0
 10
9.770896047188346
 20
12.04076802685661
 30
0.0
 10
10.00000000000001
 20
12.00653636935649
 30
0.0
  0
LINE
  5
A1
330
1F
100
AcDbEntity
  8
0
  6
Continuous
 62
     4
370
    15
100
AcDbLine
 10
8.499738871146967
 20
12.72135414949589
 30
0.0
 11
8.499738871146967
 21
11.38420187774235
 31
0.0
  0
SPLINE
  5
A2
330
1F
100
AcDbEntity
  8
0
  6
Continuous
 62
     4
370
    15
100
AcDbSpline
210
0.0
220
0.0
230
1.0
 70
     8
 71
     3
 72
    14
 73
    10
 74
     0
 42
0.000000001
 43
0.00000001
 40
0.0
 40
0.0
 40
0.0
 40
0.0
 40
0.25
 40
0.25
 40
0.5
 40
0.5
 40
0.75
 40
0.75
 40
1.0
 40
1.0
 40
1.0
 40
1.0
 10
9.522359112344704
 20
10.28903916842377
 30
0.0
 10
9.358964399746325
 20
10.36141515275506
 30
0.0
 10
9.213723122148972
 20
10.44243780205537
 30
0.0
 10
8.958073118978152
 20
10.61823891176967
 30
0.0
 10
8.847803508055295
 20
10.7136608857684
 30
0.0
 10
8.673784938047778
 20
10.90568705299458
 30
0.0
 10
8.607725783488222
 20
11.00441802559451
 30
0.0
 10
8.520708036802297
 20
11.19856237529504
 30
0.0
 10
8.499738871146905
 20
11.29295025084193
 30
0.0
 10
8.499738871146903
 20
11.38420187774234
 30
0.0
  0
SPLINE
  5
A3
330
1F
100
AcDbEntity
  8
0
  6
Continuous
 62
     4
370
    15
100
AcDbSpline
210
0.0
220
0.0
230
1.0
 70
     8
 71
     3
 72
     8
 73
     4
 74
     0
 42
0.000000001
 43
0.00000001
 40
0.0
 40
0.0
 40
0.0
 40
0.0
 40
1.0
 40
1.0
 40
1.0
 40
1.0
 10
10.00000000000001
 20
10.07328757467697
 30
0.0
 10
9.840921106972457
 20
10.14653735087114
 30
0.0
 10
9.681675606772572
 20
10.2184696382287
 30
0.0
 10
9.522359112343658
 20
10.28903916842424
 30
0.0
  0
LINE
  5
A4
330
1F
100
AcDbEntity
  8
0
  6
Continuous
 62
     4
370
    15
100
AcDbLine
 10
10.00000000000001
 20
10.07328757467697
 30
0.0
 11
10.00000000000001
 21
4.221997809310126
 31
0.0
  0
SPLINE
  5
A5
330
1F
100
AcDbEntity
  8
0
  6
Continuous
 62
     4
370
    15
100
AcDbSpline
210
0.0
220
0.0
230
1.0
 70
     8
 71
     3
 72
     8
 73
     4
 74
     0
 42
0.000000001
 43
0.00000001
 40
0.0
 40
0.0
 40
0.0
 40
0.0
 40
1.0
 40
1.0
 40
1.0
 40
1.0
 10
10.00000000000001
 20
-7.740645233114888
 30
0.0
 10
9.84092110697246
 20
-7.64578541189889
 30
0.0
 10
9.681675606772574
 20
-7.549855391950079
 30
0.0
 10
9.522359112343658
 20
-7.452911322909896
 30
0.0
  0
LINE
  5
A6
330
1F
100
AcDbEntity
  8
0
  6
Continuous
 62
     4
370
    15
100
AcDbLine
 10
10.00000000000001
 20
-7.740645233114888
 30
0.0
 11
10.00000000000001
 21
-11.96382807036475
 31
0.0
  0
SPLINE
  5
A7
330
1F
100
AcDbEntity
  8
0
  6
Continuous
 62
     4
370
    15
100
AcDbSpline
210
0.0
220
0.0
230
1.0
 70
     8
 71
     3
 72
    16
 73
    12
 74
     0
 42
0.000000001
 43
0.00000001
 40
0.0
 40
0.0
 40
0.0
 40
0.0
 40
0.2500000000000002
 40
0.2500000000000002
 40
0.3750000000000002
 40
0.3750000000000002
 40
0.5000000000000002
 40
0.5000000000000002
 40
0.7500000000000002
 40
0.7500000000000002
 40
1.0
 40
1.0
 40
1.0
 40
1.0
 10
8.499738871146969
 20
-12.53866608858987
 30
0.0
 10
8.499738871146969
 20
-12.50149152245774
 30
0.0
 10
8.531252939819321
 20
-12.45774210789347
 30
0.0
 10
8.629689430142204
 20
-12.38372840228863
 30
0.0
 10
8.67143751751477
 20
-12.35755065254554
 30
0.0
 10
8.770179283655898
 20
-12.30458371204538
 30
0.0
 10
8.827366331371095
 20
-12.27760305263292
 30
0.0
 10
9.022673091380689
 20
-12.19617684480841
 30
0.0
 10
9.186550166403439
 20
-12.14087093330067
 30
0.0
 10
9.558388891059142
 20
-12.04246642655239
 30
0.0
 10
9.770896047188348
 20
-11.99805972786486
 30
0.0
 10
10.00000000000001
 20
-11.96382807036475
 30
0.0
  0
LINE
  5
A8
330
1F
100
AcDbEntity
  8
0
  6
Continuous
 62
     4
370
    15
100
AcDbLine
 10
8.499738871146969
 20
-12.53866608858987
 30
0.0
 11
8.499738871146969
 21
-12.67864585050411
 31
0.0
  0
LINE
  5
A9
330
1F
100
AcDbEntity
  8
0
  6
Continuous
 62
     4
370
    15
100
AcDbLine
 10
-52.99999999999999
 20
10.81635414949589
 30
0.0
 11
-52.99999999999999
 21
-12.6786458505041
 31
0.0
  0
LINE
  5
AA
330
1F
100
AcDbEntity
  8
0
  6
Continuous
 62
     4
370
    15
100
AcDbLine
 10
8.499738871146967
 20
1.901750814797275
 30
0.0
 11
8.499738871146969
 21
-5.651007925044475
 31
0.0
  0
LINE
  5
AB
330
1F
100
AcDbEntity
  8
0
  6
Continuous
 62
     4
370
    15
100
AcDbLine
 10
-53.49999999999999
 20
10.81635414949589
 30
0.0
 11
-53.49999999999999
 21
-12.17864585050411
 31
0.0
  0
SPLINE
  5
AC
330
1F
100
AcDbEntity
  8
0
  6
Continuous
 62
     1
370
    15
100
AcDbSpline
210
0.0
220
0.0
230
1.0
 70
    24
 71
     3
 72
     9
 73
     5
 74
     0
 42
0.000000001
 43
0.00000001
 40
0.0
 40
0.0
 40
0.0
 40
0.0
 40
0.5652566017294445
 40
1.0
 40
1.0
 40
1.0
 40
1.0
 10
10.00000000000001
 20
12.00653636935649
 30
0.0
 10
10.00000000000001
 20
11.62931058080675
 30
0.0
 10
10.00000000000001
 20
10.96195740457565
 30
0.0
 10
10.00000000000001
 20
10.39403891153987
 30
0.0
 10
10.00000000000001
 20
10.1471400959368
 30
0.0
  0
SPLINE
  5
AD
330
1F
100
AcDbEntity
  8
0
  6
Continuous
 62
     1
370
    15
100
AcDbSpline
210
0.0
220
0.0
230
1.0
 70
     8
 71
     3
 72
    23
 73
    19
 74
     0
 42
0.000000001
 43
0.00000001
 40
0.0
 40
0.0
 40
0.0
 40
0.0
 40
0.066638570880943
 40
0.1332767630737876
 40
0.1999787941615866
 40
0.2666626931567363
 40
0.3332954138582798
 40
0.3987534292387714
 40
0.46428003591738
 40
0.5297486129867012
 40
0.5951879473636476
 40
0.6620066211429869
 40
0.7288625087471301
 40
0.7956520507327468
 40
0.8624321166673167
 40
0.9292672076200893
 40
0.9961101420865565
 40
1.0
 40
1.0
 40
1.0
 40
1.0
 10
10.00000000000001
 20
5.73433919600692
 30
0.0
 10
10.76263548477733
 20
5.210775094865099
 30
0.0
 10
12.28790212049079
 20
4.16364986784775
 30
0.0
 10
14.57621713064782
 20
2.48755773440923
 30
0.0
 10
16.86628030410947
 20
0.7747955631314897
 30
0.0
 10
19.15586235668835
 20
-0.9543550536235643
 30
0.0
 10
21.4304657540927
 20
-2.655349963406676
 30
0.0
 10
23.6918588298148
 20
-4.297953096364878
 30
0.0
 10
25.94135148388618
 20
-5.852380118097702
 30
0.0
 10
28.18940853997968
 20
-7.303779818310216
 30
0.0
 10
30.45191401204168
 20
-8.634009276703049
 30
0.0
 10
32.73095541408287
 20
-9.81546468360704
 30
0.0
 10
35.02620921055404
 20
-10.82289471172145
 30
0.0
 10
37.31975413500793
 20
-11.62857289453637
 30
0.0
 10
39.61302231379379
 20
-12.22556483525835
 30
0.0
 10
41.90770085873614
 20
-12.56954492899811
 30
0.0
 10
43.4827736940429
 20
-12.71302170697196
 30
0.0
 10
44.29223322055046
 20
-12.67433035965349
 30
0.0
 10
44.33674839433132
 20
-12.67220257933428
 30
0.0
  0
SPLINE
  5
AE
330
1F
100
AcDbEntity
  8
0
  6
Continuous
 62
     1
370
    15
100
AcDbSpline
210
0.0
220
0.0
230
1.0
 70
     8
 71
     3
 72
    54
 73
    50
 74
     0
 42
0.000000001
 43
0.00000001
 40
0.0
 40
0.0
 40
0.0
 40
0.0
 40
0.0624999999999992
 40
0.0624999999999992
 40
0.093749999999999
 40
0.093749999999999
 40
0.1249999999999988
 40
0.1249999999999988
 40
0.1562499999999986
 40
0.1562499999999986
 40
0.1874999999999984
 40
0.1874999999999984
 40
0.2499999999999983
 40
0.2499999999999983
 40
0.3124999999999983
 40
0.3124999999999983
 40
0.3437499999999982
 40
0.3437499999999982
 40
0.3749999999999981
 40
0.3749999999999981
 40
0.4374999999999982
 40
0.4374999999999982
 40
0.4687499999999983
 40
0.4687499999999983
 40
0.4999999999999983
 40
0.4999999999999983
 40
0.5624999999999986
 40
0.5624999999999986
 40
0.5937499999999987
 40
0.5937499999999987
 40
0.6249999999999989
 40
0.6249999999999989
 40
0.6874999999999991
 40
0.6874999999999991
 40
0.7187499999999992
 40
0.7187499999999992
 40
0.7499999999999993
 40
0.7499999999999993
 40
0.8124999999999996
 40
0.8124999999999996
 40
0.8749999999999998
 40
0.8749999999999998
 40
0.9062499999999999
 40
0.9062499999999999
 40
0.9374999999999999
 40
0.9374999999999999
 40
0.96875
 40
0.96875
 40
1.0
 40
1.0
 40
1.0
 40
1.0
 10
48.10000000000001
 20
-12.36325021961592
 30
0.0
 10
47.3096096645987
 20
-12.23096168593716
 30
0.0
 10
46.51144936982475
 20
-12.05694455038997
 30
0.0
 10
45.32038019065396
 20
-11.73693634037456
 30
0.0
 10
44.92564979568368
 20
-11.62061826079968
 30
0.0
 10
44.1327162699636
 20
-11.36850417421723
 30
0.0
 10
43.73487559042393
 20
-11.23271684856224
 30
0.0
 10
42.93941984594836
 20
-10.94263767881424
 30
0.0
 10
42.54180725855858
 20
-10.78834675584287
 30
0.0
 10
41.7497804329123
 20
-10.46249386638084
 30
0.0
 10
41.35445385521773
 20
-10.29082711024298
 30
0.0
 10
40.16254502107591
 20
-9.749653448361176
 30
0.0
 10
39.36683247786382
 20
-9.354867389605406
 30
0.0
 10
37.78382329997244
 20
-8.507140298253246
 30
0.0
 10
36.98544960850386
 20
-8.052177781207467
 30
0.0
 10
35.79542733560797
 20
-7.333158547396162
 30
0.0
 10
35.40081936503482
 20
-7.087598837022669
 30
0.0
 10
34.60711666075211
 20
-6.584146078097812
 30
0.0
 10
34.20911744793233
 20
-6.326466223364797
 30
0.0
 10
33.01614231265146
 20
-5.538426008714264
 30
0.0
 10
32.22661990183758
 20
-4.994098708537016
 30
0.0
 10
31.0340791522002
 20
-4.153442146085797
 30
0.0
 10
30.63598928888769
 20
-3.869373790687994
 30
0.0
 10
29.84163664722887
 20
-3.295670113763276
 30
0.0
 10
29.44665732676589
 20
-3.00635272671908
 30
0.0
 10
28.25793410317218
 20
-2.13066372593909
 30
0.0
 10
27.45948769599911
 20
-1.536278684629309
 30
0.0
 10
26.27071897260426
 20
-0.6420982028305509
 30
0.0
 10
25.87575959713814
 20
-0.343564678378796
 30
0.0
 10
25.08142568230737
 20
0.2547208538109191
 30
0.0
 10
24.68333758767168
 20
0.5541493831897668
 30
0.0
 10
23.49077929384781
 20
1.449929444667962
 30
0.0
 10
22.70126367435196
 20
2.042968272449144
 30
0.0
 10
21.50829911636482
 20
2.92165038798134
 30
0.0
 10
21.11029580364486
 20
3.212455020046495
 30
0.0
 10
20.31656975020802
 20
3.78771926125571
 30
0.0
 10
19.92195768398748
 20
4.071919815253967
 30
0.0
 10
18.73197400982312
 20
4.91518798575933
 30
0.0
 10
17.93359561085109
 20
5.464069960355221
 30
0.0
 10
16.35051660030394
 20
6.518959936823595
 30
0.0
 10
15.55487899503252
 20
7.02742179009565
 30
0.0
 10
14.36294566002262
 20
7.752295792028232
 30
0.0
 10
13.96759095149719
 20
7.987295405811029
 30
0.0
 10
13.17559682963863
 20
8.443941997755113
 30
0.0
 10
12.77799307375289
 20
8.665759057897835
 30
0.0
 10
11.98253973210535
 20
9.09466059750835
 30
0.0
 10
11.58469262383738
 20
9.301743726086375
 30
0.0
 10
10.7917311401994
 20
9.69967338872039
 30
0.0
 10
10.39701250130527
 20
9.890478426881817
 30
0.0
 10
10.00000000000001
 20
10.0732875746791
 30
0.0
  0
LINE
  5
AF
330
1F
100
AcDbEntity
  8
0
  6
Continuous
 62
     1
370
    15
100
AcDbLine
 10
48.10000000000001
 20
-12.67864585050411
 30
0.0
 11
48.10000000000001
 21
-12.36325021961592
 31
0.0
  0
SPLINE
  5
B0
330
1F
100
AcDbEntity
  8
0
  6
Continuous
 62
     1
370
    15
100
AcDbSpline
210
0.0
220
0.0
230
1.0
 70
     8
 71
     3
 72
    52
 73
    48
 74
     0
 42
0.000000001
 43
0.00000001
 40
0.0
 40
0.0
 40
0.0
 40
0.0
 40
0.0312500000000001
 40
0.0312500000000001
 40
0.0625000000000003
 40
0.0625000000000003
 40
0.1250000000000002
 40
0.1250000000000002
 40
0.1875000000000001
 40
0.1875000000000001
 40
0.25
 40
0.25
 40
0.2812499999999999
 40
0.2812499999999999
 40
0.3124999999999999
 40
0.3124999999999999
 40
0.3749999999999998
 40
0.3749999999999998
 40
0.4062499999999998
 40
0.4062499999999998
 40
0.4374999999999999
 40
0.4374999999999999
 40
0.4999999999999999
 40
0.4999999999999999
 40
0.5312499999999999
 40
0.5312499999999999
 40
0.5624999999999999
 40
0.5624999999999999
 40
0.625
 40
0.625
 40
0.65625
 40
0.65625
 40
0.6875
 40
0.6875
 40
0.75
 40
0.75
 40
0.8124999999999999
 40
0.8124999999999999
 40
0.8749999999999999
 40
0.8749999999999999
 40
0.9062499999999999
 40
0.9062499999999999
 40
0.9374999999999999
 40
0.9374999999999999
 40
0.96875
 40
0.96875
 40
1.0
 40
1.0
 40
1.0
 40
1.0
 10
46.49597596609069
 20
-1.601795570517026
 30
0.0
 10
46.11498485766897
 20
-1.317456560607591
 30
0.0
 10
45.73404847236529
 20
-1.031889561363001
 30
0.0
 10
44.97489589710107
 20
-0.4602661291915432
 30
0.0
 10
44.59661358137805
 20
-0.1741942818633649
 30
0.0
 10
43.45550277092474
 20
0.6853867458392554
 30
0.0
 10
42.69115715220502
 20
1.259056026404351
 30
0.0
 10
41.17615293065042
 20
2.391958723328319
 30
0.0
 10
40.41277279008648
 20
2.95435333411811
 30
0.0
 10
38.89055855913997
 20
4.05669229314499
 30
0.0
 10
38.13403025446535
 20
4.596127583152721
 30
0.0
 10
36.99114031525297
 20
5.383787050529974
 30
0.0
 10
36.60997939118948
 20
5.642482695908285
 30
0.0
 10
35.84987819387602
 20
6.150402660185655
 30
0.0
 10
35.47188244751757
 20
6.399430614621537
 30
0.0
 10
34.33195649183135
 20
7.132657569401311
 30
0.0
 10
33.56739276832117
 20
7.602151490503271
 30
0.0
 10
32.42931519368752
 20
8.267826628704269
 30
0.0
 10
32.05072325998511
 20
8.483460225110848
 30
0.0
 10
31.2897200121447
 20
8.90219903198959
 30
0.0
 10
30.90841600498171
 20
9.105085201746556
 30
0.0
 10
29.76602554329656
 20
9.692187541008202
 30
0.0
 10
29.00986482566694
 20
10.05434345497707
 30
0.0
 10
27.86734862580958
 20
10.55133568275775
 30
0.0
 10
27.48606011418861
 20
10.70913554260339
 30
0.0
 10
26.72520232009651
 20
11.0079403240258
 30
0.0
 10
26.34679996348969
 20
11.148813555654
 30
0.0
 10
25.20834670980713
 20
11.54609444385556
 30
0.0
 10
24.44376067691996
 20
11.7771038457756
 30
0.0
 10
23.30414498226546
 20
12.06805675145568
 30
0.0
 10
22.92611756597598
 20
12.1557856450895
 30
0.0
 10
22.16582706863024
 20
12.31292814245682
 30
0.0
 10
21.78462854153654
 20
12.38223964803165
 30
0.0
 10
20.64179822180977
 20
12.56162180323489
 30
0.0
 10
19.88540632983397
 20
12.64300549770238
 30
0.0
 10
18.36293643165089
 20
12.72867659854245
 30
0.0
 10
17.60020931862518
 20
12.73271158749829
 30
0.0
 10
16.08461738974219
 20
12.66343330827839
 30
0.0
 10
15.32020486201761
 20
12.58989935494197
 30
0.0
 10
14.17933863271124
 20
12.42255480990703
 30
0.0
 10
13.80118258091248
 20
12.35738419719005
 30
0.0
 10
13.04179701919535
 20
12.20817280066943
 30
0.0
 10
12.66080095530571
 20
12.12411999396814
 30
0.0
 10
11.89881437200354
 20
11.93763377960255
 30
0.0
 10
11.51782585146969
 20
11.83520086169037
 30
0.0
 10
10.75847029107681
 20
11.61272102661132
 30
0.0
 10
10.38029972408186
 20
11.49271895066401
 30
0.0
 10
10.0
 20
11.36383191488475
 30
0.0
  0
SPLINE
  5
B1
330
1F
100
AcDbEntity
  8
0
  6
Continuous
 62
     1
370
    15
100
AcDbSpline
210
0.0
220
0.0
230
1.0
 70
     8
 71
     3
 72
    14
 73
    10
 74
     0
 42
0.000000001
 43
0.00000001
 40
0.0
 40
0.0
 40
0.0
 40
0.0
 40
0.5000000000000009
 40
0.5000000000000009
 40
0.7500000000000004
 40
0.7500000000000004
 40
0.8750000000000002
 40
0.8750000000000002
 40
1.0
 40
1.0
 40
1.0
 40
1.0
 10
48.10000000000001
 20
-9.131549362343302
 30
0.0
 10
46.95570373055302
 20
-8.687638720822923
 30
0.0
 10
45.84464321489196
 20
-8.126877123560984
 30
0.0
 10
44.23396481529305
 20
-7.089156838410282
 30
0.0
 10
43.70699750279834
 20
-6.708353841360934
 30
0.0
 10
42.93093189842523
 20
-6.086572981969925
 30
0.0
 10
42.6746586216346
 20
-5.870850044284785
 30
0.0
 10
42.17305565105312
 20
-5.429161856522011
 30
0.0
 10
41.92679141568041
 20
-5.202590344620761
 30
0.0
 10
41.68481415774851
 20
-4.970607336264869
 30
0.0
  0
LINE
  5
B2
330
1F
100
AcDbEntity
  8
0
  6
Continuous
 62
     1
370
    15
100
AcDbLine
 10
48.10000000000001
 20
-12.36325021961592
 30
0.0
 11
48.10000000000001
 21
-9.1315493623433
 31
0.0
  0
SPLINE
  5
B3
330
1F
100
AcDbEntity
  8
0
  6
Continuous
 62
     1
370
    15
100
AcDbSpline
210
0.0
220
0.0
230
1.0
 70
    24
 71
     3
 72
    26
 73
    22
 74
     0
 42
0.000000001
 43
0.00000001
 40
0.0
 40
0.0
 40
0.0
 40
0.0
 40
0.2499999999999988
 40
0.2499999999999988
 40
0.3749999999999982
 40
0.3749999999999982
 40
0.4374999999999982
 40
0.4374999999999982
 40
0.4999999999999981
 40
0.4999999999999981
 40
0.6249999999999987
 40
0.6249999999999987
 40
0.6874999999999988
 40
0.6874999999999988
 40
0.7499999999999989
 40
0.7499999999999989
 40
0.8124999999999992
 40
0.8124999999999992
 40
0.8749999999999994
 40
0.8749999999999994
 40
1.0
 40
1.0
 40
1.0
 40
1.0
 10
46.49597596609067
 20
-1.601795570517026
 30
0.0
 10
46.48742312554553
 20
-1.607784333939843
 30
0.0
 10
46.40359930724536
 20
-1.666478403395119
 30
0.0
 10
46.11329914742972
 20
-1.869748763641511
 30
0.0
 10
45.98705572120154
 20
-1.958145362335917
 30
0.0
 10
45.75398810689544
 20
-2.121341062785586
 30
0.0
 10
45.66881405666604
 20
-2.180980574816072
 30
0.0
 10
45.48216672366389
 20
-2.311672444370914
 30
0.0
 10
45.38000055312304
 20
-2.38320996713364
 30
0.0
 10
45.05140870236815
 20
-2.613292458026491
 30
0.0
 10
44.80624124464064
 20
-2.784960560051
 30
0.0
 10
44.39807294296632
 20
-3.070763081741613
 30
0.0
 10
44.25428090441567
 20
-3.17144735106934
 30
0.0
 10
43.95728421548746
 20
-3.379406671480202
 30
0.0
 10
43.80522954403821
 20
-3.485876498648958
 30
0.0
 10
43.49442372748024
 20
-3.703505074322266
 30
0.0
 10
43.33567161529879
 20
-3.814664499978693
 30
0.0
 10
43.01166134115643
 20
-4.04153893639057
 30
0.0
 10
42.84571130688998
 20
-4.157738401349831
 30
0.0
 10
42.34946806094061
 20
-4.50521166294924
 30
0.0
 10
42.01760358079544
 20
-4.737585673610937
 30
0.0
 10
41.68481415774852
 20
-4.97060733626486
 30
0.0
  0
SPLINE
  5
B4
330
1F
100
AcDbEntity
  8
0
  6
Continuous
 62
     1
370
    15
100
AcDbSpline
210
0.0
220
0.0
230
1.0
 70
     8
 71
     3
 72
    18
 73
    14
 74
     0
 42
0.000000001
 43
0.00000001
 40
0.0
 40
0.0
 40
0.0
 40
0.0
 40
0.0417359456749687
 40
0.1361726724652789
 40
0.2306557633280621
 40
0.3252037473471764
 40
0.4216006726525315
 40
0.5179663998800564
 40
0.6143611498148146
 40
0.710831815273149
 40
0.8072520807354279
 40
0.90362141189735
 40
1.0
 40
1.0
 40
1.0
 40
1.0
 10
34.84051057181131
 20
-10.70810059224958
 30
0.0
 10
34.4949418639682
 20
-10.85244992153727
 30
0.0
 10
33.36744819618745
 20
-11.3234212537974
 30
0.0
 10
31.45799950758988
 20
-11.89567424924877
 30
0.0
 10
29.11088263693176
 20
-12.41275799295179
 30
0.0
 10
26.74661071874683
 20
-12.6787457016639
 30
0.0
 10
24.3678394650252
 20
-12.69817886450238
 30
0.0
 10
21.9738977641548
 20
-12.46043087526564
 30
0.0
 10
19.57923529047928
 20
-11.97095699887851
 30
0.0
 10
17.18306343684882
 20
-11.24086243072494
 30
0.0
 10
14.78784456176055
 20
-10.28044047287636
 30
0.0
 10
12.39386420224755
 20
-9.123464994244685
 30
0.0
 10
10.79798028213671
 20
-8.20159991137026
 30
0.0
 10
10.00000000000002
 20
-7.740645233117085
 30
0.0
  0
SPLINE
  5
B5
330
1F
100
AcDbEntity
  8
0
  6
Continuous
 62
     1
370
    15
100
AcDbSpline
210
0.0
220
0.0
230
1.0
 70
     8
 71
     3
 72
    17
 73
    13
 74
     0
 42
0.000000001
 43
0.00000001
 40
0.0
 40
0.0
 40
0.0
 40
0.0
 40
0.1052690071446733
 40
0.2104608146373621
 40
0.3156426207472239
 40
0.4208817068670746
 40
0.5261738191663647
 40
0.6295009218298916
 40
0.73279883596103
 40
0.8361474645984824
 40
0.9395670754471807
 40
0.9999999999999999
 40
0.9999999999999999
 40
0.9999999999999999
 40
0.9999999999999999
 10
48.10000000000001
 20
2.834106292962677
 30
0.0
 10
47.30295968199172
 20
3.41405227703641
 30
0.0
 10
45.70946356022902
 20
4.573518938349938
 30
0.0
 10
43.3204220049175
 20
6.206998466348181
 30
0.0
 10
40.93161566766025
 20
7.720225039570132
 30
0.0
 10
38.54161495628556
 20
9.077729941039323
 30
0.0
 10
36.16490483138266
 20
10.24646245533308
 30
0.0
 10
33.80402535530948
 20
11.20684025267008
 30
0.0
 10
31.45797380503149
 20
11.9477948653372
 30
0.0
 10
29.11090458871248
 20
12.44629362151554
 30
0.0
 10
27.08740037300402
 20
12.70534504489459
 30
0.0
 10
25.84715520643373
 20
12.69413530667957
 30
0.0
 10
25.38972168308499
 20
12.69000087408049
 30
0.0
  0
LINE
  5
B6
330
1F
100
AcDbEntity
  8
0
  6
Continuous
 62
     1
370
    15
100
AcDbLine
 10
48.10000000000001
 20
-0.4786458505041524
 30
0.0
 11
48.10000000000001
 21
2.834106292962679
 31
0.0
  0
LINE
  5
B7
330
1F
100
AcDbEntity
  8
0
  6
Continuous
 62
     1
370
    15
100
AcDbLine
 10
48.10000000000001
 20
-0.4786458505041523
 30
0.0
 11
46.49597596609066
 21
-1.601795570517029
 31
0.0
  0
SPLINE
  5
B8
330
1F
100
AcDbEntity
  8
0
  6
Continuous
 62
     1
370
    15
100
AcDbSpline
210
0.0
220
0.0
230
1.0
 70
     8
 71
     3
 72
    13
 73
     9
 74
     0
 42
0.000000001
 43
0.00000001
 40
0.0
 40
0.0
 40
0.0
 40
0.0
 40
0.0159756274734404
 40
0.2127320119304742
 40
0.4094604807365318
 40
0.6063510486274826
 40
0.8032647228514013
 40
1.0
 40
1.0
 40
1.0
 40
1.0
 10
34.84051057181131
 20
10.75080889124136
 30
0.0
 10
34.90259363020772
 20
10.77815310692349
 30
0.0
 10
35.72929379841234
 20
11.14226963545367
 30
0.0
 10
37.3197206926069
 20
11.65929111372264
 30
0.0
 10
39.61301957987537
 20
12.26811474573462
 30
0.0
 10
41.90774531204753
 20
12.62490047632299
 30
0.0
 10
44.20268170161314
 20
12.77090899933645
 30
0.0
 10
45.73177553371219
 20
12.66842223514839
 30
0.0
 10
46.49597596609068
 20
12.61720207595249
 30
0.0
  0
SPLINE
  5
B9
330
1F
100
AcDbEntity
  8
0
  6
Continuous
 62
     1
370
    15
100
AcDbSpline
210
0.0
220
0.0
230
1.0
 70
     8
 71
     3
 72
    17
 73
    13
 74
     0
 42
0.000000001
 43
0.00000001
 40
0.0
 40
0.0
 40
0.0
 40
0.0
 40
0.1727028808298538
 40
0.2617463113701446
 40
0.3507525084335336
 40
0.4586934821462048
 40
0.5693276811306541
 40
0.6774240301076817
 40
0.7894311756355386
 40
0.886564019793658
 40
0.9863792850516714
 40
1.0
 40
1.0
 40
1.0
 40
1.0
 10
46.49597596609068
 20
12.6172020759525
 30
0.0
 10
46.47613342442298
 20
12.13933494152767
 30
0.0
 10
46.44606031814489
 20
11.41508553028623
 30
0.0
 10
46.27458089084811
 20
10.46596947243946
 30
0.0
 10
46.07596885806847
 20
9.71238822781619
 30
0.0
 10
45.77868975398023
 20
8.939965486219922
 30
0.0
 10
45.35960143467611
 20
8.190397922946293
 30
0.0
 10
44.83120295939323
 20
7.536064990793826
 30
0.0
 10
44.23539426012905
 20
7.033809081193967
 30
0.0
 10
43.59291151028691
 20
6.692820311691076
 30
0.0
 10
43.13199178609012
 20
6.521815356279869
 30
0.0
 10
42.87636723921557
 20
6.490306457029035
 30
0.0
 10
42.84567337047621
 20
6.486523056610133
 30
0.0
  0
SPLINE
  5
BA
330
1F
100
AcDbEntity
  8
0
  6
Continuous
 62
     1
370
    15
100
AcDbSpline
210
0.0
220
0.0
230
1.0
 70
     8
 71
     3
 72
     9
 73
     5
 74
     0
 42
0.000000001
 43
0.00000001
 40
0.0
 40
0.0
 40
0.0
 40
0.0
 40
0.5734797508073308
 40
1.0
 40
1.0
 40
1.0
 40
1.0
 10
48.10000000000001
 20
3.170753467782808
 30
0.0
 10
47.65936608363393
 20
3.433933853764893
 30
0.0
 10
46.89101477611912
 20
3.892852212454255
 30
0.0
 10
46.14206383739349
 20
4.300607927550021
 30
0.0
 10
45.82262109637516
 20
4.474523996762403
 30
0.0
  0
LINE
  5
BB
330
1F
100
AcDbEntity
  8
0
  6
Continuous
 62
     1
370
    15
100
AcDbLine
 10
48.10000000000001
 20
2.843282685948842
 30
0.0
 11
48.10000000000001
 21
3.17075346778281
 31
0.0
  0
SPLINE
  5
BC
330
1F
100
AcDbEntity
  8
0
  6
Continuous
 62
     1
370
    15
100
AcDbSpline
210
0.0
220
0.0
230
1.0
 70
     8
 71
     3
 72
    11
 73
     7
 74
     0
 42
0.000000001
 43
0.00000001
 40
0.0
 40
0.0
 40
0.0
 40
0.0
 40
0.2909934586164372
 40
0.5819852635995796
 40
0.8732558365783664
 40
1.0
 40
1.0
 40
1.0
 40
1.0
 10
10.00000000000001
 20
-11.32112361589301
 30
0.0
 10
10.76263721302882
 20
-11.560281993429
 30
0.0
 10
12.28790730523545
 20
-12.03859738943174
 30
0.0
 10
14.57619638352849
 20
-12.46543460265913
 30
0.0
 10
16.4351839398629
 20
-12.67879490429015
 30
0.0
 10
17.53089816047077
 20
-12.65658831198294
 30
0.0
 10
17.8631242045476
 20
-12.64985516188239
 30
0.0
  0
LINE
  5
BD
330
1F
100
AcDbEntity
  8
0
  6
Continuous
 62
     4
370
    15
100
AcDbLine
 10
10.00000000000002
 20
-11.32112361589305
 30
0.0
 11
10.00000000000002
 21
-7.740645233117077
 31
0.0
  0
LINE
  5
BE
330
1F
100
AcDbEntity
  8
0
  6
Continuous
 62
     1
370
    15
100
AcDbLine
 10
48.10000000000001
 20
-0.4786458505041081
 30
0.0
 11
48.10000000000001
 21
-9.1315493623433
 31
0.0
  0
ELLIPSE
  5
BF
330
1F
100
AcDbEntity
  8
0
  6
Continuous
 62
     1
370
    15
100
AcDbEllipse
 10
48.81407400337107
 20
0.0213541494958895
 30
0.0
 11
18.1374796856248
 21
5.551115123125783E-17
 31
0.0
210
0.0
220
0.0
230
1.0
 40
0.7002075382097119
 41
1.610176583259647
 42
1.698953921315115
  0
LINE
  5
C0
330
1F
100
AcDbEntity
  8
0
  6
Continuous
 62
     1
370
    15
100
AcDbLine
 10
48.10000000000001
 20
3.17075346778281
 30
0.0
 11
48.10000000000001
 21
12.71150781286814
 31
0.0
  0
LINE
  5
C1
330
1F
100
AcDbEntity
  8
0
  6
Continuous
 62
     1
370
    15
100
AcDbLine
 10
48.10000000000001
 20
12.71150781286814
 30
0.0
 11
48.10000000000001
 21
12.72135414949589
 31
0.0
  0
LINE
  5
C2
330
1F
100
AcDbEntity
  8
중심선
100
AcDbLine
 10
-56.49999999999999
 20
-0.0000000000000035
 30
0.0
 11
51.10000000000001
 21
0.0
 31
0.0
  0
CIRCLE
  5
C3
330
1F
100
AcDbEntity
  8
외형선
100
AcDbCircle
 10
-0.0122680642820825
 20
0.0609350692827704
 30
0.0
 40
3.000000000000001
  0
INSERT
  5
C4
330
1F
100
AcDbEntity
  8
0
  6
Continuous
 62
     7
100
AcDbBlockReference
 66
     1
  2
블럭10
 10
-19.44076129968193
 20
-52.04717430164393
 30
0.0
  0
ATTRIB
  5
C5
330
C4
100
AcDbEntity
  8
FORMAT
 62
     2
100
AcDbText
 10
-32.07144257415528
 20
-49.97180738881174
 30
0.0
 40
4.233333333333333
  1
EH108064 [ 4 FLUTE ]
 41
0.75
  7
SLDTEXTSTYLE0
 11
-32.07144257415528
 21
-52.08847405547841
 31
0.0
100
AcDbAttribute
  2
AUTOATTR0
 70
     0
 74
     1
  0
SEQEND
  5
C6
330
C4
100
AcDbEntity
  8
0
  6
Continuous
 62
     7
  0
HATCH
  5
C7
330
1F
100
AcDbEntity
  8
중심선
100
AcDbHatch
 10
0.0
 20
0.0
 30
0.0
210
0.0
220
0.0
230
1.0
  2
SOLID
 70
     1
 71
     0
 91
        1
 92
        0
 93
        4
 72
     1
 10
-13.72585199530107
 20
-35.8
 11
-17.17212723913836
 21
-35.8
 72
     1
 10
-17.17212723913836
 20
-35.8
 11
-19.30035709834238
 21
-38.33632558057259
 72
     1
 10
-19.30035709834238
 20
-38.33632558057259
 11
-15.85404876939195
 21
-38.3362861512701
 72
     1
 10
-15.85404876939195
 20
-38.3362861512701
 11
-13.72585199530107
 21
-35.8
 97
        0
 75
     0
 76
     1
 98
        1
 10
0.0
 20
0.0
  0
HATCH
  5
C8
330
1F
100
AcDbEntity
  8
중심선
100
AcDbHatch
 10
0.0
 20
0.0
 30
0.0
210
0.0
220
0.0
230
1.0
  2
SOLID
 70
     1
 71
     0
 91
        1
 92
        0
 93
        4
 72
     1
 10
-8.713088004265124
 20
-35.8
 11
-12.15936324810241
 21
-35.8
 72
     1
 10
-12.15936324810241
 20
-35.8
 11
-16.69050125645979
 21
-41.20000000000002
 72
     1
 10
-16.69050125645979
 20
-41.20000000000002
 11
-13.24422601262251
 21
-41.20000000000002
 72
     1
 10
-13.24422601262251
 20
-41.20000000000002
 11
-8.713088004265124
 21
-35.8
 97
        0
 75
     0
 76
     1
 98
        1
 10
0.0
 20
0.0
  0
HATCH
  5
C9
330
1F
100
AcDbEntity
  8
중심선
100
AcDbHatch
 10
0.0
 20
0.0
 30
0.0
210
0.0
220
0.0
230
1.0
  2
SOLID
 70
     1
 71
     0
 91
        1
 92
        0
 93
        4
 72
     1
 10
-3.700324013229228
 20
-35.80000000000003
 11
-7.146599257066343
 21
-35.8
 72
     1
 10
-7.146599257066343
 20
-35.8
 11
-14.19503615895559
 21
-44.20000000000002
 72
     1
 10
-14.19503615895559
 20
-44.20000000000002
 11
-10.74876091511831
 21
-44.20000000000002
 72
     1
 10
-10.74876091511831
 20
-44.20000000000002
 11
-3.700324013229228
 21
-35.80000000000003
 97
        0
 75
     0
 76
     1
 98
        1
 10
0.0
 20
0.0
  0
HATCH
  5
CA
330
1F
100
AcDbEntity
  8
중심선
100
AcDbHatch
 10
0.0
 20
0.0
 30
0.0
210
0.0
220
0.0
230
1.0
  2
SOLID
 70
     1
 71
     0
 91
        1
 92
        0
 93
        6
 72
     3
 10
1.099566417782971
 20
-40.00000000005127
 11
3.960054785062284
 21
1.540850780301639E-10
 40
0.3939339440162633
 50
17.09539180608433
 51
320.0019657685079
 73
     0
 72
     1
 10
2.782566073483567
 20
-38.5878940046383
 11
5.087867947184605
 21
-36.65356729459038
 72
     3
 10
1.099566417730125
 20
-40.00000000000015
 11
6.600054785286829
 21
-1.249000902703301E-13
 40
0.6363583540795982
 50
39.99873849337408
 51
368.4976242363724
 73
     1
 72
     1
 10
7.524898909630734
 20
-39.03999999993002
 11
-0.2203662754339533
 21
-39.03999999992999
 72
     1
 10
-0.220366275433953
 20
-39.03999999992999
 11
-0.2203913198798868
 21
-40.95999999992991
 72
     1
 10
-0.2203913198798868
 20
-40.95999999992991
 11
4.22098844959215
 21
-40.95999999992988
 97
        0
 75
     0
 76
     1
 98
        1
 10
0.0
 20
0.0
  0
POINT
  5
CB
330
1F
100
AcDbEntity
  8
치수문자_일반주서
100
AcDbPoint
 10
-0.0122680642820825
 20
0.0609350692827704
 30
0.0
  0
DIMENSION
  5
CC
330
1F
100
AcDbEntity
  8
0
100
AcDbDimension
  2
_D
 10
-53.49999999999999
 20
34.17233138772664
 30
0.0
 11
-2.561529519760431
 21
34.17233138772664
 31
0.0
 70
   160
  1
<>
 71
     2
 42
101.6
  3
ISO-25
100
AcDbAlignedDimension
 13
48.10000000000001
 23
12.71150781286814
 33
0.0
 14
-53.49999999999999
 24
12.22135414949588
 34
0.0
100
AcDbRotatedDimension
1001
ACAD
1000
DSTYLE
1002
{
1070
   179
1070
     2
1070
   170
1070
     1
1070
   143
1040
0.0393700787401575
1070
   273
1070
     7
1070
    41
1040
3.302
1070
   289
1070
     0
1070
    44
1040
1.0
1070
    42
1040
1.0
1070
   147
1040
1.524
1070
   140
1040
3.5
1070
   284
1070
     0
1070
    78
1070
     0
1002
}
  0
DIMENSION
  5
D7
330
1F
100
AcDbEntity
  8
0
100
AcDbDimension
  2
_D_1
 10
10.00000000000001
 20
24.79178641553816
 30
0.0
 11
29.05000000000001
 21
24.79178641553816
 31
0.0
 70
   160
  1
<>
 71
     2
 42
38.09999999999999
  3
ISO-25
100
AcDbAlignedDimension
 13
48.10000000000001
 23
12.71150781286814
 33
0.0
 14
10.00000000000001
 24
-11.96382807036475
 34
0.0
100
AcDbRotatedDimension
1001
ACAD
1000
DSTYLE
1002
{
1070
   179
1070
     2
1070
   170
1070
     1
1070
   143
1040
0.0393700787401575
1070
   273
1070
     7
1070
    41
1040
3.302
1070
   289
1070
     0
1070
    44
1040
1.0
1070
    42
1040
1.0
1070
   147
1040
1.524
1070
   140
1040
3.5
1070
   284
1070
     0
1070
    78
1070
     0
1002
}
  0
DIMENSION
  5
EF
330
1F
100
AcDbEntity
  8
0
100
AcDbDimension
  2
_D_3
 10
65.2206857720288
 20
12.72135414949595
 30
0.0
 11
65.22068577202884
 21
0.0213541494958871
 31
0.0
 70
   160
  1
%%c<>
 71
     2
 42
25.40000000000001
  3
ISO-25
100
AcDbAlignedDimension
 13
48.10000000000001
 23
-12.67864585050411
 33
0.0
 14
48.10000000000001
 24
12.72135414949589
 34
0.0
 50
90.0000000000002
100
AcDbRotatedDimension
1001
ACAD
1000
DSTYLE
1002
{
1070
   179
1070
     2
1070
   170
1070
     1
1070
   143
1040
0.0393700787401575
1070
   273
1070
     7
1070
    41
1040
3.302
1070
   289
1070
     0
1070
    44
1040
1.0
1070
    42
1040
1.0
1070
   147
1040
1.524
1070
   140
1040
3.5
1070
   284
1070
     0
1070
    78
1070
     0
1002
}
  0
INSERT
  5
102
330
1F
100
AcDbEntity
  8
외형선
100
AcDbBlockReference
  2
SW_DOWELSYMBOL_0
 10
-0.0122680642820825
 20
0.0609350692827704
 30
0.0
  0
DIMENSION
  5
128
330
1F
100
AcDbEntity
  8
0
100
AcDbDimension
  2
*D7
 10
-67.58709874741214
 20
-12.6786458505041
 30
0.0
 11
-67.58709874741214
 21
0.0213541494958918
 31
0.0
 70
   160
  1
{%%c<>}
 71
     5
 42
25.39999999999998
  3
ISO-25
100
AcDbAlignedDimension
 13
-52.99999999999999
 23
12.72135414949589
 33
0.0
 14
-52.99999999999999
 24
-12.6786458505041
 34
0.0
 50
90.0
100
AcDbRotatedDimension
1001
ACAD
1000
DSTYLE
1002
{
1070
   273
1070
     7
1070
   289
1070
     0
1070
   170
1070
     1
1070
   283
1070
     0
1070
   179
1070
     2
1070
   143
1040
0.0393700787401575
1070
    41
1040
3.302
1070
    44
1040
1.0
1070
    42
1040
1.0
1070
   147
1040
1.524
1070
    73
1070
     0
1070
    74
1070
     0
1070
   140
1040
3.5
1070
   284
1070
     0
1070
    78
1070
     0
1002
}
  0
LINE
  5
1C4
330
1F
100
AcDbEntity
  8
0
  6
Continuous
 62
     4
370
    15
100
AcDbLine
 10
-38.89500000000001
 20
12.72135414949589
 30
0.0
 11
-32.98632499999988
 21
12.72135414949589
 31
0.0
  0
LINE
  5
1C5
330
1F
100
AcDbEntity
  8
0
  6
Continuous
 62
     4
370
    15
100
AcDbLine
 10
-31.08132499999991
 20
10.81635414949589
 30
0.0
 11
-17.97492500000001
 21
10.81635414949589
 31
0.0
  0
LINE
  5
1C6
330
1F
100
AcDbEntity
  8
0
  6
Continuous
 62
     4
370
    15
100
AcDbLine
 10
-31.08132499999991
 20
10.81635414949589
 30
0.0
 11
-32.98632499999988
 21
12.72135414949589
 31
0.0
  0
LINE
  5
1C7
330
1F
100
AcDbEntity
  8
0
  6
Continuous
 62
     4
370
    15
100
AcDbLine
 10
-17.97492500000001
 20
10.81635414949589
 30
0.0
 11
-16.06992499999998
 21
12.72135414949589
 31
0.0
  0
LINE
  5
1C8
330
1F
100
AcDbEntity
  8
0
  6
Continuous
 62
     4
370
    15
100
AcDbLine
 10
-53.5
 20
10.81635414949589
 30
0.0
 11
-40.79999999999998
 21
10.81635414949589
 31
0.0
  0
LINE
  5
1C9
330
1F
100
AcDbEntity
  8
0
  6
Continuous
 62
     4
370
    15
100
AcDbLine
 10
-40.79999999999998
 20
10.81635414949589
 30
0.0
 11
-38.89500000000001
 21
12.72135414949588
 31
0.0
  0
ENDSEC
  0
SECTION
  2
OBJECTS
  0
DICTIONARY
  5
C
330
0
100
AcDbDictionary
281
     1
  3
ACAD_GROUP
350
D
  3
ACAD_IMAGE_VARS
350
126
  3
ACAD_LAYOUT
350
1A
  3
ACAD_MLINESTYLE
350
17
  3
ACAD_PLOTSETTINGS
350
19
  3
ACAD_PLOTSTYLENAME
350
E
  3
ACAD_SCALELIST
350
47
  3
APPDATA
350
124
  3
DWGPROPS
350
1CC
  0
DICTIONARY
  5
1B4
330
2
100
AcDbDictionary
280
     1
281
     1
  3
ACAD_LAYERSTATES
360
1B5
  0
DICTIONARY
  5
D
102
{ACAD_REACTORS
330
C
102
}
330
C
100
AcDbDictionary
281
     1
  0
RASTERVARIABLES
  5
126
102
{ACAD_REACTORS
330
C
102
}
330
C
100
AcDbRasterVariables
 90
        0
 70
     1
 71
     1
 72
     1
  0
DICTIONARY
  5
1A
102
{ACAD_REACTORS
330
C
102
}
330
C
100
AcDbDictionary
281
     1
  3
Layout1
350
1E
  3
Layout2
350
26
  3
Model
350
22
  0
DICTIONARY
  5
17
102
{ACAD_REACTORS
330
C
102
}
330
C
100
AcDbDictionary
281
     1
  3
Standard
350
18
  0
DICTIONARY
  5
19
102
{ACAD_REACTORS
330
C
102
}
330
C
100
AcDbDictionary
281
     1
  0
ACDBDICTIONARYWDFLT
  5
E
102
{ACAD_REACTORS
330
C
102
}
330
C
100
AcDbDictionary
281
     1
  3
Normal
350
F
100
AcDbDictionaryWithDefault
340
F
  0
DICTIONARY
  5
47
102
{ACAD_REACTORS
330
C
102
}
330
C
100
AcDbDictionary
281
     1
  3
A0
350
48
  3
A1
350
49
  3
A2
350
4A
  3
A3
350
4B
  3
A4
350
4C
  3
A5
350
4D
  3
A6
350
4E
  3
A7
350
4F
  3
A8
350
50
  3
A9
350
51
  3
B0
350
52
  3
B1
350
53
  3
B2
350
54
  3
B3
350
55
  3
B4
350
56
  3
B5
350
57
  3
B6
350
58
  3
B7
350
59
  3
B8
350
5A
  3
B9
350
5B
  3
C0
350
5C
  3
C1
350
5D
  3
C2
350
5E
  3
C3
350
5F
  3
C4
350
60
  3
C5
350
61
  3
C6
350
62
  3
C7
350
63
  3
C8
350
64
  3
C9
350
65
  3
D0
350
66
  3
D1
350
67
  3
D2
350
68
  0
DICTIONARY
  5
124
102
{ACAD_REACTORS
330
C
102
}
330
C
100
AcDbDictionary
281
     1
  0
XRECORD
  5
1CC
102
{ACAD_REACTORS
330
C
102
}
330
C
100
AcDbXrecord
280
     1
  1
DWGPROPS COOKIE
  2

  3

  4

  6

  7

  8
12016016
  9

300
=
301
=
302
=
303
=
304
=
305
=
306
=
307
=
308
=
309
=
 40
0.0
 41
2458235.454887593
 42
2458283.128614676
  1

 90
        0
  0
DICTIONARY
  5
1B5
102
{ACAD_REACTORS
330
1B4
102
}
330
1B4
100
AcDbDictionary
281
     1
  0
LAYOUT
  5
1E
102
{ACAD_REACTORS
330
1A
102
}
330
1A
100
AcDbPlotSettings
  1

  2
none_device
  4

  6

 40
0.0
 41
0.0
 42
0.0
 43
0.0
 44
0.0
 45
0.0
 46
0.0
 47
0.0
 48
0.0
 49
0.0
140
0.0
141
0.0
142
1.0
143
1.0
 70
   688
 72
     1
 73
     0
 74
     5
  7

 75
    16
147
1.0
148
0.0
149
0.0
100
AcDbLayout
  1
Layout1
 70
     1
 71
     1
 10
0.0
 20
0.0
 11
420.0
 21
297.0
 12
0.0
 22
0.0
 32
0.0
 14
1.000000000000000E+20
 24
1.000000000000000E+20
 34
1.000000000000000E+20
 15
-1.000000000000000E+20
 25
-1.000000000000000E+20
 35
-1.000000000000000E+20
146
0.0
 13
0.0
 23
0.0
 33
0.0
 16
1.0
 26
0.0
 36
0.0
 17
0.0
 27
1.0
 37
0.0
 76
     0
330
1B
  0
LAYOUT
  5
26
102
{ACAD_REACTORS
330
1A
102
}
330
1A
100
AcDbPlotSettings
  1

  2
none_device
  4

  6

 40
0.0
 41
0.0
 42
0.0
 43
0.0
 44
0.0
 45
0.0
 46
0.0
 47
0.0
 48
0.0
 49
0.0
140
0.0
141
0.0
142
1.0
143
1.0
 70
   688
 72
     1
 73
     0
 74
     5
  7

 75
    16
147
1.0
148
0.0
149
0.0
100
AcDbLayout
  1
Layout2
 70
     1
 71
     2
 10
0.0
 20
0.0
 11
0.0
 21
0.0
 12
0.0
 22
0.0
 32
0.0
 14
0.0
 24
0.0
 34
0.0
 15
0.0
 25
0.0
 35
0.0
146
0.0
 13
0.0
 23
0.0
 33
0.0
 16
1.0
 26
0.0
 36
0.0
 17
0.0
 27
1.0
 37
0.0
 76
     0
330
23
  0
LAYOUT
  5
22
102
{ACAD_REACTORS
330
1A
102
}
330
1A
100
AcDbPlotSettings
  1

  2
none_device
  4
ANSI_A_(11.00_x_8.50_Inches)
  6

 40
6.35
 41
19.05
 42
6.35000508
 43
19.05000254
 44
279.4
 45
215.9
 46
133.5834574595272
 47
101.4429974256231
 48
0.0
 49
0.0
140
0.0
141
0.0
142
0.0820862635000374
143
1.0
 70
  1696
 72
     0
 73
     0
 74
     0
  7

 75
     0
147
0.0235690232323232
148
0.0
149
0.0
100
AcDbLayout
  1
Model
 70
     1
 71
     0
 10
0.0
 20
0.0
 11
420.0
 21
297.0
 12
0.0
 22
0.0
 32
0.0
 14
1.000000000000000E+20
 24
1.000000000000000E+20
 34
1.000000000000000E+20
 15
-1.000000000000000E+20
 25
-1.000000000000000E+20
 35
-1.000000000000000E+20
146
0.0
 13
0.0
 23
0.0
 33
0.0
 16
1.0
 26
0.0
 36
0.0
 17
0.0
 27
1.0
 37
0.0
 76
     0
330
1F
331
29
  0
MLINESTYLE
  5
18
102
{ACAD_REACTORS
330
17
102
}
330
17
100
AcDbMlineStyle
  2
Standard
 70
     0
  3

 62
   256
 51
90.0
 52
90.0
 71
     2
 49
0.5
 62
   256
  6
BYLAYER
 49
-0.5
 62
   256
  6
BYLAYER
  0
ACDBPLACEHOLDER
  5
F
102
{ACAD_REACTORS
330
E
102
}
330
E
  0
SCALE
  5
48
102
{ACAD_REACTORS
330
47
102
}
330
47
100
AcDbScale
 70
     0
300
1:1
140
1.0
141
1.0
290
     1
  0
SCALE
  5
49
102
{ACAD_REACTORS
330
47
102
}
330
47
100
AcDbScale
 70
     0
300
1:2
140
1.0
141
2.0
290
     0
  0
SCALE
  5
4A
102
{ACAD_REACTORS
330
47
102
}
330
47
100
AcDbScale
 70
     0
300
1:4
140
1.0
141
4.0
290
     0
  0
SCALE
  5
4B
102
{ACAD_REACTORS
330
47
102
}
330
47
100
AcDbScale
 70
     0
300
1:5
140
1.0
141
5.0
290
     0
  0
SCALE
  5
4C
102
{ACAD_REACTORS
330
47
102
}
330
47
100
AcDbScale
 70
     0
300
1:8
140
1.0
141
8.0
290
     0
  0
SCALE
  5
4D
102
{ACAD_REACTORS
330
47
102
}
330
47
100
AcDbScale
 70
     0
300
1:10
140
1.0
141
10.0
290
     0
  0
SCALE
  5
4E
102
{ACAD_REACTORS
330
47
102
}
330
47
100
AcDbScale
 70
     0
300
1:16
140
1.0
141
16.0
290
     0
  0
SCALE
  5
4F
102
{ACAD_REACTORS
330
47
102
}
330
47
100
AcDbScale
 70
     0
300
1:20
140
1.0
141
20.0
290
     0
  0
SCALE
  5
50
102
{ACAD_REACTORS
330
47
102
}
330
47
100
AcDbScale
 70
     0
300
1:30
140
1.0
141
30.0
290
     0
  0
SCALE
  5
51
102
{ACAD_REACTORS
330
47
102
}
330
47
100
AcDbScale
 70
     0
300
1:40
140
1.0
141
40.0
290
     0
  0
SCALE
  5
52
102
{ACAD_REACTORS
330
47
102
}
330
47
100
AcDbScale
 70
     0
300
1:50
140
1.0
141
50.0
290
     0
  0
SCALE
  5
53
102
{ACAD_REACTORS
330
47
102
}
330
47
100
AcDbScale
 70
     0
300
1:100
140
1.0
141
100.0
290
     0
  0
SCALE
  5
54
102
{ACAD_REACTORS
330
47
102
}
330
47
100
AcDbScale
 70
     0
300
2:1
140
2.0
141
1.0
290
     0
  0
SCALE
  5
55
102
{ACAD_REACTORS
330
47
102
}
330
47
100
AcDbScale
 70
     0
300
4:1
140
4.0
141
1.0
290
     0
  0
SCALE
  5
56
102
{ACAD_REACTORS
330
47
102
}
330
47
100
AcDbScale
 70
     0
300
8:1
140
8.0
141
1.0
290
     0
  0
SCALE
  5
57
102
{ACAD_REACTORS
330
47
102
}
330
47
100
AcDbScale
 70
     0
300
10:1
140
10.0
141
1.0
290
     0
  0
SCALE
  5
58
102
{ACAD_REACTORS
330
47
102
}
330
47
100
AcDbScale
 70
     0
300
100:1
140
100.0
141
1.0
290
     0
  0
SCALE
  5
59
102
{ACAD_REACTORS
330
47
102
}
330
47
100
AcDbScale
 70
     0
300
1/128" = 1'-0"
140
0.0078125
141
12.0
290
     0
  0
SCALE
  5
5A
102
{ACAD_REACTORS
330
47
102
}
330
47
100
AcDbScale
 70
     0
300
1/64" = 1'-0"
140
0.015625
141
12.0
290
     0
  0
SCALE
  5
5B
102
{ACAD_REACTORS
330
47
102
}
330
47
100
AcDbScale
 70
     0
300
1/32" = 1'-0"
140
0.03125
141
12.0
290
     0
  0
SCALE
  5
5C
102
{ACAD_REACTORS
330
47
102
}
330
47
100
AcDbScale
 70
     0
300
1/16" = 1'-0"
140
0.0625
141
12.0
290
     0
  0
SCALE
  5
5D
102
{ACAD_REACTORS
330
47
102
}
330
47
100
AcDbScale
 70
     0
300
3/32" = 1'-0"
140
0.09375
141
12.0
290
     0
  0
SCALE
  5
5E
102
{ACAD_REACTORS
330
47
102
}
330
47
100
AcDbScale
 70
     0
300
1/8" = 1'-0"
140
0.125
141
12.0
290
     0
  0
SCALE
  5
5F
102
{ACAD_REACTORS
330
47
102
}
330
47
100
AcDbScale
 70
     0
300
3/16" = 1'-0"
140
0.1875
141
12.0
290
     0
  0
SCALE
  5
60
102
{ACAD_REACTORS
330
47
102
}
330
47
100
AcDbScale
 70
     0
300
1/4" = 1'-0"
140
0.25
141
12.0
290
     0
  0
SCALE
  5
61
102
{ACAD_REACTORS
330
47
102
}
330
47
100
AcDbScale
 70
     0
300
3/8" = 1'-0"
140
0.375
141
12.0
290
     0
  0
SCALE
  5
62
102
{ACAD_REACTORS
330
47
102
}
330
47
100
AcDbScale
 70
     0
300
1/2" = 1'-0"
140
0.5
141
12.0
290
     0
  0
SCALE
  5
63
102
{ACAD_REACTORS
330
47
102
}
330
47
100
AcDbScale
 70
     0
300
3/4" = 1'-0"
140
0.75
141
12.0
290
     0
  0
SCALE
  5
64
102
{ACAD_REACTORS
330
47
102
}
330
47
100
AcDbScale
 70
     0
300
1" = 1'-0"
140
1.0
141
12.0
290
     0
  0
SCALE
  5
65
102
{ACAD_REACTORS
330
47
102
}
330
47
100
AcDbScale
 70
     0
300
1-1/2" = 1'-0"
140
1.5
141
12.0
290
     0
  0
SCALE
  5
66
102
{ACAD_REACTORS
330
47
102
}
330
47
100
AcDbScale
 70
     0
300
3" = 1'-0"
140
3.0
141
12.0
290
     0
  0
SCALE
  5
67
102
{ACAD_REACTORS
330
47
102
}
330
47
100
AcDbScale
 70
     0
300
6" = 1'-0"
140
6.0
141
12.0
290
     0
  0
SCALE
  5
68
102
{ACAD_REACTORS
330
47
102
}
330
47
100
AcDbScale
 70
     0
300
1'-0" = 1'-0"
140
12.0
141
12.0
290
     0
  0
ENDSEC
  0
EOF
