  0
SECTION
  2
HEADER
  9
$ACADVER
  1
AC1015
  9
$ACADMAINTVER
 70
     6
  9
$DWGCODEPAGE
  3
ANSI_949
  9
$INSBASE
 10
0.0
 20
0.0
 30
0.0
  9
$EXTMIN
 10
1.000000000000000E+20
 20
1.000000000000000E+20
 30
1.000000000000000E+20
  9
$EXTMAX
 10
-1.000000000000000E+20
 20
-1.000000000000000E+20
 30
-1.000000000000000E+20
  9
$LIMMIN
 10
0.0
 20
0.0
  9
$LIMMAX
 10
420.0
 20
297.0
  9
$ORTHOMODE
 70
     0
  9
$REGENMODE
 70
     1
  9
$FILLMODE
 70
     1
  9
$QTEXTMODE
 70
     0
  9
$MIRRTEXT
 70
     1
  9
$LTSCALE
 40
1.0
  9
$ATTMODE
 70
     1
  9
$TEXTSIZE
 40
3.5
  9
$TRACEWID
 40
1.0
  9
$TEXTSTYLE
  7
Standard
  9
$CLAYER
  8
0
  9
$CELTYPE
  6
ByLayer
  9
$CECOLOR
 62
   256
  9
$CELTSCALE
 40
1.0
  9
$DISPSILH
 70
     0
  9
$DIMSCALE
 40
1.0
  9
$DIMASZ
 40
3.302
  9
$DIMEXO
 40
1.0
  9
$DIMDLI
 40
3.75
  9
$DIMRND
 40
0.0
  9
$DIMDLE
 40
0.0
  9
$DIMEXE
 40
1.0
  9
$DIMTP
 40
0.0
  9
$DIMTM
 40
0.0
  9
$DIMTXT
 40
3.5
  9
$DIMCEN
 40
2.5
  9
$DIMTSZ
 40
0.0
  9
$DIMTOL
 70
     0
  9
$DIMLIM
 70
     0
  9
$DIMTIH
 70
     1
  9
$DIMTOH
 70
     1
  9
$DIMSE1
 70
     0
  9
$DIMSE2
 70
     0
  9
$DIMTAD
 70
     1
  9
$DIMZIN
 70
     0
  9
$DIMBLK
  1

  9
$DIMASO
 70
     1
  9
$DIMSHO
 70
     1
  9
$DIMPOST
  1

  9
$DIMAPOST
  1

  9
$DIMALT
 70
     0
  9
$DIMALTD
 70
     3
  9
$DIMALTF
 40
0.0393700787401575
  9
$DIMLFAC
 40
1.0
  9
$DIMTOFL
 70
     1
  9
$DIMTVP
 40
0.0
  9
$DIMTIX
 70
     0
  9
$DIMSOXD
 70
     0
  9
$DIMSAH
 70
     0
  9
$DIMBLK1
  1

  9
$DIMBLK2
  1

  9
$DIMSTYLE
  2
ISO-25
  9
$DIMCLRD
 70
     0
  9
$DIMCLRE
 70
     0
  9
$DIMCLRT
 70
     0
  9
$DIMTFAC
 40
1.0
  9
$DIMGAP
 40
1.524
  9
$DIMJUST
 70
     0
  9
$DIMSD1
 70
     0
  9
$DIMSD2
 70
     0
  9
$DIMTOLJ
 70
     0
  9
$DIMTZIN
 70
     0
  9
$DIMALTZ
 70
     0
  9
$DIMALTTZ
 70
     0
  9
$DIMUPT
 70
     0
  9
$DIMDEC
 70
     2
  9
$DIMTDEC
 70
     2
  9
$DIMALTU
 70
     2
  9
$DIMALTTD
 70
     3
  9
$DIMTXSTY
  7
Standard
  9
$DIMAUNIT
 70
     0
  9
$DIMADEC
 70
     2
  9
$DIMALTRND
 40
0.0
  9
$DIMAZIN
 70
     0
  9
$DIMDSEP
 70
    44
  9
$DIMATFIT
 70
     3
  9
$DIMFRAC
 70
     0
  9
$DIMLDRBLK
  1

  9
$DIMLUNIT
 70
     2
  9
$DIMLWD
 70
    -2
  9
$DIMLWE
 70
    -2
  9
$DIMTMOVE
 70
     0
  9
$LUNITS
 70
     2
  9
$LUPREC
 70
     2
  9
$SKETCHINC
 40
1.0
  9
$FILLETRAD
 40
10.0
  9
$AUNITS
 70
     0
  9
$AUPREC
 70
     2
  9
$MENU
  1
.
  9
$ELEVATION
 40
0.0
  9
$PELEVATION
 40
0.0
  9
$THICKNESS
 40
0.0
  9
$LIMCHECK
 70
     0
  9
$CHAMFERA
 40
0.0
  9
$CHAMFERB
 40
0.0
  9
$CHAMFERC
 40
0.0
  9
$CHAMFERD
 40
0.0
  9
$SKPOLY
 70
     0
  9
$TDCREATE
 40
2458235.829702535
  9
$TDUCREATE
 40
2458235.454702535
  9
$TDUPDATE
 40
2458283.503879549
  9
$TDUUPDATE
 40
2458283.128879549
  9
$TDINDWG
 40
0.0011709375
  9
$TDUSRTIMER
 40
2458283.128669479
  9
$USRTIMER
 70
     1
  9
$ANGBASE
 50
0.0
  9
$ANGDIR
 70
     0
  9
$PDMODE
 70
     0
  9
$PDSIZE
 40
-1.0
  9
$PLINEWID
 40
0.0
  9
$SPLFRAME
 70
     0
  9
$SPLINETYPE
 70
     6
  9
$SPLINESEGS
 70
     8
  9
$HANDSEED
  5
1CA
  9
$SURFTAB1
 70
     6
  9
$SURFTAB2
 70
     6
  9
$SURFTYPE
 70
     6
  9
$SURFU
 70
     6
  9
$SURFV
 70
     6
  9
$UCSBASE
  2

  9
$UCSNAME
  2

  9
$UCSORG
 10
0.0
 20
0.0
 30
0.0
  9
$UCSXDIR
 10
1.0
 20
0.0
 30
0.0
  9
$UCSYDIR
 10
0.0
 20
1.0
 30
0.0
  9
$UCSORTHOREF
  2

  9
$UCSORTHOVIEW
 70
     0
  9
$UCSORGTOP
 10
0.0
 20
0.0
 30
0.0
  9
$UCSORGBOTTOM
 10
0.0
 20
0.0
 30
0.0
  9
$UCSORGLEFT
 10
0.0
 20
0.0
 30
0.0
  9
$UCSORGRIGHT
 10
0.0
 20
0.0
 30
0.0
  9
$UCSORGFRONT
 10
0.0
 20
0.0
 30
0.0
  9
$UCSORGBACK
 10
0.0
 20
0.0
 30
0.0
  9
$PUCSBASE
  2

  9
$PUCSNAME
  2

  9
$PUCSORG
 10
0.0
 20
0.0
 30
0.0
  9
$PUCSXDIR
 10
1.0
 20
0.0
 30
0.0
  9
$PUCSYDIR
 10
0.0
 20
1.0
 30
0.0
  9
$PUCSORTHOREF
  2

  9
$PUCSORTHOVIEW
 70
     0
  9
$PUCSORGTOP
 10
0.0
 20
0.0
 30
0.0
  9
$PUCSORGBOTTOM
 10
0.0
 20
0.0
 30
0.0
  9
$PUCSORGLEFT
 10
0.0
 20
0.0
 30
0.0
  9
$PUCSORGRIGHT
 10
0.0
 20
0.0
 30
0.0
  9
$PUCSORGFRONT
 10
0.0
 20
0.0
 30
0.0
  9
$PUCSORGBACK
 10
0.0
 20
0.0
 30
0.0
  9
$USERI1
 70
     0
  9
$USERI2
 70
     0
  9
$USERI3
 70
     0
  9
$USERI4
 70
     0
  9
$USERI5
 70
     0
  9
$USERR1
 40
0.0
  9
$USERR2
 40
0.0
  9
$USERR3
 40
0.0
  9
$USERR4
 40
0.0
  9
$USERR5
 40
0.0
  9
$WORLDVIEW
 70
     1
  9
$SHADEDGE
 70
     3
  9
$SHADEDIF
 70
    70
  9
$TILEMODE
 70
     1
  9
$MAXACTVP
 70
    64
  9
$PINSBASE
 10
0.0
 20
0.0
 30
0.0
  9
$PLIMCHECK
 70
     0
  9
$PEXTMIN
 10
1.000000000000000E+20
 20
1.000000000000000E+20
 30
1.000000000000000E+20
  9
$PEXTMAX
 10
-1.000000000000000E+20
 20
-1.000000000000000E+20
 30
-1.000000000000000E+20
  9
$PLIMMIN
 10
0.0
 20
0.0
  9
$PLIMMAX
 10
0.0
 20
0.0
  9
$UNITMODE
 70
     0
  9
$VISRETAIN
 70
     1
  9
$PLINEGEN
 70
     0
  9
$PSLTSCALE
 70
     1
  9
$TREEDEPTH
 70
  3020
  9
$CMLSTYLE
  2
Standard
  9
$CMLJUST
 70
     0
  9
$CMLSCALE
 40
20.0
  9
$PROXYGRAPHICS
 70
     1
  9
$MEASUREMENT
 70
     1
  9
$CELWEIGHT
370
    -1
  9
$ENDCAPS
280
     0
  9
$JOINSTYLE
280
     0
  9
$LWDISPLAY
290
     1
  9
$INSUNITS
 70
     4
  9
$HYPERLINKBASE
  1

  9
$STYLESHEET
  1

  9
$XEDIT
290
     1
  9
$CEPSNTYPE
380
     0
  9
$PSTYLEMODE
290
     1
  9
$FINGERPRINTGUID
  2
{5B8F3338-C07D-4321-A1E3-8E79F49C8968}
  9
$VERSIONGUID
  2
{FAEB1C32-E019-11D5-929B-00C0DF256EC4}
  9
$EXTNAMES
290
     1
  9
$PSVPSCALE
 40
0.0
  9
$OLESTARTUP
290
     0
  0
ENDSEC
  0
SECTION
  2
CLASSES
  0
CLASS
  1
ACDBDICTIONARYWDFLT
  2
AcDbDictionaryWithDefault
  3
ObjectDBX Classes
 90
        0
280
     0
281
     0
  0
CLASS
  1
VISUALSTYLE
  2
AcDbVisualStyle
  3
ObjectDBX Classes
 90
     4095
280
     0
281
     0
  0
CLASS
  1
MATERIAL
  2
AcDbMaterial
  3
ObjectDBX Classes
 90
     1153
280
     0
281
     0
  0
CLASS
  1
SCALE
  2
AcDbScale
  3
ObjectDBX Classes
 90
     1153
280
     0
281
     0
  0
CLASS
  1
SUN
  2
AcDbSun
  3
SCENEOE
 90
     1153
280
     0
281
     0
  0
CLASS
  1
ACDBPLACEHOLDER
  2
AcDbPlaceHolder
  3
ObjectDBX Classes
 90
        0
280
     0
281
     0
  0
CLASS
  1
LAYOUT
  2
AcDbLayout
  3
ObjectDBX Classes
 90
        0
280
     0
281
     0
  0
CLASS
  1
TABLESTYLE
  2
AcDbTableStyle
  3
ObjectDBX Classes
 90
     4095
280
     0
281
     0
  0
CLASS
  1
MLEADERSTYLE
  2
AcDbMLeaderStyle
  3
ACDB_MLEADERSTYLE_CLASS
 90
     4095
280
     0
281
     0
  0
CLASS
  1
RASTERVARIABLES
  2
AcDbRasterVariables
  3
ISM
 90
        0
280
     0
281
     0
  0
CLASS
  1
DIMASSOC
  2
AcDbDimAssoc
  3
"AcDbDimAssoc|Product Desc:     AcDim ARX App For Dimension|Company:          Autodesk, Inc.|WEB Address:      www.autodesk.com"
 90
        0
280
     0
281
     0
  0
ENDSEC
  0
SECTION
  2
TABLES
  0
TABLE
  2
VPORT
  5
8
330
0
100
AcDbSymbolTable
 70
     1
  0
VPORT
  5
29
330
8
100
AcDbSymbolTableRecord
100
AcDbViewportTableRecord
  2
*Active
 70
     0
 10
0.0
 20
0.0
 11
1.0
 21
1.0
 12
-58.70514257381659
 22
-4.619118658749731
 13
0.0
 23
0.0
 14
10.0
 24
10.0
 15
10.0
 25
10.0
 16
0.0
 26
0.0
 36
1.0
 17
0.0
 27
0.0
 37
0.0
 40
253.7864939839742
 41
1.335907335907336
 42
50.0
 43
0.0
 44
0.0
 50
0.0
 51
0.0
 71
    16
 72
  2000
 73
     1
 74
     3
 75
     0
 76
     0
 77
     0
 78
     0
281
     0
 65
     1
110
0.0
120
0.0
130
0.0
111
1.0
121
0.0
131
0.0
112
0.0
122
1.0
132
0.0
 79
     0
146
0.0
  0
ENDTAB
  0
TABLE
  2
LTYPE
  5
5
330
0
100
AcDbSymbolTable
 70
     6
  0
LTYPE
  5
14
330
5
100
AcDbSymbolTableRecord
100
AcDbLinetypeTableRecord
  2
ByBlock
 70
     0
  3

 72
    65
 73
     0
 40
0.0
  0
LTYPE
  5
15
330
5
100
AcDbSymbolTableRecord
100
AcDbLinetypeTableRecord
  2
ByLayer
 70
     0
  3

 72
    65
 73
     0
 40
0.0
  0
LTYPE
  5
16
330
5
100
AcDbSymbolTableRecord
100
AcDbLinetypeTableRecord
  2
Continuous
 70
     0
  3
Solid line
 72
    65
 73
     0
 40
0.0
  0
LTYPE
  5
6A
330
5
100
AcDbSymbolTableRecord
100
AcDbLinetypeTableRecord
  2
HIDDEN
 70
     0
  3
Hidden __ __ __ __ __ __ __ __ __ __ __ __ __ __
 72
    65
 73
     2
 40
1.905
 49
1.27
 74
     0
 49
-0.635
 74
     0
  0
LTYPE
  5
6B
330
5
100
AcDbSymbolTableRecord
100
AcDbLinetypeTableRecord
  2
PHANTOM
 70
     0
  3
Phantom ______  __  __  ______  __  __  ______
 72
    65
 73
     6
 40
12.7
 49
6.35
 74
     0
 49
-1.27
 74
     0
 49
1.27
 74
     0
 49
-1.27
 74
     0
 49
1.27
 74
     0
 49
-1.27
 74
     0
  0
LTYPE
  5
6C
330
5
100
AcDbSymbolTableRecord
100
AcDbLinetypeTableRecord
  2
CENTER
 70
     0
  3
Center ____ _ ____ _ ____ _ ____ _ ____ _ ____
 72
    65
 73
     4
 40
10.16
 49
6.35
 74
     0
 49
-1.27
 74
     0
 49
1.27
 74
     0
 49
-1.27
 74
     0
  0
LTYPE
  5
6D
330
5
100
AcDbSymbolTableRecord
100
AcDbLinetypeTableRecord
  2
CENTERX2
 70
     0
  3
Center (2x) ________  __  ________  __  _____
 72
    65
 73
     4
 40
20.32
 49
12.7
 74
     0
 49
-2.54
 74
     0
 49
2.54
 74
     0
 49
-2.54
 74
     0
  0
LTYPE
  5
6E
330
5
100
AcDbSymbolTableRecord
100
AcDbLinetypeTableRecord
  2
DOT2
 70
     0
  3
Dot (.5x) ........................................
 72
    65
 73
     2
 40
0.635
 49
0.0
 74
     0
 49
-0.635
 74
     0
  0
ENDTAB
  0
TABLE
  2
LAYER
  5
2
102
{ACAD_XDICTIONARY
360
1B7
102
}
330
0
100
AcDbSymbolTable
 70
    17
  0
LAYER
  5
10
330
2
100
AcDbSymbolTableRecord
100
AcDbLayerTableRecord
  2
0
 70
     0
 62
     7
  6
Continuous
370
    -3
390
F
  0
LAYER
  5
6F
330
2
100
AcDbSymbolTableRecord
100
AcDbLayerTableRecord
  2
FORMAT
 70
     0
 62
     2
  6
Continuous
370
    -3
390
F
  0
LAYER
  5
70
330
2
100
AcDbSymbolTableRecord
100
AcDbLayerTableRecord
  2
외형선
 70
     0
 62
   100
  6
Continuous
370
    30
390
F
  0
LAYER
  5
71
330
2
100
AcDbSymbolTableRecord
100
AcDbLayerTableRecord
  2
숨은선
 70
     0
 62
     2
  6
HIDDEN
370
    15
390
F
  0
LAYER
  5
72
330
2
100
AcDbSymbolTableRecord
100
AcDbLayerTableRecord
  2
중심선
 70
     0
 62
     1
  6
CENTERX2
370
    -3
390
F
  0
LAYER
  5
73
330
2
100
AcDbSymbolTableRecord
100
AcDbLayerTableRecord
  2
파단선
 70
     0
 62
     4
  6
Continuous
370
    -3
390
F
  0
LAYER
  5
74
330
2
100
AcDbSymbolTableRecord
100
AcDbLayerTableRecord
  2
해칭선
 70
     0
 62
     4
  6
Continuous
370
    -3
390
F
  0
LAYER
  5
75
330
2
100
AcDbSymbolTableRecord
100
AcDbLayerTableRecord
  2
가는실선
 70
     0
 62
     4
  6
Continuous
370
    -3
390
F
  0
LAYER
  5
76
330
2
100
AcDbSymbolTableRecord
100
AcDbLayerTableRecord
  2
치수_보조선
 70
     0
 62
     4
  6
Continuous
370
    -3
390
F
  0
LAYER
  5
77
330
2
100
AcDbSymbolTableRecord
100
AcDbLayerTableRecord
  2
치수문자_일반주서
 70
     0
 62
     7
  6
Continuous
370
    15
390
F
  0
LAYER
  5
78
330
2
100
AcDbSymbolTableRecord
100
AcDbLayerTableRecord
  2
개별주서
 70
     0
 62
   100
  6
Continuous
370
    30
390
F
  0
LAYER
  5
79
330
2
100
AcDbSymbolTableRecord
100
AcDbLayerTableRecord
  2
중간선
 70
     0
 62
     2
  6
Continuous
370
    15
390
F
  0
LAYER
  5
7A
330
2
100
AcDbSymbolTableRecord
100
AcDbLayerTableRecord
  2
윤곽선
 70
     0
 62
     3
  6
Continuous
370
    40
390
F
  0
LAYER
  5
7B
330
2
100
AcDbSymbolTableRecord
100
AcDbLayerTableRecord
  2
중심마크
 70
     0
 62
   100
  6
Continuous
370
    30
390
F
  0
LAYER
  5
7C
330
2
100
AcDbSymbolTableRecord
100
AcDbLayerTableRecord
  2
가상선
 70
     0
 62
     4
  6
PHANTOM
370
    -3
390
F
  0
LAYER
  5
7D
330
2
100
AcDbSymbolTableRecord
100
AcDbLayerTableRecord
  2
특수지정선
 70
     0
 62
     5
  6
CENTERX2
370
    60
390
F
  0
LAYER
  5
12C
330
2
100
AcDbSymbolTableRecord
100
AcDbLayerTableRecord
  2
Defpoints
 70
     0
 62
     7
  6
Continuous
290
     0
370
    -3
390
F
  0
ENDTAB
  0
TABLE
  2
STYLE
  5
3
330
0
100
AcDbSymbolTable
 70
     2
  0
STYLE
  5
11
330
3
100
AcDbSymbolTableRecord
100
AcDbTextStyleTableRecord
  2
Standard
 70
     0
 40
0.0
 41
1.0
 50
0.0
 71
     0
 42
3.5
  3
txt
  4

  0
STYLE
  5
93
330
3
100
AcDbSymbolTableRecord
100
AcDbTextStyleTableRecord
  2
SLDTEXTSTYLE0
 70
     0
 40
0.0
 41
0.75
 50
0.0
 71
     0
 42
3.5
  3
TXT
  4

  0
ENDTAB
  0
TABLE
  2
VIEW
  5
6
330
0
100
AcDbSymbolTable
 70
     0
  0
ENDTAB
  0
TABLE
  2
UCS
  5
7
330
0
100
AcDbSymbolTable
 70
     0
  0
ENDTAB
  0
TABLE
  2
APPID
  5
9
330
0
100
AcDbSymbolTable
 70
     2
  0
APPID
  5
12
330
9
100
AcDbSymbolTableRecord
100
AcDbRegAppTableRecord
  2
ACAD
 70
     0
  0
APPID
  5
13F
330
9
100
AcDbSymbolTableRecord
100
AcDbRegAppTableRecord
  2
PE_DIMMEASUREMENT
 70
     0
  0
ENDTAB
  0
TABLE
  2
DIMSTYLE
  5
A
330
0
100
AcDbSymbolTable
 70
     3
100
AcDbDimStyleTable
  0
DIMSTYLE
105
27
102
{ACAD_REACTORS
330
12D
330
D1
330
DC
330
F4
102
}
330
A
100
AcDbSymbolTableRecord
100
AcDbDimStyleTableRecord
  2
ISO-25
 70
     0
 41
2.5
 42
0.625
 43
3.75
 44
1.25
 73
     0
 74
     0
 77
     1
 78
     8
140
2.5
141
2.5
143
0.03937007874016
147
0.625
171
     3
172
     1
178
     0
271
     2
272
     2
274
     3
278
    44
283
     0
284
     8
340
11
  0
DIMSTYLE
105
D2
330
A
100
AcDbSymbolTableRecord
100
AcDbDimStyleTableRecord
  2
SLDDIMSTYLE0
 70
     0
 41
3.302
 44
0.0
 45
0.000000001
 73
     0
 74
     0
 77
     1
 78
     4
 79
     1
140
3.5
147
0.875
173
     1
178
     0
271
     2
272
     2
276
     2
284
    12
340
93
  0
DIMSTYLE
105
E7
330
A
100
AcDbSymbolTableRecord
100
AcDbDimStyleTableRecord
  2
SLDDIMSTYLE1
 70
     0
 41
3.302
 44
0.0
 45
0.000000001
 73
     0
 74
     0
 77
     1
 78
    12
 79
     3
140
3.5
147
0.875
172
     1
173
     1
178
     0
271
     2
272
     2
276
     2
284
    12
289
     0
340
93
  0
ENDTAB
  0
TABLE
  2
BLOCK_RECORD
  5
1
330
0
100
AcDbSymbolTable
 70
     9
  0
BLOCK_RECORD
  5
1F
330
1
100
AcDbSymbolTableRecord
100
AcDbBlockTableRecord
  2
*Model_Space
340
22
  0
BLOCK_RECORD
  5
1B
330
1
100
AcDbSymbolTableRecord
100
AcDbBlockTableRecord
  2
*Paper_Space
340
1E
  0
BLOCK_RECORD
  5
23
330
1
100
AcDbSymbolTableRecord
100
AcDbBlockTableRecord
  2
*Paper_Space0
340
26
  0
BLOCK_RECORD
  5
7E
330
1
100
AcDbSymbolTableRecord
100
AcDbBlockTableRecord
  2
블럭10
340
0
102
{BLKREFS
331
C9
102
}
  0
BLOCK_RECORD
  5
D3
330
1
100
AcDbSymbolTableRecord
100
AcDbBlockTableRecord
  2
_D
340
0
  0
BLOCK_RECORD
  5
DD
330
1
100
AcDbSymbolTableRecord
100
AcDbBlockTableRecord
  2
_D_1
340
0
  0
BLOCK_RECORD
  5
E8
330
1
100
AcDbSymbolTableRecord
100
AcDbBlockTableRecord
  2
_D_2
340
0
  0
BLOCK_RECORD
  5
F5
330
1
100
AcDbSymbolTableRecord
100
AcDbBlockTableRecord
  2
_D_3
340
0
  0
BLOCK_RECORD
  5
101
330
1
100
AcDbSymbolTableRecord
100
AcDbBlockTableRecord
  2
SW_DOWELSYMBOL_0
340
0
102
{BLKREFS
331
107
102
}
  0
BLOCK_RECORD
  5
130
330
1
100
AcDbSymbolTableRecord
100
AcDbBlockTableRecord
  2
*D7
340
0
  0
ENDTAB
  0
ENDSEC
  0
SECTION
  2
BLOCKS
  0
BLOCK
  5
20
330
1F
100
AcDbEntity
  8
0
100
AcDbBlockBegin
  2
*Model_Space
 70
     0
 10
0.0
 20
0.0
 30
0.0
  3
*Model_Space
  1
*Model_Space
  0
ENDBLK
  5
21
330
1F
100
AcDbEntity
  8
0
100
AcDbBlockEnd
  0
BLOCK
  5
1C
330
1B
100
AcDbEntity
 67
     1
  8
0
100
AcDbBlockBegin
  2
*Paper_Space
 70
     0
 10
0.0
 20
0.0
 30
0.0
  3
*Paper_Space
  1
*Paper_Space
  0
ENDBLK
  5
1D
330
1B
100
AcDbEntity
 67
     1
  8
0
100
AcDbBlockEnd
  0
BLOCK
  5
24
330
23
100
AcDbEntity
  8
0
100
AcDbBlockBegin
  2
*Paper_Space0
 70
     0
 10
0.0
 20
0.0
 30
0.0
  3
*Paper_Space0
  1
*Paper_Space0
  0
ENDBLK
  5
25
330
23
100
AcDbEntity
  8
0
100
AcDbBlockEnd
  0
BLOCK
  5
7F
330
7E
100
AcDbEntity
  8
0
100
AcDbBlockBegin
  2
블럭10
 70
     2
 10
0.0
 20
0.0
 30
0.0
  3
블럭10
  1
블럭10
  0
ELLIPSE
  5
81
330
7E
100
AcDbEntity
  8
중심선
100
AcDbEllipse
 10
20.54032771741204
 20
12.0471743016438
 30
0.0
 11
6.600054785286829
 21
-1.261213355974178E-13
 31
0.0
210
0.0
220
0.0
230
1.0
 40
0.636358354079598
 41
0.9219305317359503
 42
6.513795318482858
  0
ELLIPSE
  5
82
330
7E
100
AcDbEntity
  8
중심선
100
AcDbEllipse
 10
20.54032771746488
 20
12.04717430159265
 30
0.0
 11
3.960054785062283
 21
1.540847449632565E-10
 31
0.0
210
0.0
220
0.0
230
1.0
 40
0.3939339440162632
 41
1.131841032648279
 42
5.62031148352944
  0
LINE
  5
83
330
7E
100
AcDbEntity
  8
중심선
100
AcDbLine
 10
2.268634060543552
 20
16.24717430164393
 30
0.0
 11
5.714909304380834
 21
16.24717430164393
 31
0.0
  0
LINE
  5
84
330
7E
100
AcDbEntity
  8
중심선
100
AcDbLine
 10
5.245725140726316
 20
7.84717430164391
 30
0.0
 11
8.692000384563599
 21
7.84717430164391
 31
0.0
  0
LINE
  5
85
330
7E
100
AcDbEntity
  8
중심선
100
AcDbLine
 10
15.74043728645272
 20
16.24717430164393
 30
0.0
 11
8.692000384563599
 21
7.84717430164391
 31
0.0
  0
LINE
  5
86
330
7E
100
AcDbEntity
  8
중심선
100
AcDbLine
 10
0.1404042013395286
 20
13.71084872107135
 30
0.0
 11
3.58671253028996
 21
13.71088815037384
 31
0.0
  0
LINE
  5
87
330
7E
100
AcDbEntity
  8
중심선
100
AcDbLine
 10
2.750260043222114
 20
10.84717430164391
 30
0.0
 11
6.196535287059397
 21
10.84717430164391
 31
0.0
  0
LINE
  5
88
330
7E
100
AcDbEntity
  8
중심선
100
AcDbLine
 10
12.29416204261559
 20
16.24717430164393
 30
0.0
 11
5.245725140726316
 21
7.84717430164391
 31
0.0
  0
LINE
  5
89
330
7E
100
AcDbEntity
  8
중심선
100
AcDbLine
 10
10.72767329541681
 20
16.24717430164393
 30
0.0
 11
6.196535287059397
 21
10.84717430164391
 31
0.0
  0
LINE
  5
8A
330
7E
100
AcDbEntity
  8
중심선
100
AcDbLine
 10
7.28139805157953
 20
16.24717430164393
 30
0.0
 11
2.750260043222114
 21
10.84717430164391
 31
0.0
  0
LINE
  5
8B
330
7E
100
AcDbEntity
  8
중심선
100
AcDbLine
 10
5.714909304380834
 20
16.24717430164393
 30
0.0
 11
3.58671253028996
 21
13.71088815037384
 31
0.0
  0
LINE
  5
8C
330
7E
100
AcDbEntity
  8
중심선
100
AcDbLine
 10
2.268634060543552
 20
16.24717430164393
 30
0.0
 11
0.1404042013395286
 21
13.71084872107135
 31
0.0
  0
LINE
  5
8D
330
7E
100
AcDbEntity
  8
중심선
100
AcDbLine
 10
7.28139805157953
 20
16.24717430164393
 30
0.0
 11
10.72767329541681
 21
16.24717430164393
 31
0.0
  0
LINE
  5
8E
330
7E
100
AcDbEntity
  8
중심선
100
AcDbLine
 10
12.29416204261559
 20
16.24717430164393
 30
0.0
 11
15.74043728645272
 21
16.24717430164393
 31
0.0
  0
LINE
  5
8F
330
7E
100
AcDbEntity
  8
중심선
100
AcDbLine
 10
19.22036997980202
 20
11.08717430171403
 30
0.0
 11
23.66174974927406
 21
11.08717430171406
 31
0.0
  0
LINE
  5
90
330
7E
100
AcDbEntity
  8
중심선
100
AcDbLine
 10
19.22039502424796
 20
13.00717430171391
 30
0.0
 11
19.22036997980202
 21
11.08717430171403
 31
0.0
  0
LINE
  5
91
330
7E
100
AcDbEntity
  8
중심선
100
AcDbLine
 10
19.22039502424796
 20
13.00717430171391
 30
0.0
 11
26.96566020931264
 21
13.00717430171391
 31
0.0
  0
LINE
  5
92
330
7E
100
AcDbEntity
  8
중심선
100
AcDbLine
 10
22.22332737316547
 20
13.45928029700563
 30
0.0
 11
24.52862924686651
 21
15.39360700705356
 31
0.0
  0
ATTDEF
  5
94
330
7E
100
AcDbEntity
  8
FORMAT
 62
     2
100
AcDbText
 10
-12.63068127447336
 20
2.075366912832191
 30
0.0
 40
4.233333333333333
  1
UGMF68912 [ 4 FLUTE ]
 41
0.75
  7
SLDTEXTSTYLE0
 11
-12.63068127447336
 21
-0.0412997538344756
 31
0.0
100
AcDbAttributeDefinition
  3

  2
AUTOATTR0
 70
     0
 74
     1
  0
ENDBLK
  5
80
330
7E
100
AcDbEntity
  8
0
100
AcDbBlockEnd
  0
BLOCK
  5
D4
330
D3
100
AcDbEntity
  8
0
100
AcDbBlockBegin
  2
_D
 70
     0
 10
0.0
 20
0.0
 30
0.0
  3
_D
  1
_D
  0
LINE
  5
D6
330
D3
100
AcDbEntity
  8
0
 62
     0
370
    -2
100
AcDbLine
 10
48.10000000000001
 20
10.53322173688377
 30
0.0
 11
48.10000000000001
 21
31.99404531174228
 31
0.0
  0
LINE
  5
D7
330
D3
100
AcDbEntity
  8
0
 62
     0
370
    -2
100
AcDbLine
 10
-53.49999999999999
 20
10.04635414949588
 30
0.0
 11
-53.49999999999999
 21
31.99404531174228
 31
0.0
  0
LINE
  5
D8
330
D3
100
AcDbEntity
  8
0
 62
     0
370
    -2
100
AcDbLine
 10
44.79800000000001
 20
30.99404531174228
 30
0.0
 11
-50.19799999999999
 21
30.99404531174228
 31
0.0
  0
SOLID
  5
D9
330
D3
100
AcDbEntity
  8
0
 62
     0
100
AcDbTrace
 10
44.79800000000001
 20
30.44371197840894
 30
0.0
 11
44.79800000000001
 21
31.54437864507561
 31
0.0
 12
48.10000000000001
 22
30.99404531174228
 32
0.0
 13
48.10000000000001
 23
30.99404531174228
 33
0.0
  0
SOLID
  5
DA
330
D3
100
AcDbEntity
  8
0
 62
     0
100
AcDbTrace
 10
-50.19799999999999
 20
31.54437864507561
 30
0.0
 11
-50.19799999999999
 21
30.44371197840894
 31
0.0
 12
-53.49999999999999
 22
30.99404531174228
 32
0.0
 13
-53.49999999999999
 23
30.99404531174228
 33
0.0
  0
MTEXT
  5
DB
330
D3
100
AcDbEntity
  8
0
 62
     0
100
AcDbMText
 10
-2.561529519760431
 20
36.60137864507561
 30
0.0
 40
3.5
 41
0.0
 71
     2
 72
     1
  1
101,60 [4]
 73
     1
 44
1.0
  0
POINT
  5
140
330
D3
100
AcDbEntity
  8
Defpoints
 62
     0
100
AcDbPoint
 10
48.10000000000001
 20
9.53322173688377
 30
0.0
  0
POINT
  5
141
330
D3
100
AcDbEntity
  8
Defpoints
 62
     0
100
AcDbPoint
 10
-53.49999999999999
 20
9.04635414949588
 30
0.0
  0
POINT
  5
142
330
D3
100
AcDbEntity
  8
Defpoints
 62
     0
100
AcDbPoint
 10
-53.49999999999999
 20
30.99404531174227
 30
0.0
  0
ENDBLK
  5
D5
330
D3
100
AcDbEntity
  8
0
100
AcDbBlockEnd
  0
BLOCK
  5
DE
330
DD
100
AcDbEntity
  8
0
100
AcDbBlockBegin
  2
_D_1
 70
     0
 10
0.0
 20
0.0
 30
0.0
  3
_D_1
  1
_D_1
  0
LINE
  5
E0
330
DD
100
AcDbEntity
  8
0
 62
     0
370
    -2
100
AcDbLine
 10
48.10000000000001
 20
10.53322173688377
 30
0.0
 11
48.10000000000001
 21
22.61350033955379
 31
0.0
  0
LINE
  5
E1
330
DD
100
AcDbEntity
  8
0
 62
     0
370
    -2
100
AcDbLine
 10
10.00000000000002
 20
-8.503645850504114
 30
0.0
 11
10.00000000000001
 21
22.61350033955379
 31
0.0
  0
LINE
  5
E2
330
DD
100
AcDbEntity
  8
0
 62
     0
370
    -2
100
AcDbLine
 10
44.79800000000001
 20
21.61350033955379
 30
0.0
 11
13.30200000000001
 21
21.61350033955379
 31
0.0
  0
SOLID
  5
E3
330
DD
100
AcDbEntity
  8
0
 62
     0
100
AcDbTrace
 10
44.79800000000001
 20
21.06316700622045
 30
0.0
 11
44.79800000000001
 21
22.16383367288712
 31
0.0
 12
48.10000000000001
 22
21.61350033955379
 32
0.0
 13
48.10000000000001
 23
21.61350033955379
 33
0.0
  0
SOLID
  5
E4
330
DD
100
AcDbEntity
  8
0
 62
     0
100
AcDbTrace
 10
13.30200000000001
 20
22.16383367288712
 30
0.0
 11
13.30200000000001
 21
21.06316700622045
 31
0.0
 12
10.00000000000001
 22
21.61350033955379
 32
0.0
 13
10.00000000000001
 23
21.61350033955379
 33
0.0
  0
MTEXT
  5
E5
330
DD
100
AcDbEntity
  8
0
 62
     0
100
AcDbMText
 10
29.05000000000001
 20
27.22083367288712
 30
0.0
 40
3.5
 41
0.0
 71
     2
 72
     1
  1
38,10 [1 1/2]
 73
     1
 44
1.0
  0
POINT
  5
143
330
DD
100
AcDbEntity
  8
Defpoints
 62
     0
100
AcDbPoint
 10
48.10000000000001
 20
9.53322173688377
 30
0.0
  0
POINT
  5
144
330
DD
100
AcDbEntity
  8
Defpoints
 62
     0
100
AcDbPoint
 10
10.00000000000002
 20
-9.503645850504114
 30
0.0
  0
POINT
  5
145
330
DD
100
AcDbEntity
  8
Defpoints
 62
     0
100
AcDbPoint
 10
10.00000000000002
 20
21.61350033955379
 30
0.0
  0
ENDBLK
  5
DF
330
DD
100
AcDbEntity
  8
0
100
AcDbBlockEnd
  0
BLOCK
  5
E9
330
E8
100
AcDbEntity
  8
0
100
AcDbBlockBegin
  2
_D_2
 70
     0
 10
0.0
 20
0.0
 30
0.0
  3
_D_2
  1
_D_2
  0
SOLID
  5
EB
330
E8
100
AcDbEntity
  8
치수문자_일반주서
100
AcDbTrace
 10
-61.87941990844065
 20
9.546354149495885
 30
0.0
 11
-61.37141990844064
 21
12.84835414949588
 31
0.0
 12
-62.38741990844065
 22
12.84835414949588
 32
0.0
 13
-62.38741990844065
 23
12.84835414949588
 33
0.0
  0
SOLID
  5
EC
330
E8
100
AcDbEntity
  8
치수문자_일반주서
100
AcDbTrace
 10
-61.87941990844065
 20
-9.503645850504117
 30
0.0
 11
-62.38741990844065
 21
-12.80564585050412
 31
0.0
 12
-61.37141990844064
 22
-12.80564585050412
 32
0.0
 13
-61.37141990844064
 23
-12.80564585050412
 33
0.0
  0
LINE
  5
ED
330
E8
100
AcDbEntity
  8
치수문자_일반주서
100
AcDbLine
 10
-53.99999999999999
 20
9.546354149495887
 30
0.0
 11
-62.87941990844065
 21
9.546354149495885
 31
0.0
  0
LINE
  5
EE
330
E8
100
AcDbEntity
  8
치수문자_일반주서
100
AcDbLine
 10
-53.99999999999999
 20
-9.503645850504116
 30
0.0
 11
-62.87941990844065
 21
-9.503645850504117
 31
0.0
  0
LINE
  5
EF
330
E8
100
AcDbEntity
  8
치수문자_일반주서
100
AcDbLine
 10
-61.87941990844065
 20
9.546354149495885
 30
0.0
 11
-61.87941990844065
 21
15.89635414949588
 31
0.0
  0
LINE
  5
F0
330
E8
100
AcDbEntity
  8
치수문자_일반주서
100
AcDbLine
 10
-61.87941990844065
 20
9.546354149495885
 30
0.0
 11
-61.87941990844065
 21
-9.503645850504117
 31
0.0
  0
LINE
  5
F1
330
E8
100
AcDbEntity
  8
치수문자_일반주서
100
AcDbLine
 10
-61.87941990844065
 20
-9.503645850504117
 30
0.0
 11
-61.87941990844065
 21
-15.85364585050412
 31
0.0
  0
MTEXT
  5
F2
330
E8
100
AcDbEntity
  8
치수문자_일반주서
100
AcDbMText
 10
-66.39115699764247
 20
-11.13427568536148
 30
0.0
 40
3.5
 41
0.0
 71
     1
 72
     1
  1
%%c
  7
SLDTEXTSTYLE0
 11
-7.044195017643634E-15
 21
1.0
 31
0.0
 73
     1
 44
1.0
  0
MTEXT
  5
F3
330
E8
100
AcDbEntity
  8
치수문자_일반주서
100
AcDbMText
 10
-66.44462917430236
 20
-5.8558382869874
 30
0.0
 40
3.5
 41
0.0
 71
     1
 72
     1
  1
19.05
  7
SLDTEXTSTYLE0
 11
-7.044195017643634E-15
 21
1.0
 31
0.0
 73
     1
 44
1.0
  0
ENDBLK
  5
EA
330
E8
100
AcDbEntity
  8
0
100
AcDbBlockEnd
  0
BLOCK
  5
F6
330
F5
100
AcDbEntity
  8
0
100
AcDbBlockBegin
  2
_D_3
 70
     0
 10
0.0
 20
0.0
 30
0.0
  3
_D_3
  1
_D_3
  0
LINE
  5
F8
330
F5
100
AcDbEntity
  8
0
 62
     0
370
    -2
100
AcDbLine
 10
49.10000000000001
 20
-9.503645850504112
 30
0.0
 11
66.22068577202887
 21
-9.50364585050405
 31
0.0
  0
LINE
  5
F9
330
F5
100
AcDbEntity
  8
0
 62
     0
370
    -2
100
AcDbLine
 10
49.10000000000001
 20
9.546354149495897
 30
0.0
 11
66.2206857720288
 21
9.54635414949596
 31
0.0
  0
LINE
  5
FA
330
F5
100
AcDbEntity
  8
0
 62
     0
370
    -2
100
AcDbLine
 10
65.22068577202886
 20
-6.201645850504054
 30
0.0
 11
65.22068577202882
 21
6.244354149495956
 31
0.0
  0
SOLID
  5
FB
330
F5
100
AcDbEntity
  8
0
 62
     0
100
AcDbTrace
 10
64.67035243869553
 20
-6.201645850504056
 30
0.0
 11
65.77101910536219
 21
-6.201645850504052
 31
0.0
 12
65.22068577202887
 22
-9.503645850504054
 32
0.0
 13
65.22068577202887
 23
-9.503645850504054
 33
0.0
  0
SOLID
  5
FC
330
F5
100
AcDbEntity
  8
0
 62
     0
100
AcDbTrace
 10
65.77101910536214
 20
6.244354149495958
 30
0.0
 11
64.67035243869549
 21
6.244354149495955
 31
0.0
 12
65.2206857720288
 22
9.546354149495956
 32
0.0
 13
65.2206857720288
 23
9.546354149495956
 33
0.0
  0
MTEXT
  5
FD
330
F5
100
AcDbEntity
  8
0
 62
     0
100
AcDbMText
 10
59.61335243869551
 20
0.021354149495868
 30
0.0
 40
3.5
 41
0.0
 71
     2
 72
     1
  1
%%c19,05 [3/4]
 11
-3.729883127349606E-15
 21
1.0
 31
0.0
 73
     1
 44
1.0
  0
POINT
  5
FE
330
F5
100
AcDbEntity
  8
Defpoints
 62
     0
100
AcDbPoint
 10
48.10000000000001
 20
-9.503645850504116
 30
0.0
  0
POINT
  5
FF
330
F5
100
AcDbEntity
  8
Defpoints
 62
     0
100
AcDbPoint
 10
48.10000000000001
 20
9.546354149495894
 30
0.0
  0
POINT
  5
100
330
F5
100
AcDbEntity
  8
Defpoints
 62
     0
100
AcDbPoint
 10
65.22068577202884
 20
9.546354149495954
 30
0.0
  0
ENDBLK
  5
F7
330
F5
100
AcDbEntity
  8
0
100
AcDbBlockEnd
  0
BLOCK
  5
102
330
101
100
AcDbEntity
  8
0
100
AcDbBlockBegin
  2
SW_DOWELSYMBOL_0
 70
     0
 10
0.0
 20
0.0
 30
0.0
  3
SW_DOWELSYMBOL_0
  1
SW_DOWELSYMBOL_0
  0
CIRCLE
  5
104
330
101
100
AcDbEntity
  8
외형선
 62
     0
100
AcDbCircle
 10
0.0
 20
0.0
 30
0.0
 40
3.000000000000004
  0
HATCH
  5
105
330
101
100
AcDbEntity
  8
0
  6
Continuous
 62
     0
370
    30
100
AcDbHatch
 10
0.0
 20
0.0
 30
0.0
210
0.0
220
0.0
230
1.0
  2
SOLID
 70
     1
 71
     0
 91
        1
 92
        0
 93
        3
 72
     2
 10
0.0000000000000104
 20
-0.0000000000000035
 40
3.000000000000004
 50
0.0
 51
90.0
 73
     1
 72
     1
 10
0.0000000000000104
 20
3.000000000000001
 11
0.0000000000000104
 21
-0.0000000000000036
 72
     1
 10
0.0000000000000104
 20
-0.0000000000000035
 11
3.000000000000015
 21
-0.0000000000000035
 97
        0
 75
     0
 76
     1
 98
        1
 10
0.0
 20
0.0
  0
HATCH
  5
106
330
101
100
AcDbEntity
  8
0
  6
Continuous
 62
     0
370
    30
100
AcDbHatch
 10
0.0
 20
0.0
 30
0.0
210
0.0
220
0.0
230
1.0
  2
SOLID
 70
     1
 71
     0
 91
        1
 92
        0
 93
        3
 72
     2
 10
0.0000000000000104
 20
-0.0000000000000035
 40
3.000000000000004
 50
180.0
 51
270.0000000000007
 73
     1
 72
     1
 10
0.0000000000000104
 20
-3.000000000000008
 11
0.0000000000000104
 21
-0.0000000000000036
 72
     1
 10
0.0000000000000104
 20
-0.0000000000000035
 11
-2.999999999999994
 21
-0.0000000000000035
 97
        0
 75
     0
 76
     1
 98
        1
 10
0.0
 20
0.0
  0
ENDBLK
  5
103
330
101
100
AcDbEntity
  8
0
100
AcDbBlockEnd
  0
BLOCK
  5
131
330
130
100
AcDbEntity
  8
0
100
AcDbBlockBegin
  2
*D7
 70
     1
 10
0.0
 20
0.0
 30
0.0
  3
*D7
  1
*D7
  0
LINE
  5
133
330
130
100
AcDbEntity
  8
0
 62
     0
370
    -2
100
AcDbLine
 10
-53.99999999999999
 20
9.546354149495887
 30
0.0
 11
-64.66515861038647
 21
9.546354149495887
 31
0.0
  0
LINE
  5
134
330
130
100
AcDbEntity
  8
0
 62
     0
370
    -2
100
AcDbLine
 10
-53.99999999999999
 20
-9.50364585050411
 30
0.0
 11
-64.66515861038647
 21
-9.50364585050411
 31
0.0
  0
LINE
  5
135
330
130
100
AcDbEntity
  8
0
 62
     0
370
    -2
100
AcDbLine
 10
-63.66515861038648
 20
6.244354149495887
 30
0.0
 11
-63.66515861038648
 21
-6.201645850504111
 31
0.0
  0
SOLID
  5
136
330
130
100
AcDbEntity
  8
0
 62
     0
100
AcDbTrace
 10
-63.11482527705314
 20
6.244354149495887
 30
0.0
 11
-64.21549194371981
 21
6.244354149495887
 31
0.0
 12
-63.66515861038648
 22
9.546354149495887
 32
0.0
 13
-63.66515861038648
 23
9.546354149495887
 33
0.0
  0
SOLID
  5
137
330
130
100
AcDbEntity
  8
0
 62
     0
100
AcDbTrace
 10
-64.21549194371981
 20
-6.201645850504111
 30
0.0
 11
-63.11482527705314
 21
-6.201645850504111
 31
0.0
 12
-63.66515861038648
 22
-9.50364585050411
 32
0.0
 13
-63.66515861038648
 23
-9.50364585050411
 33
0.0
  0
MTEXT
  5
138
330
130
100
AcDbEntity
  8
0
 62
     0
100
AcDbMText
 10
-67.23082527705314
 20
0.0213541494958847
 30
0.0
 40
3.5
 41
0.0
 71
     5
 72
     1
  1
{%%c19,05 [3/4]}
 11
0.0
 21
1.0
 31
0.0
 73
     1
 44
1.0
  0
POINT
  5
139
330
130
100
AcDbEntity
  8
Defpoints
 62
     0
100
AcDbPoint
 10
-52.99999999999999
 20
9.546354149495887
 30
0.0
  0
POINT
  5
13A
330
130
100
AcDbEntity
  8
Defpoints
 62
     0
100
AcDbPoint
 10
-52.99999999999999
 20
-9.50364585050411
 30
0.0
  0
POINT
  5
13B
330
130
100
AcDbEntity
  8
Defpoints
 62
     0
100
AcDbPoint
 10
-63.66515861038648
 20
-9.50364585050411
 30
0.0
  0
ENDBLK
  5
132
330
130
100
AcDbEntity
  8
0
100
AcDbBlockEnd
  0
ENDSEC
  0
SECTION
  2
ENTITIES
  0
LINE
  5
95
330
1F
100
AcDbEntity
  8
0
  6
Continuous
 62
     4
370
    15
100
AcDbLine
 10
10.00000000000001
 20
9.54635414949589
 30
0.0
 11
-20.00692500000001
 21
9.546354149495889
 31
0.0
  0
LINE
  5
96
330
1F
100
AcDbEntity
  8
0
  6
Continuous
 62
     4
370
    15
100
AcDbLine
 10
-52.99999999999999
 20
-9.503645850504116
 30
0.0
 11
10.00000000000001
 21
-9.503645850504112
 31
0.0
  0
LINE
  5
97
330
1F
100
AcDbEntity
  8
0
  6
Continuous
 62
     4
370
    15
100
AcDbLine
 10
-52.99999999999999
 20
9.546354149495881
 30
0.0
 11
-53.49999999999999
 21
9.04635414949588
 31
0.0
  0
LINE
  5
98
330
1F
100
AcDbEntity
  8
0
  6
Continuous
 62
     4
370
    15
100
AcDbLine
 10
-53.49999999999999
 20
-9.003645850504109
 30
0.0
 11
-52.99999999999999
 21
-9.50364585050411
 31
0.0
  0
LINE
  5
99
330
1F
100
AcDbEntity
  8
0
  6
Continuous
 62
     1
370
    15
100
AcDbLine
 10
8.499895982234293
 20
5.558753964923381
 30
0.0
 11
8.499895982429878
 21
5.558781254601956
 31
0.0
  0
LINE
  5
9A
330
1F
100
AcDbEntity
  8
0
  6
Continuous
 62
     1
370
    15
100
AcDbLine
 10
31.06810894251163
 20
9.546354149495894
 30
0.0
 11
25.42255837141565
 21
9.546354149495894
 31
0.0
  0
LINE
  5
9B
330
1F
100
AcDbEntity
  8
0
  6
Continuous
 62
     1
370
    15
100
AcDbLine
 10
45.2777050784847
 20
-9.503645850504116
 30
0.0
 11
48.10000000000001
 21
-9.503645850504116
 31
0.0
  0
LINE
  5
9C
330
1F
100
AcDbEntity
  8
0
  6
Continuous
 62
     1
370
    15
100
AcDbLine
 10
11.21298726158866
 20
9.546354149495894
 30
0.0
 11
10.00000000000002
 21
9.546354149495894
 31
0.0
  0
LINE
  5
9D
330
1F
100
AcDbEntity
  8
0
  6
Continuous
 62
     1
370
    15
100
AcDbLine
 10
25.42255837141555
 20
-9.503645850504116
 30
0.0
 11
31.06810894251162
 21
-9.503645850504116
 31
0.0
  0
LINE
  5
9E
330
1F
100
AcDbEntity
  8
0
  6
Continuous
 62
     1
370
    15
100
AcDbLine
 10
10.00000000000002
 20
-9.503645850504116
 30
0.0
 11
11.21298726158855
 21
-9.503645850504116
 31
0.0
  0
LINE
  5
9F
330
1F
100
AcDbEntity
  8
0
  6
Continuous
 62
     1
370
    15
100
AcDbLine
 10
48.10000000000001
 20
9.546354149495894
 30
0.0
 11
45.27770507848471
 21
9.546354149495894
 31
0.0
  0
SPLINE
  5
A0
330
1F
100
AcDbEntity
  8
0
  6
Continuous
 62
     4
370
    15
100
AcDbSpline
210
0.0
220
0.0
230
1.0
 70
     8
 71
     3
 72
    14
 73
    10
 74
     0
 42
0.000000001
 43
0.00000001
 40
0.0
 40
0.0
 40
0.0
 40
0.0
 40
0.25
 40
0.25
 40
0.5
 40
0.5
 40
0.75
 40
0.75
 40
1.0
 40
1.0
 40
1.0
 40
1.0
 10
9.266853644309514
 20
-9.391051082445692
 30
0.0
 10
9.144308501527489
 20
-9.376911173681181
 30
0.0
 10
9.035378406187753
 20
-9.359499748221667
 30
0.0
 10
8.843642577433423
 20
-9.315855121355133
 30
0.0
 10
8.760941157851105
 20
-9.28933084625897
 30
0.0
 10
8.630428630530393
 20
-9.227811602347485
 30
0.0
 10
8.580884911803048
 20
-9.192170541552352
 30
0.0
 10
8.515622529409416
 20
-9.111967715424031
 30
0.0
 10
8.49989598223425
 20
-9.067930088900274
 30
0.0
 10
8.49989598223425
 20
-9.019709893946667
 30
0.0
  0
SPLINE
  5
A1
330
1F
100
AcDbEntity
  8
0
  6
Continuous
 62
     4
370
    15
100
AcDbSpline
210
0.0
220
0.0
230
1.0
 70
     8
 71
     3
 72
     8
 73
     4
 74
     0
 42
0.000000001
 43
0.00000001
 40
0.0
 40
0.0
 40
0.0
 40
0.0
 40
1.0
 40
1.0
 40
1.0
 40
1.0
 10
9.99999999999998
 20
-9.459793222227175
 30
0.0
 10
9.75572247094796
 20
-9.44217084109474
 30
0.0
 10
9.511135432097273
 20
-9.419237611211624
 30
0.0
 10
9.266853644309514
 20
-9.391051082445692
 30
0.0
  0
LINE
  5
A2
330
1F
100
AcDbEntity
  8
0
  6
Continuous
 62
     4
370
    15
100
AcDbLine
 10
10.00000000000001
 20
9.54635414949589
 30
0.0
 11
10.00000000000001
 21
8.64914253012262
 31
0.0
  0
SPLINE
  5
A3
330
1F
100
AcDbEntity
  8
0
  6
Continuous
 62
     4
370
    15
100
AcDbSpline
210
0.0
220
0.0
230
1.0
 70
     8
 71
     3
 72
    14
 73
    10
 74
     0
 42
0.000000001
 43
0.00000001
 40
0.0
 40
0.0
 40
0.0
 40
0.0
 40
0.25
 40
0.25
 40
0.5
 40
0.5
 40
0.75
 40
0.75
 40
1.0
 40
1.0
 40
1.0
 40
1.0
 10
8.499895982234294
 20
7.666719888667108
 30
0.0
 10
8.499895982234294
 20
7.79896414618463
 30
0.0
 10
8.532454446899232
 20
7.921717574251088
 30
0.0
 10
8.670427814485828
 20
8.149399076789347
 30
0.0
 10
8.772261375000078
 20
8.248288070806042
 30
0.0
 10
9.042883287671643
 20
8.419362431696946
 30
0.0
 10
9.205452246960794
 20
8.487571738500149
 30
0.0
 10
9.580150516525192
 20
8.593592204604693
 30
0.0
 10
9.783123237974458
 20
8.629051557430625
 30
0.0
 10
9.999999999999922
 20
8.649142530122685
 30
0.0
  0
LINE
  5
A4
330
1F
100
AcDbEntity
  8
0
  6
Continuous
 62
     4
370
    15
100
AcDbLine
 10
8.499895982234294
 20
7.666719888667108
 30
0.0
 11
8.499895982234294
 21
3.018817404044774
 31
0.0
  0
SPLINE
  5
A5
330
1F
100
AcDbEntity
  8
0
  6
Continuous
 62
     4
370
    15
100
AcDbSpline
210
0.0
220
0.0
230
1.0
 70
     8
 71
     3
 72
    14
 73
    10
 74
     0
 42
0.000000001
 43
0.00000001
 40
0.0
 40
0.0
 40
0.0
 40
0.0
 40
0.25
 40
0.25
 40
0.5
 40
0.5
 40
0.75
 40
0.75
 40
1.0
 40
1.0
 40
1.0
 40
1.0
 10
9.266853644309512
 20
1.481577676809167
 30
0.0
 10
9.144308501527489
 20
1.572721634391577
 30
0.0
 10
9.035378406187753
 20
1.676343664874336
 30
0.0
 10
8.843642577433421
 20
1.907072362450547
 30
0.0
 10
8.760941157851104
 20
2.035155533073743
 30
0.0
 10
8.63042863053039
 20
2.301087466706993
 30
0.0
 10
8.580884911803047
 20
2.441846080266054
 30
0.0
 10
8.515622529409416
 20
2.728797617281475
 30
0.0
 10
8.49989598223425
 20
2.873373795986759
 30
0.0
 10
8.499895982234248
 20
3.018817404044761
 30
0.0
  0
SPLINE
  5
A6
330
1F
100
AcDbEntity
  8
0
  6
Continuous
 62
     4
370
    15
100
AcDbSpline
210
0.0
220
0.0
230
1.0
 70
     8
 71
     3
 72
     8
 73
     4
 74
     0
 42
0.000000001
 43
0.00000001
 40
0.0
 40
0.0
 40
0.0
 40
0.0
 40
1.0
 40
1.0
 40
1.0
 40
1.0
 10
9.99999999999998
 20
0.9342996657613211
 30
0.0
 10
9.755722470947958
 20
1.117312112375659
 30
0.0
 10
9.511135432097273
 20
1.299891088513406
 30
0.0
 10
9.266853644309512
 20
1.481577676809166
 30
0.0
  0
LINE
  5
A7
330
1F
100
AcDbEntity
  8
0
  6
Continuous
 62
     1
370
    15
100
AcDbLine
 10
10.00000000000001
 20
0.934299665761298
 30
0.0
 11
10.00000000000001
 21
-4.014348101553251
 31
0.0
  0
SPLINE
  5
A8
330
1F
100
AcDbEntity
  8
0
  6
Continuous
 62
     4
370
    15
100
AcDbSpline
210
0.0
220
0.0
230
1.0
 70
     8
 71
     3
 72
    14
 73
    10
 74
     0
 42
0.000000001
 43
0.00000001
 40
0.0
 40
0.0
 40
0.0
 40
0.0
 40
0.25
 40
0.25
 40
0.5
 40
0.5
 40
0.75
 40
0.75
 40
1.0
 40
1.0
 40
1.0
 40
1.0
 10
8.499895982234294
 20
-5.659667564448518
 30
0.0
 10
8.499895982234294
 20
-5.481696810852399
 30
0.0
 10
8.532454446899234
 20
-5.303517195397194
 30
0.0
 10
8.67042781448583
 20
-4.949046512701489
 30
0.0
 10
8.772261375000078
 20
-4.782173147749843
 30
0.0
 10
9.042883287671643
 20
-4.476397859349298
 30
0.0
 10
9.205452246960794
 20
-4.344746243059527
 30
0.0
 10
9.580150516525192
 20
-4.132729098199336
 30
0.0
 10
9.783123237974458
 20
-4.057299897787093
 30
0.0
 10
9.999999999999922
 20
-4.014348101553116
 30
0.0
  0
LINE
  5
A9
330
1F
100
AcDbEntity
  8
0
  6
Continuous
 62
     4
370
    15
100
AcDbLine
 10
8.499895982234294
 20
-5.659667564448518
 30
0.0
 11
8.499895982234296
 21
-9.019709893946663
 31
0.0
  0
LINE
  5
AA
330
1F
100
AcDbEntity
  8
0
  6
Continuous
 62
     4
370
    15
100
AcDbLine
 10
-52.99999999999999
 20
9.546354149495881
 30
0.0
 11
-52.99999999999999
 21
-9.503645850504117
 31
0.0
  0
LINE
  5
AB
330
1F
100
AcDbEntity
  8
0
  6
Continuous
 62
     4
370
    15
100
AcDbLine
 10
-53.49999999999999
 20
9.04635414949588
 30
0.0
 11
-53.49999999999999
 21
-9.003645850504094
 31
0.0
  0
SPLINE
  5
AC
330
1F
100
AcDbEntity
  8
0
  6
Continuous
 62
     1
370
    15
100
AcDbSpline
210
0.0
220
0.0
230
1.0
 70
    24
 71
     3
 72
    19
 73
    15
 74
     0
 42
0.000000001
 43
0.00000001
 40
0.0
 40
0.0
 40
0.0
 40
0.0
 40
0.2500000000000001
 40
0.2500000000000001
 40
0.3750000000000002
 40
0.3750000000000002
 40
0.5000000000000002
 40
0.5000000000000002
 40
0.6250000000000002
 40
0.6250000000000002
 40
0.7500000000000003
 40
0.8750000000000001
 40
0.8750000000000001
 40
1.0
 40
1.0
 40
1.0
 40
1.0
 10
10.00000000000001
 20
8.649142530122619
 30
0.0
 10
10.00000000000001
 20
8.109199232609095
 30
0.0
 10
10.00000000000001
 20
7.55569580589009
 30
0.0
 10
10.00000000000001
 20
6.703765853804984
 30
0.0
 10
10.00000000000001
 20
6.416992840094298
 30
0.0
 10
10.00000000000001
 20
5.854187254575145
 30
0.0
 10
10.00000000000001
 20
5.575926682668193
 30
0.0
 10
10.00000000000001
 20
5.026036582454386
 30
0.0
 10
10.00000000000001
 20
4.752134861167496
 30
0.0
 10
10.00000000000001
 20
4.222679659794568
 30
0.0
 10
10.00000000000001
 20
3.717350616111136
 30
0.0
 10
10.00000000000001
 20
3.260053557341967
 30
0.0
 10
10.00000000000001
 20
2.827892610483052
 30
0.0
 10
10.00000000000001
 20
2.628148614211282
 30
0.0
 10
10.00000000000001
 20
2.445926869920476
 30
0.0
  0
SPLINE
  5
AE
330
1F
100
AcDbEntity
  8
0
  6
Continuous
 62
     1
370
    15
100
AcDbSpline
210
0.0
220
0.0
230
1.0
 70
    24
 71
     3
 72
    10
 73
     6
 74
     0
 42
0.000000001
 43
0.00000001
 40
0.0
 40
0.0
 40
0.0
 40
0.0
 40
0.2925289352724866
 40
0.6775333590573615
 40
1.0
 40
1.0
 40
1.0
 40
1.0
 10
10.00000000000001
 20
-4.086234595455516
 30
0.0
 10
10.00000000000001
 20
-4.183154802863414
 30
0.0
 10
10.00000000000001
 20
-4.407634044974773
 30
0.0
 10
10.00000000000001
 20
-4.906227312772245
 30
0.0
 10
10.00000000000001
 20
-5.340684191593989
 30
0.0
 10
10.00000000000001
 20
-5.538710453490695
 30
0.0
  0
SPLINE
  5
AF
330
1F
100
AcDbEntity
  8
0
  6
Continuous
 62
     1
370
    15
100
AcDbSpline
210
0.0
220
0.0
230
1.0
 70
    24
 71
     3
 72
    10
 73
     6
 74
     0
 42
0.000000001
 43
0.00000001
 40
0.0
 40
0.0
 40
0.0
 40
0.0
 40
0.5
 40
0.5
 40
1.0
 40
1.0
 40
1.0
 40
1.0
 10
10.00000000000001
 20
-5.538710453494815
 30
0.0
 10
10.00000000000001
 20
-6.058791958289755
 30
0.0
 10
10.00000000000001
 20
-6.669079750485476
 30
0.0
 10
10.00000000000001
 20
-8.006457523122656
 30
0.0
 10
10.00000000000001
 20
-8.732287229216587
 30
0.0
 10
10.00000000000001
 20
-9.459793222227184
 30
0.0
  0
SPLINE
  5
B0
330
1F
100
AcDbEntity
  8
0
  6
Continuous
 62
     1
370
    15
100
AcDbSpline
210
0.0
220
0.0
230
1.0
 70
     8
 71
     3
 72
    23
 73
    19
 74
     0
 42
0.000000001
 43
0.00000001
 40
0.0
 40
0.0
 40
0.0
 40
0.0
 40
0.0470759303933306
 40
0.1144689320860281
 40
0.1780528288962493
 40
0.2416721918994469
 40
0.3052196604896678
 40
0.3687605193913235
 40
0.4323659594557848
 40
0.4959665249408312
 40
0.5595060075942719
 40
0.6230556998547372
 40
0.6866776863078639
 40
0.7502574641287738
 40
0.8126565735660793
 40
0.8750893117450288
 40
0.9375822043997943
 40
1.0
 40
1.0
 40
1.0
 40
1.0
 10
18.31509531654836
 20
8.059705990212581
 30
0.0
 10
18.76493440283196
 20
8.23959226177385
 30
0.0
 10
19.85875452252384
 20
8.677000279640096
 30
0.0
 10
21.55998622057128
 20
9.134827800665853
 30
0.0
 10
23.41960396736335
 20
9.46086004770312
 30
0.0
 10
25.2431690906114
 20
9.578154452747523
 30
0.0
 10
27.06517312971309
 20
9.498879320941828
 30
0.0
 10
28.88701243762813
 20
9.222289344330024
 30
0.0
 10
30.71027302780689
 20
8.755096041317163
 30
0.0
 10
32.53343260635006
 20
8.106673604712771
 30
0.0
 10
34.35523048882769
 20
7.290076780970656
 30
0.0
 10
36.17729177415492
 20
6.322453676607767
 30
0.0
 10
38.00089240531855
 20
5.225016011939121
 30
0.0
 10
39.81277784593537
 20
4.026142395915049
 30
0.0
 10
41.61272760004289
 20
2.752760428473735
 30
0.0
 10
43.40263027723539
 20
1.432907486849403
 30
0.0
 10
45.19377318431861
 20
0.0842187934946581
 30
0.0
 10
46.38715064979269
 20
-0.8124008306330684
 30
0.0
 10
46.98348064968674
 20
-1.260441116150512
 30
0.0
  0
SPLINE
  5
B1
330
1F
100
AcDbEntity
  8
0
  6
Continuous
 62
     1
370
    15
100
AcDbSpline
210
0.0
220
0.0
230
1.0
 70
     8
 71
     3
 72
    16
 73
    12
 74
     0
 42
0.000000001
 43
0.00000001
 40
0.0
 40
0.0
 40
0.0
 40
0.0
 40
0.1169703084390745
 40
0.2338650911389032
 40
0.3507336475945361
 40
0.4676254561781712
 40
0.5845898366582991
 40
0.7015657997368933
 40
0.8117763049779232
 40
0.9219599125324179
 40
0.9999999999999999
 40
0.9999999999999999
 40
0.9999999999999999
 40
0.9999999999999999
 10
48.10000000000001
 20
2.130918257095797
 30
0.0
 10
47.4357836783195
 20
2.613707000615372
 30
0.0
 10
46.10777990814334
 20
3.578972759171966
 30
0.0
 10
44.11673007272639
 20
4.925236849034967
 30
0.0
 10
42.12621125230541
 20
6.153540264553301
 30
0.0
 10
40.1352176408097
 20
7.22925066600078
 30
0.0
 10
38.14309011046404
 20
8.12591761506596
 30
0.0
 10
36.18872071579206
 20
8.810644088016522
 30
0.0
 10
34.27368288710989
 20
9.270843139629854
 30
0.0
 10
32.57983396521469
 20
9.519476913997142
 30
0.0
 10
31.51118517276559
 20
9.523124406979681
 30
0.0
 10
31.06810894251163
 20
9.52463670685968
 30
0.0
  0
LINE
  5
B2
330
1F
100
AcDbEntity
  8
0
  6
Continuous
 62
     1
370
    15
100
AcDbLine
 10
48.10000000000001
 20
-0.4786458505041413
 30
0.0
 11
48.10000000000001
 21
2.130918257095982
 31
0.0
  0
LINE
  5
B3
330
1F
100
AcDbEntity
  8
0
  6
Continuous
 62
     1
370
    15
100
AcDbLine
 10
48.10000000000001
 20
-0.4786458505041412
 30
0.0
 11
46.98348064968672
 21
-1.260441116150514
 31
0.0
  0
SPLINE
  5
B4
330
1F
100
AcDbEntity
  8
0
  6
Continuous
 62
     1
370
    15
100
AcDbSpline
210
0.0
220
0.0
230
1.0
 70
     8
 71
     3
 72
    27
 73
    23
 74
     0
 42
0.000000001
 43
0.00000001
 40
0.0
 40
0.0
 40
0.0
 40
0.0
 40
0.0547666385505173
 40
0.1095442875622386
 40
0.1643659663135878
 40
0.2191800113594654
 40
0.2739541991142201
 40
0.3287219255840159
 40
0.3803941375484706
 40
0.4320951715375728
 40
0.483737779674647
 40
0.5353750163694899
 40
0.5870647357164005
 40
0.6387504936782213
 40
0.6903866119485411
 40
0.7420310271777562
 40
0.7937341931447269
 40
0.8454030577634
 40
0.8961124381409697
 40
0.9468491473164506
 40
0.99763474174403
 40
1.0
 40
1.0
 40
1.0
 40
1.0
 10
9.99999999999998
 20
8.966714926609178
 30
0.0
 10
10.64393166678932
 20
8.779796222422982
 30
0.0
 10
11.93192445846189
 20
8.405921235312963
 30
0.0
 10
13.86448532753022
 20
7.593230038759736
 30
0.0
 10
15.79838999212847
 20
6.619165647569862
 30
0.0
 10
17.73208468366465
 20
5.486997983674494
 30
0.0
 10
19.66452211870076
 20
4.228052281974757
 30
0.0
 10
21.55999476359429
 20
2.896452641740449
 30
0.0
 10
23.41960173335089
 20
1.52873359480166
 30
0.0
 10
25.24316968849209
 20
0.1576134803232174
 30
0.0
 10
27.06517297002059
 20
-1.217522533203822
 30
0.0
 10
28.88701247893862
 20
-2.566874351322447
 30
0.0
 10
30.71027302243463
 20
-3.861715640703214
 30
0.0
 10
32.53343258652285
 20
-5.07610355152332
 30
0.0
 10
34.35523057341378
 20
-6.185315202445889
 30
0.0
 10
36.17729145539539
 20
-7.165548669683188
 30
0.0
 10
38.00089359688243
 20
-7.996282803525066
 30
0.0
 10
39.81277343708096
 20
-8.655631000498666
 30
0.0
 10
41.61274371835713
 20
-9.140511014493907
 30
0.0
 10
43.40257002452074
 20
-9.417194743972706
 30
0.0
 10
44.6249735082334
 20
-9.53234098816987
 30
0.0
 10
45.24989551637126
 20
-9.500810478718194
 30
0.0
 10
45.2777050784847
 20
-9.499407344167567
 30
0.0
  0
SPLINE
  5
B5
330
1F
100
AcDbEntity
  8
0
  6
Continuous
 62
     1
370
    15
100
AcDbSpline
210
0.0
220
0.0
230
1.0
 70
     8
 71
     3
 72
    27
 73
    23
 74
     0
 42
0.000000001
 43
0.00000001
 40
0.0
 40
0.0
 40
0.0
 40
0.0
 40
0.0540085715513577
 40
0.1079822706864034
 40
0.1619438604066321
 40
0.2159161863062868
 40
0.2699220207476958
 40
0.3239332032095245
 40
0.3748205782831893
 40
0.4256955339177059
 40
0.4766007635426736
 40
0.5275411914355899
 40
0.5784324315465209
 40
0.6293066739387524
 40
0.6802066193491122
 40
0.7311484947351461
 40
0.7820440892971712
 40
0.8329181098654547
 40
0.8829059605236076
 40
0.9329407160041598
 40
0.9829263733062055
 40
1.0
 40
1.0
 40
1.0
 40
1.0
 10
48.10000000000001
 20
-9.267099127335685
 30
0.0
 10
47.43578368009361
 20
-9.134074986551573
 30
0.0
 10
46.1077799134645
 20
-8.868112596409167
 30
0.0
 10
44.11673005145971
 20
-8.187168184389373
 30
0.0
 10
42.12621133204392
 20
-7.319502682409999
 30
0.0
 10
40.13521734297247
 20
-6.265455042676624
 30
0.0
 10
38.14309122284334
 20
-5.057044552247895
 30
0.0
 10
36.18871666544951
 20
-3.748113868596543
 30
0.0
 10
34.27369703180174
 20
-2.377655655647797
 30
0.0
 10
32.39696916066369
 20
-0.9814473791002094
 30
0.0
 10
30.51922506339649
 20
0.436834395133592
 30
0.0
 10
28.64049338714607
 20
1.845094266213731
 30
0.0
 10
26.76317949047714
 20
3.214252285217605
 30
0.0
 10
24.88646577005498
 20
4.51283950217986
 30
0.0
 10
23.0088824712055
 20
5.712605263692551
 30
0.0
 10
21.13010925688102
 20
6.786182096487247
 30
0.0
 10
19.25266078368078
 20
7.711851056439263
 30
0.0
 10
17.38710080979679
 20
8.462451275526465
 30
0.0
 10
15.53199964965241
 20
9.030166603854438
 30
0.0
 10
13.68675170568604
 20
9.388841230213535
 30
0.0
 10
12.24723424450632
 20
9.554234507952312
 30
0.0
 10
11.42287358016214
 20
9.529798634382466
 30
0.0
 10
11.21298726158865
 20
9.523577139633217
 30
0.0
  0
LINE
  5
B6
330
1F
100
AcDbEntity
  8
0
  6
Continuous
 62
     1
370
    15
100
AcDbLine
 10
48.10000000000001
 20
-9.503645850504116
 30
0.0
 11
48.10000000000001
 21
-9.267099127337973
 31
0.0
  0
SPLINE
  5
B7
330
1F
100
AcDbEntity
  8
0
  6
Continuous
 62
     1
370
    15
100
AcDbSpline
210
0.0
220
0.0
230
1.0
 70
     8
 71
     3
 72
    23
 73
    19
 74
     0
 42
0.000000001
 43
0.00000001
 40
0.0
 40
0.0
 40
0.0
 40
0.0
 40
0.0013092953143586
 40
0.0720074239622827
 40
0.1386166338616528
 40
0.2052095872921472
 40
0.2718421679697048
 40
0.3385208215448031
 40
0.4051350905983969
 40
0.471727110427875
 40
0.5383527743139993
 40
0.6050333225903424
 40
0.6716532914181238
 40
0.7382450208903594
 40
0.8036767951189818
 40
0.8691699655810705
 40
0.9345988688084452
 40
1.0
 40
1.0
 40
1.0
 40
1.0
 10
38.1800275088299
 20
-8.033516651444858
 30
0.0
 10
38.167726769138
 20
-8.03904370218362
 30
0.0
 10
37.49122195900821
 20
-8.343015374152824
 30
0.0
 10
36.18869539554832
 20
-8.752988842443267
 30
0.0
 10
34.2737025852973
 20
-9.23639136534653
 30
0.0
 10
32.39696767180329
 20
-9.485054273602952
 30
0.0
 10
30.51922546277216
 20
-9.529954146788137
 30
0.0
 10
28.64049328015626
 20
-9.36310124328822
 30
0.0
 10
26.76317951934633
 20
-8.989817628197459
 30
0.0
 10
24.88646576147958
 20
-8.417953911551297
 30
0.0
 10
23.0088824766321
 20
-7.660122747293201
 30
0.0
 10
21.13010924375361
 20
-6.733775532651443
 30
0.0
 10
19.25266083070607
 20
-5.657935203023171
 30
0.0
 10
17.38710063617332
 20
-4.464277343973752
 30
0.0
 10
15.5320002852018
 20
-3.180867249806646
 30
0.0
 10
13.68674933093193
 20
-1.838682416695513
 30
0.0
 10
11.84289373078275
 20
-0.4543923971754004
 30
0.0
 10
10.61421097043463
 20
0.4714678239877743
 30
0.0
 10
10.00000000000089
 20
0.9342996657607481
 30
0.0
  0
SPLINE
  5
B8
330
1F
100
AcDbEntity
  8
0
  6
Continuous
 62
     1
370
    15
100
AcDbSpline
210
0.0
220
0.0
230
1.0
 70
     8
 71
     3
 72
    12
 73
     8
 74
     0
 42
0.000000001
 43
0.00000001
 40
0.0
 40
0.0
 40
0.0
 40
0.0
 40
0.5
 40
0.5
 40
0.75
 40
0.75
 40
1.0
 40
1.0
 40
1.0
 40
1.0
 10
48.10000000000001
 20
-6.912906403615214
 30
0.0
 10
47.24647695001529
 20
-6.586797114092501
 30
0.0
 10
46.41762235391639
 20
-6.172377909902306
 30
0.0
 10
45.21488515330385
 20
-5.405604278451549
 30
0.0
 10
44.82141434375635
 20
-5.12337312373321
 30
0.0
 10
44.04886729128729
 20
-4.507380104009348
 30
0.0
 10
43.67337623438877
 20
-4.176284972065576
 30
0.0
 10
43.31237949217022
 20
-3.830973820173958
 30
0.0
  0
LINE
  5
B9
330
1F
100
AcDbEntity
  8
0
  6
Continuous
 62
     1
370
    15
100
AcDbLine
 10
48.10000000000001
 20
-9.267099127337973
 30
0.0
 11
48.10000000000001
 21
-6.912906403615217
 31
0.0
  0
SPLINE
  5
BA
330
1F
100
AcDbEntity
  8
0
  6
Continuous
 62
     1
370
    15
100
AcDbSpline
210
0.0
220
0.0
230
1.0
 70
    24
 71
     3
 72
    24
 73
    20
 74
     0
 42
0.000000001
 43
0.00000001
 40
0.0
 40
0.0
 40
0.0
 40
0.0
 40
0.1250000000000001
 40
0.1250000000000001
 40
0.2500000000000001
 40
0.2500000000000001
 40
0.3750000000000002
 40
0.3750000000000002
 40
0.4375000000000009
 40
0.4375000000000009
 40
0.5000000000000017
 40
0.5000000000000017
 40
0.6250000000000013
 40
0.6250000000000013
 40
0.7500000000000009
 40
0.7500000000000009
 40
0.8750000000000006
 40
0.8750000000000006
 40
1.0
 40
1.0
 40
1.0
 40
1.0
 10
46.98348064968673
 20
-1.260441116150506
 30
0.0
 10
46.98168736610668
 20
-1.261696786831406
 30
0.0
 10
46.96500052494997
 20
-1.273381038798239
 30
0.0
 10
46.89553395958882
 20
-1.322022051517655
 30
0.0
 10
46.84280948619759
 20
-1.358940125234338
 30
0.0
 10
46.69655596268207
 20
-1.461347944889642
 30
0.0
 10
46.60298994878932
 20
-1.526863573137557
 30
0.0
 10
46.42410524835365
 20
-1.652119988853005
 30
0.0
 10
46.35778359245214
 20
-1.698558912262029
 30
0.0
 10
46.21453996957022
 20
-1.798859176804403
 30
0.0
 10
46.13726159930931
 20
-1.852970074201433
 30
0.0
 10
45.88758402611374
 20
-2.027796193074884
 30
0.0
 10
45.69427258288891
 20
-2.163154322843115
 30
0.0
 10
45.27653050585315
 20
-2.455660474210946
 30
0.0
 10
45.04986160277905
 20
-2.614375748821134
 30
0.0
 10
44.56938860996235
 20
-2.950806560297579
 30
0.0
 10
44.32287822137582
 20
-3.123414992632973
 30
0.0
 10
43.81873786530284
 20
-3.476417870270992
 30
0.0
 10
43.56310802283717
 20
-3.655411812956685
 30
0.0
 10
43.31237949217017
 20
-3.830973820173973
 30
0.0
  0
SPLINE
  5
BB
330
1F
100
AcDbEntity
  8
0
  6
Continuous
 62
     1
370
    15
100
AcDbSpline
210
0.0
220
0.0
230
1.0
 70
     8
 71
     3
 72
    16
 73
    12
 74
     0
 42
0.000000001
 43
0.00000001
 40
0.0
 40
0.0
 40
0.0
 40
0.0
 40
0.1252762613805697
 40
0.2505777087037537
 40
0.3759798721073132
 40
0.5013645737475201
 40
0.6266581035986094
 40
0.7519368535463709
 40
0.8701347510894198
 40
0.988398577738012
 40
1.0
 40
1.0
 40
1.0
 40
1.0
 10
9.99999999999998
 20
-3.250670539787965
 30
0.0
 10
10.64393166068827
 20
-3.699196020703904
 30
0.0
 10
11.93192444015751
 20
-4.596337155541417
 30
0.0
 10
13.86448540078944
 20
-5.814217611143801
 30
0.0
 10
15.79838971717781
 20
-6.900764130799906
 30
0.0
 10
17.73208570964461
 20
-7.824898310362723
 30
0.0
 10
19.66451829287697
 20
-8.564844604196482
 30
0.0
 10
21.56000869921986
 20
-9.099844197744162
 30
0.0
 10
23.41955297452074
 20
-9.404278550185415
 30
0.0
 10
24.69543471033576
 20
-9.529755252826252
 30
0.0
 10
25.36292829346893
 20
-9.497750173390465
 30
0.0
 10
25.42255837141555
 20
-9.494891021737672
 30
0.0
  0
LINE
  5
BC
330
1F
100
AcDbEntity
  8
0
  6
Continuous
 62
     1
370
    15
100
AcDbLine
 10
10.00000000000002
 20
-3.250670539787996
 30
0.0
 11
10.00000000000002
 21
0.9342996657607777
 31
0.0
  0
SPLINE
  5
BD
330
1F
100
AcDbEntity
  8
0
  6
Continuous
 62
     1
370
    15
100
AcDbSpline
210
0.0
220
0.0
230
1.0
 70
     8
 71
     3
 72
    12
 73
     8
 74
     0
 42
0.000000001
 43
0.00000001
 40
0.0
 40
0.0
 40
0.0
 40
0.0
 40
0.1867285892569414
 40
0.3899275020258684
 40
0.5932359247509698
 40
0.7967402368756845
 40
1.0
 40
1.0
 40
1.0
 40
1.0
 10
38.1800275088299
 20
8.07622495043664
 30
0.0
 10
38.72804327610652
 20
8.285979993815523
 30
0.0
 10
39.87241233097541
 20
8.723991443628995
 30
0.0
 10
41.61271735842587
 20
9.177730725284336
 30
0.0
 10
43.40263301200327
 20
9.47184792568737
 30
0.0
 10
45.19377250131111
 20
9.586342048166976
 30
0.0
 10
46.3871504222148
 20
9.501906047860436
 30
0.0
 10
46.98348064968674
 20
9.459713429421928
 30
0.0
  0
SPLINE
  5
BE
330
1F
100
AcDbEntity
  8
0
  6
Continuous
 62
     1
370
    15
100
AcDbSpline
210
0.0
220
0.0
230
1.0
 70
     8
 71
     3
 72
    16
 73
    12
 74
     0
 42
0.000000001
 43
0.00000001
 40
0.0
 40
0.0
 40
0.0
 40
0.0
 40
0.171803878071134
 40
0.3173109949418254
 40
0.4675259253423183
 40
0.5668556793547268
 40
0.6688900546092319
 40
0.7683042920873558
 40
0.8709192659317513
 40
0.9659434948324295
 40
1.0
 40
1.0
 40
1.0
 40
1.0
 10
46.98348064968673
 20
9.45971342942194
 30
0.0
 10
46.96984953612991
 20
9.099615156412998
 30
0.0
 10
46.94467372372429
 20
8.434536215424304
 30
0.0
 10
46.7518964596772
 20
7.478560097175029
 30
0.0
 10
46.47620129564783
 20
6.716789902265985
 30
0.0
 10
46.13136468663926
 20
6.10914407461838
 30
0.0
 10
45.76956840243594
 20
5.656054010597535
 30
0.0
 10
45.34364589706205
 20
5.28195638850692
 30
0.0
 10
44.8802357153618
 20
5.019154447299202
 30
0.0
 10
44.49784015361598
 20
4.87276181946743
 30
0.0
 10
44.27752373472837
 20
4.843957888834157
 30
0.0
 10
44.2193957165349
 20
4.836358294521812
 30
0.0
  0
SPLINE
  5
BF
330
1F
100
AcDbEntity
  8
0
  6
Continuous
 62
     1
370
    15
100
AcDbSpline
210
0.0
220
0.0
230
1.0
 70
     8
 71
     3
 72
     9
 73
     5
 74
     0
 42
0.000000001
 43
0.00000001
 40
0.0
 40
0.0
 40
0.0
 40
0.0
 40
0.5984153118015353
 40
1.0
 40
1.0
 40
1.0
 40
1.0
 10
48.10000000000001
 20
2.363233470341497
 30
0.0
 10
47.77187321522889
 20
2.560067976764741
 30
0.0
 10
47.22354703055412
 20
2.888994230056408
 30
0.0
 10
46.68875086788672
 20
3.181563578949969
 30
0.0
 10
46.47398491765221
 20
3.299054949701818
 30
0.0
  0
LINE
  5
C0
330
1F
100
AcDbEntity
  8
0
  6
Continuous
 62
     1
370
    15
100
AcDbLine
 10
48.10000000000001
 20
2.138159428812302
 30
0.0
 11
48.10000000000001
 21
2.363233470341498
 31
0.0
  0
SPLINE
  5
C1
330
1F
100
AcDbEntity
  8
0
  6
Continuous
 62
     1
370
    15
100
AcDbSpline
210
0.0
220
0.0
230
1.0
 70
     8
 71
     3
 72
    12
 73
     8
 74
     0
 42
0.000000001
 43
0.00000001
 40
0.0
 40
0.0
 40
0.0
 40
0.0
 40
0.1129323054470621
 40
0.3346756064261829
 40
0.5566269745658988
 40
0.7783605459403847
 40
1.0
 40
1.0
 40
1.0
 40
1.0
 10
18.31509531654827
 20
-8.016997691220803
 30
0.0
 10
18.00212713022167
 20
-8.146979708390962
 30
0.0
 10
17.07464391683719
 20
-8.532182244093324
 30
0.0
 10
15.5320008496977
 20
-8.98012561477897
 30
0.0
 10
13.68674918050295
 20
-9.353903642709977
 30
0.0
 10
11.842893768356
 20
-9.534261720265372
 30
0.0
 10
10.61421098295727
 20
-9.484612541800553
 30
0.0
 10
10.00000000000089
 20
-9.45979322222495
 30
0.0
  0
SPLINE
  5
C2
330
1F
100
AcDbEntity
  8
0
  6
Continuous
 62
     4
370
    15
100
AcDbSpline
210
0.0
220
0.0
230
1.0
 70
    24
 71
     3
 72
    13
 73
     9
 74
     0
 42
0.000000001
 43
0.00000001
 40
0.0
 40
0.0
 40
0.0
 40
0.0
 40
0.1542535735333256
 40
0.3268709456072565
 40
0.4994883176811875
 40
0.6721056897551176
 40
0.8447230618290478
 40
0.9999999999999999
 40
0.9999999999999999
 40
0.9999999999999999
 40
0.9999999999999999
 10
10.00000000000002
 20
-4.086234595455516
 30
0.0
 10
10.00000000000002
 20
-4.269455818461115
 30
0.0
 10
10.00000000000002
 20
-4.657710644896108
 30
0.0
 10
10.00000000000002
 20
-5.436877795577113
 30
0.0
 10
10.00000000000002
 20
-6.350690950730941
 30
0.0
 10
10.00000000000002
 20
-7.367755073563865
 30
0.0
 10
10.00000000000002
 20
-8.414001897425987
 30
0.0
 10
10.00000000000002
 20
-9.123706844137189
 30
0.0
 10
10.00000000000002
 20
-9.459793222238085
 30
0.0
  0
LINE
  5
C3
330
1F
100
AcDbEntity
  8
0
  6
Continuous
 62
     1
370
    15
100
AcDbLine
 10
48.10000000000001
 20
-0.4786458505041081
 30
0.0
 11
48.10000000000001
 21
-6.912906403615212
 31
0.0
  0
ELLIPSE
  5
C4
330
1F
100
AcDbEntity
  8
0
  6
Continuous
 62
     1
370
    15
100
AcDbEllipse
 10
48.81407400337107
 20
0.0213541494958895
 30
0.0
 11
13.60310976421861
 21
5.551115123125783E-17
 31
0.0
210
0.0
220
0.0
230
1.0
 40
0.7002075382097118
 41
1.623313903204208
 42
1.705777526183487
  0
LINE
  5
C5
330
1F
100
AcDbEntity
  8
0
  6
Continuous
 62
     1
370
    15
100
AcDbLine
 10
48.10000000000001
 20
2.363233470341498
 30
0.0
 11
48.10000000000001
 21
9.53322173688377
 31
0.0
  0
LINE
  5
C6
330
1F
100
AcDbEntity
  8
0
  6
Continuous
 62
     1
370
    15
100
AcDbLine
 10
48.10000000000001
 20
9.53322173688377
 30
0.0
 11
48.10000000000001
 21
9.546354149495894
 31
0.0
  0
LINE
  5
C7
330
1F
100
AcDbEntity
  8
중심선
100
AcDbLine
 10
-56.49999999999999
 20
-0.0000000000000035
 30
0.0
 11
51.10000000000001
 21
0.0
 31
0.0
  0
CIRCLE
  5
C8
330
1F
100
AcDbEntity
  8
외형선
100
AcDbCircle
 10
0.0000000000000104
 20
-0.0000000000000035
 30
0.0
 40
3.000000000000005
  0
INSERT
  5
C9
330
1F
100
AcDbEntity
  8
0
  6
Continuous
 62
     7
100
AcDbBlockReference
 66
     1
  2
블럭10
 10
-19.44076129968193
 20
-52.04717430164393
 30
0.0
  0
ATTRIB
  5
CA
330
C9
100
AcDbEntity
  8
FORMAT
 62
     2
100
AcDbText
 10
-32.07144257415528
 20
-49.97180738881174
 30
0.0
 40
4.233333333333333
  1
EH108048 [ 4 FLUTE ]
 41
0.75
  7
SLDTEXTSTYLE0
 11
-32.07144257415528
 21
-52.08847405547841
 31
0.0
100
AcDbAttribute
  2
AUTOATTR0
 70
     0
 74
     1
  0
SEQEND
  5
CB
330
C9
100
AcDbEntity
  8
0
  6
Continuous
 62
     7
  0
HATCH
  5
CC
330
1F
100
AcDbEntity
  8
중심선
100
AcDbHatch
 10
0.0
 20
0.0
 30
0.0
210
0.0
220
0.0
230
1.0
  2
SOLID
 70
     1
 71
     0
 91
        1
 92
        0
 93
        4
 72
     1
 10
-13.72585199530107
 20
-35.8
 11
-17.17212723913836
 21
-35.8
 72
     1
 10
-17.17212723913836
 20
-35.8
 11
-19.30035709834238
 21
-38.33632558057259
 72
     1
 10
-19.30035709834238
 20
-38.33632558057259
 11
-15.85404876939195
 21
-38.3362861512701
 72
     1
 10
-15.85404876939195
 20
-38.3362861512701
 11
-13.72585199530107
 21
-35.8
 97
        0
 75
     0
 76
     1
 98
        1
 10
0.0
 20
0.0
  0
HATCH
  5
CD
330
1F
100
AcDbEntity
  8
중심선
100
AcDbHatch
 10
0.0
 20
0.0
 30
0.0
210
0.0
220
0.0
230
1.0
  2
SOLID
 70
     1
 71
     0
 91
        1
 92
        0
 93
        4
 72
     1
 10
-8.713088004265124
 20
-35.8
 11
-12.15936324810241
 21
-35.8
 72
     1
 10
-12.15936324810241
 20
-35.8
 11
-16.69050125645979
 21
-41.20000000000002
 72
     1
 10
-16.69050125645979
 20
-41.20000000000002
 11
-13.24422601262251
 21
-41.20000000000002
 72
     1
 10
-13.24422601262251
 20
-41.20000000000002
 11
-8.713088004265124
 21
-35.8
 97
        0
 75
     0
 76
     1
 98
        1
 10
0.0
 20
0.0
  0
HATCH
  5
CE
330
1F
100
AcDbEntity
  8
중심선
100
AcDbHatch
 10
0.0
 20
0.0
 30
0.0
210
0.0
220
0.0
230
1.0
  2
SOLID
 70
     1
 71
     0
 91
        1
 92
        0
 93
        4
 72
     1
 10
-3.700324013229228
 20
-35.80000000000003
 11
-7.146599257066343
 21
-35.8
 72
     1
 10
-7.146599257066343
 20
-35.8
 11
-14.19503615895559
 21
-44.20000000000002
 72
     1
 10
-14.19503615895559
 20
-44.20000000000002
 11
-10.74876091511831
 21
-44.20000000000002
 72
     1
 10
-10.74876091511831
 20
-44.20000000000002
 11
-3.700324013229228
 21
-35.80000000000003
 97
        0
 75
     0
 76
     1
 98
        1
 10
0.0
 20
0.0
  0
HATCH
  5
CF
330
1F
100
AcDbEntity
  8
중심선
100
AcDbHatch
 10
0.0
 20
0.0
 30
0.0
210
0.0
220
0.0
230
1.0
  2
SOLID
 70
     1
 71
     0
 91
        1
 92
        0
 93
        6
 72
     3
 10
1.099566417782971
 20
-40.00000000005127
 11
3.960054785062284
 21
1.540850780301639E-10
 40
0.3939339440162633
 50
17.09539180608433
 51
320.0019657685079
 73
     0
 72
     1
 10
2.782566073483567
 20
-38.5878940046383
 11
5.087867947184605
 21
-36.65356729459038
 72
     3
 10
1.099566417730125
 20
-40.00000000000015
 11
6.600054785286829
 21
-1.249000902703301E-13
 40
0.6363583540795982
 50
39.99873849337408
 51
368.4976242363724
 73
     1
 72
     1
 10
7.524898909630734
 20
-39.03999999993002
 11
-0.2203662754339533
 21
-39.03999999992999
 72
     1
 10
-0.220366275433953
 20
-39.03999999992999
 11
-0.2203913198798868
 21
-40.95999999992991
 72
     1
 10
-0.2203913198798868
 20
-40.95999999992991
 11
4.22098844959215
 21
-40.95999999992988
 97
        0
 75
     0
 76
     1
 98
        1
 10
0.0
 20
0.0
  0
POINT
  5
D0
330
1F
100
AcDbEntity
  8
치수문자_일반주서
100
AcDbPoint
 10
0.0000000000000104
 20
-0.0000000000000035
 30
0.0
  0
DIMENSION
  5
D1
330
1F
100
AcDbEntity
  8
0
100
AcDbDimension
  2
_D
 10
-53.49999999999999
 20
30.99404531174228
 30
0.0
 11
-2.561529519760431
 21
30.99404531174228
 31
0.0
 70
   160
  1
<>
 71
     2
 42
101.6
  3
ISO-25
100
AcDbAlignedDimension
 13
48.10000000000001
 23
9.53322173688377
 33
0.0
 14
-53.49999999999999
 24
9.04635414949588
 34
0.0
 50
0.000000000000006
100
AcDbRotatedDimension
1001
ACAD
1000
DSTYLE
1002
{
1070
   179
1070
     2
1070
   170
1070
     1
1070
   143
1040
0.0393700787401575
1070
   273
1070
     7
1070
    41
1040
3.302
1070
   289
1070
     0
1070
    44
1040
1.0
1070
    42
1040
1.0
1070
   147
1040
1.524
1070
   140
1040
3.5
1070
   284
1070
     0
1070
    78
1070
     0
1002
}
  0
DIMENSION
  5
DC
330
1F
100
AcDbEntity
  8
0
100
AcDbDimension
  2
_D_1
 10
10.00000000000001
 20
21.61350033955379
 30
0.0
 11
29.05000000000001
 21
21.61350033955379
 31
0.0
 70
   160
  1
<>
 71
     2
 42
38.09999999999999
  3
ISO-25
100
AcDbAlignedDimension
 13
48.10000000000001
 23
9.53322173688377
 33
0.0
 14
10.00000000000002
 24
-9.503645850504114
 34
0.0
100
AcDbRotatedDimension
1001
ACAD
1000
DSTYLE
1002
{
1070
   179
1070
     2
1070
   170
1070
     1
1070
   143
1040
0.0393700787401575
1070
   273
1070
     7
1070
    41
1040
3.302
1070
   289
1070
     0
1070
    44
1040
1.0
1070
    42
1040
1.0
1070
   147
1040
1.524
1070
   140
1040
3.5
1070
   284
1070
     0
1070
    78
1070
     0
1002
}
  0
DIMENSION
  5
F4
330
1F
100
AcDbEntity
  8
0
100
AcDbDimension
  2
_D_3
 10
65.2206857720288
 20
9.546354149495956
 30
0.0
 11
65.22068577202884
 21
0.0213541494958888
 31
0.0
 70
   160
  1
%%c<>
 71
     2
 42
19.05000000000001
  3
ISO-25
100
AcDbAlignedDimension
 13
48.10000000000001
 23
-9.503645850504116
 33
0.0
 14
48.10000000000001
 24
9.546354149495894
 34
0.0
 50
90.0000000000002
100
AcDbRotatedDimension
1001
ACAD
1000
DSTYLE
1002
{
1070
   179
1070
     2
1070
   170
1070
     1
1070
   143
1040
0.0393700787401575
1070
   273
1070
     7
1070
    41
1040
3.302
1070
   289
1070
     0
1070
    44
1040
1.0
1070
    42
1040
1.0
1070
   147
1040
1.524
1070
   140
1040
3.5
1070
   284
1070
     0
1070
    78
1070
     0
1002
}
  0
INSERT
  5
107
330
1F
100
AcDbEntity
  8
외형선
100
AcDbBlockReference
  2
SW_DOWELSYMBOL_0
 10
0.0000000000000104
 20
-0.0000000000000035
 30
0.0
  0
DIMENSION
  5
12D
330
1F
100
AcDbEntity
  8
0
100
AcDbDimension
  2
*D7
 10
-63.66515861038648
 20
-9.50364585050411
 30
0.0
 11
-63.66515861038648
 21
0.0213541494958847
 31
0.0
 70
   160
  1
{%%c<>}
 71
     5
 42
19.05
  3
ISO-25
100
AcDbAlignedDimension
 13
-52.99999999999999
 23
9.546354149495887
 33
0.0
 14
-52.99999999999999
 24
-9.50364585050411
 34
0.0
 50
90.0
100
AcDbRotatedDimension
1001
ACAD
1000
DSTYLE
1002
{
1070
   283
1070
     0
1070
   273
1070
     7
1070
   170
1070
     1
1070
   289
1070
     0
1070
   179
1070
     2
1070
   143
1040
0.0393700787401575
1070
    41
1040
3.302
1070
    44
1040
1.0
1070
    42
1040
1.0
1070
   147
1040
1.524
1070
    73
1070
     0
1070
    74
1070
     0
1070
   140
1040
3.5
1070
   284
1070
     0
1070
    78
1070
     0
1002
}
  0
LINE
  5
1C5
330
1F
100
AcDbEntity
  8
0
  6
Continuous
 62
     4
370
    15
100
AcDbLine
 10
-33.49432499999998
 20
7.641354149495889
 30
0.0
 11
-21.91192499999997
 21
7.641354149495889
 31
0.0
  0
LINE
  5
1C6
330
1F
100
AcDbEntity
  8
0
  6
Continuous
 62
     4
370
    15
100
AcDbLine
 10
-33.49432499999998
 20
7.641354149495875
 30
0.0
 11
-35.39932500000012
 21
9.546354149495905
 31
0.0
  0
LINE
  5
1C7
330
1F
100
AcDbEntity
  8
0
  6
Continuous
 62
     4
370
    15
100
AcDbLine
 10
-21.91192499999997
 20
7.641354149495875
 30
0.0
 11
-20.006925
 21
9.546354149495905
 31
0.0
  0
LINE
  5
1C8
330
1F
100
AcDbEntity
  8
0
  6
Continuous
 62
     4
370
    15
100
AcDbLine
 10
-35.3993250000001
 20
9.546354149495889
 30
0.0
 11
-52.99999999999999
 21
9.546354149495887
 31
0.0
  0
ENDSEC
  0
SECTION
  2
OBJECTS
  0
DICTIONARY
  5
C
330
0
100
AcDbDictionary
281
     1
  3
ACAD_GROUP
350
D
  3
ACAD_IMAGE_VARS
350
12B
  3
ACAD_LAYOUT
350
1A
  3
ACAD_MLINESTYLE
350
17
  3
ACAD_PLOTSETTINGS
350
19
  3
ACAD_PLOTSTYLENAME
350
E
  3
ACAD_SCALELIST
350
47
  3
APPDATA
350
129
  3
DWGPROPS
350
1C9
  0
DICTIONARY
  5
1B7
330
2
100
AcDbDictionary
280
     1
281
     1
  3
ACAD_LAYERSTATES
360
1B8
  0
DICTIONARY
  5
D
102
{ACAD_REACTORS
330
C
102
}
330
C
100
AcDbDictionary
281
     1
  0
RASTERVARIABLES
  5
12B
102
{ACAD_REACTORS
330
C
102
}
330
C
100
AcDbRasterVariables
 90
        0
 70
     1
 71
     1
 72
     1
  0
DICTIONARY
  5
1A
102
{ACAD_REACTORS
330
C
102
}
330
C
100
AcDbDictionary
281
     1
  3
Layout1
350
1E
  3
Layout2
350
26
  3
Model
350
22
  0
DICTIONARY
  5
17
102
{ACAD_REACTORS
330
C
102
}
330
C
100
AcDbDictionary
281
     1
  3
Standard
350
18
  0
DICTIONARY
  5
19
102
{ACAD_REACTORS
330
C
102
}
330
C
100
AcDbDictionary
281
     1
  0
ACDBDICTIONARYWDFLT
  5
E
102
{ACAD_REACTORS
330
C
102
}
330
C
100
AcDbDictionary
281
     1
  3
Normal
350
F
100
AcDbDictionaryWithDefault
340
F
  0
DICTIONARY
  5
47
102
{ACAD_REACTORS
330
C
102
}
330
C
100
AcDbDictionary
281
     1
  3
A0
350
48
  3
A1
350
49
  3
A2
350
4A
  3
A3
350
4B
  3
A4
350
4C
  3
A5
350
4D
  3
A6
350
4E
  3
A7
350
4F
  3
A8
350
50
  3
A9
350
51
  3
B0
350
52
  3
B1
350
53
  3
B2
350
54
  3
B3
350
55
  3
B4
350
56
  3
B5
350
57
  3
B6
350
58
  3
B7
350
59
  3
B8
350
5A
  3
B9
350
5B
  3
C0
350
5C
  3
C1
350
5D
  3
C2
350
5E
  3
C3
350
5F
  3
C4
350
60
  3
C5
350
61
  3
C6
350
62
  3
C7
350
63
  3
C8
350
64
  3
C9
350
65
  3
D0
350
66
  3
D1
350
67
  3
D2
350
68
  0
DICTIONARY
  5
129
102
{ACAD_REACTORS
330
C
102
}
330
C
100
AcDbDictionary
281
     1
  0
XRECORD
  5
1C9
102
{ACAD_REACTORS
330
C
102
}
330
C
100
AcDbXrecord
280
     1
  1
DWGPROPS COOKIE
  2

  3

  4

  6

  7

  8
12016016
  9

300
=
301
=
302
=
303
=
304
=
305
=
306
=
307
=
308
=
309
=
 40
0.0
 41
2458235.454702535
 42
2458283.128879549
  1

 90
        0
  0
DICTIONARY
  5
1B8
102
{ACAD_REACTORS
330
1B7
102
}
330
1B7
100
AcDbDictionary
281
     1
  0
LAYOUT
  5
1E
102
{ACAD_REACTORS
330
1A
102
}
330
1A
100
AcDbPlotSettings
  1

  2
none_device
  4

  6

 40
0.0
 41
0.0
 42
0.0
 43
0.0
 44
0.0
 45
0.0
 46
0.0
 47
0.0
 48
0.0
 49
0.0
140
0.0
141
0.0
142
1.0
143
1.0
 70
   688
 72
     1
 73
     0
 74
     5
  7

 75
    16
147
1.0
148
0.0
149
0.0
100
AcDbLayout
  1
Layout1
 70
     1
 71
     1
 10
0.0
 20
0.0
 11
420.0
 21
297.0
 12
0.0
 22
0.0
 32
0.0
 14
1.000000000000000E+20
 24
1.000000000000000E+20
 34
1.000000000000000E+20
 15
-1.000000000000000E+20
 25
-1.000000000000000E+20
 35
-1.000000000000000E+20
146
0.0
 13
0.0
 23
0.0
 33
0.0
 16
1.0
 26
0.0
 36
0.0
 17
0.0
 27
1.0
 37
0.0
 76
     0
330
1B
  0
LAYOUT
  5
26
102
{ACAD_REACTORS
330
1A
102
}
330
1A
100
AcDbPlotSettings
  1

  2
none_device
  4

  6

 40
0.0
 41
0.0
 42
0.0
 43
0.0
 44
0.0
 45
0.0
 46
0.0
 47
0.0
 48
0.0
 49
0.0
140
0.0
141
0.0
142
1.0
143
1.0
 70
   688
 72
     1
 73
     0
 74
     5
  7

 75
    16
147
1.0
148
0.0
149
0.0
100
AcDbLayout
  1
Layout2
 70
     1
 71
     2
 10
0.0
 20
0.0
 11
0.0
 21
0.0
 12
0.0
 22
0.0
 32
0.0
 14
0.0
 24
0.0
 34
0.0
 15
0.0
 25
0.0
 35
0.0
146
0.0
 13
0.0
 23
0.0
 33
0.0
 16
1.0
 26
0.0
 36
0.0
 17
0.0
 27
1.0
 37
0.0
 76
     0
330
23
  0
LAYOUT
  5
22
102
{ACAD_REACTORS
330
1A
102
}
330
1A
100
AcDbPlotSettings
  1

  2
none_device
  4
ANSI_A_(11.00_x_8.50_Inches)
  6

 40
6.35
 41
19.05
 42
6.35000508
 43
19.05000254
 44
279.4
 45
215.9
 46
133.5834574595272
 47
104.7563465051824
 48
0.0
 49
0.0
140
0.0
141
0.0
142
0.0820862635000374
143
1.0
 70
  1696
 72
     0
 73
     0
 74
     0
  7

 75
     0
147
0.0235690232323232
148
0.0
149
0.0
100
AcDbLayout
  1
Model
 70
     1
 71
     0
 10
0.0
 20
0.0
 11
420.0
 21
297.0
 12
0.0
 22
0.0
 32
0.0
 14
1.000000000000000E+20
 24
1.000000000000000E+20
 34
1.000000000000000E+20
 15
-1.000000000000000E+20
 25
-1.000000000000000E+20
 35
-1.000000000000000E+20
146
0.0
 13
0.0
 23
0.0
 33
0.0
 16
1.0
 26
0.0
 36
0.0
 17
0.0
 27
1.0
 37
0.0
 76
     0
330
1F
331
29
  0
MLINESTYLE
  5
18
102
{ACAD_REACTORS
330
17
102
}
330
17
100
AcDbMlineStyle
  2
Standard
 70
     0
  3

 62
   256
 51
90.0
 52
90.0
 71
     2
 49
0.5
 62
   256
  6
BYLAYER
 49
-0.5
 62
   256
  6
BYLAYER
  0
ACDBPLACEHOLDER
  5
F
102
{ACAD_REACTORS
330
E
102
}
330
E
  0
SCALE
  5
48
102
{ACAD_REACTORS
330
47
102
}
330
47
100
AcDbScale
 70
     0
300
1:1
140
1.0
141
1.0
290
     1
  0
SCALE
  5
49
102
{ACAD_REACTORS
330
47
102
}
330
47
100
AcDbScale
 70
     0
300
1:2
140
1.0
141
2.0
290
     0
  0
SCALE
  5
4A
102
{ACAD_REACTORS
330
47
102
}
330
47
100
AcDbScale
 70
     0
300
1:4
140
1.0
141
4.0
290
     0
  0
SCALE
  5
4B
102
{ACAD_REACTORS
330
47
102
}
330
47
100
AcDbScale
 70
     0
300
1:5
140
1.0
141
5.0
290
     0
  0
SCALE
  5
4C
102
{ACAD_REACTORS
330
47
102
}
330
47
100
AcDbScale
 70
     0
300
1:8
140
1.0
141
8.0
290
     0
  0
SCALE
  5
4D
102
{ACAD_REACTORS
330
47
102
}
330
47
100
AcDbScale
 70
     0
300
1:10
140
1.0
141
10.0
290
     0
  0
SCALE
  5
4E
102
{ACAD_REACTORS
330
47
102
}
330
47
100
AcDbScale
 70
     0
300
1:16
140
1.0
141
16.0
290
     0
  0
SCALE
  5
4F
102
{ACAD_REACTORS
330
47
102
}
330
47
100
AcDbScale
 70
     0
300
1:20
140
1.0
141
20.0
290
     0
  0
SCALE
  5
50
102
{ACAD_REACTORS
330
47
102
}
330
47
100
AcDbScale
 70
     0
300
1:30
140
1.0
141
30.0
290
     0
  0
SCALE
  5
51
102
{ACAD_REACTORS
330
47
102
}
330
47
100
AcDbScale
 70
     0
300
1:40
140
1.0
141
40.0
290
     0
  0
SCALE
  5
52
102
{ACAD_REACTORS
330
47
102
}
330
47
100
AcDbScale
 70
     0
300
1:50
140
1.0
141
50.0
290
     0
  0
SCALE
  5
53
102
{ACAD_REACTORS
330
47
102
}
330
47
100
AcDbScale
 70
     0
300
1:100
140
1.0
141
100.0
290
     0
  0
SCALE
  5
54
102
{ACAD_REACTORS
330
47
102
}
330
47
100
AcDbScale
 70
     0
300
2:1
140
2.0
141
1.0
290
     0
  0
SCALE
  5
55
102
{ACAD_REACTORS
330
47
102
}
330
47
100
AcDbScale
 70
     0
300
4:1
140
4.0
141
1.0
290
     0
  0
SCALE
  5
56
102
{ACAD_REACTORS
330
47
102
}
330
47
100
AcDbScale
 70
     0
300
8:1
140
8.0
141
1.0
290
     0
  0
SCALE
  5
57
102
{ACAD_REACTORS
330
47
102
}
330
47
100
AcDbScale
 70
     0
300
10:1
140
10.0
141
1.0
290
     0
  0
SCALE
  5
58
102
{ACAD_REACTORS
330
47
102
}
330
47
100
AcDbScale
 70
     0
300
100:1
140
100.0
141
1.0
290
     0
  0
SCALE
  5
59
102
{ACAD_REACTORS
330
47
102
}
330
47
100
AcDbScale
 70
     0
300
1/128" = 1'-0"
140
0.0078125
141
12.0
290
     0
  0
SCALE
  5
5A
102
{ACAD_REACTORS
330
47
102
}
330
47
100
AcDbScale
 70
     0
300
1/64" = 1'-0"
140
0.015625
141
12.0
290
     0
  0
SCALE
  5
5B
102
{ACAD_REACTORS
330
47
102
}
330
47
100
AcDbScale
 70
     0
300
1/32" = 1'-0"
140
0.03125
141
12.0
290
     0
  0
SCALE
  5
5C
102
{ACAD_REACTORS
330
47
102
}
330
47
100
AcDbScale
 70
     0
300
1/16" = 1'-0"
140
0.0625
141
12.0
290
     0
  0
SCALE
  5
5D
102
{ACAD_REACTORS
330
47
102
}
330
47
100
AcDbScale
 70
     0
300
3/32" = 1'-0"
140
0.09375
141
12.0
290
     0
  0
SCALE
  5
5E
102
{ACAD_REACTORS
330
47
102
}
330
47
100
AcDbScale
 70
     0
300
1/8" = 1'-0"
140
0.125
141
12.0
290
     0
  0
SCALE
  5
5F
102
{ACAD_REACTORS
330
47
102
}
330
47
100
AcDbScale
 70
     0
300
3/16" = 1'-0"
140
0.1875
141
12.0
290
     0
  0
SCALE
  5
60
102
{ACAD_REACTORS
330
47
102
}
330
47
100
AcDbScale
 70
     0
300
1/4" = 1'-0"
140
0.25
141
12.0
290
     0
  0
SCALE
  5
61
102
{ACAD_REACTORS
330
47
102
}
330
47
100
AcDbScale
 70
     0
300
3/8" = 1'-0"
140
0.375
141
12.0
290
     0
  0
SCALE
  5
62
102
{ACAD_REACTORS
330
47
102
}
330
47
100
AcDbScale
 70
     0
300
1/2" = 1'-0"
140
0.5
141
12.0
290
     0
  0
SCALE
  5
63
102
{ACAD_REACTORS
330
47
102
}
330
47
100
AcDbScale
 70
     0
300
3/4" = 1'-0"
140
0.75
141
12.0
290
     0
  0
SCALE
  5
64
102
{ACAD_REACTORS
330
47
102
}
330
47
100
AcDbScale
 70
     0
300
1" = 1'-0"
140
1.0
141
12.0
290
     0
  0
SCALE
  5
65
102
{ACAD_REACTORS
330
47
102
}
330
47
100
AcDbScale
 70
     0
300
1-1/2" = 1'-0"
140
1.5
141
12.0
290
     0
  0
SCALE
  5
66
102
{ACAD_REACTORS
330
47
102
}
330
47
100
AcDbScale
 70
     0
300
3" = 1'-0"
140
3.0
141
12.0
290
     0
  0
SCALE
  5
67
102
{ACAD_REACTORS
330
47
102
}
330
47
100
AcDbScale
 70
     0
300
6" = 1'-0"
140
6.0
141
12.0
290
     0
  0
SCALE
  5
68
102
{ACAD_REACTORS
330
47
102
}
330
47
100
AcDbScale
 70
     0
300
1'-0" = 1'-0"
140
12.0
141
12.0
290
     0
  0
ENDSEC
  0
EOF
