  0
SECTION
  2
HEADER
  9
$ACADVER
  1
AC1015
  9
$ACADMAINTVER
 70
     6
  9
$DWGCODEPAGE
  3
ANSI_949
  9
$INSBASE
 10
0.0
 20
0.0
 30
0.0
  9
$EXTMIN
 10
1.000000000000000E+20
 20
1.000000000000000E+20
 30
1.000000000000000E+20
  9
$EXTMAX
 10
-1.000000000000000E+20
 20
-1.000000000000000E+20
 30
-1.000000000000000E+20
  9
$LIMMIN
 10
0.0
 20
0.0
  9
$LIMMAX
 10
420.0
 20
297.0
  9
$ORTHOMODE
 70
     1
  9
$REGENMODE
 70
     1
  9
$FILLMODE
 70
     1
  9
$QTEXTMODE
 70
     0
  9
$MIRRTEXT
 70
     1
  9
$LTSCALE
 40
1.0
  9
$ATTMODE
 70
     1
  9
$TEXTSIZE
 40
3.5
  9
$TRACEWID
 40
1.0
  9
$TEXTSTYLE
  7
Standard
  9
$CLAYER
  8
0
  9
$CELTYPE
  6
ByLayer
  9
$CECOLOR
 62
   256
  9
$CELTSCALE
 40
1.0
  9
$DISPSILH
 70
     0
  9
$DIMSCALE
 40
1.0
  9
$DIMASZ
 40
3.302
  9
$DIMEXO
 40
1.0
  9
$DIMDLI
 40
3.75
  9
$DIMRND
 40
0.0
  9
$DIMDLE
 40
0.0
  9
$DIMEXE
 40
1.0
  9
$DIMTP
 40
0.0
  9
$DIMTM
 40
0.0
  9
$DIMTXT
 40
3.5
  9
$DIMCEN
 40
2.5
  9
$DIMTSZ
 40
0.0
  9
$DIMTOL
 70
     0
  9
$DIMLIM
 70
     0
  9
$DIMTIH
 70
     1
  9
$DIMTOH
 70
     1
  9
$DIMSE1
 70
     0
  9
$DIMSE2
 70
     0
  9
$DIMTAD
 70
     1
  9
$DIMZIN
 70
     0
  9
$DIMBLK
  1

  9
$DIMASO
 70
     1
  9
$DIMSHO
 70
     1
  9
$DIMPOST
  1

  9
$DIMAPOST
  1

  9
$DIMALT
 70
     0
  9
$DIMALTD
 70
     3
  9
$DIMALTF
 40
0.0393700787401575
  9
$DIMLFAC
 40
1.0
  9
$DIMTOFL
 70
     1
  9
$DIMTVP
 40
0.0
  9
$DIMTIX
 70
     0
  9
$DIMSOXD
 70
     0
  9
$DIMSAH
 70
     0
  9
$DIMBLK1
  1

  9
$DIMBLK2
  1

  9
$DIMSTYLE
  2
ISO-25
  9
$DIMCLRD
 70
     0
  9
$DIMCLRE
 70
     0
  9
$DIMCLRT
 70
     0
  9
$DIMTFAC
 40
1.0
  9
$DIMGAP
 40
1.524
  9
$DIMJUST
 70
     0
  9
$DIMSD1
 70
     0
  9
$DIMSD2
 70
     0
  9
$DIMTOLJ
 70
     0
  9
$DIMTZIN
 70
     0
  9
$DIMALTZ
 70
     0
  9
$DIMALTTZ
 70
     0
  9
$DIMUPT
 70
     0
  9
$DIMDEC
 70
     2
  9
$DIMTDEC
 70
     2
  9
$DIMALTU
 70
     2
  9
$DIMALTTD
 70
     3
  9
$DIMTXSTY
  7
Standard
  9
$DIMAUNIT
 70
     0
  9
$DIMADEC
 70
     2
  9
$DIMALTRND
 40
0.0
  9
$DIMAZIN
 70
     0
  9
$DIMDSEP
 70
    44
  9
$DIMATFIT
 70
     3
  9
$DIMFRAC
 70
     0
  9
$DIMLDRBLK
  1

  9
$DIMLUNIT
 70
     2
  9
$DIMLWD
 70
    -2
  9
$DIMLWE
 70
    -2
  9
$DIMTMOVE
 70
     0
  9
$LUNITS
 70
     2
  9
$LUPREC
 70
     2
  9
$SKETCHINC
 40
1.0
  9
$FILLETRAD
 40
10.0
  9
$AUNITS
 70
     0
  9
$AUPREC
 70
     2
  9
$MENU
  1
.
  9
$ELEVATION
 40
0.0
  9
$PELEVATION
 40
0.0
  9
$THICKNESS
 40
0.0
  9
$LIMCHECK
 70
     0
  9
$CHAMFERA
 40
0.0
  9
$CHAMFERB
 40
0.0
  9
$CHAMFERC
 40
0.0
  9
$CHAMFERD
 40
0.0
  9
$SKPOLY
 70
     0
  9
$TDCREATE
 40
2458291.558808993
  9
$TDUCREATE
 40
2458291.183808993
  9
$TDUPDATE
 40
2458302.589781065
  9
$TDUUPDATE
 40
2458302.214781065
  9
$TDINDWG
 40
0.0003897685
  9
$TDUSRTIMER
 40
2458302.214662523
  9
$USRTIMER
 70
     1
  9
$ANGBASE
 50
0.0
  9
$ANGDIR
 70
     0
  9
$PDMODE
 70
     0
  9
$PDSIZE
 40
-1.0
  9
$PLINEWID
 40
0.0
  9
$SPLFRAME
 70
     0
  9
$SPLINETYPE
 70
     6
  9
$SPLINESEGS
 70
     8
  9
$HANDSEED
  5
1BB
  9
$SURFTAB1
 70
     6
  9
$SURFTAB2
 70
     6
  9
$SURFTYPE
 70
     6
  9
$SURFU
 70
     6
  9
$SURFV
 70
     6
  9
$UCSBASE
  2

  9
$UCSNAME
  2

  9
$UCSORG
 10
0.0
 20
0.0
 30
0.0
  9
$UCSXDIR
 10
1.0
 20
0.0
 30
0.0
  9
$UCSYDIR
 10
0.0
 20
1.0
 30
0.0
  9
$UCSORTHOREF
  2

  9
$UCSORTHOVIEW
 70
     0
  9
$UCSORGTOP
 10
0.0
 20
0.0
 30
0.0
  9
$UCSORGBOTTOM
 10
0.0
 20
0.0
 30
0.0
  9
$UCSORGLEFT
 10
0.0
 20
0.0
 30
0.0
  9
$UCSORGRIGHT
 10
0.0
 20
0.0
 30
0.0
  9
$UCSORGFRONT
 10
0.0
 20
0.0
 30
0.0
  9
$UCSORGBACK
 10
0.0
 20
0.0
 30
0.0
  9
$PUCSBASE
  2

  9
$PUCSNAME
  2

  9
$PUCSORG
 10
0.0
 20
0.0
 30
0.0
  9
$PUCSXDIR
 10
1.0
 20
0.0
 30
0.0
  9
$PUCSYDIR
 10
0.0
 20
1.0
 30
0.0
  9
$PUCSORTHOREF
  2

  9
$PUCSORTHOVIEW
 70
     0
  9
$PUCSORGTOP
 10
0.0
 20
0.0
 30
0.0
  9
$PUCSORGBOTTOM
 10
0.0
 20
0.0
 30
0.0
  9
$PUCSORGLEFT
 10
0.0
 20
0.0
 30
0.0
  9
$PUCSORGRIGHT
 10
0.0
 20
0.0
 30
0.0
  9
$PUCSORGFRONT
 10
0.0
 20
0.0
 30
0.0
  9
$PUCSORGBACK
 10
0.0
 20
0.0
 30
0.0
  9
$USERI1
 70
     0
  9
$USERI2
 70
     0
  9
$USERI3
 70
     0
  9
$USERI4
 70
     0
  9
$USERI5
 70
     0
  9
$USERR1
 40
0.0
  9
$USERR2
 40
0.0
  9
$USERR3
 40
0.0
  9
$USERR4
 40
0.0
  9
$USERR5
 40
0.0
  9
$WORLDVIEW
 70
     1
  9
$SHADEDGE
 70
     3
  9
$SHADEDIF
 70
    70
  9
$TILEMODE
 70
     1
  9
$MAXACTVP
 70
    64
  9
$PINSBASE
 10
0.0
 20
0.0
 30
0.0
  9
$PLIMCHECK
 70
     0
  9
$PEXTMIN
 10
1.000000000000000E+20
 20
1.000000000000000E+20
 30
1.000000000000000E+20
  9
$PEXTMAX
 10
-1.000000000000000E+20
 20
-1.000000000000000E+20
 30
-1.000000000000000E+20
  9
$PLIMMIN
 10
0.0
 20
0.0
  9
$PLIMMAX
 10
0.0
 20
0.0
  9
$UNITMODE
 70
     0
  9
$VISRETAIN
 70
     1
  9
$PLINEGEN
 70
     0
  9
$PSLTSCALE
 70
     1
  9
$TREEDEPTH
 70
  3020
  9
$CMLSTYLE
  2
Standard
  9
$CMLJUST
 70
     0
  9
$CMLSCALE
 40
20.0
  9
$PROXYGRAPHICS
 70
     1
  9
$MEASUREMENT
 70
     1
  9
$CELWEIGHT
370
    -1
  9
$ENDCAPS
280
     0
  9
$JOINSTYLE
280
     0
  9
$LWDISPLAY
290
     1
  9
$INSUNITS
 70
     4
  9
$HYPERLINKBASE
  1

  9
$STYLESHEET
  1

  9
$XEDIT
290
     1
  9
$CEPSNTYPE
380
     0
  9
$PSTYLEMODE
290
     1
  9
$FINGERPRINTGUID
  2
{4453ACAE-BE4D-4B4A-A260-8638E1F747DE}
  9
$VERSIONGUID
  2
{FAEB1C32-E019-11D5-929B-00C0DF256EC4}
  9
$EXTNAMES
290
     1
  9
$PSVPSCALE
 40
0.0
  9
$OLESTARTUP
290
     0
  0
ENDSEC
  0
SECTION
  2
CLASSES
  0
CLASS
  1
ACDBDICTIONARYWDFLT
  2
AcDbDictionaryWithDefault
  3
ObjectDBX Classes
 90
        0
280
     0
281
     0
  0
CLASS
  1
VISUALSTYLE
  2
AcDbVisualStyle
  3
ObjectDBX Classes
 90
     4095
280
     0
281
     0
  0
CLASS
  1
MATERIAL
  2
AcDbMaterial
  3
ObjectDBX Classes
 90
     1153
280
     0
281
     0
  0
CLASS
  1
SCALE
  2
AcDbScale
  3
ObjectDBX Classes
 90
     1153
280
     0
281
     0
  0
CLASS
  1
SUN
  2
AcDbSun
  3
SCENEOE
 90
     1153
280
     0
281
     0
  0
CLASS
  1
ACDBPLACEHOLDER
  2
AcDbPlaceHolder
  3
ObjectDBX Classes
 90
        0
280
     0
281
     0
  0
CLASS
  1
LAYOUT
  2
AcDbLayout
  3
ObjectDBX Classes
 90
        0
280
     0
281
     0
  0
CLASS
  1
TABLESTYLE
  2
AcDbTableStyle
  3
ObjectDBX Classes
 90
     4095
280
     0
281
     0
  0
CLASS
  1
MLEADERSTYLE
  2
AcDbMLeaderStyle
  3
ACDB_MLEADERSTYLE_CLASS
 90
     4095
280
     0
281
     0
  0
CLASS
  1
DICTIONARYVAR
  2
AcDbDictionaryVar
  3
ObjectDBX Classes
 90
        0
280
     0
281
     0
  0
CLASS
  1
RASTERVARIABLES
  2
AcDbRasterVariables
  3
ISM
 90
        0
280
     0
281
     0
  0
ENDSEC
  0
SECTION
  2
TABLES
  0
TABLE
  2
VPORT
  5
8
330
0
100
AcDbSymbolTable
 70
     1
  0
VPORT
  5
29
330
8
100
AcDbSymbolTableRecord
100
AcDbViewportTableRecord
  2
*Active
 70
     0
 10
0.0
 20
0.0
 11
1.0
 21
1.0
 12
-12.13141793481397
 22
-36.1563420934457
 13
0.0
 23
0.0
 14
10.0
 24
10.0
 15
10.0
 25
10.0
 16
0.0
 26
0.0
 36
1.0
 17
0.0
 27
0.0
 37
0.0
 40
196.2357152063482
 41
1.595744680851064
 42
50.0
 43
0.0
 44
0.0
 50
0.0
 51
0.0
 71
    16
 72
  2000
 73
     1
 74
     3
 75
     0
 76
     0
 77
     0
 78
     0
281
     0
 65
     1
110
0.0
120
0.0
130
0.0
111
1.0
121
0.0
131
0.0
112
0.0
122
1.0
132
0.0
 79
     0
146
0.0
  0
ENDTAB
  0
TABLE
  2
LTYPE
  5
5
330
0
100
AcDbSymbolTable
 70
     6
  0
LTYPE
  5
14
330
5
100
AcDbSymbolTableRecord
100
AcDbLinetypeTableRecord
  2
ByBlock
 70
     0
  3

 72
    65
 73
     0
 40
0.0
  0
LTYPE
  5
15
330
5
100
AcDbSymbolTableRecord
100
AcDbLinetypeTableRecord
  2
ByLayer
 70
     0
  3

 72
    65
 73
     0
 40
0.0
  0
LTYPE
  5
16
330
5
100
AcDbSymbolTableRecord
100
AcDbLinetypeTableRecord
  2
Continuous
 70
     0
  3
Solid line
 72
    65
 73
     0
 40
0.0
  0
LTYPE
  5
6A
330
5
100
AcDbSymbolTableRecord
100
AcDbLinetypeTableRecord
  2
HIDDEN
 70
     0
  3
Hidden __ __ __ __ __ __ __ __ __ __ __ __ __ __
 72
    65
 73
     2
 40
1.905
 49
1.27
 74
     0
 49
-0.635
 74
     0
  0
LTYPE
  5
6B
330
5
100
AcDbSymbolTableRecord
100
AcDbLinetypeTableRecord
  2
PHANTOM
 70
     0
  3
Phantom ______  __  __  ______  __  __  ______
 72
    65
 73
     6
 40
12.7
 49
6.35
 74
     0
 49
-1.27
 74
     0
 49
1.27
 74
     0
 49
-1.27
 74
     0
 49
1.27
 74
     0
 49
-1.27
 74
     0
  0
LTYPE
  5
6C
330
5
100
AcDbSymbolTableRecord
100
AcDbLinetypeTableRecord
  2
CENTER
 70
     0
  3
Center ____ _ ____ _ ____ _ ____ _ ____ _ ____
 72
    65
 73
     4
 40
10.16
 49
6.35
 74
     0
 49
-1.27
 74
     0
 49
1.27
 74
     0
 49
-1.27
 74
     0
  0
LTYPE
  5
6D
330
5
100
AcDbSymbolTableRecord
100
AcDbLinetypeTableRecord
  2
CENTERX2
 70
     0
  3
Center (2x) ________  __  ________  __  _____
 72
    65
 73
     4
 40
20.32
 49
12.7
 74
     0
 49
-2.54
 74
     0
 49
2.54
 74
     0
 49
-2.54
 74
     0
  0
LTYPE
  5
6E
330
5
100
AcDbSymbolTableRecord
100
AcDbLinetypeTableRecord
  2
DOT2
 70
     0
  3
Dot (.5x) ........................................
 72
    65
 73
     2
 40
0.635
 49
0.0
 74
     0
 49
-0.635
 74
     0
  0
ENDTAB
  0
TABLE
  2
LAYER
  5
2
102
{ACAD_XDICTIONARY
360
1A7
102
}
330
0
100
AcDbSymbolTable
 70
    18
  0
LAYER
  5
10
330
2
100
AcDbSymbolTableRecord
100
AcDbLayerTableRecord
  2
0
 70
     0
 62
     7
  6
Continuous
370
    -3
390
F
  0
LAYER
  5
6F
330
2
100
AcDbSymbolTableRecord
100
AcDbLayerTableRecord
  2
FORMAT
 70
     0
 62
     2
  6
Continuous
370
    -3
390
F
  0
LAYER
  5
70
330
2
100
AcDbSymbolTableRecord
100
AcDbLayerTableRecord
  2
외형선
 70
     0
 62
     4
  6
Continuous
370
    30
390
F
  0
LAYER
  5
71
330
2
100
AcDbSymbolTableRecord
100
AcDbLayerTableRecord
  2
숨은선
 70
     0
 62
     2
  6
HIDDEN
370
    15
390
F
  0
LAYER
  5
72
330
2
100
AcDbSymbolTableRecord
100
AcDbLayerTableRecord
  2
중심선
 70
     0
 62
     1
  6
CENTERX2
370
    -3
390
F
  0
LAYER
  5
73
330
2
100
AcDbSymbolTableRecord
100
AcDbLayerTableRecord
  2
파단선
 70
     0
 62
     4
  6
Continuous
370
    -3
390
F
  0
LAYER
  5
74
330
2
100
AcDbSymbolTableRecord
100
AcDbLayerTableRecord
  2
해칭선
 70
     0
 62
   100
  6
Continuous
370
    -3
390
F
  0
LAYER
  5
75
330
2
100
AcDbSymbolTableRecord
100
AcDbLayerTableRecord
  2
가는실선
 70
     0
 62
     4
  6
Continuous
370
    -3
390
F
  0
LAYER
  5
76
330
2
100
AcDbSymbolTableRecord
100
AcDbLayerTableRecord
  2
치수_보조선
 70
     0
 62
     4
  6
Continuous
370
    -3
390
F
  0
LAYER
  5
77
330
2
100
AcDbSymbolTableRecord
100
AcDbLayerTableRecord
  2
치수문자_일반주서
 70
     0
 62
     7
  6
Continuous
370
    15
390
F
  0
LAYER
  5
78
330
2
100
AcDbSymbolTableRecord
100
AcDbLayerTableRecord
  2
개별주서
 70
     0
 62
   100
  6
Continuous
370
    30
390
F
  0
LAYER
  5
79
330
2
100
AcDbSymbolTableRecord
100
AcDbLayerTableRecord
  2
중간선
 70
     0
 62
     2
  6
Continuous
370
    15
390
F
  0
LAYER
  5
7A
330
2
100
AcDbSymbolTableRecord
100
AcDbLayerTableRecord
  2
윤곽선
 70
     0
 62
     3
  6
Continuous
370
    40
390
F
  0
LAYER
  5
7B
330
2
100
AcDbSymbolTableRecord
100
AcDbLayerTableRecord
  2
중심마크
 70
     0
 62
   100
  6
Continuous
370
    30
390
F
  0
LAYER
  5
7C
330
2
100
AcDbSymbolTableRecord
100
AcDbLayerTableRecord
  2
가상선
 70
     0
 62
     4
  6
PHANTOM
370
    -3
390
F
  0
LAYER
  5
7D
330
2
100
AcDbSymbolTableRecord
100
AcDbLayerTableRecord
  2
특수지정선
 70
     0
 62
     5
  6
CENTERX2
370
    60
390
F
  0
LAYER
  5
7E
330
2
100
AcDbSymbolTableRecord
100
AcDbLayerTableRecord
  2
참조1
 70
     0
 62
    -4
  6
Continuous
370
    -3
390
F
  0
LAYER
  5
149
330
2
100
AcDbSymbolTableRecord
100
AcDbLayerTableRecord
  2
Defpoints
 70
     0
 62
     7
  6
Continuous
290
     0
370
    -3
390
F
  0
ENDTAB
  0
TABLE
  2
STYLE
  5
3
330
0
100
AcDbSymbolTable
 70
     2
  0
STYLE
  5
11
330
3
100
AcDbSymbolTableRecord
100
AcDbTextStyleTableRecord
  2
Standard
 70
     0
 40
0.0
 41
1.0
 50
0.0
 71
     0
 42
3.5
  3
txt
  4

  0
STYLE
  5
94
330
3
100
AcDbSymbolTableRecord
100
AcDbTextStyleTableRecord
  2
SLDTEXTSTYLE0
 70
     0
 40
0.0
 41
0.75
 50
0.0
 71
     0
 42
3.5
  3
TXT
  4

  0
ENDTAB
  0
TABLE
  2
VIEW
  5
6
330
0
100
AcDbSymbolTable
 70
     0
  0
ENDTAB
  0
TABLE
  2
UCS
  5
7
330
0
100
AcDbSymbolTable
 70
     0
  0
ENDTAB
  0
TABLE
  2
APPID
  5
9
330
0
100
AcDbSymbolTable
 70
     2
  0
APPID
  5
12
330
9
100
AcDbSymbolTableRecord
100
AcDbRegAppTableRecord
  2
ACAD
 70
     0
  0
APPID
  5
14A
330
9
100
AcDbSymbolTableRecord
100
AcDbRegAppTableRecord
  2
PE_URL
 70
     0
  0
ENDTAB
  0
TABLE
  2
DIMSTYLE
  5
A
330
0
100
AcDbSymbolTable
 70
     4
100
AcDbDimStyleTable
  0
DIMSTYLE
105
27
330
A
100
AcDbSymbolTableRecord
100
AcDbDimStyleTableRecord
  2
ISO-25
 70
     0
 41
2.5
 42
0.625
 43
3.75
 44
1.25
 73
     0
 74
     0
 77
     1
 78
     8
140
2.5
141
2.5
143
0.03937007874016
147
0.625
171
     3
172
     1
178
     0
271
     2
272
     2
274
     3
278
    44
283
     0
284
     8
340
11
  0
DIMSTYLE
105
C7
330
A
100
AcDbSymbolTableRecord
100
AcDbDimStyleTableRecord
  2
SLDDIMSTYLE0
 70
     0
 41
3.302
 44
0.0
 45
0.000000001
 73
     0
 74
     0
 77
     1
 78
     4
 79
     1
140
3.5
143
0.0393700787401575
147
0.875
148
0.000000001
170
     1
173
     1
178
     0
271
     2
272
     2
276
     2
284
    12
340
94
  0
DIMSTYLE
105
DB
102
{ACAD_REACTORS
330
DA
330
EF
330
C6
330
104
102
}
330
A
100
AcDbSymbolTableRecord
100
AcDbDimStyleTableRecord
  2
SLDDIMSTYLE1
 70
     0
 41
3.302
 44
0.0
 45
0.000000001
 73
     0
 74
     0
 77
     1
 78
     4
 79
     1
140
3.5
143
0.0393700787401575
147
0.875
148
0.000000001
170
     1
172
     1
173
     1
178
     0
271
     2
272
     2
276
     2
284
    12
289
     0
340
94
  0
DIMSTYLE
105
105
330
A
100
AcDbSymbolTableRecord
100
AcDbDimStyleTableRecord
  2
SLDDIMSTYLE2
 70
     0
 41
3.302
 44
0.0
 45
0.000000001
 73
     0
 74
     0
 77
     1
 78
    12
 79
     3
140
3.5
143
0.0393700787401575
147
0.875
148
0.000000001
170
     1
172
     1
173
     1
178
     0
271
     2
272
     2
276
     2
284
    12
289
     0
340
94
  0
ENDTAB
  0
TABLE
  2
BLOCK_RECORD
  5
1
330
0
100
AcDbSymbolTable
 70
     8
  0
BLOCK_RECORD
  5
1F
330
1
100
AcDbSymbolTableRecord
100
AcDbBlockTableRecord
  2
*Model_Space
340
22
  0
BLOCK_RECORD
  5
1B
330
1
100
AcDbSymbolTableRecord
100
AcDbBlockTableRecord
  2
*Paper_Space
340
1E
  0
BLOCK_RECORD
  5
23
330
1
100
AcDbSymbolTableRecord
100
AcDbBlockTableRecord
  2
*Paper_Space0
340
26
  0
BLOCK_RECORD
  5
7F
330
1
100
AcDbSymbolTableRecord
100
AcDbBlockTableRecord
  2
블럭10
340
0
102
{BLKREFS
331
BF
102
}
  0
BLOCK_RECORD
  5
C8
330
1
100
AcDbSymbolTableRecord
100
AcDbBlockTableRecord
  2
_D
340
0
  0
BLOCK_RECORD
  5
DC
330
1
100
AcDbSymbolTableRecord
100
AcDbBlockTableRecord
  2
_D_1
340
0
  0
BLOCK_RECORD
  5
F0
330
1
100
AcDbSymbolTableRecord
100
AcDbBlockTableRecord
  2
_D_2
340
0
  0
BLOCK_RECORD
  5
106
330
1
100
AcDbSymbolTableRecord
100
AcDbBlockTableRecord
  2
_D_3
340
0
  0
BLOCK_RECORD
  5
120
330
1
100
AcDbSymbolTableRecord
100
AcDbBlockTableRecord
  2
SW_DOWELSYMBOL_0
340
0
102
{BLKREFS
331
126
102
}
  0
ENDTAB
  0
ENDSEC
  0
SECTION
  2
BLOCKS
  0
BLOCK
  5
20
330
1F
100
AcDbEntity
  8
0
100
AcDbBlockBegin
  2
*Model_Space
 70
     0
 10
0.0
 20
0.0
 30
0.0
  3
*Model_Space
  1
*Model_Space
  0
ENDBLK
  5
21
330
1F
100
AcDbEntity
  8
0
100
AcDbBlockEnd
  0
BLOCK
  5
1C
330
1B
100
AcDbEntity
 67
     1
  8
0
100
AcDbBlockBegin
  2
*Paper_Space
 70
     0
 10
0.0
 20
0.0
 30
0.0
  3
*Paper_Space
  1
*Paper_Space
  0
ENDBLK
  5
1D
330
1B
100
AcDbEntity
 67
     1
  8
0
100
AcDbBlockEnd
  0
BLOCK
  5
24
330
23
100
AcDbEntity
  8
0
100
AcDbBlockBegin
  2
*Paper_Space0
 70
     0
 10
0.0
 20
0.0
 30
0.0
  3
*Paper_Space0
  1
*Paper_Space0
  0
ENDBLK
  5
25
330
23
100
AcDbEntity
  8
0
100
AcDbBlockEnd
  0
BLOCK
  5
80
330
7F
100
AcDbEntity
  8
0
100
AcDbBlockBegin
  2
블럭10
 70
     2
 10
0.0
 20
0.0
 30
0.0
  3
블럭10
  1
블럭10
  0
ELLIPSE
  5
82
330
7F
100
AcDbEntity
  8
중심선
100
AcDbEllipse
 10
20.54032771741204
 20
12.0471743016438
 30
0.0
 11
6.600054785286829
 21
-1.261213355974178E-13
 31
0.0
210
0.0
220
0.0
230
1.0
 40
0.636358354079598
 41
0.9219305317359503
 42
6.513795318482858
  0
ELLIPSE
  5
83
330
7F
100
AcDbEntity
  8
중심선
100
AcDbEllipse
 10
20.54032771746488
 20
12.04717430159265
 30
0.0
 11
3.960054785062283
 21
1.540847449632565E-10
 31
0.0
210
0.0
220
0.0
230
1.0
 40
0.3939339440162632
 41
1.131841032648279
 42
5.62031148352944
  0
LINE
  5
84
330
7F
100
AcDbEntity
  8
중심선
100
AcDbLine
 10
2.268634060543552
 20
16.24717430164393
 30
0.0
 11
5.714909304380834
 21
16.24717430164393
 31
0.0
  0
LINE
  5
85
330
7F
100
AcDbEntity
  8
중심선
100
AcDbLine
 10
5.245725140726316
 20
7.84717430164391
 30
0.0
 11
8.692000384563599
 21
7.84717430164391
 31
0.0
  0
LINE
  5
86
330
7F
100
AcDbEntity
  8
중심선
100
AcDbLine
 10
15.74043728645272
 20
16.24717430164393
 30
0.0
 11
8.692000384563599
 21
7.84717430164391
 31
0.0
  0
LINE
  5
87
330
7F
100
AcDbEntity
  8
중심선
100
AcDbLine
 10
0.1404042013395286
 20
13.71084872107135
 30
0.0
 11
3.58671253028996
 21
13.71088815037384
 31
0.0
  0
LINE
  5
88
330
7F
100
AcDbEntity
  8
중심선
100
AcDbLine
 10
2.750260043222114
 20
10.84717430164391
 30
0.0
 11
6.196535287059397
 21
10.84717430164391
 31
0.0
  0
LINE
  5
89
330
7F
100
AcDbEntity
  8
중심선
100
AcDbLine
 10
12.29416204261559
 20
16.24717430164393
 30
0.0
 11
5.245725140726316
 21
7.84717430164391
 31
0.0
  0
LINE
  5
8A
330
7F
100
AcDbEntity
  8
중심선
100
AcDbLine
 10
10.72767329541681
 20
16.24717430164393
 30
0.0
 11
6.196535287059397
 21
10.84717430164391
 31
0.0
  0
LINE
  5
8B
330
7F
100
AcDbEntity
  8
중심선
100
AcDbLine
 10
7.28139805157953
 20
16.24717430164393
 30
0.0
 11
2.750260043222114
 21
10.84717430164391
 31
0.0
  0
LINE
  5
8C
330
7F
100
AcDbEntity
  8
중심선
100
AcDbLine
 10
5.714909304380834
 20
16.24717430164393
 30
0.0
 11
3.58671253028996
 21
13.71088815037384
 31
0.0
  0
LINE
  5
8D
330
7F
100
AcDbEntity
  8
중심선
100
AcDbLine
 10
2.268634060543552
 20
16.24717430164393
 30
0.0
 11
0.1404042013395286
 21
13.71084872107135
 31
0.0
  0
LINE
  5
8E
330
7F
100
AcDbEntity
  8
중심선
100
AcDbLine
 10
7.28139805157953
 20
16.24717430164393
 30
0.0
 11
10.72767329541681
 21
16.24717430164393
 31
0.0
  0
LINE
  5
8F
330
7F
100
AcDbEntity
  8
중심선
100
AcDbLine
 10
12.29416204261559
 20
16.24717430164393
 30
0.0
 11
15.74043728645272
 21
16.24717430164393
 31
0.0
  0
LINE
  5
90
330
7F
100
AcDbEntity
  8
중심선
100
AcDbLine
 10
19.22036997980202
 20
11.08717430171403
 30
0.0
 11
23.66174974927406
 21
11.08717430171406
 31
0.0
  0
LINE
  5
91
330
7F
100
AcDbEntity
  8
중심선
100
AcDbLine
 10
19.22039502424796
 20
13.00717430171391
 30
0.0
 11
19.22036997980202
 21
11.08717430171403
 31
0.0
  0
LINE
  5
92
330
7F
100
AcDbEntity
  8
중심선
100
AcDbLine
 10
19.22039502424796
 20
13.00717430171391
 30
0.0
 11
26.96566020931264
 21
13.00717430171391
 31
0.0
  0
LINE
  5
93
330
7F
100
AcDbEntity
  8
중심선
100
AcDbLine
 10
22.22332737316547
 20
13.45928029700563
 30
0.0
 11
24.52862924686651
 21
15.39360700705356
 31
0.0
  0
ATTDEF
  5
95
330
7F
100
AcDbEntity
  8
FORMAT
 62
     2
100
AcDbText
 10
4.067468689740013
 20
2.075366912832191
 30
0.0
 40
4.233333333333333
  1
EH108032
 41
0.75
  7
SLDTEXTSTYLE0
 11
4.067468689740013
 21
-0.0412997538344756
 31
0.0
100
AcDbAttributeDefinition
  3

  2
AUTOATTR0
 70
     0
 74
     1
  0
ENDBLK
  5
81
330
7F
100
AcDbEntity
  8
0
100
AcDbBlockEnd
  0
BLOCK
  5
C9
330
C8
100
AcDbEntity
  8
0
100
AcDbBlockBegin
  2
_D
 70
     0
 10
0.0
 20
0.0
 30
0.0
  3
_D
  1
_D
  0
LINE
  5
CB
330
C8
100
AcDbEntity
  8
치수문자_일반주서
 62
     0
370
    -2
100
AcDbLine
 10
-40.8
 20
5.912499999999993
 30
0.0
 11
-40.80000000000001
 21
30.63984624538547
 31
0.0
  0
LINE
  5
CC
330
C8
100
AcDbEntity
  8
치수문자_일반주서
 62
     0
370
    -2
100
AcDbLine
 10
35.40000000000001
 20
6.412500000000001
 30
0.0
 11
35.4
 21
30.63984624538547
 31
0.0
  0
LINE
  5
CD
330
C8
100
AcDbEntity
  8
치수문자_일반주서
 62
     0
370
    -2
100
AcDbLine
 10
-37.49800000000001
 20
30.63984624538547
 30
0.0
 11
32.098
 21
30.63984624538547
 31
0.0
  0
SOLID
  5
CE
330
C8
100
AcDbEntity
  8
치수문자_일반주서
 62
     0
100
AcDbTrace
 10
-37.49800000000001
 20
31.19017957871881
 30
0.0
 11
-37.49800000000001
 21
30.08951291205214
 31
0.0
 12
-40.80000000000001
 22
30.63984624538547
 32
0.0
 13
-40.80000000000001
 23
30.63984624538547
 33
0.0
  0
SOLID
  5
CF
330
C8
100
AcDbEntity
  8
치수문자_일반주서
 62
     0
100
AcDbTrace
 10
32.098
 20
30.08951291205214
 30
0.0
 11
32.098
 21
31.19017957871881
 31
0.0
 12
35.4
 22
30.63984624538547
 32
0.0
 13
35.4
 23
30.63984624538547
 33
0.0
  0
MTEXT
  5
D0
330
C8
100
AcDbEntity
  8
치수문자_일반주서
 62
     0
100
AcDbMText
 10
-2.699999999999994
 20
35.01484624538547
 30
0.0
 40
3.5
 41
0.0
 71
     2
 72
     1
  1
\A1;76.20 [3]
  7
SLDTEXTSTYLE0
 73
     1
 44
1.0
  0
POINT
  5
D1
330
C8
100
AcDbEntity
  8
Defpoints
 62
     0
100
AcDbPoint
 10
-40.8
 20
5.849999999999993
 30
0.0
  0
POINT
  5
D2
330
C8
100
AcDbEntity
  8
Defpoints
 62
     0
100
AcDbPoint
 10
35.40000000000001
 20
6.350000000000001
 30
0.0
  0
POINT
  5
D3
330
C8
100
AcDbEntity
  8
Defpoints
 62
     0
100
AcDbPoint
 10
35.40000000000001
 20
30.63984624538547
 30
0.0
  0
ENDBLK
  5
CA
330
C8
100
AcDbEntity
  8
0
100
AcDbBlockEnd
  0
BLOCK
  5
DD
330
DC
100
AcDbEntity
  8
0
100
AcDbBlockBegin
  2
_D_1
 70
     0
 10
0.0
 20
0.0
 30
0.0
  3
_D_1
  1
_D_1
  0
LINE
  5
DF
330
DC
100
AcDbEntity
  8
치수문자_일반주서
 62
     0
370
    -2
100
AcDbLine
 10
-40.3625
 20
6.349999999999993
 30
0.0
 11
-53.80000000000004
 21
6.349999999999943
 31
0.0
  0
LINE
  5
E0
330
DC
100
AcDbEntity
  8
치수문자_일반주서
 62
     0
370
    -2
100
AcDbLine
 10
-40.3625
 20
-6.349999999999995
 30
0.0
 11
-53.8
 21
-6.350000000000046
 31
0.0
  0
LINE
  5
E1
330
DC
100
AcDbEntity
  8
치수문자_일반주서
 62
     0
370
    -2
100
AcDbLine
 10
-53.80000000000003
 20
3.047999999999943
 30
0.0
 11
-53.80000000000001
 21
-3.048000000000046
 31
0.0
  0
SOLID
  5
E2
330
DC
100
AcDbEntity
  8
치수문자_일반주서
 62
     0
100
AcDbTrace
 10
-53.24966666666669
 20
3.047999999999945
 30
0.0
 11
-54.35033333333336
 21
3.047999999999941
 31
0.0
 12
-53.80000000000004
 22
6.349999999999943
 32
0.0
 13
-53.80000000000004
 23
6.349999999999943
 33
0.0
  0
SOLID
  5
E3
330
DC
100
AcDbEntity
  8
치수문자_일반주서
 62
     0
100
AcDbTrace
 10
-54.35033333333335
 20
-3.048000000000048
 30
0.0
 11
-53.24966666666668
 21
-3.048000000000044
 31
0.0
 12
-53.8
 22
-6.350000000000046
 32
0.0
 13
-53.8
 23
-6.350000000000046
 33
0.0
  0
MTEXT
  5
E4
330
DC
100
AcDbEntity
  8
치수문자_일반주서
 62
     0
100
AcDbMText
 10
-58.17500000000002
 20
-0.0000000000000169
 30
0.0
 40
3.5
 41
0.0
 71
     2
 72
     1
  1
\A1;%%c12.70 [1/2]
  7
SLDTEXTSTYLE0
 11
-3.356894814614650E-15
 21
1.0
 31
0.0
 73
     1
 44
1.0
  0
POINT
  5
E5
330
DC
100
AcDbEntity
  8
Defpoints
 62
     0
100
AcDbPoint
 10
-40.3
 20
6.349999999999993
 30
0.0
  0
POINT
  5
E6
330
DC
100
AcDbEntity
  8
Defpoints
 62
     0
100
AcDbPoint
 10
-40.3
 20
-6.349999999999995
 30
0.0
  0
POINT
  5
E7
330
DC
100
AcDbEntity
  8
Defpoints
 62
     0
100
AcDbPoint
 10
-53.8
 20
-6.350000000000046
 30
0.0
  0
ENDBLK
  5
DE
330
DC
100
AcDbEntity
  8
0
100
AcDbBlockEnd
  0
BLOCK
  5
F1
330
F0
100
AcDbEntity
  8
0
100
AcDbBlockBegin
  2
_D_2
 70
     0
 10
0.0
 20
0.0
 30
0.0
  3
_D_2
  1
_D_2
  0
LINE
  5
F3
330
F0
100
AcDbEntity
  8
치수문자_일반주서
 62
     0
370
    -2
100
AcDbLine
 10
35.40000000000001
 20
6.412500000000001
 30
0.0
 11
35.40000000000001
 21
15.58628572457923
 31
0.0
  0
LINE
  5
F4
330
F0
100
AcDbEntity
  8
치수문자_일반주서
 62
     0
370
    -2
100
AcDbLine
 10
10.00000000000001
 20
6.33893852853134
 30
0.0
 11
10.00000000000001
 21
15.58628572457923
 31
0.0
  0
LINE
  5
F5
330
F0
100
AcDbEntity
  8
치수문자_일반주서
 62
     0
370
    -2
100
AcDbLine
 10
32.09800000000001
 20
15.58628572457923
 30
0.0
 11
13.30200000000001
 21
15.58628572457923
 31
0.0
  0
SOLID
  5
F6
330
F0
100
AcDbEntity
  8
치수문자_일반주서
 62
     0
100
AcDbTrace
 10
32.09800000000001
 20
15.0359523912459
 30
0.0
 11
32.09800000000001
 21
16.13661905791257
 31
0.0
 12
35.40000000000001
 22
15.58628572457923
 32
0.0
 13
35.40000000000001
 23
15.58628572457923
 33
0.0
  0
SOLID
  5
F7
330
F0
100
AcDbEntity
  8
치수문자_일반주서
 62
     0
100
AcDbTrace
 10
13.30200000000001
 20
16.13661905791257
 30
0.0
 11
13.30200000000001
 21
15.0359523912459
 31
0.0
 12
10.00000000000001
 22
15.58628572457923
 32
0.0
 13
10.00000000000001
 23
15.58628572457923
 33
0.0
  0
MTEXT
  5
F8
330
F0
100
AcDbEntity
  8
치수문자_일반주서
 62
     0
100
AcDbMText
 10
23.51203485968529
 20
19.96128572457923
 30
0.0
 40
3.5
 41
0.0
 71
     2
 72
     1
  1
\A1;25.40 [1]
  7
SLDTEXTSTYLE0
 73
     1
 44
1.0
  0
POINT
  5
F9
330
F0
100
AcDbEntity
  8
Defpoints
 62
     0
100
AcDbPoint
 10
35.40000000000001
 20
6.350000000000001
 30
0.0
  0
POINT
  5
FA
330
F0
100
AcDbEntity
  8
Defpoints
 62
     0
100
AcDbPoint
 10
10.00000000000001
 20
6.27643852853134
 30
0.0
  0
POINT
  5
FB
330
F0
100
AcDbEntity
  8
Defpoints
 62
     0
100
AcDbPoint
 10
10.00000000000001
 20
15.58628572457923
 30
0.0
  0
ENDBLK
  5
F2
330
F0
100
AcDbEntity
  8
0
100
AcDbBlockEnd
  0
BLOCK
  5
107
330
106
100
AcDbEntity
  8
0
100
AcDbBlockBegin
  2
_D_3
 70
     0
 10
0.0
 20
0.0
 30
0.0
  3
_D_3
  1
_D_3
  0
LINE
  5
109
330
106
100
AcDbEntity
  8
치수문자_일반주서
 62
     0
370
    -2
100
AcDbLine
 10
35.46250000000001
 20
6.350000000000001
 30
0.0
 11
48.84845269819865
 21
6.350000000000051
 31
0.0
  0
LINE
  5
10A
330
106
100
AcDbEntity
  8
치수문자_일반주서
 62
     0
370
    -2
100
AcDbLine
 10
35.4625
 20
-6.349999999999968
 30
0.0
 11
48.84845269819869
 21
-6.34999999999992
 31
0.0
  0
LINE
  5
10B
330
106
100
AcDbEntity
  8
치수문자_일반주서
 62
     0
370
    -2
100
AcDbLine
 10
48.84845269819865
 20
6.350000000000051
 30
0.0
 11
48.84845269819854
 21
41.61025000000002
 31
0.0
  0
LINE
  5
10C
330
106
100
AcDbEntity
  8
치수문자_일반주서
 62
     0
370
    -2
100
AcDbLine
 10
48.84845269819865
 20
6.350000000000051
 30
0.0
 11
48.84845269819869
 21
-6.34999999999992
 31
0.0
  0
LINE
  5
10D
330
106
100
AcDbEntity
  8
치수문자_일반주서
 62
     0
370
    -2
100
AcDbLine
 10
48.84845269819863
 20
9.65200000000005
 30
0.0
 11
48.84845269819862
 21
12.95400000000005
 31
0.0
  0
LINE
  5
10E
330
106
100
AcDbEntity
  8
치수문자_일반주서
 62
     0
370
    -2
100
AcDbLine
 10
48.84845269819871
 20
-9.65199999999992
 30
0.0
 11
48.84845269819872
 21
-12.95399999999992
 31
0.0
  0
SOLID
  5
10F
330
106
100
AcDbEntity
  8
치수문자_일반주서
 62
     0
100
AcDbTrace
 10
48.2981193648653
 20
9.652000000000049
 30
0.0
 11
49.39878603153197
 21
9.652000000000053
 31
0.0
 12
48.84845269819865
 22
6.350000000000051
 32
0.0
 13
48.84845269819865
 23
6.350000000000051
 33
0.0
  0
SOLID
  5
110
330
106
100
AcDbEntity
  8
치수문자_일반주서
 62
     0
100
AcDbTrace
 10
49.39878603153204
 20
-9.651999999999918
 30
0.0
 11
48.29811936486537
 21
-9.651999999999921
 31
0.0
 12
48.84845269819869
 22
-6.34999999999992
 32
0.0
 13
48.84845269819869
 23
-6.34999999999992
 33
0.0
  0
MTEXT
  5
111
330
106
100
AcDbEntity
  8
치수문자_일반주서
 62
     0
100
AcDbMText
 10
44.47345269819858
 20
28.26650000000001
 30
0.0
 40
3.5
 41
0.0
 71
     2
 72
     1
  1
\A1;%%c12.70 [1/2]
  7
SLDTEXTSTYLE0
 11
-3.356894814614655E-15
 21
1.0
 31
0.0
 73
     1
 44
1.0
  0
POINT
  5
112
330
106
100
AcDbEntity
  8
Defpoints
 62
     0
100
AcDbPoint
 10
35.40000000000001
 20
6.350000000000001
 30
0.0
  0
POINT
  5
113
330
106
100
AcDbEntity
  8
Defpoints
 62
     0
100
AcDbPoint
 10
35.4
 20
-6.349999999999968
 30
0.0
  0
POINT
  5
114
330
106
100
AcDbEntity
  8
Defpoints
 62
     0
100
AcDbPoint
 10
48.84845269819869
 20
-6.349999999999917
 30
0.0
  0
ENDBLK
  5
108
330
106
100
AcDbEntity
  8
0
100
AcDbBlockEnd
  0
BLOCK
  5
121
330
120
100
AcDbEntity
  8
0
100
AcDbBlockBegin
  2
SW_DOWELSYMBOL_0
 70
     0
 10
0.0
 20
0.0
 30
0.0
  3
SW_DOWELSYMBOL_0
  1
SW_DOWELSYMBOL_0
  0
CIRCLE
  5
123
330
120
100
AcDbEntity
  8
해칭선
 62
     0
100
AcDbCircle
 10
0.0
 20
0.0
 30
0.0
 40
3.000000000000001
  0
HATCH
  5
124
330
120
100
AcDbEntity
  8
0
  6
Continuous
 62
     0
370
     0
100
AcDbHatch
 10
0.0
 20
0.0
 30
0.0
210
0.0
220
0.0
230
1.0
  2
SOLID
 70
     1
 71
     0
 91
        1
 92
        0
 93
        3
 72
     2
 10
-0.0000000000000069
 20
0.0
 40
3.000000000000001
 50
0.0
 51
90.0
 73
     1
 72
     1
 10
-0.0000000000000069
 20
3.000000000000001
 11
-0.0000000000000069
 21
0.0
 72
     1
 10
-0.0000000000000069
 20
0.0
 11
2.999999999999994
 21
0.0
 97
        0
 75
     0
 76
     1
 98
        1
 10
0.0
 20
0.0
  0
HATCH
  5
125
330
120
100
AcDbEntity
  8
0
  6
Continuous
 62
     0
370
     0
100
AcDbHatch
 10
0.0
 20
0.0
 30
0.0
210
0.0
220
0.0
230
1.0
  2
SOLID
 70
     1
 71
     0
 91
        1
 92
        0
 93
        3
 72
     2
 10
-0.0000000000000069
 20
0.0
 40
3.000000000000001
 50
180.0
 51
270.0000000000007
 73
     1
 72
     1
 10
-0.0000000000000069
 20
-3.000000000000001
 11
-0.0000000000000069
 21
0.0
 72
     1
 10
-0.0000000000000069
 20
0.0
 11
-3.000000000000008
 21
0.0
 97
        0
 75
     0
 76
     1
 98
        1
 10
0.0
 20
0.0
  0
ENDBLK
  5
122
330
120
100
AcDbEntity
  8
0
100
AcDbBlockEnd
  0
ENDSEC
  0
SECTION
  2
ENTITIES
  0
LINE
  5
96
330
1F
100
AcDbEntity
  8
외형선
  6
Continuous
370
    15
100
AcDbLine
 10
7.969842340188079
 20
6.349999999999999
 30
0.0
 11
-11.06612499999999
 21
6.349999999999998
 31
0.0
  0
LINE
  5
97
330
1F
100
AcDbEntity
  8
외형선
  6
Continuous
370
    15
100
AcDbLine
 10
-40.3
 20
-6.350000000000003
 30
0.0
 11
7.96984234018808
 21
-6.350000000000001
 31
0.0
  0
LINE
  5
98
330
1F
100
AcDbEntity
  8
외형선
  6
Continuous
370
    15
100
AcDbLine
 10
-40.3
 20
6.349999999999993
 30
0.0
 11
-40.8
 21
5.849999999999993
 31
0.0
  0
LINE
  5
99
330
1F
100
AcDbEntity
  8
외형선
  6
Continuous
370
    15
100
AcDbLine
 10
-40.8
 20
-5.850000000000001
 30
0.0
 11
-40.3
 21
-6.350000000000001
 31
0.0
  0
LINE
  5
9A
330
1F
100
AcDbEntity
  8
외형선
  6
Continuous
 62
     1
370
    15
100
AcDbLine
 10
23.19241497369863
 20
-6.350000000000003
 30
0.0
 11
30.33059828368724
 21
-6.350000000000003
 31
0.0
  0
LINE
  5
9B
330
1F
100
AcDbEntity
  8
외형선
  6
Continuous
 62
     1
370
    15
100
AcDbLine
 10
18.8128631978959
 20
6.350000000000001
 30
0.0
 11
11.67647577888922
 21
6.350000000000001
 31
0.0
  0
LINE
  5
9C
330
1F
100
AcDbEntity
  8
외형선
  6
Continuous
 62
     1
370
    15
100
AcDbLine
 10
35.40000000000001
 20
6.350000000000001
 30
0.0
 11
34.71076215719434
 21
6.350000000000001
 31
0.0
  0
SPLINE
  5
9D
330
1F
100
AcDbEntity
  8
외형선
  6
Continuous
370
    15
100
AcDbSpline
210
0.0
220
0.0
230
1.0
 70
     8
 71
     3
 72
     8
 73
     4
 74
     0
 42
0.000000001
 43
0.00000001
 40
0.0
 40
0.0
 40
0.0
 40
0.0
 40
1.0
 40
1.0
 40
1.0
 40
1.0
 10
10.0
 20
6.276438528531338
 30
0.0
 10
9.32680117294774
 20
6.217266271655888
 30
0.0
 10
8.644326618822227
 20
6.122032915936326
 30
0.0
 10
7.969842340188079
 20
5.993082049614978
 30
0.0
  0
LINE
  5
9E
330
1F
100
AcDbEntity
  8
외형선
  6
Continuous
370
    15
100
AcDbLine
 10
7.969842340188079
 20
6.349999999999999
 30
0.0
 11
7.969842340188079
 21
2.831528477348199
 31
0.0
  0
SPLINE
  5
9F
330
1F
100
AcDbEntity
  8
외형선
  6
Continuous
370
    15
100
AcDbSpline
210
0.0
220
0.0
230
1.0
 70
     8
 71
     3
 72
     8
 73
     4
 74
     0
 42
0.000000001
 43
0.00000001
 40
0.0
 40
0.0
 40
0.0
 40
0.0
 40
1.0
 40
1.0
 40
1.0
 40
1.0
 10
10.0
 20
1.740748621986732
 30
0.0
 10
9.32680117294774
 20
2.115688856462731
 30
0.0
 10
8.644326618822229
 20
2.482404650755174
 30
0.0
 10
7.96984234018808
 20
2.831593446938811
 30
0.0
  0
LINE
  5
A0
330
1F
100
AcDbEntity
  8
외형선
  6
Continuous
370
    15
100
AcDbLine
 10
10.0
 20
1.740748621986732
 30
0.0
 11
10.0
 21
-2.303584884327076
 31
0.0
  0
SPLINE
  5
A1
330
1F
100
AcDbEntity
  8
외형선
  6
Continuous
370
    15
100
AcDbSpline
210
0.0
220
0.0
230
1.0
 70
     8
 71
     3
 72
     8
 73
     4
 74
     0
 42
0.000000001
 43
0.00000001
 40
0.0
 40
0.0
 40
0.0
 40
0.0
 40
1.0
 40
1.0
 40
1.0
 40
1.0
 10
10.0
 20
-2.303584884327076
 30
0.0
 10
9.32680117294774
 20
-1.940267865633656
 30
0.0
 10
8.644326618822227
 20
-1.562164589004414
 30
0.0
 10
7.969842340188079
 20
-1.178822493258409
 30
0.0
  0
SPLINE
  5
A2
330
1F
100
AcDbEntity
  8
외형선
  6
Continuous
370
    15
100
AcDbSpline
210
0.0
220
0.0
230
1.0
 70
     8
 71
     3
 72
     8
 73
     4
 74
     0
 42
0.000000001
 43
0.00000001
 40
0.0
 40
0.0
 40
0.0
 40
0.0
 40
1.0
 40
1.0
 40
1.0
 40
1.0
 10
10.00000000000001
 20
-6.158967760700802
 30
0.0
 10
9.326801172947741
 20
-6.25387876424938
 30
0.0
 10
8.644326618822229
 20
-6.31409820006138
 30
0.0
 10
7.96984234018808
 20
-6.338035432983589
 30
0.0
  0
LINE
  5
A3
330
1F
100
AcDbEntity
  8
외형선
  6
Continuous
370
    15
100
AcDbLine
 10
-40.3
 20
6.349999999999993
 30
0.0
 11
-40.3
 21
-6.349999999999993
 31
0.0
  0
LINE
  5
A4
330
1F
100
AcDbEntity
  8
외형선
  6
Continuous
370
    15
100
AcDbLine
 10
7.969842340188079
 20
-1.178819942640954
 30
0.0
 11
7.96984234018808
 21
-6.350000000000001
 31
0.0
  0
LINE
  5
A5
330
1F
100
AcDbEntity
  8
외형선
  6
Continuous
370
    15
100
AcDbLine
 10
-40.8
 20
5.849999999999993
 30
0.0
 11
-40.8
 21
-5.850000000000001
 31
0.0
  0
SPLINE
  5
A6
330
1F
100
AcDbEntity
  8
외형선
  6
Continuous
370
    15
100
AcDbSpline
210
0.0
220
0.0
230
1.0
 70
    24
 71
     3
 72
    16
 73
    12
 74
     0
 42
0.000000001
 43
0.00000001
 40
0.0
 40
0.0
 40
0.0
 40
0.0
 40
0.0621474770440153
 40
0.2014700111699168
 40
0.3448329082238483
 40
0.4841554423497493
 40
0.6275183394036807
 40
0.7668408735295829
 40
0.9102037705835146
 40
0.9550375369032803
 40
1.0
 40
1.0
 40
1.0
 40
1.0
 10
10.00000000000001
 20
-2.134133163634251
 30
0.0
 10
10.00000000000001
 20
-2.130296020591705
 30
0.0
 10
10.00000000000001
 20
-2.117856750513295
 30
0.0
 10
10.00000000000001
 20
-2.284410155085205
 30
0.0
 10
10.0
 20
-2.62527688105859
 30
0.0
 10
10.0
 20
-3.14598028412197
 30
0.0
 10
10.0
 20
-3.809614983582288
 30
0.0
 10
10.0
 20
-4.612363875844409
 30
0.0
 10
10.0
 20
-5.31505808639002
 30
0.0
 10
10.0
 20
-5.843987853699409
 30
0.0
 10
10.0
 20
-6.053874188037222
 30
0.0
 10
10.0
 20
-6.15896776071275
 30
0.0
  0
SPLINE
  5
A7
330
1F
100
AcDbEntity
  8
외형선
  6
Continuous
370
    15
100
AcDbSpline
210
0.0
220
0.0
230
1.0
 70
    24
 71
     3
 72
    14
 73
    10
 74
     0
 42
0.000000001
 43
0.00000001
 40
0.0
 40
0.0
 40
0.0
 40
0.0
 40
0.1383485161947893
 40
0.2804458004148728
 40
0.4233384219991176
 40
0.5703749392895393
 40
0.7132675608737835
 40
0.8603040781642053
 40
1.0
 40
1.0
 40
1.0
 40
1.0
 10
10.00000000000001
 20
6.276438528531341
 30
0.0
 10
10.00000000000001
 20
5.953140855006603
 30
0.0
 10
10.00000000000001
 20
5.297785255122503
 30
0.0
 10
10.00000000000001
 20
4.393129927373683
 30
0.0
 10
9.999999999999998
 20
3.567199165513564
 30
0.0
 10
10.0
 20
2.86510375693384
 30
0.0
 10
10.0
 20
2.306871134103718
 30
0.0
 10
10.0
 20
1.904612798831086
 30
0.0
 10
10.0
 20
1.781994460105245
 30
0.0
 10
10.0
 20
1.722254857866728
 30
0.0
  0
SPLINE
  5
A8
330
1F
100
AcDbEntity
  8
외형선
  6
Continuous
 62
     1
370
    15
100
AcDbSpline
210
0.0
220
0.0
230
1.0
 70
     8
 71
     3
 72
    46
 73
    42
 74
     0
 42
0.000000001
 43
0.00000001
 40
0.0
 40
0.0
 40
0.0
 40
0.0
 40
0.0625000000000001
 40
0.0625000000000001
 40
0.1250000000000003
 40
0.1250000000000003
 40
0.1875000000000004
 40
0.1875000000000004
 40
0.2500000000000006
 40
0.2500000000000006
 40
0.3125000000000007
 40
0.3125000000000007
 40
0.3437500000000008
 40
0.3437500000000008
 40
0.3750000000000008
 40
0.3750000000000008
 40
0.437500000000001
 40
0.437500000000001
 40
0.468750000000001
 40
0.468750000000001
 40
0.500000000000001
 40
0.500000000000001
 40
0.531250000000001
 40
0.531250000000001
 40
0.5625000000000009
 40
0.5625000000000009
 40
0.625000000000001
 40
0.625000000000001
 40
0.656250000000001
 40
0.656250000000001
 40
0.687500000000001
 40
0.687500000000001
 40
0.7500000000000009
 40
0.7500000000000009
 40
0.8125000000000007
 40
0.8125000000000007
 40
0.8750000000000004
 40
0.8750000000000004
 40
0.9375000000000003
 40
0.9375000000000003
 40
1.0
 40
1.0
 40
1.0
 40
1.0
 10
35.40000000000001
 20
-5.687295437006393
 30
0.0
 10
34.87372572742333
 20
-5.822937324971386
 30
0.0
 10
34.34145658586933
 20
-5.939313240019501
 30
0.0
 10
33.28145434411113
 20
-6.129630298236185
 30
0.0
 10
32.75605296790284
 20
-6.203586097354765
 30
0.0
 10
31.69531744171201
 20
-6.30841315353093
 30
0.0
 10
31.16549580483558
 20
-6.338997367409193
 30
0.0
 10
30.1107628998479
 20
-6.356046683006334
 30
0.0
 10
29.5782029289461
 20
-6.342493974370004
 30
0.0
 10
28.51925150982589
 20
-6.271480663414581
 30
0.0
 10
27.99331677467514
 20
-6.214181946102962
 30
0.0
 10
27.19745387042848
 20
-6.095930657786967
 30
0.0
 10
26.93200362893001
 20
-6.051163281938987
 30
0.0
 10
26.40285000554394
 20
-5.951305897991381
 30
0.0
 10
26.14011190912497
 20
-5.896295431317461
 30
0.0
 10
25.34765817509012
 20
-5.715795637784002
 30
0.0
 10
24.81496869661682
 20
-5.574783570387035
 30
0.0
 10
24.0217806154543
 20
-5.33550973647194
 30
0.0
 10
23.75913475685259
 20
-5.251240657785961
 30
0.0
 10
23.23042309971458
 20
-5.073384127864943
 30
0.0
 10
22.96507195190494
 20
-4.979859826650969
 30
0.0
 10
22.43444851950158
 20
-4.784317909250994
 30
0.0
 10
22.16917803608384
 20
-4.6823009612964
 30
0.0
 10
21.64078694418829
 20
-4.470605961103119
 30
0.0
 10
21.37808068859582
 20
-4.3609976019329
 30
0.0
 10
20.58445851056038
 20
-4.020351224607022
 30
0.0
 10
20.05180097774257
 20
-3.777923475045001
 30
0.0
 10
19.25987472276454
 20
-3.396984854683199
 30
0.0
 10
18.99695545039334
 20
-3.267125796843263
 30
0.0
 10
18.46754366858356
 20
-3.00137691811422
 30
0.0
 10
18.20204433537319
 20
-2.865644713749179
 30
0.0
 10
17.40627602998203
 20
-2.451449486631637
 30
0.0
 10
16.88061608803412
 20
-2.166694214531395
 30
0.0
 10
15.82121095990163
 20
-1.582698709360696
 30
0.0
 10
15.2887467935377
 20
-1.283653043199106
 30
0.0
 10
14.2348410034368
 20
-0.6808151229613275
 30
0.0
 10
13.70411402112746
 20
-0.3752658478276442
 30
0.0
 10
12.64363063229125
 20
0.2361450974440251
 30
0.0
 10
12.11829303643632
 20
0.5411495226290861
 30
0.0
 10
11.05796262565581
 20
1.147141168766919
 30
0.0
 10
10.52672504416396
 20
1.447387428195042
 30
0.0
 10
10.0000000000007
 20
1.740748621986347
 30
0.0
  0
SPLINE
  5
A9
330
1F
100
AcDbEntity
  8
외형선
  6
Continuous
370
    15
100
AcDbSpline
210
0.0
220
0.0
230
1.0
 70
    24
 71
     3
 72
    15
 73
    11
 74
     0
 42
0.000000001
 43
0.00000001
 40
0.0
 40
0.0
 40
0.0
 40
0.0
 40
0.1271890927579446
 40
0.2578245716226648
 40
0.389191234604
 40
0.5243675397112038
 40
0.6557342026925388
 40
0.7909105077997426
 40
0.9222771707810778
 40
1.0
 40
1.0
 40
1.0
 40
1.0
 10
10.00000000000001
 20
6.276438528551187
 30
0.0
 10
10.00000000000001
 20
5.953135418411048
 30
0.0
 10
10.00000000000001
 20
5.297768797982428
 30
0.0
 10
10.00000000000001
 20
4.393198001122617
 30
0.0
 10
10.00000000000001
 20
3.566939377967961
 30
0.0
 10
10.00000000000001
 20
2.866092790312547
 30
0.0
 10
10.00000000000001
 20
2.303255264453931
 30
0.0
 10
10.00000000000001
 20
1.915396796177518
 30
0.0
 10
10.00000000000001
 20
1.702407494301518
 30
0.0
 10
10.00000000000001
 20
1.695009505019754
 30
0.0
 10
10.00000000000001
 20
1.69225952150093
 30
0.0
  0
SPLINE
  5
AA
330
1F
100
AcDbEntity
  8
외형선
  6
Continuous
 62
     1
370
    15
100
AcDbSpline
210
0.0
220
0.0
230
1.0
 70
     8
 71
     3
 72
    46
 73
    42
 74
     0
 42
0.000000001
 43
0.00000001
 40
0.0
 40
0.0
 40
0.0
 40
0.0
 40
0.0625000000000002
 40
0.0625000000000002
 40
0.1250000000000004
 40
0.1250000000000004
 40
0.1875000000000006
 40
0.1875000000000006
 40
0.2500000000000008
 40
0.2500000000000008
 40
0.312500000000001
 40
0.312500000000001
 40
0.3437500000000009
 40
0.3437500000000009
 40
0.3750000000000008
 40
0.3750000000000008
 40
0.4375000000000007
 40
0.4375000000000007
 40
0.4687500000000008
 40
0.4687500000000008
 40
0.5000000000000008
 40
0.5000000000000008
 40
0.5312500000000009
 40
0.5312500000000009
 40
0.5625000000000009
 40
0.5625000000000009
 40
0.6250000000000008
 40
0.6250000000000008
 40
0.6562500000000008
 40
0.6562500000000008
 40
0.6875000000000008
 40
0.6875000000000008
 40
0.7500000000000007
 40
0.7500000000000007
 40
0.8125000000000006
 40
0.8125000000000006
 40
0.8750000000000003
 40
0.8750000000000003
 40
0.9375000000000002
 40
0.9375000000000002
 40
1.0
 40
1.0
 40
1.0
 40
1.0
 10
35.40000000000001
 20
-3.51314805839699
 30
0.0
 10
34.87372572742329
 20
-3.259111923196364
 30
0.0
 10
34.34145658586925
 20
-2.99189781925182
 30
0.0
 10
33.28145434411094
 20
-2.439266963562529
 30
0.0
 10
32.75605296790266
 20
-2.154332480542259
 30
0.0
 10
31.69531744171175
 20
-1.569717009261198
 30
0.0
 10
31.16549580483527
 20
-1.271023718073184
 30
0.0
 10
30.11076289984752
 20
-0.6678369713218761
 30
0.0
 10
29.57820292894569
 20
-0.3618829631294407
 30
0.0
 10
28.5192515098254
 20
0.2492461539890986
 30
0.0
 10
27.99331677467459
 20
0.5543263447662544
 30
0.0
 10
27.19745387042789
 20
1.008808612900161
 30
0.0
 10
26.9320036289294
 20
1.159586865651474
 30
0.0
 10
26.4028500055433
 20
1.458539064772097
 30
0.0
 10
26.1401119091243
 20
1.606535159243341
 30
0.0
 10
25.3476581750894
 20
2.046756648566679
 30
0.0
 10
24.81496869661605
 20
2.334931247367661
 30
0.0
 10
24.02178061545348
 20
2.7525003855335
 30
0.0
 10
23.75913475685175
 20
2.889121328986769
 30
0.0
 10
23.23042309971371
 20
3.157708740075877
 30
0.0
 10
22.96507195190405
 20
3.28954438444464
 30
0.0
 10
22.43444851950065
 20
3.547250034637693
 30
0.0
 10
22.16917803608289
 20
3.673119168803884
 30
0.0
 10
21.6407869441873
 20
3.91793397905234
 30
0.0
 10
21.37808068859481
 20
4.036827929043319
 30
0.0
 10
20.58445851055931
 20
4.383524021324645
 30
0.0
 10
20.05180097774146
 20
4.600678625342606
 30
0.0
 10
19.2598747227634
 20
4.900430415761702
 30
0.0
 10
18.99695545039215
 20
4.996062125341984
 30
0.0
 10
18.46754366858234
 20
5.178919107647122
 30
0.0
 10
18.20204433537195
 20
5.26601542662761
 30
0.0
 10
17.40627602998074
 20
5.513259041248399
 30
0.0
 10
16.88061608803279
 20
5.659019372170683
 30
0.0
 10
15.82121095990022
 20
5.911058602107373
 30
0.0
 10
15.28874679353625
 20
6.017088856846961
 30
0.0
 10
14.23484100343529
 20
6.186087801559901
 30
0.0
 10
13.7041140211259
 20
6.249586309027412
 30
0.0
 10
12.64363063228961
 20
6.332658178470295
 30
0.0
 10
12.11829303643465
 20
6.352243246619117
 30
0.0
 10
11.05796262565406
 20
6.34735003713267
 30
0.0
 10
10.52672504416219
 20
6.322736157646933
 30
0.0
 10
9.999999999998888
 20
6.276438528531241
 30
0.0
  0
SPLINE
  5
AB
330
1F
100
AcDbEntity
  8
외형선
  6
Continuous
 62
     1
370
    15
100
AcDbSpline
210
0.0
220
0.0
230
1.0
 70
     8
 71
     3
 72
    10
 73
     6
 74
     0
 42
0.000000001
 43
0.00000001
 40
0.0
 40
0.0
 40
0.0
 40
0.0
 40
0.2491700588529721
 40
0.6226968632024344
 40
0.9999999999999999
 40
0.9999999999999999
 40
0.9999999999999999
 40
0.9999999999999999
 10
34.16494710498628
 20
-2.888933564888495
 30
0.0
 10
34.10139971047745
 20
-2.90547704622903
 30
0.0
 10
33.94258944488015
 20
-2.946820592819745
 30
0.0
 10
33.66503416580525
 20
-3.055173602927025
 30
0.0
 10
33.45174149853386
 20
-3.152146755950373
 30
0.0
 10
33.34455878243909
 20
-3.200877197846397
 30
0.0
  0
SPLINE
  5
AC
330
1F
100
AcDbEntity
  8
외형선
  6
Continuous
 62
     1
370
    15
100
AcDbSpline
210
0.0
220
0.0
230
1.0
 70
     8
 71
     3
 72
     8
 73
     4
 74
     0
 42
0.000000001
 43
0.00000001
 40
0.0
 40
0.0
 40
0.0
 40
0.0
 40
1.0
 40
1.0
 40
1.0
 40
1.0
 10
35.40000000000001
 20
-3.712261908249152
 30
0.0
 10
34.69744959507477
 20
-3.604627360812694
 30
0.0
 10
34.01288949101798
 20
-3.432046801043435
 30
0.0
 10
33.34455878243908
 20
-3.200877197846398
 30
0.0
  0
LINE
  5
AD
330
1F
100
AcDbEntity
  8
외형선
  6
Continuous
 62
     1
370
    15
100
AcDbLine
 10
35.40000000000001
 20
-5.687295437006395
 30
0.0
 11
35.40000000000001
 21
-3.712261908249154
 31
0.0
  0
SPLINE
  5
AE
330
1F
100
AcDbEntity
  8
외형선
  6
Continuous
 62
     1
370
    15
100
AcDbSpline
210
0.0
220
0.0
230
1.0
 70
     8
 71
     3
 72
    15
 73
    11
 74
     0
 42
0.000000001
 43
0.00000001
 40
0.0
 40
0.0
 40
0.0
 40
0.0
 40
0.1348287574752426
 40
0.2695351839783063
 40
0.4042330967979069
 40
0.5390364038441992
 40
0.673924424632804
 40
0.8086643506814761
 40
0.9433520413442565
 40
1.0
 40
1.0
 40
1.0
 40
1.0
 10
9.999999999998888
 20
-2.303584884326474
 30
0.0
 10
10.59298989535088
 20
-2.616663201425106
 30
0.0
 10
11.77843166262612
 20
-3.242535777713539
 30
0.0
 10
13.55580125696143
 20
-4.081236447554209
 30
0.0
 10
15.33306949631066
 20
-4.817908824002318
 30
0.0
 10
17.11144564233053
 20
-5.426987571821699
 30
0.0
 10
18.89042764544914
 20
-5.897277766799101
 30
0.0
 10
20.66824603872374
 20
-6.204125542587997
 30
0.0
 10
22.10192013270605
 20
-6.350997417407897
 30
0.0
 10
22.94330856230526
 20
-6.334639714080145
 30
0.0
 10
23.19241497369863
 20
-6.329796756141498
 30
0.0
  0
SPLINE
  5
AF
330
1F
100
AcDbEntity
  8
외형선
  6
Continuous
 62
     1
370
    15
100
AcDbSpline
210
0.0
220
0.0
230
1.0
 70
     8
 71
     3
 72
    17
 73
    13
 74
     0
 42
0.000000001
 43
0.00000001
 40
0.0
 40
0.0
 40
0.0
 40
0.0
 40
0.1072545401230076
 40
0.2144012323982719
 40
0.3215305308700115
 40
0.4287330747149545
 40
0.5360237416472586
 40
0.6432011385348629
 40
0.7503263812769726
 40
0.8574901522369354
 40
0.9698548491262198
 40
1.0
 40
1.0
 40
1.0
 40
1.0
 10
35.40000000000001
 20
0.3976554946491248
 30
0.0
 10
34.80689289508756
 20
0.7381888664051949
 30
0.0
 10
33.62127507330062
 20
1.41891319279274
 30
0.0
 10
31.84377623312021
 20
2.400892440356558
 30
0.0
 10
30.06657578791735
 20
3.320873629195168
 30
0.0
 10
28.28834895274239
 20
4.154001450539767
 30
0.0
 10
26.50930780414121
 20
4.878574372842567
 30
0.0
 10
24.73136699830906
 20
5.475596756464135
 30
0.0
 10
22.95423565632068
 20
5.933193767182487
 30
0.0
 10
21.14836185940383
 20
6.227502307846617
 30
0.0
 10
19.76757533753478
 20
6.36241809967591
 30
0.0
 10
18.97955365990203
 20
6.33742023538827
 30
0.0
 10
18.8128631978959
 20
6.332132429652023
 30
0.0
  0
LINE
  5
B0
330
1F
100
AcDbEntity
  8
외형선
  6
Continuous
 62
     1
370
    15
100
AcDbLine
 10
35.40000000000001
 20
-3.513148058396992
 30
0.0
 11
35.40000000000001
 21
0.3976554946491251
 31
0.0
  0
SPLINE
  5
B1
330
1F
100
AcDbEntity
  8
외형선
  6
Continuous
 62
     1
370
    15
100
AcDbSpline
210
0.0
220
0.0
230
1.0
 70
     8
 71
     3
 72
    12
 73
     8
 74
     0
 42
0.000000001
 43
0.00000001
 40
0.0
 40
0.0
 40
0.0
 40
0.0
 40
0.1364828469216899
 40
0.3523191192334635
 40
0.5681155034014339
 40
0.7839749664374499
 40
1.0
 40
1.0
 40
1.0
 40
1.0
 10
26.77290293629066
 20
4.750454980405892
 30
0.0
 10
27.16542775363688
 20
4.901182182221733
 30
0.0
 10
28.17869792673083
 20
5.290271919034971
 30
0.0
 10
29.81227665330805
 20
5.754952339591088
 30
0.0
 10
31.67409124483512
 20
6.13762357974145
 30
0.0
 10
33.53651052402117
 20
6.352059522510452
 30
0.0
 10
34.77867810573542
 20
6.342378808696019
 30
0.0
 10
35.40000000000001
 20
6.337536596152749
 30
0.0
  0
SPLINE
  5
B2
330
1F
100
AcDbEntity
  8
외형선
  6
Continuous
 62
     1
370
    15
100
AcDbSpline
210
0.0
220
0.0
230
1.0
 70
     8
 71
     3
 72
    14
 73
    10
 74
     0
 42
0.000000001
 43
0.00000001
 40
0.0
 40
0.0
 40
0.0
 40
0.0
 40
0.25
 40
0.25
 40
0.5
 40
0.5
 40
0.75
 40
0.75
 40
1.0
 40
1.0
 40
1.0
 40
1.0
 10
35.40000000000001
 20
4.111650175188995
 30
0.0
 10
35.2953598200373
 20
3.872708075722345
 30
0.0
 10
35.1720105176487
 20
3.651334114148405
 30
0.0
 10
34.88588952381583
 20
3.24560438732335
 30
0.0
 10
34.72099981196371
 20
3.060050456678381
 30
0.0
 10
34.36660679092164
 20
2.744658008868894
 30
0.0
 10
34.17596913642299
 20
2.612280937899529
 30
0.0
 10
33.76896710461592
 20
2.395988357746759
 30
0.0
 10
33.5593804717554
 20
2.315575663516896
 30
0.0
 10
33.34455878243909
 20
2.259147104212416
 30
0.0
  0
SPLINE
  5
B3
330
1F
100
AcDbEntity
  8
외형선
  6
Continuous
 62
     1
370
    15
100
AcDbSpline
210
0.0
220
0.0
230
1.0
 70
     8
 71
     3
 72
     8
 73
     4
 74
     0
 42
0.000000001
 43
0.00000001
 40
0.0
 40
0.0
 40
0.0
 40
0.0
 40
1.0
 40
1.0
 40
1.0
 40
1.0
 10
35.40000000000001
 20
1.22491761752884
 30
0.0
 10
34.69744959507477
 20
1.606907700197677
 30
0.0
 10
34.01288949101799
 20
1.950394622117442
 30
0.0
 10
33.34455878243909
 20
2.259147104212413
 30
0.0
  0
LINE
  5
B4
330
1F
100
AcDbEntity
  8
외형선
  6
Continuous
 62
     1
370
    15
100
AcDbLine
 10
35.40000000000001
 20
0.3976554946491251
 30
0.0
 11
35.40000000000001
 21
1.22491761752884
 31
0.0
  0
LINE
  5
B5
330
1F
100
AcDbEntity
  8
외형선
  6
Continuous
 62
     1
370
    15
100
AcDbLine
 10
35.40000000000001
 20
4.111650175188996
 30
0.0
 11
35.40000000000001
 21
6.337536596152754
 31
0.0
  0
SPLINE
  5
B6
330
1F
100
AcDbEntity
  8
외형선
  6
Continuous
 62
     1
370
    15
100
AcDbSpline
210
0.0
220
0.0
230
1.0
 70
     8
 71
     3
 72
    10
 73
     6
 74
     0
 42
0.000000001
 43
0.00000001
 40
0.0
 40
0.0
 40
0.0
 40
0.0
 40
0.2881583996638153
 40
0.6439544811995354
 40
1.0
 40
1.0
 40
1.0
 40
1.0
 10
15.23360605538479
 20
-4.755604527896409
 30
0.0
 10
14.7309460124572
 20
-4.942657746441759
 30
0.0
 10
13.60763956870679
 20
-5.360670056496238
 30
0.0
 10
11.86322300603024
 20
-5.843776755979711
 30
0.0
 10
10.62121940599848
 20
-6.053879551669913
 30
0.0
 10
10.00000000000071
 20
-6.158967760700708
 30
0.0
  0
SPLINE
  5
B7
330
1F
100
AcDbEntity
  8
외형선
  6
Continuous
370
    15
100
AcDbSpline
210
0.0
220
0.0
230
1.0
 70
    24
 71
     3
 72
    15
 73
    11
 74
     0
 42
0.000000001
 43
0.00000001
 40
0.0
 40
0.0
 40
0.0
 40
0.0
 40
0.0603625406443913
 40
0.1999550220350721
 40
0.3435956948427493
 40
0.4831881762334302
 40
0.6268288490411074
 40
0.7664213304317881
 40
0.9100620032394654
 40
1.0
 40
1.0
 40
1.0
 40
1.0
 10
10.00000000000001
 20
-2.134100470896542
 30
0.0
 10
10.00000000000001
 20
-2.130449567530556
 30
0.0
 10
10.00000000000001
 20
-2.11835570177871
 30
0.0
 10
10.00000000000001
 20
-2.284566768678337
 30
0.0
 10
10.00000000000001
 20
-2.625221712125385
 30
0.0
 10
10.00000000000001
 20
-3.146046470080401
 30
0.0
 10
10.00000000000001
 20
-3.80940167812529
 30
0.0
 10
10.00000000000001
 20
-4.61313402795107
 30
0.0
 10
10.00000000000001
 20
-5.408959389458948
 30
0.0
 10
10.00000000000001
 20
-5.950464590753477
 30
0.0
 10
10.00000000000001
 20
-6.158967760712743
 30
0.0
  0
LINE
  5
B8
330
1F
100
AcDbEntity
  8
외형선
  6
Continuous
 62
     1
370
    15
100
AcDbLine
 10
35.40000000000001
 20
1.22491761752884
 30
0.0
 11
35.40000000000001
 21
4.111650175188996
 31
0.0
  0
LINE
  5
B9
330
1F
100
AcDbEntity
  8
외형선
  6
Continuous
 62
     1
370
    15
100
AcDbLine
 10
35.40000000000001
 20
-3.513148058396993
 30
0.0
 11
35.40000000000001
 21
-3.712261908249153
 31
0.0
  0
LINE
  5
BA
330
1F
100
AcDbEntity
  8
외형선
  6
Continuous
 62
     1
370
    15
100
AcDbLine
 10
35.40000000000001
 20
6.337536596152754
 30
0.0
 11
35.40000000000001
 21
6.350000000000001
 31
0.0
  0
LINE
  5
BB
330
1F
100
AcDbEntity
  8
중심선
 62
     1
100
AcDbLine
 10
-43.80000000000001
 20
-0.0000000000000047
 30
0.0
 11
38.40000000000001
 21
0.0000000000000037
 31
0.0
  0
LINE
  5
BC
330
1F
100
AcDbEntity
  8
참조1
100
AcDbLine
 10
-2.700000000000003
 20
0.1476145137015384
 30
0.0
 11
-2.699999999999998
 21
-39.85238548629846
 31
0.0
  0
LINE
  5
BD
330
1F
100
AcDbEntity
  8
참조1
100
AcDbLine
 10
-2.699999999999998
 20
-39.85238548629846
 30
0.0
 11
-14.68383181430866
 21
-39.85238548629846
 31
0.0
  0
INSERT
  5
BF
330
1F
100
AcDbEntity
  8
0
  6
Continuous
 62
     7
100
AcDbBlockReference
 66
     1
  2
블럭10
 10
-16.64027293212521
 20
-51.89955978794239
 30
0.0
  0
ATTRIB
  5
C0
330
BF
100
AcDbEntity
  8
FORMAT
 62
     2
100
AcDbText
 10
-26.16258688272314
 20
-49.8241928751102
 30
0.0
 40
4.233333333333333
  1
EH108032 [ 3 FLUTE ]
 41
0.75
  7
SLDTEXTSTYLE0
 11
-26.16258688272314
 21
-51.94085954177687
 31
0.0
100
AcDbAttribute
  2
AUTOATTR0
 70
     0
 74
     1
  0
SEQEND
  5
C1
330
BF
100
AcDbEntity
  8
0
  6
Continuous
 62
     7
  0
HATCH
  5
C2
330
1F
100
AcDbEntity
  8
중심선
100
AcDbHatch
 10
0.0
 20
0.0
 30
0.0
210
0.0
220
0.0
230
1.0
  2
SOLID
 70
     1
 71
     0
 91
        1
 92
        0
 93
        4
 72
     1
 10
-10.92536362774436
 20
-35.65238548629846
 11
-14.37163887158164
 21
-35.65238548629846
 72
     1
 10
-14.37163887158164
 20
-35.65238548629846
 11
-16.49986873078566
 21
-38.18871106687106
 72
     1
 10
-16.49986873078566
 20
-38.18871106687105
 11
-13.05356040183523
 21
-38.18867163756856
 72
     1
 10
-13.05356040183523
 20
-38.18867163756856
 11
-10.92536362774436
 21
-35.65238548629845
 97
        0
 75
     0
 76
     1
 98
        1
 10
7.518842335746115
 20
0.1465395849776492
  0
HATCH
  5
C3
330
1F
100
AcDbEntity
  8
중심선
100
AcDbHatch
 10
0.0
 20
0.0
 30
0.0
210
0.0
220
0.0
230
1.0
  2
SOLID
 70
     1
 71
     0
 91
        1
 92
        0
 93
        4
 72
     1
 10
-5.912599636708379
 20
-35.65238548629846
 11
-9.358874880545688
 21
-35.65238548629848
 72
     1
 10
-9.358874880545688
 20
-35.65238548629848
 11
-13.89001288890308
 21
-41.05238548629848
 72
     1
 10
-13.89001288890308
 20
-41.05238548629848
 11
-10.4437376450658
 21
-41.05238548629848
 72
     1
 10
-10.4437376450658
 20
-41.05238548629848
 11
-5.912599636708379
 21
-35.65238548629846
 97
        0
 75
     0
 76
     1
 98
        1
 10
7.518842335746115
 20
0.1465395849776492
  0
HATCH
  5
C4
330
1F
100
AcDbEntity
  8
중심선
100
AcDbHatch
 10
0.0
 20
0.0
 30
0.0
210
0.0
220
0.0
230
1.0
  2
SOLID
 70
     1
 71
     0
 91
        1
 92
        0
 93
        4
 72
     1
 10
-0.8998356456725123
 20
-35.65238548629846
 11
-4.3461108895096
 21
-35.65238548629846
 72
     1
 10
-4.3461108895096
 20
-35.65238548629846
 11
-11.39454779139888
 21
-44.05238548629848
 72
     1
 10
-11.39454779139888
 20
-44.05238548629848
 11
-7.948272547561594
 21
-44.05238548629848
 72
     1
 10
-7.948272547561594
 20
-44.05238548629848
 11
-0.8998356456725123
 21
-35.65238548629846
 97
        0
 75
     0
 76
     1
 98
        1
 10
7.518842335746115
 20
0.1465395849776492
  0
HATCH
  5
C5
330
1F
100
AcDbEntity
  8
중심선
100
AcDbHatch
 10
0.0
 20
0.0
 30
0.0
210
0.0
220
0.0
230
1.0
  2
SOLID
 70
     1
 71
     0
 91
        1
 92
        0
 93
        6
 72
     3
 10
3.900054785339687
 20
-39.85238548634973
 11
3.960054785062283
 21
1.540882976769353E-10
 40
0.3939339440162628
 50
17.09539180608436
 51
320.0019657685078
 73
     0
 72
     1
 10
5.583054441040283
 20
-38.44027949093676
 11
7.888356314741321
 21
-36.50595278088881
 72
     3
 10
3.900054785286841
 20
-39.8523854862986
 11
6.600054785286829
 21
-1.278976924368180E-13
 40
0.636358354079598
 50
39.99873849337431
 51
368.4976242363724
 73
     1
 72
     1
 10
10.32538727718745
 20
-38.89238548622848
 11
2.580122092122764
 21
-38.89238548622848
 72
     1
 10
2.580122092122764
 20
-38.89238548622848
 11
2.58009704767683
 21
-40.81238548622837
 72
     1
 10
2.58009704767683
 20
-40.81238548622837
 11
7.021476817148867
 21
-40.81238548622834
 97
        0
 75
     0
 76
     1
 98
        1
 10
7.518842335746115
 20
0.1465395849776492
  0
DIMENSION
  5
C6
330
1F
100
AcDbEntity
  8
치수문자_일반주서
100
AcDbDimension
  2
_D
 10
35.4
 20
30.63984624538547
 30
0.0
 11
-2.699999999999994
 21
30.63984624538547
 31
0.0
 70
   160
  1
<>
 71
     2
 42
76.20000000000002
  3
SLDDIMSTYLE1
100
AcDbAlignedDimension
 13
-40.8
 23
5.849999999999993
 33
0.0
 14
35.40000000000001
 24
6.350000000000001
 34
0.0
 50
-0.0000000000000053
100
AcDbRotatedDimension
1001
PE_URL
1000

1001
ACAD
1000
DSTYLE
1002
{
1070
   171
1070
     6
1070
   273
1070
     7
1002
}
  0
DIMENSION
  5
DA
330
1F
100
AcDbEntity
  8
치수문자_일반주서
100
AcDbDimension
  2
_D_1
 10
-53.8
 20
-6.350000000000046
 30
0.0
 11
-53.80000000000002
 21
-0.0000000000000024
 31
0.0
 70
   160
  1
%%c<>
 71
     2
 42
12.69999999999999
 52
-270.0
  3
SLDDIMSTYLE1
100
AcDbAlignedDimension
 13
-40.3
 23
6.349999999999993
 33
0.0
 14
-40.3
 24
-6.349999999999995
 34
0.0
 50
90.0000000000002
100
AcDbRotatedDimension
1001
ACAD
1000
DSTYLE
1002
{
1070
   171
1070
     6
1070
   273
1070
     7
1002
}
  0
DIMENSION
  5
EF
330
1F
100
AcDbEntity
  8
치수문자_일반주서
100
AcDbDimension
  2
_D_2
 10
10.00000000000001
 20
15.58628572457923
 30
0.0
 11
23.51203485968529
 21
15.58628572457923
 31
0.0
 70
   160
  1
<>
 71
     2
 42
25.4
  3
SLDDIMSTYLE1
100
AcDbAlignedDimension
 13
35.40000000000001
 23
6.350000000000001
 33
0.0
 14
10.00000000000001
 24
6.27643852853134
 34
0.0
 50
0.000000000000016
100
AcDbRotatedDimension
1001
PE_URL
1000

1001
ACAD
1000
DSTYLE
1002
{
1070
   171
1070
     6
1070
   273
1070
     7
1002
}
  0
DIMENSION
  5
104
330
1F
100
AcDbEntity
  8
치수문자_일반주서
100
AcDbDimension
  2
_D_3
 10
48.84845269819869
 20
-6.34999999999992
 30
0.0
 11
48.84845269819858
 21
28.26650000000003
 31
0.0
 70
   160
  1
%%c<>
 71
     2
 42
12.69999999999997
 52
-270.0
  3
SLDDIMSTYLE1
100
AcDbAlignedDimension
 13
35.40000000000001
 23
6.350000000000001
 33
0.0
 14
35.4
 24
-6.349999999999968
 34
0.0
 50
90.0000000000002
100
AcDbRotatedDimension
1001
PE_URL
1000

1001
ACAD
1000
DSTYLE
1002
{
1070
   171
1070
     6
1070
   273
1070
     7
1002
}
  0
LINE
  5
119
330
1F
100
AcDbEntity
  8
참조1
100
AcDbLine
 10
83.2885088153456
 20
7.587614513701545
 30
0.0
 11
83.2885088153456
 21
-7.29238548629846
 31
0.0
  0
LINE
  5
11A
330
1F
100
AcDbEntity
  8
참조1
100
AcDbLine
 10
95.9885088153456
 20
5.587614513701545
 30
0.0
 11
83.2885088153456
 21
5.587614513701545
 31
0.0
  0
SOLID
  5
11B
330
1F
100
AcDbEntity
  8
참조1
100
AcDbTrace
 10
83.2885088153456
 20
5.587614513701545
 30
0.0
 11
89.63850881534559
 21
4.571614513701545
 31
0.0
 12
89.63850881534559
 22
6.603614513701545
 32
0.0
 13
89.63850881534559
 23
6.603614513701545
 33
0.0
  0
LINE
  5
11C
330
1F
100
AcDbEntity
  8
참조1
100
AcDbLine
 10
95.9885088153456
 20
-5.29238548629846
 30
0.0
 11
83.2885088153456
 21
-5.29238548629846
 31
0.0
  0
SOLID
  5
11D
330
1F
100
AcDbEntity
  8
참조1
100
AcDbTrace
 10
83.2885088153456
 20
-5.29238548629846
 30
0.0
 11
89.63850881534559
 21
-6.30838548629846
 31
0.0
 12
89.63850881534559
 22
-4.27638548629846
 32
0.0
 13
89.63850881534559
 23
-4.27638548629846
 33
0.0
  0
MTEXT
  5
11E
330
1F
100
AcDbEntity
  8
참조1
100
AcDbMText
 10
92.68599890781587
 20
11.13583115835148
 30
0.0
 40
3.5
 41
0.0
 71
     1
 72
     1
  1
A
  7
SLDTEXTSTYLE0
 73
     1
 44
1.0
  0
MTEXT
  5
11F
330
1F
100
AcDbEntity
  8
참조1
100
AcDbMText
 10
92.68599890781587
 20
0.2558311583514751
 30
0.0
 40
3.5
 41
0.0
 71
     1
 72
     1
  1
A
  7
SLDTEXTSTYLE0
 73
     1
 44
1.0
  0
INSERT
  5
126
330
1F
100
AcDbEntity
  8
해칭선
100
AcDbBlockReference
  2
SW_DOWELSYMBOL_0
 10
0.0
 20
0.0
 30
0.0
  0
LINE
  5
1B6
330
1F
100
AcDbEntity
  8
외형선
  6
Continuous
370
    15
100
AcDbLine
 10
-23.76612499999997
 20
4.826000000000001
 30
0.0
 11
-12.5901250000001
 21
4.826000000000001
 31
0.0
  0
LINE
  5
1B7
330
1F
100
AcDbEntity
  8
외형선
  6
Continuous
370
    15
100
AcDbLine
 10
-23.76612499999997
 20
4.826000000000001
 30
0.0
 11
-25.29012499999997
 21
6.350000000000001
 31
0.0
  0
LINE
  5
1B8
330
1F
100
AcDbEntity
  8
외형선
  6
Continuous
370
    15
100
AcDbLine
 10
-12.59012499999999
 20
4.826000000000001
 30
0.0
 11
-11.06612499999999
 21
6.350000000000001
 31
0.0
  0
LINE
  5
1B9
330
1F
100
AcDbEntity
  8
외형선
  6
Continuous
370
    15
100
AcDbLine
 10
-25.29012499999997
 20
6.349999999999997
 30
0.0
 11
-40.3
 21
6.349999999999996
 31
0.0
  0
ENDSEC
  0
SECTION
  2
OBJECTS
  0
DICTIONARY
  5
C
330
0
100
AcDbDictionary
281
     1
  3
ACAD_DETAILVIEWSTYLE
350
155
  3
ACAD_GROUP
350
D
  3
ACAD_IMAGE_VARS
350
17A
  3
ACAD_LAYOUT
350
1A
  3
ACAD_MLINESTYLE
350
17
  3
ACAD_PLOTSETTINGS
350
19
  3
ACAD_PLOTSTYLENAME
350
E
  3
ACAD_SCALELIST
350
47
  3
ACAD_SECTIONVIEWSTYLE
350
156
  3
AcDbVariableDictionary
350
150
  3
APPDATA
350
148
  3
DWGPROPS
350
1BA
  0
DICTIONARY
  5
1A7
330
2
100
AcDbDictionary
280
     1
281
     1
  3
ACAD_LAYERSTATES
360
1A8
  0
DICTIONARY
  5
155
102
{ACAD_REACTORS
330
C
102
}
330
C
100
AcDbDictionary
281
     1
  0
DICTIONARY
  5
D
102
{ACAD_REACTORS
330
C
102
}
330
C
100
AcDbDictionary
281
     1
  0
RASTERVARIABLES
  5
17A
102
{ACAD_REACTORS
330
C
102
}
330
C
100
AcDbRasterVariables
 90
        0
 70
     1
 71
     1
 72
     1
  0
DICTIONARY
  5
1A
102
{ACAD_REACTORS
330
C
102
}
330
C
100
AcDbDictionary
281
     1
  3
Layout1
350
1E
  3
Layout2
350
26
  3
Model
350
22
  0
DICTIONARY
  5
17
102
{ACAD_REACTORS
330
C
102
}
330
C
100
AcDbDictionary
281
     1
  3
Standard
350
18
  0
DICTIONARY
  5
19
102
{ACAD_REACTORS
330
C
102
}
330
C
100
AcDbDictionary
281
     1
  0
ACDBDICTIONARYWDFLT
  5
E
102
{ACAD_REACTORS
330
C
102
}
330
C
100
AcDbDictionary
281
     1
  3
Normal
350
F
100
AcDbDictionaryWithDefault
340
F
  0
DICTIONARY
  5
47
102
{ACAD_REACTORS
330
C
102
}
330
C
100
AcDbDictionary
281
     1
  3
A0
350
48
  3
A1
350
49
  3
A2
350
4A
  3
A3
350
4B
  3
A4
350
4C
  3
A5
350
4D
  3
A6
350
4E
  3
A7
350
4F
  3
A8
350
50
  3
A9
350
51
  3
B0
350
52
  3
B1
350
53
  3
B2
350
54
  3
B3
350
55
  3
B4
350
56
  3
B5
350
57
  3
B6
350
58
  3
B7
350
59
  3
B8
350
5A
  3
B9
350
5B
  3
C0
350
5C
  3
C1
350
5D
  3
C2
350
5E
  3
C3
350
5F
  3
C4
350
60
  3
C5
350
61
  3
C6
350
62
  3
C7
350
63
  3
C8
350
64
  3
C9
350
65
  3
D0
350
66
  3
D1
350
67
  3
D2
350
68
  0
DICTIONARY
  5
156
102
{ACAD_REACTORS
330
C
102
}
330
C
100
AcDbDictionary
281
     1
  0
DICTIONARY
  5
150
102
{ACAD_REACTORS
330
C
102
}
330
C
100
AcDbDictionary
281
     1
  0
DICTIONARY
  5
148
102
{ACAD_REACTORS
330
C
102
}
330
C
100
AcDbDictionary
281
     1
  0
XRECORD
  5
1BA
102
{ACAD_REACTORS
330
C
102
}
330
C
100
AcDbXrecord
280
     1
  1
DWGPROPS COOKIE
  2

  3

  4

  6

  7

  8
12016016
  9

300
=
301
=
302
=
303
=
304
=
305
=
306
=
307
=
308
=
309
=
 40
0.0
 41
2458291.183808993
 42
2458302.214781065
  1

 90
        0
  0
DICTIONARY
  5
1A8
102
{ACAD_REACTORS
330
1A7
102
}
330
1A7
100
AcDbDictionary
281
     1
  0
LAYOUT
  5
1E
102
{ACAD_REACTORS
330
1A
102
}
330
1A
100
AcDbPlotSettings
  1

  2
none_device
  4

  6

 40
0.0
 41
0.0
 42
0.0
 43
0.0
 44
0.0
 45
0.0
 46
0.0
 47
0.0
 48
0.0
 49
0.0
140
0.0
141
0.0
142
1.0
143
1.0
 70
   688
 72
     1
 73
     0
 74
     5
  7

 75
    16
147
1.0
148
0.0
149
0.0
100
AcDbLayout
  1
Layout1
 70
     1
 71
     1
 10
0.0
 20
0.0
 11
420.0
 21
297.0
 12
0.0
 22
0.0
 32
0.0
 14
1.000000000000000E+20
 24
1.000000000000000E+20
 34
1.000000000000000E+20
 15
-1.000000000000000E+20
 25
-1.000000000000000E+20
 35
-1.000000000000000E+20
146
0.0
 13
0.0
 23
0.0
 33
0.0
 16
1.0
 26
0.0
 36
0.0
 17
0.0
 27
1.0
 37
0.0
 76
     0
330
1B
  0
LAYOUT
  5
26
102
{ACAD_REACTORS
330
1A
102
}
330
1A
100
AcDbPlotSettings
  1

  2
none_device
  4

  6

 40
0.0
 41
0.0
 42
0.0
 43
0.0
 44
0.0
 45
0.0
 46
0.0
 47
0.0
 48
0.0
 49
0.0
140
0.0
141
0.0
142
1.0
143
1.0
 70
   688
 72
     1
 73
     0
 74
     5
  7

 75
    16
147
1.0
148
0.0
149
0.0
100
AcDbLayout
  1
Layout2
 70
     1
 71
     2
 10
0.0
 20
0.0
 11
0.0
 21
0.0
 12
0.0
 22
0.0
 32
0.0
 14
0.0
 24
0.0
 34
0.0
 15
0.0
 25
0.0
 35
0.0
146
0.0
 13
0.0
 23
0.0
 33
0.0
 16
1.0
 26
0.0
 36
0.0
 17
0.0
 27
1.0
 37
0.0
 76
     0
330
23
  0
LAYOUT
  5
22
102
{ACAD_REACTORS
330
1A
102
}
330
1A
100
AcDbPlotSettings
  1

  2
none_device
  4
ANSI_A_(11.00_x_8.50_Inches)
  6

 40
6.35
 41
19.05
 42
6.35000508
 43
19.05000254
 44
279.4
 45
215.9
 46
119.2614875516787
 47
97.02043653122576
 48
0.0
 49
0.0
140
0.0
141
0.0
142
0.0678160773422333
143
1.0
 70
  1696
 72
     0
 73
     0
 74
     0
  7

 75
     0
147
0.0235690232323232
148
0.0
149
0.0
100
AcDbLayout
  1
Model
 70
     1
 71
     0
 10
0.0
 20
0.0
 11
420.0
 21
297.0
 12
0.0
 22
0.0
 32
0.0
 14
1.000000000000000E+20
 24
1.000000000000000E+20
 34
1.000000000000000E+20
 15
-1.000000000000000E+20
 25
-1.000000000000000E+20
 35
-1.000000000000000E+20
146
0.0
 13
0.0
 23
0.0
 33
0.0
 16
1.0
 26
0.0
 36
0.0
 17
0.0
 27
1.0
 37
0.0
 76
     0
330
1F
331
29
  0
MLINESTYLE
  5
18
102
{ACAD_REACTORS
330
17
102
}
330
17
100
AcDbMlineStyle
  2
Standard
 70
     0
  3

 62
   256
 51
90.0
 52
90.0
 71
     2
 49
0.5
 62
   256
  6
BYLAYER
 49
-0.5
 62
   256
  6
BYLAYER
  0
ACDBPLACEHOLDER
  5
F
102
{ACAD_REACTORS
330
E
102
}
330
E
  0
SCALE
  5
48
102
{ACAD_REACTORS
330
47
102
}
330
47
100
AcDbScale
 70
     0
300
1:1
140
1.0
141
1.0
290
     1
  0
SCALE
  5
49
102
{ACAD_REACTORS
330
47
102
}
330
47
100
AcDbScale
 70
     0
300
1:2
140
1.0
141
2.0
290
     0
  0
SCALE
  5
4A
102
{ACAD_REACTORS
330
47
102
}
330
47
100
AcDbScale
 70
     0
300
1:4
140
1.0
141
4.0
290
     0
  0
SCALE
  5
4B
102
{ACAD_REACTORS
330
47
102
}
330
47
100
AcDbScale
 70
     0
300
1:5
140
1.0
141
5.0
290
     0
  0
SCALE
  5
4C
102
{ACAD_REACTORS
330
47
102
}
330
47
100
AcDbScale
 70
     0
300
1:8
140
1.0
141
8.0
290
     0
  0
SCALE
  5
4D
102
{ACAD_REACTORS
330
47
102
}
330
47
100
AcDbScale
 70
     0
300
1:10
140
1.0
141
10.0
290
     0
  0
SCALE
  5
4E
102
{ACAD_REACTORS
330
47
102
}
330
47
100
AcDbScale
 70
     0
300
1:16
140
1.0
141
16.0
290
     0
  0
SCALE
  5
4F
102
{ACAD_REACTORS
330
47
102
}
330
47
100
AcDbScale
 70
     0
300
1:20
140
1.0
141
20.0
290
     0
  0
SCALE
  5
50
102
{ACAD_REACTORS
330
47
102
}
330
47
100
AcDbScale
 70
     0
300
1:30
140
1.0
141
30.0
290
     0
  0
SCALE
  5
51
102
{ACAD_REACTORS
330
47
102
}
330
47
100
AcDbScale
 70
     0
300
1:40
140
1.0
141
40.0
290
     0
  0
SCALE
  5
52
102
{ACAD_REACTORS
330
47
102
}
330
47
100
AcDbScale
 70
     0
300
1:50
140
1.0
141
50.0
290
     0
  0
SCALE
  5
53
102
{ACAD_REACTORS
330
47
102
}
330
47
100
AcDbScale
 70
     0
300
1:100
140
1.0
141
100.0
290
     0
  0
SCALE
  5
54
102
{ACAD_REACTORS
330
47
102
}
330
47
100
AcDbScale
 70
     0
300
2:1
140
2.0
141
1.0
290
     0
  0
SCALE
  5
55
102
{ACAD_REACTORS
330
47
102
}
330
47
100
AcDbScale
 70
     0
300
4:1
140
4.0
141
1.0
290
     0
  0
SCALE
  5
56
102
{ACAD_REACTORS
330
47
102
}
330
47
100
AcDbScale
 70
     0
300
8:1
140
8.0
141
1.0
290
     0
  0
SCALE
  5
57
102
{ACAD_REACTORS
330
47
102
}
330
47
100
AcDbScale
 70
     0
300
10:1
140
10.0
141
1.0
290
     0
  0
SCALE
  5
58
102
{ACAD_REACTORS
330
47
102
}
330
47
100
AcDbScale
 70
     0
300
100:1
140
100.0
141
1.0
290
     0
  0
SCALE
  5
59
102
{ACAD_REACTORS
330
47
102
}
330
47
100
AcDbScale
 70
     0
300
1/128" = 1'-0"
140
0.0078125
141
12.0
290
     0
  0
SCALE
  5
5A
102
{ACAD_REACTORS
330
47
102
}
330
47
100
AcDbScale
 70
     0
300
1/64" = 1'-0"
140
0.015625
141
12.0
290
     0
  0
SCALE
  5
5B
102
{ACAD_REACTORS
330
47
102
}
330
47
100
AcDbScale
 70
     0
300
1/32" = 1'-0"
140
0.03125
141
12.0
290
     0
  0
SCALE
  5
5C
102
{ACAD_REACTORS
330
47
102
}
330
47
100
AcDbScale
 70
     0
300
1/16" = 1'-0"
140
0.0625
141
12.0
290
     0
  0
SCALE
  5
5D
102
{ACAD_REACTORS
330
47
102
}
330
47
100
AcDbScale
 70
     0
300
3/32" = 1'-0"
140
0.09375
141
12.0
290
     0
  0
SCALE
  5
5E
102
{ACAD_REACTORS
330
47
102
}
330
47
100
AcDbScale
 70
     0
300
1/8" = 1'-0"
140
0.125
141
12.0
290
     0
  0
SCALE
  5
5F
102
{ACAD_REACTORS
330
47
102
}
330
47
100
AcDbScale
 70
     0
300
3/16" = 1'-0"
140
0.1875
141
12.0
290
     0
  0
SCALE
  5
60
102
{ACAD_REACTORS
330
47
102
}
330
47
100
AcDbScale
 70
     0
300
1/4" = 1'-0"
140
0.25
141
12.0
290
     0
  0
SCALE
  5
61
102
{ACAD_REACTORS
330
47
102
}
330
47
100
AcDbScale
 70
     0
300
3/8" = 1'-0"
140
0.375
141
12.0
290
     0
  0
SCALE
  5
62
102
{ACAD_REACTORS
330
47
102
}
330
47
100
AcDbScale
 70
     0
300
1/2" = 1'-0"
140
0.5
141
12.0
290
     0
  0
SCALE
  5
63
102
{ACAD_REACTORS
330
47
102
}
330
47
100
AcDbScale
 70
     0
300
3/4" = 1'-0"
140
0.75
141
12.0
290
     0
  0
SCALE
  5
64
102
{ACAD_REACTORS
330
47
102
}
330
47
100
AcDbScale
 70
     0
300
1" = 1'-0"
140
1.0
141
12.0
290
     0
  0
SCALE
  5
65
102
{ACAD_REACTORS
330
47
102
}
330
47
100
AcDbScale
 70
     0
300
1-1/2" = 1'-0"
140
1.5
141
12.0
290
     0
  0
SCALE
  5
66
102
{ACAD_REACTORS
330
47
102
}
330
47
100
AcDbScale
 70
     0
300
3" = 1'-0"
140
3.0
141
12.0
290
     0
  0
SCALE
  5
67
102
{ACAD_REACTORS
330
47
102
}
330
47
100
AcDbScale
 70
     0
300
6" = 1'-0"
140
6.0
141
12.0
290
     0
  0
SCALE
  5
68
102
{ACAD_REACTORS
330
47
102
}
330
47
100
AcDbScale
 70
     0
300
1'-0" = 1'-0"
140
12.0
141
12.0
290
     0
  0
ENDSEC
  0
EOF
