  0
SECTION
  2
HEADER
  9
$ACADVER
  1
AC1015
  9
$ACADMAINTVER
 70
     6
  9
$DWGCODEPAGE
  3
ANSI_949
  9
$INSBASE
 10
0.0
 20
0.0
 30
0.0
  9
$EXTMIN
 10
-27.40872170840608
 20
-49.8241928751102
 30
0.0
  9
$EXTMAX
 10
95.9885088153456
 20
32.69161981396696
 30
0.0
  9
$LIMMIN
 10
0.0
 20
0.0
  9
$LIMMAX
 10
420.0
 20
297.0
  9
$ORTHOMODE
 70
     1
  9
$REGENMODE
 70
     1
  9
$FILLMODE
 70
     1
  9
$QTEXTMODE
 70
     0
  9
$MIRRTEXT
 70
     1
  9
$LTSCALE
 40
1.0
  9
$ATTMODE
 70
     1
  9
$TEXTSIZE
 40
3.5
  9
$TRACEWID
 40
1.0
  9
$TEXTSTYLE
  7
Standard
  9
$CLAYER
  8
0
  9
$CELTYPE
  6
ByLayer
  9
$CECOLOR
 62
   256
  9
$CELTSCALE
 40
1.0
  9
$DISPSILH
 70
     0
  9
$DIMSCALE
 40
1.0
  9
$DIMASZ
 40
3.302
  9
$DIMEXO
 40
1.0
  9
$DIMDLI
 40
3.75
  9
$DIMRND
 40
0.0
  9
$DIMDLE
 40
0.0
  9
$DIMEXE
 40
1.0
  9
$DIMTP
 40
0.0
  9
$DIMTM
 40
0.0
  9
$DIMTXT
 40
3.5
  9
$DIMCEN
 40
2.5
  9
$DIMTSZ
 40
0.0
  9
$DIMTOL
 70
     0
  9
$DIMLIM
 70
     0
  9
$DIMTIH
 70
     1
  9
$DIMTOH
 70
     1
  9
$DIMSE1
 70
     0
  9
$DIMSE2
 70
     0
  9
$DIMTAD
 70
     1
  9
$DIMZIN
 70
     0
  9
$DIMBLK
  1

  9
$DIMASO
 70
     1
  9
$DIMSHO
 70
     1
  9
$DIMPOST
  1

  9
$DIMAPOST
  1

  9
$DIMALT
 70
     0
  9
$DIMALTD
 70
     3
  9
$DIMALTF
 40
0.0393700787401575
  9
$DIMLFAC
 40
1.0
  9
$DIMTOFL
 70
     1
  9
$DIMTVP
 40
0.0
  9
$DIMTIX
 70
     0
  9
$DIMSOXD
 70
     0
  9
$DIMSAH
 70
     0
  9
$DIMBLK1
  1

  9
$DIMBLK2
  1

  9
$DIMSTYLE
  2
ISO-25
  9
$DIMCLRD
 70
     0
  9
$DIMCLRE
 70
     0
  9
$DIMCLRT
 70
     0
  9
$DIMTFAC
 40
1.0
  9
$DIMGAP
 40
1.524
  9
$DIMJUST
 70
     0
  9
$DIMSD1
 70
     0
  9
$DIMSD2
 70
     0
  9
$DIMTOLJ
 70
     0
  9
$DIMTZIN
 70
     0
  9
$DIMALTZ
 70
     0
  9
$DIMALTTZ
 70
     0
  9
$DIMUPT
 70
     0
  9
$DIMDEC
 70
     2
  9
$DIMTDEC
 70
     2
  9
$DIMALTU
 70
     2
  9
$DIMALTTD
 70
     3
  9
$DIMTXSTY
  7
Standard
  9
$DIMAUNIT
 70
     0
  9
$DIMADEC
 70
     2
  9
$DIMALTRND
 40
0.0
  9
$DIMAZIN
 70
     0
  9
$DIMDSEP
 70
    44
  9
$DIMATFIT
 70
     3
  9
$DIMFRAC
 70
     0
  9
$DIMLDRBLK
  1

  9
$DIMLUNIT
 70
     2
  9
$DIMLWD
 70
    -2
  9
$DIMLWE
 70
    -2
  9
$DIMTMOVE
 70
     0
  9
$LUNITS
 70
     2
  9
$LUPREC
 70
     2
  9
$SKETCHINC
 40
1.0
  9
$FILLETRAD
 40
10.0
  9
$AUNITS
 70
     0
  9
$AUPREC
 70
     2
  9
$MENU
  1
.
  9
$ELEVATION
 40
0.0
  9
$PELEVATION
 40
0.0
  9
$THICKNESS
 40
0.0
  9
$LIMCHECK
 70
     0
  9
$CHAMFERA
 40
0.0
  9
$CHAMFERB
 40
0.0
  9
$CHAMFERC
 40
0.0
  9
$CHAMFERD
 40
0.0
  9
$SKPOLY
 70
     0
  9
$TDCREATE
 40
2458291.557109028
  9
$TDUCREATE
 40
2458291.182109028
  9
$TDUPDATE
 40
2458302.59107169
  9
$TDUUPDATE
 40
2458302.21607169
  9
$TDINDWG
 40
0.0037965046
  9
$TDUSRTIMER
 40
2458302.215962072
  9
$USRTIMER
 70
     1
  9
$ANGBASE
 50
0.0
  9
$ANGDIR
 70
     0
  9
$PDMODE
 70
     0
  9
$PDSIZE
 40
-1.0
  9
$PLINEWID
 40
0.0
  9
$SPLFRAME
 70
     0
  9
$SPLINETYPE
 70
     6
  9
$SPLINESEGS
 70
     8
  9
$HANDSEED
  5
19F
  9
$SURFTAB1
 70
     6
  9
$SURFTAB2
 70
     6
  9
$SURFTYPE
 70
     6
  9
$SURFU
 70
     6
  9
$SURFV
 70
     6
  9
$UCSBASE
  2

  9
$UCSNAME
  2

  9
$UCSORG
 10
0.0
 20
0.0
 30
0.0
  9
$UCSXDIR
 10
1.0
 20
0.0
 30
0.0
  9
$UCSYDIR
 10
0.0
 20
1.0
 30
0.0
  9
$UCSORTHOREF
  2

  9
$UCSORTHOVIEW
 70
     0
  9
$UCSORGTOP
 10
0.0
 20
0.0
 30
0.0
  9
$UCSORGBOTTOM
 10
0.0
 20
0.0
 30
0.0
  9
$UCSORGLEFT
 10
0.0
 20
0.0
 30
0.0
  9
$UCSORGRIGHT
 10
0.0
 20
0.0
 30
0.0
  9
$UCSORGFRONT
 10
0.0
 20
0.0
 30
0.0
  9
$UCSORGBACK
 10
0.0
 20
0.0
 30
0.0
  9
$PUCSBASE
  2

  9
$PUCSNAME
  2

  9
$PUCSORG
 10
0.0
 20
0.0
 30
0.0
  9
$PUCSXDIR
 10
1.0
 20
0.0
 30
0.0
  9
$PUCSYDIR
 10
0.0
 20
1.0
 30
0.0
  9
$PUCSORTHOREF
  2

  9
$PUCSORTHOVIEW
 70
     0
  9
$PUCSORGTOP
 10
0.0
 20
0.0
 30
0.0
  9
$PUCSORGBOTTOM
 10
0.0
 20
0.0
 30
0.0
  9
$PUCSORGLEFT
 10
0.0
 20
0.0
 30
0.0
  9
$PUCSORGRIGHT
 10
0.0
 20
0.0
 30
0.0
  9
$PUCSORGFRONT
 10
0.0
 20
0.0
 30
0.0
  9
$PUCSORGBACK
 10
0.0
 20
0.0
 30
0.0
  9
$USERI1
 70
     0
  9
$USERI2
 70
     0
  9
$USERI3
 70
     0
  9
$USERI4
 70
     0
  9
$USERI5
 70
     0
  9
$USERR1
 40
0.0
  9
$USERR2
 40
0.0
  9
$USERR3
 40
0.0
  9
$USERR4
 40
0.0
  9
$USERR5
 40
0.0
  9
$WORLDVIEW
 70
     1
  9
$SHADEDGE
 70
     3
  9
$SHADEDIF
 70
    70
  9
$TILEMODE
 70
     1
  9
$MAXACTVP
 70
    64
  9
$PINSBASE
 10
0.0
 20
0.0
 30
0.0
  9
$PLIMCHECK
 70
     0
  9
$PEXTMIN
 10
1.000000000000000E+20
 20
1.000000000000000E+20
 30
1.000000000000000E+20
  9
$PEXTMAX
 10
-1.000000000000000E+20
 20
-1.000000000000000E+20
 30
-1.000000000000000E+20
  9
$PLIMMIN
 10
0.0
 20
0.0
  9
$PLIMMAX
 10
0.0
 20
0.0
  9
$UNITMODE
 70
     0
  9
$VISRETAIN
 70
     1
  9
$PLINEGEN
 70
     0
  9
$PSLTSCALE
 70
     1
  9
$TREEDEPTH
 70
  3020
  9
$CMLSTYLE
  2
Standard
  9
$CMLJUST
 70
     0
  9
$CMLSCALE
 40
20.0
  9
$PROXYGRAPHICS
 70
     1
  9
$MEASUREMENT
 70
     1
  9
$CELWEIGHT
370
    -1
  9
$ENDCAPS
280
     0
  9
$JOINSTYLE
280
     0
  9
$LWDISPLAY
290
     1
  9
$INSUNITS
 70
     4
  9
$HYPERLINKBASE
  1

  9
$STYLESHEET
  1

  9
$XEDIT
290
     1
  9
$CEPSNTYPE
380
     0
  9
$PSTYLEMODE
290
     1
  9
$FINGERPRINTGUID
  2
{812792A7-A37D-4199-8853-443DD6E59672}
  9
$VERSIONGUID
  2
{FAEB1C32-E019-11D5-929B-00C0DF256EC4}
  9
$EXTNAMES
290
     1
  9
$PSVPSCALE
 40
0.0
  9
$OLESTARTUP
290
     0
  0
ENDSEC
  0
SECTION
  2
CLASSES
  0
CLASS
  1
ACDBDICTIONARYWDFLT
  2
AcDbDictionaryWithDefault
  3
ObjectDBX Classes
 90
        0
280
     0
281
     0
  0
CLASS
  1
VISUALSTYLE
  2
AcDbVisualStyle
  3
ObjectDBX Classes
 90
     4095
280
     0
281
     0
  0
CLASS
  1
MATERIAL
  2
AcDbMaterial
  3
ObjectDBX Classes
 90
     1153
280
     0
281
     0
  0
CLASS
  1
SCALE
  2
AcDbScale
  3
ObjectDBX Classes
 90
     1153
280
     0
281
     0
  0
CLASS
  1
SUN
  2
AcDbSun
  3
SCENEOE
 90
     1153
280
     0
281
     0
  0
CLASS
  1
ACDBPLACEHOLDER
  2
AcDbPlaceHolder
  3
ObjectDBX Classes
 90
        0
280
     0
281
     0
  0
CLASS
  1
LAYOUT
  2
AcDbLayout
  3
ObjectDBX Classes
 90
        0
280
     0
281
     0
  0
CLASS
  1
TABLESTYLE
  2
AcDbTableStyle
  3
ObjectDBX Classes
 90
     4095
280
     0
281
     0
  0
CLASS
  1
MLEADERSTYLE
  2
AcDbMLeaderStyle
  3
ACDB_MLEADERSTYLE_CLASS
 90
     4095
280
     0
281
     0
  0
CLASS
  1
RASTERVARIABLES
  2
AcDbRasterVariables
  3
ISM
 90
        0
280
     0
281
     0
  0
ENDSEC
  0
SECTION
  2
TABLES
  0
TABLE
  2
VPORT
  5
8
330
0
100
AcDbSymbolTable
 70
     1
  0
VPORT
  5
29
330
8
100
AcDbSymbolTableRecord
100
AcDbViewportTableRecord
  2
*Active
 70
     0
 10
0.0
 20
0.0
 11
1.0
 21
1.0
 12
41.74362529948187
 22
-24.13143223547925
 13
0.0
 23
0.0
 14
10.0
 24
10.0
 15
10.0
 25
10.0
 16
0.0
 26
0.0
 36
1.0
 17
0.0
 27
0.0
 37
0.0
 40
113.3405680202429
 41
1.595744680851064
 42
50.0
 43
0.0
 44
0.0
 50
0.0
 51
0.0
 71
    16
 72
  2000
 73
     1
 74
     3
 75
     0
 76
     0
 77
     0
 78
     0
281
     0
 65
     1
110
0.0
120
0.0
130
0.0
111
1.0
121
0.0
131
0.0
112
0.0
122
1.0
132
0.0
 79
     0
146
0.0
  0
ENDTAB
  0
TABLE
  2
LTYPE
  5
5
330
0
100
AcDbSymbolTable
 70
     6
  0
LTYPE
  5
14
330
5
100
AcDbSymbolTableRecord
100
AcDbLinetypeTableRecord
  2
ByBlock
 70
     0
  3

 72
    65
 73
     0
 40
0.0
  0
LTYPE
  5
15
330
5
100
AcDbSymbolTableRecord
100
AcDbLinetypeTableRecord
  2
ByLayer
 70
     0
  3

 72
    65
 73
     0
 40
0.0
  0
LTYPE
  5
16
330
5
100
AcDbSymbolTableRecord
100
AcDbLinetypeTableRecord
  2
Continuous
 70
     0
  3
Solid line
 72
    65
 73
     0
 40
0.0
  0
LTYPE
  5
6A
330
5
100
AcDbSymbolTableRecord
100
AcDbLinetypeTableRecord
  2
HIDDEN
 70
     0
  3
Hidden __ __ __ __ __ __ __ __ __ __ __ __ __ __
 72
    65
 73
     2
 40
1.905
 49
1.27
 74
     0
 49
-0.635
 74
     0
  0
LTYPE
  5
6B
330
5
100
AcDbSymbolTableRecord
100
AcDbLinetypeTableRecord
  2
PHANTOM
 70
     0
  3
Phantom ______  __  __  ______  __  __  ______
 72
    65
 73
     6
 40
12.7
 49
6.35
 74
     0
 49
-1.27
 74
     0
 49
1.27
 74
     0
 49
-1.27
 74
     0
 49
1.27
 74
     0
 49
-1.27
 74
     0
  0
LTYPE
  5
6C
330
5
100
AcDbSymbolTableRecord
100
AcDbLinetypeTableRecord
  2
CENTER
 70
     0
  3
Center ____ _ ____ _ ____ _ ____ _ ____ _ ____
 72
    65
 73
     4
 40
10.16
 49
6.35
 74
     0
 49
-1.27
 74
     0
 49
1.27
 74
     0
 49
-1.27
 74
     0
  0
LTYPE
  5
6D
330
5
100
AcDbSymbolTableRecord
100
AcDbLinetypeTableRecord
  2
CENTERX2
 70
     0
  3
Center (2x) ________  __  ________  __  _____
 72
    65
 73
     4
 40
20.32
 49
12.7
 74
     0
 49
-2.54
 74
     0
 49
2.54
 74
     0
 49
-2.54
 74
     0
  0
LTYPE
  5
6E
330
5
100
AcDbSymbolTableRecord
100
AcDbLinetypeTableRecord
  2
DOT2
 70
     0
  3
Dot (.5x) ........................................
 72
    65
 73
     2
 40
0.635
 49
0.0
 74
     0
 49
-0.635
 74
     0
  0
ENDTAB
  0
TABLE
  2
LAYER
  5
2
330
0
100
AcDbSymbolTable
 70
    18
  0
LAYER
  5
10
330
2
100
AcDbSymbolTableRecord
100
AcDbLayerTableRecord
  2
0
 70
     0
 62
     7
  6
Continuous
370
    -3
390
F
  0
LAYER
  5
6F
330
2
100
AcDbSymbolTableRecord
100
AcDbLayerTableRecord
  2
FORMAT
 70
     0
 62
     2
  6
Continuous
370
    -3
390
F
  0
LAYER
  5
70
330
2
100
AcDbSymbolTableRecord
100
AcDbLayerTableRecord
  2
외형선
 70
     0
 62
     4
  6
Continuous
370
    30
390
F
  0
LAYER
  5
71
330
2
100
AcDbSymbolTableRecord
100
AcDbLayerTableRecord
  2
숨은선
 70
     0
 62
     2
  6
HIDDEN
370
    15
390
F
  0
LAYER
  5
72
330
2
100
AcDbSymbolTableRecord
100
AcDbLayerTableRecord
  2
중심선
 70
     0
 62
     1
  6
CENTERX2
370
    -3
390
F
  0
LAYER
  5
73
330
2
100
AcDbSymbolTableRecord
100
AcDbLayerTableRecord
  2
파단선
 70
     0
 62
     4
  6
Continuous
370
    -3
390
F
  0
LAYER
  5
74
330
2
100
AcDbSymbolTableRecord
100
AcDbLayerTableRecord
  2
해칭선
 70
     0
 62
   100
  6
Continuous
370
    -3
390
F
  0
LAYER
  5
75
330
2
100
AcDbSymbolTableRecord
100
AcDbLayerTableRecord
  2
가는실선
 70
     0
 62
     4
  6
Continuous
370
    -3
390
F
  0
LAYER
  5
76
330
2
100
AcDbSymbolTableRecord
100
AcDbLayerTableRecord
  2
치수_보조선
 70
     0
 62
     4
  6
Continuous
370
    -3
390
F
  0
LAYER
  5
77
330
2
100
AcDbSymbolTableRecord
100
AcDbLayerTableRecord
  2
치수문자_일반주서
 70
     0
 62
     7
  6
Continuous
370
    15
390
F
  0
LAYER
  5
78
330
2
100
AcDbSymbolTableRecord
100
AcDbLayerTableRecord
  2
개별주서
 70
     0
 62
   100
  6
Continuous
370
    30
390
F
  0
LAYER
  5
79
330
2
100
AcDbSymbolTableRecord
100
AcDbLayerTableRecord
  2
중간선
 70
     0
 62
     2
  6
Continuous
370
    15
390
F
  0
LAYER
  5
7A
330
2
100
AcDbSymbolTableRecord
100
AcDbLayerTableRecord
  2
윤곽선
 70
     0
 62
     3
  6
Continuous
370
    40
390
F
  0
LAYER
  5
7B
330
2
100
AcDbSymbolTableRecord
100
AcDbLayerTableRecord
  2
중심마크
 70
     0
 62
   100
  6
Continuous
370
    30
390
F
  0
LAYER
  5
7C
330
2
100
AcDbSymbolTableRecord
100
AcDbLayerTableRecord
  2
가상선
 70
     0
 62
     4
  6
PHANTOM
370
    -3
390
F
  0
LAYER
  5
7D
330
2
100
AcDbSymbolTableRecord
100
AcDbLayerTableRecord
  2
특수지정선
 70
     0
 62
     5
  6
CENTERX2
370
    60
390
F
  0
LAYER
  5
7E
330
2
100
AcDbSymbolTableRecord
100
AcDbLayerTableRecord
  2
참조1
 70
     0
 62
    -4
  6
Continuous
370
    -3
390
F
  0
LAYER
  5
14D
330
2
100
AcDbSymbolTableRecord
100
AcDbLayerTableRecord
  2
Defpoints
 70
     0
 62
     7
  6
Continuous
290
     0
370
    -3
390
F
  0
ENDTAB
  0
TABLE
  2
STYLE
  5
3
330
0
100
AcDbSymbolTable
 70
     2
  0
STYLE
  5
11
330
3
100
AcDbSymbolTableRecord
100
AcDbTextStyleTableRecord
  2
Standard
 70
     0
 40
0.0
 41
1.0
 50
0.0
 71
     0
 42
3.5
  3
txt
  4

  0
STYLE
  5
94
330
3
100
AcDbSymbolTableRecord
100
AcDbTextStyleTableRecord
  2
SLDTEXTSTYLE0
 70
     0
 40
0.0
 41
0.75
 50
0.0
 71
     0
 42
3.5
  3
TXT
  4

  0
ENDTAB
  0
TABLE
  2
VIEW
  5
6
330
0
100
AcDbSymbolTable
 70
     0
  0
ENDTAB
  0
TABLE
  2
UCS
  5
7
330
0
100
AcDbSymbolTable
 70
     0
  0
ENDTAB
  0
TABLE
  2
APPID
  5
9
330
0
100
AcDbSymbolTable
 70
     4
  0
APPID
  5
12
330
9
100
AcDbSymbolTableRecord
100
AcDbRegAppTableRecord
  2
ACAD
 70
     0
  0
APPID
  5
14E
330
9
100
AcDbSymbolTableRecord
100
AcDbRegAppTableRecord
  2
PE_URL
 70
     0
  0
APPID
  5
157
330
9
100
AcDbSymbolTableRecord
100
AcDbRegAppTableRecord
  2
ACAD_DSTYLE_DIMFLIPARROW_SYMBOL
 70
     0
  0
APPID
  5
158
330
9
100
AcDbSymbolTableRecord
100
AcDbRegAppTableRecord
  2
ACAD_DSTYLE_DIMFLIPARROW_WHICH_SYMBOL
 70
     0
  0
ENDTAB
  0
TABLE
  2
DIMSTYLE
  5
A
330
0
100
AcDbSymbolTable
 70
     4
100
AcDbDimStyleTable
  0
DIMSTYLE
105
27
330
A
100
AcDbSymbolTableRecord
100
AcDbDimStyleTableRecord
  2
ISO-25
 70
     0
 41
2.5
 42
0.625
 43
3.75
 44
1.25
 73
     0
 74
     0
 77
     1
 78
     8
140
2.5
141
2.5
143
0.03937007874016
147
0.625
171
     3
172
     1
178
     0
271
     2
272
     2
274
     3
278
    44
283
     0
284
     8
340
11
  0
DIMSTYLE
105
CB
330
A
100
AcDbSymbolTableRecord
100
AcDbDimStyleTableRecord
  2
SLDDIMSTYLE0
 70
     0
 41
3.302
 44
0.0
 45
0.000000001
 73
     0
 74
     0
 77
     1
 78
     4
 79
     1
140
3.5
143
0.0393700787401575
147
0.875
148
0.000000001
170
     1
173
     1
178
     0
271
     2
272
     2
276
     2
284
    12
340
94
  0
DIMSTYLE
105
DF
102
{ACAD_REACTORS
330
DE
330
109
330
CA
330
F3
102
}
330
A
100
AcDbSymbolTableRecord
100
AcDbDimStyleTableRecord
  2
SLDDIMSTYLE1
 70
     0
 41
3.302
 44
0.0
 45
0.000000001
 73
     0
 74
     0
 77
     1
 78
    12
 79
     3
140
3.5
143
0.0393700787401575
147
0.875
148
0.000000001
170
     1
172
     1
173
     1
178
     0
271
     2
272
     2
276
     2
284
    12
289
     0
340
94
  0
DIMSTYLE
105
F4
330
A
100
AcDbSymbolTableRecord
100
AcDbDimStyleTableRecord
  2
SLDDIMSTYLE2
 70
     0
 41
3.302
 44
0.0
 45
0.000000001
 73
     0
 74
     0
 77
     1
 78
     4
 79
     1
140
3.5
143
0.0393700787401575
147
0.875
148
0.000000001
170
     1
172
     1
173
     1
178
     0
271
     2
272
     2
276
     2
284
    12
289
     0
340
94
  0
ENDTAB
  0
TABLE
  2
BLOCK_RECORD
  5
1
330
0
100
AcDbSymbolTable
 70
     7
  0
BLOCK_RECORD
  5
1F
330
1
100
AcDbSymbolTableRecord
100
AcDbBlockTableRecord
  2
*Model_Space
340
22
  0
BLOCK_RECORD
  5
1B
330
1
100
AcDbSymbolTableRecord
100
AcDbBlockTableRecord
  2
*Paper_Space
340
1E
  0
BLOCK_RECORD
  5
23
330
1
100
AcDbSymbolTableRecord
100
AcDbBlockTableRecord
  2
*Paper_Space0
340
26
  0
BLOCK_RECORD
  5
7F
330
1
100
AcDbSymbolTableRecord
100
AcDbBlockTableRecord
  2
블럭10
340
0
102
{BLKREFS
331
C3
102
}
  0
BLOCK_RECORD
  5
CC
330
1
100
AcDbSymbolTableRecord
100
AcDbBlockTableRecord
  2
_D
340
0
  0
BLOCK_RECORD
  5
E0
330
1
100
AcDbSymbolTableRecord
100
AcDbBlockTableRecord
  2
_D_1
340
0
  0
BLOCK_RECORD
  5
F5
330
1
100
AcDbSymbolTableRecord
100
AcDbBlockTableRecord
  2
_D_2
340
0
  0
BLOCK_RECORD
  5
10A
330
1
100
AcDbSymbolTableRecord
100
AcDbBlockTableRecord
  2
_D_3
340
0
  0
BLOCK_RECORD
  5
124
330
1
100
AcDbSymbolTableRecord
100
AcDbBlockTableRecord
  2
SW_DOWELSYMBOL_0
340
0
102
{BLKREFS
331
12A
102
}
  0
ENDTAB
  0
ENDSEC
  0
SECTION
  2
BLOCKS
  0
BLOCK
  5
20
330
1F
100
AcDbEntity
  8
0
100
AcDbBlockBegin
  2
*Model_Space
 70
     0
 10
0.0
 20
0.0
 30
0.0
  3
*Model_Space
  1
*Model_Space
  0
ENDBLK
  5
21
330
1F
100
AcDbEntity
  8
0
100
AcDbBlockEnd
  0
BLOCK
  5
1C
330
1B
100
AcDbEntity
 67
     1
  8
0
100
AcDbBlockBegin
  2
*Paper_Space
 70
     0
 10
0.0
 20
0.0
 30
0.0
  3
*Paper_Space
  1
*Paper_Space
  0
ENDBLK
  5
1D
330
1B
100
AcDbEntity
 67
     1
  8
0
100
AcDbBlockEnd
  0
BLOCK
  5
24
330
23
100
AcDbEntity
  8
0
100
AcDbBlockBegin
  2
*Paper_Space0
 70
     0
 10
0.0
 20
0.0
 30
0.0
  3
*Paper_Space0
  1
*Paper_Space0
  0
ENDBLK
  5
25
330
23
100
AcDbEntity
  8
0
100
AcDbBlockEnd
  0
BLOCK
  5
80
330
7F
100
AcDbEntity
  8
0
100
AcDbBlockBegin
  2
블럭10
 70
     2
 10
0.0
 20
0.0
 30
0.0
  3
블럭10
  1
블럭10
  0
ELLIPSE
  5
82
330
7F
100
AcDbEntity
  8
중심선
100
AcDbEllipse
 10
20.54032771741204
 20
12.0471743016438
 30
0.0
 11
6.600054785286829
 21
-1.261213355974178E-13
 31
0.0
210
0.0
220
0.0
230
1.0
 40
0.636358354079598
 41
0.9219305317359503
 42
6.513795318482858
  0
ELLIPSE
  5
83
330
7F
100
AcDbEntity
  8
중심선
100
AcDbEllipse
 10
20.54032771746488
 20
12.04717430159265
 30
0.0
 11
3.960054785062283
 21
1.540847449632565E-10
 31
0.0
210
0.0
220
0.0
230
1.0
 40
0.3939339440162632
 41
1.131841032648279
 42
5.62031148352944
  0
LINE
  5
84
330
7F
100
AcDbEntity
  8
중심선
100
AcDbLine
 10
2.268634060543552
 20
16.24717430164393
 30
0.0
 11
5.714909304380834
 21
16.24717430164393
 31
0.0
  0
LINE
  5
85
330
7F
100
AcDbEntity
  8
중심선
100
AcDbLine
 10
5.245725140726316
 20
7.84717430164391
 30
0.0
 11
8.692000384563599
 21
7.84717430164391
 31
0.0
  0
LINE
  5
86
330
7F
100
AcDbEntity
  8
중심선
100
AcDbLine
 10
15.74043728645272
 20
16.24717430164393
 30
0.0
 11
8.692000384563599
 21
7.84717430164391
 31
0.0
  0
LINE
  5
87
330
7F
100
AcDbEntity
  8
중심선
100
AcDbLine
 10
0.1404042013395286
 20
13.71084872107135
 30
0.0
 11
3.58671253028996
 21
13.71088815037384
 31
0.0
  0
LINE
  5
88
330
7F
100
AcDbEntity
  8
중심선
100
AcDbLine
 10
2.750260043222114
 20
10.84717430164391
 30
0.0
 11
6.196535287059397
 21
10.84717430164391
 31
0.0
  0
LINE
  5
89
330
7F
100
AcDbEntity
  8
중심선
100
AcDbLine
 10
12.29416204261559
 20
16.24717430164393
 30
0.0
 11
5.245725140726316
 21
7.84717430164391
 31
0.0
  0
LINE
  5
8A
330
7F
100
AcDbEntity
  8
중심선
100
AcDbLine
 10
10.72767329541681
 20
16.24717430164393
 30
0.0
 11
6.196535287059397
 21
10.84717430164391
 31
0.0
  0
LINE
  5
8B
330
7F
100
AcDbEntity
  8
중심선
100
AcDbLine
 10
7.28139805157953
 20
16.24717430164393
 30
0.0
 11
2.750260043222114
 21
10.84717430164391
 31
0.0
  0
LINE
  5
8C
330
7F
100
AcDbEntity
  8
중심선
100
AcDbLine
 10
5.714909304380834
 20
16.24717430164393
 30
0.0
 11
3.58671253028996
 21
13.71088815037384
 31
0.0
  0
LINE
  5
8D
330
7F
100
AcDbEntity
  8
중심선
100
AcDbLine
 10
2.268634060543552
 20
16.24717430164393
 30
0.0
 11
0.1404042013395286
 21
13.71084872107135
 31
0.0
  0
LINE
  5
8E
330
7F
100
AcDbEntity
  8
중심선
100
AcDbLine
 10
7.28139805157953
 20
16.24717430164393
 30
0.0
 11
10.72767329541681
 21
16.24717430164393
 31
0.0
  0
LINE
  5
8F
330
7F
100
AcDbEntity
  8
중심선
100
AcDbLine
 10
12.29416204261559
 20
16.24717430164393
 30
0.0
 11
15.74043728645272
 21
16.24717430164393
 31
0.0
  0
LINE
  5
90
330
7F
100
AcDbEntity
  8
중심선
100
AcDbLine
 10
19.22036997980202
 20
11.08717430171403
 30
0.0
 11
23.66174974927406
 21
11.08717430171406
 31
0.0
  0
LINE
  5
91
330
7F
100
AcDbEntity
  8
중심선
100
AcDbLine
 10
19.22039502424796
 20
13.00717430171391
 30
0.0
 11
19.22036997980202
 21
11.08717430171403
 31
0.0
  0
LINE
  5
92
330
7F
100
AcDbEntity
  8
중심선
100
AcDbLine
 10
19.22039502424796
 20
13.00717430171391
 30
0.0
 11
26.96566020931264
 21
13.00717430171391
 31
0.0
  0
LINE
  5
93
330
7F
100
AcDbEntity
  8
중심선
100
AcDbLine
 10
22.22332737316547
 20
13.45928029700563
 30
0.0
 11
24.52862924686651
 21
15.39360700705356
 31
0.0
  0
ATTDEF
  5
95
330
7F
100
AcDbEntity
  8
FORMAT
 62
     2
100
AcDbText
 10
4.067468689740013
 20
2.075366912832191
 30
0.0
 40
4.233333333333333
  1
EH108008
 41
0.75
  7
SLDTEXTSTYLE0
 11
4.067468689740013
 21
-0.0412997538344756
 31
0.0
100
AcDbAttributeDefinition
  3

  2
AUTOATTR0
 70
     0
 74
     1
  0
ENDBLK
  5
81
330
7F
100
AcDbEntity
  8
0
100
AcDbBlockEnd
  0
BLOCK
  5
CD
330
CC
100
AcDbEntity
  8
0
100
AcDbBlockBegin
  2
_D
 70
     0
 10
0.0
 20
0.0
 30
0.0
  3
_D
  1
_D
  0
LINE
  5
CF
330
CC
100
AcDbEntity
  8
치수문자_일반주서
 62
     0
370
    -2
100
AcDbLine
 10
-15.39999999999999
 20
1.149999999999997
 30
0.0
 11
-15.39999999999999
 21
25.87734624538548
 31
0.0
  0
LINE
  5
D0
330
CC
100
AcDbEntity
  8
치수문자_일반주서
 62
     0
370
    -2
100
AcDbLine
 10
22.70000000000001
 20
1.650000000000001
 30
0.0
 11
22.70000000000001
 21
25.87734624538548
 31
0.0
  0
LINE
  5
D1
330
CC
100
AcDbEntity
  8
치수문자_일반주서
 62
     0
370
    -2
100
AcDbLine
 10
-12.09799999999999
 20
25.87734624538548
 30
0.0
 11
19.39800000000001
 21
25.87734624538548
 31
0.0
  0
SOLID
  5
D2
330
CC
100
AcDbEntity
  8
치수문자_일반주서
 62
     0
100
AcDbTrace
 10
-12.09799999999999
 20
26.42767957871882
 30
0.0
 11
-12.09799999999999
 21
25.32701291205215
 31
0.0
 12
-15.39999999999999
 22
25.87734624538548
 32
0.0
 13
-15.39999999999999
 23
25.87734624538548
 33
0.0
  0
SOLID
  5
D3
330
CC
100
AcDbEntity
  8
치수문자_일반주서
 62
     0
100
AcDbTrace
 10
19.39800000000001
 20
25.32701291205215
 30
0.0
 11
19.39800000000001
 21
26.42767957871882
 31
0.0
 12
22.70000000000001
 22
25.87734624538548
 32
0.0
 13
22.70000000000001
 23
25.87734624538548
 33
0.0
  0
MTEXT
  5
D4
330
CC
100
AcDbEntity
  8
치수문자_일반주서
 62
     0
100
AcDbMText
 10
3.650000000000007
 20
30.25234624538548
 30
0.0
 40
3.5
 41
0.0
 71
     2
 72
     1
  1
\A1;38.1 [1 1/2]
  7
SLDTEXTSTYLE0
 73
     1
 44
1.0
  0
POINT
  5
D5
330
CC
100
AcDbEntity
  8
Defpoints
 62
     0
100
AcDbPoint
 10
-15.39999999999999
 20
1.087499999999997
 30
0.0
  0
POINT
  5
D6
330
CC
100
AcDbEntity
  8
Defpoints
 62
     0
100
AcDbPoint
 10
22.70000000000001
 20
1.587500000000001
 30
0.0
  0
POINT
  5
D7
330
CC
100
AcDbEntity
  8
Defpoints
 62
     0
100
AcDbPoint
 10
22.70000000000001
 20
25.87734624538548
 30
0.0
  0
ENDBLK
  5
CE
330
CC
100
AcDbEntity
  8
0
100
AcDbBlockEnd
  0
BLOCK
  5
E1
330
E0
100
AcDbEntity
  8
0
100
AcDbBlockBegin
  2
_D_1
 70
     0
 10
0.0
 20
0.0
 30
0.0
  3
_D_1
  1
_D_1
  0
LINE
  5
E3
330
E0
100
AcDbEntity
  8
치수문자_일반주서
 62
     0
370
    -2
100
AcDbLine
 10
-14.9625
 20
1.587499999999991
 30
0.0
 11
-23.03372170840604
 21
1.58749999999996
 31
0.0
  0
LINE
  5
E4
330
E0
100
AcDbEntity
  8
치수문자_일반주서
 62
     0
370
    -2
100
AcDbLine
 10
-14.9625
 20
-1.587499999999992
 30
0.0
 11
-23.03372170840603
 21
-1.587500000000023
 31
0.0
  0
LINE
  5
E5
330
E0
100
AcDbEntity
  8
치수문자_일반주서
 62
     0
370
    -2
100
AcDbLine
 10
-23.03372170840604
 20
1.58749999999996
 30
0.0
 11
-23.03372170840603
 21
-1.587500000000023
 31
0.0
  0
LINE
  5
E6
330
E0
100
AcDbEntity
  8
치수문자_일반주서
 62
     0
370
    -2
100
AcDbLine
 10
-23.03372170840606
 20
4.889499999999961
 30
0.0
 11
-23.03372170840607
 21
8.19149999999996
 31
0.0
  0
LINE
  5
E7
330
E0
100
AcDbEntity
  8
치수문자_일반주서
 62
     0
370
    -2
100
AcDbLine
 10
-23.03372170840602
 20
-4.889500000000023
 30
0.0
 11
-23.03372170840601
 21
-8.191500000000023
 31
0.0
  0
SOLID
  5
E8
330
E0
100
AcDbEntity
  8
치수문자_일반주서
 62
     0
100
AcDbTrace
 10
-23.58405504173939
 20
4.889499999999959
 30
0.0
 11
-22.48338837507272
 21
4.889499999999963
 31
0.0
 12
-23.03372170840604
 22
1.58749999999996
 32
0.0
 13
-23.03372170840604
 23
1.58749999999996
 33
0.0
  0
SOLID
  5
E9
330
E0
100
AcDbEntity
  8
치수문자_일반주서
 62
     0
100
AcDbTrace
 10
-22.48338837507269
 20
-4.889500000000021
 30
0.0
 11
-23.58405504173936
 21
-4.889500000000025
 31
0.0
 12
-23.03372170840603
 22
-1.587500000000023
 32
0.0
 13
-23.03372170840603
 23
-1.587500000000023
 33
0.0
  0
MTEXT
  5
EA
330
E0
100
AcDbEntity
  8
치수문자_일반주서
 62
     0
100
AcDbMText
 10
-27.40872170840604
 20
-0.0000000000000045
 30
0.0
 40
3.5
 41
0.0
 71
     2
 72
     1
  1
\A1;%%c3.18 [1/8]
  7
SLDTEXTSTYLE0
 11
-3.356894814614665E-15
 21
1.0
 31
0.0
 73
     1
 44
1.0
  0
POINT
  5
EB
330
E0
100
AcDbEntity
  8
Defpoints
 62
     0
100
AcDbPoint
 10
-14.9
 20
1.587499999999991
 30
0.0
  0
POINT
  5
152
330
E0
100
AcDbEntity
  8
Defpoints
 62
     0
100
AcDbPoint
 10
-14.9
 20
-1.587499999999992
 30
0.0
  0
POINT
  5
153
330
E0
100
AcDbEntity
  8
Defpoints
 62
     0
100
AcDbPoint
 10
-23.03372170840603
 20
-1.587500000000023
 30
0.0
  0
ENDBLK
  5
E2
330
E0
100
AcDbEntity
  8
0
100
AcDbBlockEnd
  0
BLOCK
  5
F6
330
F5
100
AcDbEntity
  8
0
100
AcDbBlockBegin
  2
_D_2
 70
     0
 10
0.0
 20
0.0
 30
0.0
  3
_D_2
  1
_D_2
  0
LINE
  5
F8
330
F5
100
AcDbEntity
  8
치수문자_일반주서
 62
     0
370
    -2
100
AcDbLine
 10
22.70000000000001
 20
1.712500000000001
 30
0.0
 11
22.70000000000001
 21
12.50254809318748
 31
0.0
  0
LINE
  5
F9
330
F5
100
AcDbEntity
  8
치수문자_일반주서
 62
     0
370
    -2
100
AcDbLine
 10
10.00000000000001
 20
1.544211433839498
 30
0.0
 11
10.00000000000001
 21
12.50254809318748
 31
0.0
  0
LINE
  5
FA
330
F5
100
AcDbEntity
  8
치수문자_일반주서
 62
     0
370
    -2
100
AcDbLine
 10
19.39800000000001
 20
12.50254809318748
 30
0.0
 11
13.30200000000001
 21
12.50254809318748
 31
0.0
  0
SOLID
  5
FB
330
F5
100
AcDbEntity
  8
치수문자_일반주서
 62
     0
100
AcDbTrace
 10
19.39800000000001
 20
11.95221475985415
 30
0.0
 11
19.39800000000001
 21
13.05288142652081
 31
0.0
 12
22.70000000000001
 22
12.50254809318748
 32
0.0
 13
22.70000000000001
 23
12.50254809318748
 33
0.0
  0
SOLID
  5
FC
330
F5
100
AcDbEntity
  8
치수문자_일반주서
 62
     0
100
AcDbTrace
 10
13.30200000000001
 20
13.05288142652081
 30
0.0
 11
13.30200000000001
 21
11.95221475985415
 31
0.0
 12
10.00000000000001
 22
12.50254809318748
 32
0.0
 13
10.00000000000001
 23
12.50254809318748
 33
0.0
  0
MTEXT
  5
FD
330
F5
100
AcDbEntity
  8
치수문자_일반주서
 62
     0
100
AcDbMText
 10
16.35000000000001
 20
16.87754809318748
 30
0.0
 40
3.5
 41
0.0
 71
     2
 72
     1
  1
\A1;12.7 [1/2]
  7
SLDTEXTSTYLE0
 73
     1
 44
1.0
  0
POINT
  5
FE
330
F5
100
AcDbEntity
  8
Defpoints
 62
     0
100
AcDbPoint
 10
22.70000000000001
 20
1.650000000000001
 30
0.0
  0
POINT
  5
FF
330
F5
100
AcDbEntity
  8
Defpoints
 62
     0
100
AcDbPoint
 10
10.00000000000001
 20
1.481711433839498
 30
0.0
  0
POINT
  5
100
330
F5
100
AcDbEntity
  8
Defpoints
 62
     0
100
AcDbPoint
 10
10.00000000000001
 20
12.50254809318748
 30
0.0
  0
ENDBLK
  5
F7
330
F5
100
AcDbEntity
  8
0
100
AcDbBlockEnd
  0
BLOCK
  5
10B
330
10A
100
AcDbEntity
  8
0
100
AcDbBlockBegin
  2
_D_3
 70
     0
 10
0.0
 20
0.0
 30
0.0
  3
_D_3
  1
_D_3
  0
LINE
  5
10D
330
10A
100
AcDbEntity
  8
치수문자_일반주서
 62
     0
370
    -2
100
AcDbLine
 10
22.76250000000001
 20
1.58761981396681
 30
0.0
 11
35.9340990856784
 21
1.58761981396686
 31
0.0
  0
LINE
  5
10E
330
10A
100
AcDbEntity
  8
치수문자_일반주서
 62
     0
370
    -2
100
AcDbLine
 10
22.76250000000001
 20
-1.587499999999977
 30
0.0
 11
35.93409908567842
 21
-1.587499999999928
 31
0.0
  0
LINE
  5
10F
330
10A
100
AcDbEntity
  8
치수문자_일반주서
 62
     0
370
    -2
100
AcDbLine
 10
35.9340990856784
 20
1.58761981396686
 30
0.0
 11
35.93409908567826
 21
32.69161981396695
 31
0.0
  0
LINE
  5
110
330
10A
100
AcDbEntity
  8
치수문자_일반주서
 62
     0
370
    -2
100
AcDbLine
 10
35.9340990856784
 20
1.58761981396686
 30
0.0
 11
35.93409908567842
 21
-1.587499999999928
 31
0.0
  0
LINE
  5
111
330
10A
100
AcDbEntity
  8
치수문자_일반주서
 62
     0
370
    -2
100
AcDbLine
 10
35.93409908567839
 20
4.88961981396686
 30
0.0
 11
35.93409908567838
 21
8.19161981396686
 31
0.0
  0
LINE
  5
112
330
10A
100
AcDbEntity
  8
치수문자_일반주서
 62
     0
370
    -2
100
AcDbLine
 10
35.93409908567843
 20
-4.889499999999927
 30
0.0
 11
35.93409908567845
 21
-8.191499999999927
 31
0.0
  0
SOLID
  5
113
330
10A
100
AcDbEntity
  8
치수문자_일반주서
 62
     0
100
AcDbTrace
 10
35.38376575234506
 20
4.889619813966857
 30
0.0
 11
36.48443241901172
 21
4.889619813966863
 31
0.0
 12
35.9340990856784
 22
1.58761981396686
 32
0.0
 13
35.9340990856784
 23
1.58761981396686
 33
0.0
  0
SOLID
  5
114
330
10A
100
AcDbEntity
  8
치수문자_일반주서
 62
     0
100
AcDbTrace
 10
36.48443241901177
 20
-4.889499999999924
 30
0.0
 11
35.3837657523451
 21
-4.88949999999993
 31
0.0
 12
35.93409908567842
 22
-1.587499999999928
 32
0.0
 13
35.93409908567842
 23
-1.587499999999928
 33
0.0
  0
MTEXT
  5
115
330
10A
100
AcDbEntity
  8
치수문자_일반주서
 62
     0
100
AcDbMText
 10
31.55909908567832
 20
20.44161981396693
 30
0.0
 40
3.5
 41
0.0
 71
     2
 72
     1
  1
\A1;%%c3.18 [1/8]
  7
SLDTEXTSTYLE0
 11
-4.475690855094974E-15
 21
1.0
 31
0.0
 73
     1
 44
1.0
  0
POINT
  5
116
330
10A
100
AcDbEntity
  8
Defpoints
 62
     0
100
AcDbPoint
 10
22.70000000000001
 20
1.58761981396681
 30
0.0
  0
POINT
  5
117
330
10A
100
AcDbEntity
  8
Defpoints
 62
     0
100
AcDbPoint
 10
22.70000000000001
 20
-1.587499999999977
 30
0.0
  0
POINT
  5
118
330
10A
100
AcDbEntity
  8
Defpoints
 62
     0
100
AcDbPoint
 10
35.93409908567842
 20
-1.587499999999928
 30
0.0
  0
ENDBLK
  5
10C
330
10A
100
AcDbEntity
  8
0
100
AcDbBlockEnd
  0
BLOCK
  5
125
330
124
100
AcDbEntity
  8
0
100
AcDbBlockBegin
  2
SW_DOWELSYMBOL_0
 70
     0
 10
0.0
 20
0.0
 30
0.0
  3
SW_DOWELSYMBOL_0
  1
SW_DOWELSYMBOL_0
  0
CIRCLE
  5
127
330
124
100
AcDbEntity
  8
해칭선
 62
     0
100
AcDbCircle
 10
0.0
 20
0.0
 30
0.0
 40
3.000000000000001
  0
HATCH
  5
128
330
124
100
AcDbEntity
  8
0
  6
Continuous
 62
     0
370
     0
100
AcDbHatch
 10
0.0
 20
0.0
 30
0.0
210
0.0
220
0.0
230
1.0
  2
SOLID
 70
     1
 71
     0
 91
        1
 92
        0
 93
        3
 72
     2
 10
-0.0000000000000069
 20
0.0
 40
3.000000000000001
 50
0.0
 51
90.0
 73
     1
 72
     1
 10
-0.0000000000000069
 20
3.000000000000001
 11
-0.0000000000000069
 21
0.0
 72
     1
 10
-0.0000000000000069
 20
0.0
 11
2.999999999999994
 21
0.0
 97
        0
 75
     0
 76
     1
 98
        1
 10
0.0
 20
0.0
  0
HATCH
  5
129
330
124
100
AcDbEntity
  8
0
  6
Continuous
 62
     0
370
     0
100
AcDbHatch
 10
0.0
 20
0.0
 30
0.0
210
0.0
220
0.0
230
1.0
  2
SOLID
 70
     1
 71
     0
 91
        1
 92
        0
 93
        3
 72
     2
 10
-0.0000000000000069
 20
0.0
 40
3.000000000000001
 50
180.0
 51
270.0000000000007
 73
     1
 72
     1
 10
-0.0000000000000069
 20
-3.000000000000001
 11
-0.0000000000000069
 21
0.0
 72
     1
 10
-0.0000000000000069
 20
0.0
 11
-3.000000000000008
 21
0.0
 97
        0
 75
     0
 76
     1
 98
        1
 10
0.0
 20
0.0
  0
ENDBLK
  5
126
330
124
100
AcDbEntity
  8
0
100
AcDbBlockEnd
  0
ENDSEC
  0
SECTION
  2
ENTITIES
  0
LINE
  5
96
330
1F
100
AcDbEntity
  8
외형선
  6
Continuous
 62
     1
370
    15
100
AcDbLine
 10
19.64843612752339
 20
-1.587500000000002
 30
0.0
 11
21.43199128270163
 21
-1.587500000000002
 31
0.0
  0
LINE
  5
97
330
1F
100
AcDbEntity
  8
외형선
  6
Continuous
 62
     1
370
    15
100
AcDbLine
 10
12.79388619818714
 20
1.587500000000001
 30
0.0
 11
11.01055834058734
 21
1.587500000000001
 31
0.0
  0
LINE
  5
98
330
1F
100
AcDbEntity
  8
외형선
  6
Continuous
 62
     1
370
    15
100
AcDbLine
 10
13.8900439488897
 20
-1.587500000000002
 30
0.0
 11
15.67346782710557
 21
-1.587500000000002
 31
0.0
  0
LINE
  5
99
330
1F
100
AcDbEntity
  8
외형선
  6
Continuous
 62
     1
370
    15
100
AcDbLine
 10
22.70000000000001
 20
1.587500000000001
 30
0.0
 11
22.5278475938027
 21
1.587500000000001
 31
0.0
  0
LINE
  5
9A
330
1F
100
AcDbEntity
  8
외형선
  6
Continuous
 62
     1
370
    15
100
AcDbLine
 10
18.55287682237667
 20
1.587500000000001
 30
0.0
 11
16.76905403527382
 21
1.587500000000001
 31
0.0
  0
LINE
  5
9B
330
1F
100
AcDbEntity
  8
외형선
  6
Continuous
370
    15
100
AcDbLine
 10
9.10982297855734
 20
1.587499999999999
 30
0.0
 11
-14.89999999999999
 21
1.587499999999998
 31
0.0
  0
LINE
  5
9C
330
1F
100
AcDbEntity
  8
외형선
  6
Continuous
370
    15
100
AcDbLine
 10
-14.89999999999999
 20
-1.587500000000002
 30
0.0
 11
9.914712515280458
 21
-1.5875
 31
0.0
  0
LINE
  5
9D
330
1F
100
AcDbEntity
  8
외형선
  6
Continuous
370
    15
100
AcDbLine
 10
-14.89999999999999
 20
1.587499999999997
 30
0.0
 11
-15.39999999999999
 21
1.087499999999997
 31
0.0
  0
LINE
  5
9E
330
1F
100
AcDbEntity
  8
외형선
  6
Continuous
370
    15
100
AcDbLine
 10
-15.39999999999999
 20
-1.087500000000001
 30
0.0
 11
-14.89999999999999
 21
-1.587500000000001
 31
0.0
  0
SPLINE
  5
9F
330
1F
100
AcDbEntity
  8
외형선
  6
Continuous
 62
     1
370
    15
100
AcDbSpline
210
0.0
220
0.0
230
1.0
 70
     8
 71
     3
 72
    19
 73
    15
 74
     0
 42
0.000000001
 43
0.00000001
 40
0.0
 40
0.0
 40
0.0
 40
0.0
 40
0.0516714837465829
 40
0.1403906942177411
 40
0.2292509948826151
 40
0.3179232121101013
 40
0.4064982940863886
 40
0.4951124030092243
 40
0.5839008816313057
 40
0.6727164022265827
 40
0.7544431766816275
 40
0.8361443986100648
 40
0.9181040657770859
 40
1.0
 40
1.0
 40
1.0
 40
1.0
 10
17.66100001381896
 20
-1.181809602432212
 30
0.0
 10
17.52908354077019
 20
-1.233335303117416
 30
0.0
 10
17.17066833982686
 20
-1.373329906808852
 30
0.0
 10
16.58521467986154
 20
-1.514488191058166
 30
0.0
 10
15.90488764694049
 20
-1.598583618543479
 30
0.0
 10
15.2254286211822
 20
-1.582376806160314
 30
0.0
 10
14.5467037066069
 20
-1.470865778103936
 30
0.0
 10
13.86765533786206
 20
-1.269686047001524
 30
0.0
 10
13.18763368709547
 20
-0.9915614052754762
 30
0.0
 10
12.52507108229172
 20
-0.662190207229153
 30
0.0
 10
11.88121780512415
 20
-0.3047428018986346
 30
0.0
 10
11.25495651770031
 20
0.058250777878525
 30
0.0
 10
10.62756675961026
 20
0.4200745668794527
 30
0.0
 10
10.20913466904228
 20
0.6404256114643503
 30
0.0
 10
10.00000000000914
 20
0.7505582801079478
 30
0.0
  0
SPLINE
  5
A0
330
1F
100
AcDbEntity
  8
외형선
  6
Continuous
 62
     1
370
    15
100
AcDbSpline
210
0.0
220
0.0
230
1.0
 70
     8
 71
     3
 72
    22
 73
    18
 74
     0
 42
0.000000001
 43
0.00000001
 40
0.0
 40
0.0
 40
0.0
 40
0.0
 40
0.0650264323386089
 40
0.1301034694601882
 40
0.1949752977154253
 40
0.2598674150076985
 40
0.3303880885356834
 40
0.4008872903867527
 40
0.4712480404385054
 40
0.5415778025892936
 40
0.6119846913874505
 40
0.6825409208706046
 40
0.7529851229128072
 40
0.8233244659358727
 40
0.8936668631712188
 40
0.9641201637018917
 40
1.0
 40
1.0
 40
1.0
 40
1.0
 10
10.00000000000759
 20
1.48171143381546
 30
0.0
 10
10.2091346690357
 20
1.517573815310429
 30
0.0
 10
10.62756675959359
 20
1.589326487074801
 30
0.0
 10
11.25495651776159
 20
1.594089537684769
 30
0.0
 10
11.8812178048919
 20
1.521845744733604
 30
0.0
 10
12.52507108318935
 20
1.365015552089905
 30
0.0
 10
13.18763368342027
 20
1.12664277388446
 30
0.0
 10
13.86765535152424
 20
0.8133292184928862
 30
0.0
 10
14.54670365574942
 20
0.4503823850578993
 30
0.0
 10
15.22542881098962
 20
0.0601653276673155
 30
0.0
 10
15.90488693705572
 20
-0.3338521139439483
 30
0.0
 10
16.58521733356824
 20
-0.707070310675896
 30
0.0
 10
17.2649324721579
 20
-1.037508070241911
 30
0.0
 10
17.9437561083771
 20
-1.306164086885027
 30
0.0
 10
18.62260703497667
 20
-1.490512496194691
 30
0.0
 10
19.19086900546272
 20
-1.584328438769923
 30
0.0
 10
19.53299354114075
 20
-1.577640437034834
 30
0.0
 10
19.64843612752339
 20
-1.575383714299354
 30
0.0
  0
SPLINE
  5
A1
330
1F
100
AcDbEntity
  8
외형선
  6
Continuous
370
    15
100
AcDbSpline
210
0.0
220
0.0
230
1.0
 70
    24
 71
     3
 72
    14
 73
    10
 74
     0
 42
0.000000001
 43
0.00000001
 40
0.0
 40
0.0
 40
0.0
 40
0.0
 40
0.1175729576628121
 40
0.2371155377538706
 40
0.3901891181737767
 40
0.5477018427958006
 40
0.7007754232157064
 40
0.8582881478377309
 40
1.0
 40
1.0
 40
1.0
 40
1.0
 10
10.00000000000001
 20
1.481711433839498
 30
0.0
 10
10.00000000000001
 20
1.423372542870351
 30
0.0
 10
10.00000000000001
 20
1.305717447862996
 30
0.0
 10
10.0
 20
1.132502875173167
 30
0.0
 10
10.00000000000001
 20
0.9653969623626231
 30
0.0
 10
10.00000000000001
 20
0.8211121742666043
 30
0.0
 10
10.00000000000001
 20
0.7166687305594874
 30
0.0
 10
10.00000000000001
 20
0.6537620467912095
 30
0.0
 10
10.00000000000001
 20
0.6487138872041731
 30
0.0
 10
10.00000000000001
 20
0.6463230941323682
 30
0.0
  0
SPLINE
  5
A2
330
1F
100
AcDbEntity
  8
외형선
  6
Continuous
 62
     1
370
    15
100
AcDbSpline
210
0.0
220
0.0
230
1.0
 70
     8
 71
     3
 72
    22
 73
    18
 74
     0
 42
0.000000001
 43
0.00000001
 40
0.0
 40
0.0
 40
0.0
 40
0.0
 40
0.0686770713809541
 40
0.1372134484409558
 40
0.2057136997928172
 40
0.2742831524772157
 40
0.3430016744433553
 40
0.4116233568098275
 40
0.4801370191027482
 40
0.5486477065856394
 40
0.6172605270026915
 40
0.6859824624138088
 40
0.7545589396423704
 40
0.8230602953328651
 40
0.8915918333126376
 40
0.9602582236744026
 40
1.0
 40
1.0
 40
1.0
 40
1.0
 10
22.70000000000001
 20
-1.421823859251598
 30
0.0
 10
22.47314786607539
 20
-1.471605204216521
 30
0.0
 10
22.01990833567486
 20
-1.571065910290838
 30
0.0
 10
21.34081136128618
 20
-1.601809237073761
 30
0.0
 10
20.6620961668468
 20
-1.54138367935668
 30
0.0
 10
19.98269402598226
 20
-1.385534683483438
 30
0.0
 10
19.30238174903695
 20
-1.146315861694013
 30
0.0
 10
18.62260962226297
 20
-0.8370640669619485
 30
0.0
 10
17.94375541853877
 20
-0.4769457483235895
 30
0.0
 10
17.26493264649773
 20
-0.087844316786455
 30
0.0
 10
16.58521732712782
 20
0.3066085070603122
 30
0.0
 10
15.90488678788856
 20
0.6820025396522036
 30
0.0
 10
15.22542941224463
 20
1.016253358076666
 30
0.0
 10
14.54670140164072
 20
1.289753644834469
 30
0.0
 10
13.86766377876755
 20
1.480567603862832
 30
0.0
 10
13.28321242747822
 20
1.581199454372875
 30
0.0
 10
12.92514978937889
 20
1.577164260814717
 30
0.0
 10
12.79388619818714
 20
1.575684983332963
 30
0.0
  0
SPLINE
  5
A3
330
1F
100
AcDbEntity
  8
외형선
  6
Continuous
 62
     1
370
    15
100
AcDbSpline
210
0.0
220
0.0
230
1.0
 70
     8
 71
     3
 72
    19
 73
    15
 74
     0
 42
0.000000001
 43
0.00000001
 40
0.0
 40
0.0
 40
0.0
 40
0.0
 40
0.0559782184874583
 40
0.1417736213407381
 40
0.2277510055945657
 40
0.3135918770782495
 40
0.3993049709830168
 40
0.4850217866453775
 40
0.5708737452328516
 40
0.6568468589569173
 40
0.7426334734673035
 40
0.8283335108240805
 40
0.9140787447235863
 40
1.0
 40
1.0
 40
1.0
 40
1.0
 10
14.78208320526257
 20
1.182411974155448
 30
0.0
 10
14.92978537568263
 20
1.239192513325114
 30
0.0
 10
15.30386429684426
 20
1.382998137678215
 30
0.0
 10
15.90488762935729
 20
1.523543290087773
 30
0.0
 10
16.58521710184279
 20
1.600620151121171
 30
0.0
 10
17.26493270672183
 20
1.577667241488159
 30
0.0
 10
17.94375540241204
 20
1.45957771799795
 30
0.0
 10
18.62260962659159
 20
1.252592408986593
 30
0.0
 10
19.30238174787441
 20
0.9694948108775716
 30
0.0
 10
19.9826940262932
 20
0.6280115719001362
 30
0.0
 10
20.66209616676368
 20
0.2475453462090533
 30
0.0
 10
21.34081136130834
 20
-0.1467677669788275
 30
0.0
 10
22.0199083356693
 20
-0.5361260014212188
 30
0.0
 10
22.47314786607353
 20
-0.7641554054987765
 30
0.0
 10
22.70000000000001
 20
-0.8782870145992483
 30
0.0
  0
SPLINE
  5
A4
330
1F
100
AcDbEntity
  8
외형선
  6
Continuous
 62
     1
370
    15
100
AcDbSpline
210
0.0
220
0.0
230
1.0
 70
     8
 71
     3
 72
     9
 73
     5
 74
     0
 42
0.000000001
 43
0.00000001
 40
0.0
 40
0.0
 40
0.0
 40
0.0
 40
0.2590171744589795
 40
1.0
 40
1.0
 40
1.0
 40
1.0
 10
22.39486876792078
 20
-0.7211986237642081
 30
0.0
 10
22.37804913582709
 20
-0.7255656570167186
 30
0.0
 10
22.31311277734499
 20
-0.7424256712672497
 30
0.0
 10
22.24018850706409
 20
-0.7756128988319275
 30
0.0
 10
22.18615287522082
 20
-0.8002040644846755
 30
0.0
  0
SPLINE
  5
A5
330
1F
100
AcDbEntity
  8
외형선
  6
Continuous
 62
     1
370
    15
100
AcDbSpline
210
0.0
220
0.0
230
1.0
 70
     8
 71
     3
 72
     8
 73
     4
 74
     0
 42
0.000000001
 43
0.00000001
 40
0.0
 40
0.0
 40
0.0
 40
0.0
 40
1.0
 40
1.0
 40
1.0
 40
1.0
 10
22.70000000000001
 20
-0.9280654770622883
 30
0.0
 10
22.52416672546391
 20
-0.9013524590504343
 30
0.0
 10
22.35308306802857
 20
-0.8580373806654753
 30
0.0
 10
22.1861528752213
 20
-0.8002040644836199
 30
0.0
  0
LINE
  5
A6
330
1F
100
AcDbEntity
  8
외형선
  6
Continuous
 62
     1
370
    15
100
AcDbLine
 10
22.70000000000001
 20
-1.4218238592516
 30
0.0
 11
22.70000000000001
 21
-0.9280654770622883
 31
0.0
  0
SPLINE
  5
A7
330
1F
100
AcDbEntity
  8
외형선
  6
Continuous
 62
     1
370
    15
100
AcDbSpline
210
0.0
220
0.0
230
1.0
 70
     8
 71
     3
 72
    14
 73
    10
 74
     0
 42
0.000000001
 43
0.00000001
 40
0.0
 40
0.0
 40
0.0
 40
0.0
 40
0.1612886087649367
 40
0.3227027353346893
 40
0.4836078711545541
 40
0.6445633309801965
 40
0.8194796059999727
 40
0.9943426236477386
 40
1.0
 40
1.0
 40
1.0
 40
1.0
 10
10.00000000000759
 20
-0.2473827108826646
 30
0.0
 10
10.20913464370531
 20
-0.365348531224891
 30
0.0
 10
10.62756668358271
 20
-0.6013719751118518
 30
0.0
 10
11.25495682168131
 20
-0.9202481485627203
 30
0.0
 10
11.88121666908475
 20
-1.192524963139707
 30
0.0
 10
12.52507548096061
 20
-1.411177910798453
 30
0.0
 10
13.18761568003814
 20
-1.54468105437854
 30
0.0
 10
13.64867867894725
 20
-1.602501934669948
 30
0.0
 10
13.882709592227
 20
-1.586489566669943
 30
0.0
 10
13.8900439488897
 20
-1.585987750835955
 30
0.0
  0
SPLINE
  5
A8
330
1F
100
AcDbEntity
  8
외형선
  6
Continuous
 62
     1
370
    15
100
AcDbSpline
210
0.0
220
0.0
230
1.0
 70
     8
 71
     3
 72
    11
 73
     7
 74
     0
 42
0.000000001
 43
0.00000001
 40
0.0
 40
0.0
 40
0.0
 40
0.0
 40
0.0565022235432381
 40
0.370675926618444
 40
0.6850153188302391
 40
1.0
 40
1.0
 40
1.0
 40
1.0
 10
20.54028205627055
 20
1.185283890223248
 30
0.0
 10
20.58095886462824
 20
1.202424219369929
 30
0.0
 10
20.84781409057046
 20
1.314871252257567
 30
0.0
 10
21.3407975921808
 20
1.451623212696236
 30
0.0
 10
22.01991178695443
 20
1.581888356273002
 30
0.0
 10
22.47314901728805
 20
1.583551649620367
 30
0.0
 10
22.70000000000001
 20
1.584384149038188
 30
0.0
  0
LINE
  5
A9
330
1F
100
AcDbEntity
  8
외형선
  6
Continuous
 62
     1
370
    15
100
AcDbLine
 10
22.70000000000001
 20
1.584384149038189
 30
0.0
 11
22.70000000000001
 21
1.587500000000001
 31
0.0
  0
LINE
  5
AA
330
1F
100
AcDbEntity
  8
외형선
  6
Continuous
370
    15
100
AcDbLine
 10
10.00000000000001
 20
-0.247382710879256
 30
0.0
 11
10.00000000000001
 21
0.750558280112416
 31
0.0
  0
SPLINE
  5
AB
330
1F
100
AcDbEntity
  8
외형선
  6
Continuous
 62
     1
370
    15
100
AcDbSpline
210
0.0
220
0.0
230
1.0
 70
     8
 71
     3
 72
    14
 73
    10
 74
     0
 42
0.000000001
 43
0.00000001
 40
0.0
 40
0.0
 40
0.0
 40
0.0
 40
0.1640510732039947
 40
0.3277660654732343
 40
0.491394763131019
 40
0.6551887641810653
 40
0.8193388516972296
 40
0.983257615426071
 40
0.9999999999999999
 40
0.9999999999999999
 40
0.9999999999999999
 40
0.9999999999999999
 10
22.70000000000001
 20
0.0994138736622807
 30
0.0
 10
22.47314788147257
 20
0.2293484218730427
 30
0.0
 10
22.01990838183486
 20
0.4889513297011808
 30
0.0
 10
21.3408111771278
 20
0.8476859331652167
 30
0.0
 10
20.66209685737581
 20
1.154499640340073
 30
0.0
 10
19.98269144267766
 20
1.393784414979249
 30
0.0
 10
19.30239140756842
 20
1.538234078200652
 30
0.0
 10
18.82568875321807
 20
1.600097042373192
 30
0.0
 10
18.57601481892588
 20
1.584513389160673
 30
0.0
 10
18.55287682237667
 20
1.583069207511205
 30
0.0
  0
SPLINE
  5
AC
330
1F
100
AcDbEntity
  8
외형선
  6
Continuous
 62
     1
370
    15
100
AcDbSpline
210
0.0
220
0.0
230
1.0
 70
     8
 71
     3
 72
    11
 73
     7
 74
     0
 42
0.000000001
 43
0.00000001
 40
0.0
 40
0.0
 40
0.0
 40
0.0
 40
0.0111035871998469
 40
0.3401274122949806
 40
0.6701920375026383
 40
1.0
 40
1.0
 40
1.0
 40
1.0
 10
11.90228373491399
 20
-1.189621452681927
 30
0.0
 10
11.89524511407654
 20
-1.192624000252725
 30
0.0
 10
11.67963660409872
 20
-1.284598667283064
 30
0.0
 10
11.25497482015544
 20
-1.409962447417619
 30
0.0
 10
10.62756218213257
 20
-1.552542385179895
 30
0.0
 10
10.20913314361209
 20
-1.575337277121775
 30
0.0
 10
10.00000000000914
 20
-1.586730289965127
 30
0.0
  0
LINE
  5
AD
330
1F
100
AcDbEntity
  8
외형선
  6
Continuous
 62
     1
370
    15
100
AcDbLine
 10
22.70000000000001
 20
-0.8782870145992483
 30
0.0
 11
22.70000000000001
 21
0.0994138736622804
 31
0.0
  0
SPLINE
  5
AE
330
1F
100
AcDbEntity
  8
외형선
  6
Continuous
 62
     1
370
    15
100
AcDbSpline
210
0.0
220
0.0
230
1.0
 70
     8
 71
     3
 72
    12
 73
     8
 74
     0
 42
0.000000001
 43
0.00000001
 40
0.0
 40
0.0
 40
0.0
 40
0.0
 40
0.250000000000001
 40
0.250000000000001
 40
0.500000000000002
 40
0.500000000000002
 40
1.0
 40
1.0
 40
1.0
 40
1.0
 10
22.70000000000001
 20
1.027912543797248
 30
0.0
 10
22.67386996470099
 20
0.9681562346855954
 30
0.0
 10
22.64305257372539
 20
0.912796015594497
 30
0.0
 10
22.57153315169828
 20
0.8113459999261072
 30
0.0
 10
22.53030441569001
 20
0.7649625139502099
 30
0.0
 10
22.39738262722091
 20
0.64673452201094
 30
0.0
 10
22.29356463162988
 20
0.5930598332722903
 30
0.0
 10
22.18615287522148
 20
0.5647722902656916
 30
0.0
  0
SPLINE
  5
AF
330
1F
100
AcDbEntity
  8
외형선
  6
Continuous
 62
     1
370
    15
100
AcDbSpline
210
0.0
220
0.0
230
1.0
 70
     8
 71
     3
 72
     8
 73
     4
 74
     0
 42
0.000000001
 43
0.00000001
 40
0.0
 40
0.0
 40
0.0
 40
0.0
 40
1.0
 40
1.0
 40
1.0
 40
1.0
 10
22.70000000000001
 20
0.3062294043822097
 30
0.0
 10
22.52416672546392
 20
0.4019290219924652
 30
0.0
 10
22.35308306802858
 20
0.4876943467109265
 30
0.0
 10
22.18615287522133
 20
0.5647722902667003
 30
0.0
  0
LINE
  5
B0
330
1F
100
AcDbEntity
  8
외형선
  6
Continuous
 62
     1
370
    15
100
AcDbLine
 10
22.70000000000001
 20
0.0994138736622804
 30
0.0
 11
22.70000000000001
 21
0.3062294043822096
 31
0.0
  0
LINE
  5
B1
330
1F
100
AcDbEntity
  8
외형선
  6
Continuous
 62
     1
370
    15
100
AcDbLine
 10
22.70000000000001
 20
1.027912543797248
 30
0.0
 11
22.70000000000001
 21
1.584384149038189
 31
0.0
  0
SPLINE
  5
B2
330
1F
100
AcDbEntity
  8
외형선
  6
Continuous
370
    15
100
AcDbSpline
210
0.0
220
0.0
230
1.0
 70
    24
 71
     3
 72
    15
 73
    11
 74
     0
 42
0.000000001
 43
0.00000001
 40
0.0
 40
0.0
 40
0.0
 40
0.0
 40
0.0895630423711786
 40
0.2188336733707913
 40
0.348104304370404
 40
0.4773749353700167
 40
0.6066455663696295
 40
0.7359161973692421
 40
0.8651868283688545
 40
1.0
 40
1.0
 40
1.0
 40
1.0
 10
10.00000000000001
 20
-0.2572593983245925
 30
0.0
 10
10.00000000000001
 20
-0.2656611530215093
 30
0.0
 10
10.00000000000001
 20
-0.2861895628924794
 30
0.0
 10
10.00000000000001
 20
-0.3627387422893431
 30
0.0
 10
10.00000000000001
 20
-0.4855279155527444
 30
0.0
 10
10.00000000000001
 20
-0.6483074103498832
 30
0.0
 10
10.00000000000001
 20
-0.8437754354585842
 30
0.0
 10
10.00000000000001
 20
-1.068133658296443
 30
0.0
 10
10.00000000000001
 20
-1.316776908058425
 30
0.0
 10
10.00000000000001
 20
-1.495495525212117
 30
0.0
 10
10.00000000000001
 20
-1.58673028996484
 30
0.0
  0
LINE
  5
B3
330
1F
100
AcDbEntity
  8
외형선
  6
Continuous
 62
     1
370
    15
100
AcDbLine
 10
22.70000000000001
 20
0.3062294043822097
 30
0.0
 11
22.70000000000001
 21
1.027912543797248
 31
0.0
  0
LINE
  5
B4
330
1F
100
AcDbEntity
  8
외형선
  6
Continuous
 62
     1
370
    15
100
AcDbLine
 10
22.70000000000001
 20
-0.8782870145992492
 30
0.0
 11
22.70000000000001
 21
-0.9280654770622883
 31
0.0
  0
SPLINE
  5
B5
330
1F
100
AcDbEntity
  8
외형선
  6
Continuous
370
    15
100
AcDbSpline
210
0.0
220
0.0
230
1.0
 70
     8
 71
     3
 72
    10
 73
     6
 74
     0
 42
0.000000001
 43
0.00000001
 40
0.0
 40
0.0
 40
0.0
 40
0.0
 40
0.5000000000000001
 40
0.5000000000000001
 40
1.0
 40
1.0
 40
1.0
 40
1.0
 10
10.00000000000916
 20
-1.586730289965125
 30
0.0
 10
9.851177864503267
 20
-1.589399965508074
 30
0.0
 10
9.705254773675161
 20
-1.585149764837028
 30
0.0
 10
9.408495318020883
 20
-1.562859572026263
 30
0.0
 10
9.25849965423542
 20
-1.544755534290781
 30
0.0
 10
9.109822978557341
 20
-1.520033358874516
 30
0.0
  0
SPLINE
  5
B6
330
1F
100
AcDbEntity
  8
외형선
  6
Continuous
370
    15
100
AcDbSpline
210
0.0
220
0.0
230
1.0
 70
     8
 71
     3
 72
    10
 73
     6
 74
     0
 42
0.000000001
 43
0.00000001
 40
0.0
 40
0.0
 40
0.0
 40
0.0
 40
0.5
 40
0.5
 40
1.0
 40
1.0
 40
1.0
 40
1.0
 10
10.00000000000916
 20
-0.2473827108835568
 30
0.0
 10
9.851177864503265
 20
-0.1626889824199494
 30
0.0
 10
9.705254773675161
 20
-0.0774693154133861
 30
0.0
 10
9.408495318020883
 20
0.0938408333088012
 30
0.0
 10
9.25849965423542
 20
0.1797682403908259
 30
0.0
 10
9.10982297855734
 20
0.2642853645417476
 30
0.0
  0
SPLINE
  5
B7
330
1F
100
AcDbEntity
  8
외형선
  6
Continuous
370
    15
100
AcDbSpline
210
0.0
220
0.0
230
1.0
 70
    24
 71
     3
 72
    15
 73
    11
 74
     0
 42
0.000000001
 43
0.00000001
 40
0.0
 40
0.0
 40
0.0
 40
0.0
 40
0.0937477483736394
 40
0.222424203597595
 40
0.3511006588215504
 40
0.4797771140455061
 40
0.6084535692694617
 40
0.737130024493417
 40
0.8658064797173725
 40
1.0
 40
1.0
 40
1.0
 40
1.0
 10
10.00000000000001
 20
-0.2557215905242425
 30
0.0
 10
10.00000000000001
 20
-0.2645111486018798
 30
0.0
 10
10.00000000000001
 20
-0.2853650943158765
 30
0.0
 10
10.00000000000001
 20
-0.3626809453700955
 30
0.0
 10
10.00000000000001
 20
-0.4855434021551949
 30
0.0
 10
10.00000000000001
 20
-0.6483032608593284
 30
0.0
 10
10.00000000000001
 20
-0.8437765468183522
 30
0.0
 10
10.00000000000001
 20
-1.068133362347926
 30
0.0
 10
10.00000000000001
 20
-1.31677698575759
 30
0.0
 10
10.00000000000001
 20
-1.495495551471707
 30
0.0
 10
10.00000000000001
 20
-1.586730289964841
 30
0.0
  0
LINE
  5
B8
330
1F
100
AcDbEntity
  8
외형선
  6
Continuous
370
    15
100
AcDbLine
 10
9.10982297855734
 20
0.2643041459448523
 30
0.0
 11
9.10982297855734
 21
-1.520031914233726
 31
0.0
  0
SPLINE
  5
B9
330
1F
100
AcDbEntity
  8
외형선
  6
Continuous
370
    15
100
AcDbSpline
210
0.0
220
0.0
230
1.0
 70
     8
 71
     3
 72
    10
 73
     6
 74
     0
 42
0.000000001
 43
0.00000001
 40
0.0
 40
0.0
 40
0.0
 40
0.0
 40
0.5
 40
0.5
 40
1.0
 40
1.0
 40
1.0
 40
1.0
 10
10.00000000000916
 20
1.481711433815784
 30
0.0
 10
9.851177864503265
 20
1.450935696813143
 30
0.0
 10
9.705254773675161
 20
1.413914211986194
 30
0.0
 10
9.408495318020883
 20
1.327494131847712
 30
0.0
 10
9.25849965423542
 20
1.278103377372586
 30
0.0
 10
9.10982297855734
 20
1.223487105712114
 30
0.0
  0
LINE
  5
BA
330
1F
100
AcDbEntity
  8
외형선
  6
Continuous
370
    15
100
AcDbLine
 10
9.10982297855734
 20
1.587499999999999
 30
0.0
 11
9.10982297855734
 21
1.156556525385997
 31
0.0
  0
SPLINE
  5
BB
330
1F
100
AcDbEntity
  8
외형선
  6
Continuous
370
    15
100
AcDbSpline
210
0.0
220
0.0
230
1.0
 70
     8
 71
     3
 72
    10
 73
     6
 74
     0
 42
0.000000001
 43
0.00000001
 40
0.0
 40
0.0
 40
0.0
 40
0.0
 40
0.5
 40
0.5
 40
1.0
 40
1.0
 40
1.0
 40
1.0
 10
10.00000000000916
 20
0.7505582801079349
 30
0.0
 10
9.851177864503267
 20
0.8261111503279019
 30
0.0
 10
9.705254773675161
 20
0.8979081388437662
 30
0.0
 10
9.408495318020883
 20
1.033862739935004
 30
0.0
 10
9.25849965423542
 20
1.097838998555124
 30
0.0
 10
9.109822978557341
 20
1.156553094450411
 30
0.0
  0
LINE
  5
BC
330
1F
100
AcDbEntity
  8
외형선
  6
Continuous
370
    15
100
AcDbLine
 10
-14.89999999999999
 20
1.587499999999997
 30
0.0
 11
-14.89999999999999
 21
-1.587500000000002
 31
0.0
  0
LINE
  5
BD
330
1F
100
AcDbEntity
  8
외형선
  6
Continuous
370
    15
100
AcDbLine
 10
-15.39999999999999
 20
1.087499999999997
 30
0.0
 11
-15.39999999999999
 21
-1.0875
 31
0.0
  0
SPLINE
  5
BE
330
1F
100
AcDbEntity
  8
외형선
  6
Continuous
370
    15
100
AcDbSpline
210
0.0
220
0.0
230
1.0
 70
    24
 71
     3
 72
    19
 73
    15
 74
     0
 42
0.000000001
 43
0.00000001
 40
0.0
 40
0.0
 40
0.0
 40
0.0
 40
0.0606443213809224
 40
0.1215373907266663
 40
0.1828106013505506
 40
0.2445986563373237
 40
0.3233049684071809
 40
0.3830458912140451
 40
0.4835993846892223
 40
0.5650967221330884
 40
0.7034538196215814
 40
0.8040073130967383
 40
0.8855046505407108
 40
1.0
 40
1.0
 40
1.0
 40
1.0
 10
10.00000000000001
 20
1.481711433813893
 30
0.0
 10
10.00000000000001
 20
1.452244243620082
 30
0.0
 10
10.00000000000001
 20
1.39318899612697
 30
0.0
 10
10.00000000000001
 20
1.308624172358753
 30
0.0
 10
10.00000000000001
 20
1.22713683268109
 30
0.0
 10
10.00000000000001
 20
1.142433319344704
 30
0.0
 10
10.00000000000001
 20
1.063955747793562
 30
0.0
 10
10.00000000000001
 20
0.9775042713946474
 30
0.0
 10
10.00000000000001
 20
0.8988542214631392
 30
0.0
 10
10.00000000000001
 20
0.8091393572357715
 30
0.0
 10
10.00000000000001
 20
0.7375110038909267
 30
0.0
 10
10.00000000000001
 20
0.6876074175669158
 30
0.0
 10
10.00000000000001
 20
0.6555386733065618
 30
0.0
 10
10.00000000000001
 20
0.6493261539361717
 30
0.0
 10
10.00000000000001
 20
0.6456969135416741
 30
0.0
  0
LINE
  5
BF
330
1F
100
AcDbEntity
  8
중심선
 62
     1
100
AcDbLine
 10
-18.4
 20
-0.0000000000000022
 30
0.0
 11
25.70000000000001
 21
0.0000000000000032
 31
0.0
  0
LINE
  5
C0
330
1F
100
AcDbEntity
  8
참조1
100
AcDbLine
 10
3.650000000000006
 20
0.1476145137015384
 30
0.0
 11
3.650000000000007
 21
-39.85238548629846
 31
0.0
  0
LINE
  5
C1
330
1F
100
AcDbEntity
  8
참조1
100
AcDbLine
 10
3.650000000000007
 20
-39.85238548629846
 30
0.0
 11
-14.68383181430866
 21
-39.85238548629846
 31
0.0
  0
INSERT
  5
C3
330
1F
100
AcDbEntity
  8
0
  6
Continuous
 62
     7
100
AcDbBlockReference
 66
     1
  2
블럭10
 10
-10.2902729321252
 20
-51.89955978794239
 30
0.0
  0
ATTRIB
  5
C4
330
C3
100
AcDbEntity
  8
FORMAT
 62
     2
100
AcDbText
 10
-19.81258688272313
 20
-49.8241928751102
 30
0.0
 40
4.233333333333333
  1
EH108008 [ 3 FLUTE ]
 41
0.75
  7
SLDTEXTSTYLE0
 11
-19.81258688272313
 21
-51.94085954177687
 31
0.0
100
AcDbAttribute
  2
AUTOATTR0
 70
     0
 74
     1
  0
SEQEND
  5
C5
330
C3
100
AcDbEntity
  8
0
  6
Continuous
 62
     7
  0
HATCH
  5
C6
330
1F
100
AcDbEntity
  8
중심선
100
AcDbHatch
 10
0.0
 20
0.0
 30
0.0
210
0.0
220
0.0
230
1.0
  2
SOLID
 70
     1
 71
     0
 91
        1
 92
        0
 93
        4
 72
     1
 10
-4.575363627744364
 20
-35.65238548629846
 11
-8.021638871581647
 21
-35.65238548629846
 72
     1
 10
-8.021638871581647
 20
-35.65238548629846
 11
-10.14986873078567
 21
-38.18871106687106
 72
     1
 10
-10.14986873078567
 20
-38.18871106687105
 11
-6.703560401835237
 21
-38.18867163756856
 72
     1
 10
-6.703560401835237
 20
-38.18867163756856
 11
-4.575363627744364
 21
-35.65238548629845
 97
        0
 75
     0
 76
     1
 98
        1
 10
7.518842335746115
 20
0.1465395849776492
  0
HATCH
  5
C7
330
1F
100
AcDbEntity
  8
중심선
100
AcDbHatch
 10
0.0
 20
0.0
 30
0.0
210
0.0
220
0.0
230
1.0
  2
SOLID
 70
     1
 71
     0
 91
        1
 92
        0
 93
        4
 72
     1
 10
0.4374003632916148
 20
-35.65238548629846
 11
-3.008874880545667
 21
-35.65238548629846
 72
     1
 10
-3.008874880545667
 20
-35.65238548629846
 11
-7.540012888903084
 21
-41.05238548629848
 72
     1
 10
-7.540012888903084
 20
-41.05238548629848
 11
-4.093737645065801
 21
-41.05238548629848
 72
     1
 10
-4.093737645065801
 20
-41.05238548629848
 11
0.4374003632916148
 21
-35.65238548629846
 97
        0
 75
     0
 76
     1
 98
        1
 10
7.518842335746115
 20
0.1465395849776492
  0
HATCH
  5
C8
330
1F
100
AcDbEntity
  8
중심선
100
AcDbHatch
 10
0.0
 20
0.0
 30
0.0
210
0.0
220
0.0
230
1.0
  2
SOLID
 70
     1
 71
     0
 91
        1
 92
        0
 93
        4
 72
     1
 10
5.45016435432751
 20
-35.65238548629846
 11
2.003889110490395
 21
-35.65238548629846
 72
     1
 10
2.003889110490395
 20
-35.65238548629846
 11
-5.044547791398882
 21
-44.05238548629848
 72
     1
 10
-5.044547791398882
 20
-44.05238548629848
 11
-1.598272547561599
 21
-44.05238548629848
 72
     1
 10
-1.598272547561599
 20
-44.05238548629848
 11
5.45016435432751
 21
-35.65238548629846
 97
        0
 75
     0
 76
     1
 98
        1
 10
7.518842335746115
 20
0.1465395849776492
  0
HATCH
  5
C9
330
1F
100
AcDbEntity
  8
중심선
100
AcDbHatch
 10
0.0
 20
0.0
 30
0.0
210
0.0
220
0.0
230
1.0
  2
SOLID
 70
     1
 71
     0
 91
        1
 92
        0
 93
        6
 72
     3
 10
10.25005478533968
 20
-39.85238548634973
 11
3.960054785062283
 21
1.540882976769353E-10
 40
0.3939339440162628
 50
17.09539180608439
 51
320.0019657685078
 73
     0
 72
     1
 10
11.93305444104028
 20
-38.44027949093676
 11
14.23835631474134
 21
-36.50595278088884
 72
     3
 10
10.25005478528684
 20
-39.8523854862986
 11
6.600054785286828
 21
-1.278976924368180E-13
 40
0.6363583540795982
 50
39.99873849337379
 51
368.4976242363725
 73
     1
 72
     1
 10
16.67538727718745
 20
-38.89238548622848
 11
8.93012209212276
 21
-38.89238548622848
 72
     1
 10
8.930122092122758
 20
-38.89238548622848
 11
8.930097047676824
 21
-40.81238548622837
 72
     1
 10
8.930097047676824
 20
-40.81238548622837
 11
13.37147681714886
 21
-40.81238548622834
 97
        0
 75
     0
 76
     1
 98
        1
 10
7.518842335746115
 20
0.1465395849776492
  0
DIMENSION
  5
CA
330
1F
100
AcDbEntity
  8
치수문자_일반주서
100
AcDbDimension
  2
_D
 10
22.70000000000001
 20
25.87734624538548
 30
0.0
 11
3.650000000000007
 21
25.87734624538548
 31
0.0
 70
   160
  1
<>
 71
     2
 42
38.1
  3
SLDDIMSTYLE1
100
AcDbAlignedDimension
 13
-15.39999999999999
 23
1.087499999999997
 33
0.0
 14
22.70000000000001
 24
1.587500000000001
 34
0.0
100
AcDbRotatedDimension
1001
PE_URL
1000

1001
ACAD
1000
DSTYLE
1002
{
1070
   171
1070
     6
1070
   273
1070
     7
1002
}
  0
DIMENSION
  5
DE
330
1F
100
AcDbEntity
  8
치수문자_일반주서
100
AcDbDimension
  2
_D_1
 10
-23.03372170840603
 20
-1.587500000000023
 30
0.0
 11
-23.03372170840604
 21
0.00000000000001
 31
0.0
 70
   160
  1
%%c<>
 71
     2
 42
3.174999999999983
 52
-270.0
  3
SLDDIMSTYLE1
100
AcDbAlignedDimension
 13
-14.9
 23
1.587499999999991
 33
0.0
 14
-14.9
 24
-1.587499999999992
 34
0.0
 50
90.0000000000002
100
AcDbRotatedDimension
1001
ACAD
1000
DSTYLE
1002
{
1070
   171
1070
     6
1070
   273
1070
     7
1002
}
1001
ACAD_DSTYLE_DIMFLIPARROW_SYMBOL
1070
   385
1070
     0
1001
ACAD_DSTYLE_DIMFLIPARROW_WHICH_SYMBOL
1070
   386
1070
     3
  0
DIMENSION
  5
F3
330
1F
100
AcDbEntity
  8
치수문자_일반주서
100
AcDbDimension
  2
_D_2
 10
10.00000000000001
 20
12.50254809318748
 30
0.0
 11
16.35000000000001
 21
12.50254809318748
 31
0.0
 70
   160
  1
<>
 71
     2
 42
12.7
  3
SLDDIMSTYLE1
100
AcDbAlignedDimension
 13
22.70000000000001
 23
1.650000000000001
 33
0.0
 14
10.00000000000001
 24
1.481711433839498
 34
0.0
100
AcDbRotatedDimension
1001
PE_URL
1000

1001
ACAD
1000
DSTYLE
1002
{
1070
   171
1070
     6
1070
   273
1070
     7
1002
}
  0
DIMENSION
  5
109
330
1F
100
AcDbEntity
  8
치수문자_일반주서
100
AcDbDimension
  2
_D_3
 10
35.93409908567842
 20
-1.587499999999928
 30
0.0
 11
35.93409908567832
 21
20.44161981396695
 31
0.0
 70
   160
  1
%%c<>
 71
     2
 42
3.175119813966787
 52
-270.0
  3
SLDDIMSTYLE1
100
AcDbAlignedDimension
 13
22.70000000000001
 23
1.58761981396681
 33
0.0
 14
22.70000000000001
 24
-1.587499999999977
 34
0.0
 50
90.0000000000002
100
AcDbRotatedDimension
1001
PE_URL
1000

1001
ACAD
1000
DSTYLE
1002
{
1070
   171
1070
     6
1070
   273
1070
     7
1002
}
  0
LINE
  5
11D
330
1F
100
AcDbEntity
  8
참조1
100
AcDbLine
 10
83.28850881534558
 20
7.587614513701545
 30
0.0
 11
83.28850881534558
 21
-7.29238548629846
 31
0.0
  0
LINE
  5
11E
330
1F
100
AcDbEntity
  8
참조1
100
AcDbLine
 10
95.9885088153456
 20
5.587614513701545
 30
0.0
 11
83.28850881534558
 21
5.587614513701545
 31
0.0
  0
SOLID
  5
11F
330
1F
100
AcDbEntity
  8
참조1
100
AcDbTrace
 10
83.28850881534558
 20
5.587614513701545
 30
0.0
 11
89.63850881534557
 21
4.571614513701545
 31
0.0
 12
89.63850881534557
 22
6.603614513701545
 32
0.0
 13
89.63850881534557
 23
6.603614513701545
 33
0.0
  0
LINE
  5
120
330
1F
100
AcDbEntity
  8
참조1
100
AcDbLine
 10
95.9885088153456
 20
-5.29238548629846
 30
0.0
 11
83.28850881534558
 21
-5.29238548629846
 31
0.0
  0
SOLID
  5
121
330
1F
100
AcDbEntity
  8
참조1
100
AcDbTrace
 10
83.28850881534558
 20
-5.29238548629846
 30
0.0
 11
89.63850881534557
 21
-6.30838548629846
 31
0.0
 12
89.63850881534557
 22
-4.27638548629846
 32
0.0
 13
89.63850881534557
 23
-4.27638548629846
 33
0.0
  0
MTEXT
  5
122
330
1F
100
AcDbEntity
  8
참조1
100
AcDbMText
 10
92.68599890781587
 20
11.13583115835148
 30
0.0
 40
3.5
 41
0.0
 71
     1
 72
     1
  1
A
  7
SLDTEXTSTYLE0
 73
     1
 44
1.0
  0
MTEXT
  5
123
330
1F
100
AcDbEntity
  8
참조1
100
AcDbMText
 10
92.68599890781587
 20
0.2558311583514751
 30
0.0
 40
3.5
 41
0.0
 71
     1
 72
     1
  1
A
  7
SLDTEXTSTYLE0
 73
     1
 44
1.0
  0
INSERT
  5
12A
330
1F
100
AcDbEntity
  8
해칭선
100
AcDbBlockReference
  2
SW_DOWELSYMBOL_0
 10
0.0
 20
0.0
 30
0.0
  0
LINE
  5
154
330
1F
100
AcDbEntity
  8
외형선
  6
Continuous
370
    15
100
AcDbLine
 10
0.0000000000000071
 20
-0.247382710879256
 30
0.0
 11
0.0000000000000071
 21
0.750558280112416
 31
0.0
  0
ENDSEC
  0
SECTION
  2
OBJECTS
  0
DICTIONARY
  5
C
330
0
100
AcDbDictionary
281
     1
  3
ACAD_GROUP
350
D
  3
ACAD_IMAGE_VARS
350
19D
  3
ACAD_LAYOUT
350
1A
  3
ACAD_MLINESTYLE
350
17
  3
ACAD_PLOTSETTINGS
350
19
  3
ACAD_PLOTSTYLENAME
350
E
  3
ACAD_SCALELIST
350
47
  3
APPDATA
350
14C
  3
DWGPROPS
350
19E
  0
DICTIONARY
  5
D
102
{ACAD_REACTORS
330
C
102
}
330
C
100
AcDbDictionary
281
     1
  0
RASTERVARIABLES
  5
19D
102
{ACAD_REACTORS
330
C
102
}
330
C
100
AcDbRasterVariables
 90
        0
 70
     1
 71
     1
 72
     1
  0
DICTIONARY
  5
1A
102
{ACAD_REACTORS
330
C
102
}
330
C
100
AcDbDictionary
281
     1
  3
Layout1
350
1E
  3
Layout2
350
26
  3
Model
350
22
  0
DICTIONARY
  5
17
102
{ACAD_REACTORS
330
C
102
}
330
C
100
AcDbDictionary
281
     1
  3
Standard
350
18
  0
DICTIONARY
  5
19
102
{ACAD_REACTORS
330
C
102
}
330
C
100
AcDbDictionary
281
     1
  0
ACDBDICTIONARYWDFLT
  5
E
102
{ACAD_REACTORS
330
C
102
}
330
C
100
AcDbDictionary
281
     1
  3
Normal
350
F
100
AcDbDictionaryWithDefault
340
F
  0
DICTIONARY
  5
47
102
{ACAD_REACTORS
330
C
102
}
330
C
100
AcDbDictionary
281
     1
  3
A0
350
48
  3
A1
350
49
  3
A2
350
4A
  3
A3
350
4B
  3
A4
350
4C
  3
A5
350
4D
  3
A6
350
4E
  3
A7
350
4F
  3
A8
350
50
  3
A9
350
51
  3
B0
350
52
  3
B1
350
53
  3
B2
350
54
  3
B3
350
55
  3
B4
350
56
  3
B5
350
57
  3
B6
350
58
  3
B7
350
59
  3
B8
350
5A
  3
B9
350
5B
  3
C0
350
5C
  3
C1
350
5D
  3
C2
350
5E
  3
C3
350
5F
  3
C4
350
60
  3
C5
350
61
  3
C6
350
62
  3
C7
350
63
  3
C8
350
64
  3
C9
350
65
  3
D0
350
66
  3
D1
350
67
  3
D2
350
68
  0
DICTIONARY
  5
14C
102
{ACAD_REACTORS
330
C
102
}
330
C
100
AcDbDictionary
281
     1
  0
XRECORD
  5
19E
102
{ACAD_REACTORS
330
C
102
}
330
C
100
AcDbXrecord
280
     1
  1
DWGPROPS COOKIE
  2

  3

  4

  6

  7

  8
12016016
  9

300
=
301
=
302
=
303
=
304
=
305
=
306
=
307
=
308
=
309
=
 40
0.0
 41
2458291.182109028
 42
2458302.21607169
  1

 90
        0
  0
LAYOUT
  5
1E
102
{ACAD_REACTORS
330
1A
102
}
330
1A
100
AcDbPlotSettings
  1

  2
none_device
  4

  6

 40
0.0
 41
0.0
 42
0.0
 43
0.0
 44
0.0
 45
0.0
 46
0.0
 47
0.0
 48
0.0
 49
0.0
140
0.0
141
0.0
142
1.0
143
1.0
 70
   688
 72
     1
 73
     0
 74
     5
  7

 75
    16
147
1.0
148
0.0
149
0.0
100
AcDbLayout
  1
Layout1
 70
     1
 71
     1
 10
0.0
 20
0.0
 11
420.0
 21
297.0
 12
0.0
 22
0.0
 32
0.0
 14
1.000000000000000E+20
 24
1.000000000000000E+20
 34
1.000000000000000E+20
 15
-1.000000000000000E+20
 25
-1.000000000000000E+20
 35
-1.000000000000000E+20
146
0.0
 13
0.0
 23
0.0
 33
0.0
 16
1.0
 26
0.0
 36
0.0
 17
0.0
 27
1.0
 37
0.0
 76
     0
330
1B
  0
LAYOUT
  5
26
102
{ACAD_REACTORS
330
1A
102
}
330
1A
100
AcDbPlotSettings
  1

  2
none_device
  4

  6

 40
0.0
 41
0.0
 42
0.0
 43
0.0
 44
0.0
 45
0.0
 46
0.0
 47
0.0
 48
0.0
 49
0.0
140
0.0
141
0.0
142
1.0
143
1.0
 70
   688
 72
     1
 73
     0
 74
     5
  7

 75
    16
147
1.0
148
0.0
149
0.0
100
AcDbLayout
  1
Layout2
 70
     1
 71
     2
 10
0.0
 20
0.0
 11
0.0
 21
0.0
 12
0.0
 22
0.0
 32
0.0
 14
0.0
 24
0.0
 34
0.0
 15
0.0
 25
0.0
 35
0.0
146
0.0
 13
0.0
 23
0.0
 33
0.0
 16
1.0
 26
0.0
 36
0.0
 17
0.0
 27
1.0
 37
0.0
 76
     0
330
23
  0
LAYOUT
  5
22
102
{ACAD_REACTORS
330
1A
102
}
330
1A
100
AcDbPlotSettings
  1

  2
none_device
  4
ANSI_A_(11.00_x_8.50_Inches)
  6

 40
6.35
 41
19.05
 42
6.35000508
 43
19.05000254
 44
279.4
 45
215.9
 46
90.62778037899945
 47
103.4187074341301
 48
0.0
 49
0.0
140
0.0
141
0.0
142
0.0805584256619361
143
1.0
 70
  1696
 72
     0
 73
     0
 74
     0
  7

 75
     0
147
0.0235690232323232
148
0.0
149
0.0
100
AcDbLayout
  1
Model
 70
     1
 71
     0
 10
0.0
 20
0.0
 11
420.0
 21
297.0
 12
0.0
 22
0.0
 32
0.0
 14
-27.40872170840608
 24
-49.8241928751102
 34
0.0
 15
95.9885088153456
 25
32.69161981396696
 35
0.0
146
0.0
 13
0.0
 23
0.0
 33
0.0
 16
1.0
 26
0.0
 36
0.0
 17
0.0
 27
1.0
 37
0.0
 76
     0
330
1F
331
29
  0
MLINESTYLE
  5
18
102
{ACAD_REACTORS
330
17
102
}
330
17
100
AcDbMlineStyle
  2
Standard
 70
     0
  3

 62
   256
 51
90.0
 52
90.0
 71
     2
 49
0.5
 62
   256
  6
BYLAYER
 49
-0.5
 62
   256
  6
BYLAYER
  0
ACDBPLACEHOLDER
  5
F
102
{ACAD_REACTORS
330
E
102
}
330
E
  0
SCALE
  5
48
102
{ACAD_REACTORS
330
47
102
}
330
47
100
AcDbScale
 70
     0
300
1:1
140
1.0
141
1.0
290
     1
  0
SCALE
  5
49
102
{ACAD_REACTORS
330
47
102
}
330
47
100
AcDbScale
 70
     0
300
1:2
140
1.0
141
2.0
290
     0
  0
SCALE
  5
4A
102
{ACAD_REACTORS
330
47
102
}
330
47
100
AcDbScale
 70
     0
300
1:4
140
1.0
141
4.0
290
     0
  0
SCALE
  5
4B
102
{ACAD_REACTORS
330
47
102
}
330
47
100
AcDbScale
 70
     0
300
1:5
140
1.0
141
5.0
290
     0
  0
SCALE
  5
4C
102
{ACAD_REACTORS
330
47
102
}
330
47
100
AcDbScale
 70
     0
300
1:8
140
1.0
141
8.0
290
     0
  0
SCALE
  5
4D
102
{ACAD_REACTORS
330
47
102
}
330
47
100
AcDbScale
 70
     0
300
1:10
140
1.0
141
10.0
290
     0
  0
SCALE
  5
4E
102
{ACAD_REACTORS
330
47
102
}
330
47
100
AcDbScale
 70
     0
300
1:16
140
1.0
141
16.0
290
     0
  0
SCALE
  5
4F
102
{ACAD_REACTORS
330
47
102
}
330
47
100
AcDbScale
 70
     0
300
1:20
140
1.0
141
20.0
290
     0
  0
SCALE
  5
50
102
{ACAD_REACTORS
330
47
102
}
330
47
100
AcDbScale
 70
     0
300
1:30
140
1.0
141
30.0
290
     0
  0
SCALE
  5
51
102
{ACAD_REACTORS
330
47
102
}
330
47
100
AcDbScale
 70
     0
300
1:40
140
1.0
141
40.0
290
     0
  0
SCALE
  5
52
102
{ACAD_REACTORS
330
47
102
}
330
47
100
AcDbScale
 70
     0
300
1:50
140
1.0
141
50.0
290
     0
  0
SCALE
  5
53
102
{ACAD_REACTORS
330
47
102
}
330
47
100
AcDbScale
 70
     0
300
1:100
140
1.0
141
100.0
290
     0
  0
SCALE
  5
54
102
{ACAD_REACTORS
330
47
102
}
330
47
100
AcDbScale
 70
     0
300
2:1
140
2.0
141
1.0
290
     0
  0
SCALE
  5
55
102
{ACAD_REACTORS
330
47
102
}
330
47
100
AcDbScale
 70
     0
300
4:1
140
4.0
141
1.0
290
     0
  0
SCALE
  5
56
102
{ACAD_REACTORS
330
47
102
}
330
47
100
AcDbScale
 70
     0
300
8:1
140
8.0
141
1.0
290
     0
  0
SCALE
  5
57
102
{ACAD_REACTORS
330
47
102
}
330
47
100
AcDbScale
 70
     0
300
10:1
140
10.0
141
1.0
290
     0
  0
SCALE
  5
58
102
{ACAD_REACTORS
330
47
102
}
330
47
100
AcDbScale
 70
     0
300
100:1
140
100.0
141
1.0
290
     0
  0
SCALE
  5
59
102
{ACAD_REACTORS
330
47
102
}
330
47
100
AcDbScale
 70
     0
300
1/128" = 1'-0"
140
0.0078125
141
12.0
290
     0
  0
SCALE
  5
5A
102
{ACAD_REACTORS
330
47
102
}
330
47
100
AcDbScale
 70
     0
300
1/64" = 1'-0"
140
0.015625
141
12.0
290
     0
  0
SCALE
  5
5B
102
{ACAD_REACTORS
330
47
102
}
330
47
100
AcDbScale
 70
     0
300
1/32" = 1'-0"
140
0.03125
141
12.0
290
     0
  0
SCALE
  5
5C
102
{ACAD_REACTORS
330
47
102
}
330
47
100
AcDbScale
 70
     0
300
1/16" = 1'-0"
140
0.0625
141
12.0
290
     0
  0
SCALE
  5
5D
102
{ACAD_REACTORS
330
47
102
}
330
47
100
AcDbScale
 70
     0
300
3/32" = 1'-0"
140
0.09375
141
12.0
290
     0
  0
SCALE
  5
5E
102
{ACAD_REACTORS
330
47
102
}
330
47
100
AcDbScale
 70
     0
300
1/8" = 1'-0"
140
0.125
141
12.0
290
     0
  0
SCALE
  5
5F
102
{ACAD_REACTORS
330
47
102
}
330
47
100
AcDbScale
 70
     0
300
3/16" = 1'-0"
140
0.1875
141
12.0
290
     0
  0
SCALE
  5
60
102
{ACAD_REACTORS
330
47
102
}
330
47
100
AcDbScale
 70
     0
300
1/4" = 1'-0"
140
0.25
141
12.0
290
     0
  0
SCALE
  5
61
102
{ACAD_REACTORS
330
47
102
}
330
47
100
AcDbScale
 70
     0
300
3/8" = 1'-0"
140
0.375
141
12.0
290
     0
  0
SCALE
  5
62
102
{ACAD_REACTORS
330
47
102
}
330
47
100
AcDbScale
 70
     0
300
1/2" = 1'-0"
140
0.5
141
12.0
290
     0
  0
SCALE
  5
63
102
{ACAD_REACTORS
330
47
102
}
330
47
100
AcDbScale
 70
     0
300
3/4" = 1'-0"
140
0.75
141
12.0
290
     0
  0
SCALE
  5
64
102
{ACAD_REACTORS
330
47
102
}
330
47
100
AcDbScale
 70
     0
300
1" = 1'-0"
140
1.0
141
12.0
290
     0
  0
SCALE
  5
65
102
{ACAD_REACTORS
330
47
102
}
330
47
100
AcDbScale
 70
     0
300
1-1/2" = 1'-0"
140
1.5
141
12.0
290
     0
  0
SCALE
  5
66
102
{ACAD_REACTORS
330
47
102
}
330
47
100
AcDbScale
 70
     0
300
3" = 1'-0"
140
3.0
141
12.0
290
     0
  0
SCALE
  5
67
102
{ACAD_REACTORS
330
47
102
}
330
47
100
AcDbScale
 70
     0
300
6" = 1'-0"
140
6.0
141
12.0
290
     0
  0
SCALE
  5
68
102
{ACAD_REACTORS
330
47
102
}
330
47
100
AcDbScale
 70
     0
300
1'-0" = 1'-0"
140
12.0
141
12.0
290
     0
  0
ENDSEC
  0
EOF
