  0
SECTION
  2
HEADER
  9
$ACADVER
  1
AC1015
  9
$ACADMAINTVER
 70
     6
  9
$DWGCODEPAGE
  3
ANSI_949
  9
$INSBASE
 10
0.0
 20
0.0
 30
0.0
  9
$EXTMIN
 10
-45.46000000000009
 20
-50.28867796974448
 30
0.0
  9
$EXTMAX
 10
86.47629082238856
 20
41.99964524059784
 30
0.0
  9
$LIMMIN
 10
0.0
 20
0.0
  9
$LIMMAX
 10
420.0
 20
297.0
  9
$ORTHOMODE
 70
     0
  9
$REGENMODE
 70
     1
  9
$FILLMODE
 70
     1
  9
$QTEXTMODE
 70
     0
  9
$MIRRTEXT
 70
     1
  9
$LTSCALE
 40
1.0
  9
$ATTMODE
 70
     1
  9
$TEXTSIZE
 40
3.5
  9
$TRACEWID
 40
1.0
  9
$TEXTSTYLE
  7
Standard
  9
$CLAYER
  8
0
  9
$CELTYPE
  6
ByLayer
  9
$CECOLOR
 62
   256
  9
$CELTSCALE
 40
1.0
  9
$DISPSILH
 70
     0
  9
$DIMSCALE
 40
1.0
  9
$DIMASZ
 40
3.302
  9
$DIMEXO
 40
1.0
  9
$DIMDLI
 40
3.75
  9
$DIMRND
 40
0.0
  9
$DIMDLE
 40
0.0
  9
$DIMEXE
 40
1.0
  9
$DIMTP
 40
0.0
  9
$DIMTM
 40
0.0
  9
$DIMTXT
 40
3.5
  9
$DIMCEN
 40
2.5
  9
$DIMTSZ
 40
0.0
  9
$DIMTOL
 70
     0
  9
$DIMLIM
 70
     0
  9
$DIMTIH
 70
     1
  9
$DIMTOH
 70
     1
  9
$DIMSE1
 70
     0
  9
$DIMSE2
 70
     0
  9
$DIMTAD
 70
     1
  9
$DIMZIN
 70
     0
  9
$DIMBLK
  1

  9
$DIMASO
 70
     1
  9
$DIMSHO
 70
     1
  9
$DIMPOST
  1

  9
$DIMAPOST
  1

  9
$DIMALT
 70
     0
  9
$DIMALTD
 70
     3
  9
$DIMALTF
 40
0.0393700787401575
  9
$DIMLFAC
 40
1.0
  9
$DIMTOFL
 70
     1
  9
$DIMTVP
 40
0.0
  9
$DIMTIX
 70
     0
  9
$DIMSOXD
 70
     0
  9
$DIMSAH
 70
     0
  9
$DIMBLK1
  1

  9
$DIMBLK2
  1

  9
$DIMSTYLE
  2
ISO-25
  9
$DIMCLRD
 70
     0
  9
$DIMCLRE
 70
     0
  9
$DIMCLRT
 70
     0
  9
$DIMTFAC
 40
1.0
  9
$DIMGAP
 40
1.524
  9
$DIMJUST
 70
     0
  9
$DIMSD1
 70
     0
  9
$DIMSD2
 70
     0
  9
$DIMTOLJ
 70
     0
  9
$DIMTZIN
 70
     0
  9
$DIMALTZ
 70
     0
  9
$DIMALTTZ
 70
     0
  9
$DIMUPT
 70
     0
  9
$DIMDEC
 70
     2
  9
$DIMTDEC
 70
     2
  9
$DIMALTU
 70
     2
  9
$DIMALTTD
 70
     3
  9
$DIMTXSTY
  7
Standard
  9
$DIMAUNIT
 70
     0
  9
$DIMADEC
 70
     2
  9
$DIMALTRND
 40
0.0
  9
$DIMAZIN
 70
     0
  9
$DIMDSEP
 70
    44
  9
$DIMATFIT
 70
     3
  9
$DIMFRAC
 70
     0
  9
$DIMLDRBLK
  1

  9
$DIMLUNIT
 70
     2
  9
$DIMLWD
 70
    -2
  9
$DIMLWE
 70
    -2
  9
$DIMTMOVE
 70
     0
  9
$LUNITS
 70
     2
  9
$LUPREC
 70
     2
  9
$SKETCHINC
 40
1.0
  9
$FILLETRAD
 40
10.0
  9
$AUNITS
 70
     0
  9
$AUPREC
 70
     2
  9
$MENU
  1
.
  9
$ELEVATION
 40
0.0
  9
$PELEVATION
 40
0.0
  9
$THICKNESS
 40
0.0
  9
$LIMCHECK
 70
     0
  9
$CHAMFERA
 40
0.0
  9
$CHAMFERB
 40
0.0
  9
$CHAMFERC
 40
0.0
  9
$CHAMFERD
 40
0.0
  9
$SKPOLY
 70
     0
  9
$TDCREATE
 40
2458299.344554687
  9
$TDUCREATE
 40
2458298.969554687
  9
$TDUPDATE
 40
2458302.584310417
  9
$TDUUPDATE
 40
2458302.209310417
  9
$TDINDWG
 40
0.000521956
  9
$TDUSRTIMER
 40
2458302.208788599
  9
$USRTIMER
 70
     1
  9
$ANGBASE
 50
0.0
  9
$ANGDIR
 70
     0
  9
$PDMODE
 70
     0
  9
$PDSIZE
 40
-1.0
  9
$PLINEWID
 40
0.0
  9
$SPLFRAME
 70
     0
  9
$SPLINETYPE
 70
     6
  9
$SPLINESEGS
 70
     8
  9
$HANDSEED
  5
1F9
  9
$SURFTAB1
 70
     6
  9
$SURFTAB2
 70
     6
  9
$SURFTYPE
 70
     6
  9
$SURFU
 70
     6
  9
$SURFV
 70
     6
  9
$UCSBASE
  2

  9
$UCSNAME
  2

  9
$UCSORG
 10
0.0
 20
0.0
 30
0.0
  9
$UCSXDIR
 10
1.0
 20
0.0
 30
0.0
  9
$UCSYDIR
 10
0.0
 20
1.0
 30
0.0
  9
$UCSORTHOREF
  2

  9
$UCSORTHOVIEW
 70
     0
  9
$UCSORGTOP
 10
0.0
 20
0.0
 30
0.0
  9
$UCSORGBOTTOM
 10
0.0
 20
0.0
 30
0.0
  9
$UCSORGLEFT
 10
0.0
 20
0.0
 30
0.0
  9
$UCSORGRIGHT
 10
0.0
 20
0.0
 30
0.0
  9
$UCSORGFRONT
 10
0.0
 20
0.0
 30
0.0
  9
$UCSORGBACK
 10
0.0
 20
0.0
 30
0.0
  9
$PUCSBASE
  2

  9
$PUCSNAME
  2

  9
$PUCSORG
 10
0.0
 20
0.0
 30
0.0
  9
$PUCSXDIR
 10
1.0
 20
0.0
 30
0.0
  9
$PUCSYDIR
 10
0.0
 20
1.0
 30
0.0
  9
$PUCSORTHOREF
  2

  9
$PUCSORTHOVIEW
 70
     0
  9
$PUCSORGTOP
 10
0.0
 20
0.0
 30
0.0
  9
$PUCSORGBOTTOM
 10
0.0
 20
0.0
 30
0.0
  9
$PUCSORGLEFT
 10
0.0
 20
0.0
 30
0.0
  9
$PUCSORGRIGHT
 10
0.0
 20
0.0
 30
0.0
  9
$PUCSORGFRONT
 10
0.0
 20
0.0
 30
0.0
  9
$PUCSORGBACK
 10
0.0
 20
0.0
 30
0.0
  9
$USERI1
 70
     0
  9
$USERI2
 70
     0
  9
$USERI3
 70
     0
  9
$USERI4
 70
     0
  9
$USERI5
 70
     0
  9
$USERR1
 40
0.0
  9
$USERR2
 40
0.0
  9
$USERR3
 40
0.0
  9
$USERR4
 40
0.0
  9
$USERR5
 40
0.0
  9
$WORLDVIEW
 70
     1
  9
$SHADEDGE
 70
     3
  9
$SHADEDIF
 70
    70
  9
$TILEMODE
 70
     1
  9
$MAXACTVP
 70
    64
  9
$PINSBASE
 10
0.0
 20
0.0
 30
0.0
  9
$PLIMCHECK
 70
     0
  9
$PEXTMIN
 10
1.000000000000000E+20
 20
1.000000000000000E+20
 30
1.000000000000000E+20
  9
$PEXTMAX
 10
-1.000000000000000E+20
 20
-1.000000000000000E+20
 30
-1.000000000000000E+20
  9
$PLIMMIN
 10
0.0
 20
0.0
  9
$PLIMMAX
 10
0.0
 20
0.0
  9
$UNITMODE
 70
     0
  9
$VISRETAIN
 70
     1
  9
$PLINEGEN
 70
     0
  9
$PSLTSCALE
 70
     1
  9
$TREEDEPTH
 70
  3020
  9
$CMLSTYLE
  2
Standard
  9
$CMLJUST
 70
     0
  9
$CMLSCALE
 40
20.0
  9
$PROXYGRAPHICS
 70
     1
  9
$MEASUREMENT
 70
     1
  9
$CELWEIGHT
370
    -1
  9
$ENDCAPS
280
     0
  9
$JOINSTYLE
280
     0
  9
$LWDISPLAY
290
     1
  9
$INSUNITS
 70
     4
  9
$HYPERLINKBASE
  1

  9
$STYLESHEET
  1

  9
$XEDIT
290
     1
  9
$CEPSNTYPE
380
     0
  9
$PSTYLEMODE
290
     1
  9
$FINGERPRINTGUID
  2
{5C68D617-FCE9-4D22-898D-A1506F3446AB}
  9
$VERSIONGUID
  2
{FAEB1C32-E019-11D5-929B-00C0DF256EC4}
  9
$EXTNAMES
290
     1
  9
$PSVPSCALE
 40
0.0
  9
$OLESTARTUP
290
     0
  0
ENDSEC
  0
SECTION
  2
CLASSES
  0
CLASS
  1
ACDBDICTIONARYWDFLT
  2
AcDbDictionaryWithDefault
  3
ObjectDBX Classes
 90
        0
280
     0
281
     0
  0
CLASS
  1
VISUALSTYLE
  2
AcDbVisualStyle
  3
ObjectDBX Classes
 90
     4095
280
     0
281
     0
  0
CLASS
  1
MATERIAL
  2
AcDbMaterial
  3
ObjectDBX Classes
 90
     1153
280
     0
281
     0
  0
CLASS
  1
SCALE
  2
AcDbScale
  3
ObjectDBX Classes
 90
     1153
280
     0
281
     0
  0
CLASS
  1
SUN
  2
AcDbSun
  3
SCENEOE
 90
     1153
280
     0
281
     0
  0
CLASS
  1
ACDBPLACEHOLDER
  2
AcDbPlaceHolder
  3
ObjectDBX Classes
 90
        0
280
     0
281
     0
  0
CLASS
  1
LAYOUT
  2
AcDbLayout
  3
ObjectDBX Classes
 90
        0
280
     0
281
     0
  0
CLASS
  1
TABLESTYLE
  2
AcDbTableStyle
  3
ObjectDBX Classes
 90
     4095
280
     0
281
     0
  0
CLASS
  1
MLEADERSTYLE
  2
AcDbMLeaderStyle
  3
ACDB_MLEADERSTYLE_CLASS
 90
     4095
280
     0
281
     0
  0
CLASS
  1
RASTERVARIABLES
  2
AcDbRasterVariables
  3
ISM
 90
        0
280
     0
281
     0
  0
ENDSEC
  0
SECTION
  2
TABLES
  0
TABLE
  2
VPORT
  5
8
330
0
100
AcDbSymbolTable
 70
     1
  0
VPORT
  5
29
330
8
100
AcDbSymbolTableRecord
100
AcDbViewportTableRecord
  2
*Active
 70
     0
 10
0.0
 20
0.0
 11
1.0
 21
1.0
 12
70.71353208238318
 22
-1.644391414548304
 13
0.0
 23
0.0
 14
10.0
 24
10.0
 15
10.0
 25
10.0
 16
0.0
 26
0.0
 36
1.0
 17
0.0
 27
0.0
 37
0.0
 40
160.6864516014261
 41
1.595744680851064
 42
50.0
 43
0.0
 44
0.0
 50
0.0
 51
0.0
 71
    16
 72
  2000
 73
     1
 74
     3
 75
     0
 76
     0
 77
     0
 78
     0
281
     0
 65
     1
110
0.0
120
0.0
130
0.0
111
1.0
121
0.0
131
0.0
112
0.0
122
1.0
132
0.0
 79
     0
146
0.0
  0
ENDTAB
  0
TABLE
  2
LTYPE
  5
5
330
0
100
AcDbSymbolTable
 70
     6
  0
LTYPE
  5
14
330
5
100
AcDbSymbolTableRecord
100
AcDbLinetypeTableRecord
  2
ByBlock
 70
     0
  3

 72
    65
 73
     0
 40
0.0
  0
LTYPE
  5
15
330
5
100
AcDbSymbolTableRecord
100
AcDbLinetypeTableRecord
  2
ByLayer
 70
     0
  3

 72
    65
 73
     0
 40
0.0
  0
LTYPE
  5
16
330
5
100
AcDbSymbolTableRecord
100
AcDbLinetypeTableRecord
  2
Continuous
 70
     0
  3
Solid line
 72
    65
 73
     0
 40
0.0
  0
LTYPE
  5
6A
330
5
100
AcDbSymbolTableRecord
100
AcDbLinetypeTableRecord
  2
HIDDEN
 70
     0
  3
Hidden __ __ __ __ __ __ __ __ __ __ __ __ __ __
 72
    65
 73
     2
 40
1.905
 49
1.27
 74
     0
 49
-0.635
 74
     0
  0
LTYPE
  5
6B
330
5
100
AcDbSymbolTableRecord
100
AcDbLinetypeTableRecord
  2
PHANTOM
 70
     0
  3
Phantom ______  __  __  ______  __  __  ______
 72
    65
 73
     6
 40
12.7
 49
6.35
 74
     0
 49
-1.27
 74
     0
 49
1.27
 74
     0
 49
-1.27
 74
     0
 49
1.27
 74
     0
 49
-1.27
 74
     0
  0
LTYPE
  5
6C
330
5
100
AcDbSymbolTableRecord
100
AcDbLinetypeTableRecord
  2
CENTER
 70
     0
  3
Center ____ _ ____ _ ____ _ ____ _ ____ _ ____
 72
    65
 73
     4
 40
10.16
 49
6.35
 74
     0
 49
-1.27
 74
     0
 49
1.27
 74
     0
 49
-1.27
 74
     0
  0
LTYPE
  5
6D
330
5
100
AcDbSymbolTableRecord
100
AcDbLinetypeTableRecord
  2
CENTERX2
 70
     0
  3
Center (2x) ________  __  ________  __  _____
 72
    65
 73
     4
 40
20.32
 49
12.7
 74
     0
 49
-2.54
 74
     0
 49
2.54
 74
     0
 49
-2.54
 74
     0
  0
LTYPE
  5
6E
330
5
100
AcDbSymbolTableRecord
100
AcDbLinetypeTableRecord
  2
DOT2
 70
     0
  3
Dot (.5x) ........................................
 72
    65
 73
     2
 40
0.635
 49
0.0
 74
     0
 49
-0.635
 74
     0
  0
ENDTAB
  0
TABLE
  2
LAYER
  5
2
330
0
100
AcDbSymbolTable
 70
    18
  0
LAYER
  5
10
330
2
100
AcDbSymbolTableRecord
100
AcDbLayerTableRecord
  2
0
 70
     0
 62
     7
  6
Continuous
370
    -3
390
F
  0
LAYER
  5
6F
330
2
100
AcDbSymbolTableRecord
100
AcDbLayerTableRecord
  2
FORMAT
 70
     0
 62
     2
  6
Continuous
370
    -3
390
F
  0
LAYER
  5
70
330
2
100
AcDbSymbolTableRecord
100
AcDbLayerTableRecord
  2
외형선
 70
     0
 62
     4
  6
Continuous
370
    30
390
F
  0
LAYER
  5
71
330
2
100
AcDbSymbolTableRecord
100
AcDbLayerTableRecord
  2
숨은선
 70
     0
 62
     2
  6
HIDDEN
370
    15
390
F
  0
LAYER
  5
72
330
2
100
AcDbSymbolTableRecord
100
AcDbLayerTableRecord
  2
중심선
 70
     0
 62
     1
  6
CENTERX2
370
    -3
390
F
  0
LAYER
  5
73
330
2
100
AcDbSymbolTableRecord
100
AcDbLayerTableRecord
  2
파단선
 70
     0
 62
     4
  6
Continuous
370
    -3
390
F
  0
LAYER
  5
74
330
2
100
AcDbSymbolTableRecord
100
AcDbLayerTableRecord
  2
해칭선
 70
     0
 62
   100
  6
Continuous
370
    -3
390
F
  0
LAYER
  5
75
330
2
100
AcDbSymbolTableRecord
100
AcDbLayerTableRecord
  2
가는실선
 70
     0
 62
     4
  6
Continuous
370
    -3
390
F
  0
LAYER
  5
76
330
2
100
AcDbSymbolTableRecord
100
AcDbLayerTableRecord
  2
치수_보조선
 70
     0
 62
     4
  6
Continuous
370
    -3
390
F
  0
LAYER
  5
77
330
2
100
AcDbSymbolTableRecord
100
AcDbLayerTableRecord
  2
치수문자_일반주서
 70
     0
 62
     7
  6
Continuous
370
    15
390
F
  0
LAYER
  5
78
330
2
100
AcDbSymbolTableRecord
100
AcDbLayerTableRecord
  2
개별주서
 70
     0
 62
   100
  6
Continuous
370
    30
390
F
  0
LAYER
  5
79
330
2
100
AcDbSymbolTableRecord
100
AcDbLayerTableRecord
  2
중간선
 70
     0
 62
     2
  6
Continuous
370
    15
390
F
  0
LAYER
  5
7A
330
2
100
AcDbSymbolTableRecord
100
AcDbLayerTableRecord
  2
윤곽선
 70
     0
 62
     3
  6
Continuous
370
    40
390
F
  0
LAYER
  5
7B
330
2
100
AcDbSymbolTableRecord
100
AcDbLayerTableRecord
  2
중심마크
 70
     0
 62
   100
  6
Continuous
370
    30
390
F
  0
LAYER
  5
7C
330
2
100
AcDbSymbolTableRecord
100
AcDbLayerTableRecord
  2
가상선
 70
     0
 62
     4
  6
PHANTOM
370
    -3
390
F
  0
LAYER
  5
7D
330
2
100
AcDbSymbolTableRecord
100
AcDbLayerTableRecord
  2
특수지정선
 70
     0
 62
     5
  6
CENTERX2
370
    60
390
F
  0
LAYER
  5
7E
330
2
100
AcDbSymbolTableRecord
100
AcDbLayerTableRecord
  2
참조1
 70
     0
 62
    -4
  6
Continuous
370
    -3
390
F
  0
LAYER
  5
1F6
330
2
100
AcDbSymbolTableRecord
100
AcDbLayerTableRecord
  2
Defpoints
 70
     0
 62
     7
  6
Continuous
290
     0
370
    -3
390
F
  0
ENDTAB
  0
TABLE
  2
STYLE
  5
3
330
0
100
AcDbSymbolTable
 70
     2
  0
STYLE
  5
11
330
3
100
AcDbSymbolTableRecord
100
AcDbTextStyleTableRecord
  2
Standard
 70
     0
 40
0.0
 41
1.0
 50
0.0
 71
     0
 42
3.5
  3
txt
  4

  0
STYLE
  5
94
330
3
100
AcDbSymbolTableRecord
100
AcDbTextStyleTableRecord
  2
SLDTEXTSTYLE0
 70
     0
 40
0.0
 41
0.75
 50
0.0
 71
     0
 42
3.5
  3
TXT
  4

  0
ENDTAB
  0
TABLE
  2
VIEW
  5
6
330
0
100
AcDbSymbolTable
 70
     0
  0
ENDTAB
  0
TABLE
  2
UCS
  5
7
330
0
100
AcDbSymbolTable
 70
     0
  0
ENDTAB
  0
TABLE
  2
APPID
  5
9
330
0
100
AcDbSymbolTable
 70
     1
  0
APPID
  5
12
330
9
100
AcDbSymbolTableRecord
100
AcDbRegAppTableRecord
  2
ACAD
 70
     0
  0
ENDTAB
  0
TABLE
  2
DIMSTYLE
  5
A
330
0
100
AcDbSymbolTable
 70
     4
100
AcDbDimStyleTable
  0
DIMSTYLE
105
27
330
A
100
AcDbSymbolTableRecord
100
AcDbDimStyleTableRecord
  2
ISO-25
 70
     0
 41
2.5
 42
0.625
 43
3.75
 44
1.25
 73
     0
 74
     0
 77
     1
 78
     8
140
2.5
141
2.5
143
0.03937007874016
147
0.625
171
     3
172
     1
178
     0
271
     2
272
     2
274
     3
278
    44
283
     0
284
     8
340
11
  0
DIMSTYLE
105
175
102
{ACAD_REACTORS
330
174
330
19C
102
}
330
A
100
AcDbSymbolTableRecord
100
AcDbDimStyleTableRecord
  2
SLDDIMSTYLE0
 70
     0
 41
3.302
 44
0.0
 45
0.000000001
 73
     0
 74
     0
 77
     1
 78
    12
 79
     3
140
3.5
143
0.0393700787401575
147
0.875
148
0.000000001
170
     1
173
     1
178
     0
271
     2
272
     2
276
     2
284
    12
340
94
  0
DIMSTYLE
105
188
102
{ACAD_REACTORS
330
187
102
}
330
A
100
AcDbSymbolTableRecord
100
AcDbDimStyleTableRecord
  2
SLDDIMSTYLE1
 70
     0
 41
3.302
 44
0.0
 45
0.000000001
 73
     0
 74
     0
 77
     1
 78
    12
 79
     3
140
3.5
143
0.0393700787401575
147
0.875
148
0.000000001
170
     1
172
     1
173
     1
178
     0
271
     2
272
     2
276
     2
284
    12
289
     0
340
94
  0
DIMSTYLE
105
1B1
102
{ACAD_REACTORS
330
1B0
102
}
330
A
100
AcDbSymbolTableRecord
100
AcDbDimStyleTableRecord
  2
SLDDIMSTYLE2
 70
     0
 41
3.302
 44
0.0
 45
0.000000001
 73
     0
 74
     0
 77
     1
 78
     4
 79
     1
140
3.5
143
0.0393700787401575
147
0.875
148
0.000000001
170
     1
173
     1
178
     0
271
     2
272
     2
276
     2
284
    12
340
94
  0
ENDTAB
  0
TABLE
  2
BLOCK_RECORD
  5
1
330
0
100
AcDbSymbolTable
 70
     7
  0
BLOCK_RECORD
  5
1F
330
1
100
AcDbSymbolTableRecord
100
AcDbBlockTableRecord
  2
*Model_Space
340
22
  0
BLOCK_RECORD
  5
1B
330
1
100
AcDbSymbolTableRecord
100
AcDbBlockTableRecord
  2
*Paper_Space
340
1E
  0
BLOCK_RECORD
  5
23
330
1
100
AcDbSymbolTableRecord
100
AcDbBlockTableRecord
  2
*Paper_Space0
340
26
  0
BLOCK_RECORD
  5
7F
330
1
100
AcDbSymbolTableRecord
100
AcDbBlockTableRecord
  2
블럭10
340
0
102
{BLKREFS
331
16C
102
}
  0
BLOCK_RECORD
  5
176
330
1
100
AcDbSymbolTableRecord
100
AcDbBlockTableRecord
  2
_D
340
0
  0
BLOCK_RECORD
  5
189
330
1
100
AcDbSymbolTableRecord
100
AcDbBlockTableRecord
  2
_D_1
340
0
  0
BLOCK_RECORD
  5
19D
330
1
100
AcDbSymbolTableRecord
100
AcDbBlockTableRecord
  2
_D_2
340
0
  0
BLOCK_RECORD
  5
1B2
330
1
100
AcDbSymbolTableRecord
100
AcDbBlockTableRecord
  2
_D_3
340
0
  0
BLOCK_RECORD
  5
1CB
330
1
100
AcDbSymbolTableRecord
100
AcDbBlockTableRecord
  2
SW_DOWELSYMBOL_0
340
0
102
{BLKREFS
331
1D1
102
}
  0
ENDTAB
  0
ENDSEC
  0
SECTION
  2
BLOCKS
  0
BLOCK
  5
20
330
1F
100
AcDbEntity
  8
0
100
AcDbBlockBegin
  2
*Model_Space
 70
     0
 10
0.0
 20
0.0
 30
0.0
  3
*Model_Space
  1
*Model_Space
  0
ENDBLK
  5
21
330
1F
100
AcDbEntity
  8
0
100
AcDbBlockEnd
  0
BLOCK
  5
1C
330
1B
100
AcDbEntity
 67
     1
  8
0
100
AcDbBlockBegin
  2
*Paper_Space
 70
     0
 10
0.0
 20
0.0
 30
0.0
  3
*Paper_Space
  1
*Paper_Space
  0
ENDBLK
  5
1D
330
1B
100
AcDbEntity
 67
     1
  8
0
100
AcDbBlockEnd
  0
BLOCK
  5
24
330
23
100
AcDbEntity
  8
0
100
AcDbBlockBegin
  2
*Paper_Space0
 70
     0
 10
0.0
 20
0.0
 30
0.0
  3
*Paper_Space0
  1
*Paper_Space0
  0
ENDBLK
  5
25
330
23
100
AcDbEntity
  8
0
100
AcDbBlockEnd
  0
BLOCK
  5
80
330
7F
100
AcDbEntity
  8
0
100
AcDbBlockBegin
  2
블럭10
 70
     2
 10
0.0
 20
0.0
 30
0.0
  3
블럭10
  1
블럭10
  0
ELLIPSE
  5
82
330
7F
100
AcDbEntity
  8
중심선
100
AcDbEllipse
 10
20.54032771741204
 20
12.0471743016438
 30
0.0
 11
6.600054785286829
 21
-1.261213355974178E-13
 31
0.0
210
0.0
220
0.0
230
1.0
 40
0.636358354079598
 41
0.9219305317359503
 42
6.513795318482858
  0
ELLIPSE
  5
83
330
7F
100
AcDbEntity
  8
중심선
100
AcDbEllipse
 10
20.54032771746488
 20
12.04717430159265
 30
0.0
 11
3.960054785062283
 21
1.540847449632565E-10
 31
0.0
210
0.0
220
0.0
230
1.0
 40
0.3939339440162632
 41
1.131841032648279
 42
5.62031148352944
  0
LINE
  5
84
330
7F
100
AcDbEntity
  8
중심선
100
AcDbLine
 10
2.268634060543552
 20
16.24717430164393
 30
0.0
 11
5.714909304380834
 21
16.24717430164393
 31
0.0
  0
LINE
  5
85
330
7F
100
AcDbEntity
  8
중심선
100
AcDbLine
 10
5.245725140726316
 20
7.84717430164391
 30
0.0
 11
8.692000384563599
 21
7.84717430164391
 31
0.0
  0
LINE
  5
86
330
7F
100
AcDbEntity
  8
중심선
100
AcDbLine
 10
15.74043728645272
 20
16.24717430164393
 30
0.0
 11
8.692000384563599
 21
7.84717430164391
 31
0.0
  0
LINE
  5
87
330
7F
100
AcDbEntity
  8
중심선
100
AcDbLine
 10
0.1404042013395286
 20
13.71084872107135
 30
0.0
 11
3.58671253028996
 21
13.71088815037384
 31
0.0
  0
LINE
  5
88
330
7F
100
AcDbEntity
  8
중심선
100
AcDbLine
 10
2.750260043222114
 20
10.84717430164391
 30
0.0
 11
6.196535287059397
 21
10.84717430164391
 31
0.0
  0
LINE
  5
89
330
7F
100
AcDbEntity
  8
중심선
100
AcDbLine
 10
12.29416204261559
 20
16.24717430164393
 30
0.0
 11
5.245725140726316
 21
7.84717430164391
 31
0.0
  0
LINE
  5
8A
330
7F
100
AcDbEntity
  8
중심선
100
AcDbLine
 10
10.72767329541681
 20
16.24717430164393
 30
0.0
 11
6.196535287059397
 21
10.84717430164391
 31
0.0
  0
LINE
  5
8B
330
7F
100
AcDbEntity
  8
중심선
100
AcDbLine
 10
7.28139805157953
 20
16.24717430164393
 30
0.0
 11
2.750260043222114
 21
10.84717430164391
 31
0.0
  0
LINE
  5
8C
330
7F
100
AcDbEntity
  8
중심선
100
AcDbLine
 10
5.714909304380834
 20
16.24717430164393
 30
0.0
 11
3.58671253028996
 21
13.71088815037384
 31
0.0
  0
LINE
  5
8D
330
7F
100
AcDbEntity
  8
중심선
100
AcDbLine
 10
2.268634060543552
 20
16.24717430164393
 30
0.0
 11
0.1404042013395286
 21
13.71084872107135
 31
0.0
  0
LINE
  5
8E
330
7F
100
AcDbEntity
  8
중심선
100
AcDbLine
 10
7.28139805157953
 20
16.24717430164393
 30
0.0
 11
10.72767329541681
 21
16.24717430164393
 31
0.0
  0
LINE
  5
8F
330
7F
100
AcDbEntity
  8
중심선
100
AcDbLine
 10
12.29416204261559
 20
16.24717430164393
 30
0.0
 11
15.74043728645272
 21
16.24717430164393
 31
0.0
  0
LINE
  5
90
330
7F
100
AcDbEntity
  8
중심선
100
AcDbLine
 10
19.22036997980202
 20
11.08717430171403
 30
0.0
 11
23.66174974927406
 21
11.08717430171406
 31
0.0
  0
LINE
  5
91
330
7F
100
AcDbEntity
  8
중심선
100
AcDbLine
 10
19.22039502424796
 20
13.00717430171391
 30
0.0
 11
19.22036997980202
 21
11.08717430171403
 31
0.0
  0
LINE
  5
92
330
7F
100
AcDbEntity
  8
중심선
100
AcDbLine
 10
19.22039502424796
 20
13.00717430171391
 30
0.0
 11
26.96566020931264
 21
13.00717430171391
 31
0.0
  0
LINE
  5
93
330
7F
100
AcDbEntity
  8
중심선
100
AcDbLine
 10
22.22332737316547
 20
13.45928029700563
 30
0.0
 11
24.52862924686651
 21
15.39360700705356
 31
0.0
  0
ATTDEF
  5
95
330
7F
100
AcDbEntity
  8
FORMAT
 62
     2
100
AcDbText
 10
-9.522313950597932
 20
2.075366912832191
 30
0.0
 40
4.233333333333333
  1
EH095024 [ 3 FLUTE ]
 41
0.75
  7
SLDTEXTSTYLE0
 11
-9.522313950597932
 21
-0.0412997538344756
 31
0.0
100
AcDbAttributeDefinition
  3

  2
AUTOATTR0
 70
     0
 74
     1
  0
ENDBLK
  5
81
330
7F
100
AcDbEntity
  8
0
100
AcDbBlockEnd
  0
BLOCK
  5
177
330
176
100
AcDbEntity
  8
0
100
AcDbBlockBegin
  2
_D
 70
     0
 10
0.0
 20
0.0
 30
0.0
  3
_D
  1
_D
  0
LINE
  5
179
330
176
100
AcDbEntity
  8
치수문자_일반주서
 62
     0
370
    -2
100
AcDbLine
 10
7.042364584378485
 20
4.762500000000014
 30
0.0
 11
48.5041471544549
 21
4.762500000000166
 31
0.0
  0
LINE
  5
17A
330
176
100
AcDbEntity
  8
치수문자_일반주서
 62
     0
370
    -2
100
AcDbLine
 10
26.2883336584166
 20
-4.762500000000002
 30
0.0
 11
48.50414715445493
 21
-4.762499999999921
 31
0.0
  0
LINE
  5
17B
330
176
100
AcDbEntity
  8
치수문자_일반주서
 62
     0
370
    -2
100
AcDbLine
 10
48.5041471544549
 20
4.762500000000166
 30
0.0
 11
48.50414715445478
 21
34.53325000000016
 31
0.0
  0
LINE
  5
17C
330
176
100
AcDbEntity
  8
치수문자_일반주서
 62
     0
370
    -2
100
AcDbLine
 10
48.50414715445491
 20
1.460500000000167
 30
0.0
 11
48.50414715445492
 21
-1.460499999999922
 31
0.0
  0
SOLID
  5
17D
330
176
100
AcDbEntity
  8
치수문자_일반주서
 62
     0
100
AcDbTrace
 10
49.05448048778825
 20
1.460500000000169
 30
0.0
 11
47.95381382112158
 21
1.460500000000165
 31
0.0
 12
48.5041471544549
 22
4.762500000000166
 32
0.0
 13
48.5041471544549
 23
4.762500000000166
 33
0.0
  0
SOLID
  5
17E
330
176
100
AcDbEntity
  8
치수문자_일반주서
 62
     0
100
AcDbTrace
 10
47.95381382112159
 20
-1.460499999999924
 30
0.0
 11
49.05448048778825
 21
-1.46049999999992
 31
0.0
 12
48.50414715445493
 22
-4.762499999999921
 32
0.0
 13
48.50414715445493
 23
-4.762499999999921
 33
0.0
  0
MTEXT
  5
17F
330
176
100
AcDbEntity
  8
치수문자_일반주서
 62
     0
100
AcDbMText
 10
44.12914715445483
 20
21.40825000000014
 30
0.0
 40
3.5
 41
0.0
 71
     2
 72
     1
  1
\A1;%%c9.53 [3/8]
  7
SLDTEXTSTYLE0
 11
-3.729883127349574E-15
 21
1.0
 31
0.0
 73
     1
 44
1.0
  0
POINT
  5
180
330
176
100
AcDbEntity
  8
Defpoints
 62
     0
100
AcDbPoint
 10
6.979864584378485
 20
4.762500000000014
 30
0.0
  0
POINT
  5
181
330
176
100
AcDbEntity
  8
Defpoints
 62
     0
100
AcDbPoint
 10
26.2258336584166
 20
-4.762500000000002
 30
0.0
  0
POINT
  5
182
330
176
100
AcDbEntity
  8
Defpoints
 62
     0
100
AcDbPoint
 10
48.50414715445493
 20
-4.762499999999918
 30
0.0
  0
ENDBLK
  5
178
330
176
100
AcDbEntity
  8
0
100
AcDbBlockEnd
  0
BLOCK
  5
18A
330
189
100
AcDbEntity
  8
0
100
AcDbBlockBegin
  2
_D_1
 70
     0
 10
0.0
 20
0.0
 30
0.0
  3
_D_1
  1
_D_1
  0
LINE
  5
18C
330
189
100
AcDbEntity
  8
치수문자_일반주서
 62
     0
370
    -2
100
AcDbLine
 10
-30.33750000000001
 20
4.762500000000001
 30
0.0
 11
-41.08500000000006
 21
4.762499999999959
 31
0.0
  0
LINE
  5
18D
330
189
100
AcDbEntity
  8
치수문자_일반주서
 62
     0
370
    -2
100
AcDbLine
 10
-30.33750000000001
 20
-4.762500000000005
 30
0.0
 11
-41.08500000000003
 21
-4.762500000000046
 31
0.0
  0
LINE
  5
18E
330
189
100
AcDbEntity
  8
치수문자_일반주서
 62
     0
370
    -2
100
AcDbLine
 10
-41.08500000000005
 20
1.46049999999996
 30
0.0
 11
-41.08500000000004
 21
-1.460500000000047
 31
0.0
  0
SOLID
  5
18F
330
189
100
AcDbEntity
  8
치수문자_일반주서
 62
     0
100
AcDbTrace
 10
-40.53466666666672
 20
1.460499999999962
 30
0.0
 11
-41.63533333333339
 21
1.460499999999958
 31
0.0
 12
-41.08500000000006
 22
4.762499999999959
 32
0.0
 13
-41.08500000000006
 23
4.762499999999959
 33
0.0
  0
SOLID
  5
190
330
189
100
AcDbEntity
  8
치수문자_일반주서
 62
     0
100
AcDbTrace
 10
-41.63533333333338
 20
-1.460500000000049
 30
0.0
 11
-40.53466666666671
 21
-1.460500000000045
 31
0.0
 12
-41.08500000000003
 22
-4.762500000000046
 32
0.0
 13
-41.08500000000003
 23
-4.762500000000046
 33
0.0
  0
MTEXT
  5
191
330
189
100
AcDbEntity
  8
치수문자_일반주서
 62
     0
100
AcDbMText
 10
-45.46000000000004
 20
-0.7630082607154784
 30
0.0
 40
3.5
 41
0.0
 71
     2
 72
     1
  1
\A1;%%c9.53 [3/8]
  7
SLDTEXTSTYLE0
 11
-3.729883127349606E-15
 21
1.0
 31
0.0
 73
     1
 44
1.0
  0
POINT
  5
192
330
189
100
AcDbEntity
  8
Defpoints
 62
     0
100
AcDbPoint
 10
-30.27500000000001
 20
4.762500000000001
 30
0.0
  0
POINT
  5
193
330
189
100
AcDbEntity
  8
Defpoints
 62
     0
100
AcDbPoint
 10
-30.27500000000001
 20
-4.762500000000005
 30
0.0
  0
POINT
  5
194
330
189
100
AcDbEntity
  8
Defpoints
 62
     0
100
AcDbPoint
 10
-41.08500000000003
 20
-4.762500000000045
 30
0.0
  0
ENDBLK
  5
18B
330
189
100
AcDbEntity
  8
0
100
AcDbBlockEnd
  0
BLOCK
  5
19E
330
19D
100
AcDbEntity
  8
0
100
AcDbBlockBegin
  2
_D_2
 70
     0
 10
0.0
 20
0.0
 30
0.0
  3
_D_2
  1
_D_2
  0
LINE
  5
1A0
330
19D
100
AcDbEntity
  8
치수문자_일반주서
 62
     0
370
    -2
100
AcDbLine
 10
32.22499999999999
 20
3.146237631391741
 30
0.0
 11
32.22499999999999
 21
20.41145279401988
 31
0.0
  0
LINE
  5
1A1
330
19D
100
AcDbEntity
  8
치수문자_일반주서
 62
     0
370
    -2
100
AcDbLine
 10
9.999999999999991
 20
4.154059449950964
 30
0.0
 11
9.999999999999991
 21
20.41145279401988
 31
0.0
  0
LINE
  5
1A2
330
19D
100
AcDbEntity
  8
치수문자_일반주서
 62
     0
370
    -2
100
AcDbLine
 10
28.92299999999999
 20
20.41145279401988
 30
0.0
 11
13.30199999999999
 21
20.41145279401988
 31
0.0
  0
SOLID
  5
1A3
330
19D
100
AcDbEntity
  8
치수문자_일반주서
 62
     0
100
AcDbTrace
 10
28.92299999999999
 20
19.86111946068655
 30
0.0
 11
28.92299999999999
 21
20.96178612735322
 31
0.0
 12
32.22499999999999
 22
20.41145279401988
 32
0.0
 13
32.22499999999999
 23
20.41145279401988
 33
0.0
  0
SOLID
  5
1A4
330
19D
100
AcDbEntity
  8
치수문자_일반주서
 62
     0
100
AcDbTrace
 10
13.30199999999999
 20
20.96178612735322
 30
0.0
 11
13.30199999999999
 21
19.86111946068655
 31
0.0
 12
9.999999999999991
 22
20.41145279401988
 32
0.0
 13
9.999999999999991
 23
20.41145279401988
 33
0.0
  0
MTEXT
  5
1A5
330
19D
100
AcDbEntity
  8
치수문자_일반주서
 62
     0
100
AcDbMText
 10
21.1125
 20
24.78645279401988
 30
0.0
 40
3.5
 41
0.0
 71
     2
 72
     1
  1
\A1;22.23 [7/8]
  7
SLDTEXTSTYLE0
 73
     1
 44
1.0
  0
POINT
  5
1A6
330
19D
100
AcDbEntity
  8
Defpoints
 62
     0
100
AcDbPoint
 10
32.22499999999999
 20
3.083737631391741
 30
0.0
  0
POINT
  5
1A7
330
19D
100
AcDbEntity
  8
Defpoints
 62
     0
100
AcDbPoint
 10
9.999999999999991
 20
4.091559449950964
 30
0.0
  0
POINT
  5
1A8
330
19D
100
AcDbEntity
  8
Defpoints
 62
     0
100
AcDbPoint
 10
9.999999999999991
 20
20.41145279401988
 30
0.0
  0
ENDBLK
  5
19F
330
19D
100
AcDbEntity
  8
0
100
AcDbBlockEnd
  0
BLOCK
  5
1B3
330
1B2
100
AcDbEntity
  8
0
100
AcDbBlockBegin
  2
_D_3
 70
     0
 10
0.0
 20
0.0
 30
0.0
  3
_D_3
  1
_D_3
  0
LINE
  5
1B5
330
1B2
100
AcDbEntity
  8
치수문자_일반주서
 62
     0
370
    -2
100
AcDbLine
 10
32.22499999999999
 20
3.689765076973852
 30
0.0
 11
32.22499999999999
 21
37.62464524059784
 31
0.0
  0
LINE
  5
1B6
330
1B2
100
AcDbEntity
  8
치수문자_일반주서
 62
     0
370
    -2
100
AcDbLine
 10
-31.27500000000001
 20
3.824999999999993
 30
0.0
 11
-31.27500000000001
 21
37.62464524059784
 31
0.0
  0
LINE
  5
1B7
330
1B2
100
AcDbEntity
  8
치수문자_일반주서
 62
     0
370
    -2
100
AcDbLine
 10
28.92299999999999
 20
37.62464524059784
 30
0.0
 11
-27.97300000000001
 21
37.62464524059784
 31
0.0
  0
SOLID
  5
1B8
330
1B2
100
AcDbEntity
  8
치수문자_일반주서
 62
     0
100
AcDbTrace
 10
28.92299999999999
 20
37.0743119072645
 30
0.0
 11
28.92299999999999
 21
38.17497857393117
 31
0.0
 12
32.22499999999999
 22
37.62464524059784
 32
0.0
 13
32.22499999999999
 23
37.62464524059784
 33
0.0
  0
SOLID
  5
1B9
330
1B2
100
AcDbEntity
  8
치수문자_일반주서
 62
     0
100
AcDbTrace
 10
-27.97300000000001
 20
38.17497857393117
 30
0.0
 11
-27.97300000000001
 21
37.0743119072645
 31
0.0
 12
-31.27500000000001
 22
37.62464524059784
 32
0.0
 13
-31.27500000000001
 23
37.62464524059784
 33
0.0
  0
MTEXT
  5
1BA
330
1B2
100
AcDbEntity
  8
치수문자_일반주서
 62
     0
100
AcDbMText
 10
3.251286725697506
 20
41.99964524059784
 30
0.0
 40
3.5
 41
0.0
 71
     2
 72
     1
  1
\A1;63.50 [2 1/2]
  7
SLDTEXTSTYLE0
 73
     1
 44
1.0
  0
POINT
  5
1BB
330
1B2
100
AcDbEntity
  8
Defpoints
 62
     0
100
AcDbPoint
 10
32.22499999999999
 20
3.627265076973852
 30
0.0
  0
POINT
  5
1BC
330
1B2
100
AcDbEntity
  8
Defpoints
 62
     0
100
AcDbPoint
 10
-31.27500000000001
 20
3.762499999999993
 30
0.0
  0
POINT
  5
1BD
330
1B2
100
AcDbEntity
  8
Defpoints
 62
     0
100
AcDbPoint
 10
-31.27500000000001
 20
37.62464524059784
 30
0.0
  0
ENDBLK
  5
1B4
330
1B2
100
AcDbEntity
  8
0
100
AcDbBlockEnd
  0
BLOCK
  5
1CC
330
1CB
100
AcDbEntity
  8
0
100
AcDbBlockBegin
  2
SW_DOWELSYMBOL_0
 70
     0
 10
0.0
 20
0.0
 30
0.0
  3
SW_DOWELSYMBOL_0
  1
SW_DOWELSYMBOL_0
  0
CIRCLE
  5
1CE
330
1CB
100
AcDbEntity
  8
해칭선
 62
     0
100
AcDbCircle
 10
0.0
 20
0.0
 30
0.0
 40
3.000000000000004
  0
HATCH
  5
1CF
330
1CB
100
AcDbEntity
  8
0
  6
Continuous
 62
     0
370
     0
100
AcDbHatch
 10
0.0
 20
0.0
 30
0.0
210
0.0
220
0.0
230
1.0
  2
SOLID
 70
     1
 71
     0
 91
        1
 92
        0
 93
        3
 72
     2
 10
0.0000000000000104
 20
-0.0000000000000035
 40
3.000000000000004
 50
0.0
 51
90.0
 73
     1
 72
     1
 10
0.0000000000000104
 20
3.000000000000001
 11
0.0000000000000104
 21
-0.0000000000000036
 72
     1
 10
0.0000000000000104
 20
-0.0000000000000035
 11
3.000000000000015
 21
-0.0000000000000035
 97
        0
 75
     0
 76
     1
 98
        1
 10
0.0
 20
0.0
  0
HATCH
  5
1D0
330
1CB
100
AcDbEntity
  8
0
  6
Continuous
 62
     0
370
     0
100
AcDbHatch
 10
0.0
 20
0.0
 30
0.0
210
0.0
220
0.0
230
1.0
  2
SOLID
 70
     1
 71
     0
 91
        1
 92
        0
 93
        3
 72
     2
 10
0.0000000000000104
 20
-0.0000000000000035
 40
3.000000000000004
 50
180.0
 51
270.0000000000008
 73
     1
 72
     1
 10
0.0000000000000104
 20
-3.000000000000008
 11
0.0000000000000104
 21
-0.0000000000000036
 72
     1
 10
0.0000000000000104
 20
-0.0000000000000035
 11
-2.999999999999994
 21
-0.0000000000000035
 97
        0
 75
     0
 76
     1
 98
        1
 10
0.0
 20
0.0
  0
ENDBLK
  5
1CD
330
1CB
100
AcDbEntity
  8
0
100
AcDbBlockEnd
  0
ENDSEC
  0
SECTION
  2
ENTITIES
  0
LINE
  5
96
330
1F
100
AcDbEntity
  8
외형선
  6
Continuous
370
    15
100
AcDbLine
 10
6.979864584378478
 20
4.762499999999998
 30
0.0
 11
-30.275
 21
4.762499999999993
 31
0.0
  0
LINE
  5
97
330
1F
100
AcDbEntity
  8
외형선
  6
Continuous
370
    15
100
AcDbLine
 10
-30.275
 20
-4.762500000000007
 30
0.0
 11
9.999999999999991
 21
-4.762500000000002
 31
0.0
  0
LINE
  5
98
330
1F
100
AcDbEntity
  8
외형선
  6
Continuous
370
    15
100
AcDbLine
 10
-30.275
 20
4.762499999999991
 30
0.0
 11
-31.27500000000001
 21
3.762499999999993
 31
0.0
  0
LINE
  5
99
330
1F
100
AcDbEntity
  8
외형선
  6
Continuous
370
    15
100
AcDbLine
 10
-31.27500000000001
 20
-3.762500000000007
 30
0.0
 11
-30.275
 21
-4.762500000000007
 31
0.0
  0
LINE
  5
9A
330
1F
100
AcDbEntity
  8
외형선
  6
Continuous
 62
     1
370
    15
100
AcDbLine
 10
23.06956582010541
 20
-4.762500000000002
 30
0.0
 11
24.26235376532314
 21
-4.762500000000002
 31
0.0
  0
SPLINE
  5
9B
330
1F
100
AcDbEntity
  8
외형선
  6
Continuous
 62
     1
370
    15
100
AcDbSpline
210
0.0
220
0.0
230
1.0
 70
     8
 71
     3
 72
     9
 73
     5
 74
     0
 42
0.000000001
 43
0.00000001
 40
0.0
 40
0.0
 40
0.0
 40
0.0
 40
0.3657976737887576
 40
1.0
 40
1.0
 40
1.0
 40
1.0
 10
20.13221962414151
 20
4.614729802121492
 30
0.0
 10
20.11061061789989
 20
4.618636240733233
 30
0.0
 10
20.05153696109448
 20
4.629315473794719
 30
0.0
 10
20.00916072688878
 20
4.651118422101741
 30
0.0
 10
19.98228562057944
 20
4.664945902636317
 30
0.0
  0
SPLINE
  5
9C
330
1F
100
AcDbEntity
  8
외형선
  6
Continuous
 62
     1
370
    15
100
AcDbSpline
210
0.0
220
0.0
230
1.0
 70
     8
 71
     3
 72
     9
 73
     5
 74
     0
 42
0.000000001
 43
0.00000001
 40
0.0
 40
0.0
 40
0.0
 40
0.0
 40
0.4977347529258042
 40
1.0
 40
1.0
 40
1.0
 40
1.0
 10
19.95549821231063
 20
4.694025793865904
 30
0.0
 10
19.92883513734597
 20
4.711684942788657
 30
0.0
 10
19.87526629408572
 20
4.747163978196468
 30
0.0
 10
19.81347065839344
 20
4.754727097192859
 30
0.0
 10
19.78243285816435
 20
4.758525789024233
 30
0.0
  0
LINE
  5
9D
330
1F
100
AcDbEntity
  8
외형선
  6
Continuous
 62
     1
370
    15
100
AcDbLine
 10
19.75953418615141
 20
4.762499999999998
 30
0.0
 11
17.68852503614284
 21
4.762499999999998
 31
0.0
  0
SPLINE
  5
9E
330
1F
100
AcDbEntity
  8
외형선
  6
Continuous
 62
     1
370
    15
100
AcDbSpline
210
0.0
220
0.0
230
1.0
 70
     8
 71
     3
 72
     9
 73
     5
 74
     0
 42
0.000000001
 43
0.00000001
 40
0.0
 40
0.0
 40
0.0
 40
0.0
 40
0.5028599567068203
 40
1.0
 40
1.0
 40
1.0
 40
1.0
 10
24.26285590575639
 20
-4.762499999999992
 30
0.0
 10
24.29731575714531
 20
-4.759470790562183
 30
0.0
 10
24.36584348724056
 20
-4.753446828229518
 30
0.0
 10
24.42630347636392
 20
-4.713293061316963
 30
0.0
 10
24.4563605579742
 20
-4.69333101589567
 30
0.0
  0
SPLINE
  5
9F
330
1F
100
AcDbEntity
  8
외형선
  6
Continuous
 62
     1
370
    15
100
AcDbSpline
210
0.0
220
0.0
230
1.0
 70
     8
 71
     3
 72
    11
 73
     7
 74
     0
 42
0.000000001
 43
0.00000001
 40
0.0
 40
0.0
 40
0.0
 40
0.0
 40
0.2712560198716472
 40
0.5303123910207417
 40
0.77302544566836
 40
1.0
 40
1.0
 40
1.0
 40
1.0
 10
24.45263637158187
 20
-4.696218171879325
 30
0.0
 10
24.50128463953915
 20
-4.666164685870838
 30
0.0
 10
24.59639323588164
 20
-4.607409359330212
 30
0.0
 10
24.765236316666
 20
-4.595669457761022
 30
0.0
 10
24.9048906189754
 20
-4.632544148551766
 30
0.0
 10
24.96375777581117
 20
-4.671994445996219
 30
0.0
 10
24.99220508085422
 20
-4.691058635703428
 30
0.0
  0
SPLINE
  5
A0
330
1F
100
AcDbEntity
  8
외형선
  6
Continuous
 62
     1
370
    15
100
AcDbSpline
210
0.0
220
0.0
230
1.0
 70
     8
 71
     3
 72
     9
 73
     5
 74
     0
 42
0.000000001
 43
0.00000001
 40
0.0
 40
0.0
 40
0.0
 40
0.0
 40
0.4984202449305597
 40
1.0
 40
1.0
 40
1.0
 40
1.0
 10
24.99566823707602
 20
-4.693886922342759
 30
0.0
 10
25.02572265217298
 20
-4.713698219623074
 30
0.0
 10
25.08602199876383
 20
-4.753446398959325
 30
0.0
 10
25.15454856007967
 20
-4.759475782966092
 30
0.0
 10
25.18892009592021
 20
-4.762499999919426
 30
0.0
  0
LINE
  5
A1
330
1F
100
AcDbEntity
  8
외형선
  6
Continuous
 62
     1
370
    15
100
AcDbLine
 10
25.18884674227058
 20
-4.762500000000002
 30
0.0
 11
27.26282057456262
 21
-4.762500000000002
 31
0.0
  0
SPLINE
  5
A2
330
1F
100
AcDbEntity
  8
외형선
  6
Continuous
 62
     1
370
    15
100
AcDbSpline
210
0.0
220
0.0
230
1.0
 70
     8
 71
     3
 72
     9
 73
     5
 74
     0
 42
0.000000001
 43
0.00000001
 40
0.0
 40
0.0
 40
0.0
 40
0.0
 40
0.5015798423785639
 40
1.0
 40
1.0
 40
1.0
 40
1.0
 10
17.68894127868305
 20
4.762499996515914
 30
0.0
 10
17.65457300074708
 20
4.759479234242754
 30
0.0
 10
17.58605294664565
 20
4.75345673888322
 30
0.0
 10
17.52576017706358
 20
4.713722949374526
 30
0.0
 10
17.49570904534506
 20
4.693918827744707
 30
0.0
  0
SPLINE
  5
A3
330
1F
100
AcDbEntity
  8
외형선
  6
Continuous
 62
     1
370
    15
100
AcDbSpline
210
0.0
220
0.0
230
1.0
 70
     8
 71
     3
 72
    11
 73
     7
 74
     0
 42
0.000000001
 43
0.00000001
 40
0.0
 40
0.0
 40
0.0
 40
0.0
 40
0.2487633767465057
 40
0.500587820548188
 40
0.7521407062429882
 40
1.0
 40
1.0
 40
1.0
 40
1.0
 10
17.49619370035252
 20
4.694295215274842
 30
0.0
 10
17.45743525812375
 20
4.669248606598845
 30
0.0
 10
17.3794414457833
 20
4.618847187333594
 30
0.0
 10
17.22433636156131
 20
4.59395262155917
 30
0.0
 10
17.06913546228432
 20
4.619947881294966
 30
0.0
 10
16.99065518056977
 20
4.671372064315046
 30
0.0
 10
16.95170525503737
 20
4.696893992313235
 30
0.0
  0
SPLINE
  5
A4
330
1F
100
AcDbEntity
  8
외형선
  6
Continuous
 62
     1
370
    15
100
AcDbSpline
210
0.0
220
0.0
230
1.0
 70
     8
 71
     3
 72
     9
 73
     5
 74
     0
 42
0.000000001
 43
0.00000001
 40
0.0
 40
0.0
 40
0.0
 40
0.0
 40
0.4971802109527635
 40
0.9999999999999999
 40
0.9999999999999999
 40
0.9999999999999999
 40
0.9999999999999999
 10
16.95484893756157
 20
4.694538454257894
 30
0.0
 10
16.92504543626175
 20
4.71414815752046
 30
0.0
 10
16.86510036877262
 20
4.753589999393022
 30
0.0
 10
16.7970820990625
 20
4.759518850019773
 30
0.0
 10
16.7628811670355
 20
4.762499993441208
 30
0.0
  0
LINE
  5
A5
330
1F
100
AcDbEntity
  8
외형선
  6
Continuous
 62
     1
370
    15
100
AcDbLine
 10
16.76274286480637
 20
4.762499999999998
 30
0.0
 11
14.68882791792753
 21
4.762499999999998
 31
0.0
  0
SPLINE
  5
A6
330
1F
100
AcDbEntity
  8
외형선
  6
Continuous
 62
     1
370
    15
100
AcDbSpline
210
0.0
220
0.0
230
1.0
 70
     8
 71
     3
 72
     9
 73
     5
 74
     0
 42
0.000000001
 43
0.00000001
 40
0.0
 40
0.0
 40
0.0
 40
0.0
 40
0.5028193248694652
 40
1.0
 40
1.0
 40
1.0
 40
1.0
 10
27.26285998178502
 20
-4.762499999831636
 30
0.0
 10
27.29705919792851
 20
-4.759521955422221
 30
0.0
 10
27.36507411790473
 20
-4.753599262593758
 30
0.0
 10
27.4250157733587
 20
-4.714167618037396
 30
0.0
 10
27.45481760608575
 20
-4.69456296637536
 30
0.0
  0
SPLINE
  5
A7
330
1F
100
AcDbEntity
  8
외형선
  6
Continuous
 62
     1
370
    15
100
AcDbSpline
210
0.0
220
0.0
230
1.0
 70
     8
 71
     3
 72
     9
 73
     5
 74
     0
 42
0.000000001
 43
0.00000001
 40
0.0
 40
0.0
 40
0.0
 40
0.0
 40
0.4983433021967025
 40
1.0
 40
1.0
 40
1.0
 40
1.0
 10
10.00081414843832
 20
-4.697648681989567
 30
0.0
 10
10.03000908918639
 20
-4.716367449519494
 30
0.0
 10
10.08859308262901
 20
-4.753929442321276
 30
0.0
 10
10.15541559197396
 20
-4.759636842339262
 30
0.0
 10
10.18893755135087
 20
-4.762499997785327
 30
0.0
  0
LINE
  5
A8
330
1F
100
AcDbEntity
  8
외형선
  6
Continuous
 62
     1
370
    15
100
AcDbLine
 10
10.18885051262
 20
-4.762500000000002
 30
0.0
 11
11.14656876263961
 21
-4.762500000000002
 31
0.0
  0
SPLINE
  5
A9
330
1F
100
AcDbEntity
  8
외형선
  6
Continuous
 62
     1
370
    15
100
AcDbSpline
210
0.0
220
0.0
230
1.0
 70
     8
 71
     3
 72
    11
 73
     7
 74
     0
 42
0.000000001
 43
0.00000001
 40
0.0
 40
0.0
 40
0.0
 40
0.0
 40
0.2457331235047843
 40
0.4998353072463358
 40
0.7540070196458815
 40
1.0
 40
1.0
 40
1.0
 40
1.0
 10
27.45226298109989
 20
-4.696491392037094
 30
0.0
 10
27.4940027610854
 20
-4.669613393742242
 30
0.0
 10
27.57890387435776
 20
-4.614941999246208
 30
0.0
 10
27.74012999878241
 20
-4.591635521543272
 30
0.0
 10
27.90133113616059
 20
-4.620819422225981
 30
0.0
 10
27.98604219380049
 20
-4.679718308308668
 30
0.0
 10
28.02770512171141
 20
-4.708686191761718
 30
0.0
  0
LINE
  5
AA
330
1F
100
AcDbEntity
  8
외형선
  6
Continuous
 62
     1
370
    15
100
AcDbLine
 10
32.22499999999999
 20
3.662499999999997
 30
0.0
 11
31.56525019829411
 21
4.322249801705882
 31
0.0
  0
LINE
  5
AB
330
1F
100
AcDbEntity
  8
외형선
  6
Continuous
 62
     1
370
    15
100
AcDbLine
 10
28.17495186359326
 20
-4.760205645987281
 30
0.0
 11
28.19581519334005
 21
-4.762009419060892
 31
0.0
  0
LINE
  5
AC
330
1F
100
AcDbEntity
  8
외형선
  6
Continuous
 62
     1
370
    15
100
AcDbLine
 10
28.18883751431955
 20
-4.762500000000002
 30
0.0
 11
28.42309789797013
 21
-4.762500000000002
 31
0.0
  0
SPLINE
  5
AD
330
1F
100
AcDbEntity
  8
외형선
  6
Continuous
 62
     1
370
    15
100
AcDbSpline
210
0.0
220
0.0
230
1.0
 70
     8
 71
     3
 72
     9
 73
     5
 74
     0
 42
0.000000001
 43
0.00000001
 40
0.0
 40
0.0
 40
0.0
 40
0.0
 40
0.5018272713142384
 40
1.0
 40
1.0
 40
1.0
 40
1.0
 10
14.6774879951491
 20
4.761156739449898
 30
0.0
 10
14.64545696984202
 20
4.757555242296579
 30
0.0
 10
14.58162818424573
 20
4.750378475789079
 30
0.0
 10
14.52605668702029
 20
4.714034903603446
 30
0.0
 10
14.49837248261034
 20
4.695929527077544
 30
0.0
  0
LINE
  5
AE
330
1F
100
AcDbEntity
  8
외형선
  6
Continuous
 62
     1
370
    15
100
AcDbLine
 10
14.26304555915287
 20
4.611396544720892
 30
0.0
 11
14.23793664101881
 21
4.611331113274137
 31
0.0
  0
SPLINE
  5
AF
330
1F
100
AcDbEntity
  8
외형선
  6
Continuous
370
    15
100
AcDbSpline
210
0.0
220
0.0
230
1.0
 70
     8
 71
     3
 72
     9
 73
     5
 74
     0
 42
0.000000001
 43
0.00000001
 40
0.0
 40
0.0
 40
0.0
 40
0.0
 40
0.1309483198632947
 40
1.0
 40
1.0
 40
1.0
 40
1.0
 10
8.470177516108825
 20
3.568782879940158
 30
0.0
 10
8.536908107064486
 20
3.595326868932857
 30
0.0
 10
9.046502968803264
 20
3.79803270754469
 30
0.0
 10
9.556653138180593
 20
3.955078521486441
 30
0.0
 10
9.999999999999984
 20
4.091559449950958
 30
0.0
  0
LINE
  5
B0
330
1F
100
AcDbEntity
  8
외형선
  6
Continuous
370
    15
100
AcDbLine
 10
6.979864584378478
 20
4.762499999999998
 30
0.0
 11
6.979864584378478
 21
4.079515878106366
 31
0.0
  0
SPLINE
  5
B1
330
1F
100
AcDbEntity
  8
외형선
  6
Continuous
370
    15
100
AcDbSpline
210
0.0
220
0.0
230
1.0
 70
     8
 71
     3
 72
    12
 73
     8
 74
     0
 42
0.000000001
 43
0.00000001
 40
0.0
 40
0.0
 40
0.0
 40
0.0
 40
0.5000000000000001
 40
0.5000000000000001
 40
0.7500000000000002
 40
0.7500000000000002
 40
1.0
 40
1.0
 40
1.0
 40
1.0
 10
9.999999999999988
 20
2.929652214037423
 30
0.0
 10
9.499818069493928
 20
3.158250900835636
 30
0.0
 10
8.991992885238071
 20
3.371577969108301
 30
0.0
 10
8.237754496949442
 20
3.660549540908106
 30
0.0
 10
7.988260735213752
 20
3.751671813134855
 30
0.0
 10
7.484843993793761
 20
3.923738075088289
 30
0.0
 10
7.232086095800897
 20
4.004522070115796
 30
0.0
 10
6.979864584378478
 20
4.07953869833566
 30
0.0
  0
LINE
  5
B2
330
1F
100
AcDbEntity
  8
외형선
  6
Continuous
370
    15
100
AcDbLine
 10
9.999999999999988
 20
2.929652214037427
 30
0.0
 11
9.999999999999988
 21
0.0650046406425833
 31
0.0
  0
SPLINE
  5
B3
330
1F
100
AcDbEntity
  8
외형선
  6
Continuous
370
    15
100
AcDbSpline
210
0.0
220
0.0
230
1.0
 70
     8
 71
     3
 72
    12
 73
     8
 74
     0
 42
0.000000001
 43
0.00000001
 40
0.0
 40
0.0
 40
0.0
 40
0.0
 40
0.5
 40
0.5
 40
0.75
 40
0.75
 40
1.0
 40
1.0
 40
1.0
 40
1.0
 10
9.999999999999984
 20
0.0650046406425845
 30
0.0
 10
9.499818069493925
 20
0.354926610409529
 30
0.0
 10
8.991992885238071
 20
0.6459471262954037
 30
0.0
 10
8.237754496949442
 20
1.073232060897062
 30
0.0
 10
7.988260735213752
 20
1.214004058685152
 30
0.0
 10
7.484843993793761
 20
1.492597844095072
 30
0.0
 10
7.232086095800897
 20
1.630194848677158
 30
0.0
 10
6.979864584378478
 20
1.765224002486708
 30
0.0
  0
SPLINE
  5
B4
330
1F
100
AcDbEntity
  8
외형선
  6
Continuous
370
    15
100
AcDbSpline
210
0.0
220
0.0
230
1.0
 70
     8
 71
     3
 72
    12
 73
     8
 74
     0
 42
0.000000001
 43
0.00000001
 40
0.0
 40
0.0
 40
0.0
 40
0.0
 40
0.5000000000000002
 40
0.5000000000000002
 40
0.7500000000000001
 40
0.7500000000000001
 40
1.0
 40
1.0
 40
1.0
 40
1.0
 10
9.999999999999991
 20
-4.71658072815623
 30
0.0
 10
9.499818069493928
 20
-4.676413930902139
 30
0.0
 10
8.991992885238071
 20
-4.609600819681985
 30
0.0
 10
8.237754496949442
 20
-4.471705461705406
 30
0.0
 10
7.988260735213755
 20
-4.419574227261638
 30
0.0
 10
7.484843993793761
 20
-4.302829380618751
 30
0.0
 10
7.232086095800897
 20
-4.238275219235262
 30
0.0
 10
6.979864584378478
 20
-4.167932334957773
 30
0.0
  0
LINE
  5
B5
330
1F
100
AcDbEntity
  8
외형선
  6
Continuous
370
    15
100
AcDbLine
 10
-30.275
 20
4.762499999999992
 30
0.0
 11
-30.275
 21
-4.762499999999999
 31
0.0
  0
LINE
  5
B6
330
1F
100
AcDbEntity
  8
외형선
  6
Continuous
370
    15
100
AcDbLine
 10
6.979864584378478
 20
1.765230882433105
 30
0.0
 11
6.979864584378482
 21
-4.167953733078862
 31
0.0
  0
SPLINE
  5
B7
330
1F
100
AcDbEntity
  8
외형선
  6
Continuous
370
    15
100
AcDbSpline
210
0.0
220
0.0
230
1.0
 70
    24
 71
     3
 72
    18
 73
    14
 74
     0
 42
0.000000001
 43
0.00000001
 40
0.0
 40
0.0
 40
0.0
 40
0.0
 40
0.25
 40
0.25
 40
0.5
 40
0.5
 40
0.625
 40
0.625
 40
0.75
 40
0.75
 40
0.875
 40
0.875
 40
1.0
 40
1.0
 40
1.0
 40
1.0
 10
9.999999999999991
 20
0.0650046406425819
 30
0.0
 10
9.999999999999991
 20
0.0119643149342767
 30
0.0
 10
9.999999999999991
 20
-0.0922075097406084
 30
0.0
 10
9.999999999999991
 20
-0.4727444731558996
 30
0.0
 10
9.999999999999991
 20
-0.7510919155997052
 30
0.0
 10
9.999999999999991
 20
-1.343288913007646
 30
0.0
 10
9.999999999999991
 20
-1.569512978396871
 30
0.0
 10
9.999999999999991
 20
-2.078986018337982
 30
0.0
 10
9.999999999999991
 20
-2.36230772870364
 30
0.0
 10
9.999999999999991
 20
-2.976570171183349
 30
0.0
 10
9.999999999999991
 20
-3.307483618810385
 30
0.0
 10
9.999999999999991
 20
-3.997603337373192
 30
0.0
 10
9.999999999999991
 20
-4.356653654226291
 30
0.0
 10
9.999999999999991
 20
-4.716580728156231
 30
0.0
  0
LINE
  5
B8
330
1F
100
AcDbEntity
  8
외형선
  6
Continuous
370
    15
100
AcDbLine
 10
-31.27500000000001
 20
3.762499999999993
 30
0.0
 11
-31.27500000000001
 21
-3.762500000000007
 31
0.0
  0
SPLINE
  5
B9
330
1F
100
AcDbEntity
  8
외형선
  6
Continuous
370
    15
100
AcDbSpline
210
0.0
220
0.0
230
1.0
 70
    24
 71
     3
 72
    11
 73
     7
 74
     0
 42
0.000000001
 43
0.00000001
 40
0.0
 40
0.0
 40
0.0
 40
0.0
 40
0.1761874748516195
 40
0.3530818691817685
 40
0.8166436272046935
 40
0.9999999999999999
 40
0.9999999999999999
 40
0.9999999999999999
 40
0.9999999999999999
 10
9.999999999999988
 20
4.09155944995096
 30
0.0
 10
9.999999999999988
 20
4.013589896810933
 30
0.0
 10
9.999999999999984
 20
3.85733795219834
 30
0.0
 10
9.999999999999998
 20
3.522465250476413
 30
0.0
 10
9.999999999999984
 20
3.204544425672167
 30
0.0
 10
9.999999999999988
 20
3.025226091998361
 30
0.0
 10
9.999999999999988
 20
2.974401794963214
 30
0.0
  0
SPLINE
  5
BA
330
1F
100
AcDbEntity
  8
외형선
  6
Continuous
 62
     1
370
    15
100
AcDbSpline
210
0.0
220
0.0
230
1.0
 70
     8
 71
     3
 72
    14
 73
    10
 74
     0
 42
0.000000001
 43
0.00000001
 40
0.0
 40
0.0
 40
0.0
 40
0.0
 40
0.0000586126099046
 40
0.0000586126099046
 40
0.0000586126099046
 40
0.0001171912303297
 40
0.0001171912303297
 40
0.0001171912303297
 40
0.0002029549218776
 40
0.0002029549218776
 40
0.0002029549218776
 40
0.0002029549218776
 10
14.94584864012942
 20
-2.609644033075068
 30
0.0
 10
14.93198736538192
 20
-2.607513381576945
 30
0.0
 10
14.91722886759447
 20
-2.604319425990577
 30
0.0
 10
14.9019328646287
 20
-2.600184247353273
 30
0.0
 10
14.88664241759512
 20
-2.596050570727453
 30
0.0
 10
14.87071102536256
 20
-2.590949240549383
 30
0.0
 10
14.85445782856122
 20
-2.585010160058889
 30
0.0
 10
14.83074478937755
 20
-2.576345178633543
 30
0.0
 10
14.80607211358697
 20
-2.565789785677754
 30
0.0
 10
14.78138315329592
 20
-2.553781681234532
 30
0.0
  0
SPLINE
  5
BB
330
1F
100
AcDbEntity
  8
외형선
  6
Continuous
 62
     1
370
    15
100
AcDbSpline
210
0.0
220
0.0
230
1.0
 70
     8
 71
     3
 72
    12
 73
     8
 74
     0
 42
0.000000001
 43
0.00000001
 40
0.0
 40
0.0
 40
0.0
 40
0.0
 40
0.2499999999999999
 40
0.2499999999999999
 40
0.5000000000000001
 40
0.5000000000000001
 40
1.0
 40
1.0
 40
1.0
 40
1.0
 10
14.78138314452868
 20
-2.553781606549024
 30
0.0
 10
14.75443837819959
 20
-2.324229657384656
 30
0.0
 10
14.72874866400635
 20
-2.085953903347026
 30
0.0
 10
14.67455881954941
 20
-1.583089550168611
 30
0.0
 10
14.64667718662894
 20
-1.320164986988828
 30
0.0
 10
14.56248929392835
 20
-0.5136184814056299
 30
0.0
 10
14.50572536582162
 20
0.047311654349335
 30
0.0
 10
14.45314583539278
 20
0.582782122986499
 30
0.0
  0
SPLINE
  5
BC
330
1F
100
AcDbEntity
  8
외형선
  6
Continuous
 62
     1
370
    15
100
AcDbSpline
210
0.0
220
0.0
230
1.0
 70
     8
 71
     3
 72
     8
 73
     4
 74
     0
 42
0.000000001
 43
0.00000001
 40
0.0
 40
0.0
 40
0.0
 40
0.0
 40
1.0
 40
1.0
 40
1.0
 40
1.0
 10
14.45314568459822
 20
0.582783658679869
 30
0.0
 10
14.50960233238353
 20
0.5504929399323848
 30
0.0
 10
14.5670098364236
 20
0.5175645227801138
 30
0.0
 10
14.61596351944798
 20
0.4910727726982415
 30
0.0
  0
SPLINE
  5
BD
330
1F
100
AcDbEntity
  8
외형선
  6
Continuous
 62
     1
370
    15
100
AcDbSpline
210
0.0
220
0.0
230
1.0
 70
     8
 71
     3
 72
    12
 73
     8
 74
     0
 42
0.000000001
 43
0.00000001
 40
0.0
 40
0.0
 40
0.0
 40
0.0
 40
0.2499999999999998
 40
0.2499999999999998
 40
0.4999999999999999
 40
0.4999999999999999
 40
1.0
 40
1.0
 40
1.0
 40
1.0
 10
14.94584864465169
 20
-2.609644070459394
 30
0.0
 10
14.91858461745686
 20
-2.384259921528629
 30
0.0
 10
14.89276082066431
 20
-2.150133409079938
 30
0.0
 10
14.83872384994715
 20
-1.656284536878431
 30
0.0
 10
14.81084347224742
 20
-1.397300915552244
 30
0.0
 10
14.72643047343799
 20
-0.6005240136080305
 30
0.0
 10
14.66920251631858
 20
-0.0432657295224126
 30
0.0
 10
14.61596365788191
 20
0.4910713832962126
 30
0.0
  0
SPLINE
  5
BE
330
1F
100
AcDbEntity
  8
외형선
  6
Continuous
 62
     1
370
    15
100
AcDbSpline
210
0.0
220
0.0
230
1.0
 70
     8
 71
     3
 72
     8
 73
     4
 74
     0
 42
0.000000001
 43
0.00000001
 40
0.0
 40
0.0
 40
0.0
 40
0.0
 40
1.0
 40
1.0
 40
1.0
 40
1.0
 10
30.62635445266555
 20
-1.821839921801515
 30
0.0
 10
30.56982276072905
 20
-1.7916468018532
 30
0.0
 10
30.51234953745458
 20
-1.756247382129129
 30
0.0
 10
30.46331310645346
 20
-1.721452814785836
 30
0.0
  0
SPLINE
  5
BF
330
1F
100
AcDbEntity
  8
외형선
  6
Continuous
 62
     1
370
    15
100
AcDbSpline
210
0.0
220
0.0
230
1.0
 70
     8
 71
     3
 72
    12
 73
     8
 74
     0
 42
0.000000001
 43
0.00000001
 40
0.0
 40
0.0
 40
0.0
 40
0.0
 40
0.5
 40
0.5
 40
0.75
 40
0.75
 40
1.0
 40
1.0
 40
1.0
 40
1.0
 10
30.46331288005088
 20
-1.721450728919864
 30
0.0
 10
30.40853369126526
 20
-1.216764678691345
 30
0.0
 10
30.35084746395737
 20
-0.6682018976323963
 30
0.0
 10
30.26755892290585
 20
0.1484931812616537
 30
0.0
 10
30.24048854928144
 20
0.4190506362396273
 30
0.0
 10
30.18796275855772
 20
0.9481451946412887
 30
0.0
 10
30.16063052819009
 20
1.212910734059209
 30
0.0
 10
30.13279435757659
 20
1.471820614374731
 30
0.0
  0
SPLINE
  5
C0
330
1F
100
AcDbEntity
  8
외형선
  6
Continuous
 62
     1
370
    15
100
AcDbSpline
210
0.0
220
0.0
230
1.0
 70
     8
 71
     3
 72
    14
 73
    10
 74
     0
 42
0.000000001
 43
0.00000001
 40
0.0
 40
0.0
 40
0.0
 40
0.0
 40
0.0000587615093834
 40
0.0000587615093834
 40
0.0000587615093834
 40
0.0001174882549143
 40
0.0001174882549143
 40
0.0001174882549143
 40
0.0002033640277833
 40
0.0002033640277833
 40
0.0002033640277833
 40
0.0002033640277833
 10
30.13279433689529
 20
1.471820806739746
 30
0.0
 10
30.14668845894566
 20
1.466109058096802
 30
0.0
 10
30.16148002581483
 20
1.459630427376747
 30
0.0
 10
30.17680738931858
 20
1.452556046944004
 30
0.0
 10
30.19212907623355
 20
1.445484286554071
 30
0.0
 10
30.20809013613158
 20
1.43776974176258
 30
0.0
 10
30.22437073105075
 20
1.42958157336111
 30
0.0
 10
30.24809559298575
 20
1.417649382566502
 30
0.0
 10
30.27277222845615
 20
1.404569818079164
 30
0.0
 10
30.29746251811657
 20
1.390892600022323
 30
0.0
  0
SPLINE
  5
C1
330
1F
100
AcDbEntity
  8
외형선
  6
Continuous
 62
     1
370
    15
100
AcDbSpline
210
0.0
220
0.0
230
1.0
 70
     8
 71
     3
 72
    12
 73
     8
 74
     0
 42
0.000000001
 43
0.00000001
 40
0.0
 40
0.0
 40
0.0
 40
0.0
 40
0.5000000000000002
 40
0.5000000000000002
 40
0.7500000000000001
 40
0.7500000000000001
 40
1.0
 40
1.0
 40
1.0
 40
1.0
 10
30.62635451399301
 20
-1.821840491216984
 30
0.0
 10
30.57213408157917
 20
-1.318412677292081
 30
0.0
 10
30.51477696468132
 20
-0.768729042103005
 30
0.0
 10
30.43151250108996
 20
0.0540890047020458
 30
0.0
 10
30.40422984874806
 20
0.3278813483925972
 30
0.0
 10
30.35173498200878
 20
0.8627492267640138
 30
0.0
 10
30.32504355586477
 20
1.128844184597669
 30
0.0
 10
30.29746248608189
 20
1.390892904384503
 30
0.0
  0
SPLINE
  5
C2
330
1F
100
AcDbEntity
  8
외형선
  6
Continuous
 62
     1
370
    15
100
AcDbSpline
210
0.0
220
0.0
230
1.0
 70
     8
 71
     3
 72
     8
 73
     4
 74
     0
 42
0.000000001
 43
0.00000001
 40
0.0
 40
0.0
 40
0.0
 40
0.0
 40
1.0
 40
1.0
 40
1.0
 40
1.0
 10
12.5818195104821
 20
-1.404668628301558
 30
0.0
 10
12.52525430403622
 20
-1.373519135278553
 30
0.0
 10
12.46773827459135
 20
-1.338719480010522
 30
0.0
 10
12.41867234100832
 20
-1.306561109014969
 30
0.0
  0
SPLINE
  5
C3
330
1F
100
AcDbEntity
  8
외형선
  6
Continuous
 62
     1
370
    15
100
AcDbSpline
210
0.0
220
0.0
230
1.0
 70
     8
 71
     3
 72
    12
 73
     8
 74
     0
 42
0.000000001
 43
0.00000001
 40
0.0
 40
0.0
 40
0.0
 40
0.0
 40
0.5
 40
0.5
 40
0.75
 40
0.75
 40
1.0
 40
1.0
 40
1.0
 40
1.0
 10
12.41867234100729
 20
-1.306561109006835
 30
0.0
 10
12.36273652042004
 20
-0.7822317803179755
 30
0.0
 10
12.30526483969492
 20
-0.2264499234997192
 30
0.0
 10
12.22426814215547
 20
0.5808981581998486
 30
0.0
 10
12.19847416674715
 20
0.8445541168024358
 30
0.0
 10
12.14401724202567
 20
1.370310649100086
 30
0.0
 10
12.11601165717179
 20
1.630154247925212
 30
0.0
 10
12.08784288861048
 20
1.880917212902619
 30
0.0
  0
SPLINE
  5
C4
330
1F
100
AcDbEntity
  8
외형선
  6
Continuous
 62
     1
370
    15
100
AcDbSpline
210
0.0
220
0.0
230
1.0
 70
     8
 71
     3
 72
    14
 73
    10
 74
     0
 42
0.000000001
 43
0.00000001
 40
0.0
 40
0.0
 40
0.0
 40
0.0
 40
0.000058820410227
 40
0.000058820410227
 40
0.000058820410227
 40
0.0001176062885219
 40
0.0001176062885219
 40
0.0001176062885219
 40
0.0002033863455414
 40
0.0002033863455414
 40
0.0002033863455414
 40
0.0002033863455414
 10
12.08784279931313
 20
1.880918007846305
 30
0.0
 10
12.10175301146228
 20
1.876390127698674
 30
0.0
 10
12.11656245127442
 20
1.870985308379989
 30
0.0
 10
12.13190982705882
 20
1.864860282008934
 30
0.0
 10
12.14725155825672
 20
1.858737508351408
 30
0.0
 10
12.16323498360447
 20
1.851854162437919
 30
0.0
 10
12.17954030107716
 20
1.844367894726947
 30
0.0
 10
12.20325122240984
 20
1.833481488800321
 30
0.0
 10
12.22791566106524
 20
1.821189899265883
 30
0.0
 10
12.25259853110736
 20
1.808005943558642
 30
0.0
  0
SPLINE
  5
C5
330
1F
100
AcDbEntity
  8
외형선
  6
Continuous
 62
     1
370
    15
100
AcDbSpline
210
0.0
220
0.0
230
1.0
 70
     8
 71
     3
 72
    12
 73
     8
 74
     0
 42
0.000000001
 43
0.00000001
 40
0.0
 40
0.0
 40
0.0
 40
0.0
 40
0.5
 40
0.5
 40
0.75
 40
0.75
 40
1.0
 40
1.0
 40
1.0
 40
1.0
 10
12.58181941318827
 20
-1.404667709030081
 30
0.0
 10
12.52631534977691
 20
-0.8802428270101454
 30
0.0
 10
12.46901678503289
 20
-0.3217712613928485
 30
0.0
 10
12.38783119361393
 20
0.4937574609111557
 30
0.0
 10
12.36217095432033
 20
0.7598662466340134
 30
0.0
 10
12.30834244437221
 20
1.290424830054102
 30
0.0
 10
12.28059107227947
 20
1.553395733907887
 30
0.0
 10
12.25259916683515
 20
1.80800016120611
 30
0.0
  0
SPLINE
  5
C6
330
1F
100
AcDbEntity
  8
외형선
  6
Continuous
 62
     1
370
    15
100
AcDbSpline
210
0.0
220
0.0
230
1.0
 70
     8
 71
     3
 72
    14
 73
    10
 74
     0
 42
0.000000001
 43
0.00000001
 40
0.0
 40
0.0
 40
0.0
 40
0.0
 40
0.0000587067160619
 40
0.0000587067160619
 40
0.0000587067160619
 40
0.0001173789978033
 40
0.0001173789978033
 40
0.0001173789978033
 40
0.0002032019645589
 40
0.0002032019645589
 40
0.0002032019645589
 40
0.0002032019645589
 10
29.80780782016637
 20
-1.367541650381733
 30
0.0
 10
29.79391998839413
 20
-1.361561188480487
 30
0.0
 10
29.77913383801082
 20
-1.354846582293476
 30
0.0
 10
29.76381017935145
 20
-1.347572213935477
 30
0.0
 10
29.74849214918342
 20
-1.340300517505916
 30
0.0
 10
29.73253302306177
 20
-1.332420574349647
 30
0.0
 10
29.71625238374422
 20
-1.324103919192803
 30
0.0
 10
29.69252033605637
 20
-1.311980853695427
 30
0.0
 10
29.66783115755076
 20
-1.298786020235059
 30
0.0
 10
29.64312536012612
 20
-1.285076203386889
 30
0.0
  0
SPLINE
  5
C7
330
1F
100
AcDbEntity
  8
외형선
  6
Continuous
 62
     1
370
    15
100
AcDbSpline
210
0.0
220
0.0
230
1.0
 70
     8
 71
     3
 72
    12
 73
     8
 74
     0
 42
0.000000001
 43
0.00000001
 40
0.0
 40
0.0
 40
0.0
 40
0.0
 40
0.5000000000000001
 40
0.5000000000000001
 40
0.7500000000000002
 40
0.7500000000000002
 40
1.0
 40
1.0
 40
1.0
 40
1.0
 10
29.64312525630942
 20
-1.28507521779602
 30
0.0
 10
29.5873840659437
 20
-0.7558925592443082
 30
0.0
 10
29.53023940131246
 20
-0.1963047482407806
 30
0.0
 10
29.44980891476322
 20
0.6153828615186879
 30
0.0
 10
29.42409917349812
 20
0.8806496508261814
 30
0.0
 10
29.36980266814262
 20
1.409468271949464
 30
0.0
 10
29.34190267236349
 20
1.670643084865132
 30
0.0
 10
29.31385826060241
 20
1.922562937112131
 30
0.0
  0
SPLINE
  5
C8
330
1F
100
AcDbEntity
  8
외형선
  6
Continuous
 62
     1
370
    15
100
AcDbSpline
210
0.0
220
0.0
230
1.0
 70
     8
 71
     3
 72
     8
 73
     4
 74
     0
 42
0.000000001
 43
0.00000001
 40
0.0
 40
0.0
 40
0.0
 40
0.0
 40
1.0
 40
1.0
 40
1.0
 40
1.0
 10
29.31385855739809
 20
1.922560271045805
 30
0.0
 10
29.37043436894043
 20
1.892734727321653
 30
0.0
 10
29.42796964751437
 20
1.857359004371864
 30
0.0
 10
29.47705215474341
 20
1.822085846027126
 30
0.0
  0
SPLINE
  5
C9
330
1F
100
AcDbEntity
  8
외형선
  6
Continuous
 62
     1
370
    15
100
AcDbSpline
210
0.0
220
0.0
230
1.0
 70
     8
 71
     3
 72
    12
 73
     8
 74
     0
 42
0.000000001
 43
0.00000001
 40
0.0
 40
0.0
 40
0.0
 40
0.0
 40
0.5
 40
0.5
 40
0.75
 40
0.75
 40
1.0
 40
1.0
 40
1.0
 40
1.0
 10
29.80780782015879
 20
-1.367541650305909
 30
0.0
 10
29.75200449543208
 20
-0.84574029772885
 30
0.0
 10
29.69446219175854
 20
-0.2906220585094861
 30
0.0
 10
29.61308400216791
 20
0.5185890801658576
 30
0.0
 10
29.58732146438337
 20
0.7826358063909891
 30
0.0
 10
29.53311523994807
 20
1.309223995061188
 30
0.0
 10
29.50519048288245
 20
1.569963814850851
 30
0.0
 10
29.47705215474523
 20
1.82208584601978
 30
0.0
  0
SPLINE
  5
CA
330
1F
100
AcDbEntity
  8
외형선
  6
Continuous
 62
     1
370
    15
100
AcDbSpline
210
0.0
220
0.0
230
1.0
 70
     8
 71
     3
 72
    10
 73
     6
 74
     0
 42
0.000000001
 43
0.00000001
 40
0.0
 40
0.0
 40
0.0
 40
0.0
 40
0.5
 40
0.5
 40
1.0
 40
1.0
 40
1.0
 40
1.0
 10
15.60123033996647
 20
-2.91284763374754
 30
0.0
 10
15.50117325282225
 20
-2.829718501704442
 30
0.0
 10
15.38311305762062
 20
-2.762369321905699
 30
0.0
 10
15.15215390030008
 20
-2.659560033777607
 30
0.0
 10
15.04028347540818
 20
-2.624159849760552
 30
0.0
 10
14.94584864012943
 20
-2.609644033075079
 30
0.0
  0
SPLINE
  5
CB
330
1F
100
AcDbEntity
  8
외형선
  6
Continuous
 62
     1
370
    15
100
AcDbSpline
210
0.0
220
0.0
230
1.0
 70
     8
 71
     3
 72
    10
 73
     6
 74
     0
 42
0.000000001
 43
0.00000001
 40
0.0
 40
0.0
 40
0.0
 40
0.0
 40
0.5
 40
0.5
 40
1.0
 40
1.0
 40
1.0
 40
1.0
 10
14.6159635194484
 20
0.4910727726980184
 30
0.0
 10
14.71592078440523
 20
0.4369799502890431
 30
0.0
 10
14.83397945637342
 20
0.3752753531120803
 30
0.0
 10
15.06479365858306
 20
0.2466469151430776
 30
0.0
 10
15.17644392127074
 20
0.1802916437559833
 30
0.0
 10
15.27071926054316
 20
0.1185988394647439
 30
0.0
  0
SPLINE
  5
CC
330
1F
100
AcDbEntity
  8
외형선
  6
Continuous
 62
     1
370
    15
100
AcDbSpline
210
0.0
220
0.0
230
1.0
 70
     8
 71
     3
 72
    12
 73
     8
 74
     0
 42
0.000000001
 43
0.00000001
 40
0.0
 40
0.0
 40
0.0
 40
0.0
 40
0.25
 40
0.25
 40
0.5
 40
0.5
 40
1.0
 40
1.0
 40
1.0
 40
1.0
 10
15.60123033996623
 20
-2.912847633745629
 30
0.0
 10
15.57339488350538
 20
-2.698686037447662
 30
0.0
 10
15.546063403778
 20
-2.471103128441919
 30
0.0
 10
15.49353909269578
 20
-2.000468846874118
 30
0.0
 10
15.46646894009633
 20
-1.751905028159564
 30
0.0
 10
15.38318208777598
 20
-0.9771285026913971
 30
0.0
 10
15.32549721143278
 20
-0.4234293660718133
 30
0.0
 10
15.27071926056085
 20
0.1185988392896365
 30
0.0
  0
SPLINE
  5
CD
330
1F
100
AcDbEntity
  8
외형선
  6
Continuous
 62
     1
370
    15
100
AcDbSpline
210
0.0
220
0.0
230
1.0
 70
     8
 71
     3
 72
    10
 73
     6
 74
     0
 42
0.000000001
 43
0.00000001
 40
0.0
 40
0.0
 40
0.0
 40
0.0
 40
0.5
 40
0.5
 40
1.0
 40
1.0
 40
1.0
 40
1.0
 10
30.46331310645308
 20
-1.721452814785572
 30
0.0
 10
30.36323615756555
 20
-1.650441648872979
 30
0.0
 10
30.2451640586038
 20
-1.5831374653779
 30
0.0
 10
30.01415996243621
 20
-1.461894306307322
 30
0.0
 10
29.90229329958967
 20
-1.408229557549151
 30
0.0
 10
29.80780782016688
 20
-1.367541650381616
 30
0.0
  0
SPLINE
  5
CE
330
1F
100
AcDbEntity
  8
외형선
  6
Continuous
 62
     1
370
    15
100
AcDbSpline
210
0.0
220
0.0
230
1.0
 70
     8
 71
     3
 72
    10
 73
     6
 74
     0
 42
0.000000001
 43
0.00000001
 40
0.0
 40
0.0
 40
0.0
 40
0.0
 40
0.5
 40
0.5
 40
1.0
 40
1.0
 40
1.0
 40
1.0
 10
29.47705215474451
 20
1.822085846026343
 30
0.0
 10
29.57720662476692
 20
1.750109806506647
 30
0.0
 10
29.69543142478391
 20
1.682901210746494
 30
0.0
 10
29.92654417406849
 20
1.563003352304989
 30
0.0
 10
30.03836966417286
 20
1.510637940655966
 30
0.0
 10
30.13279433689497
 20
1.471820806739605
 30
0.0
  0
SPLINE
  5
CF
330
1F
100
AcDbEntity
  8
외형선
  6
Continuous
 62
     1
370
    15
100
AcDbSpline
210
0.0
220
0.0
230
1.0
 70
     8
 71
     3
 72
    14
 73
    10
 74
     0
 42
0.000000001
 43
0.00000001
 40
0.0
 40
0.0
 40
0.0
 40
0.0
 40
0.0000588590612327
 40
0.0000588590612327
 40
0.0000588590612327
 40
0.0001176834646763
 40
0.0001176834646763
 40
0.0001176834646763
 40
0.0002034748806765
 40
0.0002034748806765
 40
0.0002034748806765
 40
0.0002034748806765
 10
11.76273219608859
 20
-0.9424816823498677
 30
0.0
 10
11.74881606084285
 20
-0.9353251755656491
 30
0.0
 10
11.73400041860697
 20
-0.9275523605066255
 30
0.0
 10
11.71864678951167
 20
-0.9193526821615322
 30
0.0
 10
11.70329882425605
 20
-0.9111560286168433
 30
0.0
 10
11.68730907913726
 20
-0.9024774826942724
 30
0.0
 10
11.67099739207148
 20
-0.8934998875579998
 30
0.0
 10
11.64728940164609
 20
-0.8804515291217803
 30
0.0
 10
11.62262883798482
 20
-0.8666186678244997
 30
0.0
 10
11.59794918998141
 20
-0.8525846420750534
 30
0.0
  0
SPLINE
  5
D0
330
1F
100
AcDbEntity
  8
외형선
  6
Continuous
 62
     1
370
    15
100
AcDbSpline
210
0.0
220
0.0
230
1.0
 70
     8
 71
     3
 72
    12
 73
     8
 74
     0
 42
0.000000001
 43
0.00000001
 40
0.0
 40
0.0
 40
0.0
 40
0.0
 40
0.25
 40
0.25
 40
0.5
 40
0.5
 40
1.0
 40
1.0
 40
1.0
 40
1.0
 10
11.59794909221331
 20
-0.8525836983321884
 30
0.0
 10
11.56987363676241
 20
-0.5815731092514091
 30
0.0
 10
11.54178108593607
 20
-0.306217162379672
 30
0.0
 10
11.4868043892983
 20
0.2408327998639362
 30
0.0
 10
11.46040394149393
 20
0.5108780894379032
 30
0.0
 10
11.38137502818258
 20
1.309181079149894
 30
0.0
 10
11.32460663553929
 20
1.839425085343807
 30
0.0
 10
11.26858202840604
 20
2.320185050729642
 30
0.0
  0
SPLINE
  5
D1
330
1F
100
AcDbEntity
  8
외형선
  6
Continuous
 62
     1
370
    15
100
AcDbSpline
210
0.0
220
0.0
230
1.0
 70
     8
 71
     3
 72
     8
 73
     4
 74
     0
 42
0.000000001
 43
0.00000001
 40
0.0
 40
0.0
 40
0.0
 40
0.0
 40
1.0
 40
1.0
 40
1.0
 40
1.0
 10
11.26858208517027
 20
2.320184563622791
 30
0.0
 10
11.3251666366141
 20
2.291691564889292
 30
0.0
 10
11.38270155889628
 20
2.256150787695942
 30
0.0
 10
11.43178878621977
 20
2.218659427080454
 30
0.0
  0
SPLINE
  5
D2
330
1F
100
AcDbEntity
  8
외형선
  6
Continuous
 62
     1
370
    15
100
AcDbSpline
210
0.0
220
0.0
230
1.0
 70
     8
 71
     3
 72
    10
 73
     6
 74
     0
 42
0.000000001
 43
0.00000001
 40
0.0
 40
0.0
 40
0.0
 40
0.0
 40
0.5
 40
0.5
 40
1.0
 40
1.0
 40
1.0
 40
1.0
 10
11.76273219608617
 20
-0.9424816823269337
 30
0.0
 10
11.70635006408417
 20
-0.4063667825178999
 30
0.0
 10
11.64988709081678
 20
0.1490195602595146
 30
0.0
 10
11.54496886802229
 20
1.206482213513
 30
0.0
 10
11.48814448893491
 20
1.736084014207454
 30
0.0
 10
11.43178878622123
 20
2.218659427071329
 30
0.0
  0
SPLINE
  5
D3
330
1F
100
AcDbEntity
  8
외형선
  6
Continuous
 62
     1
370
    15
100
AcDbSpline
210
0.0
220
0.0
230
1.0
 70
     8
 71
     3
 72
     8
 73
     4
 74
     0
 42
0.000000001
 43
0.00000001
 40
0.0
 40
0.0
 40
0.0
 40
0.0
 40
1.0
 40
1.0
 40
1.0
 40
1.0
 10
11.26858157313868
 20
2.320184821454916
 30
0.0
 10
10.84517379541058
 20
2.533390661557545
 30
0.0
 10
10.42003320458684
 20
2.737683985830835
 30
0.0
 10
9.999999999999991
 20
2.929652214037421
 30
0.0
  0
SPLINE
  5
D4
330
1F
100
AcDbEntity
  8
외형선
  6
Continuous
 62
     1
370
    15
100
AcDbSpline
210
0.0
220
0.0
230
1.0
 70
     8
 71
     3
 72
     8
 73
     4
 74
     0
 42
0.000000001
 43
0.00000001
 40
0.0
 40
0.0
 40
0.0
 40
0.0
 40
1.0
 40
1.0
 40
1.0
 40
1.0
 10
11.59794919004403
 20
-0.8525846421106589
 30
0.0
 10
11.06649040133158
 20
-0.5503718097182972
 30
0.0
 10
10.52912148997114
 20
-0.2416916537702306
 30
0.0
 10
9.999999999999991
 20
0.0650046406425809
 30
0.0
  0
SPLINE
  5
D5
330
1F
100
AcDbEntity
  8
외형선
  6
Continuous
 62
     1
370
    15
100
AcDbSpline
210
0.0
220
0.0
230
1.0
 70
     8
 71
     3
 72
    12
 73
     8
 74
     0
 42
0.000000001
 43
0.00000001
 40
0.0
 40
0.0
 40
0.0
 40
0.0
 40
0.2499999999999999
 40
0.2499999999999999
 40
0.4999999999999998
 40
0.4999999999999998
 40
1.0
 40
1.0
 40
1.0
 40
1.0
 10
15.76440741195176
 20
-3.013981269856417
 30
0.0
 10
15.73660451478351
 20
-2.801305516042713
 30
0.0
 10
15.70923543614874
 20
-2.574615953801684
 30
0.0
 10
15.65650334111563
 20
-2.104430998500499
 30
0.0
 10
15.63010075644304
 20
-1.857997098518722
 30
0.0
 10
15.54759554222264
 20
-1.08467046936084
 30
0.0
 10
15.4901618521983
 20
-0.5292240668648889
 30
0.0
 10
15.43530330116214
 20
0.0176687052285537
 30
0.0
  0
SPLINE
  5
D6
330
1F
100
AcDbEntity
  8
외형선
  6
Continuous
 62
     1
370
    15
100
AcDbSpline
210
0.0
220
0.0
230
1.0
 70
     8
 71
     3
 72
    10
 73
     6
 74
     0
 42
0.000000001
 43
0.00000001
 40
0.0
 40
0.0
 40
0.0
 40
0.0
 40
0.5
 40
0.5
 40
1.0
 40
1.0
 40
1.0
 40
1.0
 10
17.63842862077707
 20
-1.240447780546756
 30
0.0
 10
17.27182139443225
 20
-1.035778113466956
 30
0.0
 10
16.90575374252873
 20
-0.8275222079036628
 30
0.0
 10
16.16854678819392
 20
-0.4063603052636828
 30
0.0
 10
15.80135500100167
 20
-0.1942091466556778
 30
0.0
 10
15.43530365531857
 20
0.0176688886998591
 30
0.0
  0
SPLINE
  5
D7
330
1F
100
AcDbEntity
  8
외형선
  6
Continuous
 62
     1
370
    15
100
AcDbSpline
210
0.0
220
0.0
230
1.0
 70
     8
 71
     3
 72
    12
 73
     8
 74
     0
 42
0.000000001
 43
0.00000001
 40
0.0
 40
0.0
 40
0.0
 40
0.0
 40
0.5000000000000001
 40
0.5000000000000001
 40
0.7499999999999999
 40
0.7499999999999999
 40
1.0
 40
1.0
 40
1.0
 40
1.0
 10
17.96759046390279
 20
-3.880347443289061
 30
0.0
 10
17.91235874427068
 20
-3.562622638005357
 30
0.0
 10
17.85496933155314
 20
-3.161635950998508
 30
0.0
 10
17.77313934397388
 20
-2.488815115221354
 30
0.0
 10
17.74727759275269
 20
-2.25527379063323
 30
0.0
 10
17.69393324919989
 20
-1.764130688579693
 30
0.0
 10
17.66634599875846
 20
-1.505949941139456
 30
0.0
 10
17.6384284613734
 20
-1.240446641549886
 30
0.0
  0
SPLINE
  5
D8
330
1F
100
AcDbEntity
  8
외형선
  6
Continuous
 62
     1
370
    15
100
AcDbSpline
210
0.0
220
0.0
230
1.0
 70
     8
 71
     3
 72
    10
 73
     6
 74
     0
 42
0.000000001
 43
0.00000001
 40
0.0
 40
0.0
 40
0.0
 40
0.0
 40
0.4999999999999996
 40
0.4999999999999996
 40
1.0
 40
1.0
 40
1.0
 40
1.0
 10
17.96759211726213
 20
-3.88034850372057
 30
0.0
 10
17.59978618652093
 20
-3.757361887973521
 30
0.0
 10
17.23572079106689
 20
-3.623279689405704
 30
0.0
 10
16.50012270477662
 20
-3.333496250912714
 30
0.0
 10
16.13064409691637
 20
-3.177989581034668
 30
0.0
 10
15.76440740090524
 20
-3.013981185287176
 30
0.0
  0
SPLINE
  5
D9
330
1F
100
AcDbEntity
  8
외형선
  6
Continuous
 62
     1
370
    15
100
AcDbSpline
210
0.0
220
0.0
230
1.0
 70
     8
 71
     3
 72
    12
 73
     8
 74
     0
 42
0.000000001
 43
0.00000001
 40
0.0
 40
0.0
 40
0.0
 40
0.0
 40
0.2499999999999999
 40
0.2499999999999999
 40
0.4999999999999999
 40
0.4999999999999999
 40
1.0
 40
1.0
 40
1.0
 40
1.0
 10
27.44005626138971
 20
-0.0296727239218774
 30
0.0
 10
27.41255361053848
 20
0.2440251357873852
 30
0.0
 10
27.38615280224074
 20
0.5141821618913489
 30
0.0
 10
27.33341362827637
 20
1.046738870471842
 30
0.0
 10
27.30604132231195
 20
1.312569718282784
 30
0.0
 10
27.22262451828087
 20
2.090491816005992
 30
0.0
 10
27.16532745172601
 20
2.581630125853442
 30
0.0
 10
27.11131261522694
 20
3.003869324738461
 30
0.0
  0
SPLINE
  5
DA
330
1F
100
AcDbEntity
  8
외형선
  6
Continuous
 62
     1
370
    15
100
AcDbSpline
210
0.0
220
0.0
230
1.0
 70
     8
 71
     3
 72
    10
 73
     6
 74
     0
 42
0.000000001
 43
0.00000001
 40
0.0
 40
0.0
 40
0.0
 40
0.0
 40
0.5
 40
0.5
 40
1.0
 40
1.0
 40
1.0
 40
1.0
 10
29.31385550028827
 20
1.922561882686839
 30
0.0
 10
28.94579632893723
 20
2.116594683690844
 30
0.0
 10
28.58101861916334
 20
2.30433946430784
 30
0.0
 10
27.84783224059214
 20
2.665701473442845
 30
0.0
 10
27.47848864363304
 20
2.839426632922724
 30
0.0
 10
27.11131123363265
 20
3.003870289889974
 30
0.0
  0
SPLINE
  5
DB
330
1F
100
AcDbEntity
  8
외형선
  6
Continuous
 62
     1
370
    15
100
AcDbSpline
210
0.0
220
0.0
230
1.0
 70
     8
 71
     3
 72
    10
 73
     6
 74
     0
 42
0.000000001
 43
0.00000001
 40
0.0
 40
0.0
 40
0.0
 40
0.0
 40
0.5
 40
0.5
 40
1.0
 40
1.0
 40
1.0
 40
1.0
 10
29.64312553303061
 20
-1.285076299335573
 30
0.0
 10
29.2751207574943
 20
-1.080861962188595
 30
0.0
 10
28.90625547165385
 20
-0.8726534256706809
 30
0.0
 10
28.17659485465472
 20
-0.4538347359029108
 30
0.0
 10
27.80811482059995
 20
-0.2417597428116783
 30
0.0
 10
27.44005688164691
 20
-0.0296726615974738
 30
0.0
  0
SPLINE
  5
DC
330
1F
100
AcDbEntity
  8
외형선
  6
Continuous
 62
     1
370
    15
100
AcDbSpline
210
0.0
220
0.0
230
1.0
 70
     8
 71
     3
 72
    10
 73
     6
 74
     0
 42
0.000000001
 43
0.00000001
 40
0.0
 40
0.0
 40
0.0
 40
0.0
 40
0.5
 40
0.5
 40
1.0
 40
1.0
 40
1.0
 40
1.0
 10
14.45314620713203
 20
0.5827833598135228
 30
0.0
 10
14.08546716010227
 20
0.7930796001731977
 30
0.0
 10
13.72136255263434
 20
1.000966343661312
 30
0.0
 10
12.98830851908335
 20
1.410508956427915
 30
0.0
 10
12.61926355248085
 20
1.612157697398775
 30
0.0
 10
12.25260548248029
 20
1.808002230594715
 30
0.0
  0
SPLINE
  5
DD
330
1F
100
AcDbEntity
  8
외형선
  6
Continuous
 62
     1
370
    15
100
AcDbSpline
210
0.0
220
0.0
230
1.0
 70
     8
 71
     3
 72
    10
 73
     6
 74
     0
 42
0.000000001
 43
0.00000001
 40
0.0
 40
0.0
 40
0.0
 40
0.0
 40
0.5
 40
0.5
 40
1.0
 40
1.0
 40
1.0
 40
1.0
 10
14.7813831532993
 20
-2.553781681236173
 30
0.0
 10
14.41388967908969
 20
-2.375041873301838
 30
0.0
 10
14.0462438659075
 20
-2.188680864018571
 30
0.0
 10
13.31753499580998
 20
-1.805291505715356
 30
0.0
 10
12.94922037665548
 20
-1.606990009881843
 30
0.0
 10
12.58181951049994
 20
-1.404668628311382
 30
0.0
  0
SPLINE
  5
DE
330
1F
100
AcDbEntity
  8
외형선
  6
Continuous
 62
     1
370
    15
100
AcDbSpline
210
0.0
220
0.0
230
1.0
 70
     8
 71
     3
 72
     8
 73
     4
 74
     0
 42
0.000000001
 43
0.00000001
 40
0.0
 40
0.0
 40
0.0
 40
0.0
 40
1.0
 40
1.0
 40
1.0
 40
1.0
 10
31.12500000000011
 20
0.9273558581282371
 30
0.0
 10
30.84805765147507
 20
1.083894083798851
 30
0.0
 10
30.57230356587878
 20
1.238644044177072
 30
0.0
 10
30.29746253409624
 20
1.390892591170368
 30
0.0
  0
LINE
  5
DF
330
1F
100
AcDbEntity
  8
외형선
  6
Continuous
 62
     1
370
    15
100
AcDbLine
 10
31.125
 20
-2.084183161461
 30
0.0
 11
31.125
 21
0.9273558581282986
 31
0.0
  0
SPLINE
  5
E0
330
1F
100
AcDbEntity
  8
외형선
  6
Continuous
 62
     1
370
    15
100
AcDbSpline
210
0.0
220
0.0
230
1.0
 70
     8
 71
     3
 72
     8
 73
     4
 74
     0
 42
0.000000001
 43
0.00000001
 40
0.0
 40
0.0
 40
0.0
 40
0.0
 40
1.0
 40
1.0
 40
1.0
 40
1.0
 10
31.12500000000011
 20
-2.084183161461058
 30
0.0
 10
30.958473770004
 20
-1.997896572784378
 30
0.0
 10
30.79210744381581
 20
-1.910367255269867
 30
0.0
 10
30.62635445266555
 20
-1.821839921801517
 30
0.0
  0
SPLINE
  5
E1
330
1F
100
AcDbEntity
  8
외형선
  6
Continuous
 62
     1
370
    15
100
AcDbSpline
210
0.0
220
0.0
230
1.0
 70
     8
 71
     3
 72
    10
 73
     6
 74
     0
 42
0.000000001
 43
0.00000001
 40
0.0
 40
0.0
 40
0.0
 40
0.0
 40
0.5
 40
0.5
 40
1.0
 40
1.0
 40
1.0
 40
1.0
 10
12.41867234100815
 20
-1.306561109014849
 30
0.0
 10
12.31845517034715
 20
-1.240877635392795
 30
0.0
 10
12.20016752011447
 20
-1.175008126614275
 30
0.0
 10
11.96900831159006
 20
-1.049924988929448
 30
0.0
 10
11.85722451305011
 20
-0.9910752678138283
 30
0.0
 10
11.76273219608859
 20
-0.9424816823498677
 30
0.0
  0
SPLINE
  5
E2
330
1F
100
AcDbEntity
  8
외형선
  6
Continuous
 62
     1
370
    15
100
AcDbSpline
210
0.0
220
0.0
230
1.0
 70
     8
 71
     3
 72
    10
 73
     6
 74
     0
 42
0.000000001
 43
0.00000001
 40
0.0
 40
0.0
 40
0.0
 40
0.0
 40
0.5
 40
0.5
 40
1.0
 40
1.0
 40
1.0
 40
1.0
 10
11.4317887862202
 20
2.218659427080129
 30
0.0
 10
11.53203017106953
 20
2.14209804618933
 30
0.0
 10
11.65032220117384
 20
2.074182802736886
 30
0.0
 10
11.88146354867775
 20
1.958844800401079
 30
0.0
 10
11.99330102644252
 20
1.911692075984643
 30
0.0
 10
12.0878427993127
 20
1.880918007846193
 30
0.0
  0
SPLINE
  5
E3
330
1F
100
AcDbEntity
  8
외형선
  6
Continuous
 62
     1
370
    15
100
AcDbSpline
210
0.0
220
0.0
230
1.0
 70
     8
 71
     3
 72
    14
 73
    10
 74
     0
 42
0.000000001
 43
0.00000001
 40
0.0
 40
0.0
 40
0.0
 40
0.0
 40
0.0000587366643157
 40
0.0000587366643157
 40
0.0000587366643157
 40
0.0001174387171814
 40
0.0001174387171814
 40
0.0001174387171814
 40
0.0002032871345618
 40
0.0002032871345618
 40
0.0002032871345618
 40
0.0002032871345618
 10
28.00966743205826
 20
-4.702884421480374
 30
0.0
 10
28.02356265897688
 20
-4.713505612586895
 30
0.0
 10
28.03835572541509
 20
-4.72272970485235
 30
0.0
 10
28.0536852095427
 20
-4.730451480714732
 30
0.0
 10
28.06900903815667
 20
-4.738170407778786
 30
0.0
 10
28.08497288982646
 20
-4.74444239170434
 30
0.0
 10
28.10125690658478
 20
-4.749196170470976
 30
0.0
 10
28.12498905844665
 20
-4.756124276802595
 30
0.0
 10
28.14967479395248
 20
-4.759896697794683
 30
0.0
 10
28.17437478095783
 20
-4.76032753161116
 30
0.0
  0
SPLINE
  5
E4
330
1F
100
AcDbEntity
  8
외형선
  6
Continuous
 62
     1
370
    15
100
AcDbSpline
210
0.0
220
0.0
230
1.0
 70
     8
 71
     3
 72
    10
 73
     6
 74
     0
 42
0.000000001
 43
0.00000001
 40
0.0
 40
0.0
 40
0.0
 40
0.0
 40
0.5000000000000001
 40
0.5000000000000001
 40
1.0
 40
1.0
 40
1.0
 40
1.0
 10
27.35381959325449
 20
-4.668802057335631
 30
0.0
 10
27.45396494195169
 20
-4.600723127889528
 30
0.0
 10
27.57218355669063
 20
-4.574525239626036
 30
0.0
 10
27.80332845086746
 20
-4.589847984754632
 30
0.0
 10
27.91519997744841
 20
-4.630675677093323
 30
0.0
 10
28.00966743205784
 20
-4.70288442148004
 30
0.0
  0
SPLINE
  5
E5
330
1F
100
AcDbEntity
  8
외형선
  6
Continuous
 62
     1
370
    15
100
AcDbSpline
210
0.0
220
0.0
230
1.0
 70
     8
 71
     3
 72
     8
 73
     4
 74
     0
 42
0.000000001
 43
0.00000001
 40
0.0
 40
0.0
 40
0.0
 40
0.0
 40
1.0
 40
1.0
 40
1.0
 40
1.0
 10
27.19060775631316
 20
-4.709524285205411
 30
0.0
 10
27.24718334487754
 20
-4.714378378959406
 30
0.0
 10
27.30472560352359
 20
-4.70217621106898
 30
0.0
 10
27.35381959325405
 20
-4.668802057335918
 30
0.0
  0
SPLINE
  5
E6
330
1F
100
AcDbEntity
  8
외형선
  6
Continuous
 62
     1
370
    15
100
AcDbSpline
210
0.0
220
0.0
230
1.0
 70
     8
 71
     3
 72
    10
 73
     6
 74
     0
 42
0.000000001
 43
0.00000001
 40
0.0
 40
0.0
 40
0.0
 40
0.0
 40
0.5
 40
0.5
 40
1.0
 40
1.0
 40
1.0
 40
1.0
 10
27.19060772736446
 20
-4.709524282721651
 30
0.0
 10
26.82311121698675
 20
-4.677993677335163
 30
0.0
 10
26.45923612583779
 20
-4.632612326209813
 30
0.0
 10
25.72386885191694
 20
-4.514329976075594
 30
0.0
 10
25.35464916977324
 20
-4.44145055032502
 30
0.0
 10
24.98880445108582
 20
-4.355869086205114
 30
0.0
  0
SPLINE
  5
E7
330
1F
100
AcDbEntity
  8
외형선
  6
Continuous
 62
     1
370
    15
100
AcDbSpline
210
0.0
220
0.0
230
1.0
 70
     8
 71
     3
 72
    14
 73
    10
 74
     0
 42
0.000000001
 43
0.00000001
 40
0.0
 40
0.0
 40
0.0
 40
0.0
 40
0.0000586199809473
 40
0.0000586199809473
 40
0.0000586199809473
 40
0.0001172057026607
 40
0.0001172057026607
 40
0.0001172057026607
 40
0.000203049518095
 40
0.000203049518095
 40
0.000203049518095
 40
0.000203049518095
 10
24.82446222582219
 20
-4.26520711144048
 30
0.0
 10
24.83830522416359
 20
-4.278353573873011
 30
0.0
 10
24.85304524788562
 20
-4.290364257315018
 30
0.0
 10
24.86832290058911
 20
-4.301063309368255
 30
0.0
 10
24.88359496184715
 20
-4.311758445691308
 30
0.0
 10
24.89950794477607
 20
-4.321217237720264
 30
0.0
 10
24.91574328083444
 20
-4.329299480558253
 30
0.0
 10
24.93944941055128
 20
-4.341100819097317
 30
0.0
 10
24.96411742073016
 20
-4.350094088721037
 30
0.0
 10
24.98880424028249
 20
-4.355869036892237
 30
0.0
  0
SPLINE
  5
E8
330
1F
100
AcDbEntity
  8
외형선
  6
Continuous
 62
     1
370
    15
100
AcDbSpline
210
0.0
220
0.0
230
1.0
 70
     8
 71
     3
 72
    10
 73
     6
 74
     0
 42
0.000000001
 43
0.00000001
 40
0.0
 40
0.0
 40
0.0
 40
0.0
 40
0.5
 40
0.5
 40
1.0
 40
1.0
 40
1.0
 40
1.0
 10
24.1701342456194
 20
-4.093474960794619
 30
0.0
 10
24.27008060360874
 20
-4.051488970911449
 30
0.0
 10
24.38808547372302
 20
-4.050714455798478
 30
0.0
 10
24.61874762119754
 20
-4.1132807118384
 30
0.0
 10
24.73030523184024
 20
-4.175787799697242
 30
0.0
 10
24.82446222582175
 20
-4.265207111440164
 30
0.0
  0
SPLINE
  5
E9
330
1F
100
AcDbEntity
  8
외형선
  6
Continuous
 62
     1
370
    15
100
AcDbSpline
210
0.0
220
0.0
230
1.0
 70
     8
 71
     3
 72
     8
 73
     4
 74
     0
 42
0.000000001
 43
0.00000001
 40
0.0
 40
0.0
 40
0.0
 40
0.0
 40
1.0
 40
1.0
 40
1.0
 40
1.0
 10
24.00720079398419
 20
-4.096242792244324
 30
0.0
 10
24.06369843951975
 20
-4.112848980452812
 30
0.0
 10
24.1211450981268
 20
-4.11405457862535
 30
0.0
 10
24.17013424561897
 20
-4.093474960794796
 30
0.0
  0
SPLINE
  5
EA
330
1F
100
AcDbEntity
  8
외형선
  6
Continuous
 62
     1
370
    15
100
AcDbSpline
210
0.0
220
0.0
230
1.0
 70
     8
 71
     3
 72
    10
 73
     6
 74
     0
 42
0.000000001
 43
0.00000001
 40
0.0
 40
0.0
 40
0.0
 40
0.0
 40
0.5
 40
0.5
 40
1.0
 40
1.0
 40
1.0
 40
1.0
 10
24.00720082782274
 20
-4.096242802190382
 30
0.0
 10
23.63918962765062
 20
-3.988074343963254
 30
0.0
 10
23.27155550484115
 20
-3.867730366160283
 30
0.0
 10
22.54144459525696
 20
-3.60549328649536
 30
0.0
 10
22.17255333364985
 20
-3.462816189133834
 30
0.0
 10
21.80472331489671
 20
-3.310398421699619
 30
0.0
  0
SPLINE
  5
EB
330
1F
100
AcDbEntity
  8
외형선
  6
Continuous
 62
     1
370
    15
100
AcDbSpline
210
0.0
220
0.0
230
1.0
 70
     8
 71
     3
 72
    14
 73
    10
 74
     0
 42
0.000000001
 43
0.00000001
 40
0.0
 40
0.0
 40
0.0
 40
0.0
 40
0.0000587493705263
 40
0.0000587493705263
 40
0.0000587493705263
 40
0.0001174642582957
 40
0.0001174642582957
 40
0.0001174642582957
 40
0.0002032727539075
 40
0.0002032727539075
 40
0.0002032727539075
 40
0.0002032727539075
 10
21.63998264557516
 20
-3.200005595700701
 30
0.0
 10
21.65388171281929
 20
-3.213756873973483
 30
0.0
 10
21.66867950193029
 20
-3.22679344822721
 30
0.0
 10
21.68401491334383
 20
-3.238896073251636
 30
0.0
 10
21.69934468745396
 20
-3.250994249346229
 30
0.0
 10
21.71531575217952
 20
-3.262242611842856
 30
0.0
 10
21.73160835598487
 20
-3.27245397138671
 30
0.0
 10
21.75533687553372
 20
-3.28732577748054
 30
0.0
 10
21.78002097245258
 20
-3.300162507588564
 30
0.0
 10
21.80472200652622
 20
-3.310397879549948
 30
0.0
  0
SPLINE
  5
EC
330
1F
100
AcDbEntity
  8
외형선
  6
Continuous
 62
     1
370
    15
100
AcDbSpline
210
0.0
220
0.0
230
1.0
 70
     8
 71
     3
 72
    10
 73
     6
 74
     0
 42
0.000000001
 43
0.00000001
 40
0.0
 40
0.0
 40
0.0
 40
0.0
 40
0.5
 40
0.5
 40
1.0
 40
1.0
 40
1.0
 40
1.0
 10
20.98413038248468
 20
-2.914986032614184
 30
0.0
 10
21.08428414458632
 20
-2.905507358346689
 30
0.0
 10
21.2024110634207
 20
-2.930704006660815
 30
0.0
 10
21.43351674985622
 20
-3.031565072362372
 30
0.0
 10
21.54543802894424
 20
-3.106466273266022
 30
0.0
 10
21.63998264557473
 20
-3.200005595700465
 30
0.0
  0
SPLINE
  5
ED
330
1F
100
AcDbEntity
  8
외형선
  6
Continuous
 62
     1
370
    15
100
AcDbSpline
210
0.0
220
0.0
230
1.0
 70
     8
 71
     3
 72
     8
 73
     4
 74
     0
 42
0.000000001
 43
0.00000001
 40
0.0
 40
0.0
 40
0.0
 40
0.0
 40
1.0
 40
1.0
 40
1.0
 40
1.0
 10
20.82098722583761
 20
-2.878993828774421
 30
0.0
 10
20.87755125566543
 20
-2.905029088005522
 30
0.0
 10
20.93505984214899
 20
-2.919630128434281
 30
0.0
 10
20.98413038248422
 20
-2.91498603261406
 30
0.0
  0
SPLINE
  5
EE
330
1F
100
AcDbEntity
  8
외형선
  6
Continuous
 62
     1
370
    15
100
AcDbSpline
210
0.0
220
0.0
230
1.0
 70
     8
 71
     3
 72
    10
 73
     6
 74
     0
 42
0.000000001
 43
0.00000001
 40
0.0
 40
0.0
 40
0.0
 40
0.0
 40
0.5
 40
0.5
 40
1.0
 40
1.0
 40
1.0
 40
1.0
 10
20.82098775850252
 20
-2.878994073949018
 30
0.0
 10
20.45490581300349
 20
-2.710494093318286
 30
0.0
 10
20.08603257901181
 20
-2.533011312468613
 30
0.0
 10
19.35249944725617
 20
-2.164765012102623
 30
0.0
 10
18.98897215244756
 20
-1.974243290984695
 30
0.0
 10
18.6216141260076
 20
-1.777780357752007
 30
0.0
  0
SPLINE
  5
EF
330
1F
100
AcDbEntity
  8
외형선
  6
Continuous
 62
     1
370
    15
100
AcDbSpline
210
0.0
220
0.0
230
1.0
 70
     8
 71
     3
 72
    14
 73
    10
 74
     0
 42
0.000000001
 43
0.00000001
 40
0.0
 40
0.0
 40
0.0
 40
0.0
 40
0.0000586293850505
 40
0.0000586293850505
 40
0.0000586293850505
 40
0.0001172245991237
 40
0.0001172245991237
 40
0.0001172245991237
 40
0.0002030237146939
 40
0.0002030237146939
 40
0.0002030237146939
 40
0.0002030237146939
 10
18.45708216060271
 20
-1.663975141106318
 30
0.0
 10
18.47095060586923
 20
-1.676270225892617
 30
0.0
 10
18.48571621203392
 20
-1.688382323580562
 30
0.0
 10
18.50101875348486
 20
-1.700081099404299
 30
0.0
 10
18.51631570992794
 20
-1.711775605495767
 30
0.0
 10
18.53225306311905
 20
-1.723137217512212
 30
0.0
 10
18.54851144288705
 20
-1.733959265879576
 30
0.0
 10
18.57223520706048
 20
-1.749750490282274
 30
0.0
 10
18.59691699967481
 20
-1.764572343677138
 30
0.0
 10
18.62161365487168
 20
-1.777780105788693
 30
0.0
  0
SPLINE
  5
F0
330
1F
100
AcDbEntity
  8
외형선
  6
Continuous
 62
     1
370
    15
100
AcDbSpline
210
0.0
220
0.0
230
1.0
 70
     8
 71
     3
 72
    10
 73
     6
 74
     0
 42
0.000000001
 43
0.00000001
 40
0.0
 40
0.0
 40
0.0
 40
0.0
 40
0.5
 40
0.5
 40
1.0
 40
1.0
 40
1.0
 40
1.0
 10
17.80161606989772
 20
-1.309576439304391
 30
0.0
 10
17.90168246897866
 20
-1.33367440663204
 30
0.0
 10
18.01980821154592
 20
-1.380428418424615
 30
0.0
 10
18.25082092565886
 20
-1.504094523662036
 30
0.0
 10
18.36266733880866
 20
-1.580271581209457
 30
0.0
 10
18.45708216060227
 20
-1.66397514110615
 30
0.0
  0
SPLINE
  5
F1
330
1F
100
AcDbEntity
  8
외형선
  6
Continuous
 62
     1
370
    15
100
AcDbSpline
210
0.0
220
0.0
230
1.0
 70
     8
 71
     3
 72
     8
 73
     4
 74
     0
 42
0.000000001
 43
0.00000001
 40
0.0
 40
0.0
 40
0.0
 40
0.0
 40
1.0
 40
1.0
 40
1.0
 40
1.0
 10
17.63842857866632
 20
-1.240447757037141
 30
0.0
 10
17.69498742589084
 20
-1.272023458826487
 30
0.0
 10
17.7525218579514
 20
-1.297753582418042
 30
0.0
 10
17.8016160698973
 20
-1.309576439304289
 30
0.0
  0
SPLINE
  5
F2
330
1F
100
AcDbEntity
  8
외형선
  6
Continuous
 62
     1
370
    15
100
AcDbSpline
210
0.0
220
0.0
230
1.0
 70
     8
 71
     3
 72
    14
 73
    10
 74
     0
 42
0.000000001
 43
0.00000001
 40
0.0
 40
0.0
 40
0.0
 40
0.0
 40
0.0000586748182104
 40
0.0000586748182104
 40
0.0000586748182104
 40
0.0001173148777971
 40
0.0001173148777971
 40
0.0001173148777971
 40
0.0002032462645282
 40
0.0002032462645282
 40
0.0002032462645282
 40
0.0002032462645282
 10
15.27071926054359
 20
0.1185988394647646
 30
0.0
 10
15.28459084400057
 20
0.1095214191125868
 30
0.0
 10
15.29935926352869
 20
0.1000680840235521
 30
0.0
 10
15.31466338880744
 20
0.0904471649279681
 30
0.0
 10
15.32996184058478
 20
0.0808298124719074
 30
0.0
 10
15.34589940452319
 20
0.0709797104767145
 30
0.0
 10
15.36215660306952
 20
0.061092976745416
 30
0.0
 10
15.38589718077159
 20
0.0466552635257281
 30
0.0
 10
15.41059351519168
 20
0.0319716251326802
 30
0.0
 10
15.43530325979356
 20
0.0176691176378527
 30
0.0
  0
SPLINE
  5
F3
330
1F
100
AcDbEntity
  8
외형선
  6
Continuous
 62
     1
370
    15
100
AcDbSpline
210
0.0
220
0.0
230
1.0
 70
     8
 71
     3
 72
     8
 73
     4
 74
     0
 42
0.000000001
 43
0.00000001
 40
0.0
 40
0.0
 40
0.0
 40
0.0
 40
1.0
 40
1.0
 40
1.0
 40
1.0
 10
10.53683624923108
 20
4.241599498004361
 30
0.0
 10
10.35727554469806
 20
4.194500295700623
 30
0.0
 10
10.17823067570546
 20
4.144434925828082
 30
0.0
 10
9.999999999999991
 20
4.09155944995096
 30
0.0
  0
SPLINE
  5
F4
330
1F
100
AcDbEntity
  8
외형선
  6
Continuous
 62
     1
370
    15
100
AcDbSpline
210
0.0
220
0.0
230
1.0
 70
     8
 71
     3
 72
    14
 73
    10
 74
     0
 42
0.000000001
 43
0.00000001
 40
0.0
 40
0.0
 40
0.0
 40
0.0
 40
0.0000584434393544
 40
0.0000584434393544
 40
0.0000584434393544
 40
0.000116853101262
 40
0.000116853101262
 40
0.000116853101262
 40
0.0002027283260056
 40
0.0002027283260056
 40
0.0002027283260056
 40
0.0002027283260056
 10
10.70106720209134
 20
4.238911094328805
 30
0.0
 10
10.68725294846013
 20
4.243983908437015
 30
0.0
 10
10.67254393358557
 20
4.24764361800663
 30
0.0
 10
10.65729819062764
 20
4.249893621013448
 30
0.0
 10
10.64205795043131
 20
4.252142811909621
 30
0.0
 10
10.62617809453673
 20
4.253000502936256
 30
0.0
 10
10.60997729329721
 20
4.252496865461159
 30
0.0
 10
10.58624258960063
 20
4.251759020087634
 30
0.0
 10
10.5615428010988
 20
4.248080096718152
 30
0.0
 10
10.53682922891211
 20
4.241597656556333
 30
0.0
  0
SPLINE
  5
F5
330
1F
100
AcDbEntity
  8
외형선
  6
Continuous
 62
     1
370
    15
100
AcDbSpline
210
0.0
220
0.0
230
1.0
 70
     8
 71
     3
 72
    10
 73
     6
 74
     0
 42
0.000000001
 43
0.00000001
 40
0.0
 40
0.0
 40
0.0
 40
0.0
 40
0.4999999999999997
 40
0.4999999999999997
 40
1.0
 40
1.0
 40
1.0
 40
1.0
 10
11.35546785939303
 20
4.387902284799313
 30
0.0
 10
11.25557355734552
 20
4.301356648549708
 30
0.0
 10
11.13761953035211
 20
4.248283389849166
 30
0.0
 10
10.90693612772342
 20
4.199937284667362
 30
0.0
 10
10.79526984198423
 20
4.204318383535483
 30
0.0
 10
10.70106720209185
 20
4.238911094328447
 30
0.0
  0
SPLINE
  5
F6
330
1F
100
AcDbEntity
  8
외형선
  6
Continuous
 62
     1
370
    15
100
AcDbSpline
210
0.0
220
0.0
230
1.0
 70
     8
 71
     3
 72
     8
 73
     4
 74
     0
 42
0.000000001
 43
0.00000001
 40
0.0
 40
0.0
 40
0.0
 40
0.0
 40
1.0
 40
1.0
 40
1.0
 40
1.0
 10
11.51845773295879
 20
4.468428642236679
 30
0.0
 10
11.46195662853906
 20
4.45713920418134
 30
0.0
 10
11.40448799908396
 20
4.430371966168905
 30
0.0
 10
11.35546785939303
 20
4.387902284799316
 30
0.0
  0
SPLINE
  5
F7
330
1F
100
AcDbEntity
  8
외형선
  6
Continuous
 62
     1
370
    15
100
AcDbSpline
210
0.0
220
0.0
230
1.0
 70
     8
 71
     3
 72
    10
 73
     6
 74
     0
 42
0.000000001
 43
0.00000001
 40
0.0
 40
0.0
 40
0.0
 40
0.0
 40
0.5
 40
0.5
 40
1.0
 40
1.0
 40
1.0
 40
1.0
 10
13.72126192135356
 20
4.744851563413149
 30
0.0
 10
13.35619523835396
 20
4.726648381476945
 30
0.0
 10
12.98717621178014
 20
4.694264014684537
 30
0.0
 10
12.2504415249358
 20
4.601727529399145
 30
0.0
 10
11.88557872499897
 20
4.541782779147947
 30
0.0
 10
11.51845769470703
 20
4.468428634593629
 30
0.0
  0
SPLINE
  5
F8
330
1F
100
AcDbEntity
  8
외형선
  6
Continuous
 62
     1
370
    15
100
AcDbSpline
210
0.0
220
0.0
230
1.0
 70
     8
 71
     3
 72
    14
 73
    10
 74
     0
 42
0.000000001
 43
0.00000001
 40
0.0
 40
0.0
 40
0.0
 40
0.0
 40
0.0000588136318674
 40
0.0000588136318674
 40
0.0000588136318674
 40
0.0001175921907481
 40
0.0001175921907481
 40
0.0001175921907481
 40
0.0002035184607126
 40
0.0002035184607126
 40
0.0002035184607126
 40
0.0002035184607126
 10
13.88603477690802
 20
4.699347767795779
 30
0.0
 10
13.87212813593791
 20
4.708880273692555
 30
0.0
 10
13.85732362968986
 20
4.716974169360499
 30
0.0
 10
13.8419835635761
 20
4.723549809469922
 30
0.0
 10
13.82664922299348
 20
4.73012299528534
 30
0.0
 10
13.81067568999185
 20
4.735225543993483
 30
0.0
 10
13.79438301656954
 20
4.738810322575308
 30
0.0
 10
13.77064727821557
 20
4.744032753803731
 30
0.0
 10
13.74596137612455
 20
4.746083142978114
 30
0.0
 10
13.72126192493065
 20
4.744851563591514
 30
0.0
  0
SPLINE
  5
F9
330
1F
100
AcDbEntity
  8
외형선
  6
Continuous
 62
     1
370
    15
100
AcDbSpline
210
0.0
220
0.0
230
1.0
 70
     8
 71
     3
 72
    10
 73
     6
 74
     0
 42
0.000000001
 43
0.00000001
 40
0.0
 40
0.0
 40
0.0
 40
0.0
 40
0.5
 40
0.5
 40
1.0
 40
1.0
 40
1.0
 40
1.0
 10
14.5417132656896
 20
4.708646795962408
 30
0.0
 10
14.44157485551512
 20
4.634487790325453
 30
0.0
 10
14.32335054957125
 20
4.601239148197088
 30
0.0
 10
14.09225302090186
 20
4.601630373606494
 30
0.0
 10
13.9804591135092
 20
4.634623256147343
 30
0.0
 10
13.88603477690852
 20
4.699347767795383
 30
0.0
  0
SPLINE
  5
FA
330
1F
100
AcDbEntity
  8
외형선
  6
Continuous
 62
     1
370
    15
100
AcDbSpline
210
0.0
220
0.0
230
1.0
 70
     8
 71
     3
 72
     8
 73
     4
 74
     0
 42
0.000000001
 43
0.00000001
 40
0.0
 40
0.0
 40
0.0
 40
0.0
 40
1.0
 40
1.0
 40
1.0
 40
1.0
 10
14.70479163896972
 20
4.759891984702509
 30
0.0
 10
14.6482510385335
 20
4.760969924794573
 30
0.0
 10
14.59075596688602
 20
4.744966105886797
 30
0.0
 10
14.54171326568997
 20
4.708646795962684
 30
0.0
  0
SPLINE
  5
FB
330
1F
100
AcDbEntity
  8
외형선
  6
Continuous
 62
     1
370
    15
100
AcDbSpline
210
0.0
220
0.0
230
1.0
 70
     8
 71
     3
 72
    10
 73
     6
 74
     0
 42
0.000000001
 43
0.00000001
 40
0.0
 40
0.0
 40
0.0
 40
0.0
 40
0.5
 40
0.5
 40
1.0
 40
1.0
 40
1.0
 40
1.0
 10
16.90407874218497
 20
4.550290735965691
 30
0.0
 10
16.53720329224506
 20
4.612761412574556
 30
0.0
 10
16.16849421225306
 20
4.661796910488487
 30
0.0
 10
15.4371912779595
 20
4.731787351296172
 30
0.0
 10
15.07233838089603
 20
4.752884748426238
 30
0.0
 10
14.70479162352119
 20
4.759891984997033
 30
0.0
  0
SPLINE
  5
FC
330
1F
100
AcDbEntity
  8
외형선
  6
Continuous
 62
     1
370
    15
100
AcDbSpline
210
0.0
220
0.0
230
1.0
 70
     8
 71
     3
 72
    14
 73
    10
 74
     0
 42
0.000000001
 43
0.00000001
 40
0.0
 40
0.0
 40
0.0
 40
0.0
 40
0.0000587134246466
 40
0.0000587134246466
 40
0.0000587134246466
 40
0.0001173926408841
 40
0.0001173926408841
 40
0.0001173926408841
 40
0.0002031532424405
 40
0.0002031532424405
 40
0.0002031532424405
 40
0.0002031532424405
 10
17.06866555836755
 20
4.468500856620066
 30
0.0
 10
17.05478188411164
 20
4.481080635420532
 30
0.0
 10
17.04000002285858
 20
4.492424335032215
 30
0.0
 10
17.02468034755806
 20
4.502375009817253
 30
0.0
 10
17.0093662639424
 20
4.512322052603799
 30
0.0
 10
16.9934107741169
 20
4.520946404223431
 30
0.0
 10
16.97713328939697
 20
4.528126416445772
 30
0.0
 10
16.95342579800763
 20
4.53858381086913
 30
0.0
 10
16.92876153385844
 20
4.546087807588965
 30
0.0
 10
16.90407962647715
 20
4.5502905853905
 30
0.0
  0
SPLINE
  5
FD
330
1F
100
AcDbEntity
  8
외형선
  6
Continuous
 62
     1
370
    15
100
AcDbSpline
210
0.0
220
0.0
230
1.0
 70
     8
 71
     3
 72
    10
 73
     6
 74
     0
 42
0.000000001
 43
0.00000001
 40
0.0
 40
0.0
 40
0.0
 40
0.0
 40
0.5
 40
0.5
 40
1.0
 40
1.0
 40
1.0
 40
1.0
 10
17.72439063723702
 20
4.336048280812409
 30
0.0
 10
17.62421034129087
 20
4.285398396192739
 30
0.0
 10
17.50602554119927
 20
4.276957223609171
 30
0.0
 10
17.27503657669127
 20
4.326120320191601
 30
0.0
 10
17.16315973814491
 20
4.382881167074721
 30
0.0
 10
17.06866555836805
 20
4.46850085661969
 30
0.0
  0
SPLINE
  5
FE
330
1F
100
AcDbEntity
  8
외형선
  6
Continuous
 62
     1
370
    15
100
AcDbSpline
210
0.0
220
0.0
230
1.0
 70
     8
 71
     3
 72
     8
 73
     4
 74
     0
 42
0.000000001
 43
0.00000001
 40
0.0
 40
0.0
 40
0.0
 40
0.0
 40
1.0
 40
1.0
 40
1.0
 40
1.0
 10
17.88758681563279
 20
4.350438454980555
 30
0.0
 10
17.83100533375947
 20
4.36372264266599
 30
0.0
 10
17.77347508914571
 20
4.360864755971533
 30
0.0
 10
17.72439063723738
 20
4.336048280812596
 30
0.0
  0
SPLINE
  5
FF
330
1F
100
AcDbEntity
  8
외형선
  6
Continuous
 62
     1
370
    15
100
AcDbSpline
210
0.0
220
0.0
230
1.0
 70
     8
 71
     3
 72
    10
 73
     6
 74
     0
 42
0.000000001
 43
0.00000001
 40
0.0
 40
0.0
 40
0.0
 40
0.0
 40
0.5
 40
0.5
 40
1.0
 40
1.0
 40
1.0
 40
1.0
 10
20.09047122338468
 20
3.685049373218098
 30
0.0
 10
19.72233678247468
 20
3.819417678328787
 30
0.0
 10
19.35724841033577
 20
3.94246240497765
 30
0.0
 10
18.62429632323922
 20
4.164808858217771
 30
0.0
 10
18.25492863654203
 20
4.264194025423532
 30
0.0
 10
17.8875867646499
 20
4.350438466950319
 30
0.0
  0
SPLINE
  5
100
330
1F
100
AcDbEntity
  8
외형선
  6
Continuous
 62
     1
370
    15
100
AcDbSpline
210
0.0
220
0.0
230
1.0
 70
     8
 71
     3
 72
    14
 73
    10
 74
     0
 42
0.000000001
 43
0.00000001
 40
0.0
 40
0.0
 40
0.0
 40
0.0
 40
0.0000585787738706
 40
0.0000585787738706
 40
0.0000585787738706
 40
0.0001171232780005
 40
0.0001171232780005
 40
0.0001171232780005
 40
0.0002029834017089
 40
0.0002029834017089
 40
0.0002029834017089
 40
0.0002029834017089
 10
20.25497652865461
 20
3.579133798786766
 30
0.0
 10
20.24112188853659
 20
3.592884876063348
 30
0.0
 10
20.22637028477224
 20
3.605782559483453
 30
0.0
 10
20.21108169975082
 20
3.617617899235047
 30
0.0
 10
20.19579871374236
 20
3.629448904627354
 30
0.0
 10
20.17987539825408
 20
3.640300126758861
 30
0.0
 10
20.16363087326532
 20
3.649996496052816
 30
0.0
 10
20.13989030154126
 20
3.664167261331913
 30
0.0
 10
20.11518854800314
 20
3.676027600584436
 30
0.0
 10
20.09047165289607
 20
3.68504921644733
 30
0.0
  0
SPLINE
  5
101
330
1F
100
AcDbEntity
  8
외형선
  6
Continuous
 62
     1
370
    15
100
AcDbSpline
210
0.0
220
0.0
230
1.0
 70
     8
 71
     3
 72
    10
 73
     6
 74
     0
 42
0.000000001
 43
0.00000001
 40
0.0
 40
0.0
 40
0.0
 40
0.0
 40
0.5
 40
0.5
 40
1.0
 40
1.0
 40
1.0
 40
1.0
 10
20.90955808422981
 20
3.325463001885291
 30
0.0
 10
20.80967641429914
 20
3.305741328725651
 30
0.0
 10
20.69170864311566
 20
3.323064784171202
 30
0.0
 10
20.46097188228092
 20
3.413399029404129
 30
0.0
 10
20.34927704826326
 20
3.485538171522542
 30
0.0
 10
20.25497652865511
 20
3.579133798786462
 30
0.0
  0
SPLINE
  5
102
330
1F
100
AcDbEntity
  8
외형선
  6
Continuous
 62
     1
370
    15
100
AcDbSpline
210
0.0
220
0.0
230
1.0
 70
     8
 71
     3
 72
     8
 73
     4
 74
     0
 42
0.000000001
 43
0.00000001
 40
0.0
 40
0.0
 40
0.0
 40
0.0
 40
1.0
 40
1.0
 40
1.0
 40
1.0
 10
21.0723687305627
 20
3.300868772317991
 30
0.0
 10
21.01593527337407
 20
3.324439715796415
 30
0.0
 10
20.95853021177003
 20
3.335132566820827
 30
0.0
 10
20.90955808423019
 20
3.325463001885327
 30
0.0
  0
SPLINE
  5
103
330
1F
100
AcDbEntity
  8
외형선
  6
Continuous
 62
     1
370
    15
100
AcDbSpline
210
0.0
220
0.0
230
1.0
 70
     8
 71
     3
 72
    10
 73
     6
 74
     0
 42
0.000000001
 43
0.00000001
 40
0.0
 40
0.0
 40
0.0
 40
0.0
 40
0.5
 40
0.5
 40
1.0
 40
1.0
 40
1.0
 40
1.0
 10
23.27344055845601
 20
2.278387749539001
 30
0.0
 10
22.90677672238478
 20
2.464421849636025
 30
0.0
 10
22.54186548817653
 20
2.643409051850768
 30
0.0
 10
21.80554602584632
 20
2.985666064786606
 30
0.0
 10
21.43746917495357
 20
3.148374803203237
 30
0.0
 10
21.07236867592459
 20
3.300868795139055
 30
0.0
  0
SPLINE
  5
104
330
1F
100
AcDbEntity
  8
외형선
  6
Continuous
 62
     1
370
    15
100
AcDbSpline
210
0.0
220
0.0
230
1.0
 70
     8
 71
     3
 72
    14
 73
    10
 74
     0
 42
0.000000001
 43
0.00000001
 40
0.0
 40
0.0
 40
0.0
 40
0.0
 40
0.0000587638821223
 40
0.0000587638821223
 40
0.0000587638821223
 40
0.0001174930229376
 40
0.0001174930229376
 40
0.0001174930229376
 40
0.0002033589875324
 40
0.0002033589875324
 40
0.0002033589875324
 40
0.0002033589875324
 10
23.43819877641797
 20
2.163590224485649
 30
0.0
 10
23.42429668927728
 20
2.176554723505053
 30
0.0
 10
23.40949654888524
 20
2.189169640862271
 30
0.0
 10
23.39416009364154
 20
2.201204334876553
 30
0.0
 10
23.37882931468523
 20
2.213234574642396
 30
0.0
 10
23.36285858013709
 20
2.224767595545587
 30
0.0
 10
23.34656786778261
 20
2.23559968066782
 30
0.0
 10
23.32283191390944
 20
2.251382285333414
 30
0.0
 10
23.29814333494125
 20
2.265854310607181
 30
0.0
 10
23.27344057594533
 20
2.278387740665449
 30
0.0
  0
SPLINE
  5
105
330
1F
100
AcDbEntity
  8
외형선
  6
Continuous
 62
     1
370
    15
100
AcDbSpline
210
0.0
220
0.0
230
1.0
 70
     8
 71
     3
 72
    10
 73
     6
 74
     0
 42
0.000000001
 43
0.00000001
 40
0.0
 40
0.0
 40
0.0
 40
0.0
 40
0.5
 40
0.5
 40
1.0
 40
1.0
 40
1.0
 40
1.0
 10
24.09409187921453
 20
1.825116037190318
 30
0.0
 10
23.99393894042632
 20
1.839137280302683
 30
0.0
 10
23.87570745348803
 20
1.879884943606118
 30
0.0
 10
23.64454598755286
 20
1.998460715328044
 30
0.0
 10
23.53267590734508
 20
2.075484844418177
 30
0.0
 10
23.43819877641848
 20
2.163590224485464
 30
0.0
  0
SPLINE
  5
106
330
1F
100
AcDbEntity
  8
외형선
  6
Continuous
 62
     1
370
    15
100
AcDbSpline
210
0.0
220
0.0
230
1.0
 70
     8
 71
     3
 72
     8
 73
     4
 74
     0
 42
0.000000001
 43
0.00000001
 40
0.0
 40
0.0
 40
0.0
 40
0.0
 40
1.0
 40
1.0
 40
1.0
 40
1.0
 10
24.25728184332933
 20
1.76531038267597
 30
0.0
 10
24.20071203999453
 20
1.795609862184268
 30
0.0
 10
24.14317754113525
 20
1.818244127015173
 30
0.0
 10
24.09409187921491
 20
1.825116037190268
 30
0.0
  0
SPLINE
  5
107
330
1F
100
AcDbEntity
  8
외형선
  6
Continuous
 62
     1
370
    15
100
AcDbSpline
210
0.0
220
0.0
230
1.0
 70
     8
 71
     3
 72
    10
 73
     6
 74
     0
 42
0.000000001
 43
0.00000001
 40
0.0
 40
0.0
 40
0.0
 40
0.0
 40
0.5
 40
0.5
 40
1.0
 40
1.0
 40
1.0
 40
1.0
 10
26.4576557627266
 20
0.5369114476231779
 30
0.0
 10
26.0918068816124
 20
0.7471274990973331
 30
0.0
 10
25.72279264571677
 20
0.956350692811816
 30
0.0
 10
24.98823982440203
 20
1.367229728177087
 30
0.0
 10
24.62464591612994
 20
1.568545685913418
 30
0.0
 10
24.25728184866014
 20
1.765310379820715
 30
0.0
  0
SPLINE
  5
108
330
1F
100
AcDbEntity
  8
외형선
  6
Continuous
 62
     1
370
    15
100
AcDbSpline
210
0.0
220
0.0
230
1.0
 70
     8
 71
     3
 72
    14
 73
    10
 74
     0
 42
0.000000001
 43
0.00000001
 40
0.0
 40
0.0
 40
0.0
 40
0.0
 40
0.0000586726820656
 40
0.0000586726820656
 40
0.0000586726820656
 40
0.0001173113611444
 40
0.0001173113611444
 40
0.0001173113611444
 40
0.0002030496472765
 40
0.0002030496472765
 40
0.0002030496472765
 40
0.0002030496472765
 10
26.62202292373866
 20
0.4303284002120596
 30
0.0
 10
26.60816321289749
 20
0.4405674232362855
 30
0.0
 10
26.59340609056936
 20
0.4510145542934374
 30
0.0
 10
26.57811103996769
 20
0.4614502141127254
 30
0.0
 10
26.56282154352083
 20
0.4718820843878269
 30
0.0
 10
26.5468906696917
 20
0.4823735828168398
 30
0.0
 10
26.53063726915981
 20
0.4927209996132462
 30
0.0
 10
26.50695491002402
 20
0.5077979209146924
 30
0.0
 10
26.48231387919108
 20
0.5227429427715318
 30
0.0
 10
26.45765391097348
 20
0.5369125116368753
 30
0.0
  0
SPLINE
  5
109
330
1F
100
AcDbEntity
  8
외형선
  6
Continuous
 62
     1
370
    15
100
AcDbSpline
210
0.0
220
0.0
230
1.0
 70
     8
 71
     3
 72
    10
 73
     6
 74
     0
 42
0.000000001
 43
0.00000001
 40
0.0
 40
0.0
 40
0.0
 40
0.0
 40
0.5
 40
0.5
 40
1.0
 40
1.0
 40
1.0
 40
1.0
 10
27.27699567733808
 20
0.0565660579437058
 30
0.0
 10
27.1769335661711
 20
0.1023107579168634
 30
0.0
 10
27.05881530554971
 20
0.1604892679945129
 30
0.0
 10
26.82795447848939
 20
0.2899675071150508
 30
0.0
 10
26.71630115825261
 20
0.3606792549353712
 30
0.0
 10
26.62202292373917
 20
0.4303284002120175
 30
0.0
  0
SPLINE
  5
10A
330
1F
100
AcDbEntity
  8
외형선
  6
Continuous
 62
     1
370
    15
100
AcDbSpline
210
0.0
220
0.0
230
1.0
 70
     8
 71
     3
 72
     8
 73
     4
 74
     0
 42
0.000000001
 43
0.00000001
 40
0.0
 40
0.0
 40
0.0
 40
0.0
 40
1.0
 40
1.0
 40
1.0
 40
1.0
 10
27.44005621661995
 20
-0.0296722783870788
 30
0.0
 10
27.38351832795498
 20
0.0029067113324578
 30
0.0
 10
27.32602960474735
 20
0.034149558114887
 30
0.0
 10
27.27699567733845
 20
0.0565660579435339
 30
0.0
  0
SPLINE
  5
10B
330
1F
100
AcDbEntity
  8
외형선
  6
Continuous
 62
     1
370
    15
100
AcDbSpline
210
0.0
220
0.0
230
1.0
 70
     8
 71
     3
 72
     8
 73
     4
 74
     0
 42
0.000000001
 43
0.00000001
 40
0.0
 40
0.0
 40
0.0
 40
0.0
 40
1.0
 40
1.0
 40
1.0
 40
1.0
 10
32.22499999999999
 20
-2.252541109290004
 30
0.0
 10
31.8721729717058
 20
-2.213671453869125
 30
0.0
 10
31.50187026229293
 20
-2.157226521287496
 30
0.0
 10
31.125
 20
-2.084183161461003
 30
0.0
  0
SPLINE
  5
10C
330
1F
100
AcDbEntity
  8
외형선
  6
Continuous
 62
     1
370
    15
100
AcDbSpline
210
0.0
220
0.0
230
1.0
 70
     8
 71
     3
 72
    10
 73
     6
 74
     0
 42
0.000000001
 43
0.00000001
 40
0.0
 40
0.0
 40
0.0
 40
0.0
 40
0.3735198585361011
 40
0.6851841356095063
 40
0.9999999999999999
 40
0.9999999999999999
 40
0.9999999999999999
 40
0.9999999999999999
 10
31.41440107468106
 20
-2.134424761274707
 30
0.0
 10
31.32906387959086
 20
-2.15609063223651
 30
0.0
 10
31.17252148722015
 20
-2.195834465738082
 30
0.0
 10
30.92418587560086
 20
-2.290851108712793
 30
0.0
 10
30.76395632252943
 20
-2.363918136158182
 30
0.0
 10
30.6834385185122
 20
-2.40063543632657
 30
0.0
  0
SPLINE
  5
10D
330
1F
100
AcDbEntity
  8
외형선
  6
Continuous
 62
     1
370
    15
100
AcDbSpline
210
0.0
220
0.0
230
1.0
 70
     8
 71
     3
 72
     8
 73
     4
 74
     0
 42
0.000000001
 43
0.00000001
 40
0.0
 40
0.0
 40
0.0
 40
0.0
 40
1.0
 40
1.0
 40
1.0
 40
1.0
 10
32.22499999999999
 20
-2.784196431186867
 30
0.0
 10
31.6979284003562
 20
-2.703525848157298
 30
0.0
 10
31.18454323427957
 20
-2.573999217926015
 30
0.0
 10
30.68343851851154
 20
-2.400635436329305
 30
0.0
  0
LINE
  5
10E
330
1F
100
AcDbEntity
  8
외형선
  6
Continuous
 62
     1
370
    15
100
AcDbLine
 10
32.22499999999999
 20
-3.394707684422255
 30
0.0
 11
32.22499999999999
 21
-2.784196431186864
 31
0.0
  0
SPLINE
  5
10F
330
1F
100
AcDbEntity
  8
외형선
  6
Continuous
 62
     1
370
    15
100
AcDbSpline
210
0.0
220
0.0
230
1.0
 70
     8
 71
     3
 72
    10
 73
     6
 74
     0
 42
0.000000001
 43
0.00000001
 40
0.0
 40
0.0
 40
0.0
 40
0.0
 40
0.5
 40
0.5
 40
1.0
 40
1.0
 40
1.0
 40
1.0
 10
31.18419404769607
 20
-4.444746103234365
 30
0.0
 10
31.35339085957523
 20
-4.26113839519947
 30
0.0
 10
31.52400279335021
 20
-4.080835580323146
 30
0.0
 10
31.87045045491789
 20
-3.729496102605438
 30
0.0
 10
32.04746171975732
 20
-3.557401263544143
 30
0.0
 10
32.22499999999999
 20
-3.394707684422288
 30
0.0
  0
SPLINE
  5
110
330
1F
100
AcDbEntity
  8
외형선
  6
Continuous
 62
     1
370
    15
100
AcDbSpline
210
0.0
220
0.0
230
1.0
 70
     8
 71
     3
 72
    10
 73
     6
 74
     0
 42
0.000000001
 43
0.00000001
 40
0.0
 40
0.0
 40
0.0
 40
0.0
 40
0.5
 40
0.5
 40
1.0
 40
1.0
 40
1.0
 40
1.0
 10
30.53718761276696
 20
-4.557012943254736
 30
0.0
 10
30.63717634128554
 20
-4.472838727262982
 30
0.0
 10
30.75524056505352
 20
-4.424990404870255
 30
0.0
 10
30.98615928289459
 20
-4.390834328661953
 30
0.0
 10
31.09796068393167
 20
-4.404081331371721
 30
0.0
 10
31.19236922700644
 20
-4.448490631026998
 30
0.0
  0
SPLINE
  5
111
330
1F
100
AcDbEntity
  8
외형선
  6
Continuous
 62
     1
370
    15
100
AcDbSpline
210
0.0
220
0.0
230
1.0
 70
     8
 71
     3
 72
     8
 73
     4
 74
     0
 42
0.000000001
 43
0.00000001
 40
0.0
 40
0.0
 40
0.0
 40
0.0
 40
1.0
 40
1.0
 40
1.0
 40
1.0
 10
30.37420783604025
 20
-4.629856851849596
 30
0.0
 10
30.43069243584274
 20
-4.622181639327501
 30
0.0
 10
30.48815445867854
 20
-4.598290868918416
 30
0.0
 10
30.53718761276696
 20
-4.557012943254738
 30
0.0
  0
SPLINE
  5
112
330
1F
100
AcDbEntity
  8
외형선
  6
Continuous
 62
     1
370
    15
100
AcDbSpline
210
0.0
220
0.0
230
1.0
 70
     8
 71
     3
 72
    10
 73
     6
 74
     0
 42
0.000000001
 43
0.00000001
 40
0.0
 40
0.0
 40
0.0
 40
0.0
 40
0.5
 40
0.5
 40
1.0
 40
1.0
 40
1.0
 40
1.0
 10
30.37420578524856
 20
-4.629857130514109
 30
0.0
 10
30.00968635436817
 20
-4.679388530073476
 30
0.0
 10
29.64106089713325
 20
-4.715368294922639
 30
0.0
 10
28.90534704590486
 20
-4.759017428301772
 30
0.0
 10
28.54101051730648
 20
-4.766722639169274
 30
0.0
 10
28.17437478090121
 20
-4.760327531610164
 30
0.0
  0
SPLINE
  5
113
330
1F
100
AcDbEntity
  8
외형선
  6
Continuous
370
    15
100
AcDbSpline
210
0.0
220
0.0
230
1.0
 70
    24
 71
     3
 72
    10
 73
     6
 74
     0
 42
0.000000001
 43
0.00000001
 40
0.0
 40
0.0
 40
0.0
 40
0.0
 40
0.352963511514752
 40
0.8166017704638396
 40
1.0
 40
1.0
 40
1.0
 40
1.0
 10
9.999999999999991
 20
4.091559449950964
 30
0.0
 10
9.999999999999991
 20
3.938758581660845
 30
0.0
 10
9.999999999999995
 20
3.585244817479849
 30
0.0
 10
9.999999999999984
 20
3.205028610082144
 30
0.0
 10
9.999999999999988
 20
3.025327025199556
 30
0.0
 10
9.999999999999988
 20
2.974391794963217
 30
0.0
  0
SPLINE
  5
114
330
1F
100
AcDbEntity
  8
외형선
  6
Continuous
 62
     1
370
    15
100
AcDbSpline
210
0.0
220
0.0
230
1.0
 70
     8
 71
     3
 72
    12
 73
     8
 74
     0
 42
0.000000001
 43
0.00000001
 40
0.0
 40
0.0
 40
0.0
 40
0.0
 40
0.4999999999999996
 40
0.4999999999999996
 40
0.7499999999999998
 40
0.7499999999999998
 40
1.0
 40
1.0
 40
1.0
 40
1.0
 10
24.25728171096777
 20
1.765311592121292
 30
0.0
 10
24.20136401510949
 20
2.276255942298562
 30
0.0
 10
24.14441419140513
 20
2.75352362042474
 30
0.0
 10
24.06475407570608
 20
3.360706976190473
 30
0.0
 10
24.0387483603874
 20
3.546680313670058
 30
0.0
 10
23.9840531204146
 20
3.888049533618647
 30
0.0
 10
23.95603625496651
 20
4.041651934445367
 30
0.0
 10
23.92796594883401
 20
4.174253328262766
 30
0.0
  0
SPLINE
  5
115
330
1F
100
AcDbEntity
  8
외형선
  6
Continuous
 62
     1
370
    15
100
AcDbSpline
210
0.0
220
0.0
230
1.0
 70
     8
 71
     3
 72
    10
 73
     6
 74
     0
 42
0.000000001
 43
0.00000001
 40
0.0
 40
0.0
 40
0.0
 40
0.0
 40
0.4999999999999999
 40
0.4999999999999999
 40
1.0
 40
1.0
 40
1.0
 40
1.0
 10
26.12964521240797
 20
3.421960826709996
 30
0.0
 10
25.76228482265277
 20
3.569323446526874
 30
0.0
 10
25.39321963555679
 20
3.706706794855477
 30
0.0
 10
24.66148996819421
 20
3.957949062880844
 30
0.0
 10
24.29591546614021
 20
4.072192328765697
 30
0.0
 10
23.92796589266981
 20
4.174252089112004
 30
0.0
  0
SPLINE
  5
116
330
1F
100
AcDbEntity
  8
외형선
  6
Continuous
 62
     1
370
    15
100
AcDbSpline
210
0.0
220
0.0
230
1.0
 70
     8
 71
     3
 72
    14
 73
    10
 74
     0
 42
0.000000001
 43
0.00000001
 40
0.0
 40
0.0
 40
0.0
 40
0.0
 40
0.2500000000000001
 40
0.2500000000000001
 40
0.5000000000000001
 40
0.5000000000000001
 40
0.7500000000000002
 40
0.7500000000000002
 40
1.0
 40
1.0
 40
1.0
 40
1.0
 10
26.45765412447408
 20
0.5369103411919866
 30
0.0
 10
26.43123703620553
 20
0.8054661901366189
 30
0.0
 10
26.40484804808112
 20
1.071391254963188
 30
0.0
 10
26.34980599646187
 20
1.597359740772591
 30
0.0
 10
26.32167115133634
 20
1.85561607613688
 30
0.0
 10
26.26542185797886
 20
2.350766886568342
 30
0.0
 10
26.2373137321252
 20
2.587605901379299
 30
0.0
 10
26.18237465293033
 20
3.029816889208391
 30
0.0
 10
26.15614427850422
 20
3.233789495378074
 30
0.0
 10
26.12964602505324
 20
3.421959403843037
 30
0.0
  0
SPLINE
  5
117
330
1F
100
AcDbEntity
  8
외형선
  6
Continuous
 62
     1
370
    15
100
AcDbSpline
210
0.0
220
0.0
230
1.0
 70
     8
 71
     3
 72
     8
 73
     4
 74
     0
 42
0.000000001
 43
0.00000001
 40
0.0
 40
0.0
 40
0.0
 40
0.0
 40
1.0
 40
1.0
 40
1.0
 40
1.0
 10
15.76440740089553
 20
-3.013981185282826
 30
0.0
 10
15.70783324974369
 20
-2.988646105886745
 30
0.0
 10
15.65031380932832
 20
-2.953627016019874
 30
0.0
 10
15.60123033996665
 20
-2.912847633747688
 30
0.0
  0
LINE
  5
118
330
1F
100
AcDbEntity
  8
외형선
  6
Continuous
 62
     1
370
    15
100
AcDbLine
 10
17.10392588455003
 20
-3.567629101050484
 30
0.0
 11
16.49877023937008
 21
-3.794625732367452
 31
0.0
  0
SPLINE
  5
119
330
1F
100
AcDbEntity
  8
외형선
  6
Continuous
 62
     1
370
    15
100
AcDbSpline
210
0.0
220
0.0
230
1.0
 70
     8
 71
     3
 72
    14
 73
    10
 74
     0
 42
0.000000001
 43
0.00000001
 40
0.0
 40
0.0
 40
0.0
 40
0.0
 40
0.0000586782451522
 40
0.0000586782451522
 40
0.0000586782451522
 40
0.0001173222527949
 40
0.0001173222527949
 40
0.0001173222527949
 40
0.0002031084791099
 40
0.0002031084791099
 40
0.0002031084791099
 40
0.0002031084791099
 10
16.33416375228611
 20
-3.812182008344263
 30
0.0
 10
16.34804595330997
 20
-3.814925122214944
 30
0.0
 10
16.36282604566282
 20
-3.816325210710526
 30
0.0
 10
16.37814350657057
 20
-3.816428833210738
 30
0.0
 10
16.39345537000102
 20
-3.816532417844061
 30
0.0
 10
16.4094081655399
 20
-3.815342641884794
 30
0.0
 10
16.42568235138596
 20
-3.8129253779584
 30
0.0
 10
16.44940615140603
 20
-3.809401595784106
 30
0.0
 10
16.47408703984011
 20
-3.803219207123781
 30
0.0
 10
16.49878381430783
 20
-3.79462100624764
 30
0.0
  0
SPLINE
  5
11A
330
1F
100
AcDbEntity
  8
외형선
  6
Continuous
 62
     1
370
    15
100
AcDbSpline
210
0.0
220
0.0
230
1.0
 70
     8
 71
     3
 72
    10
 73
     6
 74
     0
 42
0.000000001
 43
0.00000001
 40
0.0
 40
0.0
 40
0.0
 40
0.0
 40
0.5
 40
0.5
 40
1.0
 40
1.0
 40
1.0
 40
1.0
 10
15.67840047101291
 20
-4.01967440431406
 30
0.0
 10
15.77850689339695
 20
-3.931407694697571
 30
0.0
 10
15.89665991144952
 20
-3.871657178226963
 30
0.0
 10
16.12774855675731
 20
-3.80281367791235
 30
0.0
 10
16.23966746705456
 20
-3.793509603996749
 30
0.0
 10
16.3341637522859
 20
-3.812182008344128
 30
0.0
  0
SPLINE
  5
11B
330
1F
100
AcDbEntity
  8
외형선
  6
Continuous
 62
     1
370
    15
100
AcDbSpline
210
0.0
220
0.0
230
1.0
 70
     8
 71
     3
 72
     8
 73
     4
 74
     0
 42
0.000000001
 43
0.00000001
 40
0.0
 40
0.0
 40
0.0
 40
0.0
 40
1.0
 40
1.0
 40
1.0
 40
1.0
 10
15.51515045803081
 20
-4.110086463233992
 30
0.0
 10
15.5717346557325
 20
-4.093524114768069
 30
0.0
 10
15.62927441807926
 20
-4.062990257039903
 30
0.0
 10
15.67840047101291
 20
-4.019674404314057
 30
0.0
  0
SPLINE
  5
11C
330
1F
100
AcDbEntity
  8
외형선
  6
Continuous
 62
     1
370
    15
100
AcDbSpline
210
0.0
220
0.0
230
1.0
 70
     8
 71
     3
 72
    10
 73
     6
 74
     0
 42
0.000000001
 43
0.00000001
 40
0.0
 40
0.0
 40
0.0
 40
0.0
 40
0.5000000000000001
 40
0.5000000000000001
 40
1.0
 40
1.0
 40
1.0
 40
1.0
 10
15.5151504273672
 20
-4.110086472209027
 30
0.0
 10
15.14984631690701
 20
-4.217011977529345
 30
0.0
 10
14.78064257134599
 20
-4.312085434293575
 30
0.0
 10
14.04425433687233
 20
-4.475797579880013
 30
0.0
 10
13.67980144706493
 20
-4.544322452489206
 30
0.0
 10
13.31250637707665
 20
-4.599347258405951
 30
0.0
  0
SPLINE
  5
11D
330
1F
100
AcDbEntity
  8
외형선
  6
Continuous
 62
     1
370
    15
100
AcDbSpline
210
0.0
220
0.0
230
1.0
 70
     8
 71
     3
 72
    14
 73
    10
 74
     0
 42
0.000000001
 43
0.00000001
 40
0.0
 40
0.0
 40
0.0
 40
0.0
 40
0.0000585597302139
 40
0.0000585597302139
 40
0.0000585597302139
 40
0.000117085070227
 40
0.000117085070227
 40
0.000117085070227
 40
0.0002029903237625
 40
0.0002029903237625
 40
0.0002029903237625
 40
0.0002029903237625
 10
13.14805945195304
 20
-4.572965883828769
 30
0.0
 10
13.16190531687109
 20
-4.580587728627261
 30
0.0
 10
13.17664744685801
 20
-4.586758305401581
 30
0.0
 10
13.19192578650653
 20
-4.591435442398444
 30
0.0
 10
13.20719851101099
 20
-4.59611086043902
 30
0.0
 10
13.2231107045964
 20
-4.59932747410627
 30
0.0
 10
13.23934332593003
 20
-4.601072911845884
 30
0.0
 10
13.26308659205054
 20
-4.603625943293897
 30
0.0
 10
13.2877906426637
 20
-4.603049948443595
 30
0.0
 10
13.31250847223441
 20
-4.599346944528333
 30
0.0
  0
SPLINE
  5
11E
330
1F
100
AcDbEntity
  8
외형선
  6
Continuous
 62
     1
370
    15
100
AcDbSpline
210
0.0
220
0.0
230
1.0
 70
     8
 71
     3
 72
    10
 73
     6
 74
     0
 42
0.000000001
 43
0.00000001
 40
0.0
 40
0.0
 40
0.0
 40
0.0
 40
0.4999999999999993
 40
0.4999999999999993
 40
1.0
 40
1.0
 40
1.0
 40
1.0
 10
12.49381189520023
 20
-4.647565010579847
 30
0.0
 10
12.59366406554875
 20
-4.566271784975688
 30
0.0
 10
12.71160760923197
 20
-4.523111851319366
 30
0.0
 10
12.94225395259865
 20
-4.50079959947221
 30
0.0
 10
13.05385362552229
 20
-4.521107643666524
 30
0.0
 10
13.14805945195289
 20
-4.572965883828596
 30
0.0
  0
SPLINE
  5
11F
330
1F
100
AcDbEntity
  8
외형선
  6
Continuous
 62
     1
370
    15
100
AcDbSpline
210
0.0
220
0.0
230
1.0
 70
     8
 71
     3
 72
     8
 73
     4
 74
     0
 42
0.000000001
 43
0.00000001
 40
0.0
 40
0.0
 40
0.0
 40
0.0
 40
1.0
 40
1.0
 40
1.0
 40
1.0
 10
12.33099644486841
 20
-4.713412676652881
 30
0.0
 10
12.38744651665472
 20
-4.708748014910334
 30
0.0
 10
12.4448566658791
 20
-4.6874212148848
 30
0.0
 10
12.49381189520023
 20
-4.647565010579827
 30
0.0
  0
SPLINE
  5
120
330
1F
100
AcDbEntity
  8
외형선
  6
Continuous
 62
     1
370
    15
100
AcDbSpline
210
0.0
220
0.0
230
1.0
 70
     8
 71
     3
 72
    10
 73
     6
 74
     0
 42
0.000000001
 43
0.00000001
 40
0.0
 40
0.0
 40
0.0
 40
0.0
 40
0.4999999999999999
 40
0.4999999999999999
 40
1.0
 40
1.0
 40
1.0
 40
1.0
 10
12.3309930625535
 20
-4.713412956144593
 30
0.0
 10
11.96365668923724
 20
-4.743767126812273
 30
0.0
 10
11.599668205869
 20
-4.760064611659756
 30
0.0
 10
10.86399761091252
 20
-4.764430665402071
 30
0.0
 10
10.49485639144165
 20
-4.752390697396788
 30
0.0
 10
10.1293167301898
 20
-4.726375825671873
 30
0.0
  0
SPLINE
  5
121
330
1F
100
AcDbEntity
  8
외형선
  6
Continuous
370
    15
100
AcDbSpline
210
0.0
220
0.0
230
1.0
 70
     8
 71
     3
 72
     8
 73
     4
 74
     0
 42
0.000000001
 43
0.00000001
 40
0.0
 40
0.0
 40
0.0
 40
0.0
 40
1.0
 40
1.0
 40
1.0
 40
1.0
 10
9.999999999999991
 20
-4.684939209219086
 30
0.0
 10
10.04017736830587
 20
-4.709159286682868
 30
0.0
 10
10.08419191131282
 20
-4.723164368745145
 30
0.0
 10
10.12931801454641
 20
-4.726375917077418
 30
0.0
  0
SPLINE
  5
122
330
1F
100
AcDbEntity
  8
외형선
  6
Continuous
 62
     1
370
    15
100
AcDbSpline
210
0.0
220
0.0
230
1.0
 70
     8
 71
     3
 72
    14
 73
    10
 74
     0
 42
0.000000001
 43
0.00000001
 40
0.0
 40
0.0
 40
0.0
 40
0.0
 40
0.0000586421269075
 40
0.0000586421269075
 40
0.0000586421269075
 40
0.0001172497728785
 40
0.0001172497728785
 40
0.0001172497728785
 40
0.000203124750518
 40
0.000203124750518
 40
0.000203124750518
 40
0.000203124750518
 10
18.13219829954015
 20
-3.894486779716745
 30
0.0
 10
18.11832652102467
 20
-3.897638917878241
 30
0.0
 10
18.10355742863181
 20
-3.899431775588611
 30
0.0
 10
18.0882517151575
 20
-3.899905215581324
 30
0.0
 10
18.07295163508023
 20
-3.900378481320451
 30
0.0
 10
18.05701148739722
 20
-3.899538019606109
 30
0.0
 10
18.04075072907538
 20
-3.897444196403828
 30
0.0
 10
18.01700755354742
 20
-3.894386896686784
 30
0.0
 10
17.99230628823076
 20
-3.888612408207153
 30
0.0
 10
17.96759055758458
 20
-3.880347982196926
 30
0.0
  0
SPLINE
  5
123
330
1F
100
AcDbEntity
  8
외형선
  6
Continuous
 62
     1
370
    15
100
AcDbSpline
210
0.0
220
0.0
230
1.0
 70
     8
 71
     3
 72
    10
 73
     6
 74
     0
 42
0.000000001
 43
0.00000001
 40
0.0
 40
0.0
 40
0.0
 40
0.0
 40
0.5
 40
0.5
 40
1.0
 40
1.0
 40
1.0
 40
1.0
 10
18.78719339416895
 20
-4.091895691732421
 30
0.0
 10
18.68722534451037
 20
-4.003817903656113
 30
0.0
 10
18.56916457823475
 20
-3.945180364749152
 30
0.0
 10
18.33828509318056
 20
-3.879915074100642
 30
0.0
 10
18.22654693730874
 20
-3.873047571956635
 30
0.0
 10
18.13219829954015
 20
-3.894486779716743
 30
0.0
  0
SPLINE
  5
124
330
1F
100
AcDbEntity
  8
외형선
  6
Continuous
 62
     1
370
    15
100
AcDbSpline
210
0.0
220
0.0
230
1.0
 70
     8
 71
     3
 72
     8
 73
     4
 74
     0
 42
0.000000001
 43
0.00000001
 40
0.0
 40
0.0
 40
0.0
 40
0.0
 40
1.0
 40
1.0
 40
1.0
 40
1.0
 10
18.95010327559055
 20
-4.180579848302027
 30
0.0
 10
18.89362856361307
 20
-4.164951976325071
 30
0.0
 10
18.83618908279983
 20
-4.135063802890103
 30
0.0
 10
18.78719339416913
 20
-4.09189569173258
 30
0.0
  0
SPLINE
  5
125
330
1F
100
AcDbEntity
  8
외형선
  6
Continuous
 62
     1
370
    15
100
AcDbSpline
210
0.0
220
0.0
230
1.0
 70
     8
 71
     3
 72
    10
 73
     6
 74
     0
 42
0.000000001
 43
0.00000001
 40
0.0
 40
0.0
 40
0.0
 40
0.0
 40
0.5
 40
0.5
 40
1.0
 40
1.0
 40
1.0
 40
1.0
 10
21.15018334282776
 20
-4.634131652306849
 30
0.0
 10
20.78536538636913
 20
-4.585374394427325
 30
0.0
 10
20.4172177891013
 20
-4.522719902613418
 30
0.0
 10
19.68128469399584
 20
-4.370895148760762
 30
0.0
 10
19.31665950688558
 20
-4.28201452439523
 30
0.0
 10
18.95010306133514
 20
-4.180579789012551
 30
0.0
  0
SPLINE
  5
126
330
1F
100
AcDbEntity
  8
외형선
  6
Continuous
 62
     1
370
    15
100
AcDbSpline
210
0.0
220
0.0
230
1.0
 70
     8
 71
     3
 72
    14
 73
    10
 74
     0
 42
0.000000001
 43
0.00000001
 40
0.0
 40
0.0
 40
0.0
 40
0.0
 40
0.0000588121997513
 40
0.0000588121997513
 40
0.0000588121997513
 40
0.000117589445085
 40
0.000117589445085
 40
0.000117589445085
 40
0.0002034840015174
 40
0.0002034840015174
 40
0.0002034840015174
 40
0.0002034840015174
 10
21.31493863175847
 20
-4.604543791667681
 30
0.0
 10
21.30103159171172
 20
-4.612513433230361
 30
0.0
 10
21.28622668926949
 20
-4.619023772092534
 30
0.0
 10
21.2708860932687
 20
-4.624027488852207
 30
0.0
 10
21.25555120467287
 20
-4.629029343999864
 30
0.0
 10
21.23957697213814
 20
-4.632561468987073
 30
0.0
 10
21.22328344982679
 20
-4.634606377305534
 30
0.0
 10
21.19955467951581
 20
-4.637584441769962
 30
0.0
 10
21.17487593644849
 20
-4.637431772307569
 30
0.0
 10
21.15018353227531
 20
-4.634131677626176
 30
0.0
  0
SPLINE
  5
127
330
1F
100
AcDbEntity
  8
외형선
  6
Continuous
 62
     1
370
    15
100
AcDbSpline
210
0.0
220
0.0
230
1.0
 70
     8
 71
     3
 72
    10
 73
     6
 74
     0
 42
0.000000001
 43
0.00000001
 40
0.0
 40
0.0
 40
0.0
 40
0.0
 40
0.5
 40
0.5
 40
1.0
 40
1.0
 40
1.0
 40
1.0
 10
21.97085970963095
 20
-4.668372686736916
 30
0.0
 10
21.87067304680581
 20
-4.588039831075971
 30
0.0
 10
21.75241259186381
 20
-4.546517276960402
 30
0.0
 10
21.52124288949618
 20
-4.527974982781593
 30
0.0
 10
21.40939741361542
 20
-4.550412744995178
 30
0.0
 10
21.31493863175847
 20
-4.604543791667716
 30
0.0
  0
SPLINE
  5
128
330
1F
100
AcDbEntity
  8
외형선
  6
Continuous
 62
     1
370
    15
100
AcDbSpline
210
0.0
220
0.0
230
1.0
 70
     8
 71
     3
 72
     8
 73
     4
 74
     0
 42
0.000000001
 43
0.00000001
 40
0.0
 40
0.0
 40
0.0
 40
0.0
 40
1.0
 40
1.0
 40
1.0
 40
1.0
 10
22.13406229802099
 20
-4.73187355492352
 30
0.0
 10
22.07748297359107
 20
-4.728182439339531
 30
0.0
 10
22.01994523997786
 20
-4.707731027589879
 30
0.0
 10
21.97085970963113
 20
-4.668372686737056
 30
0.0
  0
LINE
  5
129
330
1F
100
AcDbEntity
  8
외형선
  6
Continuous
 62
     1
370
    15
100
AcDbLine
 10
22.13374044087039
 20
-4.731852554060193
 30
0.0
 11
23.06956582010541
 21
-4.752822271962401
 31
0.0
  0
SPLINE
  5
12A
330
1F
100
AcDbEntity
  8
외형선
  6
Continuous
370
    15
100
AcDbSpline
210
0.0
220
0.0
230
1.0
 70
    24
 71
     3
 72
    18
 73
    14
 74
     0
 42
0.000000001
 43
0.00000001
 40
0.0
 40
0.0
 40
0.0
 40
0.0
 40
0.2499999999999998
 40
0.2499999999999998
 40
0.4999999999999998
 40
0.4999999999999998
 40
0.6249999999999998
 40
0.6249999999999998
 40
0.7499999999999998
 40
0.7499999999999998
 40
0.8749999999999998
 40
0.8749999999999998
 40
1.0
 40
1.0
 40
1.0
 40
1.0
 10
9.999999999999991
 20
0.0650046406425819
 30
0.0
 10
9.999999999999991
 20
0.0121586128176285
 30
0.0
 10
9.999999999999991
 20
-0.0914475731229503
 30
0.0
 10
9.999999999999991
 20
-0.4693294056673192
 30
0.0
 10
9.999999999999991
 20
-0.7455438356648869
 30
0.0
 10
9.999999999999991
 20
-1.333074445056556
 30
0.0
 10
9.999999999999991
 20
-1.557506493169742
 30
0.0
 10
9.999999999999991
 20
-2.063054649049397
 30
0.0
 10
9.999999999999991
 20
-2.34424341637881
 30
0.0
 10
9.999999999999991
 20
-2.954199343129104
 30
0.0
 10
9.999999999999991
 20
-3.282942426934969
 30
0.0
 10
9.999999999999991
 20
-3.969110171691265
 30
0.0
 10
9.999999999999991
 20
-4.326384652221761
 30
0.0
 10
9.999999999999991
 20
-4.684939209219086
 30
0.0
  0
SPLINE
  5
12B
330
1F
100
AcDbEntity
  8
외형선
  6
Continuous
 62
     1
370
    15
100
AcDbSpline
210
0.0
220
0.0
230
1.0
 70
     8
 71
     3
 72
    12
 73
     8
 74
     0
 42
0.000000001
 43
0.00000001
 40
0.0
 40
0.0
 40
0.0
 40
0.0
 40
0.2500000000000001
 40
0.2500000000000001
 40
0.5000000000000002
 40
0.5000000000000002
 40
1.0
 40
1.0
 40
1.0
 40
1.0
 10
27.2769956773379
 20
0.0565660579454311
 30
0.0
 10
27.24949498962674
 20
0.3280518605728543
 30
0.0
 10
27.22335514058863
 20
0.5947635019582004
 30
0.0
 10
27.16993161218099
 20
1.123552364640312
 30
0.0
 10
27.14226590748263
 20
1.386832972455877
 30
0.0
 10
27.05817440188049
 20
2.155026082249895
 30
0.0
 10
27.00071441917718
 20
2.636805787307584
 30
0.0
 10
26.94686075907175
 20
3.047868755044615
 30
0.0
  0
SPLINE
  5
12C
330
1F
100
AcDbEntity
  8
외형선
  6
Continuous
 62
     1
370
    15
100
AcDbSpline
210
0.0
220
0.0
230
1.0
 70
     8
 71
     3
 72
    14
 73
    10
 74
     0
 42
0.000000001
 43
0.00000001
 40
0.0
 40
0.0
 40
0.0
 40
0.0
 40
0.0000586164716919
 40
0.0000586164716919
 40
0.0000586164716919
 40
0.00011719869265
 40
0.00011719869265
 40
0.00011719869265
 40
0.0002030362133147
 40
0.0002030362133147
 40
0.0002030362133147
 40
0.0002030362133147
 10
26.94686075905447
 20
3.047868755179898
 30
0.0
 10
26.96071461148313
 20
3.047322861707185
 30
0.0
 10
26.97546576814642
 20
3.045605229519999
 30
0.0
 10
26.9907544927989
 20
3.042815213070658
 30
0.0
 10
27.00603762343832
 20
3.040026217464377
 30
0.0
 10
27.02196168571523
 20
3.036147831421755
 30
0.0
 10
27.03820778411439
 20
3.031291033774724
 30
0.0
 10
27.0619293262108
 20
3.024199440026671
 30
0.0
 10
27.0866121781911
 20
3.014931982099414
 30
0.0
 10
27.11131256822177
 20
3.003869692182371
 30
0.0
  0
SPLINE
  5
12D
330
1F
100
AcDbEntity
  8
외형선
  6
Continuous
 62
     1
370
    15
100
AcDbSpline
210
0.0
220
0.0
230
1.0
 70
     8
 71
     3
 72
     8
 73
     4
 74
     0
 42
0.000000001
 43
0.00000001
 40
0.0
 40
0.0
 40
0.0
 40
0.0
 40
1.0
 40
1.0
 40
1.0
 40
1.0
 10
29.56304378950172
 20
4.602347198968782
 30
0.0
 10
29.50648903720249
 20
4.59396763796514
 30
0.0
 10
29.44897653766855
 20
4.569497636630371
 30
0.0
 10
29.39991859220565
 20
4.527960756807193
 30
0.0
  0
SPLINE
  5
12E
330
1F
100
AcDbEntity
  8
외형선
  6
Continuous
 62
     1
370
    15
100
AcDbSpline
210
0.0
220
0.0
230
1.0
 70
     8
 71
     3
 72
     8
 73
     4
 74
     0
 42
0.000000001
 43
0.00000001
 40
0.0
 40
0.0
 40
0.0
 40
0.0
 40
1.0
 40
1.0
 40
1.0
 40
1.0
 10
31.1250000000001
 20
4.750620952275484
 30
0.0
 10
30.60258478639017
 20
4.729371012828617
 30
0.0
 10
30.08555788357203
 20
4.67976667871045
 30
0.0
 10
29.56304339956505
 20
4.602347141192941
 30
0.0
  0
SPLINE
  5
12F
330
1F
100
AcDbEntity
  8
외형선
  6
Continuous
 62
     1
370
    15
100
AcDbSpline
210
0.0
220
0.0
230
1.0
 70
     8
 71
     3
 72
     8
 73
     4
 74
     0
 42
0.000000001
 43
0.00000001
 40
0.0
 40
0.0
 40
0.0
 40
0.0
 40
1.0
 40
1.0
 40
1.0
 40
1.0
 10
32.22499999999999
 20
3.627265076973852
 30
0.0
 10
31.8721729717058
 20
4.021600993925667
 30
0.0
 10
31.50187026229293
 20
4.393371914127951
 30
0.0
 10
31.125
 20
4.750620952275479
 30
0.0
  0
LINE
  5
130
330
1F
100
AcDbEntity
  8
외형선
  6
Continuous
 62
     1
370
    15
100
AcDbLine
 10
32.22499999999999
 20
3.083737631391741
 30
0.0
 11
32.22499999999999
 21
3.627265076973852
 31
0.0
  0
SPLINE
  5
131
330
1F
100
AcDbEntity
  8
외형선
  6
Continuous
 62
     1
370
    15
100
AcDbSpline
210
0.0
220
0.0
230
1.0
 70
     8
 71
     3
 72
    12
 73
     8
 74
     0
 42
0.000000001
 43
0.00000001
 40
0.0
 40
0.0
 40
0.0
 40
0.0
 40
0.25
 40
0.25
 40
0.5
 40
0.5
 40
1.0
 40
1.0
 40
1.0
 40
1.0
 10
32.22499999999999
 20
3.083737631391748
 30
0.0
 10
32.1465309272176
 20
2.904524724964046
 30
0.0
 10
32.05402628026823
 20
2.738489621723902
 30
0.0
 10
31.83944002994748
 20
2.434188803654805
 30
0.0
 10
31.71577090346047
 20
2.295026508004925
 30
0.0
 10
31.31707244545563
 20
1.940226661608798
 30
0.0
 10
31.00566539088915
 20
1.779028486456494
 30
0.0
 10
30.68343851851196
 20
1.694338970691256
 30
0.0
  0
SPLINE
  5
132
330
1F
100
AcDbEntity
  8
외형선
  6
Continuous
 62
     1
370
    15
100
AcDbSpline
210
0.0
220
0.0
230
1.0
 70
     8
 71
     3
 72
     8
 73
     4
 74
     0
 42
0.000000001
 43
0.00000001
 40
0.0
 40
0.0
 40
0.0
 40
0.0
 40
1.0
 40
1.0
 40
1.0
 40
1.0
 10
32.22499999999999
 20
0.9186882131466299
 30
0.0
 10
31.69792840035619
 20
1.205300908192388
 30
0.0
 10
31.18454323427952
 20
1.462856153808302
 30
0.0
 10
30.68343851851147
 20
1.694338970689037
 30
0.0
  0
LINE
  5
133
330
1F
100
AcDbEntity
  8
외형선
  6
Continuous
 62
     1
370
    15
100
AcDbLine
 10
32.22499999999999
 20
0.5068079630055785
 30
0.0
 11
32.22499999999999
 21
0.918688213146629
 31
0.0
  0
SPLINE
  5
134
330
1F
100
AcDbEntity
  8
외형선
  6
Continuous
 62
     1
370
    15
100
AcDbSpline
210
0.0
220
0.0
230
1.0
 70
     8
 71
     3
 72
    10
 73
     6
 74
     0
 42
0.000000001
 43
0.00000001
 40
0.0
 40
0.0
 40
0.0
 40
0.0
 40
0.5
 40
0.5
 40
1.0
 40
1.0
 40
1.0
 40
1.0
 10
31.12499999999999
 20
0.9273558581283026
 30
0.0
 10
31.30373768046527
 20
0.8136105249263925
 30
0.0
 10
31.48390804008796
 20
0.7199193276479869
 30
0.0
 10
31.849937771452
 20
0.5770763858090365
 30
0.0
 10
32.03709983285012
 20
0.5276050447718367
 30
0.0
 10
32.22499999999999
 20
0.5068079630055643
 30
0.0
  0
SPLINE
  5
135
330
1F
100
AcDbEntity
  8
외형선
  6
Continuous
 62
     1
370
    15
100
AcDbSpline
210
0.0
220
0.0
230
1.0
 70
     8
 71
     3
 72
    10
 73
     6
 74
     0
 42
0.000000001
 43
0.00000001
 40
0.0
 40
0.0
 40
0.0
 40
0.0
 40
0.5
 40
0.5
 40
1.0
 40
1.0
 40
1.0
 40
1.0
 10
26.29247437592873
 20
3.323347623022171
 30
0.0
 10
26.3924158571559
 20
3.237483283328764
 30
0.0
 10
26.51041321139456
 20
3.171831745462228
 30
0.0
 10
26.74100123108082
 20
3.078843198567816
 30
0.0
 10
26.85259006349799
 20
3.051583372296673
 30
0.0
 10
26.94686075905406
 20
3.04786875517969
 30
0.0
  0
SPLINE
  5
136
330
1F
100
AcDbEntity
  8
외형선
  6
Continuous
 62
     1
370
    15
100
AcDbSpline
210
0.0
220
0.0
230
1.0
 70
     8
 71
     3
 72
     8
 73
     4
 74
     0
 42
0.000000001
 43
0.00000001
 40
0.0
 40
0.0
 40
0.0
 40
0.0
 40
1.0
 40
1.0
 40
1.0
 40
1.0
 10
26.12964586134314
 20
3.421960566397463
 30
0.0
 10
26.18611207871848
 20
3.399309756289042
 30
0.0
 10
26.24352049221362
 20
3.36540616417034
 30
0.0
 10
26.29247437592763
 20
3.323347623023113
 30
0.0
  0
SPLINE
  5
137
330
1F
100
AcDbEntity
  8
외형선
  6
Continuous
 62
     1
370
    15
100
AcDbSpline
210
0.0
220
0.0
230
1.0
 70
     8
 71
     3
 72
    14
 73
    10
 74
     0
 42
0.000000001
 43
0.00000001
 40
0.0
 40
0.0
 40
0.0
 40
0.0
 40
0.0000587306811025
 40
0.0000587306811025
 40
0.0000587306811025
 40
0.0001174268903101
 40
0.0001174268903101
 40
0.0001174268903101
 40
0.0002032418961792
 40
0.0002032418961792
 40
0.0002032418961792
 40
0.0002032418961792
 10
23.76322333997553
 20
4.17512306855691
 30
0.0
 10
23.77712104332373
 20
4.179808658681978
 30
0.0
 10
23.79191722142928
 20
4.183082569005727
 30
0.0
 10
23.80725072477363
 20
4.18495837365244
 30
0.0
 10
23.82257859211336
 20
4.18683348882569
 30
0.0
 10
23.83854743589872
 20
4.187325871792191
 30
0.0
 10
23.85483744093846
 20
4.186472485719812
 30
0.0
 10
23.87857142667662
 20
4.185229131109327
 30
0.0
 10
23.90326088695231
 20
4.181104623624823
 30
0.0
 10
23.92796623101562
 20
4.174251995263565
 30
0.0
  0
SPLINE
  5
138
330
1F
100
AcDbEntity
  8
외형선
  6
Continuous
 62
     1
370
    15
100
AcDbSpline
210
0.0
220
0.0
230
1.0
 70
     8
 71
     3
 72
    10
 73
     6
 74
     0
 42
0.000000001
 43
0.00000001
 40
0.0
 40
0.0
 40
0.0
 40
0.0
 40
0.5000000000000002
 40
0.5000000000000002
 40
1.0
 40
1.0
 40
1.0
 40
1.0
 10
23.10731265425112
 20
4.334907740631731
 30
0.0
 10
23.2074365337504
 20
4.247730297421273
 30
0.0
 10
23.32561928843128
 20
4.193350703861703
 30
0.0
 10
23.5567594879884
 20
4.141276695545169
 30
0.0
 10
23.66869151972082
 20
4.143251805197671
 30
0.0
 10
23.76322333997511
 20
4.175123068556617
 30
0.0
  0
SPLINE
  5
139
330
1F
100
AcDbEntity
  8
외형선
  6
Continuous
 62
     1
370
    15
100
AcDbSpline
210
0.0
220
0.0
230
1.0
 70
     8
 71
     3
 72
     8
 73
     4
 74
     0
 42
0.000000001
 43
0.00000001
 40
0.0
 40
0.0
 40
0.0
 40
0.0
 40
1.0
 40
1.0
 40
1.0
 40
1.0
 10
22.94409649641561
 20
4.417426822655955
 30
0.0
 10
23.00066343614923
 20
4.405174474548384
 30
0.0
 10
23.05819704947488
 20
4.377672492332351
 30
0.0
 10
23.10731265425003
 20
4.334907740632639
 30
0.0
  0
SPLINE
  5
13A
330
1F
100
AcDbEntity
  8
외형선
  6
Continuous
 62
     1
370
    15
100
AcDbSpline
210
0.0
220
0.0
230
1.0
 70
     8
 71
     3
 72
    10
 73
     6
 74
     0
 42
0.000000001
 43
0.00000001
 40
0.0
 40
0.0
 40
0.0
 40
0.0
 40
0.5
 40
0.5
 40
1.0
 40
1.0
 40
1.0
 40
1.0
 10
22.94409477879013
 20
4.417427194691547
 30
0.0
 10
22.57940444850853
 20
4.49641874838699
 30
0.0
 10
22.21071484893584
 20
4.562588002005834
 30
0.0
 10
21.47511438984815
 20
4.667297508392576
 30
0.0
 10
21.11095450411053
 20
4.705797760545291
 30
0.0
 10
20.7442173046273
 20
4.730358702280817
 30
0.0
  0
SPLINE
  5
13B
330
1F
100
AcDbEntity
  8
외형선
  6
Continuous
 62
     1
370
    15
100
AcDbSpline
210
0.0
220
0.0
230
1.0
 70
     8
 71
     3
 72
    14
 73
    10
 74
     0
 42
0.000000001
 43
0.00000001
 40
0.0
 40
0.0
 40
0.0
 40
0.0
 40
0.0000585950697937
 40
0.0000585950697937
 40
0.0000585950697937
 40
0.0001171559814346
 40
0.0001171559814346
 40
0.0001171559814346
 40
0.0002029747007883
 40
0.0002029747007883
 40
0.0002029747007883
 40
0.0002029747007883
 10
20.57978941876159
 20
4.688008900559779
 30
0.0
 10
20.59364424443958
 20
4.697222378446528
 30
0.0
 10
20.60839545497672
 20
4.704998293382746
 30
0.0
 10
20.62368306284682
 20
4.711261478217763
 30
0.0
 10
20.63896509079519
 20
4.717522377012905
 30
0.0
 10
20.65488687194881
 20
4.722315997040263
 30
0.0
 10
20.67112923455239
 20
4.725599317797333
 30
0.0
 10
20.6948487056715
 20
4.730394102507713
 30
0.0
 10
20.7195265749084
 20
4.732012279538405
 30
0.0
 10
20.74421843693523
 20
4.730358626448412
 30
0.0
  0
SPLINE
  5
13C
330
1F
100
AcDbEntity
  8
외형선
  6
Continuous
 62
     1
370
    15
100
AcDbSpline
210
0.0
220
0.0
230
1.0
 70
     8
 71
     3
 72
    10
 73
     6
 74
     0
 42
0.000000001
 43
0.00000001
 40
0.0
 40
0.0
 40
0.0
 40
0.0
 40
0.3234308318342063
 40
0.777471249172909
 40
1.0
 40
1.0
 40
1.0
 40
1.0
 10
20.13244882762744
 20
4.616324372263358
 30
0.0
 10
20.18343879365827
 20
4.606760874927989
 30
0.0
 10
20.30600976922191
 20
4.583771897106596
 30
0.0
 10
20.46096757372832
 20
4.619484382854923
 30
0.0
 10
20.5503807457039
 20
4.671048928788077
 30
0.0
 10
20.57978941876117
 20
4.688008900559447
 30
0.0
  0
SPLINE
  5
13D
330
1F
100
AcDbEntity
  8
외형선
  6
Continuous
 62
     1
370
    15
100
AcDbSpline
210
0.0
220
0.0
230
1.0
 70
     8
 71
     3
 72
     9
 73
     5
 74
     0
 42
0.000000001
 43
0.00000001
 40
0.0
 40
0.0
 40
0.0
 40
0.0
 40
0.5277941045883613
 40
1.0
 40
1.0
 40
1.0
 40
1.0
 10
26.21727150111829
 20
3.707929041153874
 30
0.0
 10
26.1599573323636
 20
3.66405032959145
 30
0.0
 10
26.05136542454112
 20
3.580914290024189
 30
0.0
 10
25.93177826521265
 20
3.536663279845778
 30
0.0
 10
25.87530850356221
 20
3.515767691961612
 30
0.0
  0
SPLINE
  5
13E
330
1F
100
AcDbEntity
  8
외형선
  6
Continuous
 62
     1
370
    15
100
AcDbSpline
210
0.0
220
0.0
230
1.0
 70
     8
 71
     3
 72
     8
 73
     4
 74
     0
 42
0.000000001
 43
0.00000001
 40
0.0
 40
0.0
 40
0.0
 40
0.0
 40
1.0
 40
1.0
 40
1.0
 40
1.0
 10
26.38043825604088
 20
3.802994537871701
 30
0.0
 10
26.32388368212173
 20
3.783322831174219
 30
0.0
 10
26.2663570658047
 20
3.75093303486399
 30
0.0
 10
26.21727150111865
 20
3.707929041154185
 30
0.0
  0
SPLINE
  5
13F
330
1F
100
AcDbEntity
  8
외형선
  6
Continuous
 62
     1
370
    15
100
AcDbSpline
210
0.0
220
0.0
230
1.0
 70
     8
 71
     3
 72
    10
 73
     6
 74
     0
 42
0.000000001
 43
0.00000001
 40
0.0
 40
0.0
 40
0.0
 40
0.0
 40
0.5
 40
0.5
 40
1.0
 40
1.0
 40
1.0
 40
1.0
 10
28.58013154500179
 20
4.424228095081085
 30
0.0
 10
28.21517589709096
 20
4.345965265794488
 30
0.0
 10
27.84750323275987
 20
4.254389483394422
 30
0.0
 10
27.11160776983848
 20
4.046434262597559
 30
0.0
 10
26.74681921722725
 20
3.93043492036943
 30
0.0
 10
26.3804403386057
 20
3.802995262262247
 30
0.0
  0
SPLINE
  5
140
330
1F
100
AcDbEntity
  8
외형선
  6
Continuous
 62
     1
370
    15
100
AcDbSpline
210
0.0
220
0.0
230
1.0
 70
     8
 71
     3
 72
    14
 73
    10
 74
     0
 42
0.000000001
 43
0.00000001
 40
0.0
 40
0.0
 40
0.0
 40
0.0
 40
0.0000586813644257
 40
0.0000586813644257
 40
0.0000586813644257
 40
0.0001173282061186
 40
0.0001173282061186
 40
0.0001173282061186
 40
0.0002031917303084
 40
0.0002031917303084
 40
0.0002031917303084
 40
0.0002031917303084
 10
28.74463192516045
 20
4.41111808823753
 30
0.0
 10
28.73076171793704
 20
4.417353075352399
 30
0.0
 10
28.71599496729471
 20
4.422143365177107
 30
0.0
 10
28.70069251398125
 20
4.425474039173276
 30
0.0
 10
28.68539569643055
 20
4.428803486510679
 30
0.0
 10
28.6694597510682
 20
4.430698718385582
 30
0.0
 10
28.65320411043733
 20
4.431171673718632
 30
0.0
 10
28.62948718855037
 20
4.431861713868061
 30
0.0
 10
28.60481587959553
 20
4.429521522161221
 30
0.0
 10
28.58013114577374
 20
4.424228009468714
 30
0.0
  0
SPLINE
  5
141
330
1F
100
AcDbEntity
  8
외형선
  6
Continuous
 62
     1
370
    15
100
AcDbSpline
210
0.0
220
0.0
230
1.0
 70
     8
 71
     3
 72
    10
 73
     6
 74
     0
 42
0.000000001
 43
0.00000001
 40
0.0
 40
0.0
 40
0.0
 40
0.0
 40
0.5
 40
0.5
 40
1.0
 40
1.0
 40
1.0
 40
1.0
 10
29.3999185922053
 20
4.52796075680689
 30
0.0
 10
29.29983662897289
 20
4.443222343079209
 30
0.0
 10
29.18168863295836
 20
4.39431124175506
 30
0.0
 10
28.95071997975925
 20
4.357270881678825
 30
0.0
 10
28.83896662523409
 20
4.368712403160301
 30
0.0
 10
28.74463192516172
 20
4.411118088236595
 30
0.0
  0
LINE
  5
142
330
1F
100
AcDbEntity
  8
외형선
  6
Continuous
 62
     1
370
    15
100
AcDbLine
 10
32.22499999999999
 20
0.5068079630055785
 30
0.0
 11
32.22499999999999
 21
-2.252541109290006
 31
0.0
  0
SPLINE
  5
143
330
1F
100
AcDbEntity
  8
외형선
  6
Continuous
 62
     1
370
    15
100
AcDbSpline
210
0.0
220
0.0
230
1.0
 70
     8
 71
     3
 72
    14
 73
    10
 74
     0
 42
0.000000001
 43
0.00000001
 40
0.0
 40
0.0
 40
0.0
 40
0.0
 40
0.2499999999999998
 40
0.2499999999999998
 40
0.4999999999999997
 40
0.4999999999999997
 40
0.7499999999999997
 40
0.7499999999999997
 40
1.0
 40
1.0
 40
1.0
 40
1.0
 10
26.62202292373894
 20
0.4303284002142161
 30
0.0
 10
26.5952396464652
 20
0.6985109880142464
 30
0.0
 10
26.56914465668665
 20
0.9623758175952333
 30
0.0
 10
26.51415869153465
 20
1.486974089091333
 30
0.0
 10
26.48597338531495
 20
1.745304240147625
 30
0.0
 10
26.42947153995186
 20
2.241975869911228
 30
0.0
 10
26.40116146301911
 20
2.480259633829643
 30
0.0
 10
26.34569481005364
 20
2.92640123586509
 30
0.0
 10
26.31888229031266
 20
3.133427560707566
 30
0.0
 10
26.29247436075393
 20
3.323347732155998
 30
0.0
  0
SPLINE
  5
144
330
1F
100
AcDbEntity
  8
외형선
  6
Continuous
 62
     1
370
    15
100
AcDbSpline
210
0.0
220
0.0
230
1.0
 70
     8
 71
     3
 72
    12
 73
     8
 74
     0
 42
0.000000001
 43
0.00000001
 40
0.0
 40
0.0
 40
0.0
 40
0.0
 40
0.5000000000000006
 40
0.5000000000000006
 40
0.7500000000000003
 40
0.7500000000000003
 40
1.0
 40
1.0
 40
1.0
 40
1.0
 10
18.13219829952583
 20
-3.894486779637472
 30
0.0
 10
18.07699822575012
 20
-3.588966505587394
 30
0.0
 10
18.01930712451663
 20
-3.198921443371717
 30
0.0
 10
17.93663821562642
 20
-2.538634013798012
 30
0.0
 10
17.91033314536755
 20
-2.30826615049415
 30
0.0
 10
17.85715743677256
 20
-1.825972331704047
 30
0.0
 10
17.82958687217635
 20
-1.571736444897183
 30
0.0
 10
17.80161606989792
 20
-1.309576439306233
 30
0.0
  0
SPLINE
  5
145
330
1F
100
AcDbEntity
  8
외형선
  6
Continuous
 62
     1
370
    15
100
AcDbSpline
210
0.0
220
0.0
230
1.0
 70
     8
 71
     3
 72
    12
 73
     8
 74
     0
 42
0.000000001
 43
0.00000001
 40
0.0
 40
0.0
 40
0.0
 40
0.0
 40
0.5000000000000003
 40
0.5000000000000003
 40
0.7500000000000001
 40
0.7500000000000001
 40
1.0
 40
1.0
 40
1.0
 40
1.0
 10
18.78719329387141
 20
-4.09189519465692
 30
0.0
 10
18.7333443746282
 20
-3.825019418219022
 30
0.0
 10
18.67588903546169
 20
-3.469411366435098
 30
0.0
 10
18.5918026054621
 20
-2.845419195656826
 30
0.0
 10
18.56413828146943
 20
-2.622819893892657
 30
0.0
 10
18.51071672849915
 20
-2.15952335486943
 30
0.0
 10
18.48458017263681
 20
-1.917946064056418
 30
0.0
 10
18.45708216452604
 20
-1.663975177346074
 30
0.0
  0
SPLINE
  5
146
330
1F
100
AcDbEntity
  8
외형선
  6
Continuous
 62
     1
370
    15
100
AcDbSpline
210
0.0
220
0.0
230
1.0
 70
     8
 71
     3
 72
    12
 73
     8
 74
     0
 42
0.000000001
 43
0.00000001
 40
0.0
 40
0.0
 40
0.0
 40
0.0
 40
0.4999999999999996
 40
0.4999999999999996
 40
0.7499999999999998
 40
0.7499999999999998
 40
1.0
 40
1.0
 40
1.0
 40
1.0
 10
18.95010331982297
 20
-4.180580063900583
 30
0.0
 10
18.89687526416071
 20
-3.92113482413767
 30
0.0
 10
18.83983179484391
 20
-3.572065884220724
 30
0.0
 10
18.75589165004199
 20
-2.95407464532633
 30
0.0
 10
18.72819987493242
 20
-2.732849300408109
 30
0.0
 10
18.67457704062632
 20
-2.270848002743044
 30
0.0
 10
18.64881715955404
 20
-2.030844939854538
 30
0.0
 10
18.62161373523849
 20
-1.777780853413471
 30
0.0
  0
SPLINE
  5
147
330
1F
100
AcDbEntity
  8
외형선
  6
Continuous
 62
     1
370
    15
100
AcDbSpline
210
0.0
220
0.0
230
1.0
 70
     8
 71
     3
 72
    12
 73
     8
 74
     0
 42
0.000000001
 43
0.00000001
 40
0.0
 40
0.0
 40
0.0
 40
0.0
 40
0.2499999999999999
 40
0.2499999999999999
 40
0.4999999999999998
 40
0.4999999999999998
 40
1.0
 40
1.0
 40
1.0
 40
1.0
 10
21.15018351263093
 20
-4.634131632987299
 30
0.0
 10
21.12227686585495
 20
-4.570715844784436
 30
0.0
 10
21.0947154532472
 20
-4.48422960844182
 30
0.0
 10
21.04144891300103
 20
-4.270948892677842
 30
0.0
 10
21.01552631915888
 20
-4.144321784069257
 30
0.0
 10
20.93358314569709
 20
-3.698619875095051
 30
0.0
 10
20.87617541416953
 20
-3.31546842361981
 30
0.0
 10
20.82098725437556
 20
-2.878994054476455
 30
0.0
  0
SPLINE
  5
148
330
1F
100
AcDbEntity
  8
외형선
  6
Continuous
 62
     1
370
    15
100
AcDbSpline
210
0.0
220
0.0
230
1.0
 70
     8
 71
     3
 72
    12
 73
     8
 74
     0
 42
0.000000001
 43
0.00000001
 40
0.0
 40
0.0
 40
0.0
 40
0.0
 40
0.5000000000000001
 40
0.5000000000000001
 40
0.75
 40
0.75
 40
1.0
 40
1.0
 40
1.0
 40
1.0
 10
24.09409187921328
 20
1.825116037201577
 30
0.0
 10
24.03782096254772
 20
2.329141120529092
 30
0.0
 10
23.98078904850273
 20
2.79697244732999
 30
0.0
 10
23.90143527161785
 20
3.387931898435701
 30
0.0
 10
23.87489283334587
 20
3.569770694662773
 30
0.0
 10
23.81964927521737
 20
3.900703226051163
 30
0.0
 10
23.79142333010294
 20
4.048575724776843
 30
0.0
 10
23.76322333997581
 20
4.175123068553494
 30
0.0
  0
SPLINE
  5
149
330
1F
100
AcDbEntity
  8
외형선
  6
Continuous
 62
     1
370
    15
100
AcDbSpline
210
0.0
220
0.0
230
1.0
 70
     8
 71
     3
 72
    12
 73
     8
 74
     0
 42
0.000000001
 43
0.00000001
 40
0.0
 40
0.0
 40
0.0
 40
0.0
 40
0.2499999999999998
 40
0.2499999999999998
 40
0.4999999999999998
 40
0.4999999999999998
 40
1.0
 40
1.0
 40
1.0
 40
1.0
 10
23.43819877641923
 20
2.163590224478984
 30
0.0
 10
23.41000294496481
 20
2.40661760723221
 30
0.0
 10
23.38189826665637
 20
2.638325458081976
 30
0.0
 10
23.32711356944835
 20
3.069455497552423
 30
0.0
 10
23.30115183404637
 20
3.267312913737281
 30
0.0
 10
23.22074216086808
 20
3.816639302604306
 30
0.0
 10
23.16340591554202
 20
4.121491608905309
 30
0.0
 10
23.1073126542522
 20
4.334907740627527
 30
0.0
  0
SPLINE
  5
14A
330
1F
100
AcDbEntity
  8
외형선
  6
Continuous
 62
     1
370
    15
100
AcDbSpline
210
0.0
220
0.0
230
1.0
 70
     8
 71
     3
 72
    12
 73
     8
 74
     0
 42
0.000000001
 43
0.00000001
 40
0.0
 40
0.0
 40
0.0
 40
0.0
 40
0.5000000000000001
 40
0.5000000000000001
 40
0.75
 40
0.75
 40
1.0
 40
1.0
 40
1.0
 40
1.0
 10
21.0723688572804
 20
3.300867830661683
 30
0.0
 10
21.02012874253935
 20
3.689071215980135
 30
0.0
 10
20.96368334848484
 20
4.022346283336692
 30
0.0
 10
20.87936425843474
 20
4.38981045332696
 30
0.0
 10
20.85136717997289
 20
4.490494279493123
 30
0.0
 10
20.79681956232394
 20
4.645092315473169
 30
0.0
 10
20.77098340995106
 20
4.698876466648048
 30
0.0
 10
20.74421842556632
 20
4.730358639821045
 30
0.0
  0
SPLINE
  5
14B
330
1F
100
AcDbEntity
  8
외형선
  6
Continuous
 62
     1
370
    15
100
AcDbSpline
210
0.0
220
0.0
230
1.0
 70
     8
 71
     3
 72
    12
 73
     8
 74
     0
 42
0.000000001
 43
0.00000001
 40
0.0
 40
0.0
 40
0.0
 40
0.0
 40
0.2499999999999999
 40
0.2499999999999999
 40
0.4999999999999998
 40
0.4999999999999998
 40
1.0
 40
1.0
 40
1.0
 40
1.0
 10
23.27344054606646
 20
2.278387998354129
 30
0.0
 10
23.24539974989526
 20
2.520224202460271
 30
0.0
 10
23.21752844296545
 20
2.750040386341333
 30
0.0
 10
23.16333518457835
 20
3.176359678628208
 30
0.0
 10
23.13765800057669
 20
3.371560988802524
 30
0.0
 10
23.05700104848675
 20
3.914206940259648
 30
0.0
 10
22.99979433917826
 20
4.212058393800541
 30
0.0
 10
22.94409640935438
 20
4.4174271436602
 30
0.0
  0
SPLINE
  5
14C
330
1F
100
AcDbEntity
  8
외형선
  6
Continuous
 62
     1
370
    15
100
AcDbSpline
210
0.0
220
0.0
230
1.0
 70
     8
 71
     3
 72
    12
 73
     8
 74
     0
 42
0.000000001
 43
0.00000001
 40
0.0
 40
0.0
 40
0.0
 40
0.0
 40
0.2499999999999999
 40
0.2499999999999999
 40
0.4999999999999999
 40
0.4999999999999999
 40
1.0
 40
1.0
 40
1.0
 40
1.0
 10
21.31493859892232
 20
-4.6045437247208
 30
0.0
 10
21.28683091305597
 20
-4.547237271586069
 30
0.0
 10
21.25899258365295
 20
-4.466674701027149
 30
0.0
 10
21.20505808655912
 20
-4.264446007074004
 30
0.0
 10
21.17923388304077
 20
-4.14366940135453
 30
0.0
 10
21.09741799008325
 20
-3.715413796010745
 30
0.0
 10
21.0397901233412
 20
-3.342994560296759
 30
0.0
 10
20.98413038248546
 20
-2.914986032620274
 30
0.0
  0
SPLINE
  5
14D
330
1F
100
AcDbEntity
  8
외형선
  6
Continuous
 62
     1
370
    15
100
AcDbSpline
210
0.0
220
0.0
230
1.0
 70
     8
 71
     3
 72
    12
 73
     8
 74
     0
 42
0.000000001
 43
0.00000001
 40
0.0
 40
0.0
 40
0.0
 40
0.0
 40
0.25
 40
0.25
 40
0.5
 40
0.5
 40
1.0
 40
1.0
 40
1.0
 40
1.0
 10
21.97085970962978
 20
-4.668372686735423
 30
0.0
 10
21.94265905161442
 20
-4.632438613606587
 30
0.0
 10
21.91443205029835
 20
-4.572683419752046
 30
0.0
 10
21.85918574787293
 20
-4.409162904546008
 30
0.0
 10
21.83264026183136
 20
-4.306173177449998
 30
0.0
 10
21.75328780052458
 20
-3.937125187188513
 30
0.0
 10
21.69625537059507
 20
-3.601146479968634
 30
0.0
 10
21.63998264557735
 20
-3.200005595719171
 30
0.0
  0
SPLINE
  5
14E
330
1F
100
AcDbEntity
  8
외형선
  6
Continuous
 62
     1
370
    15
100
AcDbSpline
210
0.0
220
0.0
230
1.0
 70
     8
 71
     3
 72
    10
 73
     6
 74
     0
 42
0.000000001
 43
0.00000001
 40
0.0
 40
0.0
 40
0.0
 40
0.0
 40
0.5
 40
0.5
 40
1.0
 40
1.0
 40
1.0
 40
1.0
 10
22.13404029041315
 20
-4.731849093581578
 30
0.0
 10
22.07792718809945
 20
-4.669467300012591
 30
0.0
 10
22.02170819594807
 20
-4.509764500016938
 30
0.0
 10
21.91733400599237
 20
-4.034499236745852
 30
0.0
 10
21.86081438677165
 20
-3.706277871807274
 30
0.0
 10
21.8047220316038
 20
-3.310398056538441
 30
0.0
  0
SPLINE
  5
14F
330
1F
100
AcDbEntity
  8
외형선
  6
Continuous
 62
     1
370
    15
100
AcDbSpline
210
0.0
220
0.0
230
1.0
 70
     8
 71
     3
 72
    12
 73
     8
 74
     0
 42
0.000000001
 43
0.00000001
 40
0.0
 40
0.0
 40
0.0
 40
0.0
 40
0.5000000000000002
 40
0.5000000000000002
 40
0.7500000000000001
 40
0.7500000000000001
 40
1.0
 40
1.0
 40
1.0
 40
1.0
 10
20.90955804628721
 20
3.325463274534743
 30
0.0
 10
20.85674843348323
 20
3.70494463395676
 30
0.0
 10
20.79970311823973
 20
4.027759725798603
 30
0.0
 10
20.71511891450864
 20
4.377571039165503
 30
0.0
 10
20.68710990410075
 20
4.472134900132286
 30
0.0
 10
20.63269110436675
 20
4.614516964743461
 30
0.0
 10
20.60688598318167
 20
4.662417879319231
 30
0.0
 10
20.57978941876147
 20
4.688008900559167
 30
0.0
  0
LINE
  5
150
330
1F
100
AcDbEntity
  8
외형선
  6
Continuous
 62
     1
370
    15
100
AcDbLine
 10
19.98096549979954
 20
4.65530889285116
 30
0.0
 11
19.95387182138094
 21
4.680954421022536
 31
0.0
  0
SPLINE
  5
151
330
1F
100
AcDbEntity
  8
외형선
  6
Continuous
 62
     1
370
    15
100
AcDbSpline
210
0.0
220
0.0
230
1.0
 70
     8
 71
     3
 72
    12
 73
     8
 74
     0
 42
0.000000001
 43
0.00000001
 40
0.0
 40
0.0
 40
0.0
 40
0.0
 40
0.5
 40
0.5
 40
0.75
 40
0.75
 40
1.0
 40
1.0
 40
1.0
 40
1.0
 10
20.09047166004891
 20
3.685049171110965
 30
0.0
 10
20.03591958763742
 20
4.030813078539495
 30
0.0
 10
19.97852161841097
 20
4.307583068321027
 30
0.0
 10
19.89564962443399
 20
4.581583778268254
 30
0.0
 10
19.8687107388756
 20
4.649773062524193
 30
0.0
 10
19.81644365736716
 20
4.740102672446663
 30
0.0
 10
19.78925074269725
 20
4.763224620852331
 30
0.0
 10
19.7615553009417
 20
4.762482572610396
 30
0.0
  0
LINE
  5
152
330
1F
100
AcDbEntity
  8
외형선
  6
Continuous
 62
     1
370
    15
100
AcDbLine
 10
32.22499999999999
 20
0.9186882131466299
 30
0.0
 11
32.22499999999999
 21
3.083737631391741
 31
0.0
  0
SPLINE
  5
153
330
1F
100
AcDbEntity
  8
외형선
  6
Continuous
370
    15
100
AcDbSpline
210
0.0
220
0.0
230
1.0
 70
    24
 71
     3
 72
     8
 73
     4
 74
     0
 42
0.000000001
 43
0.00000001
 40
0.0
 40
0.0
 40
0.0
 40
0.0
 40
1.0
 40
1.0
 40
1.0
 40
1.0
 10
10.00000000000433
 20
-4.684939209220707
 30
0.0
 10
10.00000000000433
 20
-4.693846577298117
 30
0.0
 10
10.00000000001536
 20
-4.698048148624935
 30
0.0
 10
10.00000000001536
 20
-4.697088649532352
 30
0.0
  0
LINE
  5
154
330
1F
100
AcDbEntity
  8
외형선
  6
Continuous
 62
     1
370
    15
100
AcDbLine
 10
32.22499999999999
 20
-2.252541109290007
 30
0.0
 11
32.22499999999999
 21
-2.784196431186869
 31
0.0
  0
LINE
  5
155
330
1F
100
AcDbEntity
  8
외형선
  6
Continuous
 62
     1
370
    15
100
AcDbLine
 10
32.22499999999999
 20
3.662499999999997
 30
0.0
 11
32.22499999999999
 21
3.627265076973852
 31
0.0
  0
LINE
  5
156
330
1F
100
AcDbEntity
  8
외형선
  6
Continuous
 62
     1
370
    15
100
AcDbLine
 10
28.19531143706472
 20
-4.755904706084415
 30
0.0
 11
28.18883751431955
 21
-4.757272315906978
 31
0.0
  0
SPLINE
  5
157
330
1F
100
AcDbEntity
  8
외형선
  6
Continuous
 62
     1
370
    15
100
AcDbSpline
210
0.0
220
0.0
230
1.0
 70
     8
 71
     3
 72
    10
 73
     6
 74
     0
 42
0.000000001
 43
0.00000001
 40
0.0
 40
0.0
 40
0.0
 40
0.0
 40
0.1422482944389106
 40
0.5743059096230284
 40
1.0
 40
1.0
 40
1.0
 40
1.0
 10
24.26235376532315
 20
-4.734725661352376
 30
0.0
 10
24.25029230112188
 20
-4.742249037526655
 30
0.0
 10
24.20159596914251
 20
-4.772623527528438
 30
0.0
 10
24.11371606136543
 20
-4.580839872264461
 30
0.0
 10
24.0425298998189
 20
-4.256974540111782
 30
0.0
 10
24.00720087850596
 20
-4.09624322698057
 30
0.0
  0
SPLINE
  5
158
330
1F
100
AcDbEntity
  8
외형선
  6
Continuous
 62
     1
370
    15
100
AcDbSpline
210
0.0
220
0.0
230
1.0
 70
     8
 71
     3
 72
    11
 73
     7
 74
     0
 42
0.000000001
 43
0.00000001
 40
0.0
 40
0.0
 40
0.0
 40
0.0
 40
0.3107955843393636
 40
0.6227417515190106
 40
0.930834014084406
 40
0.9999999999999999
 40
0.9999999999999999
 40
0.9999999999999999
 40
0.9999999999999999
 10
20.25497652863806
 20
3.579133798896622
 30
0.0
 10
20.22657240026441
 20
3.750280477496927
 30
0.0
 10
20.16965898982657
 20
4.093207429386426
 30
0.0
 10
20.08269196157143
 20
4.436052343785692
 30
0.0
 10
20.02116016158817
 20
4.622675357356464
 30
0.0
 10
19.98719299194031
 20
4.650252871061811
 30
0.0
 10
19.98096549979954
 20
4.65530889285116
 30
0.0
  0
SPLINE
  5
159
330
1F
100
AcDbEntity
  8
외형선
  6
Continuous
 62
     1
370
    15
100
AcDbSpline
210
0.0
220
0.0
230
1.0
 70
     8
 71
     3
 72
     9
 73
     5
 74
     0
 42
0.000000001
 43
0.00000001
 40
0.0
 40
0.0
 40
0.0
 40
0.0
 40
0.5833023047514858
 40
1.0
 40
1.0
 40
1.0
 40
1.0
 10
17.88758674878791
 20
4.350438722480218
 30
0.0
 10
17.8488184685764
 20
4.489481058184674
 30
0.0
 10
17.78235502432851
 20
4.727852027357671
 30
0.0
 10
17.71612354212849
 20
4.738712731678071
 30
0.0
 10
17.68852503614284
 20
4.743238362137157
 30
0.0
  0
SPLINE
  5
15A
330
1F
100
AcDbEntity
  8
외형선
  6
Continuous
 62
     1
370
    15
100
AcDbSpline
210
0.0
220
0.0
230
1.0
 70
     8
 71
     3
 72
    11
 73
     7
 74
     0
 42
0.000000001
 43
0.00000001
 40
0.0
 40
0.0
 40
0.0
 40
0.0
 40
0.1251399955406615
 40
0.4187081590551409
 40
0.7114394890800804
 40
1.0
 40
1.0
 40
1.0
 40
1.0
 10
24.45342842732429
 20
-4.678282972100437
 30
0.0
 10
24.44177750316761
 20
-4.691227013925261
 30
0.0
 10
24.40279446673819
 20
-4.734536715989644
 30
0.0
 10
24.3338727735791
 20
-4.656680738023552
 30
0.0
 10
24.25016189153143
 20
-4.460641988485984
 30
0.0
 10
24.19668221936941
 20
-4.215277126395366
 30
0.0
 10
24.17013424391905
 20
-4.093474952376238
 30
0.0
  0
SPLINE
  5
15B
330
1F
100
AcDbEntity
  8
외형선
  6
Continuous
 62
     1
370
    15
100
AcDbSpline
210
0.0
220
0.0
230
1.0
 70
     8
 71
     3
 72
    10
 73
     6
 74
     0
 42
0.000000001
 43
0.00000001
 40
0.0
 40
0.0
 40
0.0
 40
0.0
 40
0.1288858400849735
 40
0.5669187401228335
 40
1.0
 40
1.0
 40
1.0
 40
1.0
 10
24.99290894510197
 20
-4.680170685707496
 30
0.0
 10
24.9856167719962
 20
-4.677337085442622
 30
0.0
 10
24.95354133541478
 20
-4.664873178692932
 30
0.0
 10
24.89632406002523
 20
-4.537050138230825
 30
0.0
 10
24.84832522459538
 20
-4.355477418162636
 30
0.0
 10
24.82446222583225
 20
-4.265207111485352
 30
0.0
  0
SPLINE
  5
15C
330
1F
100
AcDbEntity
  8
외형선
  6
Continuous
 62
     1
370
    15
100
AcDbSpline
210
0.0
220
0.0
230
1.0
 70
     8
 71
     3
 72
    10
 73
     6
 74
     0
 42
0.000000001
 43
0.00000001
 40
0.0
 40
0.0
 40
0.0
 40
0.0
 40
0.2885911908020982
 40
0.6460280524100703
 40
1.0
 40
1.0
 40
1.0
 40
1.0
 10
25.18861376508063
 20
-4.7543910591873
 30
0.0
 10
25.16933731803691
 20
-4.750686018706169
 30
0.0
 10
25.12618587773677
 20
-4.742392071550428
 30
0.0
 10
25.05857390601585
 20
-4.611054742346707
 30
0.0
 10
25.01198514976742
 20
-4.440654256738691
 30
0.0
 10
24.98880422682713
 20
-4.355868981407415
 30
0.0
  0
LINE
  5
15D
330
1F
100
AcDbEntity
  8
외형선
  6
Continuous
 62
     1
370
    15
100
AcDbLine
 10
27.26282057456262
 20
-4.757674476591513
 30
0.0
 11
27.19060773253138
 21
-4.709524250498529
 31
0.0
  0
SPLINE
  5
15E
330
1F
100
AcDbEntity
  8
외형선
  6
Continuous
 62
     1
370
    15
100
AcDbSpline
210
0.0
220
0.0
230
1.0
 70
     8
 71
     3
 72
    11
 73
     7
 74
     0
 42
0.000000001
 43
0.00000001
 40
0.0
 40
0.0
 40
0.0
 40
0.0
 40
0.2393339218894393
 40
0.4758948297275974
 40
0.7996574575569191
 40
1.0
 40
1.0
 40
1.0
 40
1.0
 10
17.72439063723642
 20
4.336048280814703
 30
0.0
 10
17.70607884694741
 20
4.400458295341001
 30
0.0
 10
17.66966743375199
 20
4.52853204541269
 30
0.0
 10
17.61061838020265
 20
4.659261970637679
 30
0.0
 10
17.5541342233995
 20
4.727470193715805
 30
0.0
 10
17.51380636117111
 20
4.694900670954584
 30
0.0
 10
17.49839077874911
 20
4.682450763252375
 30
0.0
  0
SPLINE
  5
15F
330
1F
100
AcDbEntity
  8
외형선
  6
Continuous
 62
     1
370
    15
100
AcDbSpline
210
0.0
220
0.0
230
1.0
 70
     8
 71
     3
 72
     9
 73
     5
 74
     0
 42
0.000000001
 43
0.00000001
 40
0.0
 40
0.0
 40
0.0
 40
0.0
 40
0.5844456516866141
 40
1.0
 40
1.0
 40
1.0
 40
1.0
 10
17.06866555564495
 20
4.46850086507553
 30
0.0
 10
17.04568334886429
 20
4.535702958650701
 30
0.0
 10
17.00636026259556
 20
4.650687291892355
 30
0.0
 10
16.96680131656944
 20
4.670603483393633
 30
0.0
 10
16.95036242453359
 20
4.67887974337383
 30
0.0
  0
SPLINE
  5
160
330
1F
100
AcDbEntity
  8
외형선
  6
Continuous
 62
     1
370
    15
100
AcDbSpline
210
0.0
220
0.0
230
1.0
 70
     8
 71
     3
 72
     9
 73
     5
 74
     0
 42
0.000000001
 43
0.00000001
 40
0.0
 40
0.0
 40
0.0
 40
0.0
 40
0.4178034856257358
 40
1.0
 40
1.0
 40
1.0
 40
1.0
 10
16.90407957307498
 20
4.550290742853472
 30
0.0
 10
16.8845145066519
 20
4.603290873719854
 30
0.0
 10
16.83768611221237
 20
4.730145083150405
 30
0.0
 10
16.79033930077895
 20
4.747387212681152
 30
0.0
 10
16.76277415219567
 20
4.757425520394344
 30
0.0
  0
LINE
  5
161
330
1F
100
AcDbEntity
  8
외형선
  6
Continuous
 62
     1
370
    15
100
AcDbLine
 10
14.70479162316205
 20
4.759891989912036
 30
0.0
 11
14.68882791792753
 21
4.74817229785955
 31
0.0
  0
SPLINE
  5
162
330
1F
100
AcDbEntity
  8
외형선
  6
Continuous
 62
     1
370
    15
100
AcDbSpline
210
0.0
220
0.0
230
1.0
 70
     8
 71
     3
 72
     9
 73
     5
 74
     0
 42
0.000000001
 43
0.00000001
 40
0.0
 40
0.0
 40
0.0
 40
0.0
 40
0.2445585977375364
 40
1.0
 40
1.0
 40
1.0
 40
1.0
 10
27.4515476663193
 20
-4.684899920990689
 30
0.0
 10
27.4437528307759
 20
-4.694040887400877
 30
0.0
 10
27.41187975162221
 20
-4.731418295084578
 30
0.0
 10
27.37880535888442
 20
-4.695748498492779
 30
0.0
 10
27.3538195932556
 20
-4.668802057337053
 30
0.0
  0
LINE
  5
163
330
1F
100
AcDbEntity
  8
외형선
  6
Continuous
 62
     1
370
    15
100
AcDbLine
 10
10.18867289285536
 20
-4.754635273283826
 30
0.0
 11
10.12931786342179
 21
-4.726375734775591
 31
0.0
  0
LINE
  5
164
330
1F
100
AcDbEntity
  8
외형선
  6
Continuous
 62
     1
370
    15
100
AcDbLine
 10
28.18883751431955
 20
-4.757272315906978
 30
0.0
 11
28.17437482516397
 21
-4.760327544788821
 31
0.0
  0
LINE
  5
165
330
1F
100
AcDbEntity
  8
외형선
  6
Continuous
 62
     1
370
    15
100
AcDbLine
 10
14.54171326568912
 20
4.708646795962474
 30
0.0
 11
14.4999130560874
 21
4.682745132925527
 31
0.0
  0
LINE
  5
166
330
1F
100
AcDbEntity
  8
중심선
100
AcDbLine
 10
-34.27499999999999
 20
-0.0000000000000042
 30
0.0
 11
35.22500000000002
 21
0.0000000000000043
 31
0.0
  0
LINE
  5
167
330
1F
100
AcDbEntity
  8
참조1
100
AcDbLine
 10
0.47500000000001
 20
-0.3168705809327365
 30
0.0
 11
0.4750000000000134
 21
-40.31687058093274
 31
0.0
  0
LINE
  5
168
330
1F
100
AcDbEntity
  8
참조1
100
AcDbLine
 10
-19.72860765519648
 20
-4.762499999999995
 30
0.0
 11
48.41397268839599
 21
-4.762499999999995
 31
0.0
  0
LINE
  5
169
330
1F
100
AcDbEntity
  8
참조1
100
AcDbLine
 10
48.41397268839599
 20
-4.762499999999995
 30
0.0
 11
48.41397268839599
 21
-6.927248606176845
 31
0.0
  0
LINE
  5
16A
330
1F
100
AcDbEntity
  8
참조1
100
AcDbLine
 10
0.4750000000000134
 20
-40.31687058093274
 30
0.0
 11
-24.1960498072657
 21
-40.31687058093274
 31
0.0
  0
CIRCLE
  5
16B
330
1F
100
AcDbEntity
  8
해칭선
100
AcDbCircle
 10
0.0
 20
0.0
 30
0.0
 40
3.000000000000005
  0
INSERT
  5
16C
330
1F
100
AcDbEntity
  8
0
  6
Continuous
 62
     7
100
AcDbBlockReference
 66
     1
  2
블럭10
 10
-13.4652729321252
 20
-52.36404488257666
 30
0.0
  0
ATTRIB
  5
16D
330
16C
100
AcDbEntity
  8
FORMAT
 62
     2
100
AcDbText
 10
-22.98758688272313
 20
-50.28867796974447
 30
0.0
 40
4.233333333333333
  1
EH095024 [ 3 FLUTE ]
 41
0.75
  7
SLDTEXTSTYLE0
 11
-22.98758688272313
 21
-52.40534463641114
 31
0.0
100
AcDbAttribute
  2
AUTOATTR0
 70
     0
 74
     1
  0
SEQEND
  5
16E
330
16C
100
AcDbEntity
  8
0
  6
Continuous
 62
     7
  0
HATCH
  5
16F
330
1F
100
AcDbEntity
  8
중심선
100
AcDbHatch
 10
0.0
 20
0.0
 30
0.0
210
0.0
220
0.0
230
1.0
  2
SOLID
 70
     1
 71
     0
 91
        1
 92
        0
 93
        4
 72
     1
 10
-7.750363627744346
 20
-36.11687058093273
 11
-11.19663887158163
 21
-36.11687058093273
 72
     1
 10
-11.19663887158163
 20
-36.11687058093273
 11
-13.32486873078565
 21
-38.65319616150533
 72
     1
 10
-13.32486873078565
 20
-38.65319616150533
 11
-9.87856040183522
 21
-38.65315673220284
 72
     1
 10
-9.87856040183522
 20
-38.65315673220284
 11
-7.750363627744346
 21
-36.11687058093273
 97
        0
 75
     0
 76
     1
 98
        1
 10
-0.0000000000000071
 20
-0.316870580932733
  0
HATCH
  5
170
330
1F
100
AcDbEntity
  8
중심선
100
AcDbHatch
 10
0.0
 20
0.0
 30
0.0
210
0.0
220
0.0
230
1.0
  2
SOLID
 70
     1
 71
     0
 91
        1
 92
        0
 93
        4
 72
     1
 10
-2.737599636708367
 20
-36.11687058093273
 11
-6.183874880545649
 21
-36.11687058093273
 72
     1
 10
-6.183874880545649
 20
-36.11687058093273
 11
-10.71501288890306
 21
-41.51687058093275
 72
     1
 10
-10.71501288890306
 20
-41.51687058093275
 11
-7.268737645065783
 21
-41.51687058093275
 72
     1
 10
-7.268737645065783
 20
-41.51687058093275
 11
-2.737599636708367
 21
-36.11687058093273
 97
        0
 75
     0
 76
     1
 98
        1
 10
-0.0000000000000071
 20
-0.316870580932733
  0
HATCH
  5
171
330
1F
100
AcDbEntity
  8
중심선
100
AcDbHatch
 10
0.0
 20
0.0
 30
0.0
210
0.0
220
0.0
230
1.0
  2
SOLID
 70
     1
 71
     0
 91
        1
 92
        0
 93
        4
 72
     1
 10
2.275164354327556
 20
-36.11687058093271
 11
-1.171110889509615
 21
-36.11687058093273
 72
     1
 10
-1.171110889509615
 20
-36.11687058093273
 11
-8.219547791398863
 21
-44.51687058093275
 72
     1
 10
-8.219547791398863
 20
-44.51687058093275
 11
-4.773272547561581
 21
-44.51687058093275
 72
     1
 10
-4.773272547561581
 20
-44.51687058093275
 11
2.275164354327557
 21
-36.11687058093271
 97
        0
 75
     0
 76
     1
 98
        1
 10
-0.0000000000000071
 20
-0.316870580932733
  0
HATCH
  5
172
330
1F
100
AcDbEntity
  8
중심선
100
AcDbHatch
 10
0.0
 20
0.0
 30
0.0
210
0.0
220
0.0
230
1.0
  2
SOLID
 70
     1
 71
     0
 91
        1
 92
        0
 93
        6
 72
     3
 10
7.075054785339701
 20
-40.31687058098401
 11
3.960054785062283
 21
1.540882976769353E-10
 40
0.3939339440162628
 50
17.09539180608437
 51
320.0019657685082
 73
     0
 72
     1
 10
8.758054441040269
 20
-38.90476458557107
 11
11.06335631474136
 21
-36.97043787552312
 72
     3
 10
7.075054785286854
 20
-40.31687058093289
 11
6.600054785286829
 21
-1.278976924368180E-13
 40
0.636358354079598
 50
39.99873849337385
 51
368.4976242363725
 73
     1
 72
     1
 10
13.50038727718746
 20
-39.35687058086275
 11
5.755122092122776
 21
-39.35687058086275
 72
     1
 10
5.755122092122776
 20
-39.35687058086275
 11
5.755097047676842
 21
-41.27687058086265
 72
     1
 10
5.755097047676842
 20
-41.27687058086265
 11
10.19647681714888
 21
-41.27687058086262
 97
        0
 75
     0
 76
     1
 98
        1
 10
-0.0000000000000071
 20
-0.316870580932733
  0
POINT
  5
173
330
1F
100
AcDbEntity
  8
치수문자_일반주서
100
AcDbPoint
 10
0.0000000000000033
 20
-0.3168705809327365
 30
0.0
  0
DIMENSION
  5
174
330
1F
100
AcDbEntity
  8
치수문자_일반주서
100
AcDbDimension
  2
_D
 10
48.50414715445493
 20
-4.762499999999921
 30
0.0
 11
48.50414715445483
 21
21.40825000000016
 31
0.0
 70
   160
  1
%%c<>
 71
     2
 42
9.525000000000084
 52
-270.0
  3
SLDDIMSTYLE0
100
AcDbAlignedDimension
 13
6.979864584378485
 23
4.762500000000014
 33
0.0
 14
26.2258336584166
 24
-4.762500000000002
 34
0.0
 50
90.0000000000002
100
AcDbRotatedDimension
1001
ACAD
1000
DSTYLE
1002
{
1070
   171
1070
     6
1070
   273
1070
     7
1002
}
  0
DIMENSION
  5
187
330
1F
100
AcDbEntity
  8
치수문자_일반주서
100
AcDbDimension
  2
_D_1
 10
-41.08500000000003
 20
-4.762500000000046
 30
0.0
 11
-41.08500000000004
 21
-0.7630082607154621
 31
0.0
 70
   160
  1
%%c<>
 71
     2
 42
9.525000000000006
 52
-270.0
  3
SLDDIMSTYLE1
100
AcDbAlignedDimension
 13
-30.27500000000001
 23
4.762500000000001
 33
0.0
 14
-30.27500000000001
 24
-4.762500000000005
 34
0.0
 50
90.0000000000002
100
AcDbRotatedDimension
1001
ACAD
1000
DSTYLE
1002
{
1070
   171
1070
     6
1070
   273
1070
     7
1002
}
  0
DIMENSION
  5
19C
330
1F
100
AcDbEntity
  8
치수문자_일반주서
100
AcDbDimension
  2
_D_2
 10
9.999999999999991
 20
20.41145279401988
 30
0.0
 11
21.1125
 21
20.41145279401988
 31
0.0
 70
   160
  1
<>
 71
     2
 42
22.225
  3
SLDDIMSTYLE0
100
AcDbAlignedDimension
 13
32.22499999999999
 23
3.083737631391741
 33
0.0
 14
9.999999999999991
 24
4.091559449950964
 34
0.0
 50
-0.0000000000000183
100
AcDbRotatedDimension
1001
ACAD
1000
DSTYLE
1002
{
1070
   171
1070
     6
1070
   273
1070
     7
1002
}
  0
DIMENSION
  5
1B0
330
1F
100
AcDbEntity
  8
치수문자_일반주서
100
AcDbDimension
  2
_D_3
 10
-31.27500000000001
 20
37.62464524059784
 30
0.0
 11
3.251286725697506
 21
37.62464524059784
 31
0.0
 70
   160
  1
<>
 71
     2
 42
63.5
  3
SLDDIMSTYLE2
100
AcDbAlignedDimension
 13
32.22499999999999
 23
3.627265076973852
 33
0.0
 14
-31.27500000000001
 24
3.762499999999993
 34
0.0
100
AcDbRotatedDimension
1001
ACAD
1000
DSTYLE
1002
{
1070
   171
1070
     6
1070
   273
1070
     7
1002
}
  0
LINE
  5
1C4
330
1F
100
AcDbEntity
  8
참조1
100
AcDbLine
 10
73.77629082238857
 20
7.123129419067269
 30
0.0
 11
73.77629082238857
 21
-7.756870580932735
 31
0.0
  0
LINE
  5
1C5
330
1F
100
AcDbEntity
  8
참조1
100
AcDbLine
 10
86.47629082238856
 20
5.123129419067269
 30
0.0
 11
73.77629082238857
 21
5.123129419067269
 31
0.0
  0
SOLID
  5
1C6
330
1F
100
AcDbEntity
  8
참조1
100
AcDbTrace
 10
73.77629082238857
 20
5.123129419067269
 30
0.0
 11
80.12629082238857
 21
4.107129419067269
 31
0.0
 12
80.12629082238857
 22
6.139129419067269
 32
0.0
 13
80.12629082238857
 23
6.139129419067269
 33
0.0
  0
LINE
  5
1C7
330
1F
100
AcDbEntity
  8
참조1
100
AcDbLine
 10
86.47629082238856
 20
-5.756870580932735
 30
0.0
 11
73.77629082238857
 21
-5.756870580932735
 31
0.0
  0
SOLID
  5
1C8
330
1F
100
AcDbEntity
  8
참조1
100
AcDbTrace
 10
73.77629082238857
 20
-5.756870580932735
 30
0.0
 11
80.12629082238857
 21
-6.772870580932735
 31
0.0
 12
80.12629082238857
 22
-4.740870580932735
 32
0.0
 13
80.12629082238857
 23
-4.740870580932735
 33
0.0
  0
MTEXT
  5
1C9
330
1F
100
AcDbEntity
  8
참조1
100
AcDbMText
 10
83.37640563295113
 20
10.74884698508335
 30
0.0
 40
3.5
 41
0.0
 71
     1
 72
     1
  1
A
  7
SLDTEXTSTYLE0
 73
     1
 44
1.0
  0
MTEXT
  5
1CA
330
1F
100
AcDbEntity
  8
참조1
100
AcDbMText
 10
83.37640563295113
 20
-0.1311530149166594
 30
0.0
 40
3.5
 41
0.0
 71
     1
 72
     1
  1
A
  7
SLDTEXTSTYLE0
 73
     1
 44
1.0
  0
INSERT
  5
1D1
330
1F
100
AcDbEntity
  8
해칭선
100
AcDbBlockReference
  2
SW_DOWELSYMBOL_0
 10
0.0
 20
0.0
 30
0.0
  0
ENDSEC
  0
SECTION
  2
OBJECTS
  0
DICTIONARY
  5
C
330
0
100
AcDbDictionary
281
     1
  3
ACAD_GROUP
350
D
  3
ACAD_IMAGE_VARS
350
1F5
  3
ACAD_LAYOUT
350
1A
  3
ACAD_MLINESTYLE
350
17
  3
ACAD_PLOTSETTINGS
350
19
  3
ACAD_PLOTSTYLENAME
350
E
  3
ACAD_SCALELIST
350
47
  3
APPDATA
350
1F3
  3
DWGPROPS
350
1F8
  0
DICTIONARY
  5
D
102
{ACAD_REACTORS
330
C
102
}
330
C
100
AcDbDictionary
281
     1
  0
RASTERVARIABLES
  5
1F5
102
{ACAD_REACTORS
330
C
102
}
330
C
100
AcDbRasterVariables
 90
        0
 70
     1
 71
     1
 72
     1
  0
DICTIONARY
  5
1A
102
{ACAD_REACTORS
330
C
102
}
330
C
100
AcDbDictionary
281
     1
  3
Layout1
350
1E
  3
Layout2
350
26
  3
Model
350
22
  0
DICTIONARY
  5
17
102
{ACAD_REACTORS
330
C
102
}
330
C
100
AcDbDictionary
281
     1
  3
Standard
350
18
  0
DICTIONARY
  5
19
102
{ACAD_REACTORS
330
C
102
}
330
C
100
AcDbDictionary
281
     1
  0
ACDBDICTIONARYWDFLT
  5
E
102
{ACAD_REACTORS
330
C
102
}
330
C
100
AcDbDictionary
281
     1
  3
Normal
350
F
100
AcDbDictionaryWithDefault
340
F
  0
DICTIONARY
  5
47
102
{ACAD_REACTORS
330
C
102
}
330
C
100
AcDbDictionary
281
     1
  3
A0
350
48
  3
A1
350
49
  3
A2
350
4A
  3
A3
350
4B
  3
A4
350
4C
  3
A5
350
4D
  3
A6
350
4E
  3
A7
350
4F
  3
A8
350
50
  3
A9
350
51
  3
B0
350
52
  3
B1
350
53
  3
B2
350
54
  3
B3
350
55
  3
B4
350
56
  3
B5
350
57
  3
B6
350
58
  3
B7
350
59
  3
B8
350
5A
  3
B9
350
5B
  3
C0
350
5C
  3
C1
350
5D
  3
C2
350
5E
  3
C3
350
5F
  3
C4
350
60
  3
C5
350
61
  3
C6
350
62
  3
C7
350
63
  3
C8
350
64
  3
C9
350
65
  3
D0
350
66
  3
D1
350
67
  3
D2
350
68
  0
DICTIONARY
  5
1F3
102
{ACAD_REACTORS
330
C
102
}
330
C
100
AcDbDictionary
281
     1
  0
XRECORD
  5
1F8
102
{ACAD_REACTORS
330
C
102
}
330
C
100
AcDbXrecord
280
     1
  1
DWGPROPS COOKIE
  2

  3

  4

  6

  7

  8
12016016
  9

300
=
301
=
302
=
303
=
304
=
305
=
306
=
307
=
308
=
309
=
 40
0.0
 41
2458298.969554687
 42
2458302.209310417
  1

 90
        0
  0
LAYOUT
  5
1E
102
{ACAD_REACTORS
330
1A
102
}
330
1A
100
AcDbPlotSettings
  1

  2
none_device
  4

  6

 40
0.0
 41
0.0
 42
0.0
 43
0.0
 44
0.0
 45
0.0
 46
0.0
 47
0.0
 48
0.0
 49
0.0
140
0.0
141
0.0
142
1.0
143
1.0
 70
   688
 72
     1
 73
     0
 74
     5
  7

 75
    16
147
1.0
148
0.0
149
0.0
100
AcDbLayout
  1
Layout1
 70
     1
 71
     1
 10
0.0
 20
0.0
 11
420.0
 21
297.0
 12
0.0
 22
0.0
 32
0.0
 14
1.000000000000000E+20
 24
1.000000000000000E+20
 34
1.000000000000000E+20
 15
-1.000000000000000E+20
 25
-1.000000000000000E+20
 35
-1.000000000000000E+20
146
0.0
 13
0.0
 23
0.0
 33
0.0
 16
1.0
 26
0.0
 36
0.0
 17
0.0
 27
1.0
 37
0.0
 76
     0
330
1B
  0
LAYOUT
  5
26
102
{ACAD_REACTORS
330
1A
102
}
330
1A
100
AcDbPlotSettings
  1

  2
none_device
  4

  6

 40
0.0
 41
0.0
 42
0.0
 43
0.0
 44
0.0
 45
0.0
 46
0.0
 47
0.0
 48
0.0
 49
0.0
140
0.0
141
0.0
142
1.0
143
1.0
 70
   688
 72
     1
 73
     0
 74
     5
  7

 75
    16
147
1.0
148
0.0
149
0.0
100
AcDbLayout
  1
Layout2
 70
     1
 71
     2
 10
0.0
 20
0.0
 11
0.0
 21
0.0
 12
0.0
 22
0.0
 32
0.0
 14
0.0
 24
0.0
 34
0.0
 15
0.0
 25
0.0
 35
0.0
146
0.0
 13
0.0
 23
0.0
 33
0.0
 16
1.0
 26
0.0
 36
0.0
 17
0.0
 27
1.0
 37
0.0
 76
     0
330
23
  0
LAYOUT
  5
22
102
{ACAD_REACTORS
330
1A
102
}
330
1A
100
AcDbPlotSettings
  1

  2
none_device
  4
ANSI_A_(11.00_x_8.50_Inches)
  6

 40
6.35
 41
19.05
 42
6.35000508
 43
19.05000254
 44
279.4
 45
215.9
 46
98.76438513735204
 47
90.88064147516121
 48
0.0
 49
0.0
140
0.0
141
0.0
142
0.0787110341538491
143
1.0
 70
  1696
 72
     0
 73
     0
 74
     0
  7

 75
     0
147
0.0235690232323232
148
0.0
149
0.0
100
AcDbLayout
  1
Model
 70
     1
 71
     0
 10
0.0
 20
0.0
 11
420.0
 21
297.0
 12
0.0
 22
0.0
 32
0.0
 14
-45.46000000000009
 24
-50.28867796974448
 34
0.0
 15
86.47629082238856
 25
41.99964524059784
 35
0.0
146
0.0
 13
0.0
 23
0.0
 33
0.0
 16
1.0
 26
0.0
 36
0.0
 17
0.0
 27
1.0
 37
0.0
 76
     0
330
1F
331
29
  0
MLINESTYLE
  5
18
102
{ACAD_REACTORS
330
17
102
}
330
17
100
AcDbMlineStyle
  2
Standard
 70
     0
  3

 62
   256
 51
90.0
 52
90.0
 71
     2
 49
0.5
 62
   256
  6
BYLAYER
 49
-0.5
 62
   256
  6
BYLAYER
  0
ACDBPLACEHOLDER
  5
F
102
{ACAD_REACTORS
330
E
102
}
330
E
  0
SCALE
  5
48
102
{ACAD_REACTORS
330
47
102
}
330
47
100
AcDbScale
 70
     0
300
1:1
140
1.0
141
1.0
290
     1
  0
SCALE
  5
49
102
{ACAD_REACTORS
330
47
102
}
330
47
100
AcDbScale
 70
     0
300
1:2
140
1.0
141
2.0
290
     0
  0
SCALE
  5
4A
102
{ACAD_REACTORS
330
47
102
}
330
47
100
AcDbScale
 70
     0
300
1:4
140
1.0
141
4.0
290
     0
  0
SCALE
  5
4B
102
{ACAD_REACTORS
330
47
102
}
330
47
100
AcDbScale
 70
     0
300
1:5
140
1.0
141
5.0
290
     0
  0
SCALE
  5
4C
102
{ACAD_REACTORS
330
47
102
}
330
47
100
AcDbScale
 70
     0
300
1:8
140
1.0
141
8.0
290
     0
  0
SCALE
  5
4D
102
{ACAD_REACTORS
330
47
102
}
330
47
100
AcDbScale
 70
     0
300
1:10
140
1.0
141
10.0
290
     0
  0
SCALE
  5
4E
102
{ACAD_REACTORS
330
47
102
}
330
47
100
AcDbScale
 70
     0
300
1:16
140
1.0
141
16.0
290
     0
  0
SCALE
  5
4F
102
{ACAD_REACTORS
330
47
102
}
330
47
100
AcDbScale
 70
     0
300
1:20
140
1.0
141
20.0
290
     0
  0
SCALE
  5
50
102
{ACAD_REACTORS
330
47
102
}
330
47
100
AcDbScale
 70
     0
300
1:30
140
1.0
141
30.0
290
     0
  0
SCALE
  5
51
102
{ACAD_REACTORS
330
47
102
}
330
47
100
AcDbScale
 70
     0
300
1:40
140
1.0
141
40.0
290
     0
  0
SCALE
  5
52
102
{ACAD_REACTORS
330
47
102
}
330
47
100
AcDbScale
 70
     0
300
1:50
140
1.0
141
50.0
290
     0
  0
SCALE
  5
53
102
{ACAD_REACTORS
330
47
102
}
330
47
100
AcDbScale
 70
     0
300
1:100
140
1.0
141
100.0
290
     0
  0
SCALE
  5
54
102
{ACAD_REACTORS
330
47
102
}
330
47
100
AcDbScale
 70
     0
300
2:1
140
2.0
141
1.0
290
     0
  0
SCALE
  5
55
102
{ACAD_REACTORS
330
47
102
}
330
47
100
AcDbScale
 70
     0
300
4:1
140
4.0
141
1.0
290
     0
  0
SCALE
  5
56
102
{ACAD_REACTORS
330
47
102
}
330
47
100
AcDbScale
 70
     0
300
8:1
140
8.0
141
1.0
290
     0
  0
SCALE
  5
57
102
{ACAD_REACTORS
330
47
102
}
330
47
100
AcDbScale
 70
     0
300
10:1
140
10.0
141
1.0
290
     0
  0
SCALE
  5
58
102
{ACAD_REACTORS
330
47
102
}
330
47
100
AcDbScale
 70
     0
300
100:1
140
100.0
141
1.0
290
     0
  0
SCALE
  5
59
102
{ACAD_REACTORS
330
47
102
}
330
47
100
AcDbScale
 70
     0
300
1/128" = 1'-0"
140
0.0078125
141
12.0
290
     0
  0
SCALE
  5
5A
102
{ACAD_REACTORS
330
47
102
}
330
47
100
AcDbScale
 70
     0
300
1/64" = 1'-0"
140
0.015625
141
12.0
290
     0
  0
SCALE
  5
5B
102
{ACAD_REACTORS
330
47
102
}
330
47
100
AcDbScale
 70
     0
300
1/32" = 1'-0"
140
0.03125
141
12.0
290
     0
  0
SCALE
  5
5C
102
{ACAD_REACTORS
330
47
102
}
330
47
100
AcDbScale
 70
     0
300
1/16" = 1'-0"
140
0.0625
141
12.0
290
     0
  0
SCALE
  5
5D
102
{ACAD_REACTORS
330
47
102
}
330
47
100
AcDbScale
 70
     0
300
3/32" = 1'-0"
140
0.09375
141
12.0
290
     0
  0
SCALE
  5
5E
102
{ACAD_REACTORS
330
47
102
}
330
47
100
AcDbScale
 70
     0
300
1/8" = 1'-0"
140
0.125
141
12.0
290
     0
  0
SCALE
  5
5F
102
{ACAD_REACTORS
330
47
102
}
330
47
100
AcDbScale
 70
     0
300
3/16" = 1'-0"
140
0.1875
141
12.0
290
     0
  0
SCALE
  5
60
102
{ACAD_REACTORS
330
47
102
}
330
47
100
AcDbScale
 70
     0
300
1/4" = 1'-0"
140
0.25
141
12.0
290
     0
  0
SCALE
  5
61
102
{ACAD_REACTORS
330
47
102
}
330
47
100
AcDbScale
 70
     0
300
3/8" = 1'-0"
140
0.375
141
12.0
290
     0
  0
SCALE
  5
62
102
{ACAD_REACTORS
330
47
102
}
330
47
100
AcDbScale
 70
     0
300
1/2" = 1'-0"
140
0.5
141
12.0
290
     0
  0
SCALE
  5
63
102
{ACAD_REACTORS
330
47
102
}
330
47
100
AcDbScale
 70
     0
300
3/4" = 1'-0"
140
0.75
141
12.0
290
     0
  0
SCALE
  5
64
102
{ACAD_REACTORS
330
47
102
}
330
47
100
AcDbScale
 70
     0
300
1" = 1'-0"
140
1.0
141
12.0
290
     0
  0
SCALE
  5
65
102
{ACAD_REACTORS
330
47
102
}
330
47
100
AcDbScale
 70
     0
300
1-1/2" = 1'-0"
140
1.5
141
12.0
290
     0
  0
SCALE
  5
66
102
{ACAD_REACTORS
330
47
102
}
330
47
100
AcDbScale
 70
     0
300
3" = 1'-0"
140
3.0
141
12.0
290
     0
  0
SCALE
  5
67
102
{ACAD_REACTORS
330
47
102
}
330
47
100
AcDbScale
 70
     0
300
6" = 1'-0"
140
6.0
141
12.0
290
     0
  0
SCALE
  5
68
102
{ACAD_REACTORS
330
47
102
}
330
47
100
AcDbScale
 70
     0
300
1'-0" = 1'-0"
140
12.0
141
12.0
290
     0
  0
ENDSEC
  0
EOF
