  0
SECTION
  2
HEADER
  9
$ACADVER
  1
AC1015
  9
$ACADMAINTVER
 70
     6
  9
$DWGCODEPAGE
  3
ANSI_949
  9
$INSBASE
 10
0.0
 20
0.0
 30
0.0
  9
$EXTMIN
 10
-48.82500000000011
 20
-50.28867796974447
 30
0.0
  9
$EXTMAX
 10
86.47629082238856
 20
41.19907034213167
 30
0.0
  9
$LIMMIN
 10
0.0
 20
0.0
  9
$LIMMAX
 10
420.0
 20
297.0
  9
$ORTHOMODE
 70
     0
  9
$REGENMODE
 70
     1
  9
$FILLMODE
 70
     1
  9
$QTEXTMODE
 70
     0
  9
$MIRRTEXT
 70
     1
  9
$LTSCALE
 40
1.0
  9
$ATTMODE
 70
     1
  9
$TEXTSIZE
 40
3.5
  9
$TRACEWID
 40
1.0
  9
$TEXTSTYLE
  7
Standard
  9
$CLAYER
  8
0
  9
$CELTYPE
  6
ByLayer
  9
$CECOLOR
 62
   256
  9
$CELTSCALE
 40
1.0
  9
$DISPSILH
 70
     0
  9
$DIMSCALE
 40
1.0
  9
$DIMASZ
 40
3.302
  9
$DIMEXO
 40
1.0
  9
$DIMDLI
 40
3.75
  9
$DIMRND
 40
0.0
  9
$DIMDLE
 40
0.0
  9
$DIMEXE
 40
1.0
  9
$DIMTP
 40
0.0
  9
$DIMTM
 40
0.0
  9
$DIMTXT
 40
3.5
  9
$DIMCEN
 40
2.5
  9
$DIMTSZ
 40
0.0
  9
$DIMTOL
 70
     0
  9
$DIMLIM
 70
     0
  9
$DIMTIH
 70
     1
  9
$DIMTOH
 70
     1
  9
$DIMSE1
 70
     0
  9
$DIMSE2
 70
     0
  9
$DIMTAD
 70
     1
  9
$DIMZIN
 70
     0
  9
$DIMBLK
  1

  9
$DIMASO
 70
     1
  9
$DIMSHO
 70
     1
  9
$DIMPOST
  1

  9
$DIMAPOST
  1

  9
$DIMALT
 70
     0
  9
$DIMALTD
 70
     3
  9
$DIMALTF
 40
0.0393700787401575
  9
$DIMLFAC
 40
1.0
  9
$DIMTOFL
 70
     1
  9
$DIMTVP
 40
0.0
  9
$DIMTIX
 70
     0
  9
$DIMSOXD
 70
     0
  9
$DIMSAH
 70
     0
  9
$DIMBLK1
  1

  9
$DIMBLK2
  1

  9
$DIMSTYLE
  2
ISO-25
  9
$DIMCLRD
 70
     0
  9
$DIMCLRE
 70
     0
  9
$DIMCLRT
 70
     0
  9
$DIMTFAC
 40
1.0
  9
$DIMGAP
 40
1.524
  9
$DIMJUST
 70
     0
  9
$DIMSD1
 70
     0
  9
$DIMSD2
 70
     0
  9
$DIMTOLJ
 70
     0
  9
$DIMTZIN
 70
     0
  9
$DIMALTZ
 70
     0
  9
$DIMALTTZ
 70
     0
  9
$DIMUPT
 70
     0
  9
$DIMDEC
 70
     2
  9
$DIMTDEC
 70
     2
  9
$DIMALTU
 70
     2
  9
$DIMALTTD
 70
     3
  9
$DIMTXSTY
  7
Standard
  9
$DIMAUNIT
 70
     0
  9
$DIMADEC
 70
     2
  9
$DIMALTRND
 40
0.0
  9
$DIMAZIN
 70
     0
  9
$DIMDSEP
 70
    44
  9
$DIMATFIT
 70
     3
  9
$DIMFRAC
 70
     0
  9
$DIMLDRBLK
  1

  9
$DIMLUNIT
 70
     2
  9
$DIMLWD
 70
    -2
  9
$DIMLWE
 70
    -2
  9
$DIMTMOVE
 70
     0
  9
$LUNITS
 70
     2
  9
$LUPREC
 70
     2
  9
$SKETCHINC
 40
1.0
  9
$FILLETRAD
 40
10.0
  9
$AUNITS
 70
     0
  9
$AUPREC
 70
     2
  9
$MENU
  1
.
  9
$ELEVATION
 40
0.0
  9
$PELEVATION
 40
0.0
  9
$THICKNESS
 40
0.0
  9
$LIMCHECK
 70
     0
  9
$CHAMFERA
 40
0.0
  9
$CHAMFERB
 40
0.0
  9
$CHAMFERC
 40
0.0
  9
$CHAMFERD
 40
0.0
  9
$SKPOLY
 70
     0
  9
$TDCREATE
 40
2458299.344443102
  9
$TDUCREATE
 40
2458298.969443102
  9
$TDUPDATE
 40
2458302.583715984
  9
$TDUUPDATE
 40
2458302.208715984
  9
$TDINDWG
 40
0.001765787
  9
$TDUSRTIMER
 40
2458302.206950382
  9
$USRTIMER
 70
     1
  9
$ANGBASE
 50
0.0
  9
$ANGDIR
 70
     0
  9
$PDMODE
 70
     0
  9
$PDSIZE
 40
-1.0
  9
$PLINEWID
 40
0.0
  9
$SPLFRAME
 70
     0
  9
$SPLINETYPE
 70
     6
  9
$SPLINESEGS
 70
     8
  9
$HANDSEED
  5
20C
  9
$SURFTAB1
 70
     6
  9
$SURFTAB2
 70
     6
  9
$SURFTYPE
 70
     6
  9
$SURFU
 70
     6
  9
$SURFV
 70
     6
  9
$UCSBASE
  2

  9
$UCSNAME
  2

  9
$UCSORG
 10
0.0
 20
0.0
 30
0.0
  9
$UCSXDIR
 10
1.0
 20
0.0
 30
0.0
  9
$UCSYDIR
 10
0.0
 20
1.0
 30
0.0
  9
$UCSORTHOREF
  2

  9
$UCSORTHOVIEW
 70
     0
  9
$UCSORGTOP
 10
0.0
 20
0.0
 30
0.0
  9
$UCSORGBOTTOM
 10
0.0
 20
0.0
 30
0.0
  9
$UCSORGLEFT
 10
0.0
 20
0.0
 30
0.0
  9
$UCSORGRIGHT
 10
0.0
 20
0.0
 30
0.0
  9
$UCSORGFRONT
 10
0.0
 20
0.0
 30
0.0
  9
$UCSORGBACK
 10
0.0
 20
0.0
 30
0.0
  9
$PUCSBASE
  2

  9
$PUCSNAME
  2

  9
$PUCSORG
 10
0.0
 20
0.0
 30
0.0
  9
$PUCSXDIR
 10
1.0
 20
0.0
 30
0.0
  9
$PUCSYDIR
 10
0.0
 20
1.0
 30
0.0
  9
$PUCSORTHOREF
  2

  9
$PUCSORTHOVIEW
 70
     0
  9
$PUCSORGTOP
 10
0.0
 20
0.0
 30
0.0
  9
$PUCSORGBOTTOM
 10
0.0
 20
0.0
 30
0.0
  9
$PUCSORGLEFT
 10
0.0
 20
0.0
 30
0.0
  9
$PUCSORGRIGHT
 10
0.0
 20
0.0
 30
0.0
  9
$PUCSORGFRONT
 10
0.0
 20
0.0
 30
0.0
  9
$PUCSORGBACK
 10
0.0
 20
0.0
 30
0.0
  9
$USERI1
 70
     0
  9
$USERI2
 70
     0
  9
$USERI3
 70
     0
  9
$USERI4
 70
     0
  9
$USERI5
 70
     0
  9
$USERR1
 40
0.0
  9
$USERR2
 40
0.0
  9
$USERR3
 40
0.0
  9
$USERR4
 40
0.0
  9
$USERR5
 40
0.0
  9
$WORLDVIEW
 70
     1
  9
$SHADEDGE
 70
     3
  9
$SHADEDIF
 70
    70
  9
$TILEMODE
 70
     1
  9
$MAXACTVP
 70
    64
  9
$PINSBASE
 10
0.0
 20
0.0
 30
0.0
  9
$PLIMCHECK
 70
     0
  9
$PEXTMIN
 10
1.000000000000000E+20
 20
1.000000000000000E+20
 30
1.000000000000000E+20
  9
$PEXTMAX
 10
-1.000000000000000E+20
 20
-1.000000000000000E+20
 30
-1.000000000000000E+20
  9
$PLIMMIN
 10
0.0
 20
0.0
  9
$PLIMMAX
 10
0.0
 20
0.0
  9
$UNITMODE
 70
     0
  9
$VISRETAIN
 70
     1
  9
$PLINEGEN
 70
     0
  9
$PSLTSCALE
 70
     1
  9
$TREEDEPTH
 70
  3020
  9
$CMLSTYLE
  2
Standard
  9
$CMLJUST
 70
     0
  9
$CMLSCALE
 40
20.0
  9
$PROXYGRAPHICS
 70
     1
  9
$MEASUREMENT
 70
     1
  9
$CELWEIGHT
370
    -1
  9
$ENDCAPS
280
     0
  9
$JOINSTYLE
280
     0
  9
$LWDISPLAY
290
     1
  9
$INSUNITS
 70
     4
  9
$HYPERLINKBASE
  1

  9
$STYLESHEET
  1

  9
$XEDIT
290
     1
  9
$CEPSNTYPE
380
     0
  9
$PSTYLEMODE
290
     1
  9
$FINGERPRINTGUID
  2
{3388E3B8-E27A-4EED-979B-39603AABA36E}
  9
$VERSIONGUID
  2
{FAEB1C32-E019-11D5-929B-00C0DF256EC4}
  9
$EXTNAMES
290
     1
  9
$PSVPSCALE
 40
0.0
  9
$OLESTARTUP
290
     0
  0
ENDSEC
  0
SECTION
  2
CLASSES
  0
CLASS
  1
ACDBDICTIONARYWDFLT
  2
AcDbDictionaryWithDefault
  3
ObjectDBX Classes
 90
        0
280
     0
281
     0
  0
CLASS
  1
VISUALSTYLE
  2
AcDbVisualStyle
  3
ObjectDBX Classes
 90
     4095
280
     0
281
     0
  0
CLASS
  1
MATERIAL
  2
AcDbMaterial
  3
ObjectDBX Classes
 90
     1153
280
     0
281
     0
  0
CLASS
  1
SCALE
  2
AcDbScale
  3
ObjectDBX Classes
 90
     1153
280
     0
281
     0
  0
CLASS
  1
SUN
  2
AcDbSun
  3
SCENEOE
 90
     1153
280
     0
281
     0
  0
CLASS
  1
ACDBPLACEHOLDER
  2
AcDbPlaceHolder
  3
ObjectDBX Classes
 90
        0
280
     0
281
     0
  0
CLASS
  1
LAYOUT
  2
AcDbLayout
  3
ObjectDBX Classes
 90
        0
280
     0
281
     0
  0
CLASS
  1
TABLESTYLE
  2
AcDbTableStyle
  3
ObjectDBX Classes
 90
     4095
280
     0
281
     0
  0
CLASS
  1
MLEADERSTYLE
  2
AcDbMLeaderStyle
  3
ACDB_MLEADERSTYLE_CLASS
 90
     4095
280
     0
281
     0
  0
CLASS
  1
RASTERVARIABLES
  2
AcDbRasterVariables
  3
ISM
 90
        0
280
     0
281
     0
  0
ENDSEC
  0
SECTION
  2
TABLES
  0
TABLE
  2
VPORT
  5
8
330
0
100
AcDbSymbolTable
 70
     1
  0
VPORT
  5
29
330
8
100
AcDbSymbolTableRecord
100
AcDbViewportTableRecord
  2
*Active
 70
     0
 10
0.0
 20
0.0
 11
1.0
 21
1.0
 12
34.38241111320988
 22
6.662340864661846
 13
0.0
 23
0.0
 14
10.0
 24
10.0
 15
10.0
 25
10.0
 16
0.0
 26
0.0
 36
1.0
 17
0.0
 27
0.0
 37
0.0
 40
127.5284282855965
 41
1.595744680851064
 42
50.0
 43
0.0
 44
0.0
 50
0.0
 51
0.0
 71
    16
 72
  2000
 73
     1
 74
     3
 75
     0
 76
     0
 77
     0
 78
     0
281
     0
 65
     1
110
0.0
120
0.0
130
0.0
111
1.0
121
0.0
131
0.0
112
0.0
122
1.0
132
0.0
 79
     0
146
0.0
  0
ENDTAB
  0
TABLE
  2
LTYPE
  5
5
330
0
100
AcDbSymbolTable
 70
     6
  0
LTYPE
  5
14
330
5
100
AcDbSymbolTableRecord
100
AcDbLinetypeTableRecord
  2
ByBlock
 70
     0
  3

 72
    65
 73
     0
 40
0.0
  0
LTYPE
  5
15
330
5
100
AcDbSymbolTableRecord
100
AcDbLinetypeTableRecord
  2
ByLayer
 70
     0
  3

 72
    65
 73
     0
 40
0.0
  0
LTYPE
  5
16
330
5
100
AcDbSymbolTableRecord
100
AcDbLinetypeTableRecord
  2
Continuous
 70
     0
  3
Solid line
 72
    65
 73
     0
 40
0.0
  0
LTYPE
  5
6A
330
5
100
AcDbSymbolTableRecord
100
AcDbLinetypeTableRecord
  2
HIDDEN
 70
     0
  3
Hidden __ __ __ __ __ __ __ __ __ __ __ __ __ __
 72
    65
 73
     2
 40
1.905
 49
1.27
 74
     0
 49
-0.635
 74
     0
  0
LTYPE
  5
6B
330
5
100
AcDbSymbolTableRecord
100
AcDbLinetypeTableRecord
  2
PHANTOM
 70
     0
  3
Phantom ______  __  __  ______  __  __  ______
 72
    65
 73
     6
 40
12.7
 49
6.35
 74
     0
 49
-1.27
 74
     0
 49
1.27
 74
     0
 49
-1.27
 74
     0
 49
1.27
 74
     0
 49
-1.27
 74
     0
  0
LTYPE
  5
6C
330
5
100
AcDbSymbolTableRecord
100
AcDbLinetypeTableRecord
  2
CENTER
 70
     0
  3
Center ____ _ ____ _ ____ _ ____ _ ____ _ ____
 72
    65
 73
     4
 40
10.16
 49
6.35
 74
     0
 49
-1.27
 74
     0
 49
1.27
 74
     0
 49
-1.27
 74
     0
  0
LTYPE
  5
6D
330
5
100
AcDbSymbolTableRecord
100
AcDbLinetypeTableRecord
  2
CENTERX2
 70
     0
  3
Center (2x) ________  __  ________  __  _____
 72
    65
 73
     4
 40
20.32
 49
12.7
 74
     0
 49
-2.54
 74
     0
 49
2.54
 74
     0
 49
-2.54
 74
     0
  0
LTYPE
  5
6E
330
5
100
AcDbSymbolTableRecord
100
AcDbLinetypeTableRecord
  2
DOT2
 70
     0
  3
Dot (.5x) ........................................
 72
    65
 73
     2
 40
0.635
 49
0.0
 74
     0
 49
-0.635
 74
     0
  0
ENDTAB
  0
TABLE
  2
LAYER
  5
2
330
0
100
AcDbSymbolTable
 70
    18
  0
LAYER
  5
10
330
2
100
AcDbSymbolTableRecord
100
AcDbLayerTableRecord
  2
0
 70
     0
 62
     7
  6
Continuous
370
    -3
390
F
  0
LAYER
  5
6F
330
2
100
AcDbSymbolTableRecord
100
AcDbLayerTableRecord
  2
FORMAT
 70
     0
 62
     2
  6
Continuous
370
    -3
390
F
  0
LAYER
  5
70
330
2
100
AcDbSymbolTableRecord
100
AcDbLayerTableRecord
  2
외형선
 70
     0
 62
     4
  6
Continuous
370
    30
390
F
  0
LAYER
  5
71
330
2
100
AcDbSymbolTableRecord
100
AcDbLayerTableRecord
  2
숨은선
 70
     0
 62
     2
  6
HIDDEN
370
    15
390
F
  0
LAYER
  5
72
330
2
100
AcDbSymbolTableRecord
100
AcDbLayerTableRecord
  2
중심선
 70
     0
 62
     1
  6
CENTERX2
370
    -3
390
F
  0
LAYER
  5
73
330
2
100
AcDbSymbolTableRecord
100
AcDbLayerTableRecord
  2
파단선
 70
     0
 62
     4
  6
Continuous
370
    -3
390
F
  0
LAYER
  5
74
330
2
100
AcDbSymbolTableRecord
100
AcDbLayerTableRecord
  2
해칭선
 70
     0
 62
   100
  6
Continuous
370
    -3
390
F
  0
LAYER
  5
75
330
2
100
AcDbSymbolTableRecord
100
AcDbLayerTableRecord
  2
가는실선
 70
     0
 62
     4
  6
Continuous
370
    -3
390
F
  0
LAYER
  5
76
330
2
100
AcDbSymbolTableRecord
100
AcDbLayerTableRecord
  2
치수_보조선
 70
     0
 62
     4
  6
Continuous
370
    -3
390
F
  0
LAYER
  5
77
330
2
100
AcDbSymbolTableRecord
100
AcDbLayerTableRecord
  2
치수문자_일반주서
 70
     0
 62
     7
  6
Continuous
370
    15
390
F
  0
LAYER
  5
78
330
2
100
AcDbSymbolTableRecord
100
AcDbLayerTableRecord
  2
개별주서
 70
     0
 62
   100
  6
Continuous
370
    30
390
F
  0
LAYER
  5
79
330
2
100
AcDbSymbolTableRecord
100
AcDbLayerTableRecord
  2
중간선
 70
     0
 62
     2
  6
Continuous
370
    15
390
F
  0
LAYER
  5
7A
330
2
100
AcDbSymbolTableRecord
100
AcDbLayerTableRecord
  2
윤곽선
 70
     0
 62
     3
  6
Continuous
370
    40
390
F
  0
LAYER
  5
7B
330
2
100
AcDbSymbolTableRecord
100
AcDbLayerTableRecord
  2
중심마크
 70
     0
 62
   100
  6
Continuous
370
    30
390
F
  0
LAYER
  5
7C
330
2
100
AcDbSymbolTableRecord
100
AcDbLayerTableRecord
  2
가상선
 70
     0
 62
     4
  6
PHANTOM
370
    -3
390
F
  0
LAYER
  5
7D
330
2
100
AcDbSymbolTableRecord
100
AcDbLayerTableRecord
  2
특수지정선
 70
     0
 62
     5
  6
CENTERX2
370
    60
390
F
  0
LAYER
  5
7E
330
2
100
AcDbSymbolTableRecord
100
AcDbLayerTableRecord
  2
참조1
 70
     0
 62
    -4
  6
Continuous
370
    -3
390
F
  0
LAYER
  5
208
330
2
100
AcDbSymbolTableRecord
100
AcDbLayerTableRecord
  2
Defpoints
 70
     0
 62
     7
  6
Continuous
290
     0
370
    -3
390
F
  0
ENDTAB
  0
TABLE
  2
STYLE
  5
3
330
0
100
AcDbSymbolTable
 70
     2
  0
STYLE
  5
11
330
3
100
AcDbSymbolTableRecord
100
AcDbTextStyleTableRecord
  2
Standard
 70
     0
 40
0.0
 41
1.0
 50
0.0
 71
     0
 42
3.5
  3
txt
  4

  0
STYLE
  5
94
330
3
100
AcDbSymbolTableRecord
100
AcDbTextStyleTableRecord
  2
SLDTEXTSTYLE0
 70
     0
 40
0.0
 41
0.75
 50
0.0
 71
     0
 42
3.5
  3
TXT
  4

  0
ENDTAB
  0
TABLE
  2
VIEW
  5
6
330
0
100
AcDbSymbolTable
 70
     0
  0
ENDTAB
  0
TABLE
  2
UCS
  5
7
330
0
100
AcDbSymbolTable
 70
     0
  0
ENDTAB
  0
TABLE
  2
APPID
  5
9
330
0
100
AcDbSymbolTable
 70
     1
  0
APPID
  5
12
330
9
100
AcDbSymbolTableRecord
100
AcDbRegAppTableRecord
  2
ACAD
 70
     0
  0
ENDTAB
  0
TABLE
  2
DIMSTYLE
  5
A
330
0
100
AcDbSymbolTable
 70
     4
100
AcDbDimStyleTable
  0
DIMSTYLE
105
27
330
A
100
AcDbSymbolTableRecord
100
AcDbDimStyleTableRecord
  2
ISO-25
 70
     0
 41
2.5
 42
0.625
 43
3.75
 44
1.25
 73
     0
 74
     0
 77
     1
 78
     8
140
2.5
141
2.5
143
0.03937007874016
147
0.625
171
     3
172
     1
178
     0
271
     2
272
     2
274
     3
278
    44
283
     0
284
     8
340
11
  0
DIMSTYLE
105
187
102
{ACAD_REACTORS
330
186
330
1AE
102
}
330
A
100
AcDbSymbolTableRecord
100
AcDbDimStyleTableRecord
  2
SLDDIMSTYLE0
 70
     0
 41
3.302
 44
0.0
 45
0.000000001
 73
     0
 74
     0
 77
     1
 78
    12
 79
     3
140
3.5
143
0.0393700787401575
147
0.875
148
0.000000001
170
     1
173
     1
178
     0
271
     2
272
     2
276
     2
284
    12
340
94
  0
DIMSTYLE
105
19A
102
{ACAD_REACTORS
330
199
102
}
330
A
100
AcDbSymbolTableRecord
100
AcDbDimStyleTableRecord
  2
SLDDIMSTYLE1
 70
     0
 41
3.302
 44
0.0
 45
0.000000001
 73
     0
 74
     0
 77
     1
 78
    12
 79
     3
140
3.5
143
0.0393700787401575
147
0.875
148
0.000000001
170
     1
172
     1
173
     1
178
     0
271
     2
272
     2
276
     2
284
    12
289
     0
340
94
  0
DIMSTYLE
105
1C3
102
{ACAD_REACTORS
330
1C2
102
}
330
A
100
AcDbSymbolTableRecord
100
AcDbDimStyleTableRecord
  2
SLDDIMSTYLE2
 70
     0
 41
3.302
 44
0.0
 45
0.000000001
 73
     0
 74
     0
 77
     1
 78
     4
 79
     1
140
3.5
143
0.0393700787401575
147
0.875
148
0.000000001
170
     1
173
     1
178
     0
271
     2
272
     2
276
     2
284
    12
340
94
  0
ENDTAB
  0
TABLE
  2
BLOCK_RECORD
  5
1
330
0
100
AcDbSymbolTable
 70
     7
  0
BLOCK_RECORD
  5
1F
330
1
100
AcDbSymbolTableRecord
100
AcDbBlockTableRecord
  2
*Model_Space
340
22
  0
BLOCK_RECORD
  5
1B
330
1
100
AcDbSymbolTableRecord
100
AcDbBlockTableRecord
  2
*Paper_Space
340
1E
  0
BLOCK_RECORD
  5
23
330
1
100
AcDbSymbolTableRecord
100
AcDbBlockTableRecord
  2
*Paper_Space0
340
26
  0
BLOCK_RECORD
  5
7F
330
1
100
AcDbSymbolTableRecord
100
AcDbBlockTableRecord
  2
블럭10
340
0
102
{BLKREFS
331
17E
102
}
  0
BLOCK_RECORD
  5
188
330
1
100
AcDbSymbolTableRecord
100
AcDbBlockTableRecord
  2
_D
340
0
  0
BLOCK_RECORD
  5
19B
330
1
100
AcDbSymbolTableRecord
100
AcDbBlockTableRecord
  2
_D_1
340
0
  0
BLOCK_RECORD
  5
1AF
330
1
100
AcDbSymbolTableRecord
100
AcDbBlockTableRecord
  2
_D_2
340
0
  0
BLOCK_RECORD
  5
1C4
330
1
100
AcDbSymbolTableRecord
100
AcDbBlockTableRecord
  2
_D_3
340
0
  0
BLOCK_RECORD
  5
1DD
330
1
100
AcDbSymbolTableRecord
100
AcDbBlockTableRecord
  2
SW_DOWELSYMBOL_0
340
0
102
{BLKREFS
331
1E3
102
}
  0
ENDTAB
  0
ENDSEC
  0
SECTION
  2
BLOCKS
  0
BLOCK
  5
20
330
1F
100
AcDbEntity
  8
0
100
AcDbBlockBegin
  2
*Model_Space
 70
     0
 10
0.0
 20
0.0
 30
0.0
  3
*Model_Space
  1
*Model_Space
  0
ENDBLK
  5
21
330
1F
100
AcDbEntity
  8
0
100
AcDbBlockEnd
  0
BLOCK
  5
1C
330
1B
100
AcDbEntity
 67
     1
  8
0
100
AcDbBlockBegin
  2
*Paper_Space
 70
     0
 10
0.0
 20
0.0
 30
0.0
  3
*Paper_Space
  1
*Paper_Space
  0
ENDBLK
  5
1D
330
1B
100
AcDbEntity
 67
     1
  8
0
100
AcDbBlockEnd
  0
BLOCK
  5
24
330
23
100
AcDbEntity
  8
0
100
AcDbBlockBegin
  2
*Paper_Space0
 70
     0
 10
0.0
 20
0.0
 30
0.0
  3
*Paper_Space0
  1
*Paper_Space0
  0
ENDBLK
  5
25
330
23
100
AcDbEntity
  8
0
100
AcDbBlockEnd
  0
BLOCK
  5
80
330
7F
100
AcDbEntity
  8
0
100
AcDbBlockBegin
  2
블럭10
 70
     2
 10
0.0
 20
0.0
 30
0.0
  3
블럭10
  1
블럭10
  0
ELLIPSE
  5
82
330
7F
100
AcDbEntity
  8
중심선
100
AcDbEllipse
 10
20.54032771741204
 20
12.0471743016438
 30
0.0
 11
6.600054785286829
 21
-1.261213355974178E-13
 31
0.0
210
0.0
220
0.0
230
1.0
 40
0.636358354079598
 41
0.9219305317359503
 42
6.513795318482858
  0
ELLIPSE
  5
83
330
7F
100
AcDbEntity
  8
중심선
100
AcDbEllipse
 10
20.54032771746488
 20
12.04717430159265
 30
0.0
 11
3.960054785062283
 21
1.540847449632565E-10
 31
0.0
210
0.0
220
0.0
230
1.0
 40
0.3939339440162632
 41
1.131841032648279
 42
5.62031148352944
  0
LINE
  5
84
330
7F
100
AcDbEntity
  8
중심선
100
AcDbLine
 10
2.268634060543552
 20
16.24717430164393
 30
0.0
 11
5.714909304380834
 21
16.24717430164393
 31
0.0
  0
LINE
  5
85
330
7F
100
AcDbEntity
  8
중심선
100
AcDbLine
 10
5.245725140726316
 20
7.84717430164391
 30
0.0
 11
8.692000384563599
 21
7.84717430164391
 31
0.0
  0
LINE
  5
86
330
7F
100
AcDbEntity
  8
중심선
100
AcDbLine
 10
15.74043728645272
 20
16.24717430164393
 30
0.0
 11
8.692000384563599
 21
7.84717430164391
 31
0.0
  0
LINE
  5
87
330
7F
100
AcDbEntity
  8
중심선
100
AcDbLine
 10
0.1404042013395286
 20
13.71084872107135
 30
0.0
 11
3.58671253028996
 21
13.71088815037384
 31
0.0
  0
LINE
  5
88
330
7F
100
AcDbEntity
  8
중심선
100
AcDbLine
 10
2.750260043222114
 20
10.84717430164391
 30
0.0
 11
6.196535287059397
 21
10.84717430164391
 31
0.0
  0
LINE
  5
89
330
7F
100
AcDbEntity
  8
중심선
100
AcDbLine
 10
12.29416204261559
 20
16.24717430164393
 30
0.0
 11
5.245725140726316
 21
7.84717430164391
 31
0.0
  0
LINE
  5
8A
330
7F
100
AcDbEntity
  8
중심선
100
AcDbLine
 10
10.72767329541681
 20
16.24717430164393
 30
0.0
 11
6.196535287059397
 21
10.84717430164391
 31
0.0
  0
LINE
  5
8B
330
7F
100
AcDbEntity
  8
중심선
100
AcDbLine
 10
7.28139805157953
 20
16.24717430164393
 30
0.0
 11
2.750260043222114
 21
10.84717430164391
 31
0.0
  0
LINE
  5
8C
330
7F
100
AcDbEntity
  8
중심선
100
AcDbLine
 10
5.714909304380834
 20
16.24717430164393
 30
0.0
 11
3.58671253028996
 21
13.71088815037384
 31
0.0
  0
LINE
  5
8D
330
7F
100
AcDbEntity
  8
중심선
100
AcDbLine
 10
2.268634060543552
 20
16.24717430164393
 30
0.0
 11
0.1404042013395286
 21
13.71084872107135
 31
0.0
  0
LINE
  5
8E
330
7F
100
AcDbEntity
  8
중심선
100
AcDbLine
 10
7.28139805157953
 20
16.24717430164393
 30
0.0
 11
10.72767329541681
 21
16.24717430164393
 31
0.0
  0
LINE
  5
8F
330
7F
100
AcDbEntity
  8
중심선
100
AcDbLine
 10
12.29416204261559
 20
16.24717430164393
 30
0.0
 11
15.74043728645272
 21
16.24717430164393
 31
0.0
  0
LINE
  5
90
330
7F
100
AcDbEntity
  8
중심선
100
AcDbLine
 10
19.22036997980202
 20
11.08717430171403
 30
0.0
 11
23.66174974927406
 21
11.08717430171406
 31
0.0
  0
LINE
  5
91
330
7F
100
AcDbEntity
  8
중심선
100
AcDbLine
 10
19.22039502424796
 20
13.00717430171391
 30
0.0
 11
19.22036997980202
 21
11.08717430171403
 31
0.0
  0
LINE
  5
92
330
7F
100
AcDbEntity
  8
중심선
100
AcDbLine
 10
19.22039502424796
 20
13.00717430171391
 30
0.0
 11
26.96566020931264
 21
13.00717430171391
 31
0.0
  0
LINE
  5
93
330
7F
100
AcDbEntity
  8
중심선
100
AcDbLine
 10
22.22332737316547
 20
13.45928029700563
 30
0.0
 11
24.52862924686651
 21
15.39360700705356
 31
0.0
  0
ATTDEF
  5
95
330
7F
100
AcDbEntity
  8
FORMAT
 62
     2
100
AcDbText
 10
-9.522313950597932
 20
2.075366912832191
 30
0.0
 40
4.233333333333333
  1
EH095020 [ 3 FLUTE ]
 41
0.75
  7
SLDTEXTSTYLE0
 11
-9.522313950597932
 21
-0.0412997538344756
 31
0.0
100
AcDbAttributeDefinition
  3

  2
AUTOATTR0
 70
     0
 74
     1
  0
ENDBLK
  5
81
330
7F
100
AcDbEntity
  8
0
100
AcDbBlockEnd
  0
BLOCK
  5
189
330
188
100
AcDbEntity
  8
0
100
AcDbBlockBegin
  2
_D
 70
     0
 10
0.0
 20
0.0
 30
0.0
  3
_D
  1
_D
  0
LINE
  5
18B
330
188
100
AcDbEntity
  8
치수문자_일반주서
 62
     0
370
    -2
100
AcDbLine
 10
7.042693351749503
 20
3.968750000000005
 30
0.0
 11
43.30020339749635
 21
3.968750000000139
 31
0.0
  0
LINE
  5
18C
330
188
100
AcDbEntity
  8
치수문자_일반주서
 62
     0
370
    -2
100
AcDbLine
 10
24.11316700702119
 20
-3.96875
 30
0.0
 11
43.30020339749638
 21
-3.968749999999929
 31
0.0
  0
LINE
  5
18D
330
188
100
AcDbEntity
  8
치수문자_일반주서
 62
     0
370
    -2
100
AcDbLine
 10
43.30020339749635
 20
3.968750000000139
 30
0.0
 11
43.30020339749623
 21
38.57275000000014
 31
0.0
  0
LINE
  5
18E
330
188
100
AcDbEntity
  8
치수문자_일반주서
 62
     0
370
    -2
100
AcDbLine
 10
43.30020339749633
 20
7.270750000000138
 30
0.0
 11
43.30020339749632
 21
10.57275000000014
 31
0.0
  0
LINE
  5
18F
330
188
100
AcDbEntity
  8
치수문자_일반주서
 62
     0
370
    -2
100
AcDbLine
 10
43.30020339749639
 20
-7.270749999999929
 30
0.0
 11
43.3002033974964
 21
-10.57274999999993
 31
0.0
  0
SOLID
  5
190
330
188
100
AcDbEntity
  8
치수문자_일반주서
 62
     0
100
AcDbTrace
 10
42.749870064163
 20
7.270750000000136
 30
0.0
 11
43.85053673082967
 21
7.27075000000014
 31
0.0
 12
43.30020339749635
 22
3.968750000000139
 32
0.0
 13
43.30020339749635
 23
3.968750000000139
 33
0.0
  0
SOLID
  5
191
330
188
100
AcDbEntity
  8
치수문자_일반주서
 62
     0
100
AcDbTrace
 10
43.85053673082972
 20
-7.270749999999927
 30
0.0
 11
42.74987006416305
 21
-7.27074999999993
 31
0.0
 12
43.30020339749638
 22
-3.968749999999929
 32
0.0
 13
43.30020339749638
 23
-3.968749999999929
 33
0.0
  0
MTEXT
  5
192
330
188
100
AcDbEntity
  8
치수문자_일반주서
 62
     0
100
AcDbMText
 10
38.92520339749628
 20
24.57275000000012
 30
0.0
 40
3.5
 41
0.0
 71
     2
 72
     1
  1
\A1;%%c7.94 [5/16]
  7
SLDTEXTSTYLE0
 11
-3.580687802255591E-15
 21
1.0
 31
0.0
 73
     1
 44
1.0
  0
POINT
  5
193
330
188
100
AcDbEntity
  8
Defpoints
 62
     0
100
AcDbPoint
 10
6.980193351749503
 20
3.968750000000005
 30
0.0
  0
POINT
  5
194
330
188
100
AcDbEntity
  8
Defpoints
 62
     0
100
AcDbPoint
 10
24.05066700702119
 20
-3.96875
 30
0.0
  0
POINT
  5
195
330
188
100
AcDbEntity
  8
Defpoints
 62
     0
100
AcDbPoint
 10
43.30020339749638
 20
-3.968749999999929
 30
0.0
  0
ENDBLK
  5
18A
330
188
100
AcDbEntity
  8
0
100
AcDbBlockEnd
  0
BLOCK
  5
19C
330
19B
100
AcDbEntity
  8
0
100
AcDbBlockBegin
  2
_D_1
 70
     0
 10
0.0
 20
0.0
 30
0.0
  3
_D_1
  1
_D_1
  0
LINE
  5
19E
330
19B
100
AcDbEntity
  8
치수문자_일반주서
 62
     0
370
    -2
100
AcDbLine
 10
-33.70250000000003
 20
3.968749999999992
 30
0.0
 11
-44.45000000000007
 21
3.968749999999954
 31
0.0
  0
LINE
  5
19F
330
19B
100
AcDbEntity
  8
치수문자_일반주서
 62
     0
370
    -2
100
AcDbLine
 10
-33.70250000000003
 20
-3.968749999999994
 30
0.0
 11
-44.45000000000005
 21
-3.968750000000033
 31
0.0
  0
LINE
  5
1A0
330
19B
100
AcDbEntity
  8
치수문자_일반주서
 62
     0
370
    -2
100
AcDbLine
 10
-44.45000000000006
 20
0.6667499999999542
 30
0.0
 11
-44.45000000000006
 21
-0.6667500000000333
 31
0.0
  0
SOLID
  5
1A1
330
19B
100
AcDbEntity
  8
치수문자_일반주서
 62
     0
100
AcDbTrace
 10
-43.89966666666673
 20
0.6667499999999562
 30
0.0
 11
-45.00033333333339
 21
0.6667499999999522
 31
0.0
 12
-44.45000000000007
 22
3.968749999999954
 32
0.0
 13
-44.45000000000007
 23
3.968749999999954
 33
0.0
  0
SOLID
  5
1A2
330
19B
100
AcDbEntity
  8
치수문자_일반주서
 62
     0
100
AcDbTrace
 10
-45.00033333333339
 20
-0.6667500000000353
 30
0.0
 11
-43.89966666666673
 21
-0.6667500000000313
 31
0.0
 12
-44.45000000000005
 22
-3.968750000000033
 32
0.0
 13
-44.45000000000005
 23
-3.968750000000033
 33
0.0
  0
MTEXT
  5
1A3
330
19B
100
AcDbEntity
  8
치수문자_일반주서
 62
     0
100
AcDbMText
 10
-48.82500000000006
 20
-0.6358402172629094
 30
0.0
 40
3.5
 41
0.0
 71
     2
 72
     1
  1
\A1;%%c7.94 [5/16]
  7
SLDTEXTSTYLE0
 11
-3.580687802255629E-15
 21
1.0
 31
0.0
 73
     1
 44
1.0
  0
POINT
  5
1A4
330
19B
100
AcDbEntity
  8
Defpoints
 62
     0
100
AcDbPoint
 10
-33.64000000000003
 20
3.968749999999992
 30
0.0
  0
POINT
  5
1A5
330
19B
100
AcDbEntity
  8
Defpoints
 62
     0
100
AcDbPoint
 10
-33.64000000000003
 20
-3.968749999999993
 30
0.0
  0
POINT
  5
1A6
330
19B
100
AcDbEntity
  8
Defpoints
 62
     0
100
AcDbPoint
 10
-44.45000000000005
 20
-3.968750000000034
 30
0.0
  0
ENDBLK
  5
19D
330
19B
100
AcDbEntity
  8
0
100
AcDbBlockEnd
  0
BLOCK
  5
1B0
330
1AF
100
AcDbEntity
  8
0
100
AcDbBlockBegin
  2
_D_2
 70
     0
 10
0.0
 20
0.0
 30
0.0
  3
_D_2
  1
_D_2
  0
LINE
  5
1B2
330
1AF
100
AcDbEntity
  8
치수문자_일반주서
 62
     0
370
    -2
100
AcDbLine
 10
29.04999999999999
 20
2.632281359493128
 30
0.0
 11
29.04999999999998
 21
18.42475796098676
 31
0.0
  0
LINE
  5
1B3
330
1AF
100
AcDbEntity
  8
치수문자_일반주서
 62
     0
370
    -2
100
AcDbLine
 10
9.999999999999988
 20
3.305806165517697
 30
0.0
 11
9.999999999999984
 21
18.42475796098676
 31
0.0
  0
LINE
  5
1B4
330
1AF
100
AcDbEntity
  8
치수문자_일반주서
 62
     0
370
    -2
100
AcDbLine
 10
9.999999999999984
 20
18.42475796098676
 30
0.0
 11
-18.45825000000001
 21
18.42475796098676
 31
0.0
  0
LINE
  5
1B5
330
1AF
100
AcDbEntity
  8
치수문자_일반주서
 62
     0
370
    -2
100
AcDbLine
 10
25.74799999999998
 20
18.42475796098676
 30
0.0
 11
13.30199999999998
 21
18.42475796098676
 31
0.0
  0
SOLID
  5
1B6
330
1AF
100
AcDbEntity
  8
치수문자_일반주서
 62
     0
100
AcDbTrace
 10
25.74799999999998
 20
17.87442462765342
 30
0.0
 11
25.74799999999998
 21
18.97509129432009
 31
0.0
 12
29.04999999999998
 22
18.42475796098676
 32
0.0
 13
29.04999999999998
 23
18.42475796098676
 33
0.0
  0
SOLID
  5
1B7
330
1AF
100
AcDbEntity
  8
치수문자_일반주서
 62
     0
100
AcDbTrace
 10
13.30199999999998
 20
18.97509129432009
 30
0.0
 11
13.30199999999998
 21
17.87442462765342
 31
0.0
 12
9.999999999999984
 22
18.42475796098676
 32
0.0
 13
9.999999999999984
 23
18.42475796098676
 33
0.0
  0
MTEXT
  5
1B8
330
1AF
100
AcDbEntity
  8
치수문자_일반주서
 62
     0
100
AcDbMText
 10
-5.989500000000012
 20
22.79975796098676
 30
0.0
 40
3.5
 41
0.0
 71
     2
 72
     1
  1
\A1;19.05 [3/4]
  7
SLDTEXTSTYLE0
 73
     1
 44
1.0
  0
POINT
  5
1B9
330
1AF
100
AcDbEntity
  8
Defpoints
 62
     0
100
AcDbPoint
 10
29.04999999999999
 20
2.569781359493128
 30
0.0
  0
POINT
  5
1BA
330
1AF
100
AcDbEntity
  8
Defpoints
 62
     0
100
AcDbPoint
 10
9.999999999999988
 20
3.243306165517697
 30
0.0
  0
POINT
  5
1BB
330
1AF
100
AcDbEntity
  8
Defpoints
 62
     0
100
AcDbPoint
 10
9.999999999999988
 20
18.42475796098676
 30
0.0
  0
ENDBLK
  5
1B1
330
1AF
100
AcDbEntity
  8
0
100
AcDbBlockEnd
  0
BLOCK
  5
1C5
330
1C4
100
AcDbEntity
  8
0
100
AcDbBlockBegin
  2
_D_3
 70
     0
 10
0.0
 20
0.0
 30
0.0
  3
_D_3
  1
_D_3
  0
LINE
  5
1C7
330
1C4
100
AcDbEntity
  8
치수문자_일반주서
 62
     0
370
    -2
100
AcDbLine
 10
29.04999999999998
 20
2.889190178507679
 30
0.0
 11
29.04999999999998
 21
36.82407034213167
 31
0.0
  0
LINE
  5
1C8
330
1C4
100
AcDbEntity
  8
치수문자_일반주서
 62
     0
370
    -2
100
AcDbLine
 10
-34.45000000000002
 20
3.221249999999995
 30
0.0
 11
-34.45000000000002
 21
36.82407034213167
 31
0.0
  0
LINE
  5
1C9
330
1C4
100
AcDbEntity
  8
치수문자_일반주서
 62
     0
370
    -2
100
AcDbLine
 10
25.74799999999998
 20
36.82407034213167
 30
0.0
 11
-31.14800000000002
 21
36.82407034213167
 31
0.0
  0
SOLID
  5
1CA
330
1C4
100
AcDbEntity
  8
치수문자_일반주서
 62
     0
100
AcDbTrace
 10
25.74799999999998
 20
36.27373700879834
 30
0.0
 11
25.74799999999998
 21
37.374403675465
 31
0.0
 12
29.04999999999998
 22
36.82407034213167
 32
0.0
 13
29.04999999999998
 23
36.82407034213167
 33
0.0
  0
SOLID
  5
1CB
330
1C4
100
AcDbEntity
  8
치수문자_일반주서
 62
     0
100
AcDbTrace
 10
-31.14800000000002
 20
37.374403675465
 30
0.0
 11
-31.14800000000002
 21
36.27373700879834
 31
0.0
 12
-34.45000000000002
 22
36.82407034213167
 32
0.0
 13
-34.45000000000002
 23
36.82407034213167
 33
0.0
  0
MTEXT
  5
1CC
330
1C4
100
AcDbEntity
  8
치수문자_일반주서
 62
     0
100
AcDbMText
 10
0.0762867256974915
 20
41.19907034213167
 30
0.0
 40
3.5
 41
0.0
 71
     2
 72
     1
  1
\A1;63.50 [2 1/2]
  7
SLDTEXTSTYLE0
 73
     1
 44
1.0
  0
POINT
  5
1CD
330
1C4
100
AcDbEntity
  8
Defpoints
 62
     0
100
AcDbPoint
 10
29.04999999999998
 20
2.826690178507679
 30
0.0
  0
POINT
  5
1CE
330
1C4
100
AcDbEntity
  8
Defpoints
 62
     0
100
AcDbPoint
 10
-34.45000000000002
 20
3.158749999999995
 30
0.0
  0
POINT
  5
1CF
330
1C4
100
AcDbEntity
  8
Defpoints
 62
     0
100
AcDbPoint
 10
-34.45000000000002
 20
36.82407034213167
 30
0.0
  0
ENDBLK
  5
1C6
330
1C4
100
AcDbEntity
  8
0
100
AcDbBlockEnd
  0
BLOCK
  5
1DE
330
1DD
100
AcDbEntity
  8
0
100
AcDbBlockBegin
  2
SW_DOWELSYMBOL_0
 70
     0
 10
0.0
 20
0.0
 30
0.0
  3
SW_DOWELSYMBOL_0
  1
SW_DOWELSYMBOL_0
  0
CIRCLE
  5
1E0
330
1DD
100
AcDbEntity
  8
해칭선
 62
     0
100
AcDbCircle
 10
0.0
 20
0.0
 30
0.0
 40
3.000000000000004
  0
HATCH
  5
1E1
330
1DD
100
AcDbEntity
  8
0
  6
Continuous
 62
     0
370
     0
100
AcDbHatch
 10
0.0
 20
0.0
 30
0.0
210
0.0
220
0.0
230
1.0
  2
SOLID
 70
     1
 71
     0
 91
        1
 92
        0
 93
        3
 72
     2
 10
0.0000000000000104
 20
-0.0000000000000035
 40
3.000000000000004
 50
0.0
 51
90.0
 73
     1
 72
     1
 10
0.0000000000000104
 20
3.000000000000001
 11
0.0000000000000104
 21
-0.0000000000000036
 72
     1
 10
0.0000000000000104
 20
-0.0000000000000035
 11
3.000000000000015
 21
-0.0000000000000035
 97
        0
 75
     0
 76
     1
 98
        1
 10
0.0
 20
0.0
  0
HATCH
  5
1E2
330
1DD
100
AcDbEntity
  8
0
  6
Continuous
 62
     0
370
     0
100
AcDbHatch
 10
0.0
 20
0.0
 30
0.0
210
0.0
220
0.0
230
1.0
  2
SOLID
 70
     1
 71
     0
 91
        1
 92
        0
 93
        3
 72
     2
 10
0.0000000000000104
 20
-0.0000000000000035
 40
3.000000000000004
 50
180.0
 51
270.0000000000008
 73
     1
 72
     1
 10
0.0000000000000104
 20
-3.000000000000008
 11
0.0000000000000104
 21
-0.0000000000000036
 72
     1
 10
0.0000000000000104
 20
-0.0000000000000035
 11
-2.999999999999994
 21
-0.0000000000000035
 97
        0
 75
     0
 76
     1
 98
        1
 10
0.0
 20
0.0
  0
ENDBLK
  5
1DF
330
1DD
100
AcDbEntity
  8
0
100
AcDbBlockEnd
  0
ENDSEC
  0
SECTION
  2
ENTITIES
  0
LINE
  5
96
330
1F
100
AcDbEntity
  8
외형선
  6
Continuous
370
    15
100
AcDbLine
 10
6.980193351749486
 20
3.96875
 30
0.0
 11
-33.64000000000001
 21
3.968749999999994
 31
0.0
  0
LINE
  5
97
330
1F
100
AcDbEntity
  8
외형선
  6
Continuous
370
    15
100
AcDbLine
 10
7.024277733016608
 20
-3.96875
 30
0.0
 11
9.999999999999988
 21
-3.96875
 31
0.0
  0
LINE
  5
98
330
1F
100
AcDbEntity
  8
외형선
  6
Continuous
370
    15
100
AcDbLine
 10
-33.64000000000001
 20
-3.968750000000006
 30
0.0
 11
6.98019335174949
 21
-3.96875
 31
0.0
  0
LINE
  5
99
330
1F
100
AcDbEntity
  8
외형선
  6
Continuous
370
    15
100
AcDbLine
 10
-33.64000000000001
 20
3.968749999999993
 30
0.0
 11
-34.45000000000002
 21
3.158749999999994
 31
0.0
  0
LINE
  5
9A
330
1F
100
AcDbEntity
  8
외형선
  6
Continuous
370
    15
100
AcDbLine
 10
-34.45000000000002
 20
-3.158750000000006
 30
0.0
 11
-33.64000000000001
 21
-3.968750000000007
 31
0.0
  0
LINE
  5
9B
330
1F
100
AcDbEntity
  8
외형선
  6
Continuous
 62
     1
370
    15
100
AcDbLine
 10
21.42103820918592
 20
-3.96875
 30
0.0
 11
22.33728992998042
 21
-3.96875
 31
0.0
  0
SPLINE
  5
9C
330
1F
100
AcDbEntity
  8
외형선
  6
Continuous
 62
     1
370
    15
100
AcDbSpline
210
0.0
220
0.0
230
1.0
 70
     8
 71
     3
 72
     9
 73
     5
 74
     0
 42
0.000000001
 43
0.00000001
 40
0.0
 40
0.0
 40
0.0
 40
0.0
 40
0.3290250756515605
 40
1.0
 40
1.0
 40
1.0
 40
1.0
 10
18.97124990593041
 20
3.819946994279754
 30
0.0
 10
18.94855675535977
 20
3.822731713752995
 30
0.0
 10
18.87958587061582
 20
3.8311952616079
 30
0.0
 10
18.82916359258664
 20
3.860376105361954
 30
0.0
 10
18.79533150840053
 20
3.879955719792252
 30
0.0
  0
SPLINE
  5
9D
330
1F
100
AcDbEntity
  8
외형선
  6
Continuous
 62
     1
370
    15
100
AcDbSpline
210
0.0
220
0.0
230
1.0
 70
     8
 71
     3
 72
     9
 73
     5
 74
     0
 42
0.000000001
 43
0.00000001
 40
0.0
 40
0.0
 40
0.0
 40
0.0
 40
0.4978839021052953
 40
1.0
 40
1.0
 40
1.0
 40
1.0
 10
18.78737861257449
 20
3.889858754206438
 30
0.0
 10
18.76153443683149
 20
3.907665891824846
 30
0.0
 10
18.70962640037216
 20
3.943431534262996
 30
0.0
 10
18.64943141200193
 20
3.952013441260604
 30
0.0
 10
18.61920653932865
 20
3.956322554914737
 30
0.0
  0
LINE
  5
9E
330
1F
100
AcDbEntity
  8
외형선
  6
Continuous
 62
     1
370
    15
100
AcDbLine
 10
18.58759393061615
 20
3.96875
 30
0.0
 11
17.01348096870131
 21
3.96875
 31
0.0
  0
SPLINE
  5
9F
330
1F
100
AcDbEntity
  8
외형선
  6
Continuous
 62
     1
370
    15
100
AcDbSpline
210
0.0
220
0.0
230
1.0
 70
     8
 71
     3
 72
     9
 73
     5
 74
     0
 42
0.000000001
 43
0.00000001
 40
0.0
 40
0.0
 40
0.0
 40
0.0
 40
0.5023186639075522
 40
1.0
 40
1.0
 40
1.0
 40
1.0
 10
22.33653044524507
 20
-3.968732867142506
 30
0.0
 10
22.36737145895867
 20
-3.966288730653528
 30
0.0
 10
22.42876876694179
 20
-3.961423021563672
 30
0.0
 10
22.48196201371865
 20
-3.928504481632379
 30
0.0
 10
22.50843529984565
 20
-3.91212153869716
 30
0.0
  0
SPLINE
  5
A0
330
1F
100
AcDbEntity
  8
외형선
  6
Continuous
 62
     1
370
    15
100
AcDbSpline
210
0.0
220
0.0
230
1.0
 70
     8
 71
     3
 72
    11
 73
     7
 74
     0
 42
0.000000001
 43
0.00000001
 40
0.0
 40
0.0
 40
0.0
 40
0.0
 40
0.2761561852540335
 40
0.5379201679780685
 40
0.779285163719947
 40
1.0
 40
1.0
 40
1.0
 40
1.0
 10
22.52220734203049
 20
-3.904186824819391
 30
0.0
 10
22.57172314710448
 20
-3.873619994960053
 30
0.0
 10
22.66817418316753
 20
-3.814079361324174
 30
0.0
 10
22.83925548008375
 20
-3.801708569021183
 30
0.0
 10
22.98195539848282
 20
-3.838628327835876
 30
0.0
 10
23.04425642396251
 20
-3.880345673608207
 30
0.0
 10
23.07401483297738
 20
-3.900272180900007
 30
0.0
  0
SPLINE
  5
A1
330
1F
100
AcDbEntity
  8
외형선
  6
Continuous
 62
     1
370
    15
100
AcDbSpline
210
0.0
220
0.0
230
1.0
 70
     8
 71
     3
 72
     9
 73
     5
 74
     0
 42
0.000000001
 43
0.00000001
 40
0.0
 40
0.0
 40
0.0
 40
0.0
 40
0.501798896971433
 40
1.0
 40
1.0
 40
1.0
 40
1.0
 10
17.01383081015539
 20
3.968749961002664
 30
0.0
 10
16.98004016192102
 20
3.965740492495868
 30
0.0
 10
16.91270113738685
 20
3.959743132746856
 30
0.0
 10
16.85352183228671
 20
3.920061753852494
 30
0.0
 10
16.82403863720934
 20
3.900292447117627
 30
0.0
  0
SPLINE
  5
A2
330
1F
100
AcDbEntity
  8
외형선
  6
Continuous
 62
     1
370
    15
100
AcDbSpline
210
0.0
220
0.0
230
1.0
 70
     8
 71
     3
 72
     9
 73
     5
 74
     0
 42
0.000000001
 43
0.00000001
 40
0.0
 40
0.0
 40
0.0
 40
0.0
 40
0.4981672511700966
 40
1.0
 40
1.0
 40
1.0
 40
1.0
 10
23.07691190885723
 20
-3.902639607709093
 30
0.0
 10
23.10592321667869
 20
-3.921732287376723
 30
0.0
 10
23.16415929653605
 20
-3.960058129998425
 30
0.0
 10
23.23056603273658
 20
-3.965845526959189
 30
0.0
 10
23.26389110770491
 20
-3.96874983228458
 30
0.0
  0
LINE
  5
A3
330
1F
100
AcDbEntity
  8
외형선
  6
Continuous
 62
     1
370
    15
100
AcDbLine
 10
23.2636419938526
 20
-3.96875
 30
0.0
 11
24.83769202018978
 21
-3.96875
 31
0.0
  0
SPLINE
  5
A4
330
1F
100
AcDbEntity
  8
외형선
  6
Continuous
 62
     1
370
    15
100
AcDbSpline
210
0.0
220
0.0
230
1.0
 70
     8
 71
     3
 72
    11
 73
     7
 74
     0
 42
0.000000001
 43
0.00000001
 40
0.0
 40
0.0
 40
0.0
 40
0.0
 40
0.2479197331128649
 40
0.5004489069499515
 40
0.7527762628152528
 40
1.0
 40
1.0
 40
1.0
 40
1.0
 10
16.82768137770288
 20
3.903234810106362
 30
0.0
 10
16.78779456370956
 20
3.877442047566894
 30
0.0
 10
16.70727934124607
 20
3.825376971269721
 30
0.0
 10
16.54956705636399
 20
3.80012195902339
 30
0.0
 10
16.39178799335027
 20
3.826191254398975
 30
0.0
 10
16.3108713933594
 20
3.879042506107943
 30
0.0
 10
16.27082643193636
 20
3.905198156939585
 30
0.0
  0
SPLINE
  5
A5
330
1F
100
AcDbEntity
  8
외형선
  6
Continuous
 62
     1
370
    15
100
AcDbSpline
210
0.0
220
0.0
230
1.0
 70
     8
 71
     3
 72
     9
 73
     5
 74
     0
 42
0.000000001
 43
0.00000001
 40
0.0
 40
0.0
 40
0.0
 40
0.0
 40
0.4967769655833962
 40
0.9999999999999999
 40
0.9999999999999999
 40
0.9999999999999999
 40
0.9999999999999999
 10
16.27751990862059
 20
3.899843155837571
 30
0.0
 10
16.2476341081836
 20
3.920009963886675
 30
0.0
 10
16.18747471572487
 20
3.960605260058308
 30
0.0
 10
16.11935083752201
 20
3.965966228926617
 30
0.0
 10
16.08506933281654
 20
3.968663991947939
 30
0.0
  0
LINE
  5
A6
330
1F
100
AcDbEntity
  8
외형선
  6
Continuous
 62
     1
370
    15
100
AcDbLine
 10
16.08758385967297
 20
3.96875
 30
0.0
 11
14.51365548271053
 21
3.96875
 31
0.0
  0
SPLINE
  5
A7
330
1F
100
AcDbEntity
  8
외형선
  6
Continuous
 62
     1
370
    15
100
AcDbSpline
210
0.0
220
0.0
230
1.0
 70
     8
 71
     3
 72
    11
 73
     7
 74
     0
 42
0.000000001
 43
0.00000001
 40
0.0
 40
0.0
 40
0.0
 40
0.0
 40
0.2253290573915714
 40
0.4681736656026151
 40
0.7288955250903906
 40
1.0
 40
1.0
 40
1.0
 40
1.0
 10
10.02467533341374
 20
-3.902258555447542
 30
0.0
 10
10.0547144180982
 20
-3.881849862874811
 30
0.0
 10
10.1171276219294
 20
-3.839446044554443
 30
0.0
 10
10.26203003393141
 20
-3.801545184301916
 30
0.0
 10
10.435045948872
 20
-3.814001962083635
 30
0.0
 10
10.53470437052771
 20
-3.876583727682049
 30
0.0
 10
10.58550637547902
 20
-3.908485488847559
 30
0.0
  0
SPLINE
  5
A8
330
1F
100
AcDbEntity
  8
외형선
  6
Continuous
 62
     1
370
    15
100
AcDbSpline
210
0.0
220
0.0
230
1.0
 70
     8
 71
     3
 72
     9
 73
     5
 74
     0
 42
0.000000001
 43
0.00000001
 40
0.0
 40
0.0
 40
0.0
 40
0.0
 40
0.5027597499620441
 40
1.0
 40
1.0
 40
1.0
 40
1.0
 10
24.8400141273825
 20
-3.968684158787589
 30
0.0
 10
24.87210472066533
 20
-3.965754069754148
 30
0.0
 10
24.93593360371584
 20
-3.959926059390031
 30
0.0
 10
24.99169217669922
 20
-3.924029385334447
 30
0.0
 10
25.01941758347125
 20
-3.906180114151518
 30
0.0
  0
SPLINE
  5
A9
330
1F
100
AcDbEntity
  8
외형선
  6
Continuous
 62
     1
370
    15
100
AcDbSpline
210
0.0
220
0.0
230
1.0
 70
     8
 71
     3
 72
    11
 73
     7
 74
     0
 42
0.000000001
 43
0.00000001
 40
0.0
 40
0.0
 40
0.0
 40
0.0
 40
0.2452281392415585
 40
0.4998899110639237
 40
0.7545951861047085
 40
1.0
 40
1.0
 40
1.0
 40
1.0
 10
25.02091291996472
 20
-3.905136236700361
 30
0.0
 10
25.06323251523627
 20
-3.877865132251585
 30
0.0
 10
25.14949968988427
 20
-3.82227383665363
 30
0.0
 10
25.31189275630357
 20
-3.798449247524232
 30
0.0
 10
25.47426659556175
 20
-3.826919679627595
 30
0.0
 10
25.56037791738098
 20
-3.885908395468373
 30
0.0
 10
25.60263287958396
 20
-3.914854251896953
 30
0.0
  0
SPLINE
  5
AA
330
1F
100
AcDbEntity
  8
외형선
  6
Continuous
 62
     1
370
    15
100
AcDbSpline
210
0.0
220
0.0
230
1.0
 70
     8
 71
     3
 72
     9
 73
     5
 74
     0
 42
0.000000001
 43
0.00000001
 40
0.0
 40
0.0
 40
0.0
 40
0.0
 40
0.4982120530744626
 40
0.9999999999999999
 40
0.9999999999999999
 40
0.9999999999999999
 40
0.9999999999999999
 10
10.59951454495472
 20
-3.914221062698738
 30
0.0
 10
10.62575416647883
 20
-3.930105948268869
 30
0.0
 10
10.67842174319077
 20
-3.961989732436888
 30
0.0
 10
10.73940153260901
 20
-3.96617130560527
 30
0.0
 10
10.77000045594514
 20
-3.968269568620351
 30
0.0
  0
LINE
  5
AB
330
1F
100
AcDbEntity
  8
외형선
  6
Continuous
 62
     1
370
    15
100
AcDbLine
 10
10.76370162069757
 20
-3.96875
 30
0.0
 11
11.48407970201517
 21
-3.96875
 31
0.0
  0
LINE
  5
AC
330
1F
100
AcDbEntity
  8
외형선
  6
Continuous
 62
     1
370
    15
100
AcDbLine
 10
29.04999999999998
 20
2.868749999999991
 30
0.0
 11
28.4383164128801
 21
3.480433587119875
 31
0.0
  0
SPLINE
  5
AD
330
1F
100
AcDbEntity
  8
외형선
  6
Continuous
 62
     1
370
    15
100
AcDbSpline
210
0.0
220
0.0
230
1.0
 70
     8
 71
     3
 72
     9
 73
     5
 74
     0
 42
0.000000001
 43
0.00000001
 40
0.0
 40
0.0
 40
0.0
 40
0.0
 40
0.501891085473294
 40
1.0
 40
1.0
 40
1.0
 40
1.0
 10
14.48886940237703
 20
3.961138173880229
 30
0.0
 10
14.45831748287891
 20
3.957033138841646
 30
0.0
 10
14.39744387826148
 20
3.948854003651965
 30
0.0
 10
14.34486797552016
 20
3.913166260345889
 30
0.0
 10
14.31867944967542
 20
3.895389877265792
 30
0.0
  0
LINE
  5
AE
330
1F
100
AcDbEntity
  8
외형선
  6
Continuous
 62
     1
370
    15
100
AcDbLine
 10
25.68878401136467
 20
-3.957852539966621
 30
0.0
 11
25.69450515267127
 21
-3.959829502200078
 31
0.0
  0
LINE
  5
AF
330
1F
100
AcDbEntity
  8
외형선
  6
Continuous
 62
     1
370
    15
100
AcDbLine
 10
25.75664294406145
 20
-3.967953206931064
 30
0.0
 11
25.76377478006287
 21
-3.968749999999814
 31
0.0
  0
LINE
  5
B0
330
1F
100
AcDbEntity
  8
외형선
  6
Continuous
 62
     1
370
    15
100
AcDbLine
 10
25.76363586919807
 20
-3.96875
 30
0.0
 11
25.88129549763921
 21
-3.96875
 31
0.0
  0
LINE
  5
B1
330
1F
100
AcDbEntity
  8
외형선
  6
Continuous
 62
     1
370
    15
100
AcDbLine
 10
14.31104915428369
 20
3.887232970149586
 30
0.0
 11
14.15949936141161
 21
3.825590277101373
 31
0.0
  0
LINE
  5
B2
330
1F
100
AcDbEntity
  8
외형선
  6
Continuous
 62
     1
370
    15
100
AcDbLine
 10
14.08779616409629
 20
3.817648705711508
 30
0.0
 11
14.05576550226199
 21
3.819399112743807
 31
0.0
  0
LINE
  5
B3
330
1F
100
AcDbEntity
  8
외형선
  6
Continuous
370
    15
100
AcDbLine
 10
10.00105960531286
 20
-3.91681788014381
 30
0.0
 11
10.02348290944746
 21
-3.903209580482045
 31
0.0
  0
LINE
  5
B4
330
1F
100
AcDbEntity
  8
외형선
  6
Continuous
370
    15
100
AcDbLine
 10
6.980193351749486
 20
-3.968667923321052
 30
0.0
 11
7.024277733016594
 21
-3.967266293464312
 31
0.0
  0
LINE
  5
B5
330
1F
100
AcDbEntity
  8
외형선
  6
Continuous
370
    15
100
AcDbLine
 10
6.98019335174949
 20
-3.968667743295011
 30
0.0
 11
6.98019335174949
 21
-3.96875
 31
0.0
  0
LINE
  5
B6
330
1F
100
AcDbEntity
  8
외형선
  6
Continuous
370
    15
100
AcDbLine
 10
9.269015299960659
 20
2.968226916459338
 30
0.0
 11
9.999999999999988
 21
3.24330616551768
 31
0.0
  0
LINE
  5
B7
330
1F
100
AcDbEntity
  8
외형선
  6
Continuous
370
    15
100
AcDbLine
 10
6.980193351749486
 20
3.96875
 30
0.0
 11
6.98019335174949
 21
3.667949315867741
 31
0.0
  0
SPLINE
  5
B8
330
1F
100
AcDbEntity
  8
외형선
  6
Continuous
370
    15
100
AcDbSpline
210
0.0
220
0.0
230
1.0
 70
     8
 71
     3
 72
    14
 73
    10
 74
     0
 42
0.000000001
 43
0.00000001
 40
0.0
 40
0.0
 40
0.0
 40
0.0
 40
0.2499999999999999
 40
0.2499999999999999
 40
0.4999999999999999
 40
0.4999999999999999
 40
0.7499999999999999
 40
0.7499999999999999
 40
1.0
 40
1.0
 40
1.0
 40
1.0
 10
9.999999999996696
 20
2.674816846628476
 30
0.0
 10
9.747367761949405
 20
2.782311506655907
 30
0.0
 10
9.494576731637107
 20
2.884418092819254
 30
0.0
 10
8.993229517663032
 20
3.076100527328244
 30
0.0
 10
8.742646755454095
 20
3.165957389260554
 30
0.0
 10
8.237695041307546
 20
3.333001863260403
 30
0.0
 10
7.98460060017684
 20
3.410022652293824
 30
0.0
 10
7.481745115918609
 20
3.549725778043579
 30
0.0
 10
7.232330301818496
 20
3.612419576356357
 30
0.0
 10
6.980193351749486
 20
3.667950831937471
 30
0.0
  0
LINE
  5
B9
330
1F
100
AcDbEntity
  8
외형선
  6
Continuous
370
    15
100
AcDbLine
 10
9.999999999999984
 20
2.674816846627071
 30
0.0
 11
9.999999999999988
 21
0.3592447589814168
 31
0.0
  0
SPLINE
  5
BA
330
1F
100
AcDbEntity
  8
외형선
  6
Continuous
370
    15
100
AcDbSpline
210
0.0
220
0.0
230
1.0
 70
     8
 71
     3
 72
    14
 73
    10
 74
     0
 42
0.000000001
 43
0.00000001
 40
0.0
 40
0.0
 40
0.0
 40
0.0
 40
0.25
 40
0.25
 40
0.5
 40
0.5
 40
0.75
 40
0.75
 40
1.0
 40
1.0
 40
1.0
 40
1.0
 10
9.999999999999988
 20
0.3592447589814175
 30
0.0
 10
9.747367761952423
 20
0.5041544789158816
 30
0.0
 10
9.49457673163984
 20
0.6483664116907869
 30
0.0
 10
8.993229517665194
 20
0.9328098144046811
 30
0.0
 10
8.742646755456013
 20
1.073430831947932
 30
0.0
 10
8.237695041308921
 20
1.350486609462513
 30
0.0
 10
7.984600600177936
 20
1.486676380916037
 30
0.0
 10
7.481745115919151
 20
1.751942370053113
 30
0.0
 10
7.23233030181877
 20
1.880978205156271
 30
0.0
 10
6.980193351749486
 20
2.006438433537518
 30
0.0
  0
SPLINE
  5
BB
330
1F
100
AcDbEntity
  8
외형선
  6
Continuous
370
    15
100
AcDbSpline
210
0.0
220
0.0
230
1.0
 70
     8
 71
     3
 72
    14
 73
    10
 74
     0
 42
0.000000001
 43
0.00000001
 40
0.0
 40
0.0
 40
0.0
 40
0.0
 40
0.2499999999999999
 40
0.2499999999999999
 40
0.4999999999999999
 40
0.4999999999999999
 40
0.7499999999999999
 40
0.7499999999999999
 40
1.0
 40
1.0
 40
1.0
 40
1.0
 10
9.999999999996696
 20
-3.876551694108426
 30
0.0
 10
9.747367761949405
 20
-3.845370222288313
 30
0.0
 10
9.494576731637107
 20
-3.806342871114084
 30
0.0
 10
8.993229517663032
 20
-3.713420048569024
 30
0.0
 10
8.742646755454098
 20
-3.65942769561534
 30
0.0
 10
8.237695041307546
 20
-3.536642378494316
 30
0.0
 10
7.98460060017684
 20
-3.467926609837248
 30
0.0
 10
7.481745115918609
 20
-3.317148964902788
 30
0.0
 10
7.232330301818496
 20
-3.235163775075003
 30
0.0
 10
6.98019335174949
 20
-3.146543487628999
 30
0.0
  0
LINE
  5
BC
330
1F
100
AcDbEntity
  8
외형선
  6
Continuous
370
    15
100
AcDbLine
 10
9.999999999999984
 20
-3.876551694108831
 30
0.0
 11
9.999999999999988
 21
-3.96875
 31
0.0
  0
LINE
  5
BD
330
1F
100
AcDbEntity
  8
외형선
  6
Continuous
370
    15
100
AcDbLine
 10
-33.64000000000001
 20
3.968749999999994
 30
0.0
 11
-33.64000000000001
 21
-3.968750000000006
 31
0.0
  0
LINE
  5
BE
330
1F
100
AcDbEntity
  8
외형선
  6
Continuous
370
    15
100
AcDbLine
 10
6.980193351749486
 20
2.006462571841141
 30
0.0
 11
6.98019335174949
 21
-3.146545907064391
 31
0.0
  0
LINE
  5
BF
330
1F
100
AcDbEntity
  8
외형선
  6
Continuous
370
    15
100
AcDbLine
 10
-34.45000000000002
 20
3.158749999999995
 30
0.0
 11
-34.45000000000002
 21
-3.158750000000006
 31
0.0
  0
SPLINE
  5
C0
330
1F
100
AcDbEntity
  8
외형선
  6
Continuous
370
    15
100
AcDbSpline
210
0.0
220
0.0
230
1.0
 70
    24
 71
     3
 72
    16
 73
    12
 74
     0
 42
0.000000001
 43
0.00000001
 40
0.0
 40
0.0
 40
0.0
 40
0.0
 40
0.25
 40
0.25
 40
0.5
 40
0.5
 40
0.75
 40
0.75
 40
0.875
 40
0.875
 40
1.0
 40
1.0
 40
1.0
 40
1.0
 10
9.999999999999988
 20
0.3592447589814168
 30
0.0
 10
9.999999999999988
 20
0.2908706200401531
 30
0.0
 10
9.999999999999988
 20
0.1775370162559849
 30
0.0
 10
9.999999999999988
 20
-0.1948637370609629
 30
0.0
 10
9.999999999999988
 20
-0.4556364366682224
 30
0.0
 10
9.999999999999988
 20
-1.166723588624593
 30
0.0
 10
9.999999999999988
 20
-1.619596690366419
 30
0.0
 10
9.999999999999988
 20
-2.412182698162232
 30
0.0
 10
9.999999999999988
 20
-2.694274152679724
 30
0.0
 10
9.999999999999988
 20
-3.277160507970785
 30
0.0
 10
9.999999999999988
 20
-3.577815951507477
 30
0.0
 10
9.999999999999988
 20
-3.876551694108833
 30
0.0
  0
SPLINE
  5
C1
330
1F
100
AcDbEntity
  8
외형선
  6
Continuous
370
    15
100
AcDbSpline
210
0.0
220
0.0
230
1.0
 70
    24
 71
     3
 72
    10
 73
     6
 74
     0
 42
0.000000001
 43
0.00000001
 40
0.0
 40
0.0
 40
0.0
 40
0.0
 40
0.4233133133178598
 40
0.8497198775021357
 40
1.0
 40
1.0
 40
1.0
 40
1.0
 10
9.999999999999988
 20
3.243306165517679
 30
0.0
 10
9.999999999999988
 20
3.162804400711961
 30
0.0
 10
9.999999999999988
 20
3.001212625595603
 30
0.0
 10
9.999999999999988
 20
2.822145067363641
 30
0.0
 10
9.999999999999988
 20
2.740441428178025
 30
0.0
 10
9.999999999999988
 20
2.719150087162373
 30
0.0
  0
SPLINE
  5
C2
330
1F
100
AcDbEntity
  8
외형선
  6
Continuous
 62
     1
370
    15
100
AcDbSpline
210
0.0
220
0.0
230
1.0
 70
     8
 71
     3
 72
     8
 73
     4
 74
     0
 42
0.000000001
 43
0.00000001
 40
0.0
 40
0.0
 40
0.0
 40
0.0
 40
1.0
 40
1.0
 40
1.0
 40
1.0
 10
14.59632771901627
 20
-2.145520515471087
 30
0.0
 10
14.54815358424956
 20
-2.137733904868206
 30
0.0
 10
14.49067202131962
 20
-2.117520007492065
 30
0.0
 10
14.43186698716567
 20
-2.088645554846717
 30
0.0
  0
SPLINE
  5
C3
330
1F
100
AcDbEntity
  8
외형선
  6
Continuous
 62
     1
370
    15
100
AcDbSpline
210
0.0
220
0.0
230
1.0
 70
     8
 71
     3
 72
    12
 73
     8
 74
     0
 42
0.000000001
 43
0.00000001
 40
0.0
 40
0.0
 40
0.0
 40
0.0
 40
0.2500000000000001
 40
0.2500000000000001
 40
0.5000000000000001
 40
0.5000000000000001
 40
1.0
 40
1.0
 40
1.0
 40
1.0
 10
14.43186662900422
 20
-2.088642472034543
 30
0.0
 10
14.40950174515121
 20
-1.896139688409689
 30
0.0
 10
14.38803061772158
 20
-1.696152664262413
 30
0.0
 10
14.3426807981778
 20
-1.274361646816154
 30
0.0
 10
14.31938274646766
 20
-1.054174553227877
 30
0.0
 10
14.24914701007039
 20
-0.3798499875171837
 30
0.0
 10
14.20194414623928
 20
0.0876083352484621
 30
0.0
 10
14.15835397684669
 20
0.5325014721344241
 30
0.0
  0
SPLINE
  5
C4
330
1F
100
AcDbEntity
  8
외형선
  6
Continuous
 62
     1
370
    15
100
AcDbSpline
210
0.0
220
0.0
230
1.0
 70
     8
 71
     3
 72
     8
 73
     4
 74
     0
 42
0.000000001
 43
0.00000001
 40
0.0
 40
0.0
 40
0.0
 40
0.0
 40
1.0
 40
1.0
 40
1.0
 40
1.0
 10
14.15835388719228
 20
0.5325023871717874
 30
0.0
 10
14.21477655744958
 20
0.5000960533976961
 30
0.0
 10
14.27217033997714
 20
0.4668429444622004
 30
0.0
 10
14.32118135910933
 20
0.4401020799288651
 30
0.0
  0
SPLINE
  5
C5
330
1F
100
AcDbEntity
  8
외형선
  6
Continuous
 62
     1
370
    15
100
AcDbSpline
210
0.0
220
0.0
230
1.0
 70
     8
 71
     3
 72
    12
 73
     8
 74
     0
 42
0.000000001
 43
0.00000001
 40
0.0
 40
0.0
 40
0.0
 40
0.0
 40
0.25
 40
0.25
 40
0.5
 40
0.5
 40
1.0
 40
1.0
 40
1.0
 40
1.0
 10
14.5963277388933
 20
-2.145520680495305
 30
0.0
 10
14.57363710012757
 20
-1.957137182189137
 30
0.0
 10
14.55211570222411
 20
-1.761530050817025
 30
0.0
 10
14.50690757938599
 20
-1.348692427347062
 30
0.0
 10
14.48360442244448
 20
-1.132403974891389
 30
0.0
 10
14.41312364790625
 20
-0.4676989672324989
 30
0.0
 10
14.36544249743287
 20
-0.0037822293134008
 30
0.0
 10
14.32118153965307
 20
0.4401002693003716
 30
0.0
  0
SPLINE
  5
C6
330
1F
100
AcDbEntity
  8
외형선
  6
Continuous
 62
     1
370
    15
100
AcDbSpline
210
0.0
220
0.0
230
1.0
 70
     8
 71
     3
 72
     8
 73
     4
 74
     0
 42
0.000000001
 43
0.00000001
 40
0.0
 40
0.0
 40
0.0
 40
0.0
 40
1.0
 40
1.0
 40
1.0
 40
1.0
 10
27.79967740623435
 20
-1.561879172809936
 30
0.0
 10
27.74317001240576
 20
-1.531904503076028
 30
0.0
 10
27.68572867797567
 20
-1.496494401967369
 30
0.0
 10
27.63668322623927
 20
-1.46167352309962
 30
0.0
  0
SPLINE
  5
C7
330
1F
100
AcDbEntity
  8
외형선
  6
Continuous
 62
     1
370
    15
100
AcDbSpline
210
0.0
220
0.0
230
1.0
 70
     8
 71
     3
 72
    10
 73
     6
 74
     0
 42
0.000000001
 43
0.00000001
 40
0.0
 40
0.0
 40
0.0
 40
0.0
 40
0.5
 40
0.5
 40
1.0
 40
1.0
 40
1.0
 40
1.0
 10
27.63668305264349
 20
-1.461671929907625
 30
0.0
 10
27.5911040170534
 20
-1.043365915958316
 30
0.0
 10
27.5429988090493
 20
-0.5876317093055933
 30
0.0
 10
27.45019777729711
 20
0.3189987877283552
 30
0.0
 10
27.40738406619643
 20
0.763332859079341
 30
0.0
 10
27.36101721806844
 20
1.195163134360721
 30
0.0
  0
SPLINE
  5
C8
330
1F
100
AcDbEntity
  8
외형선
  6
Continuous
 62
     1
370
    15
100
AcDbSpline
210
0.0
220
0.0
230
1.0
 70
     8
 71
     3
 72
    14
 73
    10
 74
     0
 42
0.000000001
 43
0.00000001
 40
0.0
 40
0.0
 40
0.0
 40
0.0
 40
0.0000586739026336
 40
0.0000586739026336
 40
0.0000586739026336
 40
0.0001173138786117
 40
0.0001173138786117
 40
0.0001173138786117
 40
0.0002034565509836
 40
0.0002034565509836
 40
0.0002034565509836
 40
0.0002034565509836
 10
27.36101721806725
 20
1.195163134373586
 30
0.0
 10
27.37488090751017
 20
1.189335875370735
 30
0.0
 10
27.38963747663839
 20
1.182749317611705
 30
0.0
 10
27.40493005960574
 20
1.17558107679702
 30
0.0
 10
27.42021709600494
 20
1.168415435879048
 30
0.0
 10
27.43614371107331
 20
1.160620326288556
 30
0.0
 10
27.4523917503336
 20
1.152367149858555
 30
0.0
 10
27.47617594524054
 20
1.140285990177196
 30
0.0
 10
27.50092580619993
 20
1.127078162258427
 30
0.0
 10
27.52569404149046
 20
1.113315845160487
 30
0.0
  0
SPLINE
  5
C9
330
1F
100
AcDbEntity
  8
외형선
  6
Continuous
 62
     1
370
    15
100
AcDbSpline
210
0.0
220
0.0
230
1.0
 70
     8
 71
     3
 72
    12
 73
     8
 74
     0
 42
0.000000001
 43
0.00000001
 40
0.0
 40
0.0
 40
0.0
 40
0.0
 40
0.4999999999999998
 40
0.4999999999999998
 40
0.7499999999999999
 40
0.7499999999999999
 40
1.0
 40
1.0
 40
1.0
 40
1.0
 10
27.79967747321516
 20
-1.561879793267412
 30
0.0
 10
27.75467557490842
 20
-1.145007587040604
 30
0.0
 10
27.70692296794963
 20
-0.6883754180859609
 30
0.0
 10
27.63737978839495
 20
-0.0025984215426638
 30
0.0
 10
27.61455636320329
 20
0.2259556339558841
 30
0.0
 10
27.57057559809497
 20
0.6731071629972132
 30
0.0
 10
27.54859346588933
 20
0.8945345467641287
 30
0.0
 10
27.52567641814272
 20
1.113484220501513
 30
0.0
  0
SPLINE
  5
CA
330
1F
100
AcDbEntity
  8
외형선
  6
Continuous
 62
     1
370
    15
100
AcDbSpline
210
0.0
220
0.0
230
1.0
 70
     8
 71
     3
 72
     8
 73
     4
 74
     0
 42
0.000000001
 43
0.00000001
 40
0.0
 40
0.0
 40
0.0
 40
0.0
 40
1.0
 40
1.0
 40
1.0
 40
1.0
 10
12.76266324704748
 20
-1.215935923020011
 30
0.0
 10
12.70610555021118
 20
-1.184844282255631
 30
0.0
 10
12.64861159316546
 20
-1.149847630809574
 30
0.0
 10
12.59950865753258
 20
-1.117488263422847
 30
0.0
  0
SPLINE
  5
CB
330
1F
100
AcDbEntity
  8
외형선
  6
Continuous
 62
     1
370
    15
100
AcDbSpline
210
0.0
220
0.0
230
1.0
 70
     8
 71
     3
 72
    12
 73
     8
 74
     0
 42
0.000000001
 43
0.00000001
 40
0.0
 40
0.0
 40
0.0
 40
0.0
 40
0.4999999999999999
 40
0.4999999999999999
 40
0.7499999999999998
 40
0.7499999999999998
 40
1.0
 40
1.0
 40
1.0
 40
1.0
 10
12.59950865753208
 20
-1.117488263418164
 30
0.0
 10
12.55290310017621
 20
-0.6822657258004945
 30
0.0
 10
12.5049102511388
 20
-0.2198701563903163
 30
0.0
 10
12.43714090817951
 20
0.4531639507177132
 30
0.0
 10
12.41564163429926
 20
0.672823422047411
 30
0.0
 10
12.37032066697558
 20
1.110917569926122
 30
0.0
 10
12.3469898376844
 20
1.327661610520181
 30
0.0
 10
12.32349952568244
 20
1.537048056616073
 30
0.0
  0
SPLINE
  5
CC
330
1F
100
AcDbEntity
  8
외형선
  6
Continuous
 62
     1
370
    15
100
AcDbSpline
210
0.0
220
0.0
230
1.0
 70
     8
 71
     3
 72
    14
 73
    10
 74
     0
 42
0.000000001
 43
0.00000001
 40
0.0
 40
0.0
 40
0.0
 40
0.0
 40
0.0000586788630805
 40
0.0000586788630805
 40
0.0000586788630805
 40
0.0001173236127931
 40
0.0001173236127931
 40
0.0001173236127931
 40
0.0002035944068964
 40
0.0002035944068964
 40
0.0002035944068964
 40
0.0002035944068964
 10
12.32349952568129
 20
1.537048056626372
 30
0.0
 10
12.33737061067035
 20
1.532416287227742
 30
0.0
 10
12.35213575426279
 20
1.526915541153341
 30
0.0
 10
12.36743422717421
 20
1.520700468781901
 30
0.0
 10
12.38272714063151
 20
1.514487654963314
 30
0.0
 10
12.39865672240975
 20
1.507519604076156
 30
0.0
 10
12.41490376044225
 20
1.499955528652513
 30
0.0
 10
12.43871994603797
 20
1.488867512252897
 30
0.0
 10
12.46349522791918
 20
1.476364796819141
 30
0.0
 10
12.48829190835325
 20
1.463003049878489
 30
0.0
  0
SPLINE
  5
CD
330
1F
100
AcDbEntity
  8
외형선
  6
Continuous
 62
     1
370
    15
100
AcDbSpline
210
0.0
220
0.0
230
1.0
 70
     8
 71
     3
 72
    12
 73
     8
 74
     0
 42
0.000000001
 43
0.00000001
 40
0.0
 40
0.0
 40
0.0
 40
0.0
 40
0.5000000000000001
 40
0.5000000000000001
 40
0.7500000000000002
 40
0.7500000000000002
 40
1.0
 40
1.0
 40
1.0
 40
1.0
 10
12.76266317186334
 20
-1.215935214212006
 30
0.0
 10
12.71650819453107
 20
-0.7808033002749093
 30
0.0
 10
12.66870940690485
 20
-0.3159225054777155
 30
0.0
 10
12.60077712988068
 20
0.3650400431978462
 30
0.0
 10
12.57933403581385
 20
0.5873564252664873
 30
0.0
 10
12.53466076502707
 20
1.030071649456958
 30
0.0
 10
12.51159463500647
 20
1.249854782029563
 30
0.0
 10
12.4882918125589
 20
1.463003926112474
 30
0.0
  0
SPLINE
  5
CE
330
1F
100
AcDbEntity
  8
외형선
  6
Continuous
 62
     1
370
    15
100
AcDbSpline
210
0.0
220
0.0
230
1.0
 70
     8
 71
     3
 72
    14
 73
    10
 74
     0
 42
0.000000001
 43
0.00000001
 40
0.0
 40
0.0
 40
0.0
 40
0.0
 40
0.0000585604187763
 40
0.0000585604187763
 40
0.0000585604187763
 40
0.0001170874461276
 40
0.0001170874461276
 40
0.0001170874461276
 40
0.0002032498627243
 40
0.0002032498627243
 40
0.0002032498627243
 40
0.0002032498627243
 10
26.98115286150679
 20
-1.108354864771057
 30
0.0
 10
26.96730279277888
 20
-1.102282650429263
 30
0.0
 10
26.95255773670292
 20
-1.095489095794705
 30
0.0
 10
26.93727661638172
 20
-1.088146862495275
 30
0.0
 10
26.92200094639905
 20
-1.080807247960453
 30
0.0
 10
26.9060859123758
 20
-1.072870013120338
 30
0.0
 10
26.88985012507213
 20
-1.06450813277965
 30
0.0
 10
26.86603313787607
 20
-1.052241724426039
 30
0.0
 10
26.84124780312046
 20
-1.03891394974002
 30
0.0
 10
26.81644733513021
 20
-1.025105209170005
 30
0.0
  0
SPLINE
  5
CF
330
1F
100
AcDbEntity
  8
외형선
  6
Continuous
 62
     1
370
    15
100
AcDbSpline
210
0.0
220
0.0
230
1.0
 70
     8
 71
     3
 72
    12
 73
     8
 74
     0
 42
0.000000001
 43
0.00000001
 40
0.0
 40
0.0
 40
0.0
 40
0.0
 40
0.5
 40
0.5
 40
0.75
 40
0.75
 40
1.0
 40
1.0
 40
1.0
 40
1.0
 10
26.81644711612223
 20
-1.025103125501338
 30
0.0
 10
26.76992052161903
 20
-0.5824434077375718
 30
0.0
 10
26.7223743949603
 20
-0.1158528676747505
 30
0.0
 10
26.65565554887206
 20
0.5588886031009854
 30
0.0
 10
26.63413642618554
 20
0.7798291705872763
 30
0.0
 10
26.58872432013164
 20
1.219705442152118
 30
0.0
 10
26.56542499243671
 20
1.436594329443929
 30
0.0
 10
26.54204207434
 20
1.645436672167065
 30
0.0
  0
SPLINE
  5
D0
330
1F
100
AcDbEntity
  8
외형선
  6
Continuous
 62
     1
370
    15
100
AcDbSpline
210
0.0
220
0.0
230
1.0
 70
     8
 71
     3
 72
     8
 73
     4
 74
     0
 42
0.000000001
 43
0.00000001
 40
0.0
 40
0.0
 40
0.0
 40
0.0
 40
1.0
 40
1.0
 40
1.0
 40
1.0
 10
26.54204214288028
 20
1.645436060006046
 30
0.0
 10
26.5986057341389
 20
1.615790213786405
 30
0.0
 10
26.6561199549565
 20
1.580358547604891
 30
0.0
 10
26.70522813790377
 20
1.545007561498357
 30
0.0
  0
SPLINE
  5
D1
330
1F
100
AcDbEntity
  8
외형선
  6
Continuous
 62
     1
370
    15
100
AcDbSpline
210
0.0
220
0.0
230
1.0
 70
     8
 71
     3
 72
    12
 73
     8
 74
     0
 42
0.000000001
 43
0.00000001
 40
0.0
 40
0.0
 40
0.0
 40
0.0
 40
0.4999999999999998
 40
0.4999999999999998
 40
0.7499999999999999
 40
0.7499999999999999
 40
1.0
 40
1.0
 40
1.0
 40
1.0
 10
26.98115286150631
 20
-1.108354864764995
 30
0.0
 10
26.93454314039163
 20
-0.6729003628540531
 30
0.0
 10
26.88657757857223
 20
-0.2105708848740838
 30
0.0
 10
26.81888573772901
 20
0.4619694911644151
 30
0.0
 10
26.79738911068
 20
0.681499588393819
 30
0.0
 10
26.75204856245868
 20
1.119329578582001
 30
0.0
 10
26.72871461197722
 20
1.335876244044347
 30
0.0
 10
26.70522813790563
 20
1.545007561489794
 30
0.0
  0
SPLINE
  5
D2
330
1F
100
AcDbEntity
  8
외형선
  6
Continuous
 62
     1
370
    15
100
AcDbSpline
210
0.0
220
0.0
230
1.0
 70
     8
 71
     3
 72
    12
 73
     8
 74
     0
 42
0.000000001
 43
0.00000001
 40
0.0
 40
0.0
 40
0.0
 40
0.0
 40
0.2500000000000002
 40
0.2500000000000002
 40
0.5000000000000003
 40
0.5000000000000003
 40
1.0
 40
1.0
 40
1.0
 40
1.0
 10
25.14442641866685
 20
-0.0715241433493643
 30
0.0
 10
25.12144456641134
 20
0.1567100428210443
 30
0.0
 10
25.09918563011314
 20
0.3828769810637487
 30
0.0
 10
25.05547360282167
 20
0.8266684968498147
 30
0.0
 10
25.0327530578112
 20
1.048533001271919
 30
0.0
 10
24.96340249287389
 20
1.6988742616299
 30
0.0
 10
24.91561730635869
 20
2.110991627678492
 30
0.0
 10
24.87043112786261
 20
2.466632511374699
 30
0.0
  0
SPLINE
  5
D3
330
1F
100
AcDbEntity
  8
외형선
  6
Continuous
 62
     1
370
    15
100
AcDbSpline
210
0.0
220
0.0
230
1.0
 70
     8
 71
     3
 72
     8
 73
     4
 74
     0
 42
0.000000001
 43
0.00000001
 40
0.0
 40
0.0
 40
0.0
 40
0.0
 40
1.0
 40
1.0
 40
1.0
 40
1.0
 10
26.54204211929225
 20
1.645436072368894
 30
0.0
 10
25.98281467650841
 20
1.938535756740912
 30
0.0
 10
25.42965460793444
 20
2.21431005826016
 30
0.0
 10
24.87043109727832
 20
2.466632631254359
 30
0.0
  0
SPLINE
  5
D4
330
1F
100
AcDbEntity
  8
외형선
  6
Continuous
 62
     1
370
    15
100
AcDbSpline
210
0.0
220
0.0
230
1.0
 70
     8
 71
     3
 72
    10
 73
     6
 74
     0
 42
0.000000001
 43
0.00000001
 40
0.0
 40
0.0
 40
0.0
 40
0.0
 40
0.5
 40
0.5
 40
1.0
 40
1.0
 40
1.0
 40
1.0
 10
26.81644565386138
 20
-1.025104273050344
 30
0.0
 10
26.53705522740341
 20
-0.8695414774310791
 30
0.0
 10
26.25671015228054
 20
-0.7112628269701936
 30
0.0
 10
25.70031083294
 20
-0.3927927907307786
 30
0.0
 10
25.42383899537841
 20
-0.2325298697012894
 30
0.0
 10
25.14442438230348
 20
-0.0715243483326915
 30
0.0
  0
SPLINE
  5
D5
330
1F
100
AcDbEntity
  8
외형선
  6
Continuous
 62
     1
370
    15
100
AcDbSpline
210
0.0
220
0.0
230
1.0
 70
     8
 71
     3
 72
    10
 73
     6
 74
     0
 42
0.000000001
 43
0.00000001
 40
0.0
 40
0.0
 40
0.0
 40
0.0
 40
0.5000000000000003
 40
0.5000000000000003
 40
1.0
 40
1.0
 40
1.0
 40
1.0
 10
10.10757240168589
 20
0.2974935274077073
 30
0.0
 10
10.08986567551747
 20
0.4762683686155883
 30
0.0
 10
10.07287063793236
 20
0.6517758411584778
 30
0.0
 10
10.03738084730927
 20
1.002707895415016
 30
0.0
 10
10.01918652052204
 20
1.177097056806903
 30
0.0
 10
10.00078606081887
 20
1.347880588155261
 30
0.0
  0
SPLINE
  5
D6
330
1F
100
AcDbEntity
  8
외형선
  6
Continuous
 62
     1
370
    15
100
AcDbSpline
210
0.0
220
0.0
230
1.0
 70
     8
 71
     3
 72
     8
 73
     4
 74
     0
 42
0.000000001
 43
0.00000001
 40
0.0
 40
0.0
 40
0.0
 40
0.0
 40
1.0
 40
1.0
 40
1.0
 40
1.0
 10
11.50437719404762
 20
1.974287494434177
 30
0.0
 10
11.00097874723064
 20
2.225826858177636
 30
0.0
 10
10.50345994229665
 20
2.460595353151331
 30
0.0
 10
9.9999999999967
 20
2.674816846628474
 30
0.0
  0
SPLINE
  5
D7
330
1F
100
AcDbEntity
  8
외형선
  6
Continuous
 62
     1
370
    15
100
AcDbSpline
210
0.0
220
0.0
230
1.0
 70
     8
 71
     3
 72
    12
 73
     8
 74
     0
 42
0.000000001
 43
0.00000001
 40
0.0
 40
0.0
 40
0.0
 40
0.0
 40
0.2500000000000001
 40
0.2500000000000001
 40
0.5000000000000001
 40
0.5000000000000001
 40
1.0
 40
1.0
 40
1.0
 40
1.0
 10
11.77880391985972
 20
-0.6639611774954299
 30
0.0
 10
11.75541063364942
 20
-0.4376729085840593
 30
0.0
 10
11.73203977656081
 20
-0.2081189101487297
 30
0.0
 10
11.68637269157225
 20
0.2472407333404562
 30
0.0
 10
11.66459271856533
 20
0.4713027144360844
 30
0.0
 10
11.59840911625068
 20
1.136258743241598
 30
0.0
 10
11.55100868550101
 20
1.576511406337061
 30
0.0
 10
11.50437739005948
 20
1.974287493380285
 30
0.0
  0
SPLINE
  5
D8
330
1F
100
AcDbEntity
  8
외형선
  6
Continuous
 62
     1
370
    15
100
AcDbSpline
210
0.0
220
0.0
230
1.0
 70
     8
 71
     3
 72
    10
 73
     6
 74
     0
 42
0.000000001
 43
0.00000001
 40
0.0
 40
0.0
 40
0.0
 40
0.0
 40
0.4999999999999998
 40
0.4999999999999998
 40
1.0
 40
1.0
 40
1.0
 40
1.0
 10
11.77880140887269
 20
-0.6639621859185821
 30
0.0
 10
11.49937914496039
 20
-0.5052489610931992
 30
0.0
 10
11.21932628222543
 20
-0.3447739856775761
 30
0.0
 10
10.66413910598262
 20
-0.0238598794668903
 30
0.0
 10
10.38700938268945
 20
0.1369618047925106
 30
0.0
 10
10.10757237909084
 20
0.2974937555371757
 30
0.0
  0
LINE
  5
D9
330
1F
100
AcDbEntity
  8
외형선
  6
Continuous
370
    15
100
AcDbLine
 10
9.999999999999988
 20
1.347805665218583
 30
0.0
 11
9.999999999999988
 21
2.674816846627073
 31
0.0
  0
SPLINE
  5
DA
330
1F
100
AcDbEntity
  8
외형선
  6
Continuous
 62
     1
370
    15
100
AcDbSpline
210
0.0
220
0.0
230
1.0
 70
     8
 71
     3
 72
     8
 73
     4
 74
     0
 42
0.000000001
 43
0.00000001
 40
0.0
 40
0.0
 40
0.0
 40
0.0
 40
1.0
 40
1.0
 40
1.0
 40
1.0
 10
14.15835317106855
 20
0.5325027984771169
 30
0.0
 10
13.60486951058757
 20
0.8503958743563357
 30
0.0
 10
13.04165300197573
 20
1.164823192709186
 30
0.0
 10
12.48829102460929
 20
1.463003526085902
 30
0.0
  0
SPLINE
  5
DB
330
1F
100
AcDbEntity
  8
외형선
  6
Continuous
 62
     1
370
    15
100
AcDbSpline
210
0.0
220
0.0
230
1.0
 70
     8
 71
     3
 72
    10
 73
     6
 74
     0
 42
0.000000001
 43
0.00000001
 40
0.0
 40
0.0
 40
0.0
 40
0.0
 40
0.5
 40
0.5
 40
1.0
 40
1.0
 40
1.0
 40
1.0
 10
14.43186185483447
 20
-2.088643034768387
 30
0.0
 10
14.15373782776344
 20
-1.952078481904806
 30
0.0
 10
13.87817835746112
 20
-1.810819260758556
 30
0.0
 10
13.32070751555822
 20
-1.519028037859894
 30
0.0
 10
13.04075175062292
 20
-1.368810392226817
 30
0.0
 10
12.76266318768248
 20
-1.215935890385095
 30
0.0
  0
LINE
  5
DC
330
1F
100
AcDbEntity
  8
외형선
  6
Continuous
 62
     1
370
    15
100
AcDbLine
 10
27.94999999999998
 20
-1.641192969291527
 30
0.0
 11
27.94999999999999
 21
0.876166223934668
 31
0.0
  0
SPLINE
  5
DD
330
1F
100
AcDbEntity
  8
외형선
  6
Continuous
 62
     1
370
    15
100
AcDbSpline
210
0.0
220
0.0
230
1.0
 70
     8
 71
     3
 72
     8
 73
     4
 74
     0
 42
0.000000001
 43
0.00000001
 40
0.0
 40
0.0
 40
0.0
 40
0.0
 40
1.0
 40
1.0
 40
1.0
 40
1.0
 10
27.95000000000309
 20
-1.64119296929316
 30
0.0
 10
27.89985435798121
 20
-1.614876775607891
 30
0.0
 10
27.8497408689041
 20
-1.588435622462528
 30
0.0
 10
27.79967740619573
 20
-1.561879172788603
 30
0.0
  0
SPLINE
  5
DE
330
1F
100
AcDbEntity
  8
외형선
  6
Continuous
 62
     1
370
    15
100
AcDbSpline
210
0.0
220
0.0
230
1.0
 70
     8
 71
     3
 72
     8
 73
     4
 74
     0
 42
0.000000001
 43
0.00000001
 40
0.0
 40
0.0
 40
0.0
 40
0.0
 40
1.0
 40
1.0
 40
1.0
 40
1.0
 10
27.9500000000031
 20
0.8761662239329188
 30
0.0
 10
27.80806522460168
 20
0.9559570896004074
 30
0.0
 10
27.66638864447061
 20
1.03514045758299
 30
0.0
 10
27.52537295822262
 20
1.113494252298654
 30
0.0
  0
SPLINE
  5
DF
330
1F
100
AcDbEntity
  8
외형선
  6
Continuous
 62
     1
370
    15
100
AcDbSpline
210
0.0
220
0.0
230
1.0
 70
     8
 71
     3
 72
    12
 73
     8
 74
     0
 42
0.000000001
 43
0.00000001
 40
0.0
 40
0.0
 40
0.0
 40
0.0
 40
0.25
 40
0.25
 40
0.5
 40
0.5
 40
1.0
 40
1.0
 40
1.0
 40
1.0
 10
15.4148905380207
 20
-2.548759149633546
 30
0.0
 10
15.39166798525597
 20
-2.373134410603353
 30
0.0
 10
15.36877076956545
 20
-2.185518019481165
 30
0.0
 10
15.3245882977802
 20
-1.79558629728131
 30
0.0
 10
15.30280002218584
 20
-1.591951078044755
 30
0.0
 10
15.23424392233718
 20
-0.9508140431819955
 30
0.0
 10
15.18636996757889
 20
-0.4888231854503885
 30
0.0
 10
15.14050034674908
 20
-0.0325003510111758
 30
0.0
  0
SPLINE
  5
E0
330
1F
100
AcDbEntity
  8
외형선
  6
Continuous
 62
     1
370
    15
100
AcDbSpline
210
0.0
220
0.0
230
1.0
 70
     8
 71
     3
 72
    10
 73
     6
 74
     0
 42
0.000000001
 43
0.00000001
 40
0.0
 40
0.0
 40
0.0
 40
0.0
 40
0.5
 40
0.5
 40
1.0
 40
1.0
 40
1.0
 40
1.0
 10
16.81247757427996
 20
-0.9873286315673955
 30
0.0
 10
16.53301638042293
 20
-0.8313536321357006
 30
0.0
 10
16.25273750277391
 20
-0.672781252818293
 30
0.0
 10
15.69673972026011
 20
-0.3539690916961479
 30
0.0
 10
15.4199784138621
 20
-0.1935368386929504
 30
0.0
 10
15.14049662990763
 20
-0.0325004352375845
 30
0.0
  0
SPLINE
  5
E1
330
1F
100
AcDbEntity
  8
외형선
  6
Continuous
 62
     1
370
    15
100
AcDbSpline
210
0.0
220
0.0
230
1.0
 70
     8
 71
     3
 72
    12
 73
     8
 74
     0
 42
0.000000001
 43
0.00000001
 40
0.0
 40
0.0
 40
0.0
 40
0.0
 40
0.5
 40
0.5
 40
0.75
 40
0.75
 40
1.0
 40
1.0
 40
1.0
 40
1.0
 10
17.08679862967412
 20
-3.205484675108343
 30
0.0
 10
17.04065686866871
 20
-2.936019470924047
 30
0.0
 10
16.99286568125769
 20
-2.597902345086335
 30
0.0
 10
16.92493361146298
 20
-2.033345179220059
 30
0.0
 10
16.90349047777728
 20
-1.837765432947637
 30
0.0
 10
16.85883538065394
 20
-1.42565521961152
 30
0.0
 10
16.83577702321394
 20
-1.209369899157103
 30
0.0
 10
16.81248013791448
 20
-0.987327322255678
 30
0.0
  0
SPLINE
  5
E2
330
1F
100
AcDbEntity
  8
외형선
  6
Continuous
 62
     1
370
    15
100
AcDbSpline
210
0.0
220
0.0
230
1.0
 70
     8
 71
     3
 72
    10
 73
     6
 74
     0
 42
0.000000001
 43
0.00000001
 40
0.0
 40
0.0
 40
0.0
 40
0.0
 40
0.5
 40
0.5
 40
1.0
 40
1.0
 40
1.0
 40
1.0
 10
17.08679876081138
 20
-3.205485123631056
 30
0.0
 10
16.80858853518543
 20
-3.110762484355929
 30
0.0
 10
16.52854768368281
 20
-3.00792538248384
 30
0.0
 10
15.97098547005824
 20
-2.788261545712147
 30
0.0
 10
15.69538648307035
 20
-2.671739383587453
 30
0.0
 10
15.4171395231942
 20
-2.548584414185386
 30
0.0
  0
SPLINE
  5
E3
330
1F
100
AcDbEntity
  8
외형선
  6
Continuous
 62
     1
370
    15
100
AcDbSpline
210
0.0
220
0.0
230
1.0
 70
     8
 71
     3
 72
    10
 73
     6
 74
     0
 42
0.000000001
 43
0.00000001
 40
0.0
 40
0.0
 40
0.0
 40
0.0
 40
0.5
 40
0.5
 40
1.0
 40
1.0
 40
1.0
 40
1.0
 10
15.2515808488643
 20
-2.446913170644818
 30
0.0
 10
15.15157838471526
 20
-2.364051179279212
 30
0.0
 10
15.03325084114043
 20
-2.297680071561918
 30
0.0
 10
14.80224045440015
 20
-2.196044462179924
 30
0.0
 10
14.6905517437387
 20
-2.160750385057805
 30
0.0
 10
14.59632771901626
 20
-2.145520515471089
 30
0.0
  0
SPLINE
  5
E4
330
1F
100
AcDbEntity
  8
외형선
  6
Continuous
 62
     1
370
    15
100
AcDbSpline
210
0.0
220
0.0
230
1.0
 70
     8
 71
     3
 72
    10
 73
     6
 74
     0
 42
0.000000001
 43
0.00000001
 40
0.0
 40
0.0
 40
0.0
 40
0.0
 40
0.5
 40
0.5
 40
1.0
 40
1.0
 40
1.0
 40
1.0
 10
14.32118135910948
 20
0.4401020799287723
 30
0.0
 10
14.42104413482867
 20
0.385616027512136
 30
0.0
 10
14.53925867383503
 20
0.3245452800036273
 30
0.0
 10
14.77010518606495
 20
0.196798995675361
 30
0.0
 10
14.88172414255313
 20
0.1306180055580317
 30
0.0
 10
14.97592781173936
 20
0.0685478461472089
 30
0.0
  0
SPLINE
  5
E5
330
1F
100
AcDbEntity
  8
외형선
  6
Continuous
 62
     1
370
    15
100
AcDbSpline
210
0.0
220
0.0
230
1.0
 70
     8
 71
     3
 72
    12
 73
     8
 74
     0
 42
0.000000001
 43
0.00000001
 40
0.0
 40
0.0
 40
0.0
 40
0.0
 40
0.2500000000000001
 40
0.2500000000000001
 40
0.5
 40
0.5
 40
1.0
 40
1.0
 40
1.0
 40
1.0
 10
15.25158084886403
 20
-2.446913170642746
 30
0.0
 10
15.22833209427589
 20
-2.269791033379312
 30
0.0
 10
15.20547943298691
 20
-2.081284469199837
 30
0.0
 10
15.16151911614343
 20
-1.690935860662825
 30
0.0
 10
15.1391493047972
 20
-1.485455096224929
 30
0.0
 10
15.06982549314897
 20
-0.8429763566640766
 30
0.0
 10
15.02170952880609
 20
-0.3828223054160497
 30
0.0
 10
14.97592781175382
 20
0.0685478460045031
 30
0.0
  0
SPLINE
  5
E6
330
1F
100
AcDbEntity
  8
외형선
  6
Continuous
 62
     1
370
    15
100
AcDbSpline
210
0.0
220
0.0
230
1.0
 70
     8
 71
     3
 72
    14
 73
    10
 74
     0
 42
0.000000001
 43
0.00000001
 40
0.0
 40
0.0
 40
0.0
 40
0.0
 40
0.0000585819510762
 40
0.0000585819510762
 40
0.0000585819510762
 40
0.0001171305113204
 40
0.0001171305113204
 40
0.0001171305113204
 40
0.0002032771506025
 40
0.0002032771506025
 40
0.0002032771506025
 40
0.0002032771506025
 10
11.94355871729881
 20
-0.754161357789572
 30
0.0
 10
11.92969997428915
 20
-0.7469678000643991
 30
0.0
 10
11.91494604924464
 20
-0.7391729205586617
 30
0.0
 10
11.89965609966547
 20
-0.7309627180418097
 30
0.0
 10
11.88437160181646
 20
-0.7227554429256292
 30
0.0
 10
11.86844771823564
 20
-0.7140777447479819
 30
0.0
 10
11.85220324752272
 20
-0.705112571973989
 30
0.0
 10
11.82838648908866
 20
-0.6919683238140387
 30
0.0
 10
11.80360270889376
 20
-0.6780494458999337
 30
0.0
 10
11.77880418725521
 20
-0.6639637640535174
 30
0.0
  0
SPLINE
  5
E7
330
1F
100
AcDbEntity
  8
외형선
  6
Continuous
 62
     1
370
    15
100
AcDbSpline
210
0.0
220
0.0
230
1.0
 70
     8
 71
     3
 72
     8
 73
     4
 74
     0
 42
0.000000001
 43
0.00000001
 40
0.0
 40
0.0
 40
0.0
 40
0.0
 40
1.0
 40
1.0
 40
1.0
 40
1.0
 10
11.50437740212463
 20
1.974287390461746
 30
0.0
 10
11.5609363284227
 20
1.946025887739724
 30
0.0
 10
11.61844802319578
 20
1.91050613157342
 30
0.0
 10
11.66755480476421
 20
1.873010561938399
 30
0.0
  0
SPLINE
  5
E8
330
1F
100
AcDbEntity
  8
외형선
  6
Continuous
 62
     1
370
    15
100
AcDbSpline
210
0.0
220
0.0
230
1.0
 70
     8
 71
     3
 72
    10
 73
     6
 74
     0
 42
0.000000001
 43
0.00000001
 40
0.0
 40
0.0
 40
0.0
 40
0.0
 40
0.5
 40
0.5
 40
1.0
 40
1.0
 40
1.0
 40
1.0
 10
11.94355871050113
 20
-0.7541612932118621
 30
0.0
 10
11.89652431616047
 20
-0.3073363197887811
 30
0.0
 10
11.84982327656343
 20
0.1536062566773863
 30
0.0
 10
11.76200363431535
 20
1.033547934527644
 30
0.0
 10
11.71453093830678
 20
1.473304460047533
 30
0.0
 10
11.66755480476565
 20
1.873010561927279
 30
0.0
  0
SPLINE
  5
E9
330
1F
100
AcDbEntity
  8
외형선
  6
Continuous
 62
     1
370
    15
100
AcDbSpline
210
0.0
220
0.0
230
1.0
 70
     8
 71
     3
 72
    10
 73
     6
 74
     0
 42
0.000000001
 43
0.00000001
 40
0.0
 40
0.0
 40
0.0
 40
0.0
 40
0.5
 40
0.5
 40
1.0
 40
1.0
 40
1.0
 40
1.0
 10
27.63668322623927
 20
-1.461673523099619
 30
0.0
 10
27.53660084493323
 20
-1.390617872618839
 30
0.0
 10
27.41828204016825
 20
-1.324028404281104
 30
0.0
 10
27.18726985147123
 20
-1.203416271833156
 30
0.0
 10
27.07552525456221
 20
-1.14973006729437
 30
0.0
 10
26.98115286150697
 20
-1.108354864771028
 30
0.0
  0
SPLINE
  5
EA
330
1F
100
AcDbEntity
  8
외형선
  6
Continuous
 62
     1
370
    15
100
AcDbSpline
210
0.0
220
0.0
230
1.0
 70
     8
 71
     3
 72
    10
 73
     6
 74
     0
 42
0.000000001
 43
0.00000001
 40
0.0
 40
0.0
 40
0.0
 40
0.0
 40
0.5
 40
0.5
 40
1.0
 40
1.0
 40
1.0
 40
1.0
 10
26.70522813790476
 20
1.545007561497647
 30
0.0
 10
26.80538068683883
 20
1.472911809762903
 30
0.0
 10
26.92386297897509
 20
1.406411916951452
 30
0.0
 10
27.15504601785621
 20
1.28723158839267
 30
0.0
 10
27.26673889147763
 20
1.234790697415368
 30
0.0
 10
27.36101721806724
 20
1.195163134373471
 30
0.0
  0
SPLINE
  5
EB
330
1F
100
AcDbEntity
  8
외형선
  6
Continuous
 62
     1
370
    15
100
AcDbSpline
210
0.0
220
0.0
230
1.0
 70
     8
 71
     3
 72
    12
 73
     8
 74
     0
 42
0.000000001
 43
0.00000001
 40
0.0
 40
0.0
 40
0.0
 40
0.0
 40
0.5
 40
0.5
 40
0.75
 40
0.75
 40
1.0
 40
1.0
 40
1.0
 40
1.0
 10
22.49227160064823
 20
1.426516096825615
 30
0.0
 10
22.44572483220014
 20
1.854265173534699
 30
0.0
 10
22.39816542087994
 20
2.255365165510259
 30
0.0
 10
22.33144170066329
 20
2.767567211196841
 30
0.0
 10
22.30990746643451
 20
2.924127706611195
 30
0.0
 10
22.26446854854227
 20
3.212543498638173
 30
0.0
 10
22.24115758751012
 20
3.342777207439889
 30
0.0
 10
22.21776558759228
 20
3.455678944824491
 30
0.0
  0
SPLINE
  5
EC
330
1F
100
AcDbEntity
  8
외형선
  6
Continuous
 62
     1
370
    15
100
AcDbSpline
210
0.0
220
0.0
230
1.0
 70
     8
 71
     3
 72
    10
 73
     6
 74
     0
 42
0.000000001
 43
0.00000001
 40
0.0
 40
0.0
 40
0.0
 40
0.0
 40
0.5
 40
0.5
 40
1.0
 40
1.0
 40
1.0
 40
1.0
 10
23.88872907508715
 20
2.884302783213341
 30
0.0
 10
23.61109481482417
 20
2.994635915210854
 30
0.0
 10
23.33104877563012
 20
3.098174530007026
 30
0.0
 10
22.77231263773946
 20
3.28928247387095
 30
0.0
 10
22.49545612384112
 20
3.376680718425794
 30
0.0
 10
22.21776589238574
 20
3.45567754983306
 30
0.0
  0
SPLINE
  5
ED
330
1F
100
AcDbEntity
  8
외형선
  6
Continuous
 62
     1
370
    15
100
AcDbSpline
210
0.0
220
0.0
230
1.0
 70
     8
 71
     3
 72
    12
 73
     8
 74
     0
 42
0.000000001
 43
0.00000001
 40
0.0
 40
0.0
 40
0.0
 40
0.0
 40
0.4999999999999996
 40
0.4999999999999996
 40
0.7499999999999998
 40
0.7499999999999998
 40
1.0
 40
1.0
 40
1.0
 40
1.0
 10
24.16215317077202
 20
0.4937609150858095
 30
0.0
 10
24.11834932464521
 20
0.9400278922404509
 30
0.0
 10
24.07194000104998
 20
1.385336838724754
 30
0.0
 10
24.00162840395673
 20
2.000623069606941
 30
0.0
 10
23.9782423244101
 20
2.196442530703994
 30
0.0
 10
23.93260366584645
 20
2.561356174912766
 30
0.0
 10
23.9109256360791
 20
2.729151706421229
 30
0.0
 10
23.88872924234044
 20
2.884301652319314
 30
0.0
  0
SPLINE
  5
EE
330
1F
100
AcDbEntity
  8
외형선
  6
Continuous
 62
     1
370
    15
100
AcDbSpline
210
0.0
220
0.0
230
1.0
 70
     8
 71
     3
 72
    10
 73
     6
 74
     0
 42
0.000000001
 43
0.00000001
 40
0.0
 40
0.0
 40
0.0
 40
0.0
 40
0.5
 40
0.5
 40
1.0
 40
1.0
 40
1.0
 40
1.0
 10
24.16215266477397
 20
0.493761906909565
 30
0.0
 10
23.88519833353307
 20
0.6529411891294655
 30
0.0
 10
23.60740935056649
 20
0.8110701724717472
 30
0.0
 10
23.04880606315739
 20
1.123125669726169
 30
0.0
 10
22.76916870707873
 20
1.276821016852818
 30
0.0
 10
22.4922711400524
 20
1.426515157405295
 30
0.0
  0
SPLINE
  5
EF
330
1F
100
AcDbEntity
  8
외형선
  6
Continuous
 62
     1
370
    15
100
AcDbSpline
210
0.0
220
0.0
230
1.0
 70
     8
 71
     3
 72
    14
 73
    10
 74
     0
 42
0.000000001
 43
0.00000001
 40
0.0
 40
0.0
 40
0.0
 40
0.0
 40
0.0000586522916365
 40
0.0000586522916365
 40
0.0000586522916365
 40
0.000117270586654
 40
0.000117270586654
 40
0.000117270586654
 40
0.0002035369799047
 40
0.0002035369799047
 40
0.0002035369799047
 40
0.0002035369799047
 10
25.59174152303455
 20
-3.911620862232708
 30
0.0
 10
25.60560607607458
 20
-3.922148869827618
 30
0.0
 10
25.62036448565318
 20
-3.931279302341702
 30
0.0
 10
25.63565631125774
 20
-3.938906700502308
 30
0.0
 10
25.65094259604507
 20
-3.946531334962865
 30
0.0
 10
25.66686560111063
 20
-3.952707681229362
 30
0.0
 10
25.68310622331546
 20
-3.957366223830658
 30
0.0
 10
25.706922392913
 20
-3.964197774941847
 30
0.0
 10
25.73169593015681
 20
-3.967833994920054
 30
0.0
 10
25.75648893261952
 20
-3.968095156660502
 30
0.0
  0
SPLINE
  5
F0
330
1F
100
AcDbEntity
  8
외형선
  6
Continuous
 62
     1
370
    15
100
AcDbSpline
210
0.0
220
0.0
230
1.0
 70
     8
 71
     3
 72
    10
 73
     6
 74
     0
 42
0.000000001
 43
0.00000001
 40
0.0
 40
0.0
 40
0.0
 40
0.0
 40
0.5
 40
0.5
 40
1.0
 40
1.0
 40
1.0
 40
1.0
 10
24.93585066303746
 20
-3.877440131049403
 30
0.0
 10
25.03600015387702
 20
-3.809756778710401
 30
0.0
 10
25.15448596482685
 20
-3.783779761026655
 30
0.0
 10
25.38570414303672
 20
-3.799335239246466
 30
0.0
 10
25.49742939747781
 20
-3.840005226929777
 30
0.0
 10
25.59174152303454
 20
-3.911620862232712
 30
0.0
  0
SPLINE
  5
F1
330
1F
100
AcDbEntity
  8
외형선
  6
Continuous
 62
     1
370
    15
100
AcDbSpline
210
0.0
220
0.0
230
1.0
 70
     8
 71
     3
 72
     8
 73
     4
 74
     0
 42
0.000000001
 43
0.00000001
 40
0.0
 40
0.0
 40
0.0
 40
0.0
 40
1.0
 40
1.0
 40
1.0
 40
1.0
 10
24.77265895326478
 20
-3.917255675225771
 30
0.0
 10
24.82922190488273
 20
-3.922487333254499
 30
0.0
 10
24.88673885358559
 20
-3.910631032723162
 30
0.0
 10
24.93585066303733
 20
-3.877440131049501
 30
0.0
  0
SPLINE
  5
F2
330
1F
100
AcDbEntity
  8
외형선
  6
Continuous
 62
     1
370
    15
100
AcDbSpline
210
0.0
220
0.0
230
1.0
 70
     8
 71
     3
 72
    10
 73
     6
 74
     0
 42
0.000000001
 43
0.00000001
 40
0.0
 40
0.0
 40
0.0
 40
0.0
 40
0.5
 40
0.5
 40
1.0
 40
1.0
 40
1.0
 40
1.0
 10
24.77265928149385
 20
-3.917255705584543
 30
0.0
 10
24.49315781171596
 20
-3.891403877893541
 30
0.0
 10
24.21557365788396
 20
-3.855942696503613
 30
0.0
 10
23.6607947720669
 20
-3.766322789902086
 30
0.0
 10
23.38081147761839
 20
-3.711977948669828
 30
0.0
 10
23.1013216003509
 20
-3.648629386406243
 30
0.0
  0
SPLINE
  5
F3
330
1F
100
AcDbEntity
  8
외형선
  6
Continuous
 62
     1
370
    15
100
AcDbSpline
210
0.0
220
0.0
230
1.0
 70
     8
 71
     3
 72
     8
 73
     4
 74
     0
 42
0.000000001
 43
0.00000001
 40
0.0
 40
0.0
 40
0.0
 40
0.0
 40
1.0
 40
1.0
 40
1.0
 40
1.0
 10
22.93731010670228
 20
-3.558944864854804
 30
0.0
 10
22.98541975543903
 20
-3.604467255784638
 30
0.0
 10
23.04285865448774
 20
-3.635379753758176
 30
0.0
 10
23.10164079035765
 20
-3.648701729364228
 30
0.0
  0
SPLINE
  5
F4
330
1F
100
AcDbEntity
  8
외형선
  6
Continuous
 62
     1
370
    15
100
AcDbSpline
210
0.0
220
0.0
230
1.0
 70
     8
 71
     3
 72
    10
 73
     6
 74
     0
 42
0.000000001
 43
0.00000001
 40
0.0
 40
0.0
 40
0.0
 40
0.0
 40
0.5
 40
0.5
 40
1.0
 40
1.0
 40
1.0
 40
1.0
 10
22.28291580971877
 20
-3.387358930349451
 30
0.0
 10
22.3827939742783
 20
-3.346016470098483
 30
0.0
 10
22.50086435709711
 20
-3.34532231175376
 30
0.0
 10
22.73155739132086
 20
-3.407645025115819
 30
0.0
 10
22.84315532814427
 20
-3.469853575477843
 30
0.0
 10
22.93731010670229
 20
-3.558944864854814
 30
0.0
  0
SPLINE
  5
F5
330
1F
100
AcDbEntity
  8
외형선
  6
Continuous
 62
     1
370
    15
100
AcDbSpline
210
0.0
220
0.0
230
1.0
 70
     8
 71
     3
 72
     8
 73
     4
 74
     0
 42
0.000000001
 43
0.00000001
 40
0.0
 40
0.0
 40
0.0
 40
0.0
 40
1.0
 40
1.0
 40
1.0
 40
1.0
 10
22.11993319576666
 20
-3.389003314626903
 30
0.0
 10
22.17643709079502
 20
-3.405992112190294
 30
0.0
 10
22.23387418346908
 20
-3.407658677474435
 30
0.0
 10
22.28291580971862
 20
-3.387358930349513
 30
0.0
  0
SPLINE
  5
F6
330
1F
100
AcDbEntity
  8
외형선
  6
Continuous
 62
     1
370
    15
100
AcDbSpline
210
0.0
220
0.0
230
1.0
 70
     8
 71
     3
 72
    10
 73
     6
 74
     0
 42
0.000000001
 43
0.00000001
 40
0.0
 40
0.0
 40
0.0
 40
0.0
 40
0.5
 40
0.5
 40
1.0
 40
1.0
 40
1.0
 40
1.0
 10
22.11993766216149
 20
-3.38900465751908
 30
0.0
 10
21.84158055821683
 20
-3.305312237986304
 30
0.0
 10
21.5612049489446
 20
-3.213039882804445
 30
0.0
 10
21.0026191805792
 20
-3.013323558284394
 30
0.0
 10
20.72644514085274
 20
-2.906175640461588
 30
0.0
 10
20.448036917695
 20
-2.791866411628954
 30
0.0
  0
SPLINE
  5
F7
330
1F
100
AcDbEntity
  8
외형선
  6
Continuous
 62
     1
370
    15
100
AcDbSpline
210
0.0
220
0.0
230
1.0
 70
     8
 71
     3
 72
    14
 73
    10
 74
     0
 42
0.000000001
 43
0.00000001
 40
0.0
 40
0.0
 40
0.0
 40
0.0
 40
0.0000585766120609
 40
0.0000585766120609
 40
0.0000585766120609
 40
0.0001171195030148
 40
0.0001171195030148
 40
0.0001171195030148
 40
0.0002033580479311
 40
0.0002033580479311
 40
0.0002033580479311
 40
0.0002033580479311
 10
20.28359514316659
 20
-2.681853507240061
 30
0.0
 10
20.29745170734905
 20
-2.695574301272762
 30
0.0
 10
20.312202514137
 20
-2.708574677336585
 30
0.0
 10
20.32748774642814
 20
-2.720636494485848
 30
0.0
 10
20.34276747763214
 20
-2.732693970640742
 30
0.0
 10
20.35868491613521
 20
-2.743896729900838
 30
0.0
 10
20.37492108262374
 20
-2.754058266117013
 30
0.0
 10
20.39875327832372
 20
-2.768973838699216
 30
0.0
 10
20.42355008679586
 20
-2.781813006738464
 30
0.0
 10
20.44835821561689
 20
-2.791998327755737
 30
0.0
  0
SPLINE
  5
F8
330
1F
100
AcDbEntity
  8
외형선
  6
Continuous
 62
     1
370
    15
100
AcDbSpline
210
0.0
220
0.0
230
1.0
 70
     8
 71
     3
 72
    10
 73
     6
 74
     0
 42
0.000000001
 43
0.00000001
 40
0.0
 40
0.0
 40
0.0
 40
0.0
 40
0.5
 40
0.5
 40
1.0
 40
1.0
 40
1.0
 40
1.0
 10
19.6279025873237
 20
-2.398563135560656
 30
0.0
 10
19.72796599551639
 20
-2.389335488997981
 30
0.0
 10
19.84637856805991
 20
-2.413791948796035
 30
0.0
 10
20.07753501610952
 20
-2.51382431114531
 30
0.0
 10
20.18927101735874
 20
-2.588453593272725
 30
0.0
 10
20.2835951431666
 20
-2.68185350724006
 30
0.0
  0
SPLINE
  5
F9
330
1F
100
AcDbEntity
  8
외형선
  6
Continuous
 62
     1
370
    15
100
AcDbSpline
210
0.0
220
0.0
230
1.0
 70
     8
 71
     3
 72
     8
 73
     4
 74
     0
 42
0.000000001
 43
0.00000001
 40
0.0
 40
0.0
 40
0.0
 40
0.0
 40
1.0
 40
1.0
 40
1.0
 40
1.0
 10
19.46480805378238
 20
-2.361983992427566
 30
0.0
 10
19.52132998401238
 20
-2.388200267110739
 30
0.0
 10
19.57881508939734
 20
-2.403089886045061
 30
0.0
 10
19.62790258732356
 20
-2.398563135560674
 30
0.0
  0
SPLINE
  5
FA
330
1F
100
AcDbEntity
  8
외형선
  6
Continuous
 62
     1
370
    15
100
AcDbSpline
210
0.0
220
0.0
230
1.0
 70
     8
 71
     3
 72
    10
 73
     6
 74
     0
 42
0.000000001
 43
0.00000001
 40
0.0
 40
0.0
 40
0.0
 40
0.0
 40
0.5
 40
0.5
 40
1.0
 40
1.0
 40
1.0
 40
1.0
 10
19.46480708756765
 20
-2.361983544273154
 30
0.0
 10
19.18650972716343
 20
-2.23290230376363
 30
0.0
 10
18.91111040425084
 20
-2.098485838086337
 30
0.0
 10
18.35401621467791
 20
-1.819003945892265
 30
0.0
 10
18.07406585148776
 20
-1.674196505456403
 30
0.0
 10
17.79579968840441
 20
-1.5259239571289
 30
0.0
  0
SPLINE
  5
FB
330
1F
100
AcDbEntity
  8
외형선
  6
Continuous
 62
     1
370
    15
100
AcDbSpline
210
0.0
220
0.0
230
1.0
 70
     8
 71
     3
 72
    14
 73
    10
 74
     0
 42
0.000000001
 43
0.00000001
 40
0.0
 40
0.0
 40
0.0
 40
0.0
 40
0.0000585522094484
 40
0.0000585522094484
 40
0.0000585522094484
 40
0.0001170713489071
 40
0.0001170713489071
 40
0.0001170713489071
 40
0.0002031566784397
 40
0.0002031566784397
 40
0.0002031566784397
 40
0.0002031566784397
 10
17.63125730276475
 20
-1.411811478596139
 30
0.0
 10
17.64509625848902
 20
-1.424161167105631
 30
0.0
 10
17.65982981240494
 20
-1.436316402023239
 30
0.0
 10
17.67509977319469
 20
-1.448046768205875
 30
0.0
 10
17.69036433662242
 20
-1.459772988141266
 30
0.0
 10
17.70626857298937
 20
-1.471154985697717
 30
0.0
 10
17.72249420136039
 20
-1.481984138937962
 30
0.0
 10
17.74627819811705
 20
-1.497857825901187
 30
0.0
 10
17.77103071165999
 20
-1.512725948213029
 30
0.0
 10
17.79579968846061
 20
-1.525923957158847
 30
0.0
  0
SPLINE
  5
FC
330
1F
100
AcDbEntity
  8
외형선
  6
Continuous
 62
     1
370
    15
100
AcDbSpline
210
0.0
220
0.0
230
1.0
 70
     8
 71
     3
 72
    10
 73
     6
 74
     0
 42
0.000000001
 43
0.00000001
 40
0.0
 40
0.0
 40
0.0
 40
0.0
 40
0.5
 40
0.5
 40
1.0
 40
1.0
 40
1.0
 40
1.0
 10
16.97564607725874
 20
-1.056843245402372
 30
0.0
 10
17.07579034464885
 20
-1.081308101650112
 30
0.0
 10
17.19423859206388
 20
-1.127662003681754
 30
0.0
 10
17.42529069134402
 20
-1.25123915182732
 30
0.0
 10
17.53693574485213
 20
-1.327640253312989
 30
0.0
 10
17.63125730276476
 20
-1.411811478596145
 30
0.0
  0
SPLINE
  5
FD
330
1F
100
AcDbEntity
  8
외형선
  6
Continuous
 62
     1
370
    15
100
AcDbSpline
210
0.0
220
0.0
230
1.0
 70
     8
 71
     3
 72
     8
 73
     4
 74
     0
 42
0.000000001
 43
0.00000001
 40
0.0
 40
0.0
 40
0.0
 40
0.0
 40
1.0
 40
1.0
 40
1.0
 40
1.0
 10
16.81248044329578
 20
-0.9873302328441724
 30
0.0
 10
16.8690410777933
 20
-1.018898279863827
 30
0.0
 10
16.92654547739076
 20
-1.044848159225641
 30
0.0
 10
16.9756460772586
 20
-1.056843245402339
 30
0.0
  0
SPLINE
  5
FE
330
1F
100
AcDbEntity
  8
외형선
  6
Continuous
 62
     1
370
    15
100
AcDbSpline
210
0.0
220
0.0
230
1.0
 70
     8
 71
     3
 72
     8
 73
     4
 74
     0
 42
0.000000001
 43
0.00000001
 40
0.0
 40
0.0
 40
0.0
 40
0.0
 40
1.0
 40
1.0
 40
1.0
 40
1.0
 10
14.97592781173935
 20
0.0685478461471972
 30
0.0
 10
15.02412950170064
 20
0.0367880791910501
 30
0.0
 10
15.08165065899802
 20
0.001406402986007
 30
0.0
 10
15.1405005842471
 20
-0.0325027137138528
 30
0.0
  0
SPLINE
  5
FF
330
1F
100
AcDbEntity
  8
외형선
  6
Continuous
 62
     1
370
    15
100
AcDbSpline
210
0.0
220
0.0
230
1.0
 70
     8
 71
     3
 72
    10
 73
     6
 74
     0
 42
0.000000001
 43
0.00000001
 40
0.0
 40
0.0
 40
0.0
 40
0.0
 40
0.5
 40
0.5
 40
1.0
 40
1.0
 40
1.0
 40
1.0
 10
11.66755480476436
 20
1.873010561938285
 30
0.0
 10
11.76771372628547
 20
1.796534040844524
 30
0.0
 10
11.88621255303623
 20
1.7295243912231
 30
0.0
 10
12.11744854436062
 20
1.615455045067241
 30
0.0
 10
12.22917569907557
 20
1.568544238358254
 30
0.0
 10
12.32349952568129
 20
1.537048056626368
 30
0.0
  0
SPLINE
  5
100
330
1F
100
AcDbEntity
  8
외형선
  6
Continuous
 62
     1
370
    15
100
AcDbSpline
210
0.0
220
0.0
230
1.0
 70
     8
 71
     3
 72
     8
 73
     4
 74
     0
 42
0.000000001
 43
0.00000001
 40
0.0
 40
0.0
 40
0.0
 40
0.0
 40
1.0
 40
1.0
 40
1.0
 40
1.0
 10
10.89473447515847
 20
3.512911839542146
 30
0.0
 10
10.59750875437964
 20
3.432826222760839
 30
0.0
 10
10.2996181636472
 20
3.342764488291351
 30
0.0
 10
9.9999999999967
 20
3.243306165516585
 30
0.0
  0
SPLINE
  5
101
330
1F
100
AcDbEntity
  8
외형선
  6
Continuous
 62
     1
370
    15
100
AcDbSpline
210
0.0
220
0.0
230
1.0
 70
     8
 71
     3
 72
     8
 73
     4
 74
     0
 42
0.000000001
 43
0.00000001
 40
0.0
 40
0.0
 40
0.0
 40
0.0
 40
1.0
 40
1.0
 40
1.0
 40
1.0
 10
11.05904067390754
 20
3.51147391438819
 30
0.0
 10
11.01092015340875
 20
3.528754221752357
 30
0.0
 10
10.95348284282764
 20
3.528741224158474
 30
0.0
 10
10.89473375456664
 20
3.512911645383153
 30
0.0
  0
SPLINE
  5
102
330
1F
100
AcDbEntity
  8
외형선
  6
Continuous
 62
     1
370
    15
100
AcDbSpline
210
0.0
220
0.0
230
1.0
 70
     8
 71
     3
 72
    10
 73
     6
 74
     0
 42
0.000000001
 43
0.00000001
 40
0.0
 40
0.0
 40
0.0
 40
0.0
 40
0.5
 40
0.5
 40
1.0
 40
1.0
 40
1.0
 40
1.0
 10
11.7134530356641
 20
3.660013092987423
 30
0.0
 10
11.61356602505579
 20
3.573742999720983
 30
0.0
 10
11.49535526516355
 20
3.521210382851182
 30
0.0
 10
11.26460416685246
 20
3.47344058813683
 30
0.0
 10
11.15308569537166
 20
3.477701900699711
 30
0.0
 10
11.05904067390771
 20
3.511473914388076
 30
0.0
  0
SPLINE
  5
103
330
1F
100
AcDbEntity
  8
외형선
  6
Continuous
 62
     1
370
    15
100
AcDbSpline
210
0.0
220
0.0
230
1.0
 70
     8
 71
     3
 72
     8
 73
     4
 74
     0
 42
0.000000001
 43
0.00000001
 40
0.0
 40
0.0
 40
0.0
 40
0.0
 40
1.0
 40
1.0
 40
1.0
 40
1.0
 10
11.87643739648319
 20
3.73978800929349
 30
0.0
 10
11.81994329651629
 20
3.728887914178851
 30
0.0
 10
11.76249396859709
 20
3.702368608807113
 30
0.0
 10
11.7134530356641
 20
3.66001309298742
 30
0.0
  0
SPLINE
  5
104
330
1F
100
AcDbEntity
  8
외형선
  6
Continuous
 62
     1
370
    15
100
AcDbSpline
210
0.0
220
0.0
230
1.0
 70
     8
 71
     3
 72
    10
 73
     6
 74
     0
 42
0.000000001
 43
0.00000001
 40
0.0
 40
0.0
 40
0.0
 40
0.0
 40
0.5
 40
0.5
 40
1.0
 40
1.0
 40
1.0
 40
1.0
 10
13.54819209530058
 20
3.949652895600331
 30
0.0
 10
13.26889703146938
 20
3.933878532388143
 30
0.0
 10
12.98856836609792
 20
3.908300157019386
 30
0.0
 10
12.43204308657582
 20
3.838172499534194
 30
0.0
 10
12.15576167997495
 20
3.793681367939621
 30
0.0
 10
11.87644103555199
 20
3.739788711422548
 30
0.0
  0
SPLINE
  5
105
330
1F
100
AcDbEntity
  8
외형선
  6
Continuous
 62
     1
370
    15
100
AcDbSpline
210
0.0
220
0.0
230
1.0
 70
     8
 71
     3
 72
    14
 73
    10
 74
     0
 42
0.000000001
 43
0.00000001
 40
0.0
 40
0.0
 40
0.0
 40
0.0
 40
0.0000585915073472
 40
0.0000585915073472
 40
0.0000585915073472
 40
0.0001171495935712
 40
0.0001171495935712
 40
0.0001171495935712
 40
0.0002033006162064
 40
0.0002033006162064
 40
0.0002033006162064
 40
0.0002033006162064
 10
13.71293316321065
 20
3.905162457567366
 30
0.0
 10
13.69907495250479
 20
3.914583223133539
 30
0.0
 10
13.68432147145414
 20
3.922572423807559
 30
0.0
 10
13.66903184567936
 20
3.929048070508424
 30
0.0
 10
13.65374767573557
 20
3.935521406489957
 30
0.0
 10
13.63782400241631
 20
3.940528095196588
 30
0.0
 10
13.62157955768117
 20
3.944020369373864
 30
0.0
 10
13.597765460773
 20
3.949139987621428
 30
0.0
 10
13.57298417910228
 20
3.951053142180398
 30
0.0
 10
13.54818753033323
 20
3.949652637773741
 30
0.0
  0
SPLINE
  5
106
330
1F
100
AcDbEntity
  8
외형선
  6
Continuous
 62
     1
370
    15
100
AcDbSpline
210
0.0
220
0.0
230
1.0
 70
     8
 71
     3
 72
    10
 73
     6
 74
     0
 42
0.000000001
 43
0.00000001
 40
0.0
 40
0.0
 40
0.0
 40
0.0
 40
0.5
 40
0.5
 40
1.0
 40
1.0
 40
1.0
 40
1.0
 10
14.36872009912067
 20
3.914360112049815
 30
0.0
 10
14.2685849891354
 20
3.840592787825587
 30
0.0
 10
14.15020545768911
 20
3.807671114801046
 30
0.0
 10
13.9191297068342
 20
3.808238938878475
 30
0.0
 10
13.80734565954098
 20
3.840981156436466
 30
0.0
 10
13.71293316321082
 20
3.905162457567233
 30
0.0
  0
SPLINE
  5
107
330
1F
100
AcDbEntity
  8
외형선
  6
Continuous
 62
     1
370
    15
100
AcDbSpline
210
0.0
220
0.0
230
1.0
 70
     8
 71
     3
 72
     8
 73
     4
 74
     0
 42
0.000000001
 43
0.00000001
 40
0.0
 40
0.0
 40
0.0
 40
0.0
 40
1.0
 40
1.0
 40
1.0
 40
1.0
 10
14.53179496320952
 20
3.964706376752912
 30
0.0
 10
14.47526220858956
 20
3.96617825128199
 30
0.0
 10
14.41779302171745
 20
3.95051105044055
 30
0.0
 10
14.36872009912067
 20
3.914360112049814
 30
0.0
  0
SPLINE
  5
108
330
1F
100
AcDbEntity
  8
외형선
  6
Continuous
 62
     1
370
    15
100
AcDbSpline
210
0.0
220
0.0
230
1.0
 70
     8
 71
     3
 72
    10
 73
     6
 74
     0
 42
0.000000001
 43
0.00000001
 40
0.0
 40
0.0
 40
0.0
 40
0.0
 40
0.5
 40
0.5
 40
1.0
 40
1.0
 40
1.0
 40
1.0
 10
16.20074675777471
 20
3.805367578332092
 30
0.0
 10
15.9222452996083
 20
3.850990355642087
 30
0.0
 10
15.6468703623127
 20
3.887122415071576
 30
0.0
 10
15.09022172755529
 20
3.940411502514082
 30
0.0
 10
14.81027868873191
 20
3.957455620617299
 30
0.0
 10
14.53180417287296
 20
3.964706136968616
 30
0.0
  0
SPLINE
  5
109
330
1F
100
AcDbEntity
  8
외형선
  6
Continuous
 62
     1
370
    15
100
AcDbSpline
210
0.0
220
0.0
230
1.0
 70
     8
 71
     3
 72
     8
 73
     4
 74
     0
 42
0.000000001
 43
0.00000001
 40
0.0
 40
0.0
 40
0.0
 40
0.0
 40
1.0
 40
1.0
 40
1.0
 40
1.0
 10
16.36531029069148
 20
3.724398677575161
 30
0.0
 10
16.31710321546516
 20
3.767921401976719
 30
0.0
 10
16.25958784545436
 20
3.795728512844259
 30
0.0
 10
16.2007467221382
 20
3.805367584169897
 30
0.0
  0
SPLINE
  5
10A
330
1F
100
AcDbEntity
  8
외형선
  6
Continuous
 62
     1
370
    15
100
AcDbSpline
210
0.0
220
0.0
230
1.0
 70
     8
 71
     3
 72
    10
 73
     6
 74
     0
 42
0.000000001
 43
0.00000001
 40
0.0
 40
0.0
 40
0.0
 40
0.0
 40
0.5
 40
0.5
 40
1.0
 40
1.0
 40
1.0
 40
1.0
 10
17.02086290525996
 20
3.592733680999897
 30
0.0
 10
16.92082138227736
 20
3.542562019399022
 30
0.0
 10
16.8024557353499
 20
3.53392250325735
 30
0.0
 10
16.5713559132016
 20
3.582737881691063
 30
0.0
 10
16.45960518457963
 20
3.639266554128309
 30
0.0
 10
16.36531029069166
 20
3.724398677575031
 30
0.0
  0
SPLINE
  5
10B
330
1F
100
AcDbEntity
  8
외형선
  6
Continuous
 62
     1
370
    15
100
AcDbSpline
210
0.0
220
0.0
230
1.0
 70
     8
 71
     3
 72
     8
 73
     4
 74
     0
 42
0.000000001
 43
0.00000001
 40
0.0
 40
0.0
 40
0.0
 40
0.0
 40
1.0
 40
1.0
 40
1.0
 40
1.0
 10
17.18406075202395
 20
3.606184147297742
 30
0.0
 10
17.12751241347971
 20
3.619834546191767
 30
0.0
 10
17.06999127658575
 20
3.617371970658763
 30
0.0
 10
17.02086290525996
 20
3.592733680999897
 30
0.0
  0
SPLINE
  5
10C
330
1F
100
AcDbEntity
  8
외형선
  6
Continuous
 62
     1
370
    15
100
AcDbSpline
210
0.0
220
0.0
230
1.0
 70
     8
 71
     3
 72
    10
 73
     6
 74
     0
 42
0.000000001
 43
0.00000001
 40
0.0
 40
0.0
 40
0.0
 40
0.0
 40
0.5000000000000001
 40
0.5000000000000001
 40
1.0
 40
1.0
 40
1.0
 40
1.0
 10
18.85593563440606
 20
3.100944487134456
 30
0.0
 10
18.57787768378318
 20
3.201278537257724
 30
0.0
 10
18.2975861654895
 20
3.294219716471887
 30
0.0
 10
17.73873232294158
 20
3.463181974701968
 30
0.0
 10
17.46217528667564
 20
3.539049117174551
 30
0.0
 10
17.18406081213495
 20
3.606184132787742
 30
0.0
  0
SPLINE
  5
10D
330
1F
100
AcDbEntity
  8
외형선
  6
Continuous
 62
     1
370
    15
100
AcDbSpline
210
0.0
220
0.0
230
1.0
 70
     8
 71
     3
 72
    14
 73
    10
 74
     0
 42
0.000000001
 43
0.00000001
 40
0.0
 40
0.0
 40
0.0
 40
0.0
 40
0.0000585756866842
 40
0.0000585756866842
 40
0.0000585756866842
 40
0.0001171179402142
 40
0.0001171179402142
 40
0.0001171179402142
 40
0.0002032923930651
 40
0.0002032923930651
 40
0.0002032923930651
 40
0.0002032923930651
 10
19.02051745694162
 20
2.995180240820965
 30
0.0
 10
19.00667927698528
 20
3.008940346497361
 30
0.0
 10
18.99194628158284
 20
3.021838474547558
 30
0.0
 10
18.97667698861461
 20
3.033665071037362
 30
0.0
 10
18.96141314787146
 20
3.045487444589919
 30
0.0
 10
18.94550978499818
 20
3.056320784664525
 30
0.0
 10
18.92928507833966
 20
3.06598891072029
 30
0.0
 10
18.90548719067466
 20
3.080169812886888
 30
0.0
 10
18.88072006159512
 20
3.092001308388183
 30
0.0
 10
18.85593562282572
 20
3.10094449131309
 30
0.0
  0
SPLINE
  5
10E
330
1F
100
AcDbEntity
  8
외형선
  6
Continuous
 62
     1
370
    15
100
AcDbSpline
210
0.0
220
0.0
230
1.0
 70
     8
 71
     3
 72
    10
 73
     6
 74
     0
 42
0.000000001
 43
0.00000001
 40
0.0
 40
0.0
 40
0.0
 40
0.0
 40
0.5
 40
0.5
 40
1.0
 40
1.0
 40
1.0
 40
1.0
 10
19.67516732561848
 20
2.741483303602461
 30
0.0
 10
19.57522442095133
 20
2.722065380055207
 30
0.0
 10
19.4569183425363
 20
2.739147498407608
 30
0.0
 10
19.22608878113307
 20
2.829407896861134
 30
0.0
 10
19.1146484222406
 20
2.901580357453081
 30
0.0
 10
19.02051745694179
 20
2.995180240820861
 30
0.0
  0
SPLINE
  5
10F
330
1F
100
AcDbEntity
  8
외형선
  6
Continuous
 62
     1
370
    15
100
AcDbSpline
210
0.0
220
0.0
230
1.0
 70
     8
 71
     3
 72
     8
 73
     4
 74
     0
 42
0.000000001
 43
0.00000001
 40
0.0
 40
0.0
 40
0.0
 40
0.0
 40
1.0
 40
1.0
 40
1.0
 40
1.0
 10
19.83792031363333
 20
2.716354908313126
 30
0.0
 10
19.78149097703045
 20
2.740051404682621
 30
0.0
 10
19.72412440188274
 20
2.750995182081102
 30
0.0
 10
19.67516732561848
 20
2.741483303602461
 30
0.0
  0
SPLINE
  5
110
330
1F
100
AcDbEntity
  8
외형선
  6
Continuous
 62
     1
370
    15
100
AcDbSpline
210
0.0
220
0.0
230
1.0
 70
     8
 71
     3
 72
    10
 73
     6
 74
     0
 42
0.000000001
 43
0.00000001
 40
0.0
 40
0.0
 40
0.0
 40
0.0
 40
0.5
 40
0.5
 40
1.0
 40
1.0
 40
1.0
 40
1.0
 10
21.50834896970505
 20
1.940323460328076
 30
0.0
 10
21.22895042876648
 20
2.080705609172325
 30
0.0
 10
20.95070589647377
 20
2.216100229486031
 30
0.0
 10
20.39697925727742
 20
2.474942847712378
 30
0.0
 10
20.11731308442591
 20
2.599028882820406
 30
0.0
 10
19.83792032030516
 20
2.716354905512092
 30
0.0
  0
SPLINE
  5
111
330
1F
100
AcDbEntity
  8
외형선
  6
Continuous
 62
     1
370
    15
100
AcDbSpline
210
0.0
220
0.0
230
1.0
 70
     8
 71
     3
 72
    14
 73
    10
 74
     0
 42
0.000000001
 43
0.00000001
 40
0.0
 40
0.0
 40
0.0
 40
0.0
 40
0.0000585522290083
 40
0.0000585522290083
 40
0.0000585522290083
 40
0.0001170710934652
 40
0.0001170710934652
 40
0.0001170710934652
 40
0.0002032265493504
 40
0.0002032265493504
 40
0.0002032265493504
 40
0.0002032265493504
 10
21.67308614458418
 20
1.825785147143769
 30
0.0
 10
21.65923190938517
 20
1.838735862308281
 30
0.0
 10
21.64448290469189
 20
1.851326380171664
 30
0.0
 10
21.62919827336377
 20
1.863327028078644
 30
0.0
 10
21.61391908955559
 20
1.875323398893999
 30
0.0
 10
21.59800095841116
 20
1.886812678661754
 30
0.0
 10
21.58176270692229
 20
1.897590366767327
 30
0.0
 10
21.55794071460328
 20
1.913401552069129
 30
0.0
 10
21.5331516221699
 20
1.92786151375641
 30
0.0
 10
21.50834911099377
 20
1.940323389338394
 30
0.0
  0
SPLINE
  5
112
330
1F
100
AcDbEntity
  8
외형선
  6
Continuous
 62
     1
370
    15
100
AcDbSpline
210
0.0
220
0.0
230
1.0
 70
     8
 71
     3
 72
    10
 73
     6
 74
     0
 42
0.000000001
 43
0.00000001
 40
0.0
 40
0.0
 40
0.0
 40
0.0
 40
0.5
 40
0.5
 40
1.0
 40
1.0
 40
1.0
 40
1.0
 10
22.3290390688202
 20
1.487508345362174
 30
0.0
 10
22.22873851385264
 20
1.502259181787987
 30
0.0
 10
22.1105721198497
 20
1.542646652903217
 30
0.0
 10
21.87987458541837
 20
1.660374225865481
 30
0.0
 10
21.76764695809661
 20
1.737391226878012
 30
0.0
 10
21.67308614458435
 20
1.825785147143701
 30
0.0
  0
SPLINE
  5
113
330
1F
100
AcDbEntity
  8
외형선
  6
Continuous
 62
     1
370
    15
100
AcDbSpline
210
0.0
220
0.0
230
1.0
 70
     8
 71
     3
 72
     8
 73
     4
 74
     0
 42
0.000000001
 43
0.00000001
 40
0.0
 40
0.0
 40
0.0
 40
0.0
 40
1.0
 40
1.0
 40
1.0
 40
1.0
 10
22.49227173805174
 20
1.426514834118816
 30
0.0
 10
22.43569774332154
 20
1.4570994138756
 30
0.0
 10
22.37819048638159
 20
1.480279825831252
 30
0.0
 10
22.3290390688202
 20
1.487508345362171
 30
0.0
  0
SPLINE
  5
114
330
1F
100
AcDbEntity
  8
외형선
  6
Continuous
 62
     1
370
    15
100
AcDbSpline
210
0.0
220
0.0
230
1.0
 70
     8
 71
     3
 72
     8
 73
     4
 74
     0
 42
0.000000001
 43
0.00000001
 40
0.0
 40
0.0
 40
0.0
 40
0.0
 40
1.0
 40
1.0
 40
1.0
 40
1.0
 10
24.32649622235178
 20
0.386866851488792
 30
0.0
 10
24.27835486168061
 20
0.4226317739924494
 30
0.0
 10
24.22091195522317
 20
0.4599900512889481
 30
0.0
 10
24.16215309785051
 20
0.4937616579991735
 30
0.0
  0
SPLINE
  5
115
330
1F
100
AcDbEntity
  8
외형선
  6
Continuous
 62
     1
370
    15
100
AcDbSpline
210
0.0
220
0.0
230
1.0
 70
     8
 71
     3
 72
    10
 73
     6
 74
     0
 42
0.000000001
 43
0.00000001
 40
0.0
 40
0.0
 40
0.0
 40
0.0
 40
0.4999999999999971
 40
0.4999999999999971
 40
1.0
 40
1.0
 40
1.0
 40
1.0
 10
24.98136292982266
 20
0.0150267555541217
 30
0.0
 10
24.88139689609293
 20
0.0609558585893539
 30
0.0
 10
24.76310521064748
 20
0.1182987176702388
 30
0.0
 10
24.53221102653118
 20
0.2465869468972025
 30
0.0
 10
24.42061993659751
 20
0.3169409645005574
 30
0.0
 10
24.32649622235196
 20
0.3868668514887744
 30
0.0
  0
SPLINE
  5
116
330
1F
100
AcDbEntity
  8
외형선
  6
Continuous
 62
     1
370
    15
100
AcDbSpline
210
0.0
220
0.0
230
1.0
 70
     8
 71
     3
 72
     8
 73
     4
 74
     0
 42
0.000000001
 43
0.00000001
 40
0.0
 40
0.0
 40
0.0
 40
0.0
 40
1.0
 40
1.0
 40
1.0
 40
1.0
 10
25.14442656600993
 20
-0.0715256066385799
 30
0.0
 10
25.08790697915249
 20
-0.0389576407007276
 30
0.0
 10
25.03043130809314
 20
-0.0075175679252882
 30
0.0
 10
24.98136292982265
 20
0.0150267555541245
 30
0.0
  0
SPLINE
  5
117
330
1F
100
AcDbEntity
  8
외형선
  6
Continuous
 62
     1
370
    15
100
AcDbSpline
210
0.0
220
0.0
230
1.0
 70
     8
 71
     3
 72
     8
 73
     4
 74
     0
 42
0.000000001
 43
0.00000001
 40
0.0
 40
0.0
 40
0.0
 40
0.0
 40
1.0
 40
1.0
 40
1.0
 40
1.0
 10
29.04999999999998
 20
-1.837210513558703
 30
0.0
 10
28.70337450402105
 20
-1.792523459670869
 30
0.0
 10
28.33023304504042
 20
-1.727117033744044
 30
0.0
 10
27.94999999999999
 20
-1.641192969291527
 30
0.0
  0
SPLINE
  5
118
330
1F
100
AcDbEntity
  8
외형선
  6
Continuous
 62
     1
370
    15
100
AcDbSpline
210
0.0
220
0.0
230
1.0
 70
     8
 71
     3
 72
    11
 73
     7
 74
     0
 42
0.000000001
 43
0.00000001
 40
0.0
 40
0.0
 40
0.0
 40
0.0
 40
0.1070826467118211
 40
0.4924609899963958
 40
0.7449532872271386
 40
1.0
 40
1.0
 40
1.0
 40
1.0
 10
28.50308816511659
 20
-1.752905929881952
 30
0.0
 10
28.48043170987076
 20
-1.755535313274094
 30
0.0
 10
28.37623723277498
 20
-1.767627550327767
 30
0.0
 10
28.19225179116262
 20
-1.825016434688666
 30
0.0
 10
27.96660648049654
 20
-1.908272954622986
 30
0.0
 10
27.83267973619733
 20
-1.96966362767181
 30
0.0
 10
27.76537934112888
 20
-2.000513452113688
 30
0.0
  0
SPLINE
  5
119
330
1F
100
AcDbEntity
  8
외형선
  6
Continuous
 62
     1
370
    15
100
AcDbSpline
210
0.0
220
0.0
230
1.0
 70
     8
 71
     3
 72
     8
 73
     4
 74
     0
 42
0.000000001
 43
0.00000001
 40
0.0
 40
0.0
 40
0.0
 40
0.0
 40
1.0
 40
1.0
 40
1.0
 40
1.0
 10
29.04999999999998
 20
-2.320163692655722
 30
0.0
 10
28.61066065076593
 20
-2.253003331515361
 30
0.0
 10
28.18286859422423
 20
-2.14498546946702
 30
0.0
 10
27.76537934112943
 20
-2.000513452111435
 30
0.0
  0
LINE
  5
11A
330
1F
100
AcDbEntity
  8
외형선
  6
Continuous
 62
     1
370
    15
100
AcDbLine
 10
29.04999999999998
 20
-2.6927043200382
 30
0.0
 11
29.04999999999998
 21
-2.320163692655719
 31
0.0
  0
SPLINE
  5
11B
330
1F
100
AcDbEntity
  8
외형선
  6
Continuous
 62
     1
370
    15
100
AcDbSpline
210
0.0
220
0.0
230
1.0
 70
     8
 71
     3
 72
    10
 73
     6
 74
     0
 42
0.000000001
 43
0.00000001
 40
0.0
 40
0.0
 40
0.0
 40
0.0
 40
0.5
 40
0.5
 40
1.0
 40
1.0
 40
1.0
 40
1.0
 10
28.08396153895077
 20
-3.645581907567095
 30
0.0
 10
28.2407177018696
 20
-3.477561641899314
 30
0.0
 10
28.3991610643965
 20
-3.312653164594233
 30
0.0
 10
28.7221783139803
 20
-2.992130378579555
 30
0.0
 10
28.88710745329558
 20
-2.836444104060362
 30
0.0
 10
29.04999999999998
 20
-2.6927043200382
 30
0.0
  0
SPLINE
  5
11C
330
1F
100
AcDbEntity
  8
외형선
  6
Continuous
 62
     1
370
    15
100
AcDbSpline
210
0.0
220
0.0
230
1.0
 70
     8
 71
     3
 72
     8
 73
     4
 74
     0
 42
0.000000001
 43
0.00000001
 40
0.0
 40
0.0
 40
0.0
 40
0.0
 40
1.0
 40
1.0
 40
1.0
 40
1.0
 10
27.58880162647172
 20
-3.796916817391862
 30
0.0
 10
27.73654465495349
 20
-3.672956425639862
 30
0.0
 10
27.92385048273251
 20
-3.627917126836994
 30
0.0
 10
28.08396153895057
 20
-3.645581907564887
 30
0.0
  0
SPLINE
  5
11D
330
1F
100
AcDbEntity
  8
외형선
  6
Continuous
 62
     1
370
    15
100
AcDbSpline
210
0.0
220
0.0
230
1.0
 70
     8
 71
     3
 72
     8
 73
     4
 74
     0
 42
0.000000001
 43
0.00000001
 40
0.0
 40
0.0
 40
0.0
 40
0.0
 40
1.0
 40
1.0
 40
1.0
 40
1.0
 10
27.42585536669053
 20
-3.868989708131209
 30
0.0
 10
27.48231409591277
 20
-3.861696262883725
 30
0.0
 10
27.5397480121276
 20
-3.838074124869826
 30
0.0
 10
27.58880162647172
 20
-3.796916817391862
 30
0.0
  0
SPLINE
  5
11E
330
1F
100
AcDbEntity
  8
외형선
  6
Continuous
 62
     1
370
    15
100
AcDbSpline
210
0.0
220
0.0
230
1.0
 70
     8
 71
     3
 72
     8
 73
     4
 74
     0
 42
0.000000001
 43
0.00000001
 40
0.0
 40
0.0
 40
0.0
 40
0.0
 40
1.0
 40
1.0
 40
1.0
 40
1.0
 10
27.42585646094054
 20
-3.868989566773871
 30
0.0
 10
26.87280107504656
 20
-3.940434354463569
 30
0.0
 10
26.3091032668761
 20
-3.973931297542117
 30
0.0
 10
25.75616771407288
 20
-3.968091768664905
 30
0.0
  0
SPLINE
  5
11F
330
1F
100
AcDbEntity
  8
외형선
  6
Continuous
370
    15
100
AcDbSpline
210
0.0
220
0.0
230
1.0
 70
    24
 71
     3
 72
    10
 73
     6
 74
     0
 42
0.000000001
 43
0.00000001
 40
0.0
 40
0.0
 40
0.0
 40
0.0
 40
0.4233035772008117
 40
0.8497003341239168
 40
0.9999999999999999
 40
0.9999999999999999
 40
0.9999999999999999
 40
0.9999999999999999
 10
9.999999999999988
 20
3.243306165517697
 30
0.0
 10
9.999999999999988
 20
3.162804357996181
 30
0.0
 10
9.999999999999988
 20
3.001212497136094
 30
0.0
 10
9.999999999999988
 20
2.822141327058122
 30
0.0
 10
9.999999999999988
 20
2.74043463355995
 30
0.0
 10
9.999999999999988
 20
2.719140087162372
 30
0.0
  0
SPLINE
  5
120
330
1F
100
AcDbEntity
  8
외형선
  6
Continuous
 62
     1
370
    15
100
AcDbSpline
210
0.0
220
0.0
230
1.0
 70
     8
 71
     3
 72
    10
 73
     6
 74
     0
 42
0.000000001
 43
0.00000001
 40
0.0
 40
0.0
 40
0.0
 40
0.0
 40
0.5
 40
0.5
 40
1.0
 40
1.0
 40
1.0
 40
1.0
 10
12.59950865753258
 20
-1.117488263422844
 30
0.0
 10
12.49914687440042
 20
-1.051348759336117
 30
0.0
 10
12.38103463163976
 20
-0.9860668420254367
 30
0.0
 10
12.15036811485932
 20
-0.862042609263866
 30
0.0
 10
12.03814435373961
 20
-0.8032572415385324
 30
0.0
 10
11.94355871729881
 20
-0.7541613577895698
 30
0.0
  0
SPLINE
  5
121
330
1F
100
AcDbEntity
  8
외형선
  6
Continuous
 62
     1
370
    15
100
AcDbSpline
210
0.0
220
0.0
230
1.0
 70
     8
 71
     3
 72
     8
 73
     4
 74
     0
 42
0.000000001
 43
0.00000001
 40
0.0
 40
0.0
 40
0.0
 40
0.0
 40
1.0
 40
1.0
 40
1.0
 40
1.0
 10
15.41472620484907
 20
-2.54751611085065
 30
0.0
 10
15.35818952104366
 20
-2.522485655595041
 30
0.0
 10
15.30068577611756
 20
-2.487601488604691
 30
0.0
 10
15.25158084886431
 20
-2.446913170644815
 30
0.0
  0
LINE
  5
122
330
1F
100
AcDbEntity
  8
외형선
  6
Continuous
 62
     1
370
    15
100
AcDbLine
 10
16.44955987596229
 20
-2.97350855515509
 30
0.0
 11
16.02679323176622
 21
-3.133093582349465
 31
0.0
  0
SPLINE
  5
123
330
1F
100
AcDbEntity
  8
외형선
  6
Continuous
 62
     1
370
    15
100
AcDbSpline
210
0.0
220
0.0
230
1.0
 70
     8
 71
     3
 72
    14
 73
    10
 74
     0
 42
0.000000001
 43
0.00000001
 40
0.0
 40
0.0
 40
0.0
 40
0.0
 40
0.0000586403931161
 40
0.0000586403931161
 40
0.0000586403931161
 40
0.0001172474918885
 40
0.0001172474918885
 40
0.0001172474918885
 40
0.0002033410684391
 40
0.0002033410684391
 40
0.0002033410684391
 40
0.0002033410684391
 10
15.86214030741941
 20
-3.151987903456688
 30
0.0
 10
15.87599888357773
 20
-3.154590819665307
 30
0.0
 10
15.89075282341308
 20
-3.155857065053674
 30
0.0
 10
15.90604330228909
 20
-3.155832705398908
 30
0.0
 10
15.92132834760733
 20
-3.155808354400483
 30
0.0
 10
15.93725332510645
 20
-3.154495632572948
 30
0.0
 10
15.95349970356922
 20
-3.151962460958402
 30
0.0
 10
15.97728115971956
 20
-3.148254403201982
 30
0.0
 10
16.00202845450473
 20
-3.141878202486071
 30
0.0
 10
16.02679314034629
 20
-3.133093614778161
 30
0.0
  0
SPLINE
  5
124
330
1F
100
AcDbEntity
  8
외형선
  6
Continuous
 62
     1
370
    15
100
AcDbSpline
210
0.0
220
0.0
230
1.0
 70
     8
 71
     3
 72
    10
 73
     6
 74
     0
 42
0.000000001
 43
0.00000001
 40
0.0
 40
0.0
 40
0.0
 40
0.0
 40
0.5
 40
0.5
 40
1.0
 40
1.0
 40
1.0
 40
1.0
 10
15.20631303568585
 20
-3.359222524932914
 30
0.0
 10
15.30648983725034
 20
-3.271173729780855
 30
0.0
 10
15.42498836309804
 20
-3.212098182715984
 30
0.0
 10
15.65616398907683
 20
-3.143869745020314
 30
0.0
 10
15.76781297727779
 20
-3.134271354964504
 30
0.0
 10
15.86214030741949
 20
-3.151987903456697
 30
0.0
  0
SPLINE
  5
125
330
1F
100
AcDbEntity
  8
외형선
  6
Continuous
 62
     1
370
    15
100
AcDbSpline
210
0.0
220
0.0
230
1.0
 70
     8
 71
     3
 72
     8
 73
     4
 74
     0
 42
0.000000001
 43
0.00000001
 40
0.0
 40
0.0
 40
0.0
 40
0.0
 40
1.0
 40
1.0
 40
1.0
 40
1.0
 10
15.04312440117237
 20
-3.448775680577265
 30
0.0
 10
15.09969097965232
 20
-3.432651879860836
 30
0.0
 10
15.15720449400658
 20
-3.402385691045275
 30
0.0
 10
15.20631303568585
 20
-3.359222524932906
 30
0.0
  0
SPLINE
  5
126
330
1F
100
AcDbEntity
  8
외형선
  6
Continuous
 62
     1
370
    15
100
AcDbSpline
210
0.0
220
0.0
230
1.0
 70
     8
 71
     3
 72
    10
 73
     6
 74
     0
 42
0.000000001
 43
0.00000001
 40
0.0
 40
0.0
 40
0.0
 40
0.0
 40
0.5
 40
0.5
 40
1.0
 40
1.0
 40
1.0
 40
1.0
 10
15.04312440203723
 20
-3.448775680330083
 30
0.0
 10
14.7635615715966
 20
-3.528462581812509
 30
0.0
 10
14.48358413650909
 20
-3.599639250780447
 30
0.0
 10
13.92897380157386
 20
-3.723541130055753
 30
0.0
 10
13.65106017517708
 20
-3.776540256565644
 30
0.0
 10
13.37148737736144
 20
-3.820188247775198
 30
0.0
  0
SPLINE
  5
127
330
1F
100
AcDbEntity
  8
외형선
  6
Continuous
 62
     1
370
    15
100
AcDbSpline
210
0.0
220
0.0
230
1.0
 70
     8
 71
     3
 72
     8
 73
     4
 74
     0
 42
0.000000001
 43
0.00000001
 40
0.0
 40
0.0
 40
0.0
 40
0.0
 40
1.0
 40
1.0
 40
1.0
 40
1.0
 10
13.20702251099638
 20
-3.79485672685015
 30
0.0
 10
13.25518318136087
 20
-3.82105155507517
 30
0.0
 10
13.31266832861459
 20
-3.829371305116484
 30
0.0
 10
13.37148715968786
 20
-3.820188281759244
 30
0.0
  0
SPLINE
  5
128
330
1F
100
AcDbEntity
  8
외형선
  6
Continuous
 62
     1
370
    15
100
AcDbSpline
210
0.0
220
0.0
230
1.0
 70
     8
 71
     3
 72
    10
 73
     6
 74
     0
 42
0.000000001
 43
0.00000001
 40
0.0
 40
0.0
 40
0.0
 40
0.0
 40
0.5000000000000008
 40
0.5000000000000008
 40
1.0
 40
1.0
 40
1.0
 40
1.0
 10
12.5526967365359
 20
-3.86928627990072
 30
0.0
 10
12.65249342659809
 20
-3.788343366266855
 30
0.0
 10
12.77061692304735
 20
-3.745521768688596
 30
0.0
 10
13.00131117456553
 20
-3.723522860654893
 30
0.0
 10
13.11288033028648
 20
-3.743652326376457
 30
0.0
 10
13.2070225109969
 20
-3.794856726850422
 30
0.0
  0
SPLINE
  5
129
330
1F
100
AcDbEntity
  8
외형선
  6
Continuous
 62
     1
370
    15
100
AcDbSpline
210
0.0
220
0.0
230
1.0
 70
     8
 71
     3
 72
     8
 73
     4
 74
     0
 42
0.000000001
 43
0.00000001
 40
0.0
 40
0.0
 40
0.0
 40
0.0
 40
1.0
 40
1.0
 40
1.0
 40
1.0
 10
12.389812484555
 20
-3.934394991190182
 30
0.0
 10
12.44626818870405
 20
-3.930098157125436
 30
0.0
 10
12.5036656371341
 20
-3.909054332746751
 30
0.0
 10
12.55269673653591
 20
-3.869286279900698
 30
0.0
  0
SPLINE
  5
12A
330
1F
100
AcDbEntity
  8
외형선
  6
Continuous
 62
     1
370
    15
100
AcDbSpline
210
0.0
220
0.0
230
1.0
 70
     8
 71
     3
 72
     8
 73
     4
 74
     0
 42
0.000000001
 43
0.00000001
 40
0.0
 40
0.0
 40
0.0
 40
0.0
 40
1.0
 40
1.0
 40
1.0
 40
1.0
 10
12.38981251976023
 20
-3.934394988510534
 30
0.0
 10
11.83619195236535
 20
-3.976530957621507
 30
0.0
 10
11.27264529415115
 20
-3.979829105685968
 30
0.0
 10
10.71889090298523
 20
-3.944145757096636
 30
0.0
  0
SPLINE
  5
12B
330
1F
100
AcDbEntity
  8
외형선
  6
Continuous
 62
     1
370
    15
100
AcDbSpline
210
0.0
220
0.0
230
1.0
 70
     8
 71
     3
 72
    14
 73
    10
 74
     0
 42
0.000000001
 43
0.00000001
 40
0.0
 40
0.0
 40
0.0
 40
0.0
 40
0.000058646616417
 40
0.000058646616417
 40
0.000058646616417
 40
0.0001172592342992
 40
0.0001172592342992
 40
0.0001172592342992
 40
0.0002035330075921
 40
0.0002035330075921
 40
0.0002035330075921
 40
0.0002035330075921
 10
10.55409245970893
 20
-3.878593021991398
 30
0.0
 10
10.56796000330398
 20
-3.889901999011805
 30
0.0
 10
10.58272172303046
 20
-3.899857031057229
 30
0.0
 10
10.59801714206903
 20
-3.908334097348594
 30
0.0
 10
10.61330701828733
 20
-3.916808091683917
 30
0.0
 10
10.62923392103403
 20
-3.923864599412997
 30
0.0
 10
10.64547868556816
 20
-3.929416207704306
 30
0.0
 10
10.66930524505594
 20
-3.937558875757623
 30
0.0
 10
10.69409276343191
 20
-3.942547791152384
 30
0.0
 10
10.71889090253153
 20
-3.944145757067405
 30
0.0
  0
SPLINE
  5
12C
330
1F
100
AcDbEntity
  8
외형선
  6
Continuous
 62
     1
370
    15
100
AcDbSpline
210
0.0
220
0.0
230
1.0
 70
     8
 71
     3
 72
    10
 73
     6
 74
     0
 42
0.000000001
 43
0.00000001
 40
0.0
 40
0.0
 40
0.0
 40
0.0
 40
0.5
 40
0.5
 40
1.0
 40
1.0
 40
1.0
 40
1.0
 10
9.9999999999967
 20
-3.76287734489593
 30
0.0
 10
10.09332158823275
 20
-3.732393589860715
 30
0.0
 10
10.19248324060954
 20
-3.73020292905328
 30
0.0
 10
10.38324134398603
 20
-3.771047168656746
 30
0.0
 10
10.47490023994394
 20
-3.814011794077538
 30
0.0
 10
10.55409245970893
 20
-3.878593021991399
 30
0.0
  0
SPLINE
  5
12D
330
1F
100
AcDbEntity
  8
외형선
  6
Continuous
 62
     1
370
    15
100
AcDbSpline
210
0.0
220
0.0
230
1.0
 70
     8
 71
     3
 72
    11
 73
     7
 74
     0
 42
0.000000001
 43
0.00000001
 40
0.0
 40
0.0
 40
0.0
 40
0.0
 40
0.0000615185993439
 40
0.0000615185993439
 40
0.0000615185993439
 40
0.0001251594281217
 40
0.0001251594281217
 40
0.0001251594281217
 40
0.0001251594281217
 10
10.10757237909084
 20
0.297493755537181
 30
0.0
 10
10.0898039105707
 20
0.3077014477058978
 30
0.0
 10
10.07187282470277
 20
0.3176606449231865
 30
0.0
 10
10.05416428678393
 20
0.3270901981027899
 30
0.0
 10
10.03585868180823
 20
0.3368376812882624
 30
0.0
 10
10.01762861675561
 20
0.3461046076942833
 30
0.0
 10
10.00000000001761
 20
0.3545106138967034
 30
0.0
  0
SPLINE
  5
12E
330
1F
100
AcDbEntity
  8
외형선
  6
Continuous
 62
     1
370
    15
100
AcDbSpline
210
0.0
220
0.0
230
1.0
 70
     8
 71
     3
 72
    14
 73
    10
 74
     0
 42
0.000000001
 43
0.00000001
 40
0.0
 40
0.0
 40
0.0
 40
0.0
 40
0.0000585883035233
 40
0.0000585883035233
 40
0.0000585883035233
 40
0.0001171431648217
 40
0.0001171431648217
 40
0.0001171431648217
 40
0.0002033081197963
 40
0.0002033081197963
 40
0.0002033081197963
 40
0.0002033081197963
 10
17.25145793291748
 20
-3.220891168251469
 30
0.0
 10
17.23761002000771
 20
-3.223907004163191
 30
0.0
 10
17.22286702049513
 20
-3.22557082718641
 30
0.0
 10
17.2075877398497
 20
-3.225921792551106
 30
0.0
 10
17.19231391527186
 20
-3.226272632589826
 30
0.0
 10
17.17640051934076
 20
-3.22531546384079
 30
0.0
 10
17.16016597369751
 20
-3.223112407017938
 30
0.0
 10
17.13636129802179
 20
-3.219882070036813
 30
0.0
 10
17.11158832547865
 20
-3.213925262781346
 30
0.0
 10
17.08679870311459
 20
-3.205485103986951
 30
0.0
  0
SPLINE
  5
12F
330
1F
100
AcDbEntity
  8
외형선
  6
Continuous
 62
     1
370
    15
100
AcDbSpline
210
0.0
220
0.0
230
1.0
 70
     8
 71
     3
 72
    10
 73
     6
 74
     0
 42
0.000000001
 43
0.00000001
 40
0.0
 40
0.0
 40
0.0
 40
0.0
 40
0.5000000000000002
 40
0.5000000000000002
 40
1.0
 40
1.0
 40
1.0
 40
1.0
 10
17.9065932212506
 20
-3.418487947547733
 30
0.0
 10
17.80655645808023
 20
-3.330533631926881
 30
0.0
 10
17.68817440834239
 20
-3.272459088122799
 30
0.0
 10
17.45723636149194
 20
-3.207603723539227
 30
0.0
 10
17.34571365574216
 20
-3.200363902111647
 30
0.0
 10
17.25145793291748
 20
-3.220891168251468
 30
0.0
  0
SPLINE
  5
130
330
1F
100
AcDbEntity
  8
외형선
  6
Continuous
 62
     1
370
    15
100
AcDbSpline
210
0.0
220
0.0
230
1.0
 70
     8
 71
     3
 72
     8
 73
     4
 74
     0
 42
0.000000001
 43
0.00000001
 40
0.0
 40
0.0
 40
0.0
 40
0.0
 40
1.0
 40
1.0
 40
1.0
 40
1.0
 10
18.06945376019615
 20
-3.506487914013067
 30
0.0
 10
18.01298962153864
 20
-3.491250526694863
 30
0.0
 10
17.95558928600495
 20
-3.461566264028701
 30
0.0
 10
17.9065932212506
 20
-3.418487947547734
 30
0.0
  0
SPLINE
  5
131
330
1F
100
AcDbEntity
  8
외형선
  6
Continuous
 62
     1
370
    15
100
AcDbSpline
210
0.0
220
0.0
230
1.0
 70
     8
 71
     3
 72
    10
 73
     6
 74
     0
 42
0.000000001
 43
0.00000001
 40
0.0
 40
0.0
 40
0.0
 40
0.0
 40
0.5
 40
0.5
 40
1.0
 40
1.0
 40
1.0
 40
1.0
 10
19.7390329454375
 20
-3.850632685269577
 30
0.0
 10
19.4598901754052
 20
-3.811689017524783
 30
0.0
 10
19.18316739835292
 20
-3.763385692776792
 30
0.0
 10
18.62838464393315
 20
-3.648530585328877
 30
0.0
 10
18.3485833234445
 20
-3.58181369362516
 30
0.0
 10
18.06945376245969
 20
-3.506487914623901
 30
0.0
  0
SPLINE
  5
132
330
1F
100
AcDbEntity
  8
외형선
  6
Continuous
 62
     1
370
    15
100
AcDbSpline
210
0.0
220
0.0
230
1.0
 70
     8
 71
     3
 72
    14
 73
    10
 74
     0
 42
0.000000001
 43
0.00000001
 40
0.0
 40
0.0
 40
0.0
 40
0.0
 40
0.0000585344972364
 40
0.0000585344972364
 40
0.0000585344972364
 40
0.00011703566518
 40
0.00011703566518
 40
0.00011703566518
 40
0.0002031923017348
 40
0.0002031923017348
 40
0.0002031923017348
 40
0.0002031923017348
 10
19.90373455174571
 20
-3.822008702502882
 30
0.0
 10
19.88988509031905
 20
-3.829864805616878
 30
0.0
 10
19.87514117300338
 20
-3.836272252541741
 30
0.0
 10
19.85986184543702
 20
-3.84118083676296
 30
0.0
 10
19.84458795915205
 20
-3.846087672936833
 30
0.0
 10
19.82867537726046
 20
-3.849531859925913
 30
0.0
 10
19.81244288119532
 20
-3.851495537992491
 30
0.0
 10
19.78862190436855
 20
-3.85437721001209
 30
0.0
 10
19.7638337177594
 20
-3.854092682433276
 30
0.0
 10
19.73903267037562
 20
-3.850632646895243
 30
0.0
  0
SPLINE
  5
133
330
1F
100
AcDbEntity
  8
외형선
  6
Continuous
 62
     1
370
    15
100
AcDbSpline
210
0.0
220
0.0
230
1.0
 70
     8
 71
     3
 72
    10
 73
     6
 74
     0
 42
0.000000001
 43
0.00000001
 40
0.0
 40
0.0
 40
0.0
 40
0.0
 40
0.5
 40
0.5
 40
1.0
 40
1.0
 40
1.0
 40
1.0
 10
20.55963763795996
 20
-3.885572680777382
 30
0.0
 10
20.45933659199575
 20
-3.805461226601857
 30
0.0
 10
20.34116759309807
 20
-3.764484920963185
 30
0.0
 10
20.11048028108154
 20
-3.74618206922875
 30
0.0
 10
19.99826860737061
 20
-3.768384285935777
 30
0.0
 10
19.90373455174571
 20
-3.822008702502909
 30
0.0
  0
SPLINE
  5
134
330
1F
100
AcDbEntity
  8
외형선
  6
Continuous
 62
     1
370
    15
100
AcDbSpline
210
0.0
220
0.0
230
1.0
 70
     8
 71
     3
 72
     8
 73
     4
 74
     0
 42
0.000000001
 43
0.00000001
 40
0.0
 40
0.0
 40
0.0
 40
0.0
 40
1.0
 40
1.0
 40
1.0
 40
1.0
 10
20.72288349341431
 20
-3.948310884672019
 30
0.0
 10
20.66633147035011
 20
-3.944986534151155
 30
0.0
 10
20.60879550930955
 20
-3.924835567022804
 30
0.0
 10
20.55963763795995
 20
-3.885572680777378
 30
0.0
  0
LINE
  5
135
330
1F
100
AcDbEntity
  8
외형선
  6
Continuous
 62
     1
370
    15
100
AcDbLine
 10
20.72288353371062
 20
-3.948310887040789
 30
0.0
 11
21.42103820918592
 21
-3.961788134767827
 31
0.0
  0
SPLINE
  5
136
330
1F
100
AcDbEntity
  8
외형선
  6
Continuous
370
    15
100
AcDbSpline
210
0.0
220
0.0
230
1.0
 70
    24
 71
     3
 72
    16
 73
    12
 74
     0
 42
0.000000001
 43
0.00000001
 40
0.0
 40
0.0
 40
0.0
 40
0.0
 40
0.25
 40
0.25
 40
0.5
 40
0.5
 40
0.7499999999999999
 40
0.7499999999999999
 40
0.875
 40
0.875
 40
1.0
 40
1.0
 40
1.0
 40
1.0
 10
9.999999999999988
 20
0.3545106139051076
 30
0.0
 10
9.999999999999988
 20
0.2855790116780519
 30
0.0
 10
9.999999999999988
 20
0.1730263435445355
 30
0.0
 10
9.999999999999988
 20
-0.1917021370504773
 30
0.0
 10
9.999999999999988
 20
-0.4454094573881198
 30
0.0
 10
9.999999999999988
 20
-1.133828704515221
 30
0.0
 10
9.999999999999988
 20
-1.570859193654893
 30
0.0
 10
9.999999999999988
 20
-2.337602513254361
 30
0.0
 10
9.999999999999988
 20
-2.610833782791053
 30
0.0
 10
9.999999999999988
 20
-3.177217938093962
 30
0.0
 10
9.999999999999988
 20
-3.470254528597197
 30
0.0
 10
9.999999999999988
 20
-3.762877344895916
 30
0.0
  0
SPLINE
  5
137
330
1F
100
AcDbEntity
  8
외형선
  6
Continuous
 62
     1
370
    15
100
AcDbSpline
210
0.0
220
0.0
230
1.0
 70
     8
 71
     3
 72
    12
 73
     8
 74
     0
 42
0.000000001
 43
0.00000001
 40
0.0
 40
0.0
 40
0.0
 40
0.0
 40
0.2499999999999999
 40
0.2499999999999999
 40
0.4999999999999998
 40
0.4999999999999998
 40
1.0
 40
1.0
 40
1.0
 40
1.0
 10
24.98136292982129
 20
0.0150267555676105
 30
0.0
 10
24.95837590463075
 20
0.2411132724040481
 30
0.0
 10
24.93645132822273
 20
0.463621167465643
 30
0.0
 10
24.89204517293514
 20
0.9037775267033009
 30
0.0
 10
24.86902510163837
 20
1.123162991989797
 30
0.0
 10
24.79897880321865
 20
1.763987813999013
 30
0.0
 10
24.75101312203752
 20
2.166885188427446
 30
0.0
 10
24.70597193427166
 20
2.511444235049774
 30
0.0
  0
SPLINE
  5
138
330
1F
100
AcDbEntity
  8
외형선
  6
Continuous
 62
     1
370
    15
100
AcDbSpline
210
0.0
220
0.0
230
1.0
 70
     8
 71
     3
 72
     8
 73
     4
 74
     0
 42
0.000000001
 43
0.00000001
 40
0.0
 40
0.0
 40
0.0
 40
0.0
 40
1.0
 40
1.0
 40
1.0
 40
1.0
 10
24.70597193426932
 20
2.511444235069187
 30
0.0
 10
24.75412888722551
 20
2.509221630663973
 30
0.0
 10
24.81161087337221
 20
2.493172413622176
 30
0.0
 10
24.87043111356489
 20
2.466632623905832
 30
0.0
  0
SPLINE
  5
139
330
1F
100
AcDbEntity
  8
외형선
  6
Continuous
370
    15
100
AcDbSpline
210
0.0
220
0.0
230
1.0
 70
    24
 71
     3
 72
     8
 73
     4
 74
     0
 42
0.000000001
 43
0.00000001
 40
0.0
 40
0.0
 40
0.0
 40
0.0
 40
1.0
 40
1.0
 40
1.0
 40
1.0
 10
9.99999999999998
 20
1.355173055714243
 30
0.0
 10
9.99999999999998
 20
1.033607421931113
 30
0.0
 10
9.999999999999988
 20
0.6955503342120909
 30
0.0
 10
9.999999999999988
 20
0.3545106139051286
 30
0.0
  0
SPLINE
  5
13A
330
1F
100
AcDbEntity
  8
외형선
  6
Continuous
 62
     1
370
    15
100
AcDbSpline
210
0.0
220
0.0
230
1.0
 70
     8
 71
     3
 72
     8
 73
     4
 74
     0
 42
0.000000001
 43
0.00000001
 40
0.0
 40
0.0
 40
0.0
 40
0.0
 40
1.0
 40
1.0
 40
1.0
 40
1.0
 10
26.9136353501371
 20
3.847108349285974
 30
0.0
 10
26.85709757950218
 20
3.839097565798891
 30
0.0
 10
26.79959827693811
 20
3.814885999815225
 30
0.0
 10
26.75050234816039
 20
3.773452279012447
 30
0.0
  0
SPLINE
  5
13B
330
1F
100
AcDbEntity
  8
외형선
  6
Continuous
 62
     1
370
    15
100
AcDbSpline
210
0.0
220
0.0
230
1.0
 70
     8
 71
     3
 72
     8
 73
     4
 74
     0
 42
0.000000001
 43
0.00000001
 40
0.0
 40
0.0
 40
0.0
 40
0.0
 40
1.0
 40
1.0
 40
1.0
 40
1.0
 10
27.95000000000309
 20
3.949988861775408
 30
0.0
 10
27.60303336358043
 20
3.930566331473341
 30
0.0
 10
27.260315302003
 20
3.896228872582925
 30
0.0
 10
26.91364372105108
 20
3.847109535350102
 30
0.0
  0
SPLINE
  5
13C
330
1F
100
AcDbEntity
  8
외형선
  6
Continuous
 62
     1
370
    15
100
AcDbSpline
210
0.0
220
0.0
230
1.0
 70
     8
 71
     3
 72
     8
 73
     4
 74
     0
 42
0.000000001
 43
0.00000001
 40
0.0
 40
0.0
 40
0.0
 40
0.0
 40
1.0
 40
1.0
 40
1.0
 40
1.0
 10
29.04999999999998
 20
2.826690178507679
 30
0.0
 10
28.70337450402105
 20
3.227473029963047
 30
0.0
 10
28.33023304504042
 20
3.597490449339175
 30
0.0
 10
27.94999999999999
 20
3.949988861775233
 30
0.0
  0
LINE
  5
13D
330
1F
100
AcDbEntity
  8
외형선
  6
Continuous
 62
     1
370
    15
100
AcDbLine
 10
29.04999999999998
 20
2.569781359493128
 30
0.0
 11
29.04999999999998
 21
2.826690178507679
 31
0.0
  0
SPLINE
  5
13E
330
1F
100
AcDbEntity
  8
외형선
  6
Continuous
 62
     1
370
    15
100
AcDbSpline
210
0.0
220
0.0
230
1.0
 70
     8
 71
     3
 72
    12
 73
     8
 74
     0
 42
0.000000001
 43
0.00000001
 40
0.0
 40
0.0
 40
0.0
 40
0.0
 40
0.2500000000000001
 40
0.2500000000000001
 40
0.5000000000000001
 40
0.5000000000000001
 40
1.0
 40
1.0
 40
1.0
 40
1.0
 10
29.04999999999998
 20
2.569781359493126
 30
0.0
 10
28.98462036957445
 20
2.420430320209306
 30
0.0
 10
28.90754064169671
 20
2.282062427442021
 30
0.0
 10
28.72872317474904
 20
2.028473675582764
 30
0.0
 10
28.62566352312891
 20
1.912507786793946
 30
0.0
 10
28.29340738524221
 20
1.616858059960229
 30
0.0
 10
28.03389869370933
 20
1.482548102928308
 30
0.0
 10
27.76537934112909
 20
1.411933854734946
 30
0.0
  0
SPLINE
  5
13F
330
1F
100
AcDbEntity
  8
외형선
  6
Continuous
 62
     1
370
    15
100
AcDbSpline
210
0.0
220
0.0
230
1.0
 70
     8
 71
     3
 72
     8
 73
     4
 74
     0
 42
0.000000001
 43
0.00000001
 40
0.0
 40
0.0
 40
0.0
 40
0.0
 40
1.0
 40
1.0
 40
1.0
 40
1.0
 10
29.04999999999998
 20
0.7655735109555265
 30
0.0
 10
28.61066065076594
 20
1.004513846046994
 30
0.0
 10
28.18286859422426
 20
1.219092100448216
 30
0.0
 10
27.76537934112948
 20
1.41193385473677
 30
0.0
  0
LINE
  5
140
330
1F
100
AcDbEntity
  8
외형선
  6
Continuous
 62
     1
370
    15
100
AcDbLine
 10
29.04999999999998
 20
0.4894376336451743
 30
0.0
 11
29.04999999999998
 21
0.7655735109555263
 31
0.0
  0
SPLINE
  5
141
330
1F
100
AcDbEntity
  8
외형선
  6
Continuous
 62
     1
370
    15
100
AcDbSpline
210
0.0
220
0.0
230
1.0
 70
     8
 71
     3
 72
    10
 73
     6
 74
     0
 42
0.000000001
 43
0.00000001
 40
0.0
 40
0.0
 40
0.0
 40
0.0
 40
0.5
 40
0.5
 40
1.0
 40
1.0
 40
1.0
 40
1.0
 10
27.94999999999998
 20
0.8761662239346676
 30
0.0
 10
28.12816407057194
 20
0.7585686020652328
 30
0.0
 10
28.3080363595413
 20
0.6645798940350469
 30
0.0
 10
28.67525238677428
 20
0.5309575994791904
 30
0.0
 10
28.86384000265517
 20
0.4913039849537342
 30
0.0
 10
29.04999999999998
 20
0.4894376336451751
 30
0.0
  0
SPLINE
  5
142
330
1F
100
AcDbEntity
  8
외형선
  6
Continuous
 62
     1
370
    15
100
AcDbSpline
210
0.0
220
0.0
230
1.0
 70
     8
 71
     3
 72
    10
 73
     6
 74
     0
 42
0.000000001
 43
0.00000001
 40
0.0
 40
0.0
 40
0.0
 40
0.0
 40
0.5
 40
0.5
 40
1.0
 40
1.0
 40
1.0
 40
1.0
 10
24.05161301392246
 20
2.78579034722468
 30
0.0
 10
24.15142091050597
 20
2.699934141582093
 30
0.0
 10
24.26952536748506
 20
2.634889883553873
 30
0.0
 10
24.50021669490943
 20
2.542903089273621
 30
0.0
 10
24.61180769014742
 20
2.515790229799779
 30
0.0
 10
24.70597193426913
 20
2.511444235069124
 30
0.0
  0
SPLINE
  5
143
330
1F
100
AcDbEntity
  8
외형선
  6
Continuous
 62
     1
370
    15
100
AcDbSpline
210
0.0
220
0.0
230
1.0
 70
     8
 71
     3
 72
     8
 73
     4
 74
     0
 42
0.000000001
 43
0.00000001
 40
0.0
 40
0.0
 40
0.0
 40
0.0
 40
1.0
 40
1.0
 40
1.0
 40
1.0
 10
23.88872908087933
 20
2.884302780911503
 30
0.0
 10
23.94520120645298
 20
2.861860498445128
 30
0.0
 10
24.00260265029787
 20
2.827949775506273
 30
0.0
 10
24.05161301392145
 20
2.785790347225545
 30
0.0
  0
SPLINE
  5
144
330
1F
100
AcDbEntity
  8
외형선
  6
Continuous
 62
     1
370
    15
100
AcDbSpline
210
0.0
220
0.0
230
1.0
 70
     8
 71
     3
 72
    14
 73
    10
 74
     0
 42
0.000000001
 43
0.00000001
 40
0.0
 40
0.0
 40
0.0
 40
0.0
 40
0.0000586092558466
 40
0.0000586092558466
 40
0.0000586092558466
 40
0.0001171846862189
 40
0.0001171846862189
 40
0.0001171846862189
 40
0.0002034324331395
 40
0.0002034324331395
 40
0.0002034324331395
 40
0.0002034324331395
 10
22.05298476239345
 20
3.457783436273903
 30
0.0
 10
22.06684707160253
 20
3.462346179637906
 30
0.0
 10
22.08160361806324
 20
3.465502737599456
 30
0.0
 10
22.09689429294378
 20
3.467265510224778
 30
0.0
 10
22.11217945091985
 20
3.469027646838397
 30
0.0
 10
22.12810204786046
 20
3.46941063474126
 30
0.0
 10
22.14434300462919
 20
3.468453550748904
 30
0.0
 10
22.16817171778776
 20
3.467049318212159
 30
0.0
 10
22.19296329427581
 20
3.462733349535352
 30
0.0
 10
22.21776587563149
 20
3.455677554599278
 30
0.0
  0
SPLINE
  5
145
330
1F
100
AcDbEntity
  8
외형선
  6
Continuous
 62
     1
370
    15
100
AcDbSpline
210
0.0
220
0.0
230
1.0
 70
     8
 71
     3
 72
    10
 73
     6
 74
     0
 42
0.000000001
 43
0.00000001
 40
0.0
 40
0.0
 40
0.0
 40
0.0
 40
0.5
 40
0.5
 40
1.0
 40
1.0
 40
1.0
 40
1.0
 10
21.39714236353326
 20
3.616787826690413
 30
0.0
 10
21.49724727394925
 20
3.529933642966108
 30
0.0
 10
21.6156982104502
 20
3.476177628023486
 30
0.0
 10
21.84690302490035
 20
3.424826339010888
 30
0.0
 10
21.95864978347611
 20
3.426733320989317
 30
0.0
 10
22.05298476239327
 20
3.457783436273779
 30
0.0
  0
SPLINE
  5
146
330
1F
100
AcDbEntity
  8
외형선
  6
Continuous
 62
     1
370
    15
100
AcDbSpline
210
0.0
220
0.0
230
1.0
 70
     8
 71
     3
 72
     8
 73
     4
 74
     0
 42
0.000000001
 43
0.00000001
 40
0.0
 40
0.0
 40
0.0
 40
0.0
 40
1.0
 40
1.0
 40
1.0
 40
1.0
 10
21.23399642491645
 20
3.698439522062727
 30
0.0
 10
21.29053853729197
 20
3.686612344027309
 30
0.0
 10
21.34804091359604
 20
3.659389796326298
 30
0.0
 10
21.39714236353229
 20
3.616787826691243
 30
0.0
  0
SPLINE
  5
147
330
1F
100
AcDbEntity
  8
외형선
  6
Continuous
 62
     1
370
    15
100
AcDbSpline
210
0.0
220
0.0
230
1.0
 70
     8
 71
     3
 72
    10
 73
     6
 74
     0
 42
0.000000001
 43
0.00000001
 40
0.0
 40
0.0
 40
0.0
 40
0.0
 40
0.5
 40
0.5
 40
1.0
 40
1.0
 40
1.0
 40
1.0
 10
21.23399642623091
 20
3.698439521787774
 30
0.0
 10
20.95525822767551
 20
3.756744494182121
 30
0.0
 10
20.6797012665194
 20
3.805759082588037
 30
0.0
 10
20.12330352446509
 20
3.885205397703206
 30
0.0
 10
19.84330294697527
 20
3.915529852065168
 30
0.0
 10
19.5645897274106
 20
3.936103392157225
 30
0.0
  0
SPLINE
  5
148
330
1F
100
AcDbEntity
  8
외형선
  6
Continuous
 62
     1
370
    15
100
AcDbSpline
210
0.0
220
0.0
230
1.0
 70
     8
 71
     3
 72
     8
 73
     4
 74
     0
 42
0.000000001
 43
0.00000001
 40
0.0
 40
0.0
 40
0.0
 40
0.0
 40
1.0
 40
1.0
 40
1.0
 40
1.0
 10
19.40017442171534
 20
3.89481231409402
 30
0.0
 10
19.44831817344451
 20
3.926536528591634
 30
0.0
 10
19.50577421301968
 20
3.940444902790367
 30
0.0
 10
19.56458460168619
 20
3.936103770517443
 30
0.0
  0
SPLINE
  5
149
330
1F
100
AcDbEntity
  8
외형선
  6
Continuous
 62
     1
370
    15
100
AcDbSpline
210
0.0
220
0.0
230
1.0
 70
     8
 71
     3
 72
    10
 73
     6
 74
     0
 42
0.000000001
 43
0.00000001
 40
0.0
 40
0.0
 40
0.0
 40
0.0
 40
0.298539800628264
 40
0.7738356437600772
 40
1.0
 40
1.0
 40
1.0
 40
1.0
 10
18.97141961426632
 20
3.821210430656203
 30
0.0
 10
19.0166698337774
 20
3.813070729002214
 30
0.0
 10
19.13396150702148
 20
3.791972063912417
 30
0.0
 10
19.28254468047446
 20
3.827501142107904
 30
0.0
 10
19.37149508745069
 20
3.878401161771705
 30
0.0
 10
19.40017442171523
 20
3.894812314093924
 30
0.0
  0
SPLINE
  5
14A
330
1F
100
AcDbEntity
  8
외형선
  6
Continuous
 62
     1
370
    15
100
AcDbSpline
210
0.0
220
0.0
230
1.0
 70
     8
 71
     3
 72
     8
 73
     4
 74
     0
 42
0.000000001
 43
0.00000001
 40
0.0
 40
0.0
 40
0.0
 40
0.0
 40
1.0
 40
1.0
 40
1.0
 40
1.0
 10
18.58176409680106
 20
3.968314002391573
 30
0.0
 10
18.63831228568176
 20
3.968797301744518
 30
0.0
 10
18.69580089450347
 20
3.952176235961308
 30
0.0
 10
18.74488767845546
 20
3.915318473677472
 30
0.0
  0
SPLINE
  5
14B
330
1F
100
AcDbEntity
  8
외형선
  6
Continuous
 62
     1
370
    15
100
AcDbSpline
210
0.0
220
0.0
230
1.0
 70
     8
 71
     3
 72
     9
 73
     5
 74
     0
 42
0.000000001
 43
0.00000001
 40
0.0
 40
0.0
 40
0.0
 40
0.0
 40
0.6754233828112158
 40
1.0
 40
1.0
 40
1.0
 40
1.0
 10
24.09838767713468
 20
3.103118873617502
 30
0.0
 10
24.02954971766035
 20
3.050818686207859
 30
0.0
 10
23.92763148203781
 20
2.973385495796298
 30
0.0
 10
23.81733013685831
 20
2.935780647942824
 30
0.0
 10
23.78152889936858
 20
2.923574993636645
 30
0.0
  0
SPLINE
  5
14C
330
1F
100
AcDbEntity
  8
외형선
  6
Continuous
 62
     1
370
    15
100
AcDbSpline
210
0.0
220
0.0
230
1.0
 70
     8
 71
     3
 72
     8
 73
     4
 74
     0
 42
0.000000001
 43
0.00000001
 40
0.0
 40
0.0
 40
0.0
 40
0.0
 40
1.0
 40
1.0
 40
1.0
 40
1.0
 10
24.26156371543484
 20
3.197866646223646
 30
0.0
 10
24.20500011613982
 20
3.178490327607326
 30
0.0
 10
24.14750208566255
 20
3.146169207147822
 30
0.0
 10
24.09838767713482
 20
3.10311887361767
 30
0.0
  0
SPLINE
  5
14D
330
1F
100
AcDbEntity
  8
외형선
  6
Continuous
 62
     1
370
    15
100
AcDbSpline
210
0.0
220
0.0
230
1.0
 70
     8
 71
     3
 72
    10
 73
     6
 74
     0
 42
0.000000001
 43
0.00000001
 40
0.0
 40
0.0
 40
0.0
 40
0.0
 40
0.5
 40
0.5
 40
1.0
 40
1.0
 40
1.0
 40
1.0
 10
25.93079421907021
 20
3.669216030681202
 30
0.0
 10
25.65330495673951
 20
3.608052281239464
 30
0.0
 10
25.37689287688781
 20
3.53798292743665
 30
0.0
 10
24.81879550637575
 20
3.380343312083923
 30
0.0
 10
24.53900825160305
 20
3.292907515275612
 30
0.0
 10
24.26156380102706
 20
3.197866675543974
 30
0.0
  0
SPLINE
  5
14E
330
1F
100
AcDbEntity
  8
외형선
  6
Continuous
 62
     1
370
    15
100
AcDbSpline
210
0.0
220
0.0
230
1.0
 70
     8
 71
     3
 72
     8
 73
     4
 74
     0
 42
0.000000001
 43
0.00000001
 40
0.0
 40
0.0
 40
0.0
 40
0.0
 40
1.0
 40
1.0
 40
1.0
 40
1.0
 10
26.09526081800294
 20
3.657133240417103
 30
0.0
 10
26.0470801087552
 20
3.678473638110843
 30
0.0
 10
25.98959617189896
 20
3.682177066202518
 30
0.0
 10
25.93079400960696
 20
3.669215984511637
 30
0.0
  0
SPLINE
  5
14F
330
1F
100
AcDbEntity
  8
외형선
  6
Continuous
 62
     1
370
    15
100
AcDbSpline
210
0.0
220
0.0
230
1.0
 70
     8
 71
     3
 72
    10
 73
     6
 74
     0
 42
0.000000001
 43
0.00000001
 40
0.0
 40
0.0
 40
0.0
 40
0.0
 40
0.5
 40
0.5
 40
1.0
 40
1.0
 40
1.0
 40
1.0
 10
26.75050234816024
 20
3.773452279012324
 30
0.0
 10
26.65048783065615
 20
3.6890466328078
 30
0.0
 10
26.53214565421779
 20
3.640596455870757
 30
0.0
 10
26.30113486882688
 20
3.60407008587205
 30
0.0
 10
26.18946817022426
 20
3.615406532912075
 30
0.0
 10
26.09526081800414
 20
3.657133240416233
 30
0.0
  0
LINE
  5
150
330
1F
100
AcDbEntity
  8
외형선
  6
Continuous
 62
     1
370
    15
100
AcDbLine
 10
29.04999999999998
 20
0.4894376336451743
 30
0.0
 11
29.04999999999998
 21
-1.837210513558703
 31
0.0
  0
SPLINE
  5
151
330
1F
100
AcDbEntity
  8
외형선
  6
Continuous
 62
     1
370
    15
100
AcDbSpline
210
0.0
220
0.0
230
1.0
 70
     8
 71
     3
 72
    14
 73
    10
 74
     0
 42
0.000000001
 43
0.00000001
 40
0.0
 40
0.0
 40
0.0
 40
0.0
 40
0.2499999999999998
 40
0.2499999999999998
 40
0.4999999999999997
 40
0.4999999999999997
 40
0.7499999999999998
 40
0.7499999999999998
 40
1.0
 40
1.0
 40
1.0
 40
1.0
 10
24.32649622251757
 20
0.3868668498319672
 30
0.0
 10
24.30422091585008
 20
0.609706234133074
 30
0.0
 10
24.28234582287039
 20
0.8293835681812275
 30
0.0
 10
24.23637364059815
 20
1.26543177622859
 30
0.0
 10
24.21283164346289
 20
1.479917425477874
 30
0.0
 10
24.16568793880357
 20
1.891792460381388
 30
0.0
 10
24.14209165158711
 20
2.089134094871663
 30
0.0
 10
24.09591033144527
 20
2.458115317525725
 30
0.0
 10
24.07372537634205
 20
2.62881199549575
 30
0.0
 10
24.05161301392299
 20
2.785790347220912
 30
0.0
  0
SPLINE
  5
152
330
1F
100
AcDbEntity
  8
외형선
  6
Continuous
 62
     1
370
    15
100
AcDbSpline
210
0.0
220
0.0
230
1.0
 70
     8
 71
     3
 72
    12
 73
     8
 74
     0
 42
0.000000001
 43
0.00000001
 40
0.0
 40
0.0
 40
0.0
 40
0.0
 40
0.4999999999999996
 40
0.4999999999999996
 40
0.7499999999999998
 40
0.7499999999999998
 40
1.0
 40
1.0
 40
1.0
 40
1.0
 10
17.2514579329101
 20
-3.220891168210267
 30
0.0
 10
17.20532068627374
 20
-2.963548670804331
 30
0.0
 10
17.15719776594117
 20
-2.63619673950847
 30
0.0
 10
17.08838927842256
 20
-2.083849968211008
 30
0.0
 10
17.06657665960294
 20
-1.8915778503593
 30
0.0
 10
17.02206486739162
 20
-1.488117260370977
 30
0.0
 10
16.99900968296484
 20
-1.275662940537185
 30
0.0
 10
16.97564611031357
 20
-1.056843554988526
 30
0.0
  0
SPLINE
  5
153
330
1F
100
AcDbEntity
  8
외형선
  6
Continuous
 62
     1
370
    15
100
AcDbSpline
210
0.0
220
0.0
230
1.0
 70
     8
 71
     3
 72
    12
 73
     8
 74
     0
 42
0.000000001
 43
0.00000001
 40
0.0
 40
0.0
 40
0.0
 40
0.0
 40
0.4999999999999998
 40
0.4999999999999998
 40
0.7499999999999999
 40
0.7499999999999999
 40
1.0
 40
1.0
 40
1.0
 40
1.0
 10
17.90659322124974
 20
-3.418487947543551
 30
0.0
 10
17.86181498097629
 20
-3.19988979746272
 30
0.0
 10
17.81392965858382
 20
-2.90706566840657
 30
0.0
 10
17.7436964496949
 20
-2.391098325070681
 30
0.0
 10
17.72056477166423
 20
-2.206738374621338
 30
0.0
 10
17.6758527491707
 20
-1.822485448968444
 30
0.0
 10
17.65414750769044
 20
-1.622437127352118
 30
0.0
 10
17.6312573027657
 20
-1.411811478604807
 30
0.0
  0
SPLINE
  5
154
330
1F
100
AcDbEntity
  8
외형선
  6
Continuous
 62
     1
370
    15
100
AcDbSpline
210
0.0
220
0.0
230
1.0
 70
     8
 71
     3
 72
    12
 73
     8
 74
     0
 42
0.000000001
 43
0.00000001
 40
0.0
 40
0.0
 40
0.0
 40
0.0
 40
0.4999999999999997
 40
0.4999999999999997
 40
0.7499999999999997
 40
0.7499999999999997
 40
1.0
 40
1.0
 40
1.0
 40
1.0
 10
18.06945383688332
 20
-3.506488280758823
 30
0.0
 10
18.02531788202328
 20
-3.29541420988964
 30
0.0
 10
17.97787206805446
 20
-3.009309736801178
 30
0.0
 10
17.90782525863965
 20
-2.499691413230089
 30
0.0
 10
17.88467921012122
 20
-2.316833145962655
 30
0.0
 10
17.83978966615797
 20
-1.934136458182373
 30
0.0
 10
17.81838194394425
 20
-1.735511402294816
 30
0.0
 10
17.79579973834748
 20
-1.525924420151817
 30
0.0
  0
SPLINE
  5
155
330
1F
100
AcDbEntity
  8
외형선
  6
Continuous
 62
     1
370
    15
100
AcDbSpline
210
0.0
220
0.0
230
1.0
 70
     8
 71
     3
 72
    12
 73
     8
 74
     0
 42
0.000000001
 43
0.00000001
 40
0.0
 40
0.0
 40
0.0
 40
0.0
 40
0.25
 40
0.25
 40
0.5
 40
0.5
 40
1.0
 40
1.0
 40
1.0
 40
1.0
 10
19.73903270640465
 20
-3.850632732971478
 30
0.0
 10
19.71582242257164
 20
-3.795183993502774
 30
0.0
 10
19.69293550835491
 20
-3.720636753328562
 30
0.0
 10
19.64876849175965
 20
-3.538401179494491
 30
0.0
 10
19.62700404230096
 20
-3.430364347743806
 30
0.0
 10
19.55850340214036
 20
-3.051899062971749
 30
0.0
 10
19.51066039016444
 20
-2.728509734209047
 30
0.0
 10
19.46480799012712
 20
-2.361983483592278
 30
0.0
  0
SPLINE
  5
156
330
1F
100
AcDbEntity
  8
외형선
  6
Continuous
 62
     1
370
    15
100
AcDbSpline
210
0.0
220
0.0
230
1.0
 70
     8
 71
     3
 72
    12
 73
     8
 74
     0
 42
0.000000001
 43
0.00000001
 40
0.0
 40
0.0
 40
0.0
 40
0.0
 40
0.5000000000000002
 40
0.5000000000000002
 40
0.7500000000000001
 40
0.7500000000000001
 40
1.0
 40
1.0
 40
1.0
 40
1.0
 10
22.32903906881882
 20
1.487508345374455
 30
0.0
 10
22.28212522505213
 20
1.908425635798421
 30
0.0
 10
22.23446971130674
 20
2.300143787118875
 30
0.0
 10
22.16803707686669
 20
2.796121848915757
 30
0.0
 10
22.14604370535488
 20
2.948389129304033
 30
0.0
 10
22.10004200230501
 20
3.226416302453101
 30
0.0
 10
22.07651423222373
 20
3.350934168870566
 30
0.0
 10
22.05298488221519
 20
3.45778289215268
 30
0.0
  0
SPLINE
  5
157
330
1F
100
AcDbEntity
  8
외형선
  6
Continuous
 62
     1
370
    15
100
AcDbSpline
210
0.0
220
0.0
230
1.0
 70
     8
 71
     3
 72
    12
 73
     8
 74
     0
 42
0.000000001
 43
0.00000001
 40
0.0
 40
0.0
 40
0.0
 40
0.0
 40
0.25
 40
0.25
 40
0.5
 40
0.5
 40
1.0
 40
1.0
 40
1.0
 40
1.0
 10
21.67308602771643
 20
1.825786148334482
 30
0.0
 10
21.64957829894984
 20
2.027173490944727
 30
0.0
 10
21.62617074451136
 20
2.218930484630276
 30
0.0
 10
21.58058908043436
 20
2.575252035959872
 30
0.0
 10
21.55900976007539
 20
2.738559673208382
 30
0.0
 10
21.49174149108536
 20
3.1922202459267
 30
0.0
 10
21.44387071060216
 20
3.442740684906476
 30
0.0
 10
21.39714236353423
 20
3.616787826686754
 30
0.0
  0
SPLINE
  5
158
330
1F
100
AcDbEntity
  8
외형선
  6
Continuous
 62
     1
370
    15
100
AcDbSpline
210
0.0
220
0.0
230
1.0
 70
     8
 71
     3
 72
    12
 73
     8
 74
     0
 42
0.000000001
 43
0.00000001
 40
0.0
 40
0.0
 40
0.0
 40
0.0
 40
0.5000000000000003
 40
0.5000000000000003
 40
0.7500000000000002
 40
0.7500000000000002
 40
1.0
 40
1.0
 40
1.0
 40
1.0
 10
19.83792028502874
 20
2.716355122506101
 30
0.0
 10
19.79414731265723
 20
3.044111409573158
 30
0.0
 10
19.74771793009193
 20
3.325020723277774
 30
0.0
 10
19.67743195144194
 20
3.638804401118572
 30
0.0
 10
19.6540564498707
 20
3.725392291797531
 30
0.0
 10
19.60844160824987
 20
3.859674743397118
 30
0.0
 10
19.58677858559983
 20
3.907199618420892
 30
0.0
 10
19.56458499640383
 20
3.936103256462213
 30
0.0
  0
SPLINE
  5
159
330
1F
100
AcDbEntity
  8
외형선
  6
Continuous
 62
     1
370
    15
100
AcDbSpline
210
0.0
220
0.0
230
1.0
 70
     8
 71
     3
 72
    12
 73
     8
 74
     0
 42
0.000000001
 43
0.00000001
 40
0.0
 40
0.0
 40
0.0
 40
0.0
 40
0.2499999999999999
 40
0.2499999999999999
 40
0.4999999999999998
 40
0.4999999999999998
 40
1.0
 40
1.0
 40
1.0
 40
1.0
 10
21.50834909266328
 20
1.940323546480408
 30
0.0
 10
21.48500868497048
 20
2.140414186526122
 30
0.0
 10
21.46184618226813
 20
2.330185640565377
 30
0.0
 10
21.41687655286522
 20
2.681542716543923
 30
0.0
 10
21.39550505417465
 20
2.842335507404179
 30
0.0
 10
21.32802443462272
 20
3.289067641422135
 30
0.0
 10
21.28030866242653
 20
3.532472719757111
 30
0.0
 10
21.23399644372507
 20
3.698439454659223
 30
0.0
  0
SPLINE
  5
15A
330
1F
100
AcDbEntity
  8
외형선
  6
Continuous
 62
     1
370
    15
100
AcDbSpline
210
0.0
220
0.0
230
1.0
 70
     8
 71
     3
 72
    12
 73
     8
 74
     0
 42
0.000000001
 43
0.00000001
 40
0.0
 40
0.0
 40
0.0
 40
0.0
 40
0.2500000000000001
 40
0.2500000000000001
 40
0.5000000000000002
 40
0.5000000000000002
 40
1.0
 40
1.0
 40
1.0
 40
1.0
 10
19.9037345517429
 20
-3.822008702496975
 30
0.0
 10
19.88031583165153
 20
-3.772635617548878
 30
0.0
 10
19.85714551931228
 20
-3.703966715594882
 30
0.0
 10
19.81230021905174
 20
-3.532678516691584
 30
0.0
 10
19.79071298334323
 20
-3.430605315515061
 30
0.0
 10
19.72231690443722
 20
-3.069500435037506
 30
0.0
 10
19.67423819107394
 20
-2.756740027417856
 30
0.0
 10
19.62790258957937
 20
-2.398563152997177
 30
0.0
  0
SPLINE
  5
15B
330
1F
100
AcDbEntity
  8
외형선
  6
Continuous
 62
     1
370
    15
100
AcDbSpline
210
0.0
220
0.0
230
1.0
 70
     8
 71
     3
 72
    12
 73
     8
 74
     0
 42
0.000000001
 43
0.00000001
 40
0.0
 40
0.0
 40
0.0
 40
0.0
 40
0.2500000000000001
 40
0.2500000000000001
 40
0.5000000000000003
 40
0.5000000000000003
 40
1.0
 40
1.0
 40
1.0
 40
1.0
 10
20.55963757227893
 20
-3.885572602421418
 30
0.0
 10
20.53611500315947
 20
-3.857510696643548
 30
0.0
 10
20.51254497071278
 20
-3.80957049639437
 30
0.0
 10
20.46636691972349
 20
-3.676805523000695
 30
0.0
 10
20.44404923796377
 20
-3.592448884072214
 30
0.0
 10
20.37807825735964
 20
-3.290156464468304
 30
0.0
 10
20.33056711186091
 20
-3.01350418151799
 30
0.0
 10
20.28359514317133
 20
-2.681853507273489
 30
0.0
  0
SPLINE
  5
15C
330
1F
100
AcDbEntity
  8
외형선
  6
Continuous
 62
     1
370
    15
100
AcDbSpline
210
0.0
220
0.0
230
1.0
 70
     8
 71
     3
 72
    10
 73
     6
 74
     0
 42
0.000000001
 43
0.00000001
 40
0.0
 40
0.0
 40
0.0
 40
0.0
 40
0.5
 40
0.5
 40
1.0
 40
1.0
 40
1.0
 40
1.0
 10
20.72288336109306
 20
-3.948310752988606
 30
0.0
 10
20.67613139501194
 20
-3.901784074232011
 30
0.0
 10
20.62897459458816
 20
-3.773707563512509
 30
0.0
 10
20.54181387188123
 20
-3.386611681088094
 30
0.0
 10
20.49512905819134
 20
-3.118220186980794
 30
0.0
 10
20.44834401884262
 20
-2.791899308454693
 30
0.0
  0
SPLINE
  5
15D
330
1F
100
AcDbEntity
  8
외형선
  6
Continuous
 62
     1
370
    15
100
AcDbSpline
210
0.0
220
0.0
230
1.0
 70
     8
 71
     3
 72
    12
 73
     8
 74
     0
 42
0.000000001
 43
0.00000001
 40
0.0
 40
0.0
 40
0.0
 40
0.0
 40
0.4999999999999996
 40
0.4999999999999996
 40
0.7499999999999997
 40
0.7499999999999997
 40
1.0
 40
1.0
 40
1.0
 40
1.0
 10
19.67516732561742
 20
2.741483303610157
 30
0.0
 10
19.63128689654004
 20
3.059554254908643
 30
0.0
 10
19.58378122117419
 20
3.33132762852454
 30
0.0
 10
19.51318417526821
 20
3.627628891121677
 30
0.0
 10
19.48978121013661
 20
3.708130163970197
 30
0.0
 10
19.44426589132259
 20
3.830211887730029
 30
0.0
 10
19.4227137254372
 20
3.871787477963375
 30
0.0
 10
19.40017440603031
 20
3.894812330116608
 30
0.0
  0
SPLINE
  5
15E
330
1F
100
AcDbEntity
  8
외형선
  6
Continuous
 62
     1
370
    15
100
AcDbSpline
210
0.0
220
0.0
230
1.0
 70
     8
 71
     3
 72
    12
 73
     8
 74
     0
 42
0.000000001
 43
0.00000001
 40
0.0
 40
0.0
 40
0.0
 40
0.0
 40
0.5
 40
0.5
 40
0.75
 40
0.75
 40
1.0
 40
1.0
 40
1.0
 40
1.0
 10
18.85593564495977
 20
3.100944353419409
 30
0.0
 10
18.8103160335447
 20
3.385151529531776
 30
0.0
 10
18.76246695236869
 20
3.610726647218758
 30
0.0
 10
18.69360105927537
 20
3.831028715268967
 30
0.0
 10
18.67144888723508
 20
3.885022687341654
 30
0.0
 10
18.6276512953974
 20
3.955162581953425
 30
0.0
 10
18.60489914177796
 20
3.971704837241246
 30
0.0
 10
18.58176409429505
 20
3.968314002024274
 30
0.0
  0
LINE
  5
15F
330
1F
100
AcDbEntity
  8
외형선
  6
Continuous
 62
     1
370
    15
100
AcDbLine
 10
24.84003945410386
 20
-3.968077422572538
 30
0.0
 11
24.83769202018978
 21
-3.966306870693394
 31
0.0
  0
LINE
  5
160
330
1F
100
AcDbEntity
  8
외형선
  6
Continuous
 62
     1
370
    15
100
AcDbLine
 10
29.04999999999998
 20
0.7655735109555265
 30
0.0
 11
29.04999999999998
 21
2.569781359493128
 31
0.0
  0
LINE
  5
161
330
1F
100
AcDbEntity
  8
외형선
  6
Continuous
 62
     1
370
    15
100
AcDbLine
 10
16.08758385967297
 20
3.9631698035222
 30
0.0
 11
16.08499539021196
 21
3.965227328684525
 31
0.0
  0
SPLINE
  5
162
330
1F
100
AcDbEntity
  8
외형선
  6
Continuous
370
    15
100
AcDbSpline
210
0.0
220
0.0
230
1.0
 70
    24
 71
     3
 72
     8
 73
     4
 74
     0
 42
0.000000001
 43
0.00000001
 40
0.0
 40
0.0
 40
0.0
 40
0.0
 40
1.0
 40
1.0
 40
1.0
 40
1.0
 10
10.0
 20
-3.762877344894853
 30
0.0
 10
10.0
 20
-3.845183980468151
 30
0.0
 10
9.999999999999984
 20
-3.895931721582131
 30
0.0
 10
9.999999999999984
 20
-3.91464373759325
 30
0.0
  0
LINE
  5
163
330
1F
100
AcDbEntity
  8
외형선
  6
Continuous
 62
     1
370
    15
100
AcDbLine
 10
25.02043153956692
 20
-3.894628735631937
 30
0.0
 11
25.01713692830305
 21
-3.89779003831948
 31
0.0
  0
LINE
  5
164
330
1F
100
AcDbEntity
  8
외형선
  6
Continuous
 62
     1
370
    15
100
AcDbLine
 10
29.04999999999998
 20
2.868749999999991
 30
0.0
 11
29.04999999999998
 21
2.826690178507679
 31
0.0
  0
LINE
  5
165
330
1F
100
AcDbEntity
  8
외형선
  6
Continuous
 62
     1
370
    15
100
AcDbLine
 10
29.04999999999998
 20
-1.837210513558703
 30
0.0
 11
29.04999999999998
 21
-2.320163692655722
 31
0.0
  0
SPLINE
  5
166
330
1F
100
AcDbEntity
  8
외형선
  6
Continuous
 62
     1
370
    15
100
AcDbSpline
210
0.0
220
0.0
230
1.0
 70
     8
 71
     3
 72
    10
 73
     6
 74
     0
 42
0.000000001
 43
0.00000001
 40
0.0
 40
0.0
 40
0.0
 40
0.0
 40
0.1612400899272305
 40
0.5837158185331698
 40
1.0
 40
1.0
 40
1.0
 40
1.0
 10
22.33728992998043
 20
-3.943990519805243
 30
0.0
 10
22.32561586482199
 20
-3.950174920502658
 30
0.0
 10
22.28335381632872
 20
-3.972563474843317
 30
0.0
 10
22.20866621845381
 20
-3.80315117300812
 30
0.0
 10
22.14936520772525
 20
-3.526372887990572
 30
0.0
 10
22.11993357608092
 20
-3.389005304677815
 30
0.0
  0
SPLINE
  5
167
330
1F
100
AcDbEntity
  8
외형선
  6
Continuous
 62
     1
370
    15
100
AcDbSpline
210
0.0
220
0.0
230
1.0
 70
     8
 71
     3
 72
    11
 73
     7
 74
     0
 42
0.000000001
 43
0.00000001
 40
0.0
 40
0.0
 40
0.0
 40
0.0
 40
0.2984125095704047
 40
0.5977768117675527
 40
0.8934275031827453
 40
1.0
 40
1.0
 40
1.0
 40
1.0
 10
19.02051745693684
 20
2.995180240852398
 30
0.0
 10
18.99715243135524
 20
3.134154858506903
 30
0.0
 10
18.95034785697885
 20
3.412547356119422
 30
0.0
 10
18.87893911773515
 20
3.692237184337517
 30
0.0
 10
18.82536302909867
 20
3.850492405563551
 30
0.0
 10
18.79432599231932
 20
3.872366416553888
 30
0.0
 10
18.78610246219934
 20
3.87816212409848
 30
0.0
  0
SPLINE
  5
168
330
1F
100
AcDbEntity
  8
외형선
  6
Continuous
 62
     1
370
    15
100
AcDbSpline
210
0.0
220
0.0
230
1.0
 70
     8
 71
     3
 72
     9
 73
     5
 74
     0
 42
0.000000001
 43
0.00000001
 40
0.0
 40
0.0
 40
0.0
 40
0.0
 40
0.5945688318373362
 40
0.9999999999999999
 40
0.9999999999999999
 40
0.9999999999999999
 40
0.9999999999999999
 10
17.18406070117314
 20
3.606184355984778
 30
0.0
 10
17.15015744665757
 20
3.730174678414538
 30
0.0
 10
17.09313586614383
 20
3.938712892647203
 30
0.0
 10
17.03645938191112
 20
3.950112405089997
 30
0.0
 10
17.01348096870131
 20
3.954734122736164
 30
0.0
  0
SPLINE
  5
169
330
1F
100
AcDbEntity
  8
외형선
  6
Continuous
 62
     1
370
    15
100
AcDbSpline
210
0.0
220
0.0
230
1.0
 70
     8
 71
     3
 72
    11
 73
     7
 74
     0
 42
0.000000001
 43
0.00000001
 40
0.0
 40
0.0
 40
0.0
 40
0.0
 40
0.1328899279613653
 40
0.4239639067113323
 40
0.7140044473323799
 40
1.0
 40
1.0
 40
1.0
 40
1.0
 10
22.52138423247169
 20
-3.890122089919617
 30
0.0
 10
22.51095085651838
 20
-3.901018766015887
 30
0.0
 10
22.47766485134695
 20
-3.935782855656189
 30
0.0
 10
22.41942355168239
 20
-3.866643730275166
 30
0.0
 10
22.34967353017888
 20
-3.697900200281566
 30
0.0
 10
22.30506396547089
 20
-3.490386960164129
 30
0.0
 10
22.28291580971892
 20
-3.387358930350217
 30
0.0
  0
SPLINE
  5
16A
330
1F
100
AcDbEntity
  8
외형선
  6
Continuous
 62
     1
370
    15
100
AcDbSpline
210
0.0
220
0.0
230
1.0
 70
     8
 71
     3
 72
     9
 73
     5
 74
     0
 42
0.000000001
 43
0.00000001
 40
0.0
 40
0.0
 40
0.0
 40
0.0
 40
0.4166043083229013
 40
1.0
 40
1.0
 40
1.0
 40
1.0
 10
23.07501798110989
 20
-3.884600466659793
 30
0.0
 10
23.05562381525143
 20
-3.868469684588033
 30
0.0
 10
23.00907085007318
 20
-3.829750012828761
 30
0.0
 10
22.96375006023916
 20
-3.658721918348497
 30
0.0
 10
22.93731010670659
 20
-3.558944864872969
 30
0.0
  0
SPLINE
  5
16B
330
1F
100
AcDbEntity
  8
외형선
  6
Continuous
 62
     1
370
    15
100
AcDbSpline
210
0.0
220
0.0
230
1.0
 70
     8
 71
     3
 72
    11
 73
     7
 74
     0
 42
0.000000001
 43
0.00000001
 40
0.0
 40
0.0
 40
0.0
 40
0.0
 40
0.2406618314857418
 40
0.4784938121069135
 40
0.7876794778999251
 40
1.0
 40
1.0
 40
1.0
 40
1.0
 10
17.02086290525948
 20
3.592733681001786
 30
0.0
 10
17.00504293132217
 20
3.649182111153614
 30
0.0
 10
16.97358900449894
 20
3.761415215855133
 30
0.0
 10
16.92363495844116
 20
3.872821494739135
 30
0.0
 10
16.87524540375747
 20
3.930370220901611
 30
0.0
 10
16.84080071281167
 20
3.903507228381048
 30
0.0
 10
16.82677726508474
 20
3.892570513286299
 30
0.0
  0
SPLINE
  5
16C
330
1F
100
AcDbEntity
  8
외형선
  6
Continuous
 62
     1
370
    15
100
AcDbSpline
210
0.0
220
0.0
230
1.0
 70
     8
 71
     3
 72
    10
 73
     6
 74
     0
 42
0.000000001
 43
0.00000001
 40
0.0
 40
0.0
 40
0.0
 40
0.0
 40
0.0410695488778626
 40
0.5222271340212955
 40
0.9999999999999999
 40
0.9999999999999999
 40
0.9999999999999999
 40
0.9999999999999999
 10
23.26333976679675
 20
-3.962994417447887
 30
0.0
 10
23.26116350827734
 20
-3.964854506486772
 30
0.0
 10
23.23349090703073
 20
-3.988506798619083
 30
0.0
 10
23.17805064061058
 20
-3.902417809821029
 30
0.0
 10
23.12703894472319
 20
-3.733027354242031
 30
0.0
 10
23.10162312430157
 20
-3.64863107363929
 30
0.0
  0
LINE
  5
16D
330
1F
100
AcDbEntity
  8
외형선
  6
Continuous
 62
     1
370
    15
100
AcDbLine
 10
24.83769202018978
 20
-3.966306870693394
 30
0.0
 11
24.77265896411134
 21
-3.917255692317016
 31
0.0
  0
SPLINE
  5
16E
330
1F
100
AcDbEntity
  8
외형선
  6
Continuous
 62
     1
370
    15
100
AcDbSpline
210
0.0
220
0.0
230
1.0
 70
     8
 71
     3
 72
     9
 73
     5
 74
     0
 42
0.000000001
 43
0.00000001
 40
0.0
 40
0.0
 40
0.0
 40
0.0
 40
0.5726706820406312
 40
1.0
 40
1.0
 40
1.0
 40
1.0
 10
16.36531029069078
 20
3.724398677577662
 30
0.0
 10
16.34715085003065
 20
3.776501493087406
 30
0.0
 10
16.31544075690102
 20
3.867483652893603
 30
0.0
 10
16.28348216511153
 20
3.882948863273456
 30
0.0
 10
16.26982532187919
 20
3.889557601077178
 30
0.0
  0
SPLINE
  5
16F
330
1F
100
AcDbEntity
  8
외형선
  6
Continuous
 62
     1
370
    15
100
AcDbSpline
210
0.0
220
0.0
230
1.0
 70
     8
 71
     3
 72
     9
 73
     5
 74
     0
 42
0.000000001
 43
0.00000001
 40
0.0
 40
0.0
 40
0.0
 40
0.0
 40
0.3940474398640491
 40
1.0
 40
1.0
 40
1.0
 40
1.0
 10
16.20074672487841
 20
3.805367576378828
 30
0.0
 10
16.18599365855601
 20
3.844167680392101
 30
0.0
 10
16.14855383575829
 20
3.94263324592568
 30
0.0
 10
16.11058884376615
 20
3.955421019429264
 30
0.0
 10
16.08758385967297
 20
3.9631698035222
 30
0.0
  0
LINE
  5
170
330
1F
100
AcDbEntity
  8
외형선
  6
Continuous
 62
     1
370
    15
100
AcDbLine
 10
16.08499539021196
 20
3.965227328684525
 30
0.0
 11
16.08121758889417
 21
3.968230231128115
 31
0.0
  0
LINE
  5
171
330
1F
100
AcDbEntity
  8
외형선
  6
Continuous
 62
     1
370
    15
100
AcDbLine
 10
14.53179572041183
 20
3.964706035665068
 30
0.0
 11
14.51365548271053
 21
3.953172589774206
 31
0.0
  0
LINE
  5
172
330
1F
100
AcDbEntity
  8
외형선
  6
Continuous
370
    15
100
AcDbLine
 10
10.02382767985278
 20
-3.891619307863205
 30
0.0
 11
10.02103232403127
 21
-3.89432043000845
 31
0.0
  0
LINE
  5
173
330
1F
100
AcDbEntity
  8
외형선
  6
Continuous
 62
     1
370
    15
100
AcDbLine
 10
10.5857505929928
 20
-3.89666843855278
 30
0.0
 11
10.55409245970955
 21
-3.87859302199222
 31
0.0
  0
SPLINE
  5
174
330
1F
100
AcDbEntity
  8
외형선
  6
Continuous
 62
     1
370
    15
100
AcDbSpline
210
0.0
220
0.0
230
1.0
 70
     8
 71
     3
 72
     9
 73
     5
 74
     0
 42
0.000000001
 43
0.00000001
 40
0.0
 40
0.0
 40
0.0
 40
0.0
 40
0.2216048825242316
 40
1.0
 40
1.0
 40
1.0
 40
1.0
 10
25.01713692830305
 20
-3.89779003831948
 30
0.0
 10
25.01126370626551
 20
-3.904459729682384
 30
0.0
 10
24.9847605806546
 20
-3.934556951760398
 30
0.0
 10
24.95725830226002
 20
-3.902439892874725
 30
0.0
 10
24.93585066303822
 20
-3.877440131050438
 30
0.0
  0
LINE
  5
175
330
1F
100
AcDbEntity
  8
외형선
  6
Continuous
 62
     1
370
    15
100
AcDbLine
 10
10.76370162069757
 20
-3.96158881216252
 30
0.0
 11
10.71889086748502
 21
-3.944145718823414
 31
0.0
  0
LINE
  5
176
330
1F
100
AcDbEntity
  8
외형선
  6
Continuous
 62
     1
370
    15
100
AcDbLine
 10
14.368720045701
 20
3.914360124222289
 30
0.0
 11
14.31984858892118
 21
3.88760829179612
 31
0.0
  0
LINE
  5
177
330
1F
100
AcDbEntity
  8
외형선
  6
Continuous
 62
     1
370
    15
100
AcDbLine
 10
25.76332499020809
 20
-3.962711126510677
 30
0.0
 11
25.75646702345089
 21
-3.968091217050709
 31
0.0
  0
LINE
  5
178
330
1F
100
AcDbEntity
  8
중심선
100
AcDbLine
 10
-37.45
 20
-0.0000000000000047
 30
0.0
 11
32.05000000000001
 21
0.0000000000000038
 31
0.0
  0
LINE
  5
179
330
1F
100
AcDbEntity
  8
참조1
100
AcDbLine
 10
-2.699999999999991
 20
-0.3168705809327348
 30
0.0
 11
-2.699999999999993
 21
-40.31687058093273
 31
0.0
  0
LINE
  5
17A
330
1F
100
AcDbEntity
  8
참조1
100
AcDbLine
 10
-19.72860765519648
 20
-3.968749999999993
 30
0.0
 11
48.41397268839599
 21
-3.968749999999993
 31
0.0
  0
LINE
  5
17B
330
1F
100
AcDbEntity
  8
참조1
100
AcDbLine
 10
48.41397268839599
 20
-3.968749999999993
 30
0.0
 11
48.41397268839599
 21
-6.927248606176843
 31
0.0
  0
LINE
  5
17C
330
1F
100
AcDbEntity
  8
참조1
100
AcDbLine
 10
-2.699999999999993
 20
-40.31687058093273
 30
0.0
 11
-24.19604980726571
 21
-40.31687058093273
 31
0.0
  0
CIRCLE
  5
17D
330
1F
100
AcDbEntity
  8
해칭선
100
AcDbCircle
 10
0.0
 20
0.0
 30
0.0
 40
3.000000000000005
  0
INSERT
  5
17E
330
1F
100
AcDbEntity
  8
0
  6
Continuous
 62
     7
100
AcDbBlockReference
 66
     1
  2
블럭10
 10
-16.6402729321252
 20
-52.36404488257666
 30
0.0
  0
ATTRIB
  5
17F
330
17E
100
AcDbEntity
  8
FORMAT
 62
     2
100
AcDbText
 10
-26.16258688272314
 20
-50.28867796974446
 30
0.0
 40
4.233333333333333
  1
EH095020 [ 3 FLUTE ]
 41
0.75
  7
SLDTEXTSTYLE0
 11
-26.16258688272314
 21
-52.40534463641113
 31
0.0
100
AcDbAttribute
  2
AUTOATTR0
 70
     0
 74
     1
  0
SEQEND
  5
180
330
17E
100
AcDbEntity
  8
0
  6
Continuous
 62
     7
  0
HATCH
  5
181
330
1F
100
AcDbEntity
  8
중심선
100
AcDbHatch
 10
0.0
 20
0.0
 30
0.0
210
0.0
220
0.0
230
1.0
  2
SOLID
 70
     1
 71
     0
 91
        1
 92
        0
 93
        4
 72
     1
 10
-10.92536362774436
 20
-36.11687058093273
 11
-14.37163887158164
 21
-36.11687058093273
 72
     1
 10
-14.37163887158164
 20
-36.11687058093273
 11
-16.49986873078566
 21
-38.65319616150532
 72
     1
 10
-16.49986873078566
 20
-38.65319616150532
 11
-13.05356040183521
 21
-38.65315673220283
 72
     1
 10
-13.05356040183521
 20
-38.65315673220283
 11
-10.92536362774436
 21
-36.11687058093273
 97
        0
 75
     0
 76
     1
 98
        1
 10
-0.0000000000000107
 20
-0.3168705809327313
  0
HATCH
  5
182
330
1F
100
AcDbEntity
  8
중심선
100
AcDbHatch
 10
0.0
 20
0.0
 30
0.0
210
0.0
220
0.0
230
1.0
  2
SOLID
 70
     1
 71
     0
 91
        1
 92
        0
 93
        4
 72
     1
 10
-5.91259963670841
 20
-36.11687058093275
 11
-9.358874880545663
 21
-36.11687058093275
 72
     1
 10
-9.358874880545663
 20
-36.11687058093275
 11
-13.89001288890308
 21
-41.51687058093275
 72
     1
 10
-13.89001288890308
 20
-41.51687058093275
 11
-10.4437376450658
 21
-41.51687058093275
 72
     1
 10
-10.4437376450658
 20
-41.51687058093275
 11
-5.91259963670841
 21
-36.11687058093275
 97
        0
 75
     0
 76
     1
 98
        1
 10
-0.0000000000000107
 20
-0.3168705809327313
  0
HATCH
  5
183
330
1F
100
AcDbEntity
  8
중심선
100
AcDbHatch
 10
0.0
 20
0.0
 30
0.0
210
0.0
220
0.0
230
1.0
  2
SOLID
 70
     1
 71
     0
 91
        1
 92
        0
 93
        4
 72
     1
 10
-0.8998356456725138
 20
-36.11687058093273
 11
-4.346110889509657
 21
-36.11687058093273
 72
     1
 10
-4.346110889509657
 20
-36.11687058093273
 11
-11.39454779139888
 21
-44.51687058093275
 72
     1
 10
-11.39454779139888
 20
-44.51687058093275
 11
-7.948272547561596
 21
-44.51687058093275
 72
     1
 10
-7.948272547561596
 20
-44.51687058093275
 11
-0.8998356456725141
 21
-36.11687058093273
 97
        0
 75
     0
 76
     1
 98
        1
 10
-0.0000000000000107
 20
-0.3168705809327313
  0
HATCH
  5
184
330
1F
100
AcDbEntity
  8
중심선
100
AcDbHatch
 10
0.0
 20
0.0
 30
0.0
210
0.0
220
0.0
230
1.0
  2
SOLID
 70
     1
 71
     0
 91
        1
 92
        0
 93
        6
 72
     3
 10
3.900054785339686
 20
-40.316870580984
 11
3.960054785062283
 21
1.540882976769353E-10
 40
0.3939339440162628
 50
17.09539180608437
 51
320.0019657685075
 73
     0
 72
     1
 10
5.58305444104028
 20
-38.904764585571
 11
7.888356314741347
 21
-36.97043787552308
 72
     3
 10
3.900054785286839
 20
-40.31687058093288
 11
6.600054785286829
 21
-1.278976924368180E-13
 40
0.636358354079598
 50
39.99873849337413
 51
368.4976242363725
 73
     1
 72
     1
 10
10.32538727718745
 20
-39.35687058086275
 11
2.580122092122761
 21
-39.35687058086275
 72
     1
 10
2.580122092122761
 20
-39.35687058086275
 11
2.580097047676827
 21
-41.27687058086264
 72
     1
 10
2.580097047676827
 20
-41.27687058086264
 11
7.021476817148864
 21
-41.27687058086261
 97
        0
 75
     0
 76
     1
 98
        1
 10
-0.0000000000000107
 20
-0.3168705809327313
  0
DIMENSION
  5
186
330
1F
100
AcDbEntity
  8
치수문자_일반주서
100
AcDbDimension
  2
_D
 10
43.30020339749638
 20
-3.968749999999929
 30
0.0
 11
43.30020339749628
 21
24.57275000000014
 31
0.0
 70
   160
  1
%%c<>
 71
     2
 42
7.937500000000065
 52
-270.0
  3
SLDDIMSTYLE0
100
AcDbAlignedDimension
 13
6.980193351749503
 23
3.968750000000005
 33
0.0
 14
24.05066700702119
 24
-3.96875
 34
0.0
 50
90.0000000000002
100
AcDbRotatedDimension
1001
ACAD
1000
DSTYLE
1002
{
1070
   171
1070
     6
1070
   273
1070
     7
1002
}
  0
DIMENSION
  5
199
330
1F
100
AcDbEntity
  8
치수문자_일반주서
100
AcDbDimension
  2
_D_1
 10
-44.45000000000005
 20
-3.968750000000033
 30
0.0
 11
-44.45000000000006
 21
-0.6358402172628939
 31
0.0
 70
   160
  1
%%c<>
 71
     2
 42
7.937499999999986
 52
-270.0
  3
SLDDIMSTYLE1
100
AcDbAlignedDimension
 13
-33.64000000000003
 23
3.968749999999992
 33
0.0
 14
-33.64000000000003
 24
-3.968749999999993
 34
0.0
 50
90.0000000000002
100
AcDbRotatedDimension
1001
ACAD
1000
DSTYLE
1002
{
1070
   171
1070
     6
1070
   273
1070
     7
1002
}
  0
DIMENSION
  5
1AE
330
1F
100
AcDbEntity
  8
치수문자_일반주서
100
AcDbDimension
  2
_D_2
 10
9.999999999999984
 20
18.42475796098676
 30
0.0
 11
-5.989500000000012
 21
18.42475796098676
 31
0.0
 70
   160
  1
<>
 71
     2
 42
19.04999999999837
  3
SLDDIMSTYLE0
100
AcDbAlignedDimension
 13
29.04999999999999
 23
2.569781359493128
 33
0.0
 14
9.999999999999988
 24
3.243306165517697
 34
0.0
 50
0.0000000001386101
100
AcDbRotatedDimension
1001
ACAD
1000
DSTYLE
1002
{
1070
   171
1070
     6
1070
   273
1070
     7
1002
}
  0
DIMENSION
  5
1C2
330
1F
100
AcDbEntity
  8
치수문자_일반주서
100
AcDbDimension
  2
_D_3
 10
-34.45000000000002
 20
36.82407034213167
 30
0.0
 11
0.0762867256974915
 21
36.82407034213167
 31
0.0
 70
   160
  1
<>
 71
     2
 42
63.5
  3
SLDDIMSTYLE2
100
AcDbAlignedDimension
 13
29.04999999999998
 23
2.826690178507679
 33
0.0
 14
-34.45000000000002
 24
3.158749999999995
 34
0.0
100
AcDbRotatedDimension
1001
ACAD
1000
DSTYLE
1002
{
1070
   171
1070
     6
1070
   273
1070
     7
1002
}
  0
LINE
  5
1D6
330
1F
100
AcDbEntity
  8
참조1
100
AcDbLine
 10
73.77629082238856
 20
7.123129419067271
 30
0.0
 11
73.77629082238856
 21
-7.756870580932733
 31
0.0
  0
LINE
  5
1D7
330
1F
100
AcDbEntity
  8
참조1
100
AcDbLine
 10
86.47629082238856
 20
5.123129419067271
 30
0.0
 11
73.77629082238856
 21
5.123129419067271
 31
0.0
  0
SOLID
  5
1D8
330
1F
100
AcDbEntity
  8
참조1
100
AcDbTrace
 10
73.77629082238856
 20
5.123129419067271
 30
0.0
 11
80.12629082238855
 21
4.107129419067271
 31
0.0
 12
80.12629082238855
 22
6.139129419067271
 32
0.0
 13
80.12629082238855
 23
6.139129419067271
 33
0.0
  0
LINE
  5
1D9
330
1F
100
AcDbEntity
  8
참조1
100
AcDbLine
 10
86.47629082238856
 20
-5.756870580932733
 30
0.0
 11
73.77629082238856
 21
-5.756870580932733
 31
0.0
  0
SOLID
  5
1DA
330
1F
100
AcDbEntity
  8
참조1
100
AcDbTrace
 10
73.77629082238856
 20
-5.756870580932733
 30
0.0
 11
80.12629082238855
 21
-6.772870580932733
 31
0.0
 12
80.12629082238855
 22
-4.740870580932733
 32
0.0
 13
80.12629082238855
 23
-4.740870580932733
 33
0.0
  0
MTEXT
  5
1DB
330
1F
100
AcDbEntity
  8
참조1
100
AcDbMText
 10
83.37640563295112
 20
10.74884698508335
 30
0.0
 40
3.5
 41
0.0
 71
     1
 72
     1
  1
A
  7
SLDTEXTSTYLE0
 73
     1
 44
1.0
  0
MTEXT
  5
1DC
330
1F
100
AcDbEntity
  8
참조1
100
AcDbMText
 10
83.37640563295112
 20
-0.1311530149166578
 30
0.0
 40
3.5
 41
0.0
 71
     1
 72
     1
  1
A
  7
SLDTEXTSTYLE0
 73
     1
 44
1.0
  0
INSERT
  5
1E3
330
1F
100
AcDbEntity
  8
해칭선
100
AcDbBlockReference
  2
SW_DOWELSYMBOL_0
 10
0.0
 20
0.0
 30
0.0
  0
ENDSEC
  0
SECTION
  2
OBJECTS
  0
DICTIONARY
  5
C
330
0
100
AcDbDictionary
281
     1
  3
ACAD_GROUP
350
D
  3
ACAD_IMAGE_VARS
350
207
  3
ACAD_LAYOUT
350
1A
  3
ACAD_MLINESTYLE
350
17
  3
ACAD_PLOTSETTINGS
350
19
  3
ACAD_PLOTSTYLENAME
350
E
  3
ACAD_SCALELIST
350
47
  3
APPDATA
350
205
  3
DWGPROPS
350
20B
  0
DICTIONARY
  5
D
102
{ACAD_REACTORS
330
C
102
}
330
C
100
AcDbDictionary
281
     1
  0
RASTERVARIABLES
  5
207
102
{ACAD_REACTORS
330
C
102
}
330
C
100
AcDbRasterVariables
 90
        0
 70
     1
 71
     1
 72
     1
  0
DICTIONARY
  5
1A
102
{ACAD_REACTORS
330
C
102
}
330
C
100
AcDbDictionary
281
     1
  3
Layout1
350
1E
  3
Layout2
350
26
  3
Model
350
22
  0
DICTIONARY
  5
17
102
{ACAD_REACTORS
330
C
102
}
330
C
100
AcDbDictionary
281
     1
  3
Standard
350
18
  0
DICTIONARY
  5
19
102
{ACAD_REACTORS
330
C
102
}
330
C
100
AcDbDictionary
281
     1
  0
ACDBDICTIONARYWDFLT
  5
E
102
{ACAD_REACTORS
330
C
102
}
330
C
100
AcDbDictionary
281
     1
  3
Normal
350
F
100
AcDbDictionaryWithDefault
340
F
  0
DICTIONARY
  5
47
102
{ACAD_REACTORS
330
C
102
}
330
C
100
AcDbDictionary
281
     1
  3
A0
350
48
  3
A1
350
49
  3
A2
350
4A
  3
A3
350
4B
  3
A4
350
4C
  3
A5
350
4D
  3
A6
350
4E
  3
A7
350
4F
  3
A8
350
50
  3
A9
350
51
  3
B0
350
52
  3
B1
350
53
  3
B2
350
54
  3
B3
350
55
  3
B4
350
56
  3
B5
350
57
  3
B6
350
58
  3
B7
350
59
  3
B8
350
5A
  3
B9
350
5B
  3
C0
350
5C
  3
C1
350
5D
  3
C2
350
5E
  3
C3
350
5F
  3
C4
350
60
  3
C5
350
61
  3
C6
350
62
  3
C7
350
63
  3
C8
350
64
  3
C9
350
65
  3
D0
350
66
  3
D1
350
67
  3
D2
350
68
  0
DICTIONARY
  5
205
102
{ACAD_REACTORS
330
C
102
}
330
C
100
AcDbDictionary
281
     1
  0
XRECORD
  5
20B
102
{ACAD_REACTORS
330
C
102
}
330
C
100
AcDbXrecord
280
     1
  1
DWGPROPS COOKIE
  2

  3

  4

  6

  7

  8
12016016
  9

300
=
301
=
302
=
303
=
304
=
305
=
306
=
307
=
308
=
309
=
 40
0.0
 41
2458298.969443102
 42
2458302.208715984
  1

 90
        0
  0
LAYOUT
  5
1E
102
{ACAD_REACTORS
330
1A
102
}
330
1A
100
AcDbPlotSettings
  1

  2
none_device
  4

  6

 40
0.0
 41
0.0
 42
0.0
 43
0.0
 44
0.0
 45
0.0
 46
0.0
 47
0.0
 48
0.0
 49
0.0
140
0.0
141
0.0
142
1.0
143
1.0
 70
   688
 72
     1
 73
     0
 74
     5
  7

 75
    16
147
1.0
148
0.0
149
0.0
100
AcDbLayout
  1
Layout1
 70
     1
 71
     1
 10
0.0
 20
0.0
 11
420.0
 21
297.0
 12
0.0
 22
0.0
 32
0.0
 14
1.000000000000000E+20
 24
1.000000000000000E+20
 34
1.000000000000000E+20
 15
-1.000000000000000E+20
 25
-1.000000000000000E+20
 35
-1.000000000000000E+20
146
0.0
 13
0.0
 23
0.0
 33
0.0
 16
1.0
 26
0.0
 36
0.0
 17
0.0
 27
1.0
 37
0.0
 76
     0
330
1B
  0
LAYOUT
  5
26
102
{ACAD_REACTORS
330
1A
102
}
330
1A
100
AcDbPlotSettings
  1

  2
none_device
  4

  6

 40
0.0
 41
0.0
 42
0.0
 43
0.0
 44
0.0
 45
0.0
 46
0.0
 47
0.0
 48
0.0
 49
0.0
140
0.0
141
0.0
142
1.0
143
1.0
 70
   688
 72
     1
 73
     0
 74
     5
  7

 75
    16
147
1.0
148
0.0
149
0.0
100
AcDbLayout
  1
Layout2
 70
     1
 71
     2
 10
0.0
 20
0.0
 11
0.0
 21
0.0
 12
0.0
 22
0.0
 32
0.0
 14
0.0
 24
0.0
 34
0.0
 15
0.0
 25
0.0
 35
0.0
146
0.0
 13
0.0
 23
0.0
 33
0.0
 16
1.0
 26
0.0
 36
0.0
 17
0.0
 27
1.0
 37
0.0
 76
     0
330
23
  0
LAYOUT
  5
22
102
{ACAD_REACTORS
330
1A
102
}
330
1A
100
AcDbPlotSettings
  1

  2
none_device
  4
ANSI_A_(11.00_x_8.50_Inches)
  6

 40
6.35
 41
19.05
 42
6.35000508
 43
19.05000254
 44
279.4
 45
215.9
 46
102.8694767071461
 47
91.61488967518427
 48
0.0
 49
0.0
140
0.0
141
0.0
142
0.0768421082690618
143
1.0
 70
  1696
 72
     0
 73
     0
 74
     0
  7

 75
     0
147
0.0235690232323232
148
0.0
149
0.0
100
AcDbLayout
  1
Model
 70
     1
 71
     0
 10
0.0
 20
0.0
 11
420.0
 21
297.0
 12
0.0
 22
0.0
 32
0.0
 14
-48.82500000000011
 24
-50.28867796974447
 34
0.0
 15
86.47629082238856
 25
41.19907034213167
 35
0.0
146
0.0
 13
0.0
 23
0.0
 33
0.0
 16
1.0
 26
0.0
 36
0.0
 17
0.0
 27
1.0
 37
0.0
 76
     0
330
1F
331
29
  0
MLINESTYLE
  5
18
102
{ACAD_REACTORS
330
17
102
}
330
17
100
AcDbMlineStyle
  2
Standard
 70
     0
  3

 62
   256
 51
90.0
 52
90.0
 71
     2
 49
0.5
 62
   256
  6
BYLAYER
 49
-0.5
 62
   256
  6
BYLAYER
  0
ACDBPLACEHOLDER
  5
F
102
{ACAD_REACTORS
330
E
102
}
330
E
  0
SCALE
  5
48
102
{ACAD_REACTORS
330
47
102
}
330
47
100
AcDbScale
 70
     0
300
1:1
140
1.0
141
1.0
290
     1
  0
SCALE
  5
49
102
{ACAD_REACTORS
330
47
102
}
330
47
100
AcDbScale
 70
     0
300
1:2
140
1.0
141
2.0
290
     0
  0
SCALE
  5
4A
102
{ACAD_REACTORS
330
47
102
}
330
47
100
AcDbScale
 70
     0
300
1:4
140
1.0
141
4.0
290
     0
  0
SCALE
  5
4B
102
{ACAD_REACTORS
330
47
102
}
330
47
100
AcDbScale
 70
     0
300
1:5
140
1.0
141
5.0
290
     0
  0
SCALE
  5
4C
102
{ACAD_REACTORS
330
47
102
}
330
47
100
AcDbScale
 70
     0
300
1:8
140
1.0
141
8.0
290
     0
  0
SCALE
  5
4D
102
{ACAD_REACTORS
330
47
102
}
330
47
100
AcDbScale
 70
     0
300
1:10
140
1.0
141
10.0
290
     0
  0
SCALE
  5
4E
102
{ACAD_REACTORS
330
47
102
}
330
47
100
AcDbScale
 70
     0
300
1:16
140
1.0
141
16.0
290
     0
  0
SCALE
  5
4F
102
{ACAD_REACTORS
330
47
102
}
330
47
100
AcDbScale
 70
     0
300
1:20
140
1.0
141
20.0
290
     0
  0
SCALE
  5
50
102
{ACAD_REACTORS
330
47
102
}
330
47
100
AcDbScale
 70
     0
300
1:30
140
1.0
141
30.0
290
     0
  0
SCALE
  5
51
102
{ACAD_REACTORS
330
47
102
}
330
47
100
AcDbScale
 70
     0
300
1:40
140
1.0
141
40.0
290
     0
  0
SCALE
  5
52
102
{ACAD_REACTORS
330
47
102
}
330
47
100
AcDbScale
 70
     0
300
1:50
140
1.0
141
50.0
290
     0
  0
SCALE
  5
53
102
{ACAD_REACTORS
330
47
102
}
330
47
100
AcDbScale
 70
     0
300
1:100
140
1.0
141
100.0
290
     0
  0
SCALE
  5
54
102
{ACAD_REACTORS
330
47
102
}
330
47
100
AcDbScale
 70
     0
300
2:1
140
2.0
141
1.0
290
     0
  0
SCALE
  5
55
102
{ACAD_REACTORS
330
47
102
}
330
47
100
AcDbScale
 70
     0
300
4:1
140
4.0
141
1.0
290
     0
  0
SCALE
  5
56
102
{ACAD_REACTORS
330
47
102
}
330
47
100
AcDbScale
 70
     0
300
8:1
140
8.0
141
1.0
290
     0
  0
SCALE
  5
57
102
{ACAD_REACTORS
330
47
102
}
330
47
100
AcDbScale
 70
     0
300
10:1
140
10.0
141
1.0
290
     0
  0
SCALE
  5
58
102
{ACAD_REACTORS
330
47
102
}
330
47
100
AcDbScale
 70
     0
300
100:1
140
100.0
141
1.0
290
     0
  0
SCALE
  5
59
102
{ACAD_REACTORS
330
47
102
}
330
47
100
AcDbScale
 70
     0
300
1/128" = 1'-0"
140
0.0078125
141
12.0
290
     0
  0
SCALE
  5
5A
102
{ACAD_REACTORS
330
47
102
}
330
47
100
AcDbScale
 70
     0
300
1/64" = 1'-0"
140
0.015625
141
12.0
290
     0
  0
SCALE
  5
5B
102
{ACAD_REACTORS
330
47
102
}
330
47
100
AcDbScale
 70
     0
300
1/32" = 1'-0"
140
0.03125
141
12.0
290
     0
  0
SCALE
  5
5C
102
{ACAD_REACTORS
330
47
102
}
330
47
100
AcDbScale
 70
     0
300
1/16" = 1'-0"
140
0.0625
141
12.0
290
     0
  0
SCALE
  5
5D
102
{ACAD_REACTORS
330
47
102
}
330
47
100
AcDbScale
 70
     0
300
3/32" = 1'-0"
140
0.09375
141
12.0
290
     0
  0
SCALE
  5
5E
102
{ACAD_REACTORS
330
47
102
}
330
47
100
AcDbScale
 70
     0
300
1/8" = 1'-0"
140
0.125
141
12.0
290
     0
  0
SCALE
  5
5F
102
{ACAD_REACTORS
330
47
102
}
330
47
100
AcDbScale
 70
     0
300
3/16" = 1'-0"
140
0.1875
141
12.0
290
     0
  0
SCALE
  5
60
102
{ACAD_REACTORS
330
47
102
}
330
47
100
AcDbScale
 70
     0
300
1/4" = 1'-0"
140
0.25
141
12.0
290
     0
  0
SCALE
  5
61
102
{ACAD_REACTORS
330
47
102
}
330
47
100
AcDbScale
 70
     0
300
3/8" = 1'-0"
140
0.375
141
12.0
290
     0
  0
SCALE
  5
62
102
{ACAD_REACTORS
330
47
102
}
330
47
100
AcDbScale
 70
     0
300
1/2" = 1'-0"
140
0.5
141
12.0
290
     0
  0
SCALE
  5
63
102
{ACAD_REACTORS
330
47
102
}
330
47
100
AcDbScale
 70
     0
300
3/4" = 1'-0"
140
0.75
141
12.0
290
     0
  0
SCALE
  5
64
102
{ACAD_REACTORS
330
47
102
}
330
47
100
AcDbScale
 70
     0
300
1" = 1'-0"
140
1.0
141
12.0
290
     0
  0
SCALE
  5
65
102
{ACAD_REACTORS
330
47
102
}
330
47
100
AcDbScale
 70
     0
300
1-1/2" = 1'-0"
140
1.5
141
12.0
290
     0
  0
SCALE
  5
66
102
{ACAD_REACTORS
330
47
102
}
330
47
100
AcDbScale
 70
     0
300
3" = 1'-0"
140
3.0
141
12.0
290
     0
  0
SCALE
  5
67
102
{ACAD_REACTORS
330
47
102
}
330
47
100
AcDbScale
 70
     0
300
6" = 1'-0"
140
6.0
141
12.0
290
     0
  0
SCALE
  5
68
102
{ACAD_REACTORS
330
47
102
}
330
47
100
AcDbScale
 70
     0
300
1'-0" = 1'-0"
140
12.0
141
12.0
290
     0
  0
ENDSEC
  0
EOF
