  0
SECTION
  2
HEADER
  9
$ACADVER
  1
AC1015
  9
$ACADMAINTVER
 70
     6
  9
$DWGCODEPAGE
  3
ANSI_949
  9
$INSBASE
 10
0.0
 20
0.0
 30
0.0
  9
$EXTMIN
 10
-48.82500000000009
 20
-50.28867796974447
 30
0.0
  9
$EXTMAX
 10
86.47629082238856
 20
40.39198679301992
 30
0.0
  9
$LIMMIN
 10
0.0
 20
0.0
  9
$LIMMAX
 10
420.0
 20
297.0
  9
$ORTHOMODE
 70
     0
  9
$REGENMODE
 70
     1
  9
$FILLMODE
 70
     1
  9
$QTEXTMODE
 70
     0
  9
$MIRRTEXT
 70
     1
  9
$LTSCALE
 40
1.0
  9
$ATTMODE
 70
     1
  9
$TEXTSIZE
 40
3.5
  9
$TRACEWID
 40
1.0
  9
$TEXTSTYLE
  7
Standard
  9
$CLAYER
  8
0
  9
$CELTYPE
  6
ByLayer
  9
$CECOLOR
 62
   256
  9
$CELTSCALE
 40
1.0
  9
$DISPSILH
 70
     0
  9
$DIMSCALE
 40
1.0
  9
$DIMASZ
 40
3.302
  9
$DIMEXO
 40
1.0
  9
$DIMDLI
 40
3.75
  9
$DIMRND
 40
0.0
  9
$DIMDLE
 40
0.0
  9
$DIMEXE
 40
1.0
  9
$DIMTP
 40
0.0
  9
$DIMTM
 40
0.0
  9
$DIMTXT
 40
3.5
  9
$DIMCEN
 40
2.5
  9
$DIMTSZ
 40
0.0
  9
$DIMTOL
 70
     0
  9
$DIMLIM
 70
     0
  9
$DIMTIH
 70
     1
  9
$DIMTOH
 70
     1
  9
$DIMSE1
 70
     0
  9
$DIMSE2
 70
     0
  9
$DIMTAD
 70
     1
  9
$DIMZIN
 70
     0
  9
$DIMBLK
  1

  9
$DIMASO
 70
     1
  9
$DIMSHO
 70
     1
  9
$DIMPOST
  1

  9
$DIMAPOST
  1

  9
$DIMALT
 70
     0
  9
$DIMALTD
 70
     3
  9
$DIMALTF
 40
0.0393700787401575
  9
$DIMLFAC
 40
1.0
  9
$DIMTOFL
 70
     1
  9
$DIMTVP
 40
0.0
  9
$DIMTIX
 70
     0
  9
$DIMSOXD
 70
     0
  9
$DIMSAH
 70
     0
  9
$DIMBLK1
  1

  9
$DIMBLK2
  1

  9
$DIMSTYLE
  2
ISO-25
  9
$DIMCLRD
 70
     0
  9
$DIMCLRE
 70
     0
  9
$DIMCLRT
 70
     0
  9
$DIMTFAC
 40
1.0
  9
$DIMGAP
 40
1.524
  9
$DIMJUST
 70
     0
  9
$DIMSD1
 70
     0
  9
$DIMSD2
 70
     0
  9
$DIMTOLJ
 70
     0
  9
$DIMTZIN
 70
     0
  9
$DIMALTZ
 70
     0
  9
$DIMALTTZ
 70
     0
  9
$DIMUPT
 70
     0
  9
$DIMDEC
 70
     2
  9
$DIMTDEC
 70
     2
  9
$DIMALTU
 70
     2
  9
$DIMALTTD
 70
     3
  9
$DIMTXSTY
  7
Standard
  9
$DIMAUNIT
 70
     0
  9
$DIMADEC
 70
     2
  9
$DIMALTRND
 40
0.0
  9
$DIMAZIN
 70
     0
  9
$DIMDSEP
 70
    44
  9
$DIMATFIT
 70
     3
  9
$DIMFRAC
 70
     0
  9
$DIMLDRBLK
  1

  9
$DIMLUNIT
 70
     2
  9
$DIMLWD
 70
    -2
  9
$DIMLWE
 70
    -2
  9
$DIMTMOVE
 70
     0
  9
$LUNITS
 70
     2
  9
$LUPREC
 70
     2
  9
$SKETCHINC
 40
1.0
  9
$FILLETRAD
 40
10.0
  9
$AUNITS
 70
     0
  9
$AUPREC
 70
     2
  9
$MENU
  1
.
  9
$ELEVATION
 40
0.0
  9
$PELEVATION
 40
0.0
  9
$THICKNESS
 40
0.0
  9
$LIMCHECK
 70
     0
  9
$CHAMFERA
 40
0.0
  9
$CHAMFERB
 40
0.0
  9
$CHAMFERC
 40
0.0
  9
$CHAMFERD
 40
0.0
  9
$SKPOLY
 70
     0
  9
$TDCREATE
 40
2458299.344342523
  9
$TDUCREATE
 40
2458298.969342523
  9
$TDUPDATE
 40
2458302.581894849
  9
$TDUUPDATE
 40
2458302.206894849
  9
$TDINDWG
 40
0.0010762037
  9
$TDUSRTIMER
 40
2458302.205818958
  9
$USRTIMER
 70
     1
  9
$ANGBASE
 50
0.0
  9
$ANGDIR
 70
     0
  9
$PDMODE
 70
     0
  9
$PDSIZE
 40
-1.0
  9
$PLINEWID
 40
0.0
  9
$SPLFRAME
 70
     0
  9
$SPLINETYPE
 70
     6
  9
$SPLINESEGS
 70
     8
  9
$HANDSEED
  5
205
  9
$SURFTAB1
 70
     6
  9
$SURFTAB2
 70
     6
  9
$SURFTYPE
 70
     6
  9
$SURFU
 70
     6
  9
$SURFV
 70
     6
  9
$UCSBASE
  2

  9
$UCSNAME
  2

  9
$UCSORG
 10
0.0
 20
0.0
 30
0.0
  9
$UCSXDIR
 10
1.0
 20
0.0
 30
0.0
  9
$UCSYDIR
 10
0.0
 20
1.0
 30
0.0
  9
$UCSORTHOREF
  2

  9
$UCSORTHOVIEW
 70
     0
  9
$UCSORGTOP
 10
0.0
 20
0.0
 30
0.0
  9
$UCSORGBOTTOM
 10
0.0
 20
0.0
 30
0.0
  9
$UCSORGLEFT
 10
0.0
 20
0.0
 30
0.0
  9
$UCSORGRIGHT
 10
0.0
 20
0.0
 30
0.0
  9
$UCSORGFRONT
 10
0.0
 20
0.0
 30
0.0
  9
$UCSORGBACK
 10
0.0
 20
0.0
 30
0.0
  9
$PUCSBASE
  2

  9
$PUCSNAME
  2

  9
$PUCSORG
 10
0.0
 20
0.0
 30
0.0
  9
$PUCSXDIR
 10
1.0
 20
0.0
 30
0.0
  9
$PUCSYDIR
 10
0.0
 20
1.0
 30
0.0
  9
$PUCSORTHOREF
  2

  9
$PUCSORTHOVIEW
 70
     0
  9
$PUCSORGTOP
 10
0.0
 20
0.0
 30
0.0
  9
$PUCSORGBOTTOM
 10
0.0
 20
0.0
 30
0.0
  9
$PUCSORGLEFT
 10
0.0
 20
0.0
 30
0.0
  9
$PUCSORGRIGHT
 10
0.0
 20
0.0
 30
0.0
  9
$PUCSORGFRONT
 10
0.0
 20
0.0
 30
0.0
  9
$PUCSORGBACK
 10
0.0
 20
0.0
 30
0.0
  9
$USERI1
 70
     0
  9
$USERI2
 70
     0
  9
$USERI3
 70
     0
  9
$USERI4
 70
     0
  9
$USERI5
 70
     0
  9
$USERR1
 40
0.0
  9
$USERR2
 40
0.0
  9
$USERR3
 40
0.0
  9
$USERR4
 40
0.0
  9
$USERR5
 40
0.0
  9
$WORLDVIEW
 70
     1
  9
$SHADEDGE
 70
     3
  9
$SHADEDIF
 70
    70
  9
$TILEMODE
 70
     1
  9
$MAXACTVP
 70
    64
  9
$PINSBASE
 10
0.0
 20
0.0
 30
0.0
  9
$PLIMCHECK
 70
     0
  9
$PEXTMIN
 10
1.000000000000000E+20
 20
1.000000000000000E+20
 30
1.000000000000000E+20
  9
$PEXTMAX
 10
-1.000000000000000E+20
 20
-1.000000000000000E+20
 30
-1.000000000000000E+20
  9
$PLIMMIN
 10
0.0
 20
0.0
  9
$PLIMMAX
 10
0.0
 20
0.0
  9
$UNITMODE
 70
     0
  9
$VISRETAIN
 70
     1
  9
$PLINEGEN
 70
     0
  9
$PSLTSCALE
 70
     1
  9
$TREEDEPTH
 70
  3020
  9
$CMLSTYLE
  2
Standard
  9
$CMLJUST
 70
     0
  9
$CMLSCALE
 40
20.0
  9
$PROXYGRAPHICS
 70
     1
  9
$MEASUREMENT
 70
     1
  9
$CELWEIGHT
370
    -1
  9
$ENDCAPS
280
     0
  9
$JOINSTYLE
280
     0
  9
$LWDISPLAY
290
     1
  9
$INSUNITS
 70
     4
  9
$HYPERLINKBASE
  1

  9
$STYLESHEET
  1

  9
$XEDIT
290
     1
  9
$CEPSNTYPE
380
     0
  9
$PSTYLEMODE
290
     1
  9
$FINGERPRINTGUID
  2
{BF1C795F-BA84-4158-A4BD-7D107A56B67A}
  9
$VERSIONGUID
  2
{FAEB1C32-E019-11D5-929B-00C0DF256EC4}
  9
$EXTNAMES
290
     1
  9
$PSVPSCALE
 40
0.0
  9
$OLESTARTUP
290
     0
  0
ENDSEC
  0
SECTION
  2
CLASSES
  0
CLASS
  1
ACDBDICTIONARYWDFLT
  2
AcDbDictionaryWithDefault
  3
ObjectDBX Classes
 90
        0
280
     0
281
     0
  0
CLASS
  1
VISUALSTYLE
  2
AcDbVisualStyle
  3
ObjectDBX Classes
 90
     4095
280
     0
281
     0
  0
CLASS
  1
MATERIAL
  2
AcDbMaterial
  3
ObjectDBX Classes
 90
     1153
280
     0
281
     0
  0
CLASS
  1
SCALE
  2
AcDbScale
  3
ObjectDBX Classes
 90
     1153
280
     0
281
     0
  0
CLASS
  1
SUN
  2
AcDbSun
  3
SCENEOE
 90
     1153
280
     0
281
     0
  0
CLASS
  1
ACDBPLACEHOLDER
  2
AcDbPlaceHolder
  3
ObjectDBX Classes
 90
        0
280
     0
281
     0
  0
CLASS
  1
LAYOUT
  2
AcDbLayout
  3
ObjectDBX Classes
 90
        0
280
     0
281
     0
  0
CLASS
  1
TABLESTYLE
  2
AcDbTableStyle
  3
ObjectDBX Classes
 90
     4095
280
     0
281
     0
  0
CLASS
  1
MLEADERSTYLE
  2
AcDbMLeaderStyle
  3
ACDB_MLEADERSTYLE_CLASS
 90
     4095
280
     0
281
     0
  0
CLASS
  1
RASTERVARIABLES
  2
AcDbRasterVariables
  3
ISM
 90
        0
280
     0
281
     0
  0
ENDSEC
  0
SECTION
  2
TABLES
  0
TABLE
  2
VPORT
  5
8
330
0
100
AcDbSymbolTable
 70
     1
  0
VPORT
  5
29
330
8
100
AcDbSymbolTableRecord
100
AcDbViewportTableRecord
  2
*Active
 70
     0
 10
0.0
 20
0.0
 11
1.0
 21
1.0
 12
45.7829614606715
 22
2.4302397934824
 13
0.0
 23
0.0
 14
10.0
 24
10.0
 15
10.0
 25
10.0
 16
0.0
 26
0.0
 36
1.0
 17
0.0
 27
0.0
 37
0.0
 40
126.4993967604791
 41
1.595744680851064
 42
50.0
 43
0.0
 44
0.0
 50
0.0
 51
0.0
 71
    16
 72
  2000
 73
     1
 74
     3
 75
     0
 76
     0
 77
     0
 78
     0
281
     0
 65
     1
110
0.0
120
0.0
130
0.0
111
1.0
121
0.0
131
0.0
112
0.0
122
1.0
132
0.0
 79
     0
146
0.0
  0
ENDTAB
  0
TABLE
  2
LTYPE
  5
5
330
0
100
AcDbSymbolTable
 70
     6
  0
LTYPE
  5
14
330
5
100
AcDbSymbolTableRecord
100
AcDbLinetypeTableRecord
  2
ByBlock
 70
     0
  3

 72
    65
 73
     0
 40
0.0
  0
LTYPE
  5
15
330
5
100
AcDbSymbolTableRecord
100
AcDbLinetypeTableRecord
  2
ByLayer
 70
     0
  3

 72
    65
 73
     0
 40
0.0
  0
LTYPE
  5
16
330
5
100
AcDbSymbolTableRecord
100
AcDbLinetypeTableRecord
  2
Continuous
 70
     0
  3
Solid line
 72
    65
 73
     0
 40
0.0
  0
LTYPE
  5
6A
330
5
100
AcDbSymbolTableRecord
100
AcDbLinetypeTableRecord
  2
HIDDEN
 70
     0
  3
Hidden __ __ __ __ __ __ __ __ __ __ __ __ __ __
 72
    65
 73
     2
 40
1.905
 49
1.27
 74
     0
 49
-0.635
 74
     0
  0
LTYPE
  5
6B
330
5
100
AcDbSymbolTableRecord
100
AcDbLinetypeTableRecord
  2
PHANTOM
 70
     0
  3
Phantom ______  __  __  ______  __  __  ______
 72
    65
 73
     6
 40
12.7
 49
6.35
 74
     0
 49
-1.27
 74
     0
 49
1.27
 74
     0
 49
-1.27
 74
     0
 49
1.27
 74
     0
 49
-1.27
 74
     0
  0
LTYPE
  5
6C
330
5
100
AcDbSymbolTableRecord
100
AcDbLinetypeTableRecord
  2
CENTER
 70
     0
  3
Center ____ _ ____ _ ____ _ ____ _ ____ _ ____
 72
    65
 73
     4
 40
10.16
 49
6.35
 74
     0
 49
-1.27
 74
     0
 49
1.27
 74
     0
 49
-1.27
 74
     0
  0
LTYPE
  5
6D
330
5
100
AcDbSymbolTableRecord
100
AcDbLinetypeTableRecord
  2
CENTERX2
 70
     0
  3
Center (2x) ________  __  ________  __  _____
 72
    65
 73
     4
 40
20.32
 49
12.7
 74
     0
 49
-2.54
 74
     0
 49
2.54
 74
     0
 49
-2.54
 74
     0
  0
LTYPE
  5
6E
330
5
100
AcDbSymbolTableRecord
100
AcDbLinetypeTableRecord
  2
DOT2
 70
     0
  3
Dot (.5x) ........................................
 72
    65
 73
     2
 40
0.635
 49
0.0
 74
     0
 49
-0.635
 74
     0
  0
ENDTAB
  0
TABLE
  2
LAYER
  5
2
330
0
100
AcDbSymbolTable
 70
    18
  0
LAYER
  5
10
330
2
100
AcDbSymbolTableRecord
100
AcDbLayerTableRecord
  2
0
 70
     0
 62
     7
  6
Continuous
370
    -3
390
F
  0
LAYER
  5
6F
330
2
100
AcDbSymbolTableRecord
100
AcDbLayerTableRecord
  2
FORMAT
 70
     0
 62
     2
  6
Continuous
370
    -3
390
F
  0
LAYER
  5
70
330
2
100
AcDbSymbolTableRecord
100
AcDbLayerTableRecord
  2
외형선
 70
     0
 62
     4
  6
Continuous
370
    30
390
F
  0
LAYER
  5
71
330
2
100
AcDbSymbolTableRecord
100
AcDbLayerTableRecord
  2
숨은선
 70
     0
 62
     2
  6
HIDDEN
370
    15
390
F
  0
LAYER
  5
72
330
2
100
AcDbSymbolTableRecord
100
AcDbLayerTableRecord
  2
중심선
 70
     0
 62
     1
  6
CENTERX2
370
    -3
390
F
  0
LAYER
  5
73
330
2
100
AcDbSymbolTableRecord
100
AcDbLayerTableRecord
  2
파단선
 70
     0
 62
     4
  6
Continuous
370
    -3
390
F
  0
LAYER
  5
74
330
2
100
AcDbSymbolTableRecord
100
AcDbLayerTableRecord
  2
해칭선
 70
     0
 62
   100
  6
Continuous
370
    -3
390
F
  0
LAYER
  5
75
330
2
100
AcDbSymbolTableRecord
100
AcDbLayerTableRecord
  2
가는실선
 70
     0
 62
     4
  6
Continuous
370
    -3
390
F
  0
LAYER
  5
76
330
2
100
AcDbSymbolTableRecord
100
AcDbLayerTableRecord
  2
치수_보조선
 70
     0
 62
     4
  6
Continuous
370
    -3
390
F
  0
LAYER
  5
77
330
2
100
AcDbSymbolTableRecord
100
AcDbLayerTableRecord
  2
치수문자_일반주서
 70
     0
 62
     7
  6
Continuous
370
    15
390
F
  0
LAYER
  5
78
330
2
100
AcDbSymbolTableRecord
100
AcDbLayerTableRecord
  2
개별주서
 70
     0
 62
   100
  6
Continuous
370
    30
390
F
  0
LAYER
  5
79
330
2
100
AcDbSymbolTableRecord
100
AcDbLayerTableRecord
  2
중간선
 70
     0
 62
     2
  6
Continuous
370
    15
390
F
  0
LAYER
  5
7A
330
2
100
AcDbSymbolTableRecord
100
AcDbLayerTableRecord
  2
윤곽선
 70
     0
 62
     3
  6
Continuous
370
    40
390
F
  0
LAYER
  5
7B
330
2
100
AcDbSymbolTableRecord
100
AcDbLayerTableRecord
  2
중심마크
 70
     0
 62
   100
  6
Continuous
370
    30
390
F
  0
LAYER
  5
7C
330
2
100
AcDbSymbolTableRecord
100
AcDbLayerTableRecord
  2
가상선
 70
     0
 62
     4
  6
PHANTOM
370
    -3
390
F
  0
LAYER
  5
7D
330
2
100
AcDbSymbolTableRecord
100
AcDbLayerTableRecord
  2
특수지정선
 70
     0
 62
     5
  6
CENTERX2
370
    60
390
F
  0
LAYER
  5
7E
330
2
100
AcDbSymbolTableRecord
100
AcDbLayerTableRecord
  2
참조1
 70
     0
 62
    -4
  6
Continuous
370
    -3
390
F
  0
LAYER
  5
200
330
2
100
AcDbSymbolTableRecord
100
AcDbLayerTableRecord
  2
Defpoints
 70
     0
 62
     7
  6
Continuous
290
     0
370
    -3
390
F
  0
ENDTAB
  0
TABLE
  2
STYLE
  5
3
330
0
100
AcDbSymbolTable
 70
     2
  0
STYLE
  5
11
330
3
100
AcDbSymbolTableRecord
100
AcDbTextStyleTableRecord
  2
Standard
 70
     0
 40
0.0
 41
1.0
 50
0.0
 71
     0
 42
3.5
  3
txt
  4

  0
STYLE
  5
94
330
3
100
AcDbSymbolTableRecord
100
AcDbTextStyleTableRecord
  2
SLDTEXTSTYLE0
 70
     0
 40
0.0
 41
0.75
 50
0.0
 71
     0
 42
3.5
  3
TXT
  4

  0
ENDTAB
  0
TABLE
  2
VIEW
  5
6
330
0
100
AcDbSymbolTable
 70
     0
  0
ENDTAB
  0
TABLE
  2
UCS
  5
7
330
0
100
AcDbSymbolTable
 70
     0
  0
ENDTAB
  0
TABLE
  2
APPID
  5
9
330
0
100
AcDbSymbolTable
 70
     1
  0
APPID
  5
12
330
9
100
AcDbSymbolTableRecord
100
AcDbRegAppTableRecord
  2
ACAD
 70
     0
  0
ENDTAB
  0
TABLE
  2
DIMSTYLE
  5
A
330
0
100
AcDbSymbolTable
 70
     4
100
AcDbDimStyleTable
  0
DIMSTYLE
105
27
330
A
100
AcDbSymbolTableRecord
100
AcDbDimStyleTableRecord
  2
ISO-25
 70
     0
 41
2.5
 42
0.625
 43
3.75
 44
1.25
 73
     0
 74
     0
 77
     1
 78
     8
140
2.5
141
2.5
143
0.03937007874016
147
0.625
171
     3
172
     1
178
     0
271
     2
272
     2
274
     3
278
    44
283
     0
284
     8
340
11
  0
DIMSTYLE
105
17E
102
{ACAD_REACTORS
330
17D
330
191
102
}
330
A
100
AcDbSymbolTableRecord
100
AcDbDimStyleTableRecord
  2
SLDDIMSTYLE0
 70
     0
 41
3.302
 44
0.0
 45
0.000000001
 73
     0
 74
     0
 77
     1
 78
    12
 79
     3
140
3.5
143
0.0393700787401575
147
0.875
148
0.000000001
170
     1
172
     1
173
     1
178
     0
271
     2
272
     2
276
     2
284
    12
289
     0
340
94
  0
DIMSTYLE
105
1A6
102
{ACAD_REACTORS
330
1A5
102
}
330
A
100
AcDbSymbolTableRecord
100
AcDbDimStyleTableRecord
  2
SLDDIMSTYLE1
 70
     0
 41
3.302
 44
0.0
 45
0.000000001
 73
     0
 74
     0
 77
     1
 78
    12
 79
     3
140
3.5
143
0.0393700787401575
147
0.875
148
0.000000001
170
     1
173
     1
178
     0
271
     2
272
     2
276
     2
284
    12
340
94
  0
DIMSTYLE
105
1BB
102
{ACAD_REACTORS
330
1BA
102
}
330
A
100
AcDbSymbolTableRecord
100
AcDbDimStyleTableRecord
  2
SLDDIMSTYLE2
 70
     0
 41
3.302
 44
0.0
 45
0.000000001
 73
     0
 74
     0
 77
     1
 78
     4
 79
     1
140
3.5
143
0.0393700787401575
147
0.875
148
0.000000001
170
     1
173
     1
178
     0
271
     2
272
     2
276
     2
284
    12
340
94
  0
ENDTAB
  0
TABLE
  2
BLOCK_RECORD
  5
1
330
0
100
AcDbSymbolTable
 70
     7
  0
BLOCK_RECORD
  5
1F
330
1
100
AcDbSymbolTableRecord
100
AcDbBlockTableRecord
  2
*Model_Space
340
22
  0
BLOCK_RECORD
  5
1B
330
1
100
AcDbSymbolTableRecord
100
AcDbBlockTableRecord
  2
*Paper_Space
340
1E
  0
BLOCK_RECORD
  5
23
330
1
100
AcDbSymbolTableRecord
100
AcDbBlockTableRecord
  2
*Paper_Space0
340
26
  0
BLOCK_RECORD
  5
7F
330
1
100
AcDbSymbolTableRecord
100
AcDbBlockTableRecord
  2
블럭10
340
0
102
{BLKREFS
331
175
102
}
  0
BLOCK_RECORD
  5
17F
330
1
100
AcDbSymbolTableRecord
100
AcDbBlockTableRecord
  2
_D
340
0
  0
BLOCK_RECORD
  5
192
330
1
100
AcDbSymbolTableRecord
100
AcDbBlockTableRecord
  2
_D_1
340
0
  0
BLOCK_RECORD
  5
1A7
330
1
100
AcDbSymbolTableRecord
100
AcDbBlockTableRecord
  2
_D_2
340
0
  0
BLOCK_RECORD
  5
1BC
330
1
100
AcDbSymbolTableRecord
100
AcDbBlockTableRecord
  2
_D_3
340
0
  0
BLOCK_RECORD
  5
1D5
330
1
100
AcDbSymbolTableRecord
100
AcDbBlockTableRecord
  2
SW_DOWELSYMBOL_0
340
0
102
{BLKREFS
331
1DB
102
}
  0
ENDTAB
  0
ENDSEC
  0
SECTION
  2
BLOCKS
  0
BLOCK
  5
20
330
1F
100
AcDbEntity
  8
0
100
AcDbBlockBegin
  2
*Model_Space
 70
     0
 10
0.0
 20
0.0
 30
0.0
  3
*Model_Space
  1
*Model_Space
  0
ENDBLK
  5
21
330
1F
100
AcDbEntity
  8
0
100
AcDbBlockEnd
  0
BLOCK
  5
1C
330
1B
100
AcDbEntity
 67
     1
  8
0
100
AcDbBlockBegin
  2
*Paper_Space
 70
     0
 10
0.0
 20
0.0
 30
0.0
  3
*Paper_Space
  1
*Paper_Space
  0
ENDBLK
  5
1D
330
1B
100
AcDbEntity
 67
     1
  8
0
100
AcDbBlockEnd
  0
BLOCK
  5
24
330
23
100
AcDbEntity
  8
0
100
AcDbBlockBegin
  2
*Paper_Space0
 70
     0
 10
0.0
 20
0.0
 30
0.0
  3
*Paper_Space0
  1
*Paper_Space0
  0
ENDBLK
  5
25
330
23
100
AcDbEntity
  8
0
100
AcDbBlockEnd
  0
BLOCK
  5
80
330
7F
100
AcDbEntity
  8
0
100
AcDbBlockBegin
  2
블럭10
 70
     2
 10
0.0
 20
0.0
 30
0.0
  3
블럭10
  1
블럭10
  0
ELLIPSE
  5
82
330
7F
100
AcDbEntity
  8
중심선
100
AcDbEllipse
 10
20.54032771741204
 20
12.0471743016438
 30
0.0
 11
6.600054785286829
 21
-1.261213355974178E-13
 31
0.0
210
0.0
220
0.0
230
1.0
 40
0.636358354079598
 41
0.9219305317359503
 42
6.513795318482858
  0
ELLIPSE
  5
83
330
7F
100
AcDbEntity
  8
중심선
100
AcDbEllipse
 10
20.54032771746488
 20
12.04717430159265
 30
0.0
 11
3.960054785062283
 21
1.540847449632565E-10
 31
0.0
210
0.0
220
0.0
230
1.0
 40
0.3939339440162632
 41
1.131841032648279
 42
5.62031148352944
  0
LINE
  5
84
330
7F
100
AcDbEntity
  8
중심선
100
AcDbLine
 10
2.268634060543552
 20
16.24717430164393
 30
0.0
 11
5.714909304380834
 21
16.24717430164393
 31
0.0
  0
LINE
  5
85
330
7F
100
AcDbEntity
  8
중심선
100
AcDbLine
 10
5.245725140726316
 20
7.84717430164391
 30
0.0
 11
8.692000384563599
 21
7.84717430164391
 31
0.0
  0
LINE
  5
86
330
7F
100
AcDbEntity
  8
중심선
100
AcDbLine
 10
15.74043728645272
 20
16.24717430164393
 30
0.0
 11
8.692000384563599
 21
7.84717430164391
 31
0.0
  0
LINE
  5
87
330
7F
100
AcDbEntity
  8
중심선
100
AcDbLine
 10
0.1404042013395286
 20
13.71084872107135
 30
0.0
 11
3.58671253028996
 21
13.71088815037384
 31
0.0
  0
LINE
  5
88
330
7F
100
AcDbEntity
  8
중심선
100
AcDbLine
 10
2.750260043222114
 20
10.84717430164391
 30
0.0
 11
6.196535287059397
 21
10.84717430164391
 31
0.0
  0
LINE
  5
89
330
7F
100
AcDbEntity
  8
중심선
100
AcDbLine
 10
12.29416204261559
 20
16.24717430164393
 30
0.0
 11
5.245725140726316
 21
7.84717430164391
 31
0.0
  0
LINE
  5
8A
330
7F
100
AcDbEntity
  8
중심선
100
AcDbLine
 10
10.72767329541681
 20
16.24717430164393
 30
0.0
 11
6.196535287059397
 21
10.84717430164391
 31
0.0
  0
LINE
  5
8B
330
7F
100
AcDbEntity
  8
중심선
100
AcDbLine
 10
7.28139805157953
 20
16.24717430164393
 30
0.0
 11
2.750260043222114
 21
10.84717430164391
 31
0.0
  0
LINE
  5
8C
330
7F
100
AcDbEntity
  8
중심선
100
AcDbLine
 10
5.714909304380834
 20
16.24717430164393
 30
0.0
 11
3.58671253028996
 21
13.71088815037384
 31
0.0
  0
LINE
  5
8D
330
7F
100
AcDbEntity
  8
중심선
100
AcDbLine
 10
2.268634060543552
 20
16.24717430164393
 30
0.0
 11
0.1404042013395286
 21
13.71084872107135
 31
0.0
  0
LINE
  5
8E
330
7F
100
AcDbEntity
  8
중심선
100
AcDbLine
 10
7.28139805157953
 20
16.24717430164393
 30
0.0
 11
10.72767329541681
 21
16.24717430164393
 31
0.0
  0
LINE
  5
8F
330
7F
100
AcDbEntity
  8
중심선
100
AcDbLine
 10
12.29416204261559
 20
16.24717430164393
 30
0.0
 11
15.74043728645272
 21
16.24717430164393
 31
0.0
  0
LINE
  5
90
330
7F
100
AcDbEntity
  8
중심선
100
AcDbLine
 10
19.22036997980202
 20
11.08717430171403
 30
0.0
 11
23.66174974927406
 21
11.08717430171406
 31
0.0
  0
LINE
  5
91
330
7F
100
AcDbEntity
  8
중심선
100
AcDbLine
 10
19.22039502424796
 20
13.00717430171391
 30
0.0
 11
19.22036997980202
 21
11.08717430171403
 31
0.0
  0
LINE
  5
92
330
7F
100
AcDbEntity
  8
중심선
100
AcDbLine
 10
19.22039502424796
 20
13.00717430171391
 30
0.0
 11
26.96566020931264
 21
13.00717430171391
 31
0.0
  0
LINE
  5
93
330
7F
100
AcDbEntity
  8
중심선
100
AcDbLine
 10
22.22332737316547
 20
13.45928029700563
 30
0.0
 11
24.52862924686651
 21
15.39360700705356
 31
0.0
  0
ATTDEF
  5
95
330
7F
100
AcDbEntity
  8
FORMAT
 62
     2
100
AcDbText
 10
-9.522313950597932
 20
2.075366912832191
 30
0.0
 40
4.233333333333333
  1
EH095016 [ 3 FLUTE ]
 41
0.75
  7
SLDTEXTSTYLE0
 11
-9.522313950597932
 21
-0.0412997538344756
 31
0.0
100
AcDbAttributeDefinition
  3

  2
AUTOATTR0
 70
     0
 74
     1
  0
ENDBLK
  5
81
330
7F
100
AcDbEntity
  8
0
100
AcDbBlockEnd
  0
BLOCK
  5
180
330
17F
100
AcDbEntity
  8
0
100
AcDbBlockBegin
  2
_D
 70
     0
 10
0.0
 20
0.0
 30
0.0
  3
_D
  1
_D
  0
LINE
  5
182
330
17F
100
AcDbEntity
  8
치수문자_일반주서
 62
     0
370
    -2
100
AcDbLine
 10
9.300478005451804
 20
3.175000000000024
 30
0.0
 11
45.55798805119863
 21
3.175000000000161
 31
0.0
  0
LINE
  5
183
330
17F
100
AcDbEntity
  8
치수문자_일반주서
 62
     0
370
    -2
100
AcDbLine
 10
24.11289761712536
 20
-3.174999999999998
 30
0.0
 11
45.55798805119866
 21
-3.174999999999915
 31
0.0
  0
LINE
  5
184
330
17F
100
AcDbEntity
  8
치수문자_일반주서
 62
     0
370
    -2
100
AcDbLine
 10
45.55798805119863
 20
3.175000000000161
 30
0.0
 11
45.55798805119853
 21
35.81025000000015
 31
0.0
  0
LINE
  5
185
330
17F
100
AcDbEntity
  8
치수문자_일반주서
 62
     0
370
    -2
100
AcDbLine
 10
45.55798805119863
 20
3.175000000000161
 30
0.0
 11
45.55798805119866
 21
-3.174999999999915
 31
0.0
  0
LINE
  5
186
330
17F
100
AcDbEntity
  8
치수문자_일반주서
 62
     0
370
    -2
100
AcDbLine
 10
45.55798805119862
 20
6.47700000000016
 30
0.0
 11
45.55798805119861
 21
9.77900000000016
 31
0.0
  0
LINE
  5
187
330
17F
100
AcDbEntity
  8
치수문자_일반주서
 62
     0
370
    -2
100
AcDbLine
 10
45.55798805119867
 20
-6.476999999999915
 30
0.0
 11
45.55798805119868
 21
-9.778999999999915
 31
0.0
  0
SOLID
  5
188
330
17F
100
AcDbEntity
  8
치수문자_일반주서
 62
     0
100
AcDbTrace
 10
45.00765471786529
 20
6.477000000000158
 30
0.0
 11
46.10832138453195
 21
6.477000000000162
 31
0.0
 12
45.55798805119863
 22
3.175000000000161
 32
0.0
 13
45.55798805119863
 23
3.175000000000161
 33
0.0
  0
SOLID
  5
189
330
17F
100
AcDbEntity
  8
치수문자_일반주서
 62
     0
100
AcDbTrace
 10
46.108321384532
 20
-6.476999999999913
 30
0.0
 11
45.00765471786534
 21
-6.476999999999917
 31
0.0
 12
45.55798805119866
 22
-3.174999999999915
 32
0.0
 13
45.55798805119866
 23
-3.174999999999915
 33
0.0
  0
MTEXT
  5
18A
330
17F
100
AcDbEntity
  8
치수문자_일반주서
 62
     0
100
AcDbMText
 10
41.18298805119857
 20
23.12275000000014
 30
0.0
 40
3.5
 41
0.0
 71
     2
 72
     1
  1
\A1;%%c6.35 [1/4]
  7
SLDTEXTSTYLE0
 11
-3.356894814614605E-15
 21
1.0
 31
0.0
 73
     1
 44
1.0
  0
POINT
  5
18B
330
17F
100
AcDbEntity
  8
Defpoints
 62
     0
100
AcDbPoint
 10
9.237978005451804
 20
3.175000000000024
 30
0.0
  0
POINT
  5
18C
330
17F
100
AcDbEntity
  8
Defpoints
 62
     0
100
AcDbPoint
 10
24.05039761712536
 20
-3.174999999999999
 30
0.0
  0
POINT
  5
18D
330
17F
100
AcDbEntity
  8
Defpoints
 62
     0
100
AcDbPoint
 10
45.55798805119866
 20
-3.174999999999919
 30
0.0
  0
ENDBLK
  5
181
330
17F
100
AcDbEntity
  8
0
100
AcDbBlockEnd
  0
BLOCK
  5
193
330
192
100
AcDbEntity
  8
0
100
AcDbBlockBegin
  2
_D_1
 70
     0
 10
0.0
 20
0.0
 30
0.0
  3
_D_1
  1
_D_1
  0
LINE
  5
195
330
192
100
AcDbEntity
  8
치수문자_일반주서
 62
     0
370
    -2
100
AcDbLine
 10
-33.70250000000002
 20
3.174999999999983
 30
0.0
 11
-44.45000000000007
 21
3.174999999999944
 31
0.0
  0
LINE
  5
196
330
192
100
AcDbEntity
  8
치수문자_일반주서
 62
     0
370
    -2
100
AcDbLine
 10
-33.70250000000002
 20
-3.175000000000011
 30
0.0
 11
-44.45000000000005
 21
-3.17500000000005
 31
0.0
  0
LINE
  5
197
330
192
100
AcDbEntity
  8
치수문자_일반주서
 62
     0
370
    -2
100
AcDbLine
 10
-44.45000000000005
 20
-0.1270000000000553
 30
0.0
 11
-44.45000000000006
 21
0.1269999999999496
 31
0.0
  0
SOLID
  5
198
330
192
100
AcDbEntity
  8
치수문자_일반주서
 62
     0
100
AcDbTrace
 10
-43.89966666666672
 20
-0.1270000000000534
 30
0.0
 11
-45.00033333333339
 21
-0.1270000000000572
 31
0.0
 12
-44.45000000000007
 22
3.174999999999944
 32
0.0
 13
-44.45000000000007
 23
3.174999999999944
 33
0.0
  0
SOLID
  5
199
330
192
100
AcDbEntity
  8
치수문자_일반주서
 62
     0
100
AcDbTrace
 10
-45.00033333333339
 20
0.1269999999999477
 30
0.0
 11
-43.89966666666673
 21
0.1269999999999515
 31
0.0
 12
-44.45000000000005
 22
-3.17500000000005
 32
0.0
 13
-44.45000000000005
 23
-3.17500000000005
 33
0.0
  0
MTEXT
  5
19A
330
192
100
AcDbEntity
  8
치수문자_일반주서
 62
     0
100
AcDbMText
 10
-48.82500000000005
 20
-0.508672173810339
 30
0.0
 40
3.5
 41
0.0
 71
     2
 72
     1
  1
\A1;%%c6.35 [1/4]
  7
SLDTEXTSTYLE0
 11
-3.356894814614649E-15
 21
1.0
 31
0.0
 73
     1
 44
1.0
  0
POINT
  5
19B
330
192
100
AcDbEntity
  8
Defpoints
 62
     0
100
AcDbPoint
 10
-33.64000000000002
 20
3.174999999999984
 30
0.0
  0
POINT
  5
19C
330
192
100
AcDbEntity
  8
Defpoints
 62
     0
100
AcDbPoint
 10
-33.64000000000002
 20
-3.17500000000001
 30
0.0
  0
POINT
  5
19D
330
192
100
AcDbEntity
  8
Defpoints
 62
     0
100
AcDbPoint
 10
-44.45000000000005
 20
-3.175000000000051
 30
0.0
  0
ENDBLK
  5
194
330
192
100
AcDbEntity
  8
0
100
AcDbBlockEnd
  0
BLOCK
  5
1A8
330
1A7
100
AcDbEntity
  8
0
100
AcDbBlockBegin
  2
_D_2
 70
     0
 10
0.0
 20
0.0
 30
0.0
  3
_D_2
  1
_D_2
  0
LINE
  5
1AA
330
1A7
100
AcDbEntity
  8
치수문자_일반주서
 62
     0
370
    -2
100
AcDbLine
 10
29.04999999999999
 20
2.082106629395923
 30
0.0
 11
29.04999999999999
 21
20.53631205129167
 31
0.0
  0
LINE
  5
1AB
330
1A7
100
AcDbEntity
  8
치수문자_일반주서
 62
     0
370
    -2
100
AcDbLine
 10
9.99999999999999
 20
3.207191917191277
 30
0.0
 11
9.99999999999999
 21
20.53631205129167
 31
0.0
  0
LINE
  5
1AC
330
1A7
100
AcDbEntity
  8
치수문자_일반주서
 62
     0
370
    -2
100
AcDbLine
 10
9.99999999999999
 20
20.53631205129167
 30
0.0
 11
-18.45825000000001
 21
20.53631205129167
 31
0.0
  0
LINE
  5
1AD
330
1A7
100
AcDbEntity
  8
치수문자_일반주서
 62
     0
370
    -2
100
AcDbLine
 10
25.74799999999999
 20
20.53631205129167
 30
0.0
 11
13.30199999999999
 21
20.53631205129167
 31
0.0
  0
SOLID
  5
1AE
330
1A7
100
AcDbEntity
  8
치수문자_일반주서
 62
     0
100
AcDbTrace
 10
25.74799999999999
 20
19.98597871795834
 30
0.0
 11
25.74799999999999
 21
21.08664538462501
 31
0.0
 12
29.04999999999999
 22
20.53631205129167
 32
0.0
 13
29.04999999999999
 23
20.53631205129167
 33
0.0
  0
SOLID
  5
1AF
330
1A7
100
AcDbEntity
  8
치수문자_일반주서
 62
     0
100
AcDbTrace
 10
13.30199999999999
 20
21.08664538462501
 30
0.0
 11
13.30199999999999
 21
19.98597871795834
 31
0.0
 12
9.99999999999999
 22
20.53631205129167
 32
0.0
 13
9.99999999999999
 23
20.53631205129167
 33
0.0
  0
MTEXT
  5
1B0
330
1A7
100
AcDbEntity
  8
치수문자_일반주서
 62
     0
100
AcDbMText
 10
-5.989500000000008
 20
24.91131205129167
 30
0.0
 40
3.5
 41
0.0
 71
     2
 72
     1
  1
\A1;19.05 [3/4]
  7
SLDTEXTSTYLE0
 73
     1
 44
1.0
  0
POINT
  5
1B1
330
1A7
100
AcDbEntity
  8
Defpoints
 62
     0
100
AcDbPoint
 10
29.04999999999999
 20
2.019606629395923
 30
0.0
  0
POINT
  5
1B2
330
1A7
100
AcDbEntity
  8
Defpoints
 62
     0
100
AcDbPoint
 10
9.99999999999999
 20
3.144691917191277
 30
0.0
  0
POINT
  5
1B3
330
1A7
100
AcDbEntity
  8
Defpoints
 62
     0
100
AcDbPoint
 10
9.99999999999999
 20
20.53631205129167
 30
0.0
  0
ENDBLK
  5
1A9
330
1A7
100
AcDbEntity
  8
0
100
AcDbBlockEnd
  0
BLOCK
  5
1BD
330
1BC
100
AcDbEntity
  8
0
100
AcDbBlockBegin
  2
_D_3
 70
     0
 10
0.0
 20
0.0
 30
0.0
  3
_D_3
  1
_D_3
  0
LINE
  5
1BF
330
1BC
100
AcDbEntity
  8
치수문자_일반주서
 62
     0
370
    -2
100
AcDbLine
 10
29.04999999999999
 20
2.082106629395923
 30
0.0
 11
29.04999999999999
 21
36.01698679301992
 31
0.0
  0
LINE
  5
1C0
330
1BC
100
AcDbEntity
  8
치수문자_일반주서
 62
     0
370
    -2
100
AcDbLine
 10
-34.45000000000002
 20
2.427499999999996
 30
0.0
 11
-34.45000000000002
 21
36.01698679301992
 31
0.0
  0
LINE
  5
1C1
330
1BC
100
AcDbEntity
  8
치수문자_일반주서
 62
     0
370
    -2
100
AcDbLine
 10
25.74799999999999
 20
36.01698679301992
 30
0.0
 11
-31.14800000000002
 21
36.01698679301992
 31
0.0
  0
SOLID
  5
1C2
330
1BC
100
AcDbEntity
  8
치수문자_일반주서
 62
     0
100
AcDbTrace
 10
25.74799999999999
 20
35.46665345968658
 30
0.0
 11
25.74799999999999
 21
36.56732012635325
 31
0.0
 12
29.04999999999999
 22
36.01698679301992
 32
0.0
 13
29.04999999999999
 23
36.01698679301992
 33
0.0
  0
SOLID
  5
1C3
330
1BC
100
AcDbEntity
  8
치수문자_일반주서
 62
     0
100
AcDbTrace
 10
-31.14800000000002
 20
36.56732012635325
 30
0.0
 11
-31.14800000000002
 21
35.46665345968658
 31
0.0
 12
-34.45000000000002
 22
36.01698679301992
 32
0.0
 13
-34.45000000000002
 23
36.01698679301992
 33
0.0
  0
MTEXT
  5
1C4
330
1BC
100
AcDbEntity
  8
치수문자_일반주서
 62
     0
100
AcDbMText
 10
0.0762867256974993
 20
40.39198679301992
 30
0.0
 40
3.5
 41
0.0
 71
     2
 72
     1
  1
\A1;63.50 [2 1/2]
  7
SLDTEXTSTYLE0
 73
     1
 44
1.0
  0
POINT
  5
1C5
330
1BC
100
AcDbEntity
  8
Defpoints
 62
     0
100
AcDbPoint
 10
29.04999999999999
 20
2.019606629395923
 30
0.0
  0
POINT
  5
1C6
330
1BC
100
AcDbEntity
  8
Defpoints
 62
     0
100
AcDbPoint
 10
-34.45000000000002
 20
2.364999999999996
 30
0.0
  0
POINT
  5
1C7
330
1BC
100
AcDbEntity
  8
Defpoints
 62
     0
100
AcDbPoint
 10
-34.45000000000002
 20
36.01698679301992
 30
0.0
  0
ENDBLK
  5
1BE
330
1BC
100
AcDbEntity
  8
0
100
AcDbBlockEnd
  0
BLOCK
  5
1D6
330
1D5
100
AcDbEntity
  8
0
100
AcDbBlockBegin
  2
SW_DOWELSYMBOL_0
 70
     0
 10
0.0
 20
0.0
 30
0.0
  3
SW_DOWELSYMBOL_0
  1
SW_DOWELSYMBOL_0
  0
CIRCLE
  5
1D8
330
1D5
100
AcDbEntity
  8
해칭선
 62
     0
100
AcDbCircle
 10
0.0
 20
0.0
 30
0.0
 40
3.000000000000004
  0
HATCH
  5
1D9
330
1D5
100
AcDbEntity
  8
0
  6
Continuous
 62
     0
370
     0
100
AcDbHatch
 10
0.0
 20
0.0
 30
0.0
210
0.0
220
0.0
230
1.0
  2
SOLID
 70
     1
 71
     0
 91
        1
 92
        0
 93
        3
 72
     2
 10
0.0000000000000104
 20
-0.0000000000000035
 40
3.000000000000004
 50
0.0
 51
90.0
 73
     1
 72
     1
 10
0.0000000000000104
 20
3.000000000000001
 11
0.0000000000000104
 21
-0.0000000000000036
 72
     1
 10
0.0000000000000104
 20
-0.0000000000000035
 11
3.000000000000015
 21
-0.0000000000000035
 97
        0
 75
     0
 76
     1
 98
        1
 10
0.0
 20
0.0
  0
HATCH
  5
1DA
330
1D5
100
AcDbEntity
  8
0
  6
Continuous
 62
     0
370
     0
100
AcDbHatch
 10
0.0
 20
0.0
 30
0.0
210
0.0
220
0.0
230
1.0
  2
SOLID
 70
     1
 71
     0
 91
        1
 92
        0
 93
        3
 72
     2
 10
0.0000000000000104
 20
-0.0000000000000035
 40
3.000000000000004
 50
180.0
 51
270.0000000000008
 73
     1
 72
     1
 10
0.0000000000000104
 20
-3.000000000000008
 11
0.0000000000000104
 21
-0.0000000000000036
 72
     1
 10
0.0000000000000104
 20
-0.0000000000000035
 11
-2.999999999999994
 21
-0.0000000000000035
 97
        0
 75
     0
 76
     1
 98
        1
 10
0.0
 20
0.0
  0
ENDBLK
  5
1D7
330
1D5
100
AcDbEntity
  8
0
100
AcDbBlockEnd
  0
ENDSEC
  0
SECTION
  2
ENTITIES
  0
LINE
  5
96
330
1F
100
AcDbEntity
  8
외형선
  6
Continuous
370
    15
100
AcDbLine
 10
9.23801900531969
 20
3.175000000000001
 30
0.0
 11
-33.64000000000001
 21
3.174999999999995
 31
0.0
  0
LINE
  5
97
330
1F
100
AcDbEntity
  8
외형선
  6
Continuous
370
    15
100
AcDbLine
 10
-33.64000000000001
 20
-3.175000000000004
 30
0.0
 11
6.980169182502581
 21
-3.175
 31
0.0
  0
LINE
  5
98
330
1F
100
AcDbEntity
  8
외형선
  6
Continuous
370
    15
100
AcDbLine
 10
-33.64000000000001
 20
3.174999999999995
 30
0.0
 11
-34.45000000000002
 21
2.364999999999996
 31
0.0
  0
LINE
  5
99
330
1F
100
AcDbEntity
  8
외형선
  6
Continuous
370
    15
100
AcDbLine
 10
-34.45000000000002
 20
-2.365000000000006
 30
0.0
 11
-33.64000000000001
 21
-3.175000000000005
 31
0.0
  0
SPLINE
  5
9A
330
1F
100
AcDbEntity
  8
외형선
  6
Continuous
 62
     1
370
    15
100
AcDbSpline
210
0.0
220
0.0
230
1.0
 70
     8
 71
     3
 72
     9
 73
     5
 74
     0
 42
0.000000001
 43
0.00000001
 40
0.0
 40
0.0
 40
0.0
 40
0.0
 40
0.4095337262416169
 40
1.0
 40
1.0
 40
1.0
 40
1.0
 10
21.34785297551547
 20
3.061536581424145
 30
0.0
 10
21.34336112541707
 20
3.062783574568259
 30
0.0
 10
21.3323929198443
 20
3.065828484093924
 30
0.0
 10
21.323917088471
 20
3.06348473868798
 30
0.0
 10
21.31891239590299
 20
3.062100836071494
 30
0.0
  0
LINE
  5
9B
330
1F
100
AcDbEntity
  8
외형선
  6
Continuous
 62
     1
370
    15
100
AcDbLine
 10
11.42936746823716
 20
-3.174999999999999
 30
0.0
 11
12.33731147755693
 21
-3.174999999999999
 31
0.0
  0
SPLINE
  5
9C
330
1F
100
AcDbEntity
  8
외형선
  6
Continuous
 62
     1
370
    15
100
AcDbSpline
210
0.0
220
0.0
230
1.0
 70
     8
 71
     3
 72
     9
 73
     5
 74
     0
 42
0.000000001
 43
0.00000001
 40
0.0
 40
0.0
 40
0.0
 40
0.0
 40
0.6452232092879404
 40
1.0
 40
1.0
 40
1.0
 40
1.0
 10
21.30842853731004
 20
3.077460707823645
 30
0.0
 10
21.2923891640817
 20
3.093059495893243
 30
0.0
 10
21.267530521371
 20
3.117235297143189
 30
0.0
 10
21.24077432880532
 20
3.131398252607769
 30
0.0
 10
21.2312818526752
 20
3.136422940494491
 30
0.0
  0
LINE
  5
9D
330
1F
100
AcDbEntity
  8
외형선
  6
Continuous
 62
     1
370
    15
100
AcDbLine
 10
20.75678065129816
 20
3.175000000000001
 30
0.0
 11
19.51352871562808
 21
3.175000000000001
 31
0.0
  0
SPLINE
  5
9E
330
1F
100
AcDbEntity
  8
외형선
  6
Continuous
 62
     1
370
    15
100
AcDbSpline
210
0.0
220
0.0
230
1.0
 70
     8
 71
     3
 72
     9
 73
     5
 74
     0
 42
0.000000001
 43
0.00000001
 40
0.0
 40
0.0
 40
0.0
 40
0.0
 40
0.2458910454161847
 40
1.0
 40
1.0
 40
1.0
 40
1.0
 10
22.80953075449716
 20
-3.025814076519327
 30
0.0
 10
22.83281138273978
 20
-3.023070489436887
 30
0.0
 10
22.92749001653558
 20
-3.011912754604385
 30
0.0
 10
23.00149512977884
 20
-3.059622462646598
 30
0.0
 10
23.05730304836058
 20
-3.09560078070181
 30
0.0
  0
SPLINE
  5
9F
330
1F
100
AcDbEntity
  8
외형선
  6
Continuous
 62
     1
370
    15
100
AcDbSpline
210
0.0
220
0.0
230
1.0
 70
     8
 71
     3
 72
     9
 73
     5
 74
     0
 42
0.000000001
 43
0.00000001
 40
0.0
 40
0.0
 40
0.0
 40
0.0
 40
0.4976375884036065
 40
1.0
 40
1.0
 40
1.0
 40
1.0
 10
23.0660428147098
 20
-3.103577131353978
 30
0.0
 10
23.09318428565114
 20
-3.121679944773736
 30
0.0
 10
23.14772492239927
 20
-3.158057448888386
 30
0.0
 10
23.21036497915376
 20
-3.166186135327067
 30
0.0
 10
23.24183298912748
 20
-3.170269681849515
 30
0.0
  0
LINE
  5
A0
330
1F
100
AcDbEntity
  8
외형선
  6
Continuous
 62
     1
370
    15
100
AcDbLine
 10
23.26359220284753
 20
-3.174999999999999
 30
0.0
 11
24.83720303140319
 21
-3.174999999999999
 31
0.0
  0
SPLINE
  5
A1
330
1F
100
AcDbEntity
  8
외형선
  6
Continuous
 62
     1
370
    15
100
AcDbSpline
210
0.0
220
0.0
230
1.0
 70
     8
 71
     3
 72
     9
 73
     5
 74
     0
 42
0.000000001
 43
0.00000001
 40
0.0
 40
0.0
 40
0.0
 40
0.0
 40
0.5030935009822227
 40
1.0
 40
1.0
 40
1.0
 40
1.0
 10
12.34103336111619
 20
-3.174890447035261
 30
0.0
 10
12.37309579987729
 20
-3.171998064934813
 30
0.0
 10
12.4368263761986
 20
-3.166248871008034
 30
0.0
 10
12.4926050936816
 20
-3.131213816514991
 30
0.0
 10
12.52032190090579
 20
-3.113804670243955
 30
0.0
  0
SPLINE
  5
A2
330
1F
100
AcDbEntity
  8
외형선
  6
Continuous
 62
     1
370
    15
100
AcDbSpline
210
0.0
220
0.0
230
1.0
 70
     8
 71
     3
 72
    11
 73
     7
 74
     0
 42
0.000000001
 43
0.00000001
 40
0.0
 40
0.0
 40
0.0
 40
0.0
 40
0.2066597974344531
 40
0.443597319211895
 40
0.7095001306040642
 40
1.0
 40
1.0
 40
1.0
 40
1.0
 10
12.53431102562216
 20
-3.103982066049293
 30
0.0
 10
12.56412592190968
 20
-3.084296019536398
 30
0.0
 10
12.6281238945677
 20
-3.042039724081686
 30
0.0
 10
12.76693359045466
 20
-3.007887526913482
 30
0.0
 10
12.93313843123785
 20
-3.021766063176523
 30
0.0
 10
13.02213030460997
 20
-3.076865099023358
 30
0.0
 10
13.06859328633982
 20
-3.105632506640224
 30
0.0
  0
SPLINE
  5
A3
330
1F
100
AcDbEntity
  8
외형선
  6
Continuous
 62
     1
370
    15
100
AcDbSpline
210
0.0
220
0.0
230
1.0
 70
     8
 71
     3
 72
     9
 73
     5
 74
     0
 42
0.000000001
 43
0.00000001
 40
0.0
 40
0.0
 40
0.0
 40
0.0
 40
0.502285213669884
 40
1.0
 40
1.0
 40
1.0
 40
1.0
 10
19.5138885347097
 20
3.174999871691134
 30
0.0
 10
19.47936702185149
 20
3.171995524830526
 30
0.0
 10
19.41063811660263
 20
3.166014168463977
 30
0.0
 10
19.34984151340338
 20
3.126208266256642
 30
0.0
 10
19.31958214503248
 20
3.106396280144842
 30
0.0
  0
SPLINE
  5
A4
330
1F
100
AcDbEntity
  8
외형선
  6
Continuous
 62
     1
370
    15
100
AcDbSpline
210
0.0
220
0.0
230
1.0
 70
     8
 71
     3
 72
    11
 73
     7
 74
     0
 42
0.000000001
 43
0.00000001
 40
0.0
 40
0.0
 40
0.0
 40
0.0
 40
0.2108864921541461
 40
0.4492130373489052
 40
0.7139512007769594
 40
1.0
 40
1.0
 40
1.0
 40
1.0
 10
19.31562374888719
 20
3.103227639265731
 30
0.0
 10
19.28623422744767
 20
3.083758034524909
 30
0.0
 10
19.22363108934611
 20
3.042285485988161
 30
0.0
 10
19.0845839882959
 20
3.007812251738697
 30
0.0
 10
18.91770444041996
 20
3.021675704449101
 30
0.0
 10
18.82661289525916
 20
3.078464440548958
 30
0.0
 10
18.77930489982804
 20
3.107957422177588
 30
0.0
  0
SPLINE
  5
A5
330
1F
100
AcDbEntity
  8
외형선
  6
Continuous
 62
     1
370
    15
100
AcDbSpline
210
0.0
220
0.0
230
1.0
 70
     8
 71
     3
 72
     9
 73
     5
 74
     0
 42
0.000000001
 43
0.00000001
 40
0.0
 40
0.0
 40
0.0
 40
0.0
 40
0.4977258612866295
 40
1.0
 40
1.0
 40
1.0
 40
1.0
 10
13.06794848868474
 20
-3.105124506072089
 30
0.0
 10
13.09846456021977
 20
-3.125295448773763
 30
0.0
 10
13.15977556273859
 20
-3.165821658622558
 30
0.0
 10
13.22900921079743
 20
-3.171931289594875
 30
0.0
 10
13.26378348174617
 20
-3.174999999229352
 30
0.0
  0
LINE
  5
A6
330
1F
100
AcDbEntity
  8
외형선
  6
Continuous
 62
     1
370
    15
100
AcDbLine
 10
13.26376644196556
 20
-3.174999999999999
 30
0.0
 11
14.83747683242512
 21
-3.174999999999999
 31
0.0
  0
SPLINE
  5
A7
330
1F
100
AcDbEntity
  8
외형선
  6
Continuous
 62
     1
370
    15
100
AcDbSpline
210
0.0
220
0.0
230
1.0
 70
     8
 71
     3
 72
     9
 73
     5
 74
     0
 42
0.000000001
 43
0.00000001
 40
0.0
 40
0.0
 40
0.0
 40
0.0
 40
0.5037885271402524
 40
1.0
 40
1.0
 40
1.0
 40
1.0
 10
24.83768375750746
 20
-3.174999994326814
 30
0.0
 10
24.87219089679222
 20
-3.172001223141236
 30
0.0
 10
24.94068618286123
 20
-3.166048782734147
 30
0.0
 10
25.00141323796396
 20
-3.126076013350565
 30
0.0
 10
25.03154669941893
 20
-3.106241066580456
 30
0.0
  0
SPLINE
  5
A8
330
1F
100
AcDbEntity
  8
외형선
  6
Continuous
 62
     1
370
    15
100
AcDbSpline
210
0.0
220
0.0
230
1.0
 70
     8
 71
     3
 72
     9
 73
     5
 74
     0
 42
0.000000001
 43
0.00000001
 40
0.0
 40
0.0
 40
0.0
 40
0.0
 40
0.4961052862075698
 40
1.0
 40
1.0
 40
1.0
 40
1.0
 10
18.78411149313503
 20
3.104150412485975
 30
0.0
 10
18.75357785969265
 20
3.124575759823678
 30
0.0
 10
18.69203117939865
 20
3.165747156109018
 30
0.0
 10
18.62273448332925
 20
3.171899666151343
 30
0.0
 10
18.58781624449661
 20
3.174999883438224
 30
0.0
  0
SPLINE
  5
A9
330
1F
100
AcDbEntity
  8
외형선
  6
Continuous
 62
     1
370
    15
100
AcDbSpline
210
0.0
220
0.0
230
1.0
 70
     8
 71
     3
 72
    11
 73
     7
 74
     0
 42
0.000000001
 43
0.00000001
 40
0.0
 40
0.0
 40
0.0
 40
0.0
 40
0.2324881621677189
 40
0.4787076779197832
 40
0.7358471613228835
 40
1.0
 40
1.0
 40
1.0
 40
1.0
 10
25.03232129592483
 20
-3.105623978767477
 30
0.0
 10
25.06762983534972
 20
-3.082651114041355
 30
0.0
 10
25.14033232807547
 20
-3.035348547641121
 30
0.0
 10
25.28860248370031
 20
-3.006760582785308
 30
0.0
 10
25.44681883508962
 20
-3.02809445217763
 30
0.0
 10
25.52811889373789
 20
-3.079927300191074
 30
0.0
 10
25.56931581985193
 20
-3.106192398216754
 30
0.0
  0
LINE
  5
AA
330
1F
100
AcDbEntity
  8
외형선
  6
Continuous
 62
     1
370
    15
100
AcDbLine
 10
18.58752375361178
 20
3.175000000000001
 30
0.0
 11
17.18780143123436
 21
3.175000000000001
 31
0.0
  0
SPLINE
  5
AB
330
1F
100
AcDbEntity
  8
외형선
  6
Continuous
 62
     1
370
    15
100
AcDbSpline
210
0.0
220
0.0
230
1.0
 70
     8
 71
     3
 72
     9
 73
     5
 74
     0
 42
0.000000001
 43
0.00000001
 40
0.0
 40
0.0
 40
0.0
 40
0.0
 40
0.4977336291360194
 40
1.0
 40
1.0
 40
1.0
 40
1.0
 10
25.58723559067869
 20
-3.116908311952501
 30
0.0
 10
25.6145429845847
 20
-3.13366953329948
 30
0.0
 10
25.6694064543354
 20
-3.167344616448018
 30
0.0
 10
25.73237088179227
 20
-3.172440183942578
 30
0.0
 10
25.76399579626456
 20
-3.174999516135562
 30
0.0
  0
LINE
  5
AC
330
1F
100
AcDbEntity
  8
외형선
  6
Continuous
 62
     1
370
    15
100
AcDbLine
 10
25.76374323182925
 20
-3.174999999999999
 30
0.0
 11
26.51438367943805
 21
-3.174999999999999
 31
0.0
  0
LINE
  5
AD
330
1F
100
AcDbEntity
  8
외형선
  6
Continuous
 62
     1
370
    15
100
AcDbLine
 10
29.04999999999999
 20
2.07499999999999
 30
0.0
 11
28.47446781554259
 21
2.650532184457399
 31
0.0
  0
SPLINE
  5
AE
330
1F
100
AcDbEntity
  8
외형선
  6
Continuous
 62
     1
370
    15
100
AcDbSpline
210
0.0
220
0.0
230
1.0
 70
     8
 71
     3
 72
     9
 73
     5
 74
     0
 42
0.000000001
 43
0.00000001
 40
0.0
 40
0.0
 40
0.0
 40
0.0
 40
0.5027134342747511
 40
1.0
 40
1.0
 40
1.0
 40
1.0
 10
14.86633789685005
 20
-3.166797123496533
 30
0.0
 10
14.89730514028542
 20
-3.162522096745417
 30
0.0
 10
14.95890533101843
 20
-3.154018192811989
 30
0.0
 10
15.01241123599972
 20
-3.11778718439591
 30
0.0
 10
15.03901900373389
 20
-3.099769990647914
 30
0.0
  0
LINE
  5
AF
330
1F
100
AcDbEntity
  8
외형선
  6
Continuous
 62
     1
370
    15
100
AcDbLine
 10
15.19207292835056
 20
-3.030224177324463
 30
0.0
 11
15.23850431980162
 21
-3.025399460133095
 31
0.0
  0
SPLINE
  5
B0
330
1F
100
AcDbEntity
  8
외형선
  6
Continuous
 62
     1
370
    15
100
AcDbSpline
210
0.0
220
0.0
230
1.0
 70
     8
 71
     3
 72
     9
 73
     5
 74
     0
 42
0.000000001
 43
0.00000001
 40
0.0
 40
0.0
 40
0.0
 40
0.0
 40
0.5598549951184294
 40
1.0
 40
1.0
 40
1.0
 40
1.0
 10
16.90957314043489
 20
3.154067029330936
 30
0.0
 10
16.89369901261744
 20
3.148702376723631
 30
0.0
 10
16.865345013893
 20
3.139120158731327
 30
0.0
 10
16.8394715271753
 20
3.117547914828162
 30
0.0
 10
16.82808344123763
 20
3.108052999430096
 30
0.0
  0
SPLINE
  5
B1
330
1F
100
AcDbEntity
  8
외형선
  6
Continuous
370
    15
100
AcDbSpline
210
0.0
220
0.0
230
1.0
 70
     8
 71
     3
 72
    14
 73
    10
 74
     0
 42
0.000000001
 43
0.00000001
 40
0.0
 40
0.0
 40
0.0
 40
0.0
 40
0.25
 40
0.25
 40
0.5
 40
0.5
 40
0.75
 40
0.75
 40
1.0
 40
1.0
 40
1.0
 40
1.0
 10
9.999999999999986
 20
-3.068297930797295
 30
0.0
 10
9.748216111893232
 20
-3.030943476707805
 30
0.0
 10
9.494610766591645
 20
-2.983813853132827
 30
0.0
 10
8.990903724039594
 20
-2.871327182092402
 30
0.0
 10
8.742214094791645
 20
-2.80615801401169
 30
0.0
 10
8.23803210329417
 20
-2.658044488903686
 30
0.0
 10
7.984451426767913
 20
-2.575211829121407
 30
0.0
 10
7.48145498228502
 20
-2.394367175008543
 30
0.0
 10
7.232506047027591
 20
-2.29647681820128
 30
0.0
 10
6.980169182502581
 20
-2.19124550674875
 30
0.0
  0
LINE
  5
B2
330
1F
100
AcDbEntity
  8
외형선
  6
Continuous
370
    15
100
AcDbLine
 10
6.980169182502581
 20
-2.191238624875995
 30
0.0
 11
6.980169182502581
 21
-3.175
 31
0.0
  0
LINE
  5
B3
330
1F
100
AcDbEntity
  8
외형선
  6
Continuous
370
    15
100
AcDbLine
 10
7.458561615764845
 20
-2.376025381195865
 30
0.0
 11
6.980169182502581
 21
-2.553507120531991
 31
0.0
  0
LINE
  5
B4
330
1F
100
AcDbEntity
  8
외형선
  6
Continuous
370
    15
100
AcDbLine
 10
9.999999999999986
 20
3.144691917191277
 30
0.0
 11
9.23801900531969
 21
3.171583752198
 31
0.0
  0
LINE
  5
B5
330
1F
100
AcDbEntity
  8
외형선
  6
Continuous
370
    15
100
AcDbLine
 10
9.999999999999986
 20
3.144691917191275
 30
0.0
 11
9.999999999999986
 21
2.240993789881903
 31
0.0
  0
SPLINE
  5
B6
330
1F
100
AcDbEntity
  8
외형선
  6
Continuous
370
    15
100
AcDbSpline
210
0.0
220
0.0
230
1.0
 70
     8
 71
     3
 72
    14
 73
    10
 74
     0
 42
0.000000001
 43
0.00000001
 40
0.0
 40
0.0
 40
0.0
 40
0.0
 40
0.2499999999999999
 40
0.2499999999999999
 40
0.5
 40
0.5
 40
0.75
 40
0.75
 40
1.0
 40
1.0
 40
1.0
 40
1.0
 10
9.999999999999986
 20
2.240993789881903
 30
0.0
 10
9.748216111893232
 20
2.343928750780208
 30
0.0
 10
9.494610766591645
 20
2.440036071449369
 30
0.0
 10
8.990903724039594
 20
2.615883006248296
 30
0.0
 10
8.742214094791645
 20
2.695528447668252
 30
0.0
 10
8.238032103294167
 20
2.838133664336624
 30
0.0
 10
7.984451426767913
 20
2.900834307586064
 30
0.0
 10
7.48145498228502
 20
3.007307117855034
 30
0.0
 10
7.232506047027591
 20
3.051124013363652
 30
0.0
 10
6.980169182502581
 20
3.085422013818766
 30
0.0
  0
SPLINE
  5
B7
330
1F
100
AcDbEntity
  8
외형선
  6
Continuous
370
    15
100
AcDbSpline
210
0.0
220
0.0
230
1.0
 70
     8
 71
     3
 72
    14
 73
    10
 74
     0
 42
0.000000001
 43
0.00000001
 40
0.0
 40
0.0
 40
0.0
 40
0.0
 40
0.25
 40
0.25
 40
0.5
 40
0.5
 40
0.75
 40
0.75
 40
1.0
 40
1.0
 40
1.0
 40
1.0
 10
9.999999999999986
 20
-1.951362197646044
 30
0.0
 10
9.748216111893232
 20
-1.836737017934825
 30
0.0
 10
9.494610766591645
 20
-1.715677451998673
 30
0.0
 10
8.990903724039594
 20
-1.464097927789469
 30
0.0
 10
8.742214094791645
 20
-1.333858928177045
 30
0.0
 10
8.23803210329417
 20
-1.064660516045159
 30
0.0
 10
7.984451426767913
 20
-0.9260098967956526
 30
0.0
 10
7.48145498228502
 20
-0.6445272523229291
 30
0.0
 10
7.232506047027591
 20
-0.501803367867197
 30
0.0
 10
6.980169182502581
 20
-0.3573118573487387
 30
0.0
  0
LINE
  5
B8
330
1F
100
AcDbEntity
  8
외형선
  6
Continuous
370
    15
100
AcDbLine
 10
9.999999999999986
 20
-1.951362197646042
 30
0.0
 11
9.999999999999986
 21
-3.068297930797292
 31
0.0
  0
LINE
  5
B9
330
1F
100
AcDbEntity
  8
외형선
  6
Continuous
370
    15
100
AcDbLine
 10
-33.64000000000001
 20
3.174999999999996
 30
0.0
 11
-33.64000000000001
 21
-3.175000000000004
 31
0.0
  0
LINE
  5
BA
330
1F
100
AcDbEntity
  8
외형선
  6
Continuous
370
    15
100
AcDbLine
 10
6.980169182502581
 20
3.085424256807832
 30
0.0
 11
6.980169182502581
 21
-0.3573272375169849
 31
0.0
  0
LINE
  5
BB
330
1F
100
AcDbEntity
  8
외형선
  6
Continuous
370
    15
100
AcDbLine
 10
-34.45000000000002
 20
2.364999999999996
 30
0.0
 11
-34.45000000000002
 21
-2.365000000000007
 31
0.0
  0
SPLINE
  5
BC
330
1F
100
AcDbEntity
  8
외형선
  6
Continuous
370
    15
100
AcDbSpline
210
0.0
220
0.0
230
1.0
 70
    24
 71
     3
 72
    14
 73
    10
 74
     0
 42
0.000000001
 43
0.00000001
 40
0.0
 40
0.0
 40
0.0
 40
0.0
 40
0.25
 40
0.25
 40
0.5
 40
0.5
 40
0.75
 40
0.75
 40
1.0
 40
1.0
 40
1.0
 40
1.0
 10
9.999999999999986
 20
2.240993789881898
 30
0.0
 10
9.999999999999986
 20
2.03964145899161
 30
0.0
 10
9.999999999999986
 20
1.795888838876723
 30
0.0
 10
9.999999999999986
 20
1.206676870272319
 30
0.0
 10
9.999999999999986
 20
0.859845008495022
 30
0.0
 10
9.999999999999986
 20
0.0834310804558445
 30
0.0
 10
9.999999999999986
 20
-0.3467360795768739
 30
0.0
 10
9.999999999999986
 20
-1.195705385980633
 30
0.0
 10
9.999999999999986
 20
-1.611373920803526
 30
0.0
 10
9.999999999999986
 20
-1.951362197646044
 30
0.0
  0
SPLINE
  5
BD
330
1F
100
AcDbEntity
  8
외형선
  6
Continuous
 62
     1
370
    15
100
AcDbSpline
210
0.0
220
0.0
230
1.0
 70
     8
 71
     3
 72
    14
 73
    10
 74
     0
 42
0.000000001
 43
0.00000001
 40
0.0
 40
0.0
 40
0.0
 40
0.0
 40
0.0000595225487355
 40
0.0000595225487355
 40
0.0000595225487355
 40
0.000119011091862
 40
0.000119011091862
 40
0.000119011091862
 40
0.0002056064112891
 40
0.0002056064112891
 40
0.0002056064112891
 40
0.0002056064112891
 10
17.06655920180113
 20
-1.506848404447526
 30
0.0
 10
17.05241792630268
 20
-1.503445100852909
 30
0.0
 10
17.03737524306817
 20
-1.49905287962362
 30
0.0
 10
17.02179759677158
 20
-1.49380941717266
 30
0.0
 10
17.00622551792523
 20
-1.488567828734993
 30
0.0
 10
16.99001331293082
 20
-1.482441126989659
 30
0.0
 10
16.97348379483233
 20
-1.47557771807618
 30
0.0
 10
16.94950412338024
 20
-1.465620846387249
 30
0.0
 10
16.92458305639742
 20
-1.453993800853944
 30
0.0
 10
16.89964774646334
 20
-1.441201007601777
 30
0.0
  0
SPLINE
  5
BE
330
1F
100
AcDbEntity
  8
외형선
  6
Continuous
 62
     1
370
    15
100
AcDbSpline
210
0.0
220
0.0
230
1.0
 70
     8
 71
     3
 72
    12
 73
     8
 74
     0
 42
0.000000001
 43
0.00000001
 40
0.0
 40
0.0
 40
0.0
 40
0.0
 40
0.5
 40
0.5
 40
0.75
 40
0.75
 40
1.0
 40
1.0
 40
1.0
 40
1.0
 10
16.89964798173352
 20
-1.441202728186258
 30
0.0
 10
16.85513981569564
 20
-1.115704371798837
 30
0.0
 10
16.80703975990933
 20
-0.7521324806925569
 30
0.0
 10
16.73582590905315
 20
-0.196415018228256
 30
0.0
 10
16.71226257404636
 20
-0.0096569429497205
 30
0.0
 10
16.6665369159397
 20
0.3583493812586341
 30
0.0
 10
16.64481007501802
 20
0.5384667950748154
 30
0.0
 10
16.62191722912438
 20
0.7180512364556277
 30
0.0
  0
SPLINE
  5
BF
330
1F
100
AcDbEntity
  8
외형선
  6
Continuous
 62
     1
370
    15
100
AcDbSpline
210
0.0
220
0.0
230
1.0
 70
     8
 71
     3
 72
     8
 73
     4
 74
     0
 42
0.000000001
 43
0.00000001
 40
0.0
 40
0.0
 40
0.0
 40
0.0
 40
1.0
 40
1.0
 40
1.0
 40
1.0
 10
16.62191714425266
 20
0.7180519022494272
 30
0.0
 10
16.67909418413204
 20
0.6859686068703599
 30
0.0
 10
16.73726913874514
 20
0.6513510479834786
 30
0.0
 10
16.78713227466369
 20
0.6216099112630855
 30
0.0
  0
SPLINE
  5
C0
330
1F
100
AcDbEntity
  8
외형선
  6
Continuous
 62
     1
370
    15
100
AcDbSpline
210
0.0
220
0.0
230
1.0
 70
     8
 71
     3
 72
    12
 73
     8
 74
     0
 42
0.000000001
 43
0.00000001
 40
0.0
 40
0.0
 40
0.0
 40
0.0
 40
0.5000000000000002
 40
0.5000000000000002
 40
0.7500000000000001
 40
0.7500000000000001
 40
1.0
 40
1.0
 40
1.0
 40
1.0
 10
17.06655920523087
 20
-1.506848428704598
 30
0.0
 10
17.02176770637339
 20
-1.190057252079283
 30
0.0
 10
16.97423318101577
 20
-0.8358507151317819
 30
0.0
 10
16.90235759783337
 20
-0.287352278788523
 30
0.0
 10
16.87847745840667
 20
-0.1022412964761057
 30
0.0
 10
16.83197043792647
 20
0.2638694658855353
 30
0.0
 10
16.80996529710586
 20
0.4432390030552436
 30
0.0
 10
16.78713227466456
 20
0.621609911256271
 30
0.0
  0
SPLINE
  5
C1
330
1F
100
AcDbEntity
  8
외형선
  6
Continuous
 62
     1
370
    15
100
AcDbSpline
210
0.0
220
0.0
230
1.0
 70
     8
 71
     3
 72
     8
 73
     4
 74
     0
 42
0.000000001
 43
0.00000001
 40
0.0
 40
0.0
 40
0.0
 40
0.0
 40
1.0
 40
1.0
 40
1.0
 40
1.0
 10
27.78027881681615
 20
-1.10506591644578
 30
0.0
 10
27.72300766142265
 20
-1.074001473706949
 30
0.0
 10
27.66476794182224
 20
-1.038216092807897
 30
0.0
 10
27.61480396998013
 20
-1.004427312896224
 30
0.0
  0
SPLINE
  5
C2
330
1F
100
AcDbEntity
  8
외형선
  6
Continuous
 62
     1
370
    15
100
AcDbSpline
210
0.0
220
0.0
230
1.0
 70
     8
 71
     3
 72
    12
 73
     8
 74
     0
 42
0.000000001
 43
0.00000001
 40
0.0
 40
0.0
 40
0.0
 40
0.0
 40
0.5000000000000002
 40
0.5000000000000002
 40
0.7500000000000001
 40
0.7500000000000001
 40
1.0
 40
1.0
 40
1.0
 40
1.0
 10
27.61480385862977
 20
-1.004426489659887
 30
0.0
 10
27.56776014740346
 20
-0.6566212273522494
 30
0.0
 10
27.51879112009935
 20
-0.2828361870475109
 30
0.0
 10
27.44912633259726
 20
0.2656385412485438
 30
0.0
 10
27.42715141009421
 20
0.4447731163930223
 30
0.0
 10
27.38153156517594
 20
0.8010830647334561
 30
0.0
 10
27.35794613062198
 20
0.9780473912965846
 30
0.0
 10
27.33411144186826
 20
1.149561919948044
 30
0.0
  0
SPLINE
  5
C3
330
1F
100
AcDbEntity
  8
외형선
  6
Continuous
 62
     1
370
    15
100
AcDbSpline
210
0.0
220
0.0
230
1.0
 70
     8
 71
     3
 72
    14
 73
    10
 74
     0
 42
0.000000001
 43
0.00000001
 40
0.0
 40
0.0
 40
0.0
 40
0.0
 40
0.0000598831550977
 40
0.0000598831550977
 40
0.0000598831550977
 40
0.0001197305539647
 40
0.0001197305539647
 40
0.0001197305539647
 40
0.0002065173991057
 40
0.0002065173991057
 40
0.0002065173991057
 40
0.0002065173991057
 10
27.33411144186565
 20
1.149561919968022
 30
0.0
 10
27.34834956621012
 20
1.144420981894786
 30
0.0
 10
27.36349093706047
 20
1.138428143392137
 30
0.0
 10
27.37916457317043
 20
1.13174604013844
 30
0.0
 10
27.39483236324485
 20
1.125066429210897
 30
0.0
 10
27.41113808797902
 20
1.117653616777537
 30
0.0
 10
27.42775686294619
 20
1.109676375100059
 30
0.0
 10
27.45177633621508
 20
1.098146695950415
 30
0.0
 10
27.4767208605672
 20
1.085302500398031
 30
0.0
 10
27.50167570639909
 20
1.071695260229408
 30
0.0
  0
SPLINE
  5
C4
330
1F
100
AcDbEntity
  8
외형선
  6
Continuous
 62
     1
370
    15
100
AcDbSpline
210
0.0
220
0.0
230
1.0
 70
     8
 71
     3
 72
    12
 73
     8
 74
     0
 42
0.000000001
 43
0.00000001
 40
0.0
 40
0.0
 40
0.0
 40
0.0
 40
0.5000000000000002
 40
0.5000000000000002
 40
0.7500000000000001
 40
0.7500000000000001
 40
1.0
 40
1.0
 40
1.0
 40
1.0
 10
27.78027882005376
 20
-1.10506594066037
 30
0.0
 10
27.73388056159324
 20
-0.7579868455079127
 30
0.0
 10
27.68523531568191
 20
-0.3823153325875337
 30
0.0
 10
27.61544973434966
 20
0.1735196402508102
 30
0.0
 10
27.59319490465344
 20
0.356162849668075
 30
0.0
 10
27.54845795294814
 20
0.7167017500596653
 30
0.0
 10
27.52524084485929
 20
0.89653825756756
 30
0.0
 10
27.50167557089059
 20
1.071696267447855
 30
0.0
  0
SPLINE
  5
C5
330
1F
100
AcDbEntity
  8
외형선
  6
Continuous
 62
     1
370
    15
100
AcDbSpline
210
0.0
220
0.0
230
1.0
 70
     8
 71
     3
 72
     8
 73
     4
 74
     0
 42
0.000000001
 43
0.00000001
 40
0.0
 40
0.0
 40
0.0
 40
0.0
 40
1.0
 40
1.0
 40
1.0
 40
1.0
 10
17.89696888052282
 20
-1.928287439689625
 30
0.0
 10
17.83970923403555
 20
-1.902044381132172
 30
0.0
 10
17.78147259379957
 20
-1.866497999175496
 30
0.0
 10
17.73153293913914
 20
-1.826245040271936
 30
0.0
  0
SPLINE
  5
C6
330
1F
100
AcDbEntity
  8
외형선
  6
Continuous
 62
     1
370
    15
100
AcDbSpline
210
0.0
220
0.0
230
1.0
 70
     8
 71
     3
 72
    12
 73
     8
 74
     0
 42
0.000000001
 43
0.00000001
 40
0.0
 40
0.0
 40
0.0
 40
0.0
 40
0.2500000000000001
 40
0.2500000000000001
 40
0.5000000000000001
 40
0.5000000000000001
 40
1.0
 40
1.0
 40
1.0
 40
1.0
 10
17.73153293913669
 20
-1.826245040256797
 30
0.0
 10
17.70813705629534
 20
-1.677466705273957
 30
0.0
 10
17.68585528568191
 20
-1.521711048185191
 30
0.0
 10
17.64061461101623
 20
-1.195032342423555
 30
0.0
 10
17.61715494098526
 20
-1.022756496245784
 30
0.0
 10
17.54580801602697
 20
-0.4900816604636459
 30
0.0
 10
17.49700752303021
 20
-0.1139798617176657
 30
0.0
 10
17.45137351538427
 20
0.2487298944826515
 30
0.0
  0
SPLINE
  5
C7
330
1F
100
AcDbEntity
  8
외형선
  6
Continuous
 62
     1
370
    15
100
AcDbSpline
210
0.0
220
0.0
230
1.0
 70
     8
 71
     3
 72
    14
 73
    10
 74
     0
 42
0.000000001
 43
0.00000001
 40
0.0
 40
0.0
 40
0.0
 40
0.0
 40
0.0000597273539772
 40
0.0000597273539772
 40
0.0000597273539772
 40
0.0001194186070663
 40
0.0001194186070663
 40
0.0001194186070663
 40
0.0002063343225984
 40
0.0002063343225984
 40
0.0002063343225984
 40
0.0002063343225984
 10
17.45137304776274
 20
0.2487336112526761
 30
0.0
 10
17.46555399822887
 20
0.2400111972486547
 30
0.0
 10
17.48063585692378
 20
0.2308311561544475
 30
0.0
 10
17.4962483892819
 20
0.2213970145668407
 30
0.0
 10
17.51185503341208
 20
0.2119664310423841
 30
0.0
 10
17.52809603958476
 20
0.2022156362879834
 30
0.0
 10
17.54465284932103
 20
0.1923527020673965
 30
0.0
 10
17.56867977959748
 20
0.1780397977933196
 30
0.0
 10
17.59364740055403
 20
0.1633293618954865
 30
0.0
 10
17.6186352138289
 20
0.148863847204796
 30
0.0
  0
SPLINE
  5
C8
330
1F
100
AcDbEntity
  8
외형선
  6
Continuous
 62
     1
370
    15
100
AcDbSpline
210
0.0
220
0.0
230
1.0
 70
     8
 71
     3
 72
    10
 73
     6
 74
     0
 42
0.000000001
 43
0.00000001
 40
0.0
 40
0.0
 40
0.0
 40
0.0
 40
0.5000000000000001
 40
0.5000000000000001
 40
1.0
 40
1.0
 40
1.0
 40
1.0
 10
17.89696885185848
 20
-1.928287258915641
 30
0.0
 10
17.85020827326736
 20
-1.63338796956702
 30
0.0
 10
17.80695235017079
 20
-1.307203032648679
 30
0.0
 10
17.71303651833306
 20
-0.5980128713931046
 30
0.0
 10
17.66446776677101
 20
-0.21947439300513
 30
0.0
 10
17.61863519951133
 20
0.1488639622718504
 30
0.0
  0
SPLINE
  5
C9
330
1F
100
AcDbEntity
  8
외형선
  6
Continuous
 62
     1
370
    15
100
AcDbSpline
210
0.0
220
0.0
230
1.0
 70
     8
 71
     3
 72
    10
 73
     6
 74
     0
 42
0.000000001
 43
0.00000001
 40
0.0
 40
0.0
 40
0.0
 40
0.0
 40
0.5
 40
0.5
 40
1.0
 40
1.0
 40
1.0
 40
1.0
 10
19.59529730715597
 20
-2.603551344018672
 30
0.0
 10
19.31121679204817
 20
-2.509933011930389
 30
0.0
 10
19.03045344944759
 20
-2.406335365167952
 30
0.0
 10
18.46560869817689
 20
-2.180546007691129
 30
0.0
 10
18.18022976025653
 20
-2.058110671669717
 30
0.0
 10
17.89696842049138
 20
-1.92828722884948
 30
0.0
  0
SPLINE
  5
CA
330
1F
100
AcDbEntity
  8
외형선
  6
Continuous
 62
     1
370
    15
100
AcDbSpline
210
0.0
220
0.0
230
1.0
 70
     8
 71
     3
 72
    10
 73
     6
 74
     0
 42
0.000000001
 43
0.00000001
 40
0.0
 40
0.0
 40
0.0
 40
0.0
 40
0.5
 40
0.5
 40
1.0
 40
1.0
 40
1.0
 40
1.0
 10
19.31672380642744
 20
-0.8222092297203977
 30
0.0
 10
19.03338734718997
 20
-0.6642901326325821
 30
0.0
 10
18.75341076875404
 20
-0.5037354679485206
 30
0.0
 10
18.18542461054587
 20
-0.1783838673965403
 30
0.0
 10
17.90014118431009
 20
-0.014100743577956
 30
0.0
 10
17.61863495179702
 20
0.1488639988957816
 30
0.0
  0
SPLINE
  5
CB
330
1F
100
AcDbEntity
  8
외형선
  6
Continuous
 62
     1
370
    15
100
AcDbSpline
210
0.0
220
0.0
230
1.0
 70
     8
 71
     3
 72
    12
 73
     8
 74
     0
 42
0.000000001
 43
0.00000001
 40
0.0
 40
0.0
 40
0.0
 40
0.0
 40
0.5
 40
0.5
 40
0.75
 40
0.75
 40
1.0
 40
1.0
 40
1.0
 40
1.0
 10
19.59529261710233
 20
-2.603551657576239
 30
0.0
 10
19.54865473955259
 20
-2.391376605104244
 30
0.0
 10
19.5000498344282
 20
-2.121504098940822
 30
0.0
 10
19.43072887272361
 20
-1.667060191980623
 30
0.0
 10
19.40882386580425
 20
-1.509112217107859
 30
0.0
 10
19.36370417283955
 20
-1.176850256507131
 30
0.0
 10
19.34035486782469
 20
-1.002028903210692
 30
0.0
 10
19.31672638514057
 20
-0.8222079685991821
 30
0.0
  0
LINE
  5
CC
330
1F
100
AcDbEntity
  8
외형선
  6
Continuous
 62
     1
370
    15
100
AcDbLine
 10
27.94999999999988
 20
-1.196455089823351
 30
0.0
 11
27.94999999999998
 21
0.8240468249759505
 31
0.0
  0
SPLINE
  5
CD
330
1F
100
AcDbEntity
  8
외형선
  6
Continuous
 62
     1
370
    15
100
AcDbSpline
210
0.0
220
0.0
230
1.0
 70
     8
 71
     3
 72
     8
 73
     4
 74
     0
 42
0.000000001
 43
0.00000001
 40
0.0
 40
0.0
 40
0.0
 40
0.0
 40
1.0
 40
1.0
 40
1.0
 40
1.0
 10
27.94999999999988
 20
-1.196455089823352
 30
0.0
 10
27.8933221252321
 20
-1.166158872812324
 30
0.0
 10
27.83673502641435
 20
-1.135688324502296
 30
0.0
 10
27.78027881659442
 20
-1.105065916325213
 30
0.0
  0
SPLINE
  5
CE
330
1F
100
AcDbEntity
  8
외형선
  6
Continuous
 62
     1
370
    15
100
AcDbSpline
210
0.0
220
0.0
230
1.0
 70
     8
 71
     3
 72
     8
 73
     4
 74
     0
 42
0.000000001
 43
0.00000001
 40
0.0
 40
0.0
 40
0.0
 40
0.0
 40
1.0
 40
1.0
 40
1.0
 40
1.0
 10
27.94999999999998
 20
0.8240468249759525
 30
0.0
 10
27.79981457452438
 20
0.9077451760995476
 30
0.0
 10
27.65100819060229
 20
0.9902680720203818
 30
0.0
 10
27.50167542382022
 20
1.071695414312449
 30
0.0
  0
SPLINE
  5
CF
330
1F
100
AcDbEntity
  8
외형선
  6
Continuous
 62
     1
370
    15
100
AcDbSpline
210
0.0
220
0.0
230
1.0
 70
     8
 71
     3
 72
    10
 73
     6
 74
     0
 42
0.000000001
 43
0.00000001
 40
0.0
 40
0.0
 40
0.0
 40
0.0
 40
0.5
 40
0.5
 40
1.0
 40
1.0
 40
1.0
 40
1.0
 10
16.89964774439418
 20
-1.441201006540214
 30
0.0
 10
16.61583662560399
 20
-1.295594756783595
 30
0.0
 10
16.33228895606597
 20
-1.144289162788328
 30
0.0
 10
15.77101984988495
 20
-0.8349085169210948
 30
0.0
 10
15.48635468316393
 20
-0.6755549098275502
 30
0.0
 10
15.20269303813249
 20
-0.5143303191537749
 30
0.0
  0
SPLINE
  5
D0
330
1F
100
AcDbEntity
  8
외형선
  6
Continuous
 62
     1
370
    15
100
AcDbSpline
210
0.0
220
0.0
230
1.0
 70
     8
 71
     3
 72
    12
 73
     8
 74
     0
 42
0.000000001
 43
0.00000001
 40
0.0
 40
0.0
 40
0.0
 40
0.0
 40
0.2500000000000001
 40
0.2500000000000001
 40
0.5000000000000001
 40
0.5000000000000001
 40
1.0
 40
1.0
 40
1.0
 40
1.0
 10
15.20269584050152
 20
-0.5143293363762612
 30
0.0
 10
15.1789392712779
 20
-0.3303133159981019
 30
0.0
 10
15.15522306127818
 20
-0.1437355323438415
 30
0.0
 10
15.10894645942467
 20
0.2259373399352864
 30
0.0
 10
15.08697729306443
 20
0.4074433872308355
 30
0.0
 10
15.01946316256744
 20
0.9474490595019318
 30
0.0
 10
14.97118907089549
 20
1.303844840117358
 30
0.0
 10
14.92391635968245
 20
1.623795517005152
 30
0.0
  0
SPLINE
  5
D1
330
1F
100
AcDbEntity
  8
외형선
  6
Continuous
 62
     1
370
    15
100
AcDbSpline
210
0.0
220
0.0
230
1.0
 70
     8
 71
     3
 72
    10
 73
     6
 74
     0
 42
0.000000001
 43
0.00000001
 40
0.0
 40
0.0
 40
0.0
 40
0.0
 40
0.5
 40
0.5
 40
1.0
 40
1.0
 40
1.0
 40
1.0
 10
16.62191714416888
 20
0.7180519022956355
 30
0.0
 10
16.33802594286616
 20
0.8773495029773388
 30
0.0
 10
16.05808286739673
 20
1.033060091260471
 30
0.0
 10
15.4920597664533
 20
1.336197084034766
 30
0.0
 10
15.20664946388328
 20
1.483457149603772
 30
0.0
 10
14.92391640487532
 20
1.62379519755289
 30
0.0
  0
SPLINE
  5
D2
330
1F
100
AcDbEntity
  8
외형선
  6
Continuous
 62
     1
370
    15
100
AcDbSpline
210
0.0
220
0.0
230
1.0
 70
     8
 71
     3
 72
    10
 73
     6
 74
     0
 42
0.000000001
 43
0.00000001
 40
0.0
 40
0.0
 40
0.0
 40
0.0
 40
0.5
 40
0.5
 40
1.0
 40
1.0
 40
1.0
 40
1.0
 10
26.78108754836939
 20
-0.5488321829990701
 30
0.0
 10
26.49728804977508
 20
-0.3878758792026198
 30
0.0
 10
26.21691963189059
 20
-0.2253947152907068
 30
0.0
 10
25.65243410515352
 20
0.1007768143122929
 30
0.0
 10
25.36731073344173
 20
0.264661527186007
 30
0.0
 10
25.08436750045644
 20
0.4264342336630238
 30
0.0
  0
SPLINE
  5
D3
330
1F
100
AcDbEntity
  8
외형선
  6
Continuous
 62
     1
370
    15
100
AcDbSpline
210
0.0
220
0.0
230
1.0
 70
     8
 71
     3
 72
    12
 73
     8
 74
     0
 42
0.000000001
 43
0.00000001
 40
0.0
 40
0.0
 40
0.0
 40
0.0
 40
0.4999999999999999
 40
0.4999999999999999
 40
0.7499999999999998
 40
0.7499999999999998
 40
1.0
 40
1.0
 40
1.0
 40
1.0
 10
25.08436808828013
 20
0.4264326327812893
 30
0.0
 10
25.04009396449994
 20
0.7879407649307542
 30
0.0
 10
24.99240126423096
 20
1.149897310225911
 30
0.0
 10
24.92104173426378
 20
1.645632498897297
 30
0.0
 10
24.89735775805895
 20
1.802881017672014
 30
0.0
 10
24.85126442958211
 20
2.094733745205376
 30
0.0
 10
24.82945535057864
 20
2.228324648918036
 30
0.0
 10
24.80673192261191
 20
2.35191779817603
 30
0.0
  0
SPLINE
  5
D4
330
1F
100
AcDbEntity
  8
외형선
  6
Continuous
 62
     1
370
    15
100
AcDbSpline
210
0.0
220
0.0
230
1.0
 70
     8
 71
     3
 72
    10
 73
     6
 74
     0
 42
0.000000001
 43
0.00000001
 40
0.0
 40
0.0
 40
0.0
 40
0.0
 40
0.5
 40
0.5
 40
1.0
 40
1.0
 40
1.0
 40
1.0
 10
26.5023056635047
 20
1.593549058153471
 30
0.0
 10
26.21944622206957
 20
1.734745773504644
 30
0.0
 10
25.93981266455849
 20
1.869111435060819
 30
0.0
 10
25.37257458079756
 20
2.123232882381878
 30
0.0
 10
25.08773937286665
 20
2.242493744529588
 30
0.0
 10
24.80673175159115
 20
2.351918879704571
 30
0.0
  0
SPLINE
  5
D5
330
1F
100
AcDbEntity
  8
외형선
  6
Continuous
 62
     1
370
    15
100
AcDbSpline
210
0.0
220
0.0
230
1.0
 70
     8
 71
     3
 72
    12
 73
     8
 74
     0
 42
0.000000001
 43
0.00000001
 40
0.0
 40
0.0
 40
0.0
 40
0.0
 40
0.2500000000000002
 40
0.2500000000000002
 40
0.5000000000000003
 40
0.5000000000000003
 40
1.0
 40
1.0
 40
1.0
 40
1.0
 10
26.78108742927724
 20
-0.5488312599157856
 30
0.0
 10
26.75732986879662
 20
-0.3651644682444476
 30
0.0
 10
26.73357762997994
 20
-0.1786647097187463
 30
0.0
 10
26.68716431840121
 20
0.1913846295107496
 30
0.0
 10
26.66502955598332
 20
0.373510301004207
 30
0.0
 10
26.59782450559631
 20
0.9137471950646274
 30
0.0
 10
26.54963636039173
 20
1.271395880799312
 30
0.0
 10
26.50230572725267
 20
1.593549033149431
 30
0.0
  0
SPLINE
  5
D6
330
1F
100
AcDbEntity
  8
외형선
  6
Continuous
 62
     1
370
    15
100
AcDbSpline
210
0.0
220
0.0
230
1.0
 70
     8
 71
     3
 72
    10
 73
     6
 74
     0
 42
0.000000001
 43
0.00000001
 40
0.0
 40
0.0
 40
0.0
 40
0.0
 40
0.5
 40
0.5
 40
1.0
 40
1.0
 40
1.0
 40
1.0
 10
14.20353705162774
 20
0.0609001836896374
 30
0.0
 10
13.92048512417911
 20
0.224020230801147
 30
0.0
 10
13.63583099353389
 20
0.387200075090761
 30
0.0
 10
13.0733888096569
 20
0.7079174177242098
 30
0.0
 10
12.79206625302949
 20
0.866137097587971
 30
0.0
 10
12.50850448476454
 20
1.020718897777906
 30
0.0
  0
SPLINE
  5
D7
330
1F
100
AcDbEntity
  8
외형선
  6
Continuous
 62
     1
370
    15
100
AcDbSpline
210
0.0
220
0.0
230
1.0
 70
     8
 71
     3
 72
    12
 73
     8
 74
     0
 42
0.000000001
 43
0.00000001
 40
0.0
 40
0.0
 40
0.0
 40
0.0
 40
0.4999999999999998
 40
0.4999999999999998
 40
0.7499999999999999
 40
0.7499999999999999
 40
1.0
 40
1.0
 40
1.0
 40
1.0
 10
12.50850663294791
 20
1.020719289132292
 30
0.0
 10
12.46155532723628
 20
1.372489045537952
 30
0.0
 10
12.41304308443574
 20
1.706267596643398
 30
0.0
 10
12.34443179632175
 20
2.136309521268779
 30
0.0
 10
12.32273157282175
 20
2.2673701512127
 30
0.0
 10
12.27708150990939
 20
2.509839907379984
 30
0.0
 10
12.25355471803042
 20
2.620180222888994
 30
0.0
 10
12.22984959472952
 20
2.716630946685579
 30
0.0
  0
SPLINE
  5
D8
330
1F
100
AcDbEntity
  8
외형선
  6
Continuous
 62
     1
370
    15
100
AcDbSpline
210
0.0
220
0.0
230
1.0
 70
     8
 71
     3
 72
    10
 73
     6
 74
     0
 42
0.000000001
 43
0.00000001
 40
0.0
 40
0.0
 40
0.0
 40
0.0
 40
0.5000000000000003
 40
0.5000000000000003
 40
1.0
 40
1.0
 40
1.0
 40
1.0
 10
13.92556558229531
 20
2.09003865323898
 30
0.0
 10
13.64189081725483
 20
2.212975963389584
 30
0.0
 10
13.36033819061967
 20
2.327304565737077
 30
0.0
 10
12.79779084773986
 20
2.536685600536947
 30
0.0
 10
12.51303929952651
 20
2.632150830413727
 30
0.0
 10
12.22985014217008
 20
2.716630717219042
 30
0.0
  0
SPLINE
  5
D9
330
1F
100
AcDbEntity
  8
외형선
  6
Continuous
 62
     1
370
    15
100
AcDbSpline
210
0.0
220
0.0
230
1.0
 70
     8
 71
     3
 72
    12
 73
     8
 74
     0
 42
0.000000001
 43
0.00000001
 40
0.0
 40
0.0
 40
0.0
 40
0.0
 40
0.2500000000000001
 40
0.2500000000000001
 40
0.5000000000000001
 40
0.5000000000000001
 40
1.0
 40
1.0
 40
1.0
 40
1.0
 10
14.20354065707764
 20
0.0609001226445188
 30
0.0
 10
14.18042135268936
 20
0.2457886361805216
 30
0.0
 10
14.15850951417336
 20
0.4271470344312703
 30
0.0
 10
14.11334027941652
 20
0.7873691086229773
 30
0.0
 10
14.08996736194829
 20
0.9664927134325223
 30
0.0
 10
14.01901929579578
 20
1.488152900508626
 30
0.0
 10
13.97067365454188
 20
1.813895458060602
 30
0.0
 10
13.92556573909577
 20
2.090037657528447
 30
0.0
  0
SPLINE
  5
DA
330
1F
100
AcDbEntity
  8
외형선
  6
Continuous
 62
     1
370
    15
100
AcDbSpline
210
0.0
220
0.0
230
1.0
 70
     8
 71
     3
 72
    10
 73
     6
 74
     0
 42
0.000000001
 43
0.00000001
 40
0.0
 40
0.0
 40
0.0
 40
0.0
 40
0.5
 40
0.5
 40
1.0
 40
1.0
 40
1.0
 40
1.0
 10
17.73153293913905
 20
-1.826245040271867
 30
0.0
 10
17.62965521114971
 20
-1.744128333101409
 30
0.0
 10
17.50966382237246
 20
-1.677567769398705
 30
0.0
 10
17.27599230539434
 20
-1.570630049651514
 30
0.0
 10
17.16254084292349
 20
-1.529947782172325
 30
0.0
 10
17.06655920180113
 20
-1.506848404447527
 30
0.0
  0
SPLINE
  5
DB
330
1F
100
AcDbEntity
  8
외형선
  6
Continuous
 62
     1
370
    15
100
AcDbSpline
210
0.0
220
0.0
230
1.0
 70
     8
 71
     3
 72
    10
 73
     6
 74
     0
 42
0.000000001
 43
0.00000001
 40
0.0
 40
0.0
 40
0.0
 40
0.0
 40
0.5
 40
0.5
 40
1.0
 40
1.0
 40
1.0
 40
1.0
 10
16.78713227466373
 20
0.6216099112629454
 30
0.0
 10
16.88887975689249
 20
0.560922075967842
 30
0.0
 10
17.00893161339516
 20
0.4984399806399897
 30
0.0
 10
17.24242657928838
 20
0.371775738571639
 30
0.0
 10
17.35561063840371
 20
0.3076351201782269
 30
0.0
 10
17.45137304776446
 20
0.2487336112517039
 30
0.0
  0
SPLINE
  5
DC
330
1F
100
AcDbEntity
  8
외형선
  6
Continuous
 62
     1
370
    15
100
AcDbSpline
210
0.0
220
0.0
230
1.0
 70
     8
 71
     3
 72
    14
 73
    10
 74
     0
 42
0.000000001
 43
0.00000001
 40
0.0
 40
0.0
 40
0.0
 40
0.0
 40
0.0000598179652038
 40
0.0000598179652038
 40
0.0000598179652038
 40
0.0001196006192282
 40
0.0001196006192282
 40
0.0001196006192282
 40
0.0002062959812327
 40
0.0002062959812327
 40
0.0002062959812327
 40
0.0002062959812327
 10
26.94865116574967
 20
-0.6398022162439945
 30
0.0
 10
26.93441984895638
 20
-0.632554326303265
 30
0.0
 10
26.91928420347217
 20
-0.6246792471617013
 30
0.0
 10
26.90361420678662
 20
-0.6163646649403096
 30
0.0
 10
26.88794999081997
 20
-0.6080531499986022
 30
0.0
 10
26.87164572782786
 20
-0.5992465852886433
 30
0.0
 10
26.85502606379605
 20
-0.5901325114043379
 30
0.0
 10
26.83100492030921
 20
-0.5769595329310389
 30
0.0
 10
26.80605306332454
 20
-0.5629913236226786
 30
0.0
 10
26.78108754870505
 20
-0.5488321831894407
 30
0.0
  0
SPLINE
  5
DD
330
1F
100
AcDbEntity
  8
외형선
  6
Continuous
 62
     1
370
    15
100
AcDbSpline
210
0.0
220
0.0
230
1.0
 70
     8
 71
     3
 72
     8
 73
     4
 74
     0
 42
0.000000001
 43
0.00000001
 40
0.0
 40
0.0
 40
0.0
 40
0.0
 40
1.0
 40
1.0
 40
1.0
 40
1.0
 10
26.50230572833415
 20
1.593549025792454
 30
0.0
 10
26.55957957404708
 20
1.564959282074625
 30
0.0
 10
26.61786852462084
 20
1.529006423190742
 30
0.0
 10
26.66786270182268
 20
1.491216749667436
 30
0.0
  0
SPLINE
  5
DE
330
1F
100
AcDbEntity
  8
외형선
  6
Continuous
 62
     1
370
    15
100
AcDbSpline
210
0.0
220
0.0
230
1.0
 70
     8
 71
     3
 72
    10
 73
     6
 74
     0
 42
0.000000001
 43
0.00000001
 40
0.0
 40
0.0
 40
0.0
 40
0.0
 40
0.5000000000000001
 40
0.5000000000000001
 40
1.0
 40
1.0
 40
1.0
 40
1.0
 10
26.94865116574125
 20
-0.6398022161803276
 30
0.0
 10
26.90084234910115
 20
-0.2785012797620037
 30
0.0
 10
26.8529492715509
 20
0.09638368306811
 30
0.0
 10
26.7639129742033
 20
0.8098192425811919
 30
0.0
 10
26.71563783708919
 20
1.166997128190046
 30
0.0
 10
26.66786270182387
 20
1.491216749667041
 30
0.0
  0
SPLINE
  5
DF
330
1F
100
AcDbEntity
  8
외형선
  6
Continuous
 62
     1
370
    15
100
AcDbSpline
210
0.0
220
0.0
230
1.0
 70
     8
 71
     3
 72
     8
 73
     4
 74
     0
 42
0.000000001
 43
0.00000001
 40
0.0
 40
0.0
 40
0.0
 40
0.0
 40
1.0
 40
1.0
 40
1.0
 40
1.0
 10
15.20269619933777
 20
-0.5143321158859288
 30
0.0
 10
15.1453977579162
 20
-0.4817654404362781
 30
0.0
 10
15.08711289826573
 20
-0.447743153687613
 30
0.0
 10
15.03712909135128
 20
-0.4200146335364046
 30
0.0
  0
SPLINE
  5
E0
330
1F
100
AcDbEntity
  8
외형선
  6
Continuous
 62
     1
370
    15
100
AcDbSpline
210
0.0
220
0.0
230
1.0
 70
     8
 71
     3
 72
    12
 73
     8
 74
     0
 42
0.000000001
 43
0.00000001
 40
0.0
 40
0.0
 40
0.0
 40
0.0
 40
0.2499999999999999
 40
0.2499999999999999
 40
0.4999999999999998
 40
0.4999999999999998
 40
1.0
 40
1.0
 40
1.0
 40
1.0
 10
15.03712899669972
 20
-0.4200139091685
 30
0.0
 10
15.01322443271611
 20
-0.2370722499058455
 30
0.0
 10
14.98945026227579
 20
-0.0522608912486465
 30
0.0
 10
14.94324372168021
 20
0.3125067651532896
 30
0.0
 10
14.92136886940526
 20
0.4910176834317581
 30
0.0
 10
14.85257456291878
 20
1.024608256596602
 30
0.0
 10
14.80374458565103
 20
1.373692201105325
 30
0.0
 10
14.75635971324253
 20
1.68369963732934
 30
0.0
  0
SPLINE
  5
E1
330
1F
100
AcDbEntity
  8
외형선
  6
Continuous
 62
     1
370
    15
100
AcDbSpline
210
0.0
220
0.0
230
1.0
 70
     8
 71
     3
 72
    14
 73
    10
 74
     0
 42
0.000000001
 43
0.00000001
 40
0.0
 40
0.0
 40
0.0
 40
0.0
 40
0.0000599407267249
 40
0.0000599407267249
 40
0.0000599407267249
 40
0.0001198460344548
 40
0.0001198460344548
 40
0.0001198460344548
 40
0.0002065114527757
 40
0.0002065114527757
 40
0.0002065114527757
 40
0.0002065114527757
 10
14.75635971322899
 20
1.683699637422659
 30
0.0
 10
14.77060261240767
 20
1.681122402669518
 30
0.0
 10
14.78575103943207
 20
1.677476996160948
 30
0.0
 10
14.80143511854487
 20
1.672893230680501
 30
0.0
 10
14.81711340248732
 20
1.668311158873084
 30
0.0
 10
14.83343315040119
 20
1.662761490742457
 30
0.0
 10
14.85007001708471
 20
1.656386131411104
 30
0.0
 10
14.87405912872754
 20
1.647193342307703
 30
0.0
 10
14.89897833563536
 20
1.636173516415701
 30
0.0
 10
14.92391640703988
 20
1.623795196478481
 30
0.0
  0
SPLINE
  5
E2
330
1F
100
AcDbEntity
  8
외형선
  6
Continuous
 62
     1
370
    15
100
AcDbSpline
210
0.0
220
0.0
230
1.0
 70
     8
 71
     3
 72
    14
 73
    10
 74
     0
 42
0.000000001
 43
0.00000001
 40
0.0
 40
0.0
 40
0.0
 40
0.0
 40
0.0000598147031544
 40
0.0000598147031544
 40
0.0000598147031544
 40
0.0001195939822173
 40
0.0001195939822173
 40
0.0001195939822173
 40
0.0002063227486297
 40
0.0002063227486297
 40
0.0002063227486297
 40
0.0002063227486297
 10
25.53669412572939
 20
-3.071076620226504
 30
0.0
 10
25.55092438182404
 20
-3.082820508476458
 30
0.0
 10
25.56605864038393
 20
-3.093199219988119
 30
0.0
 10
25.58172671059271
 20
-3.102083090358313
 30
0.0
 10
25.59738898315794
 20
-3.110963673437029
 30
0.0
 10
25.61369073343374
 20
-3.118412697222789
 30
0.0
 10
25.63030726497636
 20
-3.124337382336536
 30
0.0
 10
25.65433444648098
 20
-3.132904361806394
 30
0.0
 10
25.679291653721
 20
-3.13837197641641
 30
0.0
 10
25.70426140343105
 20
-3.14048798221904
 30
0.0
  0
SPLINE
  5
E3
330
1F
100
AcDbEntity
  8
외형선
  6
Continuous
 62
     1
370
    15
100
AcDbSpline
210
0.0
220
0.0
230
1.0
 70
     8
 71
     3
 72
    10
 73
     6
 74
     0
 42
0.000000001
 43
0.00000001
 40
0.0
 40
0.0
 40
0.0
 40
0.0
 40
0.5
 40
0.5
 40
1.0
 40
1.0
 40
1.0
 40
1.0
 10
24.87066548228741
 20
-2.981095609029166
 30
0.0
 10
24.97260328168466
 20
-2.923171461280893
 30
0.0
 10
25.09286574071391
 20
-2.90745403061305
 30
0.0
 10
25.32693450236837
 20
-2.942142053620789
 30
0.0
 10
25.44051882969199
 20
-2.991705460519733
 30
0.0
 10
25.53669412573086
 20
-3.071076620221305
 30
0.0
  0
SPLINE
  5
E4
330
1F
100
AcDbEntity
  8
외형선
  6
Continuous
 62
     1
370
    15
100
AcDbSpline
210
0.0
220
0.0
230
1.0
 70
     8
 71
     3
 72
     8
 73
     4
 74
     0
 42
0.000000001
 43
0.00000001
 40
0.0
 40
0.0
 40
0.0
 40
0.0
 40
1.0
 40
1.0
 40
1.0
 40
1.0
 10
24.70520114098587
 20
-3.004547490125844
 30
0.0
 10
24.76243610003616
 20
-3.015284017980997
 30
0.0
 10
24.82067692894745
 20
-3.009500620384198
 30
0.0
 10
24.87066548228742
 20
-2.98109560902916
 30
0.0
  0
SPLINE
  5
E5
330
1F
100
AcDbEntity
  8
외형선
  6
Continuous
 62
     1
370
    15
100
AcDbSpline
210
0.0
220
0.0
230
1.0
 70
     8
 71
     3
 72
    10
 73
     6
 74
     0
 42
0.000000001
 43
0.00000001
 40
0.0
 40
0.0
 40
0.0
 40
0.0
 40
0.5
 40
0.5
 40
1.0
 40
1.0
 40
1.0
 40
1.0
 10
24.70520127593142
 20
-3.004547515440138
 30
0.0
 10
24.42462840543557
 20
-2.951915727428869
 30
0.0
 10
24.13993261156318
 20
-2.887104093232427
 30
0.0
 10
23.57236599890422
 20
-2.735158410792161
 30
0.0
 10
23.29235963317538
 20
-2.648383543440002
 30
0.0
 10
23.00975488919687
 20
-2.551230299047567
 30
0.0
  0
SPLINE
  5
E6
330
1F
100
AcDbEntity
  8
외형선
  6
Continuous
 62
     1
370
    15
100
AcDbSpline
210
0.0
220
0.0
230
1.0
 70
     8
 71
     3
 72
    14
 73
    10
 74
     0
 42
0.000000001
 43
0.00000001
 40
0.0
 40
0.0
 40
0.0
 40
0.0
 40
0.0000598177848094
 40
0.0000598177848094
 40
0.0000598177848094
 40
0.0001196001651144
 40
0.0001196001651144
 40
0.0001196001651144
 40
0.0002063253200241
 40
0.0002063253200241
 40
0.0002063253200241
 40
0.0002063253200241
 10
22.84258561705308
 20
-2.446328678573448
 30
0.0
 10
22.85681240656691
 20
-2.460251969136275
 30
0.0
 10
22.87194254145758
 20
-2.473250179115019
 30
0.0
 10
22.88760580368561
 20
-2.485118974869457
 30
0.0
 10
22.90326327358942
 20
-2.496983381505471
 30
0.0
 10
22.91955950514542
 20
-2.507801176254575
 30
0.0
 10
22.93616981208302
 20
-2.517401027258821
 30
0.0
 10
22.9601857717931
 20
-2.531280941447452
 30
0.0
 10
22.98512997820511
 20
-2.542765451698926
 30
0.0
 10
23.01008551469729
 20
-2.551343956421984
 30
0.0
  0
SPLINE
  5
E7
330
1F
100
AcDbEntity
  8
외형선
  6
Continuous
 62
     1
370
    15
100
AcDbSpline
210
0.0
220
0.0
230
1.0
 70
     8
 71
     3
 72
    10
 73
     6
 74
     0
 42
0.000000001
 43
0.00000001
 40
0.0
 40
0.0
 40
0.0
 40
0.0
 40
0.5
 40
0.5
 40
1.0
 40
1.0
 40
1.0
 40
1.0
 10
22.17637384652355
 20
-2.194641594553466
 30
0.0
 10
22.27838174796198
 20
-2.175086061768627
 30
0.0
 10
22.39870672424991
 20
-2.191591386675024
 30
0.0
 10
22.63284273478046
 20
-2.280518190469672
 30
0.0
 10
22.74643182434055
 20
-2.352226126945337
 30
0.0
 10
22.84258561705456
 20
-2.446328678569436
 30
0.0
  0
SPLINE
  5
E8
330
1F
100
AcDbEntity
  8
외형선
  6
Continuous
 62
     1
370
    15
100
AcDbSpline
210
0.0
220
0.0
230
1.0
 70
     8
 71
     3
 72
     8
 73
     4
 74
     0
 42
0.000000001
 43
0.00000001
 40
0.0
 40
0.0
 40
0.0
 40
0.0
 40
1.0
 40
1.0
 40
1.0
 40
1.0
 10
22.01077543674016
 20
-2.168416583107711
 30
0.0
 10
22.06805108161112
 20
-2.192627662161455
 30
0.0
 10
22.12635437022808
 20
-2.204230631233789
 30
0.0
 10
22.17637384652355
 20
-2.194641594553462
 30
0.0
  0
SPLINE
  5
E9
330
1F
100
AcDbEntity
  8
외형선
  6
Continuous
 62
     1
370
    15
100
AcDbSpline
210
0.0
220
0.0
230
1.0
 70
     8
 71
     3
 72
    10
 73
     6
 74
     0
 42
0.000000001
 43
0.00000001
 40
0.0
 40
0.0
 40
0.0
 40
0.0
 40
0.5
 40
0.5
 40
1.0
 40
1.0
 40
1.0
 40
1.0
 10
22.0116922040438
 20
-2.168804077695072
 30
0.0
 10
21.72954292379572
 20
-2.049556975559795
 30
0.0
 10
21.44772711227611
 20
-1.92175397773526
 30
0.0
 10
20.87904680553202
 20
-1.651097857529236
 30
0.0
 10
20.59616029042437
 20
-1.508868426422259
 30
0.0
 10
20.31453394331588
 20
-1.361455456088225
 30
0.0
  0
SPLINE
  5
EA
330
1F
100
AcDbEntity
  8
외형선
  6
Continuous
 62
     1
370
    15
100
AcDbSpline
210
0.0
220
0.0
230
1.0
 70
     8
 71
     3
 72
    14
 73
    10
 74
     0
 42
0.000000001
 43
0.00000001
 40
0.0
 40
0.0
 40
0.0
 40
0.0
 40
0.0000597022120422
 40
0.0000597022120422
 40
0.0000597022120422
 40
0.0001193692808302
 40
0.0001193692808302
 40
0.0001193692808302
 40
0.0002061025932118
 40
0.0002061025932118
 40
0.0002061025932118
 40
0.0002061025932118
 10
20.14768872454609
 20
-1.245669388608187
 30
0.0
 10
20.16187357042309
 20
-1.258482858134583
 30
0.0
 10
20.17695973978581
 20
-1.27103186106579
 30
0.0
 10
20.19257810991186
 20
-1.283085646897764
 30
0.0
 10
20.20819073650816
 20
-1.295135000047149
 30
0.0
 10
20.22444091085948
 20
-1.306771933178001
 30
0.0
 10
20.24100461889818
 20
-1.317786902764269
 30
0.0
 10
20.2650010559052
 20
-1.333744683666557
 30
0.0
 10
20.28992800272975
 20
-1.348576138457223
 30
0.0
 10
20.31486484132203
 20
-1.361628657660934
 30
0.0
  0
SPLINE
  5
EB
330
1F
100
AcDbEntity
  8
외형선
  6
Continuous
 62
     1
370
    15
100
AcDbSpline
210
0.0
220
0.0
230
1.0
 70
     8
 71
     3
 72
    10
 73
     6
 74
     0
 42
0.000000001
 43
0.00000001
 40
0.0
 40
0.0
 40
0.0
 40
0.0
 40
0.5000000000000001
 40
0.5000000000000001
 40
1.0
 40
1.0
 40
1.0
 40
1.0
 10
19.48224041288565
 20
-0.8917631719567362
 30
0.0
 10
19.58416263146492
 20
-0.915088467239115
 30
0.0
 10
19.70438815521626
 20
-0.9598417586671113
 30
0.0
 10
19.93828356101701
 20
-1.081998347986788
 30
0.0
 10
20.05172493654801
 20
-1.158983281204814
 30
0.0
 10
20.14768872454765
 20
-1.245669388606415
 30
0.0
  0
SPLINE
  5
EC
330
1F
100
AcDbEntity
  8
외형선
  6
Continuous
 62
     1
370
    15
100
AcDbSpline
210
0.0
220
0.0
230
1.0
 70
     8
 71
     3
 72
     8
 73
     4
 74
     0
 42
0.000000001
 43
0.00000001
 40
0.0
 40
0.0
 40
0.0
 40
0.0
 40
1.0
 40
1.0
 40
1.0
 40
1.0
 10
19.31672676772885
 20
-0.8222108802166411
 30
0.0
 10
19.37398801670018
 20
-0.8541257390499968
 30
0.0
 10
19.43226372255737
 20
-0.8803258124153902
 30
0.0
 10
19.48224041288567
 20
-0.8917631719567447
 30
0.0
  0
SPLINE
  5
ED
330
1F
100
AcDbEntity
  8
외형선
  6
Continuous
 62
     1
370
    15
100
AcDbSpline
210
0.0
220
0.0
230
1.0
 70
     8
 71
     3
 72
    10
 73
     6
 74
     0
 42
0.000000001
 43
0.00000001
 40
0.0
 40
0.0
 40
0.0
 40
0.0
 40
0.5
 40
0.5
 40
1.0
 40
1.0
 40
1.0
 40
1.0
 10
14.09074609499412
 20
1.989166435515757
 30
0.0
 10
14.19273480737721
 20
1.905062790314442
 30
0.0
 10
14.31306453852281
 20
1.839357772179676
 30
0.0
 10
14.5469863112636
 20
1.73761112670174
 30
0.0
 10
14.66029999856676
 20
1.701081522378607
 30
0.0
 10
14.75635971323064
 20
1.68369963741919
 30
0.0
  0
SPLINE
  5
EE
330
1F
100
AcDbEntity
  8
외형선
  6
Continuous
 62
     1
370
    15
100
AcDbSpline
210
0.0
220
0.0
230
1.0
 70
     8
 71
     3
 72
     8
 73
     4
 74
     0
 42
0.000000001
 43
0.00000001
 40
0.0
 40
0.0
 40
0.0
 40
0.0
 40
1.0
 40
1.0
 40
1.0
 40
1.0
 10
13.92556557600216
 20
2.090038655966831
 30
0.0
 10
13.98273773472293
 20
2.065261720306958
 30
0.0
 10
14.04089411157988
 20
2.030276215487445
 30
0.0
 10
14.0907460949939
 20
1.989166435516084
 30
0.0
  0
SPLINE
  5
EF
330
1F
100
AcDbEntity
  8
외형선
  6
Continuous
 62
     1
370
    15
100
AcDbSpline
210
0.0
220
0.0
230
1.0
 70
     8
 71
     3
 72
    14
 73
    10
 74
     0
 42
0.000000001
 43
0.00000001
 40
0.0
 40
0.0
 40
0.0
 40
0.0
 40
0.0000599092549527
 40
0.0000599092549527
 40
0.0000599092549527
 40
0.0001197832812076
 40
0.0001197832812076
 40
0.0001197832812076
 40
0.0002064072599392
 40
0.0002064072599392
 40
0.0002064072599392
 40
0.0002064072599392
 10
12.06226887262041
 20
2.722467682528936
 30
0.0
 10
12.07651470978282
 20
2.726684497044521
 30
0.0
 10
12.09166589722172
 20
2.729470434636901
 30
0.0
 10
12.10735254494019
 20
2.730848079210718
 30
0.0
 10
12.12303342457647
 20
2.732225217215682
 30
0.0
 10
12.13935560542363
 20
2.732206209875539
 30
0.0
 10
12.15599449492153
 20
2.730840593557279
 30
0.0
 10
12.17998749552918
 20
2.728871397646821
 30
0.0
 10
12.20491000132086
 20
2.724070761782082
 30
0.0
 10
12.22984961227506
 20
2.716630875295249
 30
0.0
  0
SPLINE
  5
F0
330
1F
100
AcDbEntity
  8
외형선
  6
Continuous
 62
     1
370
    15
100
AcDbSpline
210
0.0
220
0.0
230
1.0
 70
     8
 71
     3
 72
    10
 73
     6
 74
     0
 42
0.000000001
 43
0.00000001
 40
0.0
 40
0.0
 40
0.0
 40
0.0
 40
0.5
 40
0.5
 40
1.0
 40
1.0
 40
1.0
 40
1.0
 10
11.39582112460095
 20
2.887485754695597
 30
0.0
 10
11.4979662754738
 20
2.79988926840609
 30
0.0
 10
11.61839952300397
 20
2.746597693658814
 30
0.0
 10
11.85244436745856
 20
2.69393956302521
 30
0.0
 10
11.96600739446901
 20
2.693973969326237
 30
0.0
 10
12.06226887262205
 20
2.722467682523621
 30
0.0
  0
SPLINE
  5
F1
330
1F
100
AcDbEntity
  8
외형선
  6
Continuous
 62
     1
370
    15
100
AcDbSpline
210
0.0
220
0.0
230
1.0
 70
     8
 71
     3
 72
     8
 73
     4
 74
     0
 42
0.000000001
 43
0.00000001
 40
0.0
 40
0.0
 40
0.0
 40
0.0
 40
1.0
 40
1.0
 40
1.0
 40
1.0
 10
11.230326194537
 20
2.969155927230847
 30
0.0
 10
11.28760183612997
 20
2.957470414873453
 30
0.0
 10
11.34586106589186
 20
2.930329938294477
 30
0.0
 10
11.39582112460095
 20
2.887485754695591
 30
0.0
  0
SPLINE
  5
F2
330
1F
100
AcDbEntity
  8
외형선
  6
Continuous
 62
     1
370
    15
100
AcDbSpline
210
0.0
220
0.0
230
1.0
 70
     8
 71
     3
 72
    10
 73
     6
 74
     0
 42
0.000000001
 43
0.00000001
 40
0.0
 40
0.0
 40
0.0
 40
0.0
 40
0.5
 40
0.5
 40
1.0
 40
1.0
 40
1.0
 40
1.0
 10
11.2303262646335
 20
2.969155912929276
 30
0.0
 10
11.02447097699151
 20
3.011154998793682
 30
0.0
 10
10.81806265737519
 20
3.046960264056966
 30
0.0
 10
10.40800919642217
 20
3.105562405903584
 30
0.0
 10
10.205256574712
 20
3.12836345553603
 30
0.0
 10
9.99999999999999
 20
3.144691917191274
 30
0.0
  0
LINE
  5
F3
330
1F
100
AcDbEntity
  8
외형선
  6
Continuous
 62
     1
370
    15
100
AcDbLine
 10
13.20824772390258
 20
2.377030189582211
 30
0.0
 11
13.30667101935241
 21
2.416738459857201
 31
0.0
  0
SPLINE
  5
F4
330
1F
100
AcDbEntity
  8
외형선
  6
Continuous
 62
     1
370
    15
100
AcDbSpline
210
0.0
220
0.0
230
1.0
 70
     8
 71
     3
 72
    14
 73
    10
 74
     0
 42
0.000000001
 43
0.00000001
 40
0.0
 40
0.0
 40
0.0
 40
0.0
 40
0.0000598673516999
 40
0.0000598673516999
 40
0.0000598673516999
 40
0.0001196987311885
 40
0.0001196987311885
 40
0.0001196987311885
 40
0.0002065555655554
 40
0.0002065555655554
 40
0.0002065555655554
 40
0.0002065555655554
 10
13.47416441949033
 20
2.441296080356323
 30
0.0
 10
13.45993123617993
 20
2.443310055313855
 30
0.0
 10
13.4447949040002
 20
2.443975862143556
 30
0.0
 10
13.42912655885367
 20
2.443353291430594
 30
0.0
 10
13.41346409271087
 20
2.442730954315725
 30
0.0
 10
13.39716400830101
 20
2.440818640064188
 30
0.0
 10
13.38055111724272
 20
2.437699709577573
 30
0.0
 10
13.35651451977193
 20
2.433187040687912
 30
0.0
 10
13.33155170696621
 20
2.426088843007398
 30
0.0
 10
13.30657885341758
 20
2.416703823457774
 30
0.0
  0
SPLINE
  5
F5
330
1F
100
AcDbEntity
  8
외형선
  6
Continuous
 62
     1
370
    15
100
AcDbSpline
210
0.0
220
0.0
230
1.0
 70
     8
 71
     3
 72
    10
 73
     6
 74
     0
 42
0.000000001
 43
0.00000001
 40
0.0
 40
0.0
 40
0.0
 40
0.0
 40
0.5
 40
0.5
 40
1.0
 40
1.0
 40
1.0
 40
1.0
 10
14.13978737738586
 20
2.657944918470043
 30
0.0
 10
14.03786949614449
 20
2.569273570153892
 30
0.0
 10
13.91760483624414
 20
2.510341223631959
 30
0.0
 10
13.68365313490378
 20
2.439860079654093
 30
0.0
 10
13.57020810915692
 20
2.427706036470902
 30
0.0
 10
13.47416441949033
 20
2.441296080356323
 30
0.0
  0
SPLINE
  5
F6
330
1F
100
AcDbEntity
  8
외형선
  6
Continuous
 62
     1
370
    15
100
AcDbSpline
210
0.0
220
0.0
230
1.0
 70
     8
 71
     3
 72
     8
 73
     4
 74
     0
 42
0.000000001
 43
0.00000001
 40
0.0
 40
0.0
 40
0.0
 40
0.0
 40
1.0
 40
1.0
 40
1.0
 40
1.0
 10
14.30504488151631
 20
2.748447204027578
 30
0.0
 10
14.24786444415709
 20
2.731928891845746
 30
0.0
 10
14.1896777594876
 20
2.701350917447592
 30
0.0
 10
14.13978737738633
 20
2.657944918470452
 30
0.0
  0
SPLINE
  5
F7
330
1F
100
AcDbEntity
  8
외형선
  6
Continuous
 62
     1
370
    15
100
AcDbSpline
210
0.0
220
0.0
230
1.0
 70
     8
 71
     3
 72
    10
 73
     6
 74
     0
 42
0.000000001
 43
0.00000001
 40
0.0
 40
0.0
 40
0.0
 40
0.0
 40
0.5
 40
0.5
 40
1.0
 40
1.0
 40
1.0
 40
1.0
 10
16.00057279473172
 20
3.101247465697337
 30
0.0
 10
15.71944629415546
 20
3.066339316350336
 30
0.0
 10
15.43458853429586
 20
3.01895811998634
 30
0.0
 10
14.86750093937351
 20
2.900725635197437
 30
0.0
 10
14.58797095597425
 20
2.830178859010132
 30
0.0
 10
14.30505157408019
 20
2.748449137376528
 30
0.0
  0
SPLINE
  5
F8
330
1F
100
AcDbEntity
  8
외형선
  6
Continuous
 62
     1
370
    15
100
AcDbSpline
210
0.0
220
0.0
230
1.0
 70
     8
 71
     3
 72
    14
 73
    10
 74
     0
 42
0.000000001
 43
0.00000001
 40
0.0
 40
0.0
 40
0.0
 40
0.0
 40
0.0000599918728439
 40
0.0000599918728439
 40
0.0000599918728439
 40
0.0001199474051182
 40
0.0001199474051182
 40
0.0001199474051182
 40
0.0002067434241313
 40
0.0002067434241313
 40
0.0002067434241313
 40
0.0002067434241313
 10
16.16820245242575
 20
3.0695225502602
 30
0.0
 10
16.15394653319035
 20
3.077814052157968
 30
0.0
 10
16.13878742455895
 20
3.084611242535823
 30
0.0
 10
16.1230972246585
 20
3.089862839800859
 30
0.0
 10
16.10741295846118
 20
3.095112451022422
 30
0.0
 10
16.09109351880454
 20
3.098854263449145
 30
0.0
 10
16.07445720393109
 20
3.101075459038321
 30
0.0
 10
16.05045279513852
 20
3.104280404805245
 30
0.0
 10
16.02551795868313
 20
3.104344993199455
 30
0.0
 10
16.0005620944155
 20
3.101246137007741
 30
0.0
  0
SPLINE
  5
F9
330
1F
100
AcDbEntity
  8
외형선
  6
Continuous
 62
     1
370
    15
100
AcDbSpline
210
0.0
220
0.0
230
1.0
 70
     8
 71
     3
 72
    10
 73
     6
 74
     0
 42
0.000000001
 43
0.00000001
 40
0.0
 40
0.0
 40
0.0
 40
0.0
 40
0.5
 40
0.5
 40
1.0
 40
1.0
 40
1.0
 40
1.0
 10
16.83452418085051
 20
3.115679146460544
 30
0.0
 10
16.73243335802644
 20
3.037550856331559
 30
0.0
 10
16.61201265726491
 20
2.999953661701061
 30
0.0
 10
16.37783872093755
 20
2.988402267936211
 30
0.0
 10
16.26431885657259
 20
3.013619501552483
 30
0.0
 10
16.16820245242575
 20
3.0695225502602
 30
0.0
  0
SPLINE
  5
FA
330
1F
100
AcDbEntity
  8
외형선
  6
Continuous
 62
     1
370
    15
100
AcDbSpline
210
0.0
220
0.0
230
1.0
 70
     8
 71
     3
 72
     8
 73
     4
 74
     0
 42
0.000000001
 43
0.00000001
 40
0.0
 40
0.0
 40
0.0
 40
0.0
 40
1.0
 40
1.0
 40
1.0
 40
1.0
 10
17.00003317614614
 20
3.173140220122386
 30
0.0
 10
16.94276422032341
 20
3.172011258593228
 30
0.0
 10
16.88449331745118
 20
3.153919637562686
 30
0.0
 10
16.83452418085098
 20
3.115679146460903
 30
0.0
  0
SPLINE
  5
FB
330
1F
100
AcDbEntity
  8
외형선
  6
Continuous
 62
     1
370
    15
100
AcDbSpline
210
0.0
220
0.0
230
1.0
 70
     8
 71
     3
 72
    10
 73
     6
 74
     0
 42
0.000000001
 43
0.00000001
 40
0.0
 40
0.0
 40
0.0
 40
0.0
 40
0.5
 40
0.5
 40
1.0
 40
1.0
 40
1.0
 40
1.0
 10
18.69522581885104
 20
3.056580659653679
 30
0.0
 10
18.41292596656337
 20
3.100695164403786
 30
0.0
 10
18.1279928366793
 20
3.132782603474233
 30
0.0
 10
17.5629617410565
 20
3.171747053816175
 30
0.0
 10
17.28346062283669
 20
3.178727515747704
 30
0.0
 10
17.00003323355795
 20
3.173140221254153
 30
0.0
  0
SPLINE
  5
FC
330
1F
100
AcDbEntity
  8
외형선
  6
Continuous
 62
     1
370
    15
100
AcDbSpline
210
0.0
220
0.0
230
1.0
 70
     8
 71
     3
 72
    14
 73
    10
 74
     0
 42
0.000000001
 43
0.00000001
 40
0.0
 40
0.0
 40
0.0
 40
0.0
 40
0.0000598761154231
 40
0.0000598761154231
 40
0.0000598761154231
 40
0.0001197173629555
 40
0.0001197173629555
 40
0.0001197173629555
 40
0.0002062730336386
 40
0.0002062730336386
 40
0.0002062730336386
 40
0.0002062730336386
 10
18.86256782028202
 20
2.975937375946704
 30
0.0
 10
18.84834386703544
 20
2.988560078442682
 30
0.0
 10
18.83321522938428
 20
2.99990255405952
 30
0.0
 10
18.81755073823584
 20
3.009810771307329
 30
0.0
 10
18.80189195380218
 20
3.019715378902625
 30
0.0
 10
18.78559157786598
 20
3.028255822140013
 30
0.0
 10
18.76897364410817
 20
3.035313793316214
 30
0.0
 10
18.74501680524824
 20
3.045488745305464
 30
0.0
 10
18.72012896157004
 20
3.052689098190361
 30
0.0
 10
18.6952222690888
 20
3.056581214368172
 30
0.0
  0
SPLINE
  5
FD
330
1F
100
AcDbEntity
  8
외형선
  6
Continuous
 62
     1
370
    15
100
AcDbSpline
210
0.0
220
0.0
230
1.0
 70
     8
 71
     3
 72
    10
 73
     6
 74
     0
 42
0.000000001
 43
0.00000001
 40
0.0
 40
0.0
 40
0.0
 40
0.0
 40
0.5
 40
0.5
 40
1.0
 40
1.0
 40
1.0
 40
1.0
 10
19.52861681227165
 20
2.840024905250468
 30
0.0
 10
19.42652115656316
 20
2.790898288497418
 30
0.0
 10
19.30612360715315
 20
2.783545715085081
 30
0.0
 10
19.07206546724539
 20
2.833866424070033
 30
0.0
 10
18.95866428018124
 20
2.890658902150003
 30
0.0
 10
18.86256782028202
 20
2.975937375946709
 30
0.0
  0
SPLINE
  5
FE
330
1F
100
AcDbEntity
  8
외형선
  6
Continuous
 62
     1
370
    15
100
AcDbSpline
210
0.0
220
0.0
230
1.0
 70
     8
 71
     3
 72
     8
 73
     4
 74
     0
 42
0.000000001
 43
0.00000001
 40
0.0
 40
0.0
 40
0.0
 40
0.0
 40
1.0
 40
1.0
 40
1.0
 40
1.0
 10
19.69416227573801
 20
2.850906393906206
 30
0.0
 10
19.6368747909978
 20
2.865422859631319
 30
0.0
 10
19.57859324299679
 20
2.864072676351632
 30
0.0
 10
19.52861681227213
 20
2.840024905250695
 30
0.0
  0
SPLINE
  5
FF
330
1F
100
AcDbEntity
  8
외형선
  6
Continuous
 62
     1
370
    15
100
AcDbSpline
210
0.0
220
0.0
230
1.0
 70
     8
 71
     3
 72
    10
 73
     6
 74
     0
 42
0.000000001
 43
0.00000001
 40
0.0
 40
0.0
 40
0.0
 40
0.0
 40
0.5
 40
0.5
 40
1.0
 40
1.0
 40
1.0
 40
1.0
 10
21.39045953212033
 20
2.292342420158972
 30
0.0
 10
21.10715759181618
 20
2.405313506285407
 30
0.0
 10
20.8223205921752
 20
2.50933740132549
 30
0.0
 10
20.25966585988003
 20
2.695937720500469
 30
0.0
 10
19.97793308585001
 20
2.778999775326699
 30
0.0
 10
19.69416232544754
 20
2.850906381310113
 30
0.0
  0
SPLINE
  5
100
330
1F
100
AcDbEntity
  8
외형선
  6
Continuous
 62
     1
370
    15
100
AcDbSpline
210
0.0
220
0.0
230
1.0
 70
     8
 71
     3
 72
    14
 73
    10
 74
     0
 42
0.000000001
 43
0.00000001
 40
0.0
 40
0.0
 40
0.0
 40
0.0
 40
0.0000595233148439
 40
0.0000595233148439
 40
0.0000595233148439
 40
0.0001190118208921
 40
0.0001190118208921
 40
0.0001190118208921
 40
0.0002057626075662
 40
0.0002057626075662
 40
0.0002057626075662
 40
0.0002057626075662
 10
21.55847787813167
 20
2.181734441435766
 30
0.0
 10
21.54434219943254
 20
2.195643185948133
 30
0.0
 10
21.5293046745699
 20
2.208786063664529
 30
0.0
 10
21.51373233250858
 20
2.220946005816142
 30
0.0
 10
21.49816567986184
 20
2.2331015052865
 30
0.0
 10
21.48195914139729
 20
2.244358573254912
 30
0.0
 10
21.46543554274641
 20
2.254531029511043
 30
0.0
 10
21.44142165403897
 20
2.269314748093
 30
0.0
 10
21.41646362892912
 20
2.281970806317499
 30
0.0
 10
21.39148980900607
 20
2.291931539219027
 30
0.0
  0
SPLINE
  5
101
330
1F
100
AcDbEntity
  8
외형선
  6
Continuous
 62
     1
370
    15
100
AcDbSpline
210
0.0
220
0.0
230
1.0
 70
     8
 71
     3
 72
    10
 73
     6
 74
     0
 42
0.000000001
 43
0.00000001
 40
0.0
 40
0.0
 40
0.0
 40
0.0
 40
0.5000000000000002
 40
0.5000000000000002
 40
1.0
 40
1.0
 40
1.0
 40
1.0
 10
22.22319973986294
 20
1.895897316514774
 30
0.0
 10
22.1213204220473
 20
1.887369010236928
 30
0.0
 10
22.00119545149143
 20
1.911995387285305
 30
0.0
 10
21.76770822727366
 20
2.012425003371989
 30
0.0
 10
21.65439599444025
 20
2.08735619457269
 30
0.0
 10
21.55847787813167
 20
2.181734441435768
 30
0.0
  0
SPLINE
  5
102
330
1F
100
AcDbEntity
  8
외형선
  6
Continuous
 62
     1
370
    15
100
AcDbSpline
210
0.0
220
0.0
230
1.0
 70
     8
 71
     3
 72
     8
 73
     4
 74
     0
 42
0.000000001
 43
0.00000001
 40
0.0
 40
0.0
 40
0.0
 40
0.0
 40
1.0
 40
1.0
 40
1.0
 40
1.0
 10
22.38856565733531
 20
1.85763522049279
 30
0.0
 10
22.33132997029255
 20
1.884372114458363
 30
0.0
 10
22.27311168655975
 20
1.900075439979543
 30
0.0
 10
22.22319973986341
 20
1.895897316514812
 30
0.0
  0
SPLINE
  5
103
330
1F
100
AcDbEntity
  8
외형선
  6
Continuous
 62
     1
370
    15
100
AcDbSpline
210
0.0
220
0.0
230
1.0
 70
     8
 71
     3
 72
    10
 73
     6
 74
     0
 42
0.000000001
 43
0.00000001
 40
0.0
 40
0.0
 40
0.0
 40
0.0
 40
0.5
 40
0.5
 40
1.0
 40
1.0
 40
1.0
 40
1.0
 10
24.08685389309119
 20
0.9875535423597424
 30
0.0
 10
23.80280633747621
 20
1.142983743930327
 30
0.0
 10
23.51928952247697
 20
1.29436752134936
 30
0.0
 10
22.95735439204791
 20
1.584841298095206
 30
0.0
 10
22.67241943296633
 20
1.72503668490366
 30
0.0
 10
22.38856564098409
 20
1.857635228131304
 30
0.0
  0
SPLINE
  5
104
330
1F
100
AcDbEntity
  8
외형선
  6
Continuous
 62
     1
370
    15
100
AcDbSpline
210
0.0
220
0.0
230
1.0
 70
     8
 71
     3
 72
    14
 73
    10
 74
     0
 42
0.000000001
 43
0.00000001
 40
0.0
 40
0.0
 40
0.0
 40
0.0
 40
0.0000597287811539
 40
0.0000597287811539
 40
0.0000597287811539
 40
0.0001194223814588
 40
0.0001194223814588
 40
0.0001194223814588
 40
0.0002061404682933
 40
0.0002061404682933
 40
0.0002061404682933
 40
0.0002061404682933
 10
24.25425743297273
 20
0.8735430572357514
 30
0.0
 10
24.24005507166965
 20
0.8855445944180189
 30
0.0
 10
24.22494894724039
 20
0.8974646818135219
 30
0.0
 10
24.2093081168379
 20
0.9090741621813336
 30
0.0
 10
24.19367304318292
 20
0.9206793695760609
 30
0.0
 10
24.17739775613126
 20
0.9320533827378097
 30
0.0
 10
24.16080631732967
 20
0.9429845560057644
 30
0.0
 10
24.13678446559967
 20
0.9588112137548657
 30
0.0
 10
24.1118271975227
 20
0.9738882037369814
 30
0.0
 10
24.08685510441099
 20
0.9875528795281763
 30
0.0
  0
SPLINE
  5
105
330
1F
100
AcDbEntity
  8
외형선
  6
Continuous
 62
     1
370
    15
100
AcDbSpline
210
0.0
220
0.0
230
1.0
 70
     8
 71
     3
 72
    10
 73
     6
 74
     0
 42
0.000000001
 43
0.00000001
 40
0.0
 40
0.0
 40
0.0
 40
0.0
 40
0.5000000000000029
 40
0.5000000000000029
 40
1.0
 40
1.0
 40
1.0
 40
1.0
 10
24.91932324616218
 20
0.5048694062604774
 30
0.0
 10
24.8174825135287
 20
0.5390083089371723
 30
0.0
 10
24.69746800546985
 20
0.5901780123798848
 30
0.0
 10
24.46376120212613
 20
0.7169847408688492
 30
0.0
 10
24.35032484300834
 20
0.7923624303707901
 30
0.0
 10
24.25425743297273
 20
0.8735430572357537
 30
0.0
  0
SPLINE
  5
106
330
1F
100
AcDbEntity
  8
외형선
  6
Continuous
 62
     1
370
    15
100
AcDbSpline
210
0.0
220
0.0
230
1.0
 70
     8
 71
     3
 72
     8
 73
     4
 74
     0
 42
0.000000001
 43
0.00000001
 40
0.0
 40
0.0
 40
0.0
 40
0.0
 40
1.0
 40
1.0
 40
1.0
 40
1.0
 10
25.08436792171633
 20
0.426433992807503
 30
0.0
 10
25.02723196091723
 20
0.459101461002058
 30
0.0
 10
24.96913107695454
 20
0.4881728974668553
 30
0.0
 10
24.91932324616266
 20
0.5048694062603187
 30
0.0
  0
SPLINE
  5
107
330
1F
100
AcDbEntity
  8
외형선
  6
Continuous
 62
     1
370
    15
100
AcDbSpline
210
0.0
220
0.0
230
1.0
 70
     8
 71
     3
 72
    10
 73
     6
 74
     0
 42
0.000000001
 43
0.00000001
 40
0.0
 40
0.0
 40
0.0
 40
0.0
 40
0.5
 40
0.5
 40
1.0
 40
1.0
 40
1.0
 40
1.0
 10
27.61480396997966
 20
-1.004427312895906
 30
0.0
 10
27.51285457457315
 20
-0.9354827202921181
 30
0.0
 10
27.39260031736631
 20
-0.8702597991322283
 30
0.0
 10
27.1585017626238
 20
-0.7469739473697224
 30
0.0
 10
27.04487474832102
 20
-0.6888080774942141
 30
0.0
 10
26.94865116574968
 20
-0.6398022162439967
 30
0.0
  0
SPLINE
  5
108
330
1F
100
AcDbEntity
  8
외형선
  6
Continuous
 62
     1
370
    15
100
AcDbSpline
210
0.0
220
0.0
230
1.0
 70
     8
 71
     3
 72
    10
 73
     6
 74
     0
 42
0.000000001
 43
0.00000001
 40
0.0
 40
0.0
 40
0.0
 40
0.0
 40
0.5
 40
0.5
 40
1.0
 40
1.0
 40
1.0
 40
1.0
 10
29.0383339466485
 20
-1.43434813339096
 30
0.0
 10
28.87386308757288
 20
-1.406847604866195
 30
0.0
 10
28.69580666555999
 20
-1.373992580240275
 30
0.0
 10
28.32980333754325
 20
-1.294953318147198
 30
0.0
 10
28.14130052238627
 20
-1.248947464755493
 30
0.0
 10
27.94999999999999
 20
-1.196455089823405
 30
0.0
  0
SPLINE
  5
109
330
1F
100
AcDbEntity
  8
외형선
  6
Continuous
 62
     1
370
    15
100
AcDbSpline
210
0.0
220
0.0
230
1.0
 70
     8
 71
     3
 72
    11
 73
     7
 74
     0
 42
0.000000001
 43
0.00000001
 40
0.0
 40
0.0
 40
0.0
 40
0.0
 40
0.0579851010294325
 40
0.3363230945527663
 40
0.6227398144458205
 40
0.9999999999999999
 40
0.9999999999999999
 40
0.9999999999999999
 40
0.9999999999999999
 10
28.78437489095143
 20
-1.386104060584251
 30
0.0
 10
28.77308773516287
 20
-1.385246281140202
 30
0.0
 10
28.70762038068543
 20
-1.380271019703299
 30
0.0
 10
28.55777322037036
 20
-1.406339450626599
 30
0.0
 10
28.31696276353481
 20
-1.470185692437292
 30
0.0
 10
28.12909994755393
 20
-1.5532083543048
 30
0.0
 10
28.02231129748342
 20
-1.6004017168646
 30
0.0
  0
SPLINE
  5
10A
330
1F
100
AcDbEntity
  8
외형선
  6
Continuous
 62
     1
370
    15
100
AcDbSpline
210
0.0
220
0.0
230
1.0
 70
     8
 71
     3
 72
     8
 73
     4
 74
     0
 42
0.000000001
 43
0.00000001
 40
0.0
 40
0.0
 40
0.0
 40
0.0
 40
1.0
 40
1.0
 40
1.0
 40
1.0
 10
29.04999999999999
 20
-1.856130954124574
 30
0.0
 10
28.69839583784911
 20
-1.802465666754331
 30
0.0
 10
28.35618999677533
 20
-1.715975509577161
 30
0.0
 10
28.02231129748385
 20
-1.60040171686282
 30
0.0
  0
LINE
  5
10B
330
1F
100
AcDbEntity
  8
외형선
  6
Continuous
 62
     1
370
    15
100
AcDbLine
 10
29.04999999999999
 20
-1.992647066881753
 30
0.0
 11
29.04999999999999
 21
-1.856130954124572
 31
0.0
  0
SPLINE
  5
10C
330
1F
100
AcDbEntity
  8
외형선
  6
Continuous
 62
     1
370
    15
100
AcDbSpline
210
0.0
220
0.0
230
1.0
 70
     8
 71
     3
 72
    10
 73
     6
 74
     0
 42
0.000000001
 43
0.00000001
 40
0.0
 40
0.0
 40
0.0
 40
0.0
 40
0.5
 40
0.5
 40
1.0
 40
1.0
 40
1.0
 40
1.0
 10
28.08015745595283
 20
-2.927605793909981
 30
0.0
 10
28.2382258884696
 20
-2.75921002695804
 30
0.0
 10
28.39854243938382
 20
-2.593872594027742
 30
0.0
 10
28.72812783461552
 20
-2.274028173438378
 30
0.0
 10
28.89162174755508
 20
-2.125708998944344
 30
0.0
 10
29.04999999999999
 20
-1.992647066881754
 30
0.0
  0
SPLINE
  5
10D
330
1F
100
AcDbEntity
  8
외형선
  6
Continuous
 62
     1
370
    15
100
AcDbSpline
210
0.0
220
0.0
230
1.0
 70
     8
 71
     3
 72
     8
 73
     4
 74
     0
 42
0.000000001
 43
0.00000001
 40
0.0
 40
0.0
 40
0.0
 40
0.0
 40
1.0
 40
1.0
 40
1.0
 40
1.0
 10
27.56625034319991
 20
-3.066204547926003
 30
0.0
 10
27.72016622791729
 20
-2.940989733968878
 30
0.0
 10
27.9151927192457
 20
-2.902455102476936
 30
0.0
 10
28.08015745595286
 20
-2.927605793909902
 30
0.0
  0
SPLINE
  5
10E
330
1F
100
AcDbEntity
  8
외형선
  6
Continuous
 62
     1
370
    15
100
AcDbSpline
210
0.0
220
0.0
230
1.0
 70
     8
 71
     3
 72
     8
 73
     4
 74
     0
 42
0.000000001
 43
0.00000001
 40
0.0
 40
0.0
 40
0.0
 40
0.0
 40
1.0
 40
1.0
 40
1.0
 40
1.0
 10
27.40118473550443
 20
-3.133950476740975
 30
0.0
 10
27.45832758604434
 20
-3.128654822908268
 30
0.0
 10
27.51643114049465
 20
-3.106733842284953
 30
0.0
 10
27.56625034319991
 20
-3.066204547925991
 30
0.0
  0
SPLINE
  5
10F
330
1F
100
AcDbEntity
  8
외형선
  6
Continuous
 62
     1
370
    15
100
AcDbSpline
210
0.0
220
0.0
230
1.0
 70
     8
 71
     3
 72
    10
 73
     6
 74
     0
 42
0.000000001
 43
0.00000001
 40
0.0
 40
0.0
 40
0.0
 40
0.0
 40
0.5
 40
0.5
 40
1.0
 40
1.0
 40
1.0
 40
1.0
 10
27.40118476067057
 20
-3.133950474408581
 30
0.0
 10
27.11894647446932
 20
-3.16010661276328
 30
0.0
 10
26.8336645404153
 20
-3.17386361897247
 30
0.0
 10
26.26715127130752
 20
-3.176000589048818
 30
0.0
 10
25.98755269295781
 20
-3.164504378935496
 30
0.0
 10
25.70393500692081
 20
-3.140460317000049
 30
0.0
  0
LINE
  5
110
330
1F
100
AcDbEntity
  8
외형선
  6
Continuous
 62
     1
370
    15
100
AcDbLine
 10
18.969250720573
 20
-2.376983564345363
 30
0.0
 11
18.5185042758479
 21
-2.546396197395861
 31
0.0
  0
SPLINE
  5
111
330
1F
100
AcDbEntity
  8
외형선
  6
Continuous
 62
     1
370
    15
100
AcDbSpline
210
0.0
220
0.0
230
1.0
 70
     8
 71
     3
 72
    14
 73
    10
 74
     0
 42
0.000000001
 43
0.00000001
 40
0.0
 40
0.0
 40
0.0
 40
0.0
 40
0.0000597754389019
 40
0.0000597754389019
 40
0.0000597754389019
 40
0.000119515748689
 40
0.000119515748689
 40
0.000119515748689
 40
0.0002061887171295
 40
0.0002061887171295
 40
0.0002061887171295
 40
0.0002061887171295
 10
18.35106188902308
 20
-2.563207724280787
 30
0.0
 10
18.36528024397921
 20
-2.566137864744208
 30
0.0
 10
18.38040206740027
 20
-2.567686400954881
 30
0.0
 10
18.39605776104366
 20
-2.567896585022999
 30
0.0
 10
18.41170770478376
 20
-2.568106691896322
 30
0.0
 10
18.42799713180219
 20
-2.566982538243212
 30
0.0
 10
18.44460154075339
 20
-2.564592685125404
 30
0.0
 10
18.46861123294264
 20
-2.561136998271101
 30
0.0
 10
18.49355155535227
 20
-2.554986706670645
 30
0.0
 10
18.5185043443519
 20
-2.546396173811891
 30
0.0
  0
SPLINE
  5
112
330
1F
100
AcDbEntity
  8
외형선
  6
Continuous
 62
     1
370
    15
100
AcDbSpline
210
0.0
220
0.0
230
1.0
 70
     8
 71
     3
 72
    10
 73
     6
 74
     0
 42
0.000000001
 43
0.00000001
 40
0.0
 40
0.0
 40
0.0
 40
0.0
 40
0.5
 40
0.5
 40
1.0
 40
1.0
 40
1.0
 40
1.0
 10
17.68485866354711
 20
-2.75951068754414
 30
0.0
 10
17.78684482199268
 20
-2.670979511059992
 30
0.0
 10
17.90713574587666
 20
-2.614044153794011
 30
0.0
 10
18.14126091943824
 20
-2.550565329192138
 30
0.0
 10
18.25488137008164
 20
-2.543386694965644
 30
0.0
 10
18.35106188902494
 20
-2.563207724276539
 30
0.0
  0
SPLINE
  5
113
330
1F
100
AcDbEntity
  8
외형선
  6
Continuous
 62
     1
370
    15
100
AcDbSpline
210
0.0
220
0.0
230
1.0
 70
     8
 71
     3
 72
     8
 73
     4
 74
     0
 42
0.000000001
 43
0.00000001
 40
0.0
 40
0.0
 40
0.0
 40
0.0
 40
1.0
 40
1.0
 40
1.0
 40
1.0
 10
17.51921119016715
 20
-2.847038562847967
 30
0.0
 10
17.57649732922334
 20
-2.832319421232773
 30
0.0
 10
17.63480806947158
 20
-2.802958132224594
 30
0.0
 10
17.6848586635471
 20
-2.75951068754414
 30
0.0
  0
SPLINE
  5
114
330
1F
100
AcDbEntity
  8
외형선
  6
Continuous
 62
     1
370
    15
100
AcDbSpline
210
0.0
220
0.0
230
1.0
 70
     8
 71
     3
 72
    10
 73
     6
 74
     0
 42
0.000000001
 43
0.00000001
 40
0.0
 40
0.0
 40
0.0
 40
0.0
 40
0.5000000000000007
 40
0.5000000000000007
 40
1.0
 40
1.0
 40
1.0
 40
1.0
 10
17.5192111370397
 20
-2.847038576498566
 30
0.0
 10
17.23861721891684
 20
-2.919134577360254
 30
0.0
 10
16.95382271881289
 20
-2.980282255586339
 30
0.0
 10
16.38591317462526
 20
-3.078234796888832
 30
0.0
 10
16.10566148935841
 20
-3.114977782811875
 30
0.0
 10
15.82298458914379
 20
-3.139370766265499
 30
0.0
  0
SPLINE
  5
115
330
1F
100
AcDbEntity
  8
외형선
  6
Continuous
 62
     1
370
    15
100
AcDbSpline
210
0.0
220
0.0
230
1.0
 70
     8
 71
     3
 72
    14
 73
    10
 74
     0
 42
0.000000001
 43
0.00000001
 40
0.0
 40
0.0
 40
0.0
 40
0.0
 40
0.0000596097711309
 40
0.0000596097711309
 40
0.0000596097711309
 40
0.0001191848096989
 40
0.0001191848096989
 40
0.0001191848096989
 40
0.0002058569968923
 40
0.0002058569968923
 40
0.0002058569968923
 40
0.0002058569968923
 10
15.65591905163316
 20
-3.100218625621701
 30
0.0
 10
15.67008500770162
 20
-3.109217579969445
 30
0.0
 10
15.68515213392958
 20
-3.116744251205157
 30
0.0
 10
15.7007523042123
 20
-3.122728965284113
 30
0.0
 10
15.71634679473157
 20
-3.128711500427857
 30
0.0
 10
15.73257959171612
 20
-3.133195760234002
 30
0.0
 10
15.7491270019745
 20
-3.136147305778144
 30
0.0
 10
15.77311947736088
 20
-3.140426820379758
 30
0.0
 10
15.79804662371528
 20
-3.141522733326083
 30
0.0
 10
15.82298458912141
 20
-3.139370766267437
 30
0.0
  0
SPLINE
  5
116
330
1F
100
AcDbEntity
  8
외형선
  6
Continuous
 62
     1
370
    15
100
AcDbSpline
210
0.0
220
0.0
230
1.0
 70
     8
 71
     3
 72
    10
 73
     6
 74
     0
 42
0.000000001
 43
0.00000001
 40
0.0
 40
0.0
 40
0.0
 40
0.0
 40
0.5
 40
0.5
 40
1.0
 40
1.0
 40
1.0
 40
1.0
 10
14.99068603492816
 20
-3.121648520116702
 30
0.0
 10
15.09254449524429
 20
-3.046589431896995
 30
0.0
 10
15.21269853532958
 20
-3.01256503920652
 30
0.0
 10
15.44652158608675
 20
-3.009306752435874
 30
0.0
 10
15.55996652251753
 20
-3.039264573176248
 30
0.0
 10
15.65591905163506
 20
-3.100218625616674
 30
0.0
  0
SPLINE
  5
117
330
1F
100
AcDbEntity
  8
외형선
  6
Continuous
 62
     1
370
    15
100
AcDbSpline
210
0.0
220
0.0
230
1.0
 70
     8
 71
     3
 72
     8
 73
     4
 74
     0
 42
0.000000001
 43
0.00000001
 40
0.0
 40
0.0
 40
0.0
 40
0.0
 40
1.0
 40
1.0
 40
1.0
 40
1.0
 10
14.82517266250168
 20
-3.173451869810717
 30
0.0
 10
14.8824227849579
 20
-3.17448610811457
 30
0.0
 10
14.94069888852226
 20
-3.158483846512638
 30
0.0
 10
14.99068603492816
 20
-3.121648520116702
 30
0.0
  0
SPLINE
  5
118
330
1F
100
AcDbEntity
  8
외형선
  6
Continuous
 62
     1
370
    15
100
AcDbSpline
210
0.0
220
0.0
230
1.0
 70
     8
 71
     3
 72
    10
 73
     6
 74
     0
 42
0.000000001
 43
0.00000001
 40
0.0
 40
0.0
 40
0.0
 40
0.0
 40
0.5
 40
0.5
 40
1.0
 40
1.0
 40
1.0
 40
1.0
 10
14.82517377800741
 20
-3.173451889962546
 30
0.0
 10
14.54274385692871
 20
-3.168349753523032
 30
0.0
 10
14.26091620864671
 20
-3.150650261645693
 30
0.0
 10
13.69187058308466
 20
-3.090156652099117
 30
0.0
 10
13.40858534919587
 20
-3.047468279821594
 30
0.0
 10
13.12686790802004
 20
-2.992982902576521
 30
0.0
  0
SPLINE
  5
119
330
1F
100
AcDbEntity
  8
외형선
  6
Continuous
 62
     1
370
    15
100
AcDbSpline
210
0.0
220
0.0
230
1.0
 70
     8
 71
     3
 72
    14
 73
    10
 74
     0
 42
0.000000001
 43
0.00000001
 40
0.0
 40
0.0
 40
0.0
 40
0.0
 40
0.0000596859426484
 40
0.0000596859426484
 40
0.0000596859426484
 40
0.000119336134498
 40
0.000119336134498
 40
0.000119336134498
 40
0.0002062471436958
 40
0.0002062471436958
 40
0.0002062471436958
 40
0.0002062471436958
 10
12.95957199652758
 20
-2.906974175122545
 30
0.0
 10
12.97375282696582
 20
-2.919935383916735
 30
0.0
 10
12.98883512477046
 20
-2.931673863761858
 30
0.0
 10
13.00444913729053
 20
-2.942026278057913
 30
0.0
 10
13.02005731181081
 20
-2.952374821638965
 30
0.0
 10
13.03630244271727
 20
-2.961410341958877
 30
0.0
 10
13.05286055877815
 20
-2.969006718087753
 30
0.0
 10
13.07690455145349
 20
-2.980037394001028
 30
0.0
 10
13.10188149812119
 20
-2.988150422184215
 30
0.0
 10
13.12686784664974
 20
-2.99298289070724
 30
0.0
  0
SPLINE
  5
11A
330
1F
100
AcDbEntity
  8
외형선
  6
Continuous
 62
     1
370
    15
100
AcDbSpline
210
0.0
220
0.0
230
1.0
 70
     8
 71
     3
 72
    10
 73
     6
 74
     0
 42
0.000000001
 43
0.00000001
 40
0.0
 40
0.0
 40
0.0
 40
0.0
 40
0.5
 40
0.5
 40
1.0
 40
1.0
 40
1.0
 40
1.0
 10
12.29534939113245
 20
-2.74906538066641
 30
0.0
 10
12.3970468674912
 20
-2.704900568685309
 30
0.0
 10
12.51706280237265
 20
-2.701646588593387
 30
0.0
 10
12.75055185485004
 20
-2.75933274158885
 30
0.0
 10
12.8637727014018
 20
-2.819414093789485
 30
0.0
 10
12.95957199652964
 20
-2.906974175117683
 30
0.0
  0
SPLINE
  5
11B
330
1F
100
AcDbEntity
  8
외형선
  6
Continuous
 62
     1
370
    15
100
AcDbSpline
210
0.0
220
0.0
230
1.0
 70
     8
 71
     3
 72
     8
 73
     4
 74
     0
 42
0.000000001
 43
0.00000001
 40
0.0
 40
0.0
 40
0.0
 40
0.0
 40
1.0
 40
1.0
 40
1.0
 40
1.0
 10
12.13018299493899
 20
-2.753315585822677
 30
0.0
 10
12.18733611379471
 20
-2.769736526923349
 30
0.0
 10
12.24549631167911
 20
-2.770715395588788
 30
0.0
 10
12.29534939113245
 20
-2.749065380666408
 30
0.0
  0
SPLINE
  5
11C
330
1F
100
AcDbEntity
  8
외형선
  6
Continuous
 62
     1
370
    15
100
AcDbSpline
210
0.0
220
0.0
230
1.0
 70
     8
 71
     3
 72
    10
 73
     6
 74
     0
 42
0.000000001
 43
0.00000001
 40
0.0
 40
0.0
 40
0.0
 40
0.0
 40
0.5000000000000001
 40
0.5000000000000001
 40
1.0
 40
1.0
 40
1.0
 40
1.0
 10
12.13018358020052
 20
-2.753315753976994
 30
0.0
 10
11.84675460697844
 20
-2.671882410109608
 30
0.0
 10
11.56679786124947
 20
-2.579867843683366
 30
0.0
 10
10.99882520626424
 20
-2.375204691869455
 30
0.0
 10
10.71347651595028
 20
-2.262783353122233
 30
0.0
 10
10.43183664289348
 20
-2.142348560673806
 30
0.0
  0
SPLINE
  5
11D
330
1F
100
AcDbEntity
  8
외형선
  6
Continuous
 62
     1
370
    15
100
AcDbSpline
210
0.0
220
0.0
230
1.0
 70
     8
 71
     3
 72
    14
 73
    10
 74
     0
 42
0.000000001
 43
0.00000001
 40
0.0
 40
0.0
 40
0.0
 40
0.0
 40
0.0000599597758735
 40
0.0000599597758735
 40
0.0000599597758735
 40
0.0001198830404269
 40
0.0001198830404269
 40
0.0001198830404269
 40
0.0002067231214165
 40
0.0002067231214165
 40
0.0002067231214165
 40
0.0002067231214165
 10
10.26474391177335
 20
-2.029604521469743
 30
0.0
 10
10.27899044172815
 20
-2.043540820456744
 30
0.0
 10
10.29413991792496
 20
-2.056792369818825
 30
0.0
 10
10.30982029475306
 20
-2.069138331953865
 30
0.0
 10
10.32549471358571
 20
-2.081479603054558
 30
0.0
 10
10.3418043340715
 20
-2.093002358663573
 30
0.0
 10
10.35843164947828
 20
-2.103507307097986
 30
0.0
 10
10.38244791677435
 20
-2.118680511151696
 30
0.0
 10
10.40739628294327
 20
-2.13189842594161
 30
0.0
 10
10.43236541463773
 20
-2.142574662741308
 30
0.0
  0
SPLINE
  5
11E
330
1F
100
AcDbEntity
  8
외형선
  6
Continuous
 62
     1
370
    15
100
AcDbSpline
210
0.0
220
0.0
230
1.0
 70
     8
 71
     3
 72
     8
 73
     4
 74
     0
 42
0.000000001
 43
0.00000001
 40
0.0
 40
0.0
 40
0.0
 40
0.0
 40
1.0
 40
1.0
 40
1.0
 40
1.0
 10
9.999999999992852
 20
-1.837028447535506
 30
0.0
 10
10.0957102297795
 20
-1.887543697682319
 30
0.0
 10
10.18570319505849
 20
-1.952284987254709
 30
0.0
 10
10.26474391177324
 20
-2.029604521469664
 30
0.0
  0
SPLINE
  5
11F
330
1F
100
AcDbEntity
  8
외형선
  6
Continuous
370
    15
100
AcDbSpline
210
0.0
220
0.0
230
1.0
 70
    24
 71
     3
 72
    14
 73
    10
 74
     0
 42
0.000000001
 43
0.00000001
 40
0.0
 40
0.0
 40
0.0
 40
0.0
 40
0.2500000000000001
 40
0.2500000000000001
 40
0.5000000000000001
 40
0.5000000000000001
 40
0.7500000000000001
 40
0.7500000000000001
 40
1.0
 40
1.0
 40
1.0
 40
1.0
 10
9.999999999999986
 20
2.240993789881966
 30
0.0
 10
9.999999999999986
 20
2.04515565357524
 30
0.0
 10
9.999999999999986
 20
1.809255228876975
 30
0.0
 10
9.999999999999986
 20
1.241494086620982
 30
0.0
 10
9.999999999999986
 20
0.9084461982047924
 30
0.0
 10
9.999999999999986
 20
0.1617005648019439
 30
0.0
 10
9.999999999999986
 20
-0.2526265374638054
 30
0.0
 10
9.999999999999986
 20
-1.080286595323576
 30
0.0
 10
9.999999999999986
 20
-1.491165351393874
 30
0.0
 10
9.999999999999986
 20
-1.837028447535627
 30
0.0
  0
SPLINE
  5
120
330
1F
100
AcDbEntity
  8
외형선
  6
Continuous
 62
     1
370
    15
100
AcDbSpline
210
0.0
220
0.0
230
1.0
 70
     8
 71
     3
 72
    10
 73
     6
 74
     0
 42
0.000000001
 43
0.00000001
 40
0.0
 40
0.0
 40
0.0
 40
0.0
 40
0.5000000000000002
 40
0.5000000000000002
 40
1.0
 40
1.0
 40
1.0
 40
1.0
 10
11.50901188467081
 20
1.547699303672791
 30
0.0
 10
11.25772020763755
 20
1.674448995244458
 30
0.0
 10
11.00428259908153
 20
1.796681634311003
 30
0.0
 10
10.500247692245
 20
2.028641075519412
 30
0.0
 10
10.25165520486885
 20
2.138111437608239
 30
0.0
 10
9.999999999999986
 20
2.240993789881901
 30
0.0
  0
SPLINE
  5
121
330
1F
100
AcDbEntity
  8
외형선
  6
Continuous
 62
     1
370
    15
100
AcDbSpline
210
0.0
220
0.0
230
1.0
 70
     8
 71
     3
 72
    14
 73
    10
 74
     0
 42
0.000000001
 43
0.00000001
 40
0.0
 40
0.0
 40
0.0
 40
0.0
 40
0.0000600029372369
 40
0.0000600029372369
 40
0.0000600029372369
 40
0.0001199705098979
 40
0.0001199705098979
 40
0.0001199705098979
 40
0.0002065825764317
 40
0.0002065825764317
 40
0.0002065825764317
 40
0.0002065825764317
 10
11.67663197169524
 20
1.431383014097033
 30
0.0
 10
11.6623720438283
 20
1.444607325906384
 30
0.0
 10
11.64720610253134
 20
1.457465395725911
 30
0.0
 10
11.63150432007164
 20
1.469724527138663
 30
0.0
 10
11.61580832615756
 20
1.481979139157424
 30
0.0
 10
11.59947054439322
 20
1.493719208816275
 30
0.0
 10
11.58281558129598
 20
1.504735303312386
 30
0.0
 10
11.55883966685322
 20
1.520593695648056
 30
0.0
 10
11.53393632374994
 20
1.535127595349202
 30
0.0
 10
11.50901378949463
 20
1.547698342893427
 30
0.0
  0
SPLINE
  5
122
330
1F
100
AcDbEntity
  8
외형선
  6
Continuous
 62
     1
370
    15
100
AcDbSpline
210
0.0
220
0.0
230
1.0
 70
     8
 71
     3
 72
    10
 73
     6
 74
     0
 42
0.000000001
 43
0.00000001
 40
0.0
 40
0.0
 40
0.0
 40
0.0
 40
0.5
 40
0.5
 40
1.0
 40
1.0
 40
1.0
 40
1.0
 10
12.34302523033218
 20
1.085082439975142
 30
0.0
 10
12.24088879144046
 20
1.102800512134567
 30
0.0
 10
12.12042748554975
 20
1.144498109193812
 30
0.0
 10
11.8862535832604
 20
1.264414297827748
 30
0.0
 10
11.77280742412136
 20
1.342192228340153
 30
0.0
 10
11.67663197169524
 20
1.43138301409703
 30
0.0
  0
SPLINE
  5
123
330
1F
100
AcDbEntity
  8
외형선
  6
Continuous
 62
     1
370
    15
100
AcDbSpline
210
0.0
220
0.0
230
1.0
 70
     8
 71
     3
 72
     8
 73
     4
 74
     0
 42
0.000000001
 43
0.00000001
 40
0.0
 40
0.0
 40
0.0
 40
0.0
 40
1.0
 40
1.0
 40
1.0
 40
1.0
 10
12.50850685785127
 20
1.020717604105464
 30
0.0
 10
12.45124009282394
 20
1.051936202391186
 30
0.0
 10
12.3929811537549
 20
1.076416358940789
 30
0.0
 10
12.34302523033227
 20
1.085082439975129
 30
0.0
  0
SPLINE
  5
124
330
1F
100
AcDbEntity
  8
외형선
  6
Continuous
 62
     1
370
    15
100
AcDbSpline
210
0.0
220
0.0
230
1.0
 70
     8
 71
     3
 72
    14
 73
    10
 74
     0
 42
0.000000001
 43
0.00000001
 40
0.0
 40
0.0
 40
0.0
 40
0.0
 40
0.0000598197297954
 40
0.0000598197297954
 40
0.0000598197297954
 40
0.0001196046223699
 40
0.0001196046223699
 40
0.0001196046223699
 40
0.0002061783936656
 40
0.0002061783936656
 40
0.0002061783936656
 40
0.0002061783936656
 10
14.37090956732911
 20
-0.0422359200198
 30
0.0
 10
14.35669028394878
 20
-0.0328156955618966
 30
0.0
 10
14.34156662915086
 20
-0.0230388227399866
 30
0.0
 10
14.3259074577025
 20
-0.0131161909342865
 30
0.0
 10
14.31025398980142
 20
-0.0031971732533718
 30
0.0
 10
14.29395931379094
 20
0.0069346879976827
 30
0.0
 10
14.2773475795826
 20
0.0170756221536808
 30
0.0
 10
14.25337238940609
 20
0.031711711432997
 30
0.0
 10
14.22846517510972
 20
0.0465343501521618
 30
0.0
 10
14.2035409288441
 20
0.0608979492878581
 30
0.0
  0
SPLINE
  5
125
330
1F
100
AcDbEntity
  8
외형선
  6
Continuous
 62
     1
370
    15
100
AcDbSpline
210
0.0
220
0.0
230
1.0
 70
     8
 71
     3
 72
    10
 73
     6
 74
     0
 42
0.000000001
 43
0.00000001
 40
0.0
 40
0.0
 40
0.0
 40
0.0
 40
0.5
 40
0.5
 40
1.0
 40
1.0
 40
1.0
 40
1.0
 10
15.03712909135119
 20
-0.4200146335363575
 30
0.0
 10
14.93500770898004
 20
-0.3633627899944231
 30
0.0
 10
14.8146150909488
 20
-0.3020557453426068
 30
0.0
 10
14.58063636400281
 20
-0.1731899056461774
 30
0.0
 10
14.46710773017992
 20
-0.105966859354329
 30
0.0
 10
14.37090956732911
 20
-0.0422359200197997
 30
0.0
  0
SPLINE
  5
126
330
1F
100
AcDbEntity
  8
외형선
  6
Continuous
 62
     1
370
    15
100
AcDbSpline
210
0.0
220
0.0
230
1.0
 70
     8
 71
     3
 72
    14
 73
    10
 74
     0
 42
0.000000001
 43
0.00000001
 40
0.0
 40
0.0
 40
0.0
 40
0.0
 40
0.0000596719197559
 40
0.0000596719197559
 40
0.0000596719197559
 40
0.0001193086515235
 40
0.0001193086515235
 40
0.0001193086515235
 40
0.0002060620743157
 40
0.0002060620743157
 40
0.0002060620743157
 40
0.0002060620743157
 10
19.76263996034841
 20
-2.616767562677924
 30
0.0
 10
19.74845046668489
 20
-2.620117535427255
 30
0.0
 10
19.73335792110131
 20
-2.622072622095647
 30
0.0
 10
19.71773124595058
 20
-2.622669074471811
 30
0.0
 10
19.70211032732208
 20
-2.623265307128084
 30
0.0
 10
19.68584987987508
 20
-2.622509674902365
 30
0.0
 10
19.66927387185269
 20
-2.620464738259421
 30
0.0
 10
19.64524203328263
 20
-2.61749999625261
 30
0.0
 10
19.62027372750263
 20
-2.611782299137348
 30
0.0
 10
19.59529217652964
 20
-2.603549653226882
 30
0.0
  0
SPLINE
  5
127
330
1F
100
AcDbEntity
  8
외형선
  6
Continuous
 62
     1
370
    15
100
AcDbSpline
210
0.0
220
0.0
230
1.0
 70
     8
 71
     3
 72
    10
 73
     6
 74
     0
 42
0.000000001
 43
0.00000001
 40
0.0
 40
0.0
 40
0.0
 40
0.0
 40
0.5
 40
0.5
 40
1.0
 40
1.0
 40
1.0
 40
1.0
 10
20.42736372161675
 20
-2.802993354073712
 30
0.0
 10
20.325668747634
 20
-2.714698076965521
 30
0.0
 10
20.20566800091076
 20
-2.658807658696515
 30
0.0
 10
19.97202656351703
 20
-2.59884122411816
 30
0.0
 10
19.85863243505359
 20
-2.59410486716329
 30
0.0
 10
19.76263996034841
 20
-2.616767562677926
 30
0.0
  0
SPLINE
  5
128
330
1F
100
AcDbEntity
  8
외형선
  6
Continuous
 62
     1
370
    15
100
AcDbSpline
210
0.0
220
0.0
230
1.0
 70
     8
 71
     3
 72
     8
 73
     4
 74
     0
 42
0.000000001
 43
0.00000001
 40
0.0
 40
0.0
 40
0.0
 40
0.0
 40
1.0
 40
1.0
 40
1.0
 40
1.0
 10
20.59245482568792
 20
-2.888663964596424
 30
0.0
 10
20.53530351720346
 20
-2.874943401731154
 30
0.0
 10
20.47718902681487
 20
-2.846253497197527
 30
0.0
 10
20.42736372161683
 20
-2.802993354073783
 30
0.0
  0
SPLINE
  5
129
330
1F
100
AcDbEntity
  8
외형선
  6
Continuous
 62
     1
370
    15
100
AcDbSpline
210
0.0
220
0.0
230
1.0
 70
     8
 71
     3
 72
    10
 73
     6
 74
     0
 42
0.000000001
 43
0.00000001
 40
0.0
 40
0.0
 40
0.0
 40
0.0
 40
0.5
 40
0.5
 40
1.0
 40
1.0
 40
1.0
 40
1.0
 10
22.28961674401378
 20
-3.152417475360924
 30
0.0
 10
22.00609687614729
 20
-3.132959169118714
 30
0.0
 10
21.72653694743598
 20
-3.101113280943589
 30
0.0
 10
21.15974491912683
 20
-3.012830057068191
 30
0.0
 10
20.87449443463168
 20
-2.956374390218187
 30
0.0
 10
20.59245653641823
 20
-2.888664375298731
 30
0.0
  0
SPLINE
  5
12A
330
1F
100
AcDbEntity
  8
외형선
  6
Continuous
 62
     1
370
    15
100
AcDbSpline
210
0.0
220
0.0
230
1.0
 70
     8
 71
     3
 72
    14
 73
    10
 74
     0
 42
0.000000001
 43
0.00000001
 40
0.0
 40
0.0
 40
0.0
 40
0.0
 40
0.000059811590572
 40
0.000059811590572
 40
0.000059811590572
 40
0.0001195877242642
 40
0.0001195877242642
 40
0.0001195877242642
 40
0.0002063277559059
 40
0.0002063277559059
 40
0.0002063277559059
 40
0.0002063277559059
 10
22.45718049814196
 20
-3.109958661325089
 30
0.0
 10
22.44295143631328
 20
-3.119293008057541
 30
0.0
 10
22.42781846708975
 20
-3.12715428017099
 30
0.0
 10
22.41215181351222
 20
-3.133467844498173
 30
0.0
 10
22.39649096237222
 20
-3.139779070478983
 30
0.0
 10
22.38019077518506
 20
-3.144588537743815
 30
0.0
 10
22.36357594000537
 20
-3.147856954918669
 30
0.0
 10
22.33954685562084
 20
-3.152583879456227
 30
0.0
 10
22.31458775208986
 20
-3.154131266464376
 30
0.0
 10
22.28961633214281
 20
-3.152417447093725
 30
0.0
  0
SPLINE
  5
12B
330
1F
100
AcDbEntity
  8
외형선
  6
Continuous
 62
     1
370
    15
100
AcDbSpline
210
0.0
220
0.0
230
1.0
 70
     8
 71
     3
 72
    10
 73
     6
 74
     0
 42
0.000000001
 43
0.00000001
 40
0.0
 40
0.0
 40
0.0
 40
0.0
 40
0.2321091225835326
 40
0.8379797439220962
 40
1.0
 40
1.0
 40
1.0
 40
1.0
 10
22.80958566984361
 20
-3.022263035789047
 30
0.0
 10
22.78029860872257
 20
-3.019578404701301
 30
0.0
 10
22.67456401412638
 20
-3.009886125283784
 30
0.0
 10
22.55409952141943
 20
-3.051657757137566
 30
0.0
 10
22.47406689126559
 20
-3.099800779474016
 30
0.0
 10
22.45718049814196
 20
-3.109958661325092
 30
0.0
  0
SPLINE
  5
12C
330
1F
100
AcDbEntity
  8
외형선
  6
Continuous
 62
     1
370
    15
100
AcDbSpline
210
0.0
220
0.0
230
1.0
 70
     8
 71
     3
 72
    10
 73
     6
 74
     0
 42
0.000000001
 43
0.00000001
 40
0.0
 40
0.0
 40
0.0
 40
0.0
 40
0.5
 40
0.5
 40
1.0
 40
1.0
 40
1.0
 40
1.0
 10
26.66786270182395
 20
1.491216749666469
 30
0.0
 10
26.76990326213208
 20
1.414086178147589
 30
0.0
 10
26.89026882228937
 20
1.347718131289579
 30
0.0
 10
27.12442043914439
 20
1.232921233603483
 30
0.0
 10
27.2379783538395
 20
1.184272549005578
 30
0.0
 10
27.33411144186751
 20
1.149561919965684
 30
0.0
  0
SPLINE
  5
12D
330
1F
100
AcDbEntity
  8
외형선
  6
Continuous
 62
     1
370
    15
100
AcDbSpline
210
0.0
220
0.0
230
1.0
 70
     8
 71
     3
 72
    12
 73
     8
 74
     0
 42
0.000000001
 43
0.00000001
 40
0.0
 40
0.0
 40
0.0
 40
0.0
 40
0.2500000000000001
 40
0.2500000000000001
 40
0.5000000000000001
 40
0.5000000000000001
 40
1.0
 40
1.0
 40
1.0
 40
1.0
 10
14.37090956732853
 20
-0.0422359200152223
 30
0.0
 10
14.34742534145895
 20
0.1413535774904778
 30
0.0
 10
14.32483084163314
 20
0.322818472593972
 30
0.0
 10
14.27994551286287
 20
0.6798757891923615
 30
0.0
 10
14.25661961048952
 20
0.8581779630597035
 30
0.0
 10
14.18551290161964
 20
1.379625028532892
 30
0.0
 10
14.13664879121465
 20
1.708302055052082
 30
0.0
 10
14.09074613580495
 20
1.989166185805556
 30
0.0
  0
SPLINE
  5
12E
330
1F
100
AcDbEntity
  8
외형선
  6
Continuous
 62
     1
370
    15
100
AcDbSpline
210
0.0
220
0.0
230
1.0
 70
     8
 71
     3
 72
     8
 73
     4
 74
     0
 42
0.000000001
 43
0.00000001
 40
0.0
 40
0.0
 40
0.0
 40
0.0
 40
1.0
 40
1.0
 40
1.0
 40
1.0
 10
26.88018141673665
 20
3.001728138649373
 30
0.0
 10
26.82296934774137
 20
2.990995998131138
 30
0.0
 10
26.76476803755607
 20
2.964601322985309
 30
0.0
 10
26.71487795151991
 20
2.922025107742389
 30
0.0
  0
SPLINE
  5
12F
330
1F
100
AcDbEntity
  8
외형선
  6
Continuous
 62
     1
370
    15
100
AcDbSpline
210
0.0
220
0.0
230
1.0
 70
     8
 71
     3
 72
    10
 73
     6
 74
     0
 42
0.000000001
 43
0.00000001
 40
0.0
 40
0.0
 40
0.0
 40
0.0
 40
0.5
 40
0.5
 40
1.0
 40
1.0
 40
1.0
 40
1.0
 10
27.94999999999988
 20
3.145155137821778
 30
0.0
 10
27.77138201177845
 20
3.131055345018686
 30
0.0
 10
27.59478901880375
 20
3.112054030331688
 30
0.0
 10
27.23872569581501
 20
3.06421426547007
 30
0.0
 10
27.0594466798894
 20
3.035355504565681
 30
0.0
 10
26.8801901203818
 20
3.001729771321122
 30
0.0
  0
SPLINE
  5
130
330
1F
100
AcDbEntity
  8
외형선
  6
Continuous
 62
     1
370
    15
100
AcDbSpline
210
0.0
220
0.0
230
1.0
 70
     8
 71
     3
 72
    10
 73
     6
 74
     0
 42
0.000000001
 43
0.00000001
 40
0.0
 40
0.0
 40
0.0
 40
0.0
 40
0.5
 40
0.5
 40
1.0
 40
1.0
 40
1.0
 40
1.0
 10
29.03833394664851
 20
2.029658538159985
 30
0.0
 10
28.87386308757288
 20
2.234562912375996
 30
0.0
 10
28.69580666555999
 20
2.427053062212651
 30
0.0
 10
28.32980333754324
 20
2.796922936647756
 30
0.0
 10
28.14130052238628
 20
2.974050624308004
 30
0.0
 10
27.94999999999999
 20
3.145155137821781
 30
0.0
  0
SPLINE
  5
131
330
1F
100
AcDbEntity
  8
외형선
  6
Continuous
 62
     1
370
    15
100
AcDbSpline
210
0.0
220
0.0
230
1.0
 70
     8
 71
     3
 72
    12
 73
     8
 74
     0
 42
0.000000001
 43
0.00000001
 40
0.0
 40
0.0
 40
0.0
 40
0.0
 40
0.2499999999999999
 40
0.2499999999999999
 40
0.4999999999999999
 40
0.4999999999999999
 40
1.0
 40
1.0
 40
1.0
 40
1.0
 10
29.03833394666307
 20
2.029658538154129
 30
0.0
 10
28.98564404543428
 20
1.913636126165849
 30
0.0
 10
28.92391099088365
 20
1.806100821336491
 30
0.0
 10
28.7813380125746
 20
1.608962236123913
 30
0.0
 10
28.69963086435957
 20
1.518997768843928
 30
0.0
 10
28.43723299608238
 20
1.289585704274305
 30
0.0
 10
28.23318450450099
 20
1.185024017490045
 30
0.0
 10
28.02231129748358
 20
1.129538483747386
 30
0.0
  0
SPLINE
  5
132
330
1F
100
AcDbEntity
  8
외형선
  6
Continuous
 62
     1
370
    15
100
AcDbSpline
210
0.0
220
0.0
230
1.0
 70
     8
 71
     3
 72
     8
 73
     4
 74
     0
 42
0.000000001
 43
0.00000001
 40
0.0
 40
0.0
 40
0.0
 40
0.0
 40
1.0
 40
1.0
 40
1.0
 40
1.0
 10
29.04999999999999
 20
0.6124588087644214
 30
0.0
 10
28.69839583784913
 20
0.8037185699819298
 30
0.0
 10
28.35618999677537
 20
0.9753320632429985
 30
0.0
 10
28.02231129748391
 20
1.12953848374882
 30
0.0
  0
LINE
  5
133
330
1F
100
AcDbEntity
  8
외형선
  6
Continuous
 62
     1
370
    15
100
AcDbLine
 10
29.04999999999999
 20
0.4950880597006331
 30
0.0
 11
29.04999999999999
 21
0.6124588087644212
 31
0.0
  0
SPLINE
  5
134
330
1F
100
AcDbEntity
  8
외형선
  6
Continuous
 62
     1
370
    15
100
AcDbSpline
210
0.0
220
0.0
230
1.0
 70
     8
 71
     3
 72
    12
 73
     8
 74
     0
 42
0.000000001
 43
0.00000001
 40
0.0
 40
0.0
 40
0.0
 40
0.0
 40
0.500000000000002
 40
0.500000000000002
 40
0.750000000000001
 40
0.750000000000001
 40
1.0
 40
1.0
 40
1.0
 40
1.0
 10
27.94999999999998
 20
0.8240468249759518
 30
0.0
 10
28.12860502820877
 20
0.6998856755922869
 30
0.0
 10
28.30935947985288
 20
0.6046939860030954
 30
0.0
 10
28.58855841935095
 20
0.5154513944516457
 30
0.0
 10
28.6827538756802
 20
0.4950395971732962
 30
0.0
 10
28.86804061815613
 20
0.4769586896754591
 30
0.0
 10
28.95990385972471
 20
0.4788933283092143
 30
0.0
 10
29.04999999999999
 20
0.4950880597006326
 30
0.0
  0
SPLINE
  5
135
330
1F
100
AcDbEntity
  8
외형선
  6
Continuous
 62
     1
370
    15
100
AcDbSpline
210
0.0
220
0.0
230
1.0
 70
     8
 71
     3
 72
    14
 73
    10
 74
     0
 42
0.000000001
 43
0.00000001
 40
0.0
 40
0.0
 40
0.0
 40
0.0
 40
0.0000598183488296
 40
0.0000598183488296
 40
0.0000598183488296
 40
0.0001196010627532
 40
0.0001196010627532
 40
0.0001196010627532
 40
0.0002063524379207
 40
0.0002063524379207
 40
0.0002063524379207
 40
0.0002063524379207
 10
24.63944842029745
 20
2.380068522882741
 30
0.0
 10
24.65365514327626
 20
2.381645474499529
 30
0.0
 10
24.66876336100563
 20
2.381894647976085
 30
0.0
 10
24.6844028039486
 20
2.380882119439772
 30
0.0
 10
24.70003642765573
 20
2.379869967652322
 30
0.0
 10
24.71630636006346
 20
2.377591271238419
 30
0.0
 10
24.73288936121364
 20
2.374136490535957
 30
0.0
 10
24.75687283151791
 20
2.369139950426307
 30
0.0
 10
24.78179182582276
 20
2.36163055485901
 30
0.0
 10
24.80673172161978
 20
2.351918891375507
 30
0.0
  0
SPLINE
  5
136
330
1F
100
AcDbEntity
  8
외형선
  6
Continuous
 62
     1
370
    15
100
AcDbSpline
210
0.0
220
0.0
230
1.0
 70
     8
 71
     3
 72
    10
 73
     6
 74
     0
 42
0.000000001
 43
0.00000001
 40
0.0
 40
0.0
 40
0.0
 40
0.0
 40
0.5
 40
0.5
 40
1.0
 40
1.0
 40
1.0
 40
1.0
 10
23.97375638232361
 20
2.606401540865716
 30
0.0
 10
24.07575368452739
 20
2.51778074849772
 30
0.0
 10
24.19605764436128
 20
2.457916532137206
 30
0.0
 10
24.43003017744755
 20
2.384023286291836
 30
0.0
 10
24.54346776096782
 20
2.36941463343961
 30
0.0
 10
24.63944842029922
 20
2.380068522878346
 30
0.0
  0
SPLINE
  5
137
330
1F
100
AcDbEntity
  8
외형선
  6
Continuous
 62
     1
370
    15
100
AcDbSpline
210
0.0
220
0.0
230
1.0
 70
     8
 71
     3
 72
     8
 73
     4
 74
     0
 42
0.000000001
 43
0.00000001
 40
0.0
 40
0.0
 40
0.0
 40
0.0
 40
1.0
 40
1.0
 40
1.0
 40
1.0
 10
23.80823490524407
 20
2.698345008369059
 30
0.0
 10
23.86550739047095
 20
2.680957418902777
 30
0.0
 10
23.92378415734223
 20
2.649820122323452
 30
0.0
 10
23.97375638232224
 20
2.606401540866911
 30
0.0
  0
SPLINE
  5
138
330
1F
100
AcDbEntity
  8
외형선
  6
Continuous
 62
     1
370
    15
100
AcDbSpline
210
0.0
220
0.0
230
1.0
 70
     8
 71
     3
 72
    10
 73
     6
 74
     0
 42
0.000000001
 43
0.00000001
 40
0.0
 40
0.0
 40
0.0
 40
0.0
 40
0.5
 40
0.5
 40
1.0
 40
1.0
 40
1.0
 40
1.0
 10
23.80823490569862
 20
2.698345008230872
 30
0.0
 10
23.52434353814814
 20
2.784532756728612
 30
0.0
 10
23.24443697842531
 20
2.859616340844752
 30
0.0
 10
22.6782101948517
 20
2.98712016079075
 30
0.0
 10
22.39277081438795
 20
3.039361643058439
 30
0.0
 10
22.11008294611306
 20
3.079181222889259
 30
0.0
  0
SPLINE
  5
139
330
1F
100
AcDbEntity
  8
외형선
  6
Continuous
 62
     1
370
    15
100
AcDbSpline
210
0.0
220
0.0
230
1.0
 70
     8
 71
     3
 72
    14
 73
    10
 74
     0
 42
0.000000001
 43
0.00000001
 40
0.0
 40
0.0
 40
0.0
 40
0.0
 40
0.0000596960215432
 40
0.0000596960215432
 40
0.0000596960215432
 40
0.0001193569614997
 40
0.0001193569614997
 40
0.0001193569614997
 40
0.0002060843719489
 40
0.0002060843719489
 40
0.0002060843719489
 40
0.0002060843719489
 10
21.9432549779027
 20
3.050723050859885
 30
0.0
 10
21.95742688357381
 20
3.058652290708047
 30
0.0
 10
21.97250203486727
 20
3.065097544046724
 30
0.0
 10
21.98811248923548
 20
3.070012244722352
 30
0.0
 10
22.00371720981863
 20
3.074925140207904
 30
0.0
 10
22.01996255717069
 20
3.078343892040881
 30
0.0
 10
22.03652534169306
 20
3.08025523826245
 30
0.0
 10
22.0605211207379
 20
3.083024352450284
 30
0.0
 10
22.08545610735339
 20
3.082650981368693
 30
0.0
 10
22.11040931600327
 20
3.079135244918866
 30
0.0
  0
SPLINE
  5
13A
330
1F
100
AcDbEntity
  8
외형선
  6
Continuous
 62
     1
370
    15
100
AcDbSpline
210
0.0
220
0.0
230
1.0
 70
     8
 71
     3
 72
    10
 73
     6
 74
     0
 42
0.000000001
 43
0.00000001
 40
0.0
 40
0.0
 40
0.0
 40
0.0
 40
0.5
 40
0.5
 40
1.0
 40
1.0
 40
1.0
 40
1.0
 10
21.27886490337881
 20
3.108282172497892
 30
0.0
 10
21.38068315918168
 20
3.028999435970166
 30
0.0
 10
21.50078939346263
 20
2.989694339882967
 30
0.0
 10
21.73431823013333
 20
2.974169067653222
 30
0.0
 10
21.84744234022642
 20
2.997115483724356
 30
0.0
 10
21.9432549779046
 20
3.050723050854131
 30
0.0
  0
SPLINE
  5
13B
330
1F
100
AcDbEntity
  8
외형선
  6
Continuous
 62
     1
370
    15
100
AcDbSpline
210
0.0
220
0.0
230
1.0
 70
     8
 71
     3
 72
     8
 73
     4
 74
     0
 42
0.000000001
 43
0.00000001
 40
0.0
 40
0.0
 40
0.0
 40
0.0
 40
1.0
 40
1.0
 40
1.0
 40
1.0
 10
21.1135937312536
 20
3.168302394136584
 30
0.0
 10
21.17079481429499
 20
3.166164536621664
 30
0.0
 10
21.22898589208695
 20
3.147121420717858
 30
0.0
 10
21.27886490337741
 20
3.108282172498845
 30
0.0
  0
LINE
  5
13C
330
1F
100
AcDbEntity
  8
외형선
  6
Continuous
 62
     1
370
    15
100
AcDbLine
 10
21.11359852325803
 20
3.168302215036944
 30
0.0
 11
20.75678065129816
 21
3.163893107359224
 31
0.0
  0
SPLINE
  5
13D
330
1F
100
AcDbEntity
  8
외형선
  6
Continuous
 62
     1
370
    15
100
AcDbSpline
210
0.0
220
0.0
230
1.0
 70
     8
 71
     3
 72
    10
 73
     6
 74
     0
 42
0.000000001
 43
0.00000001
 40
0.0
 40
0.0
 40
0.0
 40
0.0
 40
0.5
 40
0.5
 40
1.0
 40
1.0
 40
1.0
 40
1.0
 10
10.54562291133854
 20
-3.082687360246774
 30
0.0
 10
10.46371255560371
 20
-3.017049381339311
 30
0.0
 10
10.37017705136907
 20
-2.976750763895489
 30
0.0
 10
10.18150205910769
 20
-2.937092038475071
 30
0.0
 10
10.08703173248244
 20
-2.937903304738268
 30
0.0
 10
9.999999999999805
 20
-2.957639906027013
 30
0.0
  0
SPLINE
  5
13E
330
1F
100
AcDbEntity
  8
외형선
  6
Continuous
 62
     1
370
    15
100
AcDbSpline
210
0.0
220
0.0
230
1.0
 70
     8
 71
     3
 72
     8
 73
     4
 74
     0
 42
0.000000001
 43
0.00000001
 40
0.0
 40
0.0
 40
0.0
 40
0.0
 40
1.0
 40
1.0
 40
1.0
 40
1.0
 10
10.71121923687832
 20
-3.148053467372671
 30
0.0
 10
10.65390950180416
 20
-3.143755758185956
 30
0.0
 10
10.5956199417575
 20
-3.122751940587589
 30
0.0
 10
10.54562291133878
 20
-3.082687360246958
 30
0.0
  0
LINE
  5
13F
330
1F
100
AcDbEntity
  8
외형선
  6
Continuous
 62
     1
370
    15
100
AcDbLine
 10
10.71122053872848
 20
-3.148053564999509
 30
0.0
 11
11.42936746823716
 21
-3.166228755746504
 31
0.0
  0
SPLINE
  5
140
330
1F
100
AcDbEntity
  8
외형선
  6
Continuous
 62
     1
370
    15
100
AcDbSpline
210
0.0
220
0.0
230
1.0
 70
     8
 71
     3
 72
     9
 73
     5
 74
     0
 42
0.000000001
 43
0.00000001
 40
0.0
 40
0.0
 40
0.0
 40
0.0
 40
0.3498903351245823
 40
1.0
 40
1.0
 40
1.0
 40
1.0
 10
24.73385579889767
 20
2.373889979712651
 30
0.0
 10
24.86784196693888
 20
2.427443956677215
 30
0.0
 10
25.25077957507116
 20
2.580503277236888
 30
0.0
 10
25.63412355783619
 20
2.692804403112818
 30
0.0
 10
25.88333918600357
 20
2.765812450421151
 30
0.0
  0
SPLINE
  5
141
330
1F
100
AcDbEntity
  8
외형선
  6
Continuous
 62
     1
370
    15
100
AcDbSpline
210
0.0
220
0.0
230
1.0
 70
     8
 71
     3
 72
    14
 73
    10
 74
     0
 42
0.000000001
 43
0.00000001
 40
0.0
 40
0.0
 40
0.0
 40
0.0
 40
0.0000596527631402
 40
0.0000596527631402
 40
0.0000596527631402
 40
0.000119270517081
 40
0.000119270517081
 40
0.000119270517081
 40
0.0002060035460457
 40
0.0002060035460457
 40
0.0002060035460457
 40
0.0002060035460457
 10
26.05040106463484
 20
2.768056439908668
 30
0.0
 10
26.03623936707491
 20
2.772672756520865
 30
0.0
 10
26.02117478435093
 20
2.775852756859998
 30
0.0
 10
26.0055749820694
 20
2.777611276039619
 30
0.0
 10
25.98998090148968
 20
2.779369150228863
 30
0.0
 10
25.9737463477671
 20
2.779720310519578
 30
0.0
 10
25.95719438017753
 20
2.778707786405519
 30
0.0
 10
25.93319559630186
 20
2.777239722427584
 30
0.0
 10
25.90825623130371
 20
2.772878569161604
 30
0.0
 10
25.88329905325388
 20
2.765801069416145
 30
0.0
  0
SPLINE
  5
142
330
1F
100
AcDbEntity
  8
외형선
  6
Continuous
 62
     1
370
    15
100
AcDbSpline
210
0.0
220
0.0
230
1.0
 70
     8
 71
     3
 72
    10
 73
     6
 74
     0
 42
0.000000001
 43
0.00000001
 40
0.0
 40
0.0
 40
0.0
 40
0.0
 40
0.5
 40
0.5
 40
1.0
 40
1.0
 40
1.0
 40
1.0
 10
26.71487795151953
 20
2.922025107742097
 30
0.0
 10
26.61303858656553
 20
2.83511536139815
 30
0.0
 10
26.49291745790365
 20
2.783084722172268
 30
0.0
 10
26.25937023116952
 20
2.734314865599416
 30
0.0
 10
26.14623292605539
 20
2.736817938167171
 30
0.0
 10
26.05040106463645
 20
2.768056439907548
 30
0.0
  0
LINE
  5
143
330
1F
100
AcDbEntity
  8
외형선
  6
Continuous
 62
     1
370
    15
100
AcDbLine
 10
29.04999999999999
 20
0.4950880597006331
 30
0.0
 11
29.04999999999999
 21
-1.422247913250305
 31
0.0
  0
SPLINE
  5
144
330
1F
100
AcDbEntity
  8
외형선
  6
Continuous
 62
     1
370
    15
100
AcDbSpline
210
0.0
220
0.0
230
1.0
 70
     8
 71
     3
 72
     8
 73
     4
 74
     0
 42
0.000000001
 43
0.00000001
 40
0.000000298923855
 40
0.000000298923855
 40
0.000000298923855
 40
0.000000298923855
 40
0.0000177306358404
 40
0.0000177306358404
 40
0.0000177306358404
 40
0.0000177306358404
 10
29.04999999999999
 20
-1.422247913250305
 30
0.0
 10
29.04611232419293
 20
-1.426281580263931
 30
0.0
 10
29.04222363474653
 20
-1.430314986366284
 30
0.0
 10
29.03833394665244
 20
-1.434348133400132
 30
0.0
  0
SPLINE
  5
145
330
1F
100
AcDbEntity
  8
외형선
  6
Continuous
 62
     1
370
    15
100
AcDbSpline
210
0.0
220
0.0
230
1.0
 70
     8
 71
     3
 72
    12
 73
     8
 74
     0
 42
0.000000001
 43
0.00000001
 40
0.0
 40
0.0
 40
0.0
 40
0.0
 40
0.4999999999999997
 40
0.4999999999999997
 40
0.7499999999999997
 40
0.7499999999999997
 40
1.0
 40
1.0
 40
1.0
 40
1.0
 10
24.91932307493029
 20
0.504870767666973
 30
0.0
 10
24.87437084167849
 20
0.8622706605755632
 30
0.0
 10
24.82582944835614
 20
1.218444021487535
 30
0.0
 10
24.75412680586183
 20
1.700700457427748
 30
0.0
 10
24.73042919321569
 20
1.852823297996004
 30
0.0
 10
24.68450934077011
 20
2.133518656177967
 30
0.0
 10
24.66259669846288
 20
2.261751919718315
 30
0.0
 10
24.63944840245231
 20
2.380068614092796
 30
0.0
  0
SPLINE
  5
146
330
1F
100
AcDbEntity
  8
외형선
  6
Continuous
 62
     1
370
    15
100
AcDbSpline
210
0.0
220
0.0
230
1.0
 70
     8
 71
     3
 72
    12
 73
     8
 74
     0
 42
0.000000001
 43
0.00000001
 40
0.0
 40
0.0
 40
0.0
 40
0.0
 40
0.2500000000000001
 40
0.2500000000000001
 40
0.5000000000000001
 40
0.5000000000000001
 40
1.0
 40
1.0
 40
1.0
 40
1.0
 10
22.38856564198525
 20
1.857635319654422
 30
0.0
 10
22.36530225970818
 20
2.007911612580423
 30
0.0
 10
22.34305116152697
 20
2.146580052618762
 30
0.0
 10
22.29829948259495
 20
2.401888147891258
 30
0.0
 10
22.27507576101426
 20
2.51972770556671
 30
0.0
 10
22.20436369500733
 20
2.83395162046292
 30
0.0
 10
22.15588213029214
 20
2.989494445661974
 30
0.0
 10
22.11038292233741
 20
3.079187281418644
 30
0.0
  0
SPLINE
  5
147
330
1F
100
AcDbEntity
  8
외형선
  6
Continuous
 62
     1
370
    15
100
AcDbSpline
210
0.0
220
0.0
230
1.0
 70
     8
 71
     3
 72
    12
 73
     8
 74
     0
 42
0.000000001
 43
0.00000001
 40
0.0
 40
0.0
 40
0.0
 40
0.0
 40
0.5000000000000001
 40
0.5000000000000001
 40
0.75
 40
0.75
 40
1.0
 40
1.0
 40
1.0
 40
1.0
 10
24.08685495947043
 20
0.987553971036017
 30
0.0
 10
24.040004877235
 20
1.340371686651198
 30
0.0
 10
23.99145382750046
 20
1.67630720503106
 30
0.0
 10
23.92259047797652
 20
2.110644040093567
 30
0.0
 10
23.90085902437766
 20
2.24310578388784
 30
0.0
 10
23.85538564584663
 20
2.488267315360879
 30
0.0
 10
23.83191673380944
 20
2.600172602120083
 30
0.0
 10
23.80823473478211
 20
2.698345715012452
 30
0.0
  0
SPLINE
  5
148
330
1F
100
AcDbEntity
  8
외형선
  6
Continuous
 62
     1
370
    15
100
AcDbSpline
210
0.0
220
0.0
230
1.0
 70
     8
 71
     3
 72
    12
 73
     8
 74
     0
 42
0.000000001
 43
0.00000001
 40
0.0
 40
0.0
 40
0.0
 40
0.0
 40
0.4999999999999999
 40
0.4999999999999999
 40
0.7499999999999999
 40
0.7499999999999999
 40
1.0
 40
1.0
 40
1.0
 40
1.0
 10
24.25425743296285
 20
0.8735430573100069
 30
0.0
 10
24.20742514007059
 20
1.225603316406492
 30
0.0
 10
24.15845216245307
 20
1.564116896436013
 30
0.0
 10
24.08846070448671
 20
2.005550098550394
 30
0.0
 10
24.06629402886065
 20
2.140769676448778
 30
0.0
 10
24.0209993602985
 20
2.390286229168784
 30
0.0
 10
23.99753003392055
 20
2.50498398787462
 30
0.0
 10
23.97375638232505
 20
2.606401540859584
 30
0.0
  0
SPLINE
  5
149
330
1F
100
AcDbEntity
  8
외형선
  6
Continuous
 62
     1
370
    15
100
AcDbSpline
210
0.0
220
0.0
230
1.0
 70
     8
 71
     3
 72
    12
 73
     8
 74
     0
 42
0.000000001
 43
0.00000001
 40
0.0
 40
0.0
 40
0.0
 40
0.0
 40
0.4999999999999998
 40
0.4999999999999998
 40
0.7499999999999999
 40
0.7499999999999999
 40
1.0
 40
1.0
 40
1.0
 40
1.0
 10
19.76263996034292
 20
-2.616767562654417
 30
0.0
 10
19.7160705152829
 20
-2.41716625445821
 30
0.0
 10
19.66709699571645
 20
-2.158604085815225
 30
0.0
 10
19.59670962302136
 20
-1.717071395677938
 30
0.0
 10
19.57416442235047
 20
-1.562220868148412
 30
0.0
 10
19.52926557980065
 20
-1.238994826097738
 30
0.0
 10
19.50593834747323
 20
-1.068192621348871
 30
0.0
 10
19.48224041288794
 20
-0.8917631719738208
 30
0.0
  0
SPLINE
  5
14A
330
1F
100
AcDbEntity
  8
외형선
  6
Continuous
 62
     1
370
    15
100
AcDbSpline
210
0.0
220
0.0
230
1.0
 70
     8
 71
     3
 72
    12
 73
     8
 74
     0
 42
0.000000001
 43
0.00000001
 40
0.0
 40
0.0
 40
0.0
 40
0.0
 40
0.5
 40
0.5
 40
0.75
 40
0.75
 40
1.0
 40
1.0
 40
1.0
 40
1.0
 10
12.34302513709587
 20
1.085083117936023
 30
0.0
 10
12.29552055878532
 20
1.430509098222229
 30
0.0
 10
12.24679465058949
 20
1.755214832295498
 30
0.0
 10
12.17844853065095
 20
2.169084989738011
 30
0.0
 10
12.15647004834204
 20
2.295308162407043
 30
0.0
 10
12.1100287880159
 20
2.527506311237433
 30
0.0
 10
12.0861867100998
 20
2.632131866160012
 30
0.0
 10
12.06226887262249
 20
2.722467682518643
 30
0.0
  0
SPLINE
  5
14B
330
1F
100
AcDbEntity
  8
외형선
  6
Continuous
 62
     1
370
    15
100
AcDbSpline
210
0.0
220
0.0
230
1.0
 70
     8
 71
     3
 72
    12
 73
     8
 74
     0
 42
0.000000001
 43
0.00000001
 40
0.0
 40
0.0
 40
0.0
 40
0.0
 40
0.5
 40
0.5
 40
0.75
 40
0.75
 40
1.0
 40
1.0
 40
1.0
 40
1.0
 10
20.42736330245339
 20
-2.80299185792474
 30
0.0
 10
20.38283440711004
 20
-2.644051619956117
 30
0.0
 10
20.33448864154138
 20
-2.422626399365228
 30
0.0
 10
20.26265517887233
 20
-2.021228476826238
 30
0.0
 10
20.23884578513409
 20
-1.876262436237326
 30
0.0
 10
20.19258283149303
 20
-1.57141167685747
 30
0.0
 10
20.17067601276605
 20
-1.412966091290099
 30
0.0
 10
20.14768869153781
 20
-1.245669148384619
 30
0.0
  0
SPLINE
  5
14C
330
1F
100
AcDbEntity
  8
외형선
  6
Continuous
 62
     1
370
    15
100
AcDbSpline
210
0.0
220
0.0
230
1.0
 70
     8
 71
     3
 72
    14
 73
    10
 74
     0
 42
0.000000001
 43
0.00000001
 40
0.0
 40
0.0
 40
0.0
 40
0.0
 40
0.25
 40
0.25
 40
0.5
 40
0.5
 40
0.75
 40
0.75
 40
1.0
 40
1.0
 40
1.0
 40
1.0
 10
20.5924556454328
 20
-2.888666749833502
 30
0.0
 10
20.57009587456641
 20
-2.812695431357898
 30
0.0
 10
20.54772114531554
 20
-2.722385416891957
 30
0.0
 10
20.50107337254361
 20
-2.512223383424317
 30
0.0
 10
20.47723211550325
 20
-2.392844974849117
 30
0.0
 10
20.42960790278573
 20
-2.130481325261466
 30
0.0
 10
20.40583064735373
 20
-1.98752812734658
 30
0.0
 10
20.35942923609889
 20
-1.685201407783377
 30
0.0
 10
20.33739460569776
 20
-1.527325584115858
 30
0.0
 10
20.31484681113131
 20
-1.361496053812583
 30
0.0
  0
SPLINE
  5
14D
330
1F
100
AcDbEntity
  8
외형선
  6
Continuous
 62
     1
370
    15
100
AcDbSpline
210
0.0
220
0.0
230
1.0
 70
     8
 71
     3
 72
    10
 73
     6
 74
     0
 42
0.000000001
 43
0.00000001
 40
0.0
 40
0.0
 40
0.0
 40
0.0
 40
0.5
 40
0.5
 40
1.0
 40
1.0
 40
1.0
 40
1.0
 10
22.28961617359794
 20
-3.152417298905183
 30
0.0
 10
22.24212331362041
 20
-3.108026666775355
 30
0.0
 10
22.19504326211729
 20
-2.997286418048183
 30
0.0
 10
22.10626827852867
 20
-2.66787896593406
 30
0.0
 10
22.0582720349032
 20
-2.441031110770619
 30
0.0
 10
22.01085647029916
 20
-2.168881734466645
 30
0.0
  0
SPLINE
  5
14E
330
1F
100
AcDbEntity
  8
외형선
  6
Continuous
 62
     1
370
    15
100
AcDbSpline
210
0.0
220
0.0
230
1.0
 70
     8
 71
     3
 72
    12
 73
     8
 74
     0
 42
0.000000001
 43
0.00000001
 40
0.0
 40
0.0
 40
0.0
 40
0.0
 40
0.25
 40
0.25
 40
0.5
 40
0.5
 40
1.0
 40
1.0
 40
1.0
 40
1.0
 10
11.67663197168994
 20
1.431383014133349
 30
0.0
 10
11.65270952279505
 20
1.59548708268625
 30
0.0
 10
11.62886268991112
 20
1.751832795515875
 30
0.0
 10
11.58241227907672
 20
2.042266672068841
 30
0.0
 10
11.5604296388347
 20
2.175295507307628
 30
0.0
 10
11.49207011148433
 20
2.544196009242039
 30
0.0
 10
11.44333420151167
 20
2.747464461695465
 30
0.0
 10
11.39582112460081
 20
2.887485754695973
 30
0.0
  0
SPLINE
  5
14F
330
1F
100
AcDbEntity
  8
외형선
  6
Continuous
 62
     1
370
    15
100
AcDbSpline
210
0.0
220
0.0
230
1.0
 70
     8
 71
     3
 72
    12
 73
     8
 74
     0
 42
0.000000001
 43
0.00000001
 40
0.0
 40
0.0
 40
0.0
 40
0.0
 40
0.2500000000000001
 40
0.2500000000000001
 40
0.5000000000000001
 40
0.5000000000000001
 40
1.0
 40
1.0
 40
1.0
 40
1.0
 10
11.5090136975008
 20
1.547698974325438
 30
0.0
 10
11.48530607730665
 20
1.710424557193764
 30
0.0
 10
11.46177695090552
 20
1.864667028329403
 30
0.0
 10
11.41612284707023
 20
2.149857922519442
 30
0.0
 10
11.39442022753297
 20
2.280214310266551
 30
0.0
 10
11.32579970906568
 20
2.641775860210748
 30
0.0
 10
11.27728160590731
 20
2.837558056535668
 30
0.0
 10
11.23032623123416
 20
2.969155824378635
 30
0.0
  0
SPLINE
  5
150
330
1F
100
AcDbEntity
  8
외형선
  6
Continuous
 62
     1
370
    15
100
AcDbSpline
210
0.0
220
0.0
230
1.0
 70
     8
 71
     3
 72
    12
 73
     8
 74
     0
 42
0.000000001
 43
0.00000001
 40
0.0
 40
0.0
 40
0.0
 40
0.0
 40
0.25
 40
0.25
 40
0.5
 40
0.5
 40
1.0
 40
1.0
 40
1.0
 40
1.0
 10
22.22319973986153
 20
1.895897316523533
 30
0.0
 10
22.19994327846595
 20
2.0413477411023
 30
0.0
 10
22.17793123559511
 20
2.174586540518503
 30
0.0
 10
22.1323077399704
 20
2.42087604461712
 30
0.0
 10
22.10871362587792
 20
2.533621423079485
 30
0.0
 10
22.03716437303499
 20
2.831205283152029
 30
0.0
 10
21.98850758018222
 20
2.973802310476261
 30
0.0
 10
21.94325531363059
 20
3.050722480187551
 30
0.0
  0
SPLINE
  5
151
330
1F
100
AcDbEntity
  8
외형선
  6
Continuous
 62
     1
370
    15
100
AcDbSpline
210
0.0
220
0.0
230
1.0
 70
     8
 71
     3
 72
    12
 73
     8
 74
     0
 42
0.000000001
 43
0.00000001
 40
0.0
 40
0.0
 40
0.0
 40
0.0
 40
0.5
 40
0.5
 40
0.75
 40
0.75
 40
1.0
 40
1.0
 40
1.0
 40
1.0
 10
21.5584778399266
 20
2.181734662739109
 30
0.0
 10
21.51388356319948
 20
2.440047600662228
 30
0.0
 10
21.46551747986812
 20
2.660284138307813
 30
0.0
 10
21.39373051916349
 20
2.898463728980955
 30
0.0
 10
21.36994896187165
 20
2.962746365559173
 30
0.0
 10
21.32376229927641
 20
3.059182403015355
 30
0.0
 10
21.30187313314297
 20
3.091404169261391
 30
0.0
 10
21.27886490338071
 20
3.108282172496366
 30
0.0
  0
SPLINE
  5
152
330
1F
100
AcDbEntity
  8
외형선
  6
Continuous
 62
     1
370
    15
100
AcDbSpline
210
0.0
220
0.0
230
1.0
 70
     8
 71
     3
 72
    12
 73
     8
 74
     0
 42
0.000000001
 43
0.00000001
 40
0.0
 40
0.0
 40
0.0
 40
0.0
 40
0.2500000000000001
 40
0.2500000000000001
 40
0.5000000000000001
 40
0.5000000000000001
 40
1.0
 40
1.0
 40
1.0
 40
1.0
 10
10.54562283108575
 20
-3.082687262663966
 30
0.0
 10
10.52169263862438
 20
-3.053589526922572
 30
0.0
 10
10.49782523822718
 20
-3.008207627594897
 30
0.0
 10
10.45131108561523
 20
-2.887870536866578
 30
0.0
 10
10.4292854713723
 20
-2.813821041318821
 30
0.0
 10
10.36101524437557
 20
-2.54803716606351
 30
0.0
 10
10.3122931137583
 20
-2.309670668226904
 30
0.0
 10
10.26474391178622
 20
-2.029604521546097
 30
0.0
  0
SPLINE
  5
153
330
1F
100
AcDbEntity
  8
외형선
  6
Continuous
370
    15
100
AcDbSpline
210
0.0
220
0.0
230
1.0
 70
    24
 71
     3
 72
    14
 73
    10
 74
     0
 42
0.000000001
 43
0.00000001
 40
0.0
 40
0.0
 40
0.0
 40
0.0
 40
0.2500000000000002
 40
0.2500000000000002
 40
0.5000000000000001
 40
0.5000000000000001
 40
0.75
 40
0.75
 40
1.0
 40
1.0
 40
1.0
 40
1.0
 10
9.999999999999986
 20
-1.837028447540567
 30
0.0
 10
9.999999999999986
 20
-1.967722626704513
 30
0.0
 10
9.999999999999986
 20
-2.090016466455059
 30
0.0
 10
9.999999999999986
 20
-2.317849398319521
 30
0.0
 10
9.99999999999999
 20
-2.423864951551471
 30
0.0
 10
9.99999999999999
 20
-2.613097958034047
 30
0.0
 10
10.00000000000006
 20
-2.69694135774265
 30
0.0
 10
10.00000000000006
 20
-2.843500821504023
 30
0.0
 10
10.00000000000081
 20
-2.906496593735915
 30
0.0
 10
10.00000000000081
 20
-2.957639906026725
 30
0.0
  0
SPLINE
  5
154
330
1F
100
AcDbEntity
  8
외형선
  6
Continuous
 62
     1
370
    15
100
AcDbSpline
210
0.0
220
0.0
230
1.0
 70
     8
 71
     3
 72
    12
 73
     8
 74
     0
 42
0.000000001
 43
0.00000001
 40
0.0
 40
0.0
 40
0.0
 40
0.0
 40
0.2499999999999999
 40
0.2499999999999999
 40
0.4999999999999998
 40
0.4999999999999998
 40
1.0
 40
1.0
 40
1.0
 40
1.0
 10
10.71121930726128
 20
-3.14805353919724
 30
0.0
 10
10.68745446150098
 20
-3.123801946066811
 30
0.0
 10
10.66366297687689
 20
-3.083119119497132
 30
0.0
 10
10.61711300974545
 20
-2.971417360054208
 30
0.0
 10
10.59478576730859
 20
-2.900973596557353
 30
0.0
 10
10.52783878697673
 20
-2.648029257818016
 30
0.0
 10
10.4797135134357
 20
-2.417394673995673
 30
0.0
 10
10.43231866363352
 20
-2.142303323771343
 30
0.0
  0
SPLINE
  5
155
330
1F
100
AcDbEntity
  8
외형선
  6
Continuous
 62
     1
370
    15
100
AcDbSpline
210
0.0
220
0.0
230
1.0
 70
     8
 71
     3
 72
    10
 73
     6
 74
     0
 42
0.000000001
 43
0.00000001
 40
0.0
 40
0.0
 40
0.0
 40
0.0
 40
0.5
 40
0.5
 40
1.0
 40
1.0
 40
1.0
 40
1.0
 10
22.45718049813162
 20
-3.109958661318176
 30
0.0
 10
22.4094321808395
 20
-3.078029841938351
 30
0.0
 10
22.36106728462859
 20
-2.9788832874527
 30
0.0
 10
22.27166824400008
 20
-2.671826905598429
 30
0.0
 10
22.22420362553498
 20
-2.457207452817619
 30
0.0
 10
22.17637384652349
 20
-2.194641594553177
 30
0.0
  0
SPLINE
  5
156
330
1F
100
AcDbEntity
  8
외형선
  6
Continuous
 62
     1
370
    15
100
AcDbSpline
210
0.0
220
0.0
230
1.0
 70
     8
 71
     3
 72
    12
 73
     8
 74
     0
 42
0.000000001
 43
0.00000001
 40
0.0
 40
0.0
 40
0.0
 40
0.0
 40
0.5000000000000001
 40
0.5000000000000001
 40
0.75
 40
0.75
 40
1.0
 40
1.0
 40
1.0
 40
1.0
 10
21.39140283176009
 20
2.292422437553893
 30
0.0
 10
21.34650270052097
 20
2.545800598103321
 30
0.0
 10
21.29824702336802
 20
2.758157998158214
 30
0.0
 10
21.22722008499734
 20
2.982645281358419
 30
0.0
 10
21.20378653572026
 20
3.042073462580089
 30
0.0
 10
21.15843638930223
 20
3.128742524243868
 30
0.0
 10
21.13663290648698
 20
3.15631223318525
 30
0.0
 10
21.11359453424217
 20
3.168301976247585
 30
0.0
  0
LINE
  5
157
330
1F
100
AcDbEntity
  8
외형선
  6
Continuous
 62
     1
370
    15
100
AcDbLine
 10
23.06716130722214
 20
-3.087941033438812
 30
0.0
 11
23.05791511121467
 21
-3.08267232826954
 31
0.0
  0
LINE
  5
158
330
1F
100
AcDbEntity
  8
외형선
  6
Continuous
 62
     1
370
    15
100
AcDbLine
 10
23.26359220284753
 20
-3.158948522316924
 30
0.0
 11
23.24104196629179
 21
-3.149993196832676
 31
0.0
  0
LINE
  5
159
330
1F
100
AcDbEntity
  8
외형선
  6
Continuous
 62
     1
370
    15
100
AcDbLine
 10
12.53293919619684
 20
-3.088137403695777
 30
0.0
 11
12.51852228760361
 21
-3.095337277465714
 31
0.0
  0
LINE
  5
15A
330
1F
100
AcDbEntity
  8
외형선
  6
Continuous
 62
     1
370
    15
100
AcDbLine
 10
19.32299329699227
 20
3.097211328761088
 30
0.0
 11
19.3166797787888
 21
3.089295695792844
 31
0.0
  0
SPLINE
  5
15B
330
1F
100
AcDbEntity
  8
외형선
  6
Continuous
 62
     1
370
    15
100
AcDbSpline
210
0.0
220
0.0
230
1.0
 70
     8
 71
     3
 72
     8
 73
     4
 74
     0
 42
0.000000001
 43
0.00000001
 40
0.000000298923855
 40
0.000000298923855
 40
0.000000298923855
 40
0.000000298923855
 40
0.0000177306358404
 40
0.0000177306358404
 40
0.0000177306358404
 40
0.0000177306358404
 10
29.04999999999999
 20
2.019606629395923
 30
0.0
 10
29.04611232419293
 20
2.022959009518257
 30
0.0
 10
29.04222363474653
 20
2.026309638481291
 30
0.0
 10
29.03833394665244
 20
2.029658538152366
 30
0.0
  0
LINE
  5
15C
330
1F
100
AcDbEntity
  8
외형선
  6
Continuous
 62
     1
370
    15
100
AcDbLine
 10
29.04999999999999
 20
0.6124588087644214
 30
0.0
 11
29.04999999999999
 21
2.019606629395923
 31
0.0
  0
LINE
  5
15D
330
1F
100
AcDbEntity
  8
외형선
  6
Continuous
 62
     1
370
    15
100
AcDbLine
 10
25.03153328255063
 20
-3.096445777219584
 30
0.0
 11
25.02795011518321
 21
-3.099168051258651
 31
0.0
  0
LINE
  5
15E
330
1F
100
AcDbEntity
  8
외형선
  6
Continuous
 62
     1
370
    15
100
AcDbLine
 10
29.04999999999999
 20
2.07499999999999
 30
0.0
 11
29.04999999999999
 21
2.019606629395923
 31
0.0
  0
LINE
  5
15F
330
1F
100
AcDbEntity
  8
외형선
  6
Continuous
 62
     1
370
    15
100
AcDbLine
 10
29.04999999999999
 20
-1.422247913250305
 30
0.0
 11
29.04999999999999
 21
-1.856130954124575
 31
0.0
  0
SPLINE
  5
160
330
1F
100
AcDbEntity
  8
외형선
  6
Continuous
 62
     1
370
    15
100
AcDbSpline
210
0.0
220
0.0
230
1.0
 70
     8
 71
     3
 72
    10
 73
     6
 74
     0
 42
0.000000001
 43
0.00000001
 40
0.0
 40
0.0
 40
0.0
 40
0.0
 40
0.1092473713906748
 40
0.557910288633931
 40
1.0
 40
1.0
 40
1.0
 40
1.0
 10
12.33731147755693
 20
-3.159246978646029
 30
0.0
 10
12.32982278403831
 20
-3.163928375761285
 30
0.0
 10
12.29157912554772
 20
-3.187835583619336
 30
0.0
 10
12.22001069728207
 20
-3.069207228525601
 30
0.0
 10
12.15997805188623
 20
-2.858094139968645
 30
0.0
 10
12.13018323116589
 20
-2.753316537985639
 30
0.0
  0
SPLINE
  5
161
330
1F
100
AcDbEntity
  8
외형선
  6
Continuous
 62
     1
370
    15
100
AcDbSpline
210
0.0
220
0.0
230
1.0
 70
     8
 71
     3
 72
     9
 73
     5
 74
     0
 42
0.000000001
 43
0.00000001
 40
0.0
 40
0.0
 40
0.0
 40
0.0
 40
0.6166646501124459
 40
1.0
 40
1.0
 40
1.0
 40
1.0
 10
19.69416239288847
 20
2.850905988961147
 30
0.0
 10
19.65685240049172
 20
2.964765966035768
 30
0.0
 10
19.59634951226885
 20
3.149404370481133
 30
0.0
 10
19.53647914414191
 20
3.161235297685242
 30
0.0
 10
19.51352871562808
 20
3.165770510304523
 30
0.0
  0
SPLINE
  5
162
330
1F
100
AcDbEntity
  8
외형선
  6
Continuous
 62
     1
370
    15
100
AcDbSpline
210
0.0
220
0.0
230
1.0
 70
     8
 71
     3
 72
    11
 73
     7
 74
     0
 42
0.000000001
 43
0.00000001
 40
0.0
 40
0.0
 40
0.0
 40
0.0
 40
0.0998417275592161
 40
0.49614730626704
 40
0.8885876366942743
 40
0.9999999999999999
 40
0.9999999999999999
 40
0.9999999999999999
 40
0.9999999999999999
 10
23.05791511121467
 20
-3.08267232826954
 30
0.0
 10
23.05063868556919
 20
-3.079604399667326
 30
0.0
 10
23.01447966597377
 20
-3.064358825006114
 30
0.0
 10
22.94986751921414
 20
-2.89406174136375
 30
0.0
 10
22.8872973950123
 20
-2.657032112777871
 30
0.0
 10
22.85068203792638
 20
-2.484482913558515
 30
0.0
 10
22.84258561705383
 20
-2.446328678579418
 30
0.0
  0
SPLINE
  5
163
330
1F
100
AcDbEntity
  8
외형선
  6
Continuous
 62
     1
370
    15
100
AcDbSpline
210
0.0
220
0.0
230
1.0
 70
     8
 71
     3
 72
    11
 73
     7
 74
     0
 42
0.000000001
 43
0.00000001
 40
0.0
 40
0.0
 40
0.0
 40
0.0
 40
0.1840116269320038
 40
0.5702095041587741
 40
0.9522885795275964
 40
1.0
 40
1.0
 40
1.0
 40
1.0
 10
23.24104196629179
 20
-3.149993196832676
 30
0.0
 10
23.22670842783591
 20
-3.147854003858312
 30
0.0
 10
23.18229210484571
 20
-3.141225139228674
 30
0.0
 10
23.10773638283473
 20
-2.959067823073427
 30
0.0
 10
23.04709372754224
 20
-2.723811638751509
 30
0.0
 10
23.01375728711582
 20
-2.568454001222352
 30
0.0
 10
23.01005657958128
 20
-2.551207613413695
 30
0.0
  0
SPLINE
  5
164
330
1F
100
AcDbEntity
  8
외형선
  6
Continuous
 62
     1
370
    15
100
AcDbSpline
210
0.0
220
0.0
230
1.0
 70
     8
 71
     3
 72
     9
 73
     5
 74
     0
 42
0.000000001
 43
0.00000001
 40
0.0
 40
0.0
 40
0.0
 40
0.0
 40
0.2315735742349799
 40
1.0
 40
1.0
 40
1.0
 40
1.0
 10
24.83720303140319
 20
-3.153912621896787
 30
0.0
 10
24.8271542924605
 20
-3.16019314391824
 30
0.0
 10
24.78376100384416
 20
-3.187314209187462
 30
0.0
 10
24.73933742637272
 20
-3.083964345610148
 30
0.0
 10
24.70520117551667
 20
-3.004547579338132
 30
0.0
  0
SPLINE
  5
165
330
1F
100
AcDbEntity
  8
외형선
  6
Continuous
 62
     1
370
    15
100
AcDbSpline
210
0.0
220
0.0
230
1.0
 70
     8
 71
     3
 72
    10
 73
     6
 74
     0
 42
0.000000001
 43
0.00000001
 40
0.0
 40
0.0
 40
0.0
 40
0.0
 40
0.2055507328811561
 40
0.6055521925001719
 40
1.0
 40
1.0
 40
1.0
 40
1.0
 10
12.51852228760361
 20
-3.095337277465714
 30
0.0
 10
12.50339194289693
 20
-3.106670600190755
 30
0.0
 10
12.45881796701279
 20
-3.140058554241148
 30
0.0
 10
12.38190966374505
 20
-3.034437622260765
 30
0.0
 10
12.32406799568946
 20
-2.843744968362017
 30
0.0
 10
12.29534933473657
 20
-2.749065166454122
 30
0.0
  0
SPLINE
  5
166
330
1F
100
AcDbEntity
  8
외형선
  6
Continuous
 62
     1
370
    15
100
AcDbSpline
210
0.0
220
0.0
230
1.0
 70
     8
 71
     3
 72
     9
 73
     5
 74
     0
 42
0.000000001
 43
0.00000001
 40
0.0
 40
0.0
 40
0.0
 40
0.0
 40
0.3316399614963508
 40
0.9999999999999999
 40
0.9999999999999999
 40
0.9999999999999999
 40
0.9999999999999999
 10
13.06920688043969
 20
-3.093092791086369
 30
0.0
 10
13.05699467685005
 20
-3.086628497075958
 30
0.0
 10
13.0201709975367
 20
-3.067136593925191
 30
0.0
 10
12.98384850142986
 20
-2.971136680783311
 30
0.0
 10
12.95957199653336
 20
-2.906974175139458
 30
0.0
  0
SPLINE
  5
167
330
1F
100
AcDbEntity
  8
외형선
  6
Continuous
 62
     1
370
    15
100
AcDbSpline
210
0.0
220
0.0
230
1.0
 70
     8
 71
     3
 72
    11
 73
     7
 74
     0
 42
0.000000001
 43
0.00000001
 40
0.0
 40
0.0
 40
0.0
 40
0.0
 40
0.2461354062714552
 40
0.4892590750564044
 40
0.9215881895527317
 40
1.0
 40
1.0
 40
1.0
 40
1.0
 10
19.52861681227094
 20
2.840024905252754
 30
0.0
 10
19.51145842893218
 20
2.890950174682965
 30
0.0
 10
19.47735161395195
 20
2.992177586845457
 30
0.0
 10
19.41552887606549
 20
3.100652186480925
 30
0.0
 10
19.36415759414041
 20
3.15377548610562
 30
0.0
 10
19.32847195621131
 20
3.104739593873642
 30
0.0
 10
19.32299329699227
 20
3.097211328761088
 30
0.0
  0
SPLINE
  5
168
330
1F
100
AcDbEntity
  8
외형선
  6
Continuous
 62
     1
370
    15
100
AcDbSpline
210
0.0
220
0.0
230
1.0
 70
     8
 71
     3
 72
     9
 73
     5
 74
     0
 42
0.000000001
 43
0.00000001
 40
0.0
 40
0.0
 40
0.0
 40
0.0
 40
0.6166423971573592
 40
1.0
 40
1.0
 40
1.0
 40
1.0
 10
18.86256777059282
 20
2.975937493683903
 30
0.0
 10
18.845331288357
 20
3.015436904388875
 30
0.0
 10
18.81737913599887
 20
3.079492523799834
 30
0.0
 10
18.78914338805714
 20
3.090457993244554
 30
0.0
 10
18.77831899941172
 20
3.094661689324925
 30
0.0
  0
SPLINE
  5
169
330
1F
100
AcDbEntity
  8
외형선
  6
Continuous
 62
     1
370
    15
100
AcDbSpline
210
0.0
220
0.0
230
1.0
 70
     8
 71
     3
 72
     9
 73
     5
 74
     0
 42
0.000000001
 43
0.00000001
 40
0.0
 40
0.0
 40
0.0
 40
0.0
 40
0.4944493996724582
 40
1.0
 40
1.0
 40
1.0
 40
1.0
 10
13.26375632111495
 20
-3.173877674678644
 30
0.0
 10
13.24111260125507
 20
-3.166765460419081
 30
0.0
 10
13.19531677285508
 20
-3.152381351015219
 30
0.0
 10
13.14985240316994
 20
-3.046507516898603
 30
0.0
 10
13.12686786378211
 20
-2.99298293650197
 30
0.0
  0
LINE
  5
16A
330
1F
100
AcDbEntity
  8
외형선
  6
Continuous
 62
     1
370
    15
100
AcDbLine
 10
14.83747683242512
 20
-3.166381348680467
 30
0.0
 11
14.82517268239729
 21
-3.173451874715546
 31
0.0
  0
SPLINE
  5
16B
330
1F
100
AcDbEntity
  8
외형선
  6
Continuous
 62
     1
370
    15
100
AcDbSpline
210
0.0
220
0.0
230
1.0
 70
     8
 71
     3
 72
    10
 73
     6
 74
     0
 42
0.000000001
 43
0.00000001
 40
0.0
 40
0.0
 40
0.0
 40
0.0
 40
0.1881023818384134
 40
0.5940907457900506
 40
1.0
 40
1.0
 40
1.0
 40
1.0
 10
25.02795011518321
 20
-3.099168051258651
 30
0.0
 10
25.01832414299922
 20
-3.108089592752874
 30
0.0
 10
24.98792207717825
 20
-3.136266828937225
 30
0.0
 10
24.93463991368553
 20
-3.1042845097028
 30
0.0
 10
24.89198894094143
 20
-3.022155986074013
 30
0.0
 10
24.87066553248376
 20
-2.981095725482279
 30
0.0
  0
SPLINE
  5
16C
330
1F
100
AcDbEntity
  8
외형선
  6
Continuous
 62
     1
370
    15
100
AcDbSpline
210
0.0
220
0.0
230
1.0
 70
     8
 71
     3
 72
     9
 73
     5
 74
     0
 42
0.000000001
 43
0.00000001
 40
0.0
 40
0.0
 40
0.0
 40
0.0
 40
0.3638159428607256
 40
1.0
 40
1.0
 40
1.0
 40
1.0
 10
18.69522276036675
 20
3.056580146546512
 30
0.0
 10
18.68231219888613
 20
3.082799321379734
 30
0.0
 10
18.64682567957888
 20
3.154866462327589
 30
0.0
 10
18.61069637260853
 20
3.162971424345301
 30
0.0
 10
18.58771148351851
 20
3.168127671964688
 30
0.0
  0
LINE
  5
16D
330
1F
100
AcDbEntity
  8
외형선
  6
Continuous
 62
     1
370
    15
100
AcDbLine
 10
25.56989592396721
 20
-3.094397768467115
 30
0.0
 11
25.53669412573807
 21
-3.071076620238863
 31
0.0
  0
LINE
  5
16E
330
1F
100
AcDbEntity
  8
외형선
  6
Continuous
 62
     1
370
    15
100
AcDbLine
 10
25.76390554699233
 20
-3.171712210125823
 30
0.0
 11
25.70423260837633
 21
-3.140454739489243
 31
0.0
  0
LINE
  5
16F
330
1F
100
AcDbEntity
  8
중심선
100
AcDbLine
 10
-37.45
 20
-0.0000000000000046
 30
0.0
 11
32.05000000000001
 21
0.0000000000000039
 31
0.0
  0
LINE
  5
170
330
1F
100
AcDbEntity
  8
참조1
100
AcDbLine
 10
-2.69999999999999
 20
-0.3168705809327338
 30
0.0
 11
-2.699999999999992
 21
-40.31687058093273
 31
0.0
  0
LINE
  5
171
330
1F
100
AcDbEntity
  8
참조1
100
AcDbLine
 10
-19.72860765519648
 20
-3.174999999999991
 30
0.0
 11
48.41397268839599
 21
-3.174999999999991
 31
0.0
  0
LINE
  5
172
330
1F
100
AcDbEntity
  8
참조1
100
AcDbLine
 10
48.41397268839599
 20
-3.174999999999991
 30
0.0
 11
48.41397268839599
 21
-6.927248606176843
 31
0.0
  0
LINE
  5
173
330
1F
100
AcDbEntity
  8
참조1
100
AcDbLine
 10
-2.699999999999992
 20
-40.31687058093273
 30
0.0
 11
-24.19604980726571
 21
-40.31687058093273
 31
0.0
  0
CIRCLE
  5
174
330
1F
100
AcDbEntity
  8
해칭선
100
AcDbCircle
 10
0.0
 20
0.0
 30
0.0
 40
3.000000000000005
  0
INSERT
  5
175
330
1F
100
AcDbEntity
  8
0
  6
Continuous
 62
     7
100
AcDbBlockReference
 66
     1
  2
블럭10
 10
-16.6402729321252
 20
-52.36404488257666
 30
0.0
  0
ATTRIB
  5
176
330
175
100
AcDbEntity
  8
FORMAT
 62
     2
100
AcDbText
 10
-26.16258688272314
 20
-50.28867796974446
 30
0.0
 40
4.233333333333333
  1
EH095016 [ 3 FLUTE ]
 41
0.75
  7
SLDTEXTSTYLE0
 11
-26.16258688272314
 21
-52.40534463641113
 31
0.0
100
AcDbAttribute
  2
AUTOATTR0
 70
     0
 74
     1
  0
SEQEND
  5
177
330
175
100
AcDbEntity
  8
0
  6
Continuous
 62
     7
  0
HATCH
  5
178
330
1F
100
AcDbEntity
  8
중심선
100
AcDbHatch
 10
0.0
 20
0.0
 30
0.0
210
0.0
220
0.0
230
1.0
  2
SOLID
 70
     1
 71
     0
 91
        1
 92
        0
 93
        4
 72
     1
 10
-10.92536362774436
 20
-36.11687058093273
 11
-14.37163887158164
 21
-36.11687058093273
 72
     1
 10
-14.37163887158164
 20
-36.11687058093273
 11
-16.49986873078566
 21
-38.65319616150532
 72
     1
 10
-16.49986873078566
 20
-38.65319616150532
 11
-13.05356040183521
 21
-38.65315673220283
 72
     1
 10
-13.05356040183521
 20
-38.65315673220283
 11
-10.92536362774436
 21
-36.11687058093273
 97
        0
 75
     0
 76
     1
 98
        1
 10
-0.0000000000000098
 20
-0.3168705809327304
  0
HATCH
  5
179
330
1F
100
AcDbEntity
  8
중심선
100
AcDbHatch
 10
0.0
 20
0.0
 30
0.0
210
0.0
220
0.0
230
1.0
  2
SOLID
 70
     1
 71
     0
 91
        1
 92
        0
 93
        4
 72
     1
 10
-5.912599636708409
 20
-36.11687058093275
 11
-9.358874880545663
 21
-36.11687058093275
 72
     1
 10
-9.358874880545663
 20
-36.11687058093275
 11
-13.89001288890308
 21
-41.51687058093275
 72
     1
 10
-13.89001288890308
 20
-41.51687058093275
 11
-10.4437376450658
 21
-41.51687058093275
 72
     1
 10
-10.4437376450658
 20
-41.51687058093275
 11
-5.91259963670841
 21
-36.11687058093275
 97
        0
 75
     0
 76
     1
 98
        1
 10
-0.0000000000000098
 20
-0.3168705809327304
  0
HATCH
  5
17A
330
1F
100
AcDbEntity
  8
중심선
100
AcDbHatch
 10
0.0
 20
0.0
 30
0.0
210
0.0
220
0.0
230
1.0
  2
SOLID
 70
     1
 71
     0
 91
        1
 92
        0
 93
        4
 72
     1
 10
-0.899835645672513
 20
-36.11687058093273
 11
-4.346110889509657
 21
-36.11687058093273
 72
     1
 10
-4.346110889509657
 20
-36.11687058093273
 11
-11.39454779139888
 21
-44.51687058093275
 72
     1
 10
-11.39454779139888
 20
-44.51687058093275
 11
-7.948272547561596
 21
-44.51687058093275
 72
     1
 10
-7.948272547561595
 20
-44.51687058093275
 11
-0.8998356456725132
 21
-36.11687058093273
 97
        0
 75
     0
 76
     1
 98
        1
 10
-0.0000000000000098
 20
-0.3168705809327304
  0
HATCH
  5
17B
330
1F
100
AcDbEntity
  8
중심선
100
AcDbHatch
 10
0.0
 20
0.0
 30
0.0
210
0.0
220
0.0
230
1.0
  2
SOLID
 70
     1
 71
     0
 91
        1
 92
        0
 93
        6
 72
     3
 10
3.900054785339687
 20
-40.316870580984
 11
3.960054785062283
 21
1.540882976769353E-10
 40
0.3939339440162628
 50
17.09539180608437
 51
320.0019657685075
 73
     0
 72
     1
 10
5.583054441040281
 20
-38.904764585571
 11
7.888356314741348
 21
-36.97043787552308
 72
     3
 10
3.90005478528684
 20
-40.31687058093288
 11
6.60005478528683
 21
-1.278976924368180E-13
 40
0.636358354079598
 50
39.99873849337413
 51
368.4976242363725
 73
     1
 72
     1
 10
10.32538727718745
 20
-39.35687058086275
 11
2.580122092122761
 21
-39.35687058086275
 72
     1
 10
2.580122092122762
 20
-39.35687058086275
 11
2.580097047676828
 21
-41.27687058086264
 72
     1
 10
2.580097047676828
 20
-41.27687058086264
 11
7.021476817148865
 21
-41.27687058086261
 97
        0
 75
     0
 76
     1
 98
        1
 10
-0.0000000000000098
 20
-0.3168705809327304
  0
POINT
  5
17C
330
1F
100
AcDbEntity
  8
치수문자_일반주서
100
AcDbPoint
 10
0.0000000000000006
 20
-0.3168705809327338
 30
0.0
  0
DIMENSION
  5
17D
330
1F
100
AcDbEntity
  8
치수문자_일반주서
100
AcDbDimension
  2
_D
 10
45.55798805119866
 20
-3.174999999999915
 30
0.0
 11
45.55798805119857
 21
23.12275000000015
 31
0.0
 70
   160
  1
%%c<>
 71
     2
 42
6.350000000000074
 52
-270.0
  3
SLDDIMSTYLE0
100
AcDbAlignedDimension
 13
9.237978005451804
 23
3.175000000000024
 33
0.0
 14
24.05039761712536
 24
-3.174999999999999
 34
0.0
 50
90.0000000000002
100
AcDbRotatedDimension
1001
ACAD
1000
DSTYLE
1002
{
1070
   171
1070
     6
1070
   273
1070
     7
1002
}
  0
DIMENSION
  5
191
330
1F
100
AcDbEntity
  8
치수문자_일반주서
100
AcDbDimension
  2
_D_1
 10
-44.45000000000005
 20
-3.17500000000005
 30
0.0
 11
-44.45000000000005
 21
-0.5086721738103245
 31
0.0
 70
   160
  1
%%c<>
 71
     2
 42
6.349999999999994
 52
-270.0
  3
SLDDIMSTYLE0
100
AcDbAlignedDimension
 13
-33.64000000000002
 23
3.174999999999984
 33
0.0
 14
-33.64000000000002
 24
-3.17500000000001
 34
0.0
 50
90.0000000000002
100
AcDbRotatedDimension
1001
ACAD
1000
DSTYLE
1002
{
1070
   171
1070
     6
1070
   273
1070
     7
1002
}
  0
DIMENSION
  5
1A5
330
1F
100
AcDbEntity
  8
치수문자_일반주서
100
AcDbDimension
  2
_D_2
 10
9.99999999999999
 20
20.53631205129167
 30
0.0
 11
-5.989500000000008
 21
20.53631205129167
 31
0.0
 70
   160
  1
<>
 71
     2
 42
19.05
  3
SLDDIMSTYLE1
100
AcDbAlignedDimension
 13
29.04999999999999
 23
2.019606629395923
 33
0.0
 14
9.99999999999999
 24
3.144691917191277
 34
0.0
 50
-0.0000000000000321
100
AcDbRotatedDimension
1001
ACAD
1000
DSTYLE
1002
{
1070
   171
1070
     6
1070
   273
1070
     7
1002
}
  0
DIMENSION
  5
1BA
330
1F
100
AcDbEntity
  8
치수문자_일반주서
100
AcDbDimension
  2
_D_3
 10
-34.45000000000002
 20
36.01698679301992
 30
0.0
 11
0.0762867256974993
 21
36.01698679301992
 31
0.0
 70
   160
  1
<>
 71
     2
 42
63.50000000000001
  3
SLDDIMSTYLE2
100
AcDbAlignedDimension
 13
29.04999999999999
 23
2.019606629395923
 33
0.0
 14
-34.45000000000002
 24
2.364999999999996
 34
0.0
100
AcDbRotatedDimension
1001
ACAD
1000
DSTYLE
1002
{
1070
   171
1070
     6
1070
   273
1070
     7
1002
}
  0
LINE
  5
1CE
330
1F
100
AcDbEntity
  8
참조1
100
AcDbLine
 10
73.77629082238856
 20
7.123129419067272
 30
0.0
 11
73.77629082238856
 21
-7.756870580932732
 31
0.0
  0
LINE
  5
1CF
330
1F
100
AcDbEntity
  8
참조1
100
AcDbLine
 10
86.47629082238856
 20
5.123129419067272
 30
0.0
 11
73.77629082238856
 21
5.123129419067272
 31
0.0
  0
SOLID
  5
1D0
330
1F
100
AcDbEntity
  8
참조1
100
AcDbTrace
 10
73.77629082238856
 20
5.123129419067272
 30
0.0
 11
80.12629082238855
 21
4.107129419067272
 31
0.0
 12
80.12629082238855
 22
6.139129419067272
 32
0.0
 13
80.12629082238855
 23
6.139129419067272
 33
0.0
  0
LINE
  5
1D1
330
1F
100
AcDbEntity
  8
참조1
100
AcDbLine
 10
86.47629082238856
 20
-5.756870580932732
 30
0.0
 11
73.77629082238856
 21
-5.756870580932732
 31
0.0
  0
SOLID
  5
1D2
330
1F
100
AcDbEntity
  8
참조1
100
AcDbTrace
 10
73.77629082238856
 20
-5.756870580932732
 30
0.0
 11
80.12629082238855
 21
-6.772870580932732
 31
0.0
 12
80.12629082238855
 22
-4.740870580932732
 32
0.0
 13
80.12629082238855
 23
-4.740870580932732
 33
0.0
  0
MTEXT
  5
1D3
330
1F
100
AcDbEntity
  8
참조1
100
AcDbMText
 10
83.37640563295112
 20
10.74884698508335
 30
0.0
 40
3.5
 41
0.0
 71
     1
 72
     1
  1
A
  7
SLDTEXTSTYLE0
 73
     1
 44
1.0
  0
MTEXT
  5
1D4
330
1F
100
AcDbEntity
  8
참조1
100
AcDbMText
 10
83.37640563295112
 20
-0.1311530149166568
 30
0.0
 40
3.5
 41
0.0
 71
     1
 72
     1
  1
A
  7
SLDTEXTSTYLE0
 73
     1
 44
1.0
  0
INSERT
  5
1DB
330
1F
100
AcDbEntity
  8
해칭선
100
AcDbBlockReference
  2
SW_DOWELSYMBOL_0
 10
0.0
 20
0.0
 30
0.0
  0
ENDSEC
  0
SECTION
  2
OBJECTS
  0
DICTIONARY
  5
C
330
0
100
AcDbDictionary
281
     1
  3
ACAD_GROUP
350
D
  3
ACAD_IMAGE_VARS
350
1FF
  3
ACAD_LAYOUT
350
1A
  3
ACAD_MLINESTYLE
350
17
  3
ACAD_PLOTSETTINGS
350
19
  3
ACAD_PLOTSTYLENAME
350
E
  3
ACAD_SCALELIST
350
47
  3
APPDATA
350
1FD
  3
DWGPROPS
350
204
  0
DICTIONARY
  5
D
102
{ACAD_REACTORS
330
C
102
}
330
C
100
AcDbDictionary
281
     1
  0
RASTERVARIABLES
  5
1FF
102
{ACAD_REACTORS
330
C
102
}
330
C
100
AcDbRasterVariables
 90
        0
 70
     1
 71
     1
 72
     1
  0
DICTIONARY
  5
1A
102
{ACAD_REACTORS
330
C
102
}
330
C
100
AcDbDictionary
281
     1
  3
Layout1
350
1E
  3
Layout2
350
26
  3
Model
350
22
  0
DICTIONARY
  5
17
102
{ACAD_REACTORS
330
C
102
}
330
C
100
AcDbDictionary
281
     1
  3
Standard
350
18
  0
DICTIONARY
  5
19
102
{ACAD_REACTORS
330
C
102
}
330
C
100
AcDbDictionary
281
     1
  0
ACDBDICTIONARYWDFLT
  5
E
102
{ACAD_REACTORS
330
C
102
}
330
C
100
AcDbDictionary
281
     1
  3
Normal
350
F
100
AcDbDictionaryWithDefault
340
F
  0
DICTIONARY
  5
47
102
{ACAD_REACTORS
330
C
102
}
330
C
100
AcDbDictionary
281
     1
  3
A0
350
48
  3
A1
350
49
  3
A2
350
4A
  3
A3
350
4B
  3
A4
350
4C
  3
A5
350
4D
  3
A6
350
4E
  3
A7
350
4F
  3
A8
350
50
  3
A9
350
51
  3
B0
350
52
  3
B1
350
53
  3
B2
350
54
  3
B3
350
55
  3
B4
350
56
  3
B5
350
57
  3
B6
350
58
  3
B7
350
59
  3
B8
350
5A
  3
B9
350
5B
  3
C0
350
5C
  3
C1
350
5D
  3
C2
350
5E
  3
C3
350
5F
  3
C4
350
60
  3
C5
350
61
  3
C6
350
62
  3
C7
350
63
  3
C8
350
64
  3
C9
350
65
  3
D0
350
66
  3
D1
350
67
  3
D2
350
68
  0
DICTIONARY
  5
1FD
102
{ACAD_REACTORS
330
C
102
}
330
C
100
AcDbDictionary
281
     1
  0
XRECORD
  5
204
102
{ACAD_REACTORS
330
C
102
}
330
C
100
AcDbXrecord
280
     1
  1
DWGPROPS COOKIE
  2

  3

  4

  6

  7

  8
12016016
  9

300
=
301
=
302
=
303
=
304
=
305
=
306
=
307
=
308
=
309
=
 40
0.0
 41
2458298.969342523
 42
2458302.206894849
  1

 90
        0
  0
LAYOUT
  5
1E
102
{ACAD_REACTORS
330
1A
102
}
330
1A
100
AcDbPlotSettings
  1

  2
none_device
  4

  6

 40
0.0
 41
0.0
 42
0.0
 43
0.0
 44
0.0
 45
0.0
 46
0.0
 47
0.0
 48
0.0
 49
0.0
140
0.0
141
0.0
142
1.0
143
1.0
 70
   688
 72
     1
 73
     0
 74
     5
  7

 75
    16
147
1.0
148
0.0
149
0.0
100
AcDbLayout
  1
Layout1
 70
     1
 71
     1
 10
0.0
 20
0.0
 11
420.0
 21
297.0
 12
0.0
 22
0.0
 32
0.0
 14
1.000000000000000E+20
 24
1.000000000000000E+20
 34
1.000000000000000E+20
 15
-1.000000000000000E+20
 25
-1.000000000000000E+20
 35
-1.000000000000000E+20
146
0.0
 13
0.0
 23
0.0
 33
0.0
 16
1.0
 26
0.0
 36
0.0
 17
0.0
 27
1.0
 37
0.0
 76
     0
330
1B
  0
LAYOUT
  5
26
102
{ACAD_REACTORS
330
1A
102
}
330
1A
100
AcDbPlotSettings
  1

  2
none_device
  4

  6

 40
0.0
 41
0.0
 42
0.0
 43
0.0
 44
0.0
 45
0.0
 46
0.0
 47
0.0
 48
0.0
 49
0.0
140
0.0
141
0.0
142
1.0
143
1.0
 70
   688
 72
     1
 73
     0
 74
     5
  7

 75
    16
147
1.0
148
0.0
149
0.0
100
AcDbLayout
  1
Layout2
 70
     1
 71
     2
 10
0.0
 20
0.0
 11
0.0
 21
0.0
 12
0.0
 22
0.0
 32
0.0
 14
0.0
 24
0.0
 34
0.0
 15
0.0
 25
0.0
 35
0.0
146
0.0
 13
0.0
 23
0.0
 33
0.0
 16
1.0
 26
0.0
 36
0.0
 17
0.0
 27
1.0
 37
0.0
 76
     0
330
23
  0
LAYOUT
  5
22
102
{ACAD_REACTORS
330
1A
102
}
330
1A
100
AcDbPlotSettings
  1

  2
none_device
  4
ANSI_A_(11.00_x_8.50_Inches)
  6

 40
6.35
 41
19.05
 42
6.35000508
 43
19.05000254
 44
279.4
 45
215.9
 46
102.8694767071461
 47
92.40251829376467
 48
0.0
 49
0.0
140
0.0
141
0.0
142
0.0768421082690618
143
1.0
 70
  1696
 72
     0
 73
     0
 74
     0
  7

 75
     0
147
0.0235690232323232
148
0.0
149
0.0
100
AcDbLayout
  1
Model
 70
     1
 71
     0
 10
0.0
 20
0.0
 11
420.0
 21
297.0
 12
0.0
 22
0.0
 32
0.0
 14
-48.82500000000009
 24
-50.28867796974447
 34
0.0
 15
86.47629082238856
 25
40.39198679301992
 35
0.0
146
0.0
 13
0.0
 23
0.0
 33
0.0
 16
1.0
 26
0.0
 36
0.0
 17
0.0
 27
1.0
 37
0.0
 76
     0
330
1F
331
29
  0
MLINESTYLE
  5
18
102
{ACAD_REACTORS
330
17
102
}
330
17
100
AcDbMlineStyle
  2
Standard
 70
     0
  3

 62
   256
 51
90.0
 52
90.0
 71
     2
 49
0.5
 62
   256
  6
BYLAYER
 49
-0.5
 62
   256
  6
BYLAYER
  0
ACDBPLACEHOLDER
  5
F
102
{ACAD_REACTORS
330
E
102
}
330
E
  0
SCALE
  5
48
102
{ACAD_REACTORS
330
47
102
}
330
47
100
AcDbScale
 70
     0
300
1:1
140
1.0
141
1.0
290
     1
  0
SCALE
  5
49
102
{ACAD_REACTORS
330
47
102
}
330
47
100
AcDbScale
 70
     0
300
1:2
140
1.0
141
2.0
290
     0
  0
SCALE
  5
4A
102
{ACAD_REACTORS
330
47
102
}
330
47
100
AcDbScale
 70
     0
300
1:4
140
1.0
141
4.0
290
     0
  0
SCALE
  5
4B
102
{ACAD_REACTORS
330
47
102
}
330
47
100
AcDbScale
 70
     0
300
1:5
140
1.0
141
5.0
290
     0
  0
SCALE
  5
4C
102
{ACAD_REACTORS
330
47
102
}
330
47
100
AcDbScale
 70
     0
300
1:8
140
1.0
141
8.0
290
     0
  0
SCALE
  5
4D
102
{ACAD_REACTORS
330
47
102
}
330
47
100
AcDbScale
 70
     0
300
1:10
140
1.0
141
10.0
290
     0
  0
SCALE
  5
4E
102
{ACAD_REACTORS
330
47
102
}
330
47
100
AcDbScale
 70
     0
300
1:16
140
1.0
141
16.0
290
     0
  0
SCALE
  5
4F
102
{ACAD_REACTORS
330
47
102
}
330
47
100
AcDbScale
 70
     0
300
1:20
140
1.0
141
20.0
290
     0
  0
SCALE
  5
50
102
{ACAD_REACTORS
330
47
102
}
330
47
100
AcDbScale
 70
     0
300
1:30
140
1.0
141
30.0
290
     0
  0
SCALE
  5
51
102
{ACAD_REACTORS
330
47
102
}
330
47
100
AcDbScale
 70
     0
300
1:40
140
1.0
141
40.0
290
     0
  0
SCALE
  5
52
102
{ACAD_REACTORS
330
47
102
}
330
47
100
AcDbScale
 70
     0
300
1:50
140
1.0
141
50.0
290
     0
  0
SCALE
  5
53
102
{ACAD_REACTORS
330
47
102
}
330
47
100
AcDbScale
 70
     0
300
1:100
140
1.0
141
100.0
290
     0
  0
SCALE
  5
54
102
{ACAD_REACTORS
330
47
102
}
330
47
100
AcDbScale
 70
     0
300
2:1
140
2.0
141
1.0
290
     0
  0
SCALE
  5
55
102
{ACAD_REACTORS
330
47
102
}
330
47
100
AcDbScale
 70
     0
300
4:1
140
4.0
141
1.0
290
     0
  0
SCALE
  5
56
102
{ACAD_REACTORS
330
47
102
}
330
47
100
AcDbScale
 70
     0
300
8:1
140
8.0
141
1.0
290
     0
  0
SCALE
  5
57
102
{ACAD_REACTORS
330
47
102
}
330
47
100
AcDbScale
 70
     0
300
10:1
140
10.0
141
1.0
290
     0
  0
SCALE
  5
58
102
{ACAD_REACTORS
330
47
102
}
330
47
100
AcDbScale
 70
     0
300
100:1
140
100.0
141
1.0
290
     0
  0
SCALE
  5
59
102
{ACAD_REACTORS
330
47
102
}
330
47
100
AcDbScale
 70
     0
300
1/128" = 1'-0"
140
0.0078125
141
12.0
290
     0
  0
SCALE
  5
5A
102
{ACAD_REACTORS
330
47
102
}
330
47
100
AcDbScale
 70
     0
300
1/64" = 1'-0"
140
0.015625
141
12.0
290
     0
  0
SCALE
  5
5B
102
{ACAD_REACTORS
330
47
102
}
330
47
100
AcDbScale
 70
     0
300
1/32" = 1'-0"
140
0.03125
141
12.0
290
     0
  0
SCALE
  5
5C
102
{ACAD_REACTORS
330
47
102
}
330
47
100
AcDbScale
 70
     0
300
1/16" = 1'-0"
140
0.0625
141
12.0
290
     0
  0
SCALE
  5
5D
102
{ACAD_REACTORS
330
47
102
}
330
47
100
AcDbScale
 70
     0
300
3/32" = 1'-0"
140
0.09375
141
12.0
290
     0
  0
SCALE
  5
5E
102
{ACAD_REACTORS
330
47
102
}
330
47
100
AcDbScale
 70
     0
300
1/8" = 1'-0"
140
0.125
141
12.0
290
     0
  0
SCALE
  5
5F
102
{ACAD_REACTORS
330
47
102
}
330
47
100
AcDbScale
 70
     0
300
3/16" = 1'-0"
140
0.1875
141
12.0
290
     0
  0
SCALE
  5
60
102
{ACAD_REACTORS
330
47
102
}
330
47
100
AcDbScale
 70
     0
300
1/4" = 1'-0"
140
0.25
141
12.0
290
     0
  0
SCALE
  5
61
102
{ACAD_REACTORS
330
47
102
}
330
47
100
AcDbScale
 70
     0
300
3/8" = 1'-0"
140
0.375
141
12.0
290
     0
  0
SCALE
  5
62
102
{ACAD_REACTORS
330
47
102
}
330
47
100
AcDbScale
 70
     0
300
1/2" = 1'-0"
140
0.5
141
12.0
290
     0
  0
SCALE
  5
63
102
{ACAD_REACTORS
330
47
102
}
330
47
100
AcDbScale
 70
     0
300
3/4" = 1'-0"
140
0.75
141
12.0
290
     0
  0
SCALE
  5
64
102
{ACAD_REACTORS
330
47
102
}
330
47
100
AcDbScale
 70
     0
300
1" = 1'-0"
140
1.0
141
12.0
290
     0
  0
SCALE
  5
65
102
{ACAD_REACTORS
330
47
102
}
330
47
100
AcDbScale
 70
     0
300
1-1/2" = 1'-0"
140
1.5
141
12.0
290
     0
  0
SCALE
  5
66
102
{ACAD_REACTORS
330
47
102
}
330
47
100
AcDbScale
 70
     0
300
3" = 1'-0"
140
3.0
141
12.0
290
     0
  0
SCALE
  5
67
102
{ACAD_REACTORS
330
47
102
}
330
47
100
AcDbScale
 70
     0
300
6" = 1'-0"
140
6.0
141
12.0
290
     0
  0
SCALE
  5
68
102
{ACAD_REACTORS
330
47
102
}
330
47
100
AcDbScale
 70
     0
300
1'-0" = 1'-0"
140
12.0
141
12.0
290
     0
  0
ENDSEC
  0
EOF
