  0
SECTION
  2
HEADER
  9
$ACADVER
  1
AC1015
  9
$ACADMAINTVER
 70
     6
  9
$DWGCODEPAGE
  3
ANSI_949
  9
$INSBASE
 10
0.0
 20
0.0
 30
0.0
  9
$EXTMIN
 10
1.000000000000000E+20
 20
1.000000000000000E+20
 30
1.000000000000000E+20
  9
$EXTMAX
 10
-1.000000000000000E+20
 20
-1.000000000000000E+20
 30
-1.000000000000000E+20
  9
$LIMMIN
 10
0.0
 20
0.0
  9
$LIMMAX
 10
420.0
 20
297.0
  9
$ORTHOMODE
 70
     0
  9
$REGENMODE
 70
     1
  9
$FILLMODE
 70
     1
  9
$QTEXTMODE
 70
     0
  9
$MIRRTEXT
 70
     1
  9
$LTSCALE
 40
1.0
  9
$ATTMODE
 70
     1
  9
$TEXTSIZE
 40
3.5
  9
$TRACEWID
 40
1.0
  9
$TEXTSTYLE
  7
Standard
  9
$CLAYER
  8
0
  9
$CELTYPE
  6
ByLayer
  9
$CECOLOR
 62
   256
  9
$CELTSCALE
 40
1.0
  9
$DISPSILH
 70
     0
  9
$DIMSCALE
 40
1.0
  9
$DIMASZ
 40
3.302
  9
$DIMEXO
 40
1.0
  9
$DIMDLI
 40
3.75
  9
$DIMRND
 40
0.0
  9
$DIMDLE
 40
0.0
  9
$DIMEXE
 40
1.0
  9
$DIMTP
 40
0.0
  9
$DIMTM
 40
0.0
  9
$DIMTXT
 40
3.5
  9
$DIMCEN
 40
2.5
  9
$DIMTSZ
 40
0.0
  9
$DIMTOL
 70
     0
  9
$DIMLIM
 70
     0
  9
$DIMTIH
 70
     1
  9
$DIMTOH
 70
     1
  9
$DIMSE1
 70
     0
  9
$DIMSE2
 70
     0
  9
$DIMTAD
 70
     1
  9
$DIMZIN
 70
     0
  9
$DIMBLK
  1

  9
$DIMASO
 70
     1
  9
$DIMSHO
 70
     1
  9
$DIMPOST
  1

  9
$DIMAPOST
  1

  9
$DIMALT
 70
     0
  9
$DIMALTD
 70
     3
  9
$DIMALTF
 40
0.0393700787401575
  9
$DIMLFAC
 40
1.0
  9
$DIMTOFL
 70
     1
  9
$DIMTVP
 40
0.0
  9
$DIMTIX
 70
     0
  9
$DIMSOXD
 70
     0
  9
$DIMSAH
 70
     0
  9
$DIMBLK1
  1

  9
$DIMBLK2
  1

  9
$DIMSTYLE
  2
ISO-25
  9
$DIMCLRD
 70
     0
  9
$DIMCLRE
 70
     0
  9
$DIMCLRT
 70
     0
  9
$DIMTFAC
 40
1.0
  9
$DIMGAP
 40
1.524
  9
$DIMJUST
 70
     0
  9
$DIMSD1
 70
     0
  9
$DIMSD2
 70
     0
  9
$DIMTOLJ
 70
     0
  9
$DIMTZIN
 70
     0
  9
$DIMALTZ
 70
     0
  9
$DIMALTTZ
 70
     0
  9
$DIMUPT
 70
     0
  9
$DIMDEC
 70
     2
  9
$DIMTDEC
 70
     2
  9
$DIMALTU
 70
     2
  9
$DIMALTTD
 70
     3
  9
$DIMTXSTY
  7
Standard
  9
$DIMAUNIT
 70
     0
  9
$DIMADEC
 70
     2
  9
$DIMALTRND
 40
0.0
  9
$DIMAZIN
 70
     0
  9
$DIMDSEP
 70
    44
  9
$DIMATFIT
 70
     3
  9
$DIMFRAC
 70
     0
  9
$DIMLDRBLK
  1

  9
$DIMLUNIT
 70
     2
  9
$DIMLWD
 70
    -2
  9
$DIMLWE
 70
    -2
  9
$DIMTMOVE
 70
     0
  9
$LUNITS
 70
     2
  9
$LUPREC
 70
     2
  9
$SKETCHINC
 40
1.0
  9
$FILLETRAD
 40
10.0
  9
$AUNITS
 70
     0
  9
$AUPREC
 70
     2
  9
$MENU
  1
.
  9
$ELEVATION
 40
0.0
  9
$PELEVATION
 40
0.0
  9
$THICKNESS
 40
0.0
  9
$LIMCHECK
 70
     0
  9
$CHAMFERA
 40
0.0
  9
$CHAMFERB
 40
0.0
  9
$CHAMFERC
 40
0.0
  9
$CHAMFERD
 40
0.0
  9
$SKPOLY
 70
     0
  9
$TDCREATE
 40
2458299.34408162
  9
$TDUCREATE
 40
2458298.96908162
  9
$TDUPDATE
 40
2458302.743905926
  9
$TDUUPDATE
 40
2458302.368905926
  9
$TDINDWG
 40
0.0002942014
  9
$TDUSRTIMER
 40
2458302.36861191
  9
$USRTIMER
 70
     1
  9
$ANGBASE
 50
0.0
  9
$ANGDIR
 70
     0
  9
$PDMODE
 70
     0
  9
$PDSIZE
 40
-1.0
  9
$PLINEWID
 40
0.0
  9
$SPLFRAME
 70
     0
  9
$SPLINETYPE
 70
     6
  9
$SPLINESEGS
 70
     8
  9
$HANDSEED
  5
52D
  9
$SURFTAB1
 70
     6
  9
$SURFTAB2
 70
     6
  9
$SURFTYPE
 70
     6
  9
$SURFU
 70
     6
  9
$SURFV
 70
     6
  9
$UCSBASE
  2

  9
$UCSNAME
  2

  9
$UCSORG
 10
0.0
 20
0.0
 30
0.0
  9
$UCSXDIR
 10
1.0
 20
0.0
 30
0.0
  9
$UCSYDIR
 10
0.0
 20
1.0
 30
0.0
  9
$UCSORTHOREF
  2

  9
$UCSORTHOVIEW
 70
     0
  9
$UCSORGTOP
 10
0.0
 20
0.0
 30
0.0
  9
$UCSORGBOTTOM
 10
0.0
 20
0.0
 30
0.0
  9
$UCSORGLEFT
 10
0.0
 20
0.0
 30
0.0
  9
$UCSORGRIGHT
 10
0.0
 20
0.0
 30
0.0
  9
$UCSORGFRONT
 10
0.0
 20
0.0
 30
0.0
  9
$UCSORGBACK
 10
0.0
 20
0.0
 30
0.0
  9
$PUCSBASE
  2

  9
$PUCSNAME
  2

  9
$PUCSORG
 10
0.0
 20
0.0
 30
0.0
  9
$PUCSXDIR
 10
1.0
 20
0.0
 30
0.0
  9
$PUCSYDIR
 10
0.0
 20
1.0
 30
0.0
  9
$PUCSORTHOREF
  2

  9
$PUCSORTHOVIEW
 70
     0
  9
$PUCSORGTOP
 10
0.0
 20
0.0
 30
0.0
  9
$PUCSORGBOTTOM
 10
0.0
 20
0.0
 30
0.0
  9
$PUCSORGLEFT
 10
0.0
 20
0.0
 30
0.0
  9
$PUCSORGRIGHT
 10
0.0
 20
0.0
 30
0.0
  9
$PUCSORGFRONT
 10
0.0
 20
0.0
 30
0.0
  9
$PUCSORGBACK
 10
0.0
 20
0.0
 30
0.0
  9
$USERI1
 70
     0
  9
$USERI2
 70
     0
  9
$USERI3
 70
     0
  9
$USERI4
 70
     0
  9
$USERI5
 70
     0
  9
$USERR1
 40
0.0
  9
$USERR2
 40
0.0
  9
$USERR3
 40
0.0
  9
$USERR4
 40
0.0
  9
$USERR5
 40
0.0
  9
$WORLDVIEW
 70
     1
  9
$SHADEDGE
 70
     3
  9
$SHADEDIF
 70
    70
  9
$TILEMODE
 70
     1
  9
$MAXACTVP
 70
    64
  9
$PINSBASE
 10
0.0
 20
0.0
 30
0.0
  9
$PLIMCHECK
 70
     0
  9
$PEXTMIN
 10
1.000000000000000E+20
 20
1.000000000000000E+20
 30
1.000000000000000E+20
  9
$PEXTMAX
 10
-1.000000000000000E+20
 20
-1.000000000000000E+20
 30
-1.000000000000000E+20
  9
$PLIMMIN
 10
0.0
 20
0.0
  9
$PLIMMAX
 10
0.0
 20
0.0
  9
$UNITMODE
 70
     0
  9
$VISRETAIN
 70
     1
  9
$PLINEGEN
 70
     0
  9
$PSLTSCALE
 70
     1
  9
$TREEDEPTH
 70
  3020
  9
$CMLSTYLE
  2
Standard
  9
$CMLJUST
 70
     0
  9
$CMLSCALE
 40
20.0
  9
$PROXYGRAPHICS
 70
     1
  9
$MEASUREMENT
 70
     1
  9
$CELWEIGHT
370
    -1
  9
$ENDCAPS
280
     0
  9
$JOINSTYLE
280
     0
  9
$LWDISPLAY
290
     1
  9
$INSUNITS
 70
     4
  9
$HYPERLINKBASE
  1

  9
$STYLESHEET
  1

  9
$XEDIT
290
     1
  9
$CEPSNTYPE
380
     0
  9
$PSTYLEMODE
290
     1
  9
$FINGERPRINTGUID
  2
{2A17F423-0E42-4B8D-89A6-6C4C27E0CA0D}
  9
$VERSIONGUID
  2
{FAEB1C32-E019-11D5-929B-00C0DF256EC4}
  9
$EXTNAMES
290
     1
  9
$PSVPSCALE
 40
0.0
  9
$OLESTARTUP
290
     0
  0
ENDSEC
  0
SECTION
  2
CLASSES
  0
CLASS
  1
ACDBDICTIONARYWDFLT
  2
AcDbDictionaryWithDefault
  3
ObjectDBX Classes
 90
        0
280
     0
281
     0
  0
CLASS
  1
VISUALSTYLE
  2
AcDbVisualStyle
  3
ObjectDBX Classes
 90
     4095
280
     0
281
     0
  0
CLASS
  1
MATERIAL
  2
AcDbMaterial
  3
ObjectDBX Classes
 90
     1153
280
     0
281
     0
  0
CLASS
  1
SCALE
  2
AcDbScale
  3
ObjectDBX Classes
 90
     1153
280
     0
281
     0
  0
CLASS
  1
SUN
  2
AcDbSun
  3
SCENEOE
 90
     1153
280
     0
281
     0
  0
CLASS
  1
ACDBPLACEHOLDER
  2
AcDbPlaceHolder
  3
ObjectDBX Classes
 90
        0
280
     0
281
     0
  0
CLASS
  1
LAYOUT
  2
AcDbLayout
  3
ObjectDBX Classes
 90
        0
280
     0
281
     0
  0
CLASS
  1
TABLESTYLE
  2
AcDbTableStyle
  3
ObjectDBX Classes
 90
     4095
280
     0
281
     0
  0
CLASS
  1
MLEADERSTYLE
  2
AcDbMLeaderStyle
  3
ACDB_MLEADERSTYLE_CLASS
 90
     4095
280
     0
281
     0
  0
CLASS
  1
RASTERVARIABLES
  2
AcDbRasterVariables
  3
ISM
 90
        0
280
     0
281
     0
  0
ENDSEC
  0
SECTION
  2
TABLES
  0
TABLE
  2
VPORT
  5
8
330
0
100
AcDbSymbolTable
 70
     1
  0
VPORT
  5
29
330
8
100
AcDbSymbolTableRecord
100
AcDbViewportTableRecord
  2
*Active
 70
     0
 10
0.0
 20
0.0
 11
1.0
 21
1.0
 12
-15.93521014182096
 22
-1.566149212837153
 13
0.0
 23
0.0
 14
10.0
 24
10.0
 15
10.0
 25
10.0
 16
0.0
 26
0.0
 36
1.0
 17
0.0
 27
0.0
 37
0.0
 40
132.8931610000247
 41
1.601547388781431
 42
50.0
 43
0.0
 44
0.0
 50
0.0
 51
0.0
 71
    16
 72
  2000
 73
     1
 74
     3
 75
     0
 76
     0
 77
     0
 78
     0
281
     0
 65
     1
110
0.0
120
0.0
130
0.0
111
1.0
121
0.0
131
0.0
112
0.0
122
1.0
132
0.0
 79
     0
146
0.0
  0
ENDTAB
  0
TABLE
  2
LTYPE
  5
5
330
0
100
AcDbSymbolTable
 70
     6
  0
LTYPE
  5
14
330
5
100
AcDbSymbolTableRecord
100
AcDbLinetypeTableRecord
  2
ByBlock
 70
     0
  3

 72
    65
 73
     0
 40
0.0
  0
LTYPE
  5
15
330
5
100
AcDbSymbolTableRecord
100
AcDbLinetypeTableRecord
  2
ByLayer
 70
     0
  3

 72
    65
 73
     0
 40
0.0
  0
LTYPE
  5
16
330
5
100
AcDbSymbolTableRecord
100
AcDbLinetypeTableRecord
  2
Continuous
 70
     0
  3
Solid line
 72
    65
 73
     0
 40
0.0
  0
LTYPE
  5
6A
330
5
100
AcDbSymbolTableRecord
100
AcDbLinetypeTableRecord
  2
HIDDEN
 70
     0
  3
Hidden __ __ __ __ __ __ __ __ __ __ __ __ __ __
 72
    65
 73
     2
 40
1.905
 49
1.27
 74
     0
 49
-0.635
 74
     0
  0
LTYPE
  5
6B
330
5
100
AcDbSymbolTableRecord
100
AcDbLinetypeTableRecord
  2
PHANTOM
 70
     0
  3
Phantom ______  __  __  ______  __  __  ______
 72
    65
 73
     6
 40
12.7
 49
6.35
 74
     0
 49
-1.27
 74
     0
 49
1.27
 74
     0
 49
-1.27
 74
     0
 49
1.27
 74
     0
 49
-1.27
 74
     0
  0
LTYPE
  5
6C
330
5
100
AcDbSymbolTableRecord
100
AcDbLinetypeTableRecord
  2
CENTER
 70
     0
  3
Center ____ _ ____ _ ____ _ ____ _ ____ _ ____
 72
    65
 73
     4
 40
10.16
 49
6.35
 74
     0
 49
-1.27
 74
     0
 49
1.27
 74
     0
 49
-1.27
 74
     0
  0
LTYPE
  5
6D
330
5
100
AcDbSymbolTableRecord
100
AcDbLinetypeTableRecord
  2
CENTERX2
 70
     0
  3
Center (2x) ________  __  ________  __  _____
 72
    65
 73
     4
 40
20.32
 49
12.7
 74
     0
 49
-2.54
 74
     0
 49
2.54
 74
     0
 49
-2.54
 74
     0
  0
LTYPE
  5
6E
330
5
100
AcDbSymbolTableRecord
100
AcDbLinetypeTableRecord
  2
DOT2
 70
     0
  3
Dot (.5x) ........................................
 72
    65
 73
     2
 40
0.635
 49
0.0
 74
     0
 49
-0.635
 74
     0
  0
ENDTAB
  0
TABLE
  2
LAYER
  5
2
330
0
100
AcDbSymbolTable
 70
    18
  0
LAYER
  5
10
330
2
100
AcDbSymbolTableRecord
100
AcDbLayerTableRecord
  2
0
 70
     0
 62
     7
  6
Continuous
370
    -3
390
F
  0
LAYER
  5
6F
330
2
100
AcDbSymbolTableRecord
100
AcDbLayerTableRecord
  2
FORMAT
 70
     0
 62
     2
  6
Continuous
370
    -3
390
F
  0
LAYER
  5
70
330
2
100
AcDbSymbolTableRecord
100
AcDbLayerTableRecord
  2
외형선
 70
     0
 62
     4
  6
Continuous
370
    30
390
F
  0
LAYER
  5
71
330
2
100
AcDbSymbolTableRecord
100
AcDbLayerTableRecord
  2
숨은선
 70
     0
 62
     2
  6
HIDDEN
370
    15
390
F
  0
LAYER
  5
72
330
2
100
AcDbSymbolTableRecord
100
AcDbLayerTableRecord
  2
중심선
 70
     0
 62
     1
  6
CENTERX2
370
    -3
390
F
  0
LAYER
  5
73
330
2
100
AcDbSymbolTableRecord
100
AcDbLayerTableRecord
  2
파단선
 70
     0
 62
     4
  6
Continuous
370
    -3
390
F
  0
LAYER
  5
74
330
2
100
AcDbSymbolTableRecord
100
AcDbLayerTableRecord
  2
해칭선
 70
     0
 62
   100
  6
Continuous
370
    -3
390
F
  0
LAYER
  5
75
330
2
100
AcDbSymbolTableRecord
100
AcDbLayerTableRecord
  2
가는실선
 70
     0
 62
     4
  6
Continuous
370
    -3
390
F
  0
LAYER
  5
76
330
2
100
AcDbSymbolTableRecord
100
AcDbLayerTableRecord
  2
치수_보조선
 70
     0
 62
     4
  6
Continuous
370
    -3
390
F
  0
LAYER
  5
77
330
2
100
AcDbSymbolTableRecord
100
AcDbLayerTableRecord
  2
치수문자_일반주서
 70
     0
 62
     7
  6
Continuous
370
    15
390
F
  0
LAYER
  5
78
330
2
100
AcDbSymbolTableRecord
100
AcDbLayerTableRecord
  2
개별주서
 70
     0
 62
   100
  6
Continuous
370
    30
390
F
  0
LAYER
  5
79
330
2
100
AcDbSymbolTableRecord
100
AcDbLayerTableRecord
  2
중간선
 70
     0
 62
     2
  6
Continuous
370
    15
390
F
  0
LAYER
  5
7A
330
2
100
AcDbSymbolTableRecord
100
AcDbLayerTableRecord
  2
윤곽선
 70
     0
 62
     3
  6
Continuous
370
    40
390
F
  0
LAYER
  5
7B
330
2
100
AcDbSymbolTableRecord
100
AcDbLayerTableRecord
  2
중심마크
 70
     0
 62
   100
  6
Continuous
370
    30
390
F
  0
LAYER
  5
7C
330
2
100
AcDbSymbolTableRecord
100
AcDbLayerTableRecord
  2
가상선
 70
     0
 62
     4
  6
PHANTOM
370
    -3
390
F
  0
LAYER
  5
7D
330
2
100
AcDbSymbolTableRecord
100
AcDbLayerTableRecord
  2
특수지정선
 70
     0
 62
     5
  6
CENTERX2
370
    60
390
F
  0
LAYER
  5
7E
330
2
100
AcDbSymbolTableRecord
100
AcDbLayerTableRecord
  2
참조1
 70
     0
 62
    -4
  6
Continuous
370
    -3
390
F
  0
LAYER
  5
143
330
2
100
AcDbSymbolTableRecord
100
AcDbLayerTableRecord
  2
Defpoints
 70
     0
 62
     7
  6
Continuous
290
     0
370
    -3
390
F
  0
ENDTAB
  0
TABLE
  2
STYLE
  5
3
330
0
100
AcDbSymbolTable
 70
     2
  0
STYLE
  5
11
330
3
100
AcDbSymbolTableRecord
100
AcDbTextStyleTableRecord
  2
Standard
 70
     0
 40
0.0
 41
1.0
 50
0.0
 71
     0
 42
3.5
  3
txt
  4

  0
STYLE
  5
94
330
3
100
AcDbSymbolTableRecord
100
AcDbTextStyleTableRecord
  2
SLDTEXTSTYLE0
 70
     0
 40
0.0
 41
0.75
 50
0.0
 71
     0
 42
3.5
  3
TXT
  4

  0
ENDTAB
  0
TABLE
  2
VIEW
  5
6
330
0
100
AcDbSymbolTable
 70
     0
  0
ENDTAB
  0
TABLE
  2
UCS
  5
7
330
0
100
AcDbSymbolTable
 70
     0
  0
ENDTAB
  0
TABLE
  2
APPID
  5
9
330
0
100
AcDbSymbolTable
 70
     3
  0
APPID
  5
12
330
9
100
AcDbSymbolTableRecord
100
AcDbRegAppTableRecord
  2
ACAD
 70
     0
  0
APPID
  5
52B
330
9
100
AcDbSymbolTableRecord
100
AcDbRegAppTableRecord
  2
ACAD_DSTYLE_DIMFLIPARROW_SYMBOL
 70
     0
  0
APPID
  5
52C
330
9
100
AcDbSymbolTableRecord
100
AcDbRegAppTableRecord
  2
ACAD_DSTYLE_DIMFLIPARROW_WHICH_SYMBOL
 70
     0
  0
ENDTAB
  0
TABLE
  2
DIMSTYLE
  5
A
330
0
100
AcDbSymbolTable
 70
     4
100
AcDbDimStyleTable
  0
DIMSTYLE
105
27
330
A
100
AcDbSymbolTableRecord
100
AcDbDimStyleTableRecord
  2
ISO-25
 70
     0
 41
2.5
 42
0.625
 43
3.75
 44
1.25
 73
     0
 74
     0
 77
     1
 78
     8
140
2.5
141
2.5
143
0.03937007874016
147
0.625
171
     3
172
     1
178
     0
271
     2
272
     2
274
     3
278
    44
283
     0
284
     8
340
11
  0
DIMSTYLE
105
C2
102
{ACAD_REACTORS
330
30E
330
328
330
4F0
330
4F2
102
}
330
A
100
AcDbSymbolTableRecord
100
AcDbDimStyleTableRecord
  2
SLDDIMSTYLE0
 70
     0
 41
3.302
 44
0.0
 45
0.000000001
 73
     0
 74
     0
 77
     1
 78
    12
 79
     3
140
3.5
143
0.0393700787401575
147
0.875
148
0.000000001
170
     1
173
     1
178
     0
271
     2
272
     2
276
     2
284
    12
340
94
  0
DIMSTYLE
105
D5
102
{ACAD_REACTORS
330
31B
330
4F1
102
}
330
A
100
AcDbSymbolTableRecord
100
AcDbDimStyleTableRecord
  2
SLDDIMSTYLE1
 70
     0
 41
3.302
 44
0.0
 45
0.000000001
 73
     0
 74
     0
 77
     1
 78
    12
 79
     3
140
3.5
143
0.0393700787401575
147
0.875
148
0.000000001
170
     1
172
     1
173
     1
178
     0
271
     2
272
     2
276
     2
284
    12
289
     0
340
94
  0
DIMSTYLE
105
EA
102
{ACAD_REACTORS
330
337
330
4F3
102
}
330
A
100
AcDbSymbolTableRecord
100
AcDbDimStyleTableRecord
  2
SLDDIMSTYLE2
 70
     0
 41
3.302
 44
0.0
 45
0.000000001
 73
     0
 74
     0
 77
     1
 78
     4
 79
     1
140
3.5
143
0.0393700787401575
147
0.875
148
0.000000001
170
     1
173
     1
178
     0
271
     2
272
     2
276
     2
284
    12
340
94
  0
ENDTAB
  0
TABLE
  2
BLOCK_RECORD
  5
1
330
0
100
AcDbSymbolTable
 70
    16
  0
BLOCK_RECORD
  5
1F
330
1
100
AcDbSymbolTableRecord
100
AcDbBlockTableRecord
  2
*Model_Space
340
22
  0
BLOCK_RECORD
  5
1B
330
1
100
AcDbSymbolTableRecord
100
AcDbBlockTableRecord
  2
*Paper_Space
340
1E
  0
BLOCK_RECORD
  5
23
330
1
100
AcDbSymbolTableRecord
100
AcDbBlockTableRecord
  2
*Paper_Space0
340
26
  0
BLOCK_RECORD
  5
7F
330
1
100
AcDbSymbolTableRecord
100
AcDbBlockTableRecord
  2
블럭10
340
0
102
{BLKREFS
331
B9
102
}
  0
BLOCK_RECORD
  5
C3
330
1
100
AcDbSymbolTableRecord
100
AcDbBlockTableRecord
  2
_D
340
0
  0
BLOCK_RECORD
  5
D6
330
1
100
AcDbSymbolTableRecord
100
AcDbBlockTableRecord
  2
_D_1
340
0
  0
BLOCK_RECORD
  5
EB
330
1
100
AcDbSymbolTableRecord
100
AcDbBlockTableRecord
  2
_D_2
340
0
  0
BLOCK_RECORD
  5
FF
330
1
100
AcDbSymbolTableRecord
100
AcDbBlockTableRecord
  2
_D_3
340
0
  0
BLOCK_RECORD
  5
118
330
1
100
AcDbSymbolTableRecord
100
AcDbBlockTableRecord
  2
SW_DOWELSYMBOL_0
340
0
102
{BLKREFS
331
0
331
344
331
4F4
102
}
  0
BLOCK_RECORD
  5
30F
330
1
100
AcDbSymbolTableRecord
100
AcDbBlockTableRecord
  2
*D8
340
0
  0
BLOCK_RECORD
  5
31C
330
1
100
AcDbSymbolTableRecord
100
AcDbBlockTableRecord
  2
*D9
340
0
  0
BLOCK_RECORD
  5
329
330
1
100
AcDbSymbolTableRecord
100
AcDbBlockTableRecord
  2
*D10
340
0
  0
BLOCK_RECORD
  5
338
330
1
100
AcDbSymbolTableRecord
100
AcDbBlockTableRecord
  2
*D11
340
0
  0
BLOCK_RECORD
  5
4F8
330
1
100
AcDbSymbolTableRecord
100
AcDbBlockTableRecord
  2
*D12
340
0
  0
BLOCK_RECORD
  5
504
330
1
100
AcDbSymbolTableRecord
100
AcDbBlockTableRecord
  2
*D13
340
0
  0
BLOCK_RECORD
  5
510
330
1
100
AcDbSymbolTableRecord
100
AcDbBlockTableRecord
  2
*D14
340
0
  0
BLOCK_RECORD
  5
51E
330
1
100
AcDbSymbolTableRecord
100
AcDbBlockTableRecord
  2
*D15
340
0
  0
ENDTAB
  0
ENDSEC
  0
SECTION
  2
BLOCKS
  0
BLOCK
  5
20
330
1F
100
AcDbEntity
  8
0
100
AcDbBlockBegin
  2
*Model_Space
 70
     0
 10
0.0
 20
0.0
 30
0.0
  3
*Model_Space
  1
*Model_Space
  0
ENDBLK
  5
21
330
1F
100
AcDbEntity
  8
0
100
AcDbBlockEnd
  0
BLOCK
  5
1C
330
1B
100
AcDbEntity
 67
     1
  8
0
100
AcDbBlockBegin
  2
*Paper_Space
 70
     0
 10
0.0
 20
0.0
 30
0.0
  3
*Paper_Space
  1
*Paper_Space
  0
ENDBLK
  5
1D
330
1B
100
AcDbEntity
 67
     1
  8
0
100
AcDbBlockEnd
  0
BLOCK
  5
24
330
23
100
AcDbEntity
  8
0
100
AcDbBlockBegin
  2
*Paper_Space0
 70
     0
 10
0.0
 20
0.0
 30
0.0
  3
*Paper_Space0
  1
*Paper_Space0
  0
ENDBLK
  5
25
330
23
100
AcDbEntity
  8
0
100
AcDbBlockEnd
  0
BLOCK
  5
80
330
7F
100
AcDbEntity
  8
0
100
AcDbBlockBegin
  2
블럭10
 70
     2
 10
0.0
 20
0.0
 30
0.0
  3
블럭10
  1
블럭10
  0
ELLIPSE
  5
82
330
7F
100
AcDbEntity
  8
중심선
100
AcDbEllipse
 10
20.54032771741204
 20
12.0471743016438
 30
0.0
 11
6.600054785286829
 21
-1.261213355974178E-13
 31
0.0
210
0.0
220
0.0
230
1.0
 40
0.636358354079598
 41
0.9219305317359503
 42
6.513795318482858
  0
ELLIPSE
  5
83
330
7F
100
AcDbEntity
  8
중심선
100
AcDbEllipse
 10
20.54032771746488
 20
12.04717430159265
 30
0.0
 11
3.960054785062283
 21
1.540847449632565E-10
 31
0.0
210
0.0
220
0.0
230
1.0
 40
0.3939339440162632
 41
1.131841032648279
 42
5.62031148352944
  0
LINE
  5
84
330
7F
100
AcDbEntity
  8
중심선
100
AcDbLine
 10
2.268634060543552
 20
16.24717430164393
 30
0.0
 11
5.714909304380834
 21
16.24717430164393
 31
0.0
  0
LINE
  5
85
330
7F
100
AcDbEntity
  8
중심선
100
AcDbLine
 10
5.245725140726316
 20
7.84717430164391
 30
0.0
 11
8.692000384563599
 21
7.84717430164391
 31
0.0
  0
LINE
  5
86
330
7F
100
AcDbEntity
  8
중심선
100
AcDbLine
 10
15.74043728645272
 20
16.24717430164393
 30
0.0
 11
8.692000384563599
 21
7.84717430164391
 31
0.0
  0
LINE
  5
87
330
7F
100
AcDbEntity
  8
중심선
100
AcDbLine
 10
0.1404042013395286
 20
13.71084872107135
 30
0.0
 11
3.58671253028996
 21
13.71088815037384
 31
0.0
  0
LINE
  5
88
330
7F
100
AcDbEntity
  8
중심선
100
AcDbLine
 10
2.750260043222114
 20
10.84717430164391
 30
0.0
 11
6.196535287059397
 21
10.84717430164391
 31
0.0
  0
LINE
  5
89
330
7F
100
AcDbEntity
  8
중심선
100
AcDbLine
 10
12.29416204261559
 20
16.24717430164393
 30
0.0
 11
5.245725140726316
 21
7.84717430164391
 31
0.0
  0
LINE
  5
8A
330
7F
100
AcDbEntity
  8
중심선
100
AcDbLine
 10
10.72767329541681
 20
16.24717430164393
 30
0.0
 11
6.196535287059397
 21
10.84717430164391
 31
0.0
  0
LINE
  5
8B
330
7F
100
AcDbEntity
  8
중심선
100
AcDbLine
 10
7.28139805157953
 20
16.24717430164393
 30
0.0
 11
2.750260043222114
 21
10.84717430164391
 31
0.0
  0
LINE
  5
8C
330
7F
100
AcDbEntity
  8
중심선
100
AcDbLine
 10
5.714909304380834
 20
16.24717430164393
 30
0.0
 11
3.58671253028996
 21
13.71088815037384
 31
0.0
  0
LINE
  5
8D
330
7F
100
AcDbEntity
  8
중심선
100
AcDbLine
 10
2.268634060543552
 20
16.24717430164393
 30
0.0
 11
0.1404042013395286
 21
13.71084872107135
 31
0.0
  0
LINE
  5
8E
330
7F
100
AcDbEntity
  8
중심선
100
AcDbLine
 10
7.28139805157953
 20
16.24717430164393
 30
0.0
 11
10.72767329541681
 21
16.24717430164393
 31
0.0
  0
LINE
  5
8F
330
7F
100
AcDbEntity
  8
중심선
100
AcDbLine
 10
12.29416204261559
 20
16.24717430164393
 30
0.0
 11
15.74043728645272
 21
16.24717430164393
 31
0.0
  0
LINE
  5
90
330
7F
100
AcDbEntity
  8
중심선
100
AcDbLine
 10
19.22036997980202
 20
11.08717430171403
 30
0.0
 11
23.66174974927406
 21
11.08717430171406
 31
0.0
  0
LINE
  5
91
330
7F
100
AcDbEntity
  8
중심선
100
AcDbLine
 10
19.22039502424796
 20
13.00717430171391
 30
0.0
 11
19.22036997980202
 21
11.08717430171403
 31
0.0
  0
LINE
  5
92
330
7F
100
AcDbEntity
  8
중심선
100
AcDbLine
 10
19.22039502424796
 20
13.00717430171391
 30
0.0
 11
26.96566020931264
 21
13.00717430171391
 31
0.0
  0
LINE
  5
93
330
7F
100
AcDbEntity
  8
중심선
100
AcDbLine
 10
22.22332737316547
 20
13.45928029700563
 30
0.0
 11
24.52862924686651
 21
15.39360700705356
 31
0.0
  0
ATTDEF
  5
95
330
7F
100
AcDbEntity
  8
FORMAT
 62
     2
100
AcDbText
 10
-9.522313950597932
 20
2.075366912832191
 30
0.0
 40
4.233333333333333
  1
EH094048 [ 4 FLUTE ]
 41
0.75
  7
SLDTEXTSTYLE0
 11
-9.522313950597932
 21
-0.0412997538344756
 31
0.0
100
AcDbAttributeDefinition
  3

  2
AUTOATTR0
 70
     0
 74
     1
  0
ENDBLK
  5
81
330
7F
100
AcDbEntity
  8
0
100
AcDbBlockEnd
  0
BLOCK
  5
C4
330
C3
100
AcDbEntity
  8
0
100
AcDbBlockBegin
  2
_D
 70
     0
 10
0.0
 20
0.0
 30
0.0
  3
_D
  1
_D
  0
SOLID
  5
C6
330
C3
100
AcDbEntity
  8
치수문자_일반주서
100
AcDbTrace
 10
41.76982942358229
 20
9.841870580932763
 30
0.0
 11
41.26182942358228
 21
6.539870580932764
 31
0.0
 12
42.27782942358229
 22
6.539870580932764
 32
0.0
 13
42.27782942358229
 23
6.539870580932764
 33
0.0
  0
SOLID
  5
C7
330
C3
100
AcDbEntity
  8
치수문자_일반주서
100
AcDbTrace
 10
41.7698294235823
 20
-9.208129419067264
 30
0.0
 11
42.2778294235823
 21
-5.906129419067264
 31
0.0
 12
41.2618294235823
 22
-5.906129419067264
 32
0.0
 13
41.2618294235823
 23
-5.906129419067264
 33
0.0
  0
LINE
  5
C8
330
C3
100
AcDbEntity
  8
치수문자_일반주서
100
AcDbLine
 10
30.97694770753957
 20
12.94234009084038
 30
0.0
 11
30.97694770753957
 21
12.23140260527588
 31
0.0
  0
LINE
  5
C9
330
C3
100
AcDbEntity
  8
치수문자_일반주서
100
AcDbLine
 10
30.97694770753957
 20
12.23140260527588
 30
0.0
 11
36.53319769859888
 21
12.23140260527592
 31
0.0
  0
LINE
  5
CA
330
C3
100
AcDbEntity
  8
치수문자_일반주서
100
AcDbLine
 10
36.53319769859888
 20
12.23140260527592
 30
0.0
 11
36.53319769859887
 21
12.94234009084042
 31
0.0
  0
LINE
  5
CB
330
C3
100
AcDbEntity
  8
치수문자_일반주서
100
AcDbLine
 10
30.97694770753949
 20
23.77107295297764
 30
0.0
 11
30.97694770753948
 21
24.48201043854214
 31
0.0
  0
LINE
  5
CC
330
C3
100
AcDbEntity
  8
치수문자_일반주서
100
AcDbLine
 10
30.97694770753948
 20
24.48201043854214
 30
0.0
 11
36.53319769859878
 21
24.48201043854218
 31
0.0
  0
LINE
  5
CD
330
C3
100
AcDbEntity
  8
치수문자_일반주서
100
AcDbLine
 10
36.53319769859878
 20
24.48201043854218
 30
0.0
 11
36.53319769859879
 21
23.77107295297768
 31
0.0
  0
LINE
  5
CE
330
C3
100
AcDbEntity
  8
치수문자_일반주서
100
AcDbLine
 10
6.44981937783548
 20
9.84187058093275
 30
0.0
 11
42.76982942358229
 21
9.841870580932763
 31
0.0
  0
LINE
  5
CF
330
C3
100
AcDbEntity
  8
치수문자_일반주서
100
AcDbLine
 10
41.76982942358229
 20
9.841870580932763
 30
0.0
 11
41.76982942358227
 21
26.81467546473013
 31
0.0
  0
LINE
  5
D0
330
C3
100
AcDbEntity
  8
치수문자_일반주서
100
AcDbLine
 10
41.76982942358229
 20
9.841870580932763
 30
0.0
 11
41.7698294235823
 21
-9.208129419067264
 31
0.0
  0
MTEXT
  5
D1
330
C3
100
AcDbEntity
  8
치수문자_일반주서
100
AcDbMText
 10
32.02146078401997
 20
13.83101199145176
 30
0.0
 40
3.5
 41
0.0
 71
     1
 72
     1
  1
0.75
  7
SLDTEXTSTYLE0
 11
-7.044195017643634E-15
 21
1.0
 31
0.0
 73
     1
 44
1.0
  0
MTEXT
  5
D2
330
C3
100
AcDbEntity
  8
치수문자_일반주서
100
AcDbMText
 10
37.25809233438047
 20
9.898737579088026
 30
0.0
 40
3.5
 41
0.0
 71
     1
 72
     1
  1
%%c
  7
SLDTEXTSTYLE0
 11
-7.044195017643634E-15
 21
1.0
 31
0.0
 73
     1
 44
1.0
  0
MTEXT
  5
D3
330
C3
100
AcDbEntity
  8
치수문자_일반주서
100
AcDbMText
 10
37.25809233438044
 20
15.17717497746211
 30
0.0
 40
3.5
 41
0.0
 71
     1
 72
     1
  1
19.05
  7
SLDTEXTSTYLE0
 11
-7.044195017643634E-15
 21
1.0
 31
0.0
 73
     1
 44
1.0
  0
ENDBLK
  5
C5
330
C3
100
AcDbEntity
  8
0
100
AcDbBlockEnd
  0
BLOCK
  5
D7
330
D6
100
AcDbEntity
  8
0
100
AcDbBlockBegin
  2
_D_1
 70
     0
 10
0.0
 20
0.0
 30
0.0
  3
_D_1
  1
_D_1
  0
SOLID
  5
D9
330
D6
100
AcDbEntity
  8
치수문자_일반주서
100
AcDbTrace
 10
-69.66000000000001
 20
9.841870580932708
 30
0.0
 11
-69.15200000000002
 21
13.14387058093271
 31
0.0
 12
-70.168
 22
13.14387058093271
 32
0.0
 13
-70.168
 23
13.14387058093271
 33
0.0
  0
SOLID
  5
DA
330
D6
100
AcDbEntity
  8
치수문자_일반주서
100
AcDbTrace
 10
-69.66000000000001
 20
-9.208129419067275
 30
0.0
 11
-70.168
 21
-12.51012941906727
 31
0.0
 12
-69.15200000000002
 22
-12.51012941906727
 32
0.0
 13
-69.15200000000002
 23
-12.51012941906727
 33
0.0
  0
LINE
  5
DB
330
D6
100
AcDbEntity
  8
치수문자_일반주서
100
AcDbLine
 10
-80.4528817160427
 20
-6.623512371566909
 30
0.0
 11
-80.4528817160427
 21
-7.334449857131409
 31
0.0
  0
LINE
  5
DC
330
D6
100
AcDbEntity
  8
치수문자_일반주서
100
AcDbLine
 10
-80.4528817160427
 20
-7.334449857131409
 30
0.0
 11
-74.8966317249834
 21
-7.33444985713137
 31
0.0
  0
LINE
  5
DD
330
D6
100
AcDbEntity
  8
치수문자_일반주서
100
AcDbLine
 10
-74.8966317249834
 20
-7.33444985713137
 30
0.0
 11
-74.8966317249834
 21
-6.62351237156687
 31
0.0
  0
LINE
  5
DE
330
D6
100
AcDbEntity
  8
치수문자_일반주서
100
AcDbLine
 10
-80.45288171604278
 20
4.205220490570349
 30
0.0
 11
-80.45288171604278
 21
4.91615797613485
 31
0.0
  0
LINE
  5
DF
330
D6
100
AcDbEntity
  8
치수문자_일반주서
100
AcDbLine
 10
-80.45288171604278
 20
4.91615797613485
 30
0.0
 11
-74.89663172498348
 21
4.916157976134889
 31
0.0
  0
LINE
  5
E0
330
D6
100
AcDbEntity
  8
치수문자_일반주서
100
AcDbLine
 10
-74.89663172498348
 20
4.916157976134889
 30
0.0
 11
-74.89663172498348
 21
4.205220490570388
 31
0.0
  0
LINE
  5
E1
330
D6
100
AcDbEntity
  8
치수문자_일반주서
100
AcDbLine
 10
-59.84999999999997
 20
9.841870580932708
 30
0.0
 11
-70.66000000000001
 21
9.841870580932708
 31
0.0
  0
LINE
  5
E2
330
D6
100
AcDbEntity
  8
치수문자_일반주서
100
AcDbLine
 10
-59.84999999999997
 20
-9.208129419067275
 30
0.0
 11
-70.66000000000001
 21
-9.208129419067275
 31
0.0
  0
LINE
  5
E3
330
D6
100
AcDbEntity
  8
치수문자_일반주서
100
AcDbLine
 10
-69.66000000000001
 20
9.841870580932708
 30
0.0
 11
-69.66000000000001
 21
16.19187058093271
 31
0.0
  0
LINE
  5
E4
330
D6
100
AcDbEntity
  8
치수문자_일반주서
100
AcDbLine
 10
-69.66000000000001
 20
9.841870580932708
 30
0.0
 11
-69.66000000000001
 21
-9.208129419067275
 31
0.0
  0
LINE
  5
E5
330
D6
100
AcDbEntity
  8
치수문자_일반주서
100
AcDbLine
 10
-69.66000000000001
 20
-9.208129419067275
 30
0.0
 11
-69.66000000000001
 21
-15.55812941906727
 31
0.0
  0
MTEXT
  5
E6
330
D6
100
AcDbEntity
  8
치수문자_일반주서
100
AcDbMText
 10
-79.40836863956231
 20
-5.734840470955531
 30
0.0
 40
3.5
 41
0.0
 71
     1
 72
     1
  1
0.75
  7
SLDTEXTSTYLE0
 11
-7.044195017643634E-15
 21
1.0
 31
0.0
 73
     1
 44
1.0
  0
MTEXT
  5
E7
330
D6
100
AcDbEntity
  8
치수문자_일반주서
100
AcDbMText
 10
-74.17173708920181
 20
-9.667114883319263
 30
0.0
 40
3.5
 41
0.0
 71
     1
 72
     1
  1
%%c
  7
SLDTEXTSTYLE0
 11
-7.044195017643634E-15
 21
1.0
 31
0.0
 73
     1
 44
1.0
  0
MTEXT
  5
E8
330
D6
100
AcDbEntity
  8
치수문자_일반주서
100
AcDbMText
 10
-74.17173708920186
 20
-4.388677484945183
 30
0.0
 40
3.5
 41
0.0
 71
     1
 72
     1
  1
19.05
  7
SLDTEXTSTYLE0
 11
-7.044195017643634E-15
 21
1.0
 31
0.0
 73
     1
 44
1.0
  0
ENDBLK
  5
D8
330
D6
100
AcDbEntity
  8
0
100
AcDbBlockEnd
  0
BLOCK
  5
EC
330
EB
100
AcDbEntity
  8
0
100
AcDbBlockBegin
  2
_D_2
 70
     0
 10
0.0
 20
0.0
 30
0.0
  3
_D_2
  1
_D_2
  0
SOLID
  5
EE
330
EB
100
AcDbEntity
  8
치수문자_일반주서
100
AcDbTrace
 10
35.39999999999999
 20
20.31422832059712
 30
0.0
 11
32.09799999999999
 21
20.82222832059712
 31
0.0
 12
32.09799999999999
 22
19.80622832059712
 32
0.0
 13
32.09799999999999
 23
19.80622832059712
 33
0.0
  0
SOLID
  5
EF
330
EB
100
AcDbEntity
  8
치수문자_일반주서
100
AcDbTrace
 10
9.999999999999991
 20
20.31422832059711
 30
0.0
 11
13.30199999999999
 21
19.80622832059711
 31
0.0
 12
13.30199999999999
 22
20.82222832059711
 32
0.0
 13
13.30199999999999
 23
20.82222832059711
 33
0.0
  0
LINE
  5
F0
330
EB
100
AcDbEntity
  8
치수문자_일반주서
100
AcDbLine
 10
62.0675987632525
 20
31.10711003663993
 30
0.0
 11
61.356661277688
 21
31.10711003663992
 31
0.0
  0
LINE
  5
F1
330
EB
100
AcDbEntity
  8
치수문자_일반주서
100
AcDbLine
 10
61.356661277688
 20
31.10711003663992
 30
0.0
 11
61.35666127768804
 21
25.55086004558062
 31
0.0
  0
LINE
  5
F2
330
EB
100
AcDbEntity
  8
치수문자_일반주서
100
AcDbLine
 10
61.35666127768804
 20
25.55086004558062
 30
0.0
 11
62.06759876325254
 21
25.55086004558063
 31
0.0
  0
LINE
  5
F3
330
EB
100
AcDbEntity
  8
치수문자_일반주서
100
AcDbLine
 10
72.89633162538975
 20
31.10711003664001
 30
0.0
 11
73.60726911095425
 21
31.10711003664002
 31
0.0
  0
LINE
  5
F4
330
EB
100
AcDbEntity
  8
치수문자_일반주서
100
AcDbLine
 10
73.60726911095425
 20
31.10711003664002
 30
0.0
 11
73.60726911095429
 21
25.55086004558071
 31
0.0
  0
LINE
  5
F5
330
EB
100
AcDbEntity
  8
치수문자_일반주서
100
AcDbLine
 10
73.60726911095429
 20
25.55086004558071
 30
0.0
 11
72.89633162538979
 21
25.55086004558071
 31
0.0
  0
LINE
  5
F6
330
EB
100
AcDbEntity
  8
치수문자_일반주서
100
AcDbLine
 10
35.4
 20
3.986513157968985
 30
0.0
 11
35.39999999999999
 21
21.31422832059712
 31
0.0
  0
LINE
  5
F7
330
EB
100
AcDbEntity
  8
치수문자_일반주서
100
AcDbLine
 10
9.999999999999998
 20
6.320194668811804
 30
0.0
 11
9.999999999999991
 21
21.31422832059711
 31
0.0
  0
LINE
  5
F8
330
EB
100
AcDbEntity
  8
치수문자_일반주서
100
AcDbLine
 10
35.39999999999999
 20
20.31422832059712
 30
0.0
 11
75.43352713794901
 21
20.31422832059714
 31
0.0
  0
LINE
  5
F9
330
EB
100
AcDbEntity
  8
치수문자_일반주서
100
AcDbLine
 10
35.39999999999999
 20
20.31422832059712
 30
0.0
 11
9.999999999999991
 21
20.31422832059711
 31
0.0
  0
MTEXT
  5
FA
330
EB
100
AcDbEntity
  8
치수문자_일반주서
100
AcDbMText
 10
60.84290255220136
 20
24.87943758645889
 30
0.0
 40
3.5
 41
0.0
 71
     1
 72
     1
  1

  7
SLDTEXTSTYLE0
 73
     1
 44
1.0
  0
MTEXT
  5
FB
330
EB
100
AcDbEntity
  8
치수문자_일반주서
100
AcDbMText
 10
62.95627066386389
 20
30.06259696015953
 30
0.0
 40
3.5
 41
0.0
 71
     1
 72
     1
  1
1.00
  7
SLDTEXTSTYLE0
 73
     1
 44
1.0
  0
MTEXT
  5
FC
330
EB
100
AcDbEntity
  8
치수문자_일반주서
100
AcDbMText
 10
61.66321495068719
 20
24.82596540979904
 30
0.0
 40
3.5
 41
0.0
 71
     1
 72
     1
  1
25.40
  7
SLDTEXTSTYLE0
 73
     1
 44
1.0
  0
MTEXT
  5
FD
330
EB
100
AcDbEntity
  8
치수문자_일반주서
100
AcDbMText
 10
75.45297235609492
 20
24.879437586459
 30
0.0
 40
3.5
 41
0.0
 71
     1
 72
     1
  1

  7
SLDTEXTSTYLE0
 73
     1
 44
1.0
  0
ENDBLK
  5
ED
330
EB
100
AcDbEntity
  8
0
100
AcDbBlockEnd
  0
BLOCK
  5
100
330
FF
100
AcDbEntity
  8
0
100
AcDbBlockBegin
  2
_D_3
 70
     0
 10
0.0
 20
0.0
 30
0.0
  3
_D_3
  1
_D_3
  0
SOLID
  5
102
330
FF
100
AcDbEntity
  8
치수문자_일반주서
100
AcDbTrace
 10
35.4
 20
39.32000421260096
 30
0.0
 11
32.098
 21
39.82800421260097
 31
0.0
 12
32.098
 22
38.81200421260096
 32
0.0
 13
32.098
 23
38.81200421260096
 33
0.0
  0
SOLID
  5
103
330
FF
100
AcDbEntity
  8
치수문자_일반주서
100
AcDbTrace
 10
-59.85
 20
39.32000421260096
 30
0.0
 11
-56.548
 21
38.81200421260096
 31
0.0
 12
-56.548
 22
39.82800421260097
 32
0.0
 13
-56.548
 23
39.82800421260097
 33
0.0
  0
LINE
  5
104
330
FF
100
AcDbEntity
  8
치수문자_일반주서
100
AcDbLine
 10
-13.47493599327641
 20
50.1128859286437
 30
0.0
 11
-14.18587347884091
 21
50.11288592864371
 31
0.0
  0
LINE
  5
105
330
FF
100
AcDbEntity
  8
치수문자_일반주서
100
AcDbLine
 10
-14.18587347884091
 20
50.11288592864371
 30
0.0
 11
-14.18587347884095
 21
44.5566359375844
 31
0.0
  0
LINE
  5
106
330
FF
100
AcDbEntity
  8
치수문자_일반주서
100
AcDbLine
 10
-14.18587347884095
 20
44.5566359375844
 30
0.0
 11
-13.47493599327645
 21
44.5566359375844
 31
0.0
  0
LINE
  5
107
330
FF
100
AcDbEntity
  8
치수문자_일반주서
100
AcDbLine
 10
-2.646203131139151
 20
50.11288592864362
 30
0.0
 11
-1.935265645574651
 21
50.11288592864361
 31
0.0
  0
LINE
  5
108
330
FF
100
AcDbEntity
  8
치수문자_일반주서
100
AcDbLine
 10
-1.935265645574651
 20
50.11288592864361
 30
0.0
 11
-1.935265645574691
 21
44.55663593758431
 31
0.0
  0
LINE
  5
109
330
FF
100
AcDbEntity
  8
치수문자_일반주서
100
AcDbLine
 10
-1.935265645574691
 20
44.55663593758431
 30
0.0
 11
-2.646203131139191
 21
44.55663593758432
 31
0.0
  0
LINE
  5
10A
330
FF
100
AcDbEntity
  8
치수문자_일반주서
100
AcDbLine
 10
35.4
 20
6.322624048976965
 30
0.0
 11
35.4
 21
40.32000421260096
 31
0.0
  0
LINE
  5
10B
330
FF
100
AcDbEntity
  8
치수문자_일반주서
100
AcDbLine
 10
-59.85
 20
9.84187058093272
 30
0.0
 11
-59.85
 21
40.32000421260096
 31
0.0
  0
LINE
  5
10C
330
FF
100
AcDbEntity
  8
치수문자_일반주서
100
AcDbLine
 10
35.4
 20
39.32000421260096
 30
0.0
 11
-59.85
 21
39.32000421260096
 31
0.0
  0
MTEXT
  5
10D
330
FF
100
AcDbEntity
  8
치수문자_일반주서
100
AcDbMText
 10
-14.69963220432765
 20
43.88521347846269
 30
0.0
 40
3.5
 41
0.0
 71
     1
 72
     1
  1

  7
SLDTEXTSTYLE0
 73
     1
 44
1.0
  0
MTEXT
  5
10E
330
FF
100
AcDbEntity
  8
치수문자_일반주서
100
AcDbMText
 10
-12.58626409266505
 20
49.06837285216329
 30
0.0
 40
3.5
 41
0.0
 71
     1
 72
     1
  1
3.75
  7
SLDTEXTSTYLE0
 73
     1
 44
1.0
  0
MTEXT
  5
10F
330
FF
100
AcDbEntity
  8
치수문자_일반주서
100
AcDbMText
 10
-13.87931980584181
 20
43.83174130180283
 30
0.0
 40
3.5
 41
0.0
 71
     1
 72
     1
  1
95.25
  7
SLDTEXTSTYLE0
 73
     1
 44
1.0
  0
MTEXT
  5
110
330
FF
100
AcDbEntity
  8
치수문자_일반주서
100
AcDbMText
 10
-0.0895624004340835
 20
43.88521347846258
 30
0.0
 40
3.5
 41
0.0
 71
     1
 72
     1
  1

  7
SLDTEXTSTYLE0
 73
     1
 44
1.0
  0
ENDBLK
  5
101
330
FF
100
AcDbEntity
  8
0
100
AcDbBlockEnd
  0
BLOCK
  5
119
330
118
100
AcDbEntity
  8
0
100
AcDbBlockBegin
  2
SW_DOWELSYMBOL_0
 70
     0
 10
0.0
 20
0.0
 30
0.0
  3
SW_DOWELSYMBOL_0
  1
SW_DOWELSYMBOL_0
  0
CIRCLE
  5
11B
330
118
100
AcDbEntity
  8
해칭선
 62
     0
100
AcDbCircle
 10
0.0
 20
0.0
 30
0.0
 40
3.000000000000004
  0
HATCH
  5
11C
330
118
100
AcDbEntity
  8
0
  6
Continuous
 62
     0
370
     0
100
AcDbHatch
 10
0.0
 20
0.0
 30
0.0
210
0.0
220
0.0
230
1.0
  2
SOLID
 70
     1
 71
     0
 91
        1
 92
        0
 93
        3
 72
     2
 10
0.0000000000000104
 20
-0.0000000000000035
 40
3.000000000000004
 50
0.0
 51
90.0
 73
     1
 72
     1
 10
0.0000000000000104
 20
3.000000000000001
 11
0.0000000000000104
 21
-0.0000000000000036
 72
     1
 10
0.0000000000000104
 20
-0.0000000000000035
 11
3.000000000000015
 21
-0.0000000000000035
 97
        0
 75
     0
 76
     1
 98
        1
 10
0.0
 20
0.0
  0
HATCH
  5
11D
330
118
100
AcDbEntity
  8
0
  6
Continuous
 62
     0
370
     0
100
AcDbHatch
 10
0.0
 20
0.0
 30
0.0
210
0.0
220
0.0
230
1.0
  2
SOLID
 70
     1
 71
     0
 91
        1
 92
        0
 93
        3
 72
     2
 10
0.0000000000000104
 20
-0.0000000000000035
 40
3.000000000000004
 50
180.0
 51
270.0000000000008
 73
     1
 72
     1
 10
0.0000000000000104
 20
-3.000000000000008
 11
0.0000000000000104
 21
-0.0000000000000036
 72
     1
 10
0.0000000000000104
 20
-0.0000000000000035
 11
-2.999999999999994
 21
-0.0000000000000035
 97
        0
 75
     0
 76
     1
 98
        1
 10
0.0
 20
0.0
  0
ENDBLK
  5
11A
330
118
100
AcDbEntity
  8
0
100
AcDbBlockEnd
  0
BLOCK
  5
310
330
30F
100
AcDbEntity
  8
0
100
AcDbBlockBegin
  2
*D8
 70
     1
 10
0.0
 20
0.0
 30
0.0
  3
*D8
  1
*D12
  0
LINE
  5
311
330
30F
100
AcDbEntity
  8
치수문자_일반주서
 62
     0
370
    -2
100
AcDbLine
 10
102.4236610176245
 20
23.94781071451226
 30
0.0
 11
124.4023813053354
 21
23.94781071451234
 31
0.0
  0
LINE
  5
312
330
30F
100
AcDbEntity
  8
치수문자_일반주서
 62
     0
370
    -2
100
AcDbLine
 10
106.5739740235401
 20
4.907266639150103
 30
0.0
 11
124.4023813053355
 21
4.907266639150169
 31
0.0
  0
LINE
  5
313
330
30F
100
AcDbEntity
  8
치수문자_일반주서
 62
     0
370
    -2
100
AcDbLine
 10
124.4023813053355
 20
20.64581071451234
 30
0.0
 11
124.4023813053355
 21
8.209266639150169
 31
0.0
  0
SOLID
  5
314
330
30F
100
AcDbEntity
  8
치수문자_일반주서
 62
     0
100
AcDbTrace
 10
124.9527146386688
 20
20.64581071451234
 30
0.0
 11
123.8520479720021
 21
20.64581071451234
 31
0.0
 12
124.4023813053354
 22
23.94781071451234
 32
0.0
 13
124.4023813053354
 23
23.94781071451234
 33
0.0
  0
SOLID
  5
315
330
30F
100
AcDbEntity
  8
치수문자_일반주서
 62
     0
100
AcDbTrace
 10
123.8520479720022
 20
8.209266639150167
 30
0.0
 11
124.9527146386688
 21
8.20926663915017
 31
0.0
 12
124.4023813053355
 22
4.907266639150169
 32
0.0
 13
124.4023813053355
 23
4.907266639150169
 33
0.0
  0
MTEXT
  5
316
330
30F
100
AcDbEntity
  8
치수문자_일반주서
 62
     0
100
AcDbMText
 10
120.0273813053355
 20
15.61843342426838
 30
0.0
 40
3.5
 41
0.0
 71
     2
 72
     1
  1
\A1;%%c19.04 [3/4]
  7
SLDTEXTSTYLE0
 11
-3.731735463796535E-15
 21
1.0
 31
0.0
 73
     1
 44
1.0
  0
POINT
  5
317
330
30F
100
AcDbEntity
  8
Defpoints
 62
     0
100
AcDbPoint
 10
102.3611610176245
 20
23.94781071451226
 30
0.0
  0
POINT
  5
318
330
30F
100
AcDbEntity
  8
Defpoints
 62
     0
100
AcDbPoint
 10
106.5114740235401
 20
4.907266639150103
 30
0.0
  0
POINT
  5
319
330
30F
100
AcDbEntity
  8
Defpoints
 62
     0
100
AcDbPoint
 10
124.4023813053355
 20
4.90726663915017
 30
0.0
  0
ENDBLK
  5
31A
330
30F
100
AcDbEntity
  8
0
100
AcDbBlockEnd
  0
BLOCK
  5
31D
330
31C
100
AcDbEntity
  8
0
100
AcDbBlockBegin
  2
*D9
 70
     1
 10
0.0
 20
0.0
 30
0.0
  3
*D9
  1
*D13
  0
LINE
  5
31E
330
31C
100
AcDbEntity
  8
치수문자_일반주서
 62
     0
370
    -2
100
AcDbLine
 10
15.12250000000009
 20
23.95726652143093
 30
0.0
 11
4.375000000000018
 21
23.9572665214309
 31
0.0
  0
LINE
  5
31F
330
31C
100
AcDbEntity
  8
치수문자_일반주서
 62
     0
370
    -2
100
AcDbLine
 10
15.12250000000009
 20
4.907266521430923
 30
0.0
 11
4.375000000000084
 21
4.907266521430884
 31
0.0
  0
LINE
  5
320
330
31C
100
AcDbEntity
  8
치수문자_일반주서
 62
     0
370
    -2
100
AcDbLine
 10
4.375000000000029
 20
20.6552665214309
 30
0.0
 11
4.375000000000073
 21
8.209266521430884
 31
0.0
  0
SOLID
  5
321
330
31C
100
AcDbEntity
  8
치수문자_일반주서
 62
     0
100
AcDbTrace
 10
4.925333333333363
 20
20.6552665214309
 30
0.0
 11
3.824666666666696
 21
20.65526652143089
 31
0.0
 12
4.375000000000018
 22
23.9572665214309
 32
0.0
 13
4.375000000000018
 23
23.9572665214309
 33
0.0
  0
SOLID
  5
322
330
31C
100
AcDbEntity
  8
치수문자_일반주서
 62
     0
100
AcDbTrace
 10
3.82466666666674
 20
8.209266521430882
 30
0.0
 11
4.925333333333406
 21
8.209266521430886
 31
0.0
 12
4.375000000000084
 22
4.907266521430884
 32
0.0
 13
4.375000000000084
 23
4.907266521430884
 33
0.0
  0
MTEXT
  5
323
330
31C
100
AcDbEntity
  8
치수문자_일반주서
 62
     0
100
AcDbMText
 10
0.0000000000000568
 20
12.90625
 30
0.0
 40
3.5
 41
0.0
 71
     2
 72
     1
  1
\A1;%%c19.05 [3/4]
  7
SLDTEXTSTYLE0
 11
-3.496765431890255E-15
 21
1.0
 31
0.0
 73
     1
 44
1.0
  0
POINT
  5
324
330
31C
100
AcDbEntity
  8
Defpoints
 62
     0
100
AcDbPoint
 10
15.18500000000009
 20
23.95726652143093
 30
0.0
  0
POINT
  5
325
330
31C
100
AcDbEntity
  8
Defpoints
 62
     0
100
AcDbPoint
 10
15.18500000000009
 20
4.907266521430923
 30
0.0
  0
POINT
  5
326
330
31C
100
AcDbEntity
  8
Defpoints
 62
     0
100
AcDbPoint
 10
4.375000000000085
 20
4.907266521430883
 30
0.0
  0
ENDBLK
  5
327
330
31C
100
AcDbEntity
  8
0
100
AcDbBlockEnd
  0
BLOCK
  5
32A
330
329
100
AcDbEntity
  8
0
100
AcDbBlockBegin
  2
*D10
 70
     1
 10
0.0
 20
0.0
 30
0.0
  3
*D10
  1
*D14
  0
LINE
  5
32B
330
329
100
AcDbEntity
  8
치수문자_일반주서
 62
     0
370
    -2
100
AcDbLine
 10
109.3725013351441
 20
23.35531393813225
 30
0.0
 11
109.3725013351441
 21
40.62052910076039
 31
0.0
  0
LINE
  5
32C
330
329
100
AcDbEntity
  8
치수문자_일반주서
 62
     0
370
    -2
100
AcDbLine
 10
83.97250169873246
 20
24.0197666391501
 30
0.0
 11
83.97250169873246
 21
40.62052910076039
 31
0.0
  0
LINE
  5
32D
330
329
100
AcDbEntity
  8
치수문자_일반주서
 62
     0
370
    -2
100
AcDbLine
 10
109.3725013351441
 20
40.62052910076039
 30
0.0
 11
83.97250169873246
 21
40.62052910076039
 31
0.0
  0
LINE
  5
32E
330
329
100
AcDbEntity
  8
치수문자_일반주서
 62
     0
370
    -2
100
AcDbLine
 10
112.6745013351441
 20
40.62052910076039
 30
0.0
 11
115.9765013351441
 21
40.62052910076039
 31
0.0
  0
LINE
  5
32F
330
329
100
AcDbEntity
  8
치수문자_일반주서
 62
     0
370
    -2
100
AcDbLine
 10
80.67050169873247
 20
40.62052910076039
 30
0.0
 11
77.36850169873247
 21
40.62052910076039
 31
0.0
  0
SOLID
  5
330
330
329
100
AcDbEntity
  8
치수문자_일반주서
 62
     0
100
AcDbTrace
 10
112.6745013351441
 20
41.17086243409372
 30
0.0
 11
112.6745013351441
 21
40.07019576742705
 31
0.0
 12
109.3725013351441
 22
40.62052910076039
 32
0.0
 13
109.3725013351441
 23
40.62052910076039
 33
0.0
  0
SOLID
  5
331
330
329
100
AcDbEntity
  8
치수문자_일반주서
 62
     0
100
AcDbTrace
 10
80.67050169873247
 20
40.07019576742705
 30
0.0
 11
80.67050169873247
 21
41.17086243409372
 31
0.0
 12
83.97250169873246
 22
40.62052910076039
 32
0.0
 13
83.97250169873246
 23
40.62052910076039
 33
0.0
  0
MTEXT
  5
332
330
329
100
AcDbEntity
  8
치수문자_일반주서
 62
     0
100
AcDbMText
 10
96.67250151693828
 20
44.99552910076039
 30
0.0
 40
3.5
 41
0.0
 71
     2
 72
     1
  1
\A1;25.4 [1]
  7
SLDTEXTSTYLE0
 73
     1
 44
1.0
  0
POINT
  5
333
330
329
100
AcDbEntity
  8
Defpoints
 62
     0
100
AcDbPoint
 10
109.3725013351441
 20
23.29281393813225
 30
0.0
  0
POINT
  5
334
330
329
100
AcDbEntity
  8
Defpoints
 62
     0
100
AcDbPoint
 10
83.97250169873246
 20
23.9572666391501
 30
0.0
  0
POINT
  5
335
330
329
100
AcDbEntity
  8
Defpoints
 62
     0
100
AcDbPoint
 10
83.97250169873246
 20
40.62052910076039
 30
0.0
  0
ENDBLK
  5
336
330
329
100
AcDbEntity
  8
0
100
AcDbBlockEnd
  0
BLOCK
  5
339
330
338
100
AcDbEntity
  8
0
100
AcDbBlockBegin
  2
*D11
 70
     1
 10
0.0
 20
0.0
 30
0.0
  3
*D11
  1
*D15
  0
LINE
  5
33A
330
338
100
AcDbEntity
  8
치수문자_일반주서
 62
     0
370
    -2
100
AcDbLine
 10
109.3725013351441
 20
23.35531393813225
 30
0.0
 11
109.3725013351441
 21
57.29019410175623
 31
0.0
  0
LINE
  5
33B
330
338
100
AcDbEntity
  8
치수문자_일반주서
 62
     0
370
    -2
100
AcDbLine
 10
14.12250169873246
 20
23.0197665929565
 30
0.0
 11
14.12250169873246
 21
57.29019410175623
 31
0.0
  0
LINE
  5
33C
330
338
100
AcDbEntity
  8
치수문자_일반주서
 62
     0
370
    -2
100
AcDbLine
 10
106.0705013351441
 20
57.29019410175623
 30
0.0
 11
17.42450169873246
 21
57.29019410175623
 31
0.0
  0
SOLID
  5
33D
330
338
100
AcDbEntity
  8
치수문자_일반주서
 62
     0
100
AcDbTrace
 10
106.0705013351441
 20
56.73986076842289
 30
0.0
 11
106.0705013351441
 21
57.84052743508956
 31
0.0
 12
109.3725013351441
 22
57.29019410175623
 32
0.0
 13
109.3725013351441
 23
57.29019410175623
 33
0.0
  0
SOLID
  5
33E
330
338
100
AcDbEntity
  8
치수문자_일반주서
 62
     0
100
AcDbTrace
 10
17.42450169873246
 20
57.84052743508956
 30
0.0
 11
17.42450169873246
 21
56.73986076842289
 31
0.0
 12
14.12250169873246
 22
57.29019410175623
 32
0.0
 13
14.12250169873246
 23
57.29019410175623
 33
0.0
  0
MTEXT
  5
33F
330
338
100
AcDbEntity
  8
치수문자_일반주서
 62
     0
100
AcDbMText
 10
63.01456009626013
 20
61.66519410175623
 30
0.0
 40
3.5
 41
0.0
 71
     2
 72
     1
  1
\A1;95.25 [3 3/4]
  7
SLDTEXTSTYLE0
 73
     1
 44
1.0
  0
POINT
  5
340
330
338
100
AcDbEntity
  8
Defpoints
 62
     0
100
AcDbPoint
 10
109.3725013351441
 20
23.29281393813225
 30
0.0
  0
POINT
  5
341
330
338
100
AcDbEntity
  8
Defpoints
 62
     0
100
AcDbPoint
 10
14.12250169873246
 20
22.9572665929565
 30
0.0
  0
POINT
  5
342
330
338
100
AcDbEntity
  8
Defpoints
 62
     0
100
AcDbPoint
 10
14.12250169873246
 20
57.29019410175623
 30
0.0
  0
ENDBLK
  5
343
330
338
100
AcDbEntity
  8
0
100
AcDbBlockEnd
  0
BLOCK
  5
4F9
330
4F8
100
AcDbEntity
  8
0
100
AcDbBlockBegin
  2
*D12
 70
     1
 10
0.0
 20
0.0
 30
0.0
  3
*D12
  1
*D12
  0
LINE
  5
4FB
330
4F8
100
AcDbEntity
  8
치수문자_일반주서
 62
     0
370
    -2
100
AcDbLine
 10
31.451159318892
 20
9.51554407536216
 30
0.0
 11
53.42987960660298
 21
9.51554407536224
 31
0.0
  0
LINE
  5
4FC
330
4F8
100
AcDbEntity
  8
치수문자_일반주서
 62
     0
370
    -2
100
AcDbLine
 10
35.60147232480765
 20
-9.524999999999995
 30
0.0
 11
53.42987960660304
 21
-9.52499999999993
 31
0.0
  0
LINE
  5
4FD
330
4F8
100
AcDbEntity
  8
치수문자_일반주서
 62
     0
370
    -2
100
AcDbLine
 10
53.429879606603
 20
6.21354407536224
 30
0.0
 11
53.42987960660303
 21
-6.22299999999993
 31
0.0
  0
SOLID
  5
4FE
330
4F8
100
AcDbEntity
  8
치수문자_일반주서
 62
     0
100
AcDbTrace
 10
53.98021293993633
 20
6.213544075362242
 30
0.0
 11
52.87954627326966
 21
6.213544075362238
 31
0.0
 12
53.42987960660298
 22
9.51554407536224
 32
0.0
 13
53.42987960660298
 23
9.51554407536224
 33
0.0
  0
SOLID
  5
4FF
330
4F8
100
AcDbEntity
  8
치수문자_일반주서
 62
     0
100
AcDbTrace
 10
52.8795462732697
 20
-6.222999999999931
 30
0.0
 11
53.98021293993637
 21
-6.222999999999928
 31
0.0
 12
53.42987960660304
 22
-9.52499999999993
 32
0.0
 13
53.42987960660304
 23
-9.52499999999993
 33
0.0
  0
MTEXT
  5
500
330
4F8
100
AcDbEntity
  8
치수문자_일반주서
 62
     0
100
AcDbMText
 10
49.05487960660301
 20
1.186166785118285
 30
0.0
 40
3.5
 41
0.0
 71
     2
 72
     1
  1
\A1;%%c19.04 [3/4]
  7
SLDTEXTSTYLE0
 11
-3.358561917416882E-15
 21
1.0
 31
0.0
 73
     1
 44
1.0
  0
POINT
  5
501
330
4F8
100
AcDbEntity
  8
Defpoints
 62
     0
100
AcDbPoint
 10
31.388659318892
 20
9.51554407536216
 30
0.0
  0
POINT
  5
502
330
4F8
100
AcDbEntity
  8
Defpoints
 62
     0
100
AcDbPoint
 10
35.53897232480765
 20
-9.524999999999995
 30
0.0
  0
POINT
  5
503
330
4F8
100
AcDbEntity
  8
Defpoints
 62
     0
100
AcDbPoint
 10
53.42987960660304
 20
-9.524999999999928
 30
0.0
  0
ENDBLK
  5
4FA
330
4F8
100
AcDbEntity
  8
0
100
AcDbBlockEnd
  0
BLOCK
  5
505
330
504
100
AcDbEntity
  8
0
100
AcDbBlockBegin
  2
*D13
 70
     1
 10
0.0
 20
0.0
 30
0.0
  3
*D13
  1
*D13
  0
LINE
  5
507
330
504
100
AcDbEntity
  8
치수문자_일반주서
 62
     0
370
    -2
100
AcDbLine
 10
-55.85000169873237
 20
9.524999882280836
 30
0.0
 11
-66.59750169873244
 21
9.524999882280799
 31
0.0
  0
LINE
  5
508
330
504
100
AcDbEntity
  8
치수문자_일반주서
 62
     0
370
    -2
100
AcDbLine
 10
-55.85000169873237
 20
-9.525000117719175
 30
0.0
 11
-66.59750169873237
 21
-9.525000117719213
 31
0.0
  0
LINE
  5
509
330
504
100
AcDbEntity
  8
치수문자_일반주서
 62
     0
370
    -2
100
AcDbLine
 10
-66.59750169873243
 20
6.222999882280799
 30
0.0
 11
-66.59750169873239
 21
-6.223000117719213
 31
0.0
  0
SOLID
  5
50A
330
504
100
AcDbEntity
  8
치수문자_일반주서
 62
     0
100
AcDbTrace
 10
-66.0471683653991
 20
6.222999882280801
 30
0.0
 11
-67.14783503206576
 21
6.222999882280797
 31
0.0
 12
-66.59750169873244
 22
9.524999882280799
 32
0.0
 13
-66.59750169873244
 23
9.524999882280799
 33
0.0
  0
SOLID
  5
50B
330
504
100
AcDbEntity
  8
치수문자_일반주서
 62
     0
100
AcDbTrace
 10
-67.14783503206571
 20
-6.223000117719215
 30
0.0
 11
-66.04716836539906
 21
-6.223000117719211
 31
0.0
 12
-66.59750169873237
 22
-9.525000117719213
 32
0.0
 13
-66.59750169873237
 23
-9.525000117719213
 33
0.0
  0
MTEXT
  5
50C
330
504
100
AcDbEntity
  8
치수문자_일반주서
 62
     0
100
AcDbMText
 10
-70.9725016987324
 20
-1.526016639150104
 30
0.0
 40
3.5
 41
0.0
 71
     2
 72
     1
  1
\A1;%%c19.05 [3/4]
  7
SLDTEXTSTYLE0
 11
-3.729883127349604E-15
 21
1.0
 31
0.0
 73
     1
 44
1.0
  0
POINT
  5
50D
330
504
100
AcDbEntity
  8
Defpoints
 62
     0
100
AcDbPoint
 10
-55.78750169873237
 20
9.524999882280836
 30
0.0
  0
POINT
  5
50E
330
504
100
AcDbEntity
  8
Defpoints
 62
     0
100
AcDbPoint
 10
-55.78750169873237
 20
-9.525000117719175
 30
0.0
  0
POINT
  5
50F
330
504
100
AcDbEntity
  8
Defpoints
 62
     0
100
AcDbPoint
 10
-66.59750169873237
 20
-9.525000117719216
 30
0.0
  0
ENDBLK
  5
506
330
504
100
AcDbEntity
  8
0
100
AcDbBlockEnd
  0
BLOCK
  5
511
330
510
100
AcDbEntity
  8
0
100
AcDbBlockBegin
  2
*D14
 70
     1
 10
0.0
 20
0.0
 30
0.0
  3
*D14
  1
*D14
  0
LINE
  5
513
330
510
100
AcDbEntity
  8
치수문자_일반주서
 62
     0
370
    -2
100
AcDbLine
 10
38.39999963641165
 20
8.923047298982153
 30
0.0
 11
38.39999963641165
 21
26.18826246161029
 31
0.0
  0
LINE
  5
514
330
510
100
AcDbEntity
  8
치수문자_일반주서
 62
     0
370
    -2
100
AcDbLine
 10
13.0
 20
9.5875
 30
0.0
 11
13.0
 21
26.18826246161029
 31
0.0
  0
LINE
  5
515
330
510
100
AcDbEntity
  8
치수문자_일반주서
 62
     0
370
    -2
100
AcDbLine
 10
38.39999963641165
 20
26.18826246161029
 30
0.0
 11
13.0
 21
26.18826246161029
 31
0.0
  0
LINE
  5
516
330
510
100
AcDbEntity
  8
치수문자_일반주서
 62
     0
370
    -2
100
AcDbLine
 10
41.70199963641165
 20
26.18826246161029
 30
0.0
 11
45.00399963641165
 21
26.18826246161029
 31
0.0
  0
LINE
  5
517
330
510
100
AcDbEntity
  8
치수문자_일반주서
 62
     0
370
    -2
100
AcDbLine
 10
9.698
 20
26.18826246161029
 30
0.0
 11
6.396000000000001
 21
26.18826246161029
 31
0.0
  0
SOLID
  5
518
330
510
100
AcDbEntity
  8
치수문자_일반주서
 62
     0
100
AcDbTrace
 10
41.70199963641165
 20
26.73859579494362
 30
0.0
 11
41.70199963641165
 21
25.63792912827695
 31
0.0
 12
38.39999963641165
 22
26.18826246161029
 32
0.0
 13
38.39999963641165
 23
26.18826246161029
 33
0.0
  0
SOLID
  5
519
330
510
100
AcDbEntity
  8
치수문자_일반주서
 62
     0
100
AcDbTrace
 10
9.698
 20
25.63792912827695
 30
0.0
 11
9.698
 21
26.73859579494362
 31
0.0
 12
13.0
 22
26.18826246161029
 32
0.0
 13
13.0
 23
26.18826246161029
 33
0.0
  0
MTEXT
  5
51A
330
510
100
AcDbEntity
  8
치수문자_일반주서
 62
     0
100
AcDbMText
 10
25.69999981820582
 20
30.56326246161029
 30
0.0
 40
3.5
 41
0.0
 71
     2
 72
     1
  1
\A1;25.4 [1]
  7
SLDTEXTSTYLE0
 73
     1
 44
1.0
  0
POINT
  5
51B
330
510
100
AcDbEntity
  8
Defpoints
 62
     0
100
AcDbPoint
 10
38.39999963641165
 20
8.860547298982153
 30
0.0
  0
POINT
  5
51C
330
510
100
AcDbEntity
  8
Defpoints
 62
     0
100
AcDbPoint
 10
13.0
 20
9.525
 30
0.0
  0
POINT
  5
51D
330
510
100
AcDbEntity
  8
Defpoints
 62
     0
100
AcDbPoint
 10
13.0
 20
26.18826246161029
 30
0.0
  0
ENDBLK
  5
512
330
510
100
AcDbEntity
  8
0
100
AcDbBlockEnd
  0
BLOCK
  5
51F
330
51E
100
AcDbEntity
  8
0
100
AcDbBlockBegin
  2
*D15
 70
     1
 10
0.0
 20
0.0
 30
0.0
  3
*D15
  1
*D15
  0
LINE
  5
521
330
51E
100
AcDbEntity
  8
치수문자_일반주서
 62
     0
370
    -2
100
AcDbLine
 10
38.39999963641165
 20
8.923047298982153
 30
0.0
 11
38.39999963641164
 21
42.85792746260613
 31
0.0
  0
LINE
  5
522
330
51E
100
AcDbEntity
  8
치수문자_일반주서
 62
     0
370
    -2
100
AcDbLine
 10
-56.85
 20
8.587499953806399
 30
0.0
 11
-56.85000000000001
 21
42.85792746260613
 31
0.0
  0
LINE
  5
523
330
51E
100
AcDbEntity
  8
치수문자_일반주서
 62
     0
370
    -2
100
AcDbLine
 10
35.09799963641164
 20
42.85792746260613
 30
0.0
 11
-53.54800000000001
 21
42.85792746260613
 31
0.0
  0
SOLID
  5
524
330
51E
100
AcDbEntity
  8
치수문자_일반주서
 62
     0
100
AcDbTrace
 10
35.09799963641164
 20
42.30759412927279
 30
0.0
 11
35.09799963641164
 21
43.40826079593946
 31
0.0
 12
38.39999963641164
 22
42.85792746260613
 32
0.0
 13
38.39999963641164
 23
42.85792746260613
 33
0.0
  0
SOLID
  5
525
330
51E
100
AcDbEntity
  8
치수문자_일반주서
 62
     0
100
AcDbTrace
 10
-53.54800000000001
 20
43.40826079593946
 30
0.0
 11
-53.54800000000001
 21
42.30759412927279
 31
0.0
 12
-56.85000000000001
 22
42.85792746260613
 32
0.0
 13
-56.85000000000001
 23
42.85792746260613
 33
0.0
  0
MTEXT
  5
526
330
51E
100
AcDbEntity
  8
치수문자_일반주서
 62
     0
100
AcDbMText
 10
-7.957941602472324
 20
47.23292746260613
 30
0.0
 40
3.5
 41
0.0
 71
     2
 72
     1
  1
\A1;95.25 [3 3/4]
  7
SLDTEXTSTYLE0
 73
     1
 44
1.0
  0
POINT
  5
527
330
51E
100
AcDbEntity
  8
Defpoints
 62
     0
100
AcDbPoint
 10
38.39999963641165
 20
8.860547298982153
 30
0.0
  0
POINT
  5
528
330
51E
100
AcDbEntity
  8
Defpoints
 62
     0
100
AcDbPoint
 10
-56.85
 20
8.524999953806399
 30
0.0
  0
POINT
  5
529
330
51E
100
AcDbEntity
  8
Defpoints
 62
     0
100
AcDbPoint
 10
-56.85
 20
42.85792746260613
 30
0.0
  0
ENDBLK
  5
520
330
51E
100
AcDbEntity
  8
0
100
AcDbBlockEnd
  0
ENDSEC
  0
SECTION
  2
ENTITIES
  0
LINE
  5
B4
330
1F
100
AcDbEntity
  8
참조1
100
AcDbLine
 10
-12.22499999999999
 20
-0.0000000000000035
 30
0.0
 11
-12.22499999999998
 21
-40.0
 31
0.0
  0
LINE
  5
B5
330
1F
100
AcDbEntity
  8
참조1
100
AcDbLine
 10
-19.72860765519647
 20
-9.208129419067264
 30
0.0
 11
48.413972688396
 21
-9.208129419067264
 31
0.0
  0
LINE
  5
B6
330
1F
100
AcDbEntity
  8
참조1
100
AcDbLine
 10
48.413972688396
 20
-9.208129419067264
 30
0.0
 11
48.413972688396
 21
-6.610378025244112
 31
0.0
  0
LINE
  5
B7
330
1F
100
AcDbEntity
  8
참조1
100
AcDbLine
 10
-12.22499999999998
 20
-40.0
 30
0.0
 11
-24.19604980726569
 21
-40.0
 31
0.0
  0
INSERT
  5
B9
330
1F
100
AcDbEntity
  8
0
  6
Continuous
 62
     7
100
AcDbBlockReference
 66
     1
  2
블럭10
 10
-26.16527293212519
 20
-52.04717430164393
 30
0.0
  0
ATTRIB
  5
BA
330
B9
100
AcDbEntity
  8
FORMAT
 62
     2
100
AcDbText
 10
-35.68758688272312
 20
-49.97180738881173
 30
0.0
 40
4.233333333333333
  1
EH094048 [ 4 FLUTE ]
 41
0.75
  7
SLDTEXTSTYLE0
 11
-35.68758688272312
 21
-52.0884740554784
 31
0.0
100
AcDbAttribute
  2
AUTOATTR0
 70
     0
 74
     1
  0
SEQEND
  5
BB
330
B9
100
AcDbEntity
  8
0
  6
Continuous
 62
     7
  0
HATCH
  5
BC
330
1F
100
AcDbEntity
  8
중심선
100
AcDbHatch
 10
0.0
 20
0.0
 30
0.0
210
0.0
220
0.0
230
1.0
  2
SOLID
 70
     1
 71
     0
 91
        1
 92
        0
 93
        4
 72
     1
 10
-20.45036362774436
 20
-35.8
 11
-23.89663887158164
 21
-35.8
 72
     1
 10
-23.89663887158164
 20
-35.8
 11
-26.02486873078566
 21
-38.33632558057259
 72
     1
 10
-26.02486873078566
 20
-38.33632558057259
 11
-22.57856040183523
 21
-38.3362861512701
 72
     1
 10
-22.57856040183523
 20
-38.3362861512701
 11
-20.45036362774436
 21
-35.8
 97
        0
 75
     0
 76
     1
 98
        1
 10
0.0
 20
0.0
  0
HATCH
  5
BD
330
1F
100
AcDbEntity
  8
중심선
100
AcDbHatch
 10
0.0
 20
0.0
 30
0.0
210
0.0
220
0.0
230
1.0
  2
SOLID
 70
     1
 71
     0
 91
        1
 92
        0
 93
        4
 72
     1
 10
-15.43759963670838
 20
-35.80000000000003
 11
-18.88387488054563
 21
-35.79999999999997
 72
     1
 10
-18.88387488054563
 20
-35.79999999999997
 11
-23.41501288890307
 21
-41.20000000000002
 72
     1
 10
-23.41501288890307
 20
-41.20000000000002
 11
-19.96873764506579
 21
-41.20000000000002
 72
     1
 10
-19.96873764506579
 20
-41.20000000000002
 11
-15.43759963670838
 21
-35.80000000000003
 97
        0
 75
     0
 76
     1
 98
        1
 10
0.0
 20
0.0
  0
HATCH
  5
BE
330
1F
100
AcDbEntity
  8
중심선
100
AcDbHatch
 10
0.0
 20
0.0
 30
0.0
210
0.0
220
0.0
230
1.0
  2
SOLID
 70
     1
 71
     0
 91
        1
 92
        0
 93
        4
 72
     1
 10
-10.42483564567251
 20
-35.8
 11
-13.8711108895096
 21
-35.79999999999997
 72
     1
 10
-13.8711108895096
 20
-35.79999999999997
 11
-20.91954779139887
 21
-44.20000000000002
 72
     1
 10
-20.91954779139887
 20
-44.20000000000002
 11
-17.47327254756159
 21
-44.20000000000002
 72
     1
 10
-17.47327254756159
 20
-44.20000000000002
 11
-10.42483564567251
 21
-35.8
 97
        0
 75
     0
 76
     1
 98
        1
 10
0.0
 20
0.0
  0
HATCH
  5
BF
330
1F
100
AcDbEntity
  8
중심선
100
AcDbHatch
 10
0.0
 20
0.0
 30
0.0
210
0.0
220
0.0
230
1.0
  2
SOLID
 70
     1
 71
     0
 91
        1
 92
        0
 93
        6
 72
     3
 10
-5.624945214660309
 20
-40.00000000005127
 11
3.960054785062284
 21
1.540850780301639E-10
 40
0.3939339440162633
 50
17.09539180608434
 51
320.0019657685082
 73
     0
 72
     1
 10
-3.941945558959742
 20
-38.58789400463833
 11
-1.636643685258676
 21
-36.65356729459038
 72
     3
 10
-5.624945214713156
 20
-40.00000000000015
 11
6.600054785286829
 21
-1.249000902703301E-13
 40
0.6363583540795982
 50
39.99873849337408
 51
368.4976242363725
 73
     1
 72
     1
 10
0.8003872771874532
 20
-39.03999999993002
 11
-6.944877907877234
 21
-39.03999999993002
 72
     1
 10
-6.944877907877234
 20
-39.03999999993002
 11
-6.944902952323168
 21
-40.95999999992991
 72
     1
 10
-6.944902952323168
 20
-40.95999999992991
 11
-2.50352318285113
 21
-40.95999999992988
 97
        0
 75
     0
 76
     1
 98
        1
 10
0.0
 20
0.0
  0
LINE
  5
111
330
1F
100
AcDbEntity
  8
참조1
100
AcDbLine
 10
73.77629082238857
 20
7.440000000000002
 30
0.0
 11
73.77629082238857
 21
-7.440000000000002
 31
0.0
  0
LINE
  5
112
330
1F
100
AcDbEntity
  8
참조1
100
AcDbLine
 10
86.47629082238858
 20
5.440000000000002
 30
0.0
 11
73.77629082238857
 21
5.440000000000002
 31
0.0
  0
SOLID
  5
113
330
1F
100
AcDbEntity
  8
참조1
100
AcDbTrace
 10
73.77629082238857
 20
5.440000000000002
 30
0.0
 11
80.12629082238857
 21
4.424000000000002
 31
0.0
 12
80.12629082238857
 22
6.456000000000002
 32
0.0
 13
80.12629082238857
 23
6.456000000000002
 33
0.0
  0
LINE
  5
114
330
1F
100
AcDbEntity
  8
참조1
100
AcDbLine
 10
86.47629082238858
 20
-5.440000000000002
 30
0.0
 11
73.77629082238857
 21
-5.440000000000002
 31
0.0
  0
SOLID
  5
115
330
1F
100
AcDbEntity
  8
참조1
100
AcDbTrace
 10
73.77629082238857
 20
-5.440000000000002
 30
0.0
 11
80.12629082238857
 21
-6.456000000000002
 31
0.0
 12
80.12629082238857
 22
-4.424000000000002
 32
0.0
 13
80.12629082238857
 23
-4.424000000000002
 33
0.0
  0
MTEXT
  5
116
330
1F
100
AcDbEntity
  8
참조1
100
AcDbMText
 10
83.37640563295113
 20
11.06571756601608
 30
0.0
 40
3.5
 41
0.0
 71
     1
 72
     1
  1
A
  7
SLDTEXTSTYLE0
 73
     1
 44
1.0
  0
MTEXT
  5
117
330
1F
100
AcDbEntity
  8
참조1
100
AcDbMText
 10
83.37640563295113
 20
0.1857175660160736
 30
0.0
 40
3.5
 41
0.0
 71
     1
 72
     1
  1
A
  7
SLDTEXTSTYLE0
 73
     1
 44
1.0
  0
LINE
  5
351
330
1F
100
AcDbEntity
  8
외형선
  6
Continuous
370
    15
100
AcDbLine
 10
13.0
 20
9.5875
 30
0.0
 11
-55.85000169873238
 21
9.525000117719172
 31
0.0
  0
LINE
  5
352
330
1F
100
AcDbEntity
  8
외형선
  6
Continuous
370
    15
100
AcDbLine
 10
-55.85000169873237
 20
-9.525000117719175
 30
0.0
 11
13.0
 21
-9.525000000000002
 31
0.0
  0
LINE
  5
353
330
1F
100
AcDbEntity
  8
외형선
  6
Continuous
370
    15
100
AcDbLine
 10
-55.85000169873237
 20
9.525000117719172
 30
0.0
 11
-56.85
 21
8.524999953806399
 31
0.0
  0
LINE
  5
354
330
1F
100
AcDbEntity
  8
외형선
  6
Continuous
370
    15
100
AcDbLine
 10
-56.85
 20
-8.524999953806402
 30
0.0
 11
-55.85000169873237
 21
-9.525000117719175
 31
0.0
  0
LINE
  5
355
330
1F
100
AcDbEntity
  8
외형선
  6
Continuous
 62
     1
370
    15
100
AcDbLine
 10
32.5558688879013
 20
-9.525000117719175
 30
0.0
 11
32.93964084386825
 21
-9.525000117719175
 31
0.0
  0
SPLINE
  5
356
330
1F
100
AcDbEntity
  8
외형선
  6
Continuous
 62
     1
370
    15
100
AcDbSpline
210
0.0
220
0.0
230
1.0
 70
     8
 71
     3
 72
     9
 73
     5
 74
     0
 42
0.000000001
 43
0.00000001
 40
0.0
 40
0.0
 40
0.0
 40
0.0
 40
0.5010162394038123
 40
1.0
 40
1.0
 40
1.0
 40
1.0
 10
32.93986063599587
 20
-9.525000117719175
 30
0.0
 10
32.96790701085992
 20
-9.522696078705064
 30
0.0
 10
33.02388598451036
 20
-9.518097347500554
 30
0.0
 10
33.07237149169251
 20
-9.4879162003789
 30
0.0
 10
33.09656497240066
 20
-9.47285629808903
 30
0.0
  0
SPLINE
  5
357
330
1F
100
AcDbEntity
  8
외형선
  6
Continuous
 62
     1
370
    15
100
AcDbSpline
210
0.0
220
0.0
230
1.0
 70
     8
 71
     3
 72
    11
 73
     7
 74
     0
 42
0.000000001
 43
0.00000001
 40
0.0
 40
0.0
 40
0.0
 40
0.0
 40
0.2438419732798286
 40
0.4999574188796519
 40
0.7560935124532813
 40
1.0
 40
1.0
 40
1.0
 40
1.0
 10
33.08787759542466
 20
-9.46974661201239
 30
0.0
 10
33.13267583606591
 20
-9.440052256891493
 30
0.0
 10
33.22452717921286
 20
-9.37916891945023
 30
0.0
 10
33.39272499601488
 20
-9.351266652832162
 30
0.0
 10
33.56092356983422
 20
-9.375602284062033
 30
0.0
 10
33.65274977790349
 20
-9.433871283804775
 30
0.0
 10
33.69753997921944
 20
-9.462293237447742
 30
0.0
  0
SPLINE
  5
358
330
1F
100
AcDbEntity
  8
외형선
  6
Continuous
 62
     1
370
    15
100
AcDbSpline
210
0.0
220
0.0
230
1.0
 70
     8
 71
     3
 72
     9
 73
     5
 74
     0
 42
0.000000001
 43
0.00000001
 40
0.0
 40
0.0
 40
0.0
 40
0.0
 40
0.499426935249401
 40
0.9999999999999999
 40
0.9999999999999999
 40
0.9999999999999999
 40
0.9999999999999999
 10
33.69895931482316
 20
-9.464080445468428
 30
0.0
 10
33.72316475268693
 20
-9.48024517387443
 30
0.0
 10
33.77163117721349
 20
-9.512611726947762
 30
0.0
 10
33.82886775609168
 20
-9.518601526620051
 30
0.0
 10
33.85751884579658
 20
-9.521599858999254
 30
0.0
  0
LINE
  5
359
330
1F
100
AcDbEntity
  8
외형선
  6
Continuous
 62
     1
370
    15
100
AcDbLine
 10
33.86515196561814
 20
-9.525000117719175
 30
0.0
 11
34.9384416282177
 21
-9.525000117719175
 31
0.0
  0
SPLINE
  5
35A
330
1F
100
AcDbEntity
  8
외형선
  6
Continuous
 62
     1
370
    15
100
AcDbSpline
210
0.0
220
0.0
230
1.0
 70
     8
 71
     3
 72
     9
 73
     5
 74
     0
 42
0.000000001
 43
0.00000001
 40
0.0
 40
0.0
 40
0.0
 40
0.0
 40
0.5008534090894425
 40
0.9999999999999999
 40
0.9999999999999999
 40
0.9999999999999999
 40
0.9999999999999999
 10
34.93853476047516
 20
-9.52491443604231
 30
0.0
 10
34.96724469070503
 20
-9.522575022849747
 30
0.0
 10
35.02456671289521
 20
-9.517904168763284
 30
0.0
 10
35.07319693579372
 20
-9.486717056099037
 30
0.0
 10
35.09747054576874
 20
-9.471150115132335
 30
0.0
  0
SPLINE
  5
35B
330
1F
100
AcDbEntity
  8
외형선
  6
Continuous
 62
     1
370
    15
100
AcDbSpline
210
0.0
220
0.0
230
1.0
 70
     8
 71
     3
 72
    11
 73
     7
 74
     0
 42
0.000000001
 43
0.00000001
 40
0.0
 40
0.0
 40
0.0
 40
0.0
 40
0.2447284105036772
 40
0.4998364401446816
 40
0.7550172298198826
 40
1.0
 40
1.0
 40
1.0
 40
1.0
 10
35.10016393065452
 20
-9.46994032710791
 30
0.0
 10
35.1445112005446
 20
-9.44117624157243
 30
0.0
 10
35.23508663257698
 20
-9.382428104858416
 30
0.0
 10
35.40295546922513
 20
-9.356094966708598
 30
0.0
 10
35.5708225699876
 20
-9.382472842109404
 30
0.0
 10
35.66131027747079
 20
-9.44120165214216
 30
0.0
 10
35.70563163757325
 20
-9.469967335462572
 30
0.0
  0
SPLINE
  5
35C
330
1F
100
AcDbEntity
  8
외형선
  6
Continuous
 62
     1
370
    15
100
AcDbSpline
210
0.0
220
0.0
230
1.0
 70
     8
 71
     3
 72
     9
 73
     5
 74
     0
 42
0.000000001
 43
0.00000001
 40
0.0
 40
0.0
 40
0.0
 40
0.0
 40
0.5166181368086173
 40
1.0
 40
1.0
 40
1.0
 40
1.0
 10
35.70539694428444
 20
-9.469831362366678
 30
0.0
 10
35.73016062643535
 20
-9.485920361419522
 30
0.0
 10
35.77809483622494
 20
-9.517063284802415
 30
0.0
 10
35.83451056542808
 20
-9.521720023328898
 30
0.0
 10
35.86178090572358
 20
-9.523971006274225
 30
0.0
  0
LINE
  5
35D
330
1F
100
AcDbEntity
  8
외형선
  6
Continuous
 62
     1
370
    15
100
AcDbLine
 10
35.86400490403176
 20
-9.525000117719175
 30
0.0
 11
36.93742495179177
 21
-9.525000117719175
 31
0.0
  0
SPLINE
  5
35E
330
1F
100
AcDbEntity
  8
외형선
  6
Continuous
 62
     1
370
    15
100
AcDbSpline
210
0.0
220
0.0
230
1.0
 70
     8
 71
     3
 72
     9
 73
     5
 74
     0
 42
0.000000001
 43
0.00000001
 40
0.0
 40
0.0
 40
0.0
 40
0.0
 40
0.5014830733934419
 40
1.0
 40
1.0
 40
1.0
 40
1.0
 10
36.93993579745293
 20
-9.525000117719175
 30
0.0
 10
36.96954896828102
 20
-9.522396228061393
 30
0.0
 10
37.02860015544815
 20
-9.51720385010103
 30
0.0
 10
37.07913859217265
 20
-9.483472876382166
 30
0.0
 10
37.10433285832406
 20
-9.466657415032389
 30
0.0
  0
SPLINE
  5
35F
330
1F
100
AcDbEntity
  8
외형선
  6
Continuous
 62
     1
370
    15
100
AcDbSpline
210
0.0
220
0.0
230
1.0
 70
     8
 71
     3
 72
    11
 73
     7
 74
     0
 42
0.000000001
 43
0.00000001
 40
0.0
 40
0.0
 40
0.0
 40
0.0
 40
0.2118579022914969
 40
0.4526681318340469
 40
0.7190211725035738
 40
1.0
 40
1.0
 40
1.0
 40
1.0
 10
37.10234727859498
 20
-9.468437172472479
 30
0.0
 10
37.13656670198016
 20
-9.44529533690889
 30
0.0
 10
37.20968194709805
 20
-9.395849121504718
 30
0.0
 10
37.36341926541644
 20
-9.3574992885231
 30
0.0
 10
37.54469929107844
 20
-9.370611804002388
 30
0.0
 10
37.64913524594593
 20
-9.434922466923904
 30
0.0
 10
37.70274859070778
 20
-9.46793705224991
 30
0.0
  0
SPLINE
  5
360
330
1F
100
AcDbEntity
  8
외형선
  6
Continuous
 62
     1
370
    15
100
AcDbSpline
210
0.0
220
0.0
230
1.0
 70
     8
 71
     3
 72
     9
 73
     5
 74
     0
 42
0.000000001
 43
0.00000001
 40
0.0
 40
0.0
 40
0.0
 40
0.0
 40
0.499523406934085
 40
0.9999999999999999
 40
0.9999999999999999
 40
0.9999999999999999
 40
0.9999999999999999
 10
37.70334091186524
 20
-9.468418546020986
 30
0.0
 10
37.72822494876468
 20
-9.48473512120574
 30
0.0
 10
37.77804050606196
 20
-9.517399406719202
 30
0.0
 10
37.83663059205711
 20
-9.522464937921153
 30
0.0
 10
37.86595355868339
 20
-9.525000117719175
 30
0.0
  0
LINE
  5
361
330
1F
100
AcDbEntity
  8
외형선
  6
Continuous
 62
     1
370
    15
100
AcDbLine
 10
37.85249035954476
 20
-9.522508829832079
 30
0.0
 11
38.40000000000001
 21
-8.975000120699407
 31
0.0
  0
LINE
  5
362
330
1F
100
AcDbEntity
  8
외형선
  6
Continuous
 62
     1
370
    15
100
AcDbLine
 10
37.84999814033509
 20
9.525000117719172
 30
0.0
 11
36.86352636814118
 21
9.525000117719172
 31
0.0
  0
LINE
  5
363
330
1F
100
AcDbEntity
  8
외형선
  6
Continuous
 62
     1
370
    15
100
AcDbLine
 10
38.40000000000001
 20
8.975000120699404
 30
0.0
 11
37.84999814033509
 21
9.525000117719172
 31
0.0
  0
SPLINE
  5
364
330
1F
100
AcDbEntity
  8
외형선
  6
Continuous
 62
     1
370
    15
100
AcDbSpline
210
0.0
220
0.0
230
1.0
 70
     8
 71
     3
 72
     9
 73
     5
 74
     0
 42
0.000000001
 43
0.00000001
 40
0.0
 40
0.0
 40
0.0
 40
0.0
 40
0.5004497624295988
 40
1.0
 40
1.0
 40
1.0
 40
1.0
 10
36.86635386347771
 20
9.524990804493426
 30
0.0
 10
36.83697377417464
 20
9.522499147017554
 30
0.0
 10
36.77826640430722
 20
9.517520310652896
 30
0.0
 10
36.72833452269381
 20
9.484801446571458
 30
0.0
 10
36.7033910393715
 20
9.468456730246542
 30
0.0
  0
SPLINE
  5
365
330
1F
100
AcDbEntity
  8
외형선
  6
Continuous
 62
     1
370
    15
100
AcDbSpline
210
0.0
220
0.0
230
1.0
 70
     8
 71
     3
 72
    11
 73
     7
 74
     0
 42
0.000000001
 43
0.00000001
 40
0.0
 40
0.0
 40
0.0
 40
0.0
 40
0.2167931813038279
 40
0.4585886881280366
 40
0.7228576571159571
 40
1.0
 40
1.0
 40
1.0
 40
1.0
 10
36.70213561654091
 20
9.467403404414652
 30
0.0
 10
36.66834801530095
 20
9.444612896243383
 30
0.0
 10
36.59687615611043
 20
9.396403496016054
 30
0.0
 10
36.44342195384078
 20
9.357581251494514
 30
0.0
 10
36.26213607216181
 20
9.37025575113181
 30
0.0
 10
36.15751344521968
 20
9.43425962994512
 30
0.0
 10
36.10395830273629
 20
9.467022493481634
 30
0.0
  0
SPLINE
  5
366
330
1F
100
AcDbEntity
  8
외형선
  6
Continuous
 62
     1
370
    15
100
AcDbSpline
210
0.0
220
0.0
230
1.0
 70
     8
 71
     3
 72
     9
 73
     5
 74
     0
 42
0.000000001
 43
0.00000001
 40
0.0
 40
0.0
 40
0.0
 40
0.0
 40
0.4989201952975992
 40
1.0
 40
1.0
 40
1.0
 40
1.0
 10
36.10236760377884
 20
9.468419477343557
 30
0.0
 10
36.0778334593024
 20
9.484521815839182
 30
0.0
 10
36.02865897266567
 20
9.51679619287862
 30
0.0
 10
35.97085678333379
 20
9.522127527787907
 30
0.0
 10
35.94189327359199
 20
9.524798952043055
 30
0.0
  0
LINE
  5
367
330
1F
100
AcDbEntity
  8
외형선
  6
Continuous
 62
     1
370
    15
100
AcDbLine
 10
35.93789976239205
 20
9.525000117719172
 30
0.0
 11
34.86455422043801
 21
9.525000117719172
 31
0.0
  0
SPLINE
  5
368
330
1F
100
AcDbEntity
  8
외형선
  6
Continuous
 62
     1
370
    15
100
AcDbSpline
210
0.0
220
0.0
230
1.0
 70
     8
 71
     3
 72
     9
 73
     5
 74
     0
 42
0.000000001
 43
0.00000001
 40
0.0
 40
0.0
 40
0.0
 40
0.0
 40
0.5005815724856867
 40
1.0
 40
1.0
 40
1.0
 40
1.0
 10
34.8633695781231
 20
9.524682536721228
 30
0.0
 10
34.83455301259184
 20
9.522014096387258
 30
0.0
 10
34.77698683933433
 20
9.516683416073311
 30
0.0
 10
34.72817950228793
 20
9.484729140175451
 30
0.0
 10
34.70380421876908
 20
9.468770585954188
 30
0.0
  0
SPLINE
  5
369
330
1F
100
AcDbEntity
  8
외형선
  6
Continuous
 62
     1
370
    15
100
AcDbSpline
210
0.0
220
0.0
230
1.0
 70
     8
 71
     3
 72
    11
 73
     7
 74
     0
 42
0.000000001
 43
0.00000001
 40
0.0
 40
0.0
 40
0.0
 40
0.0
 40
0.244245524659806
 40
0.5000702924686851
 40
0.7558652020830724
 40
1.0
 40
1.0
 40
1.0
 40
1.0
 10
34.7027909398079
 20
9.467972442507742
 30
0.0
 10
34.65815669093539
 20
9.439307128911528
 30
0.0
 10
34.56677216334216
 20
9.380617530509545
 30
0.0
 10
34.39869534483338
 20
9.35528599547746
 30
0.0
 10
34.23061721999503
 20
9.382374160035829
 30
0.0
 10
34.13918855512988
 20
9.442365396073603
 30
0.0
 10
34.09454044103623
 20
9.471661411225794
 30
0.0
  0
SPLINE
  5
36A
330
1F
100
AcDbEntity
  8
외형선
  6
Continuous
 62
     1
370
    15
100
AcDbSpline
210
0.0
220
0.0
230
1.0
 70
     8
 71
     3
 72
     9
 73
     5
 74
     0
 42
0.000000001
 43
0.00000001
 40
0.0
 40
0.0
 40
0.0
 40
0.0
 40
0.4992762468750294
 40
1.0
 40
1.0
 40
1.0
 40
1.0
 10
34.0912137567997
 20
9.471235796809195
 30
0.0
 10
34.06706790271735
 20
9.486389213817757
 30
0.0
 10
34.0187061906723
 20
9.516739980759722
 30
0.0
 10
33.96161411384085
 20
9.520745376775638
 30
0.0
 10
33.93302675485612
 20
9.522750973701475
 30
0.0
  0
LINE
  5
36B
330
1F
100
AcDbEntity
  8
외형선
  6
Continuous
 62
     1
370
    15
100
AcDbLine
 10
33.93904309868812
 20
9.525000117719172
 30
0.0
 11
32.86575343608857
 21
9.525000117719172
 31
0.0
  0
SPLINE
  5
36C
330
1F
100
AcDbEntity
  8
외형선
  6
Continuous
 62
     1
370
    15
100
AcDbSpline
210
0.0
220
0.0
230
1.0
 70
     8
 71
     3
 72
     9
 73
     5
 74
     0
 42
0.000000001
 43
0.00000001
 40
0.0
 40
0.0
 40
0.0
 40
0.0
 40
0.5004746184935012
 40
1.0
 40
1.0
 40
1.0
 40
1.0
 10
32.8659285247326
 20
9.525000117719172
 30
0.0
 10
32.83661078629368
 20
9.522462493452442
 30
0.0
 10
32.77803091559579
 20
9.517392057963887
 30
0.0
 10
32.72822251517098
 20
9.484733337261792
 30
0.0
 10
32.70334195494652
 20
9.468419477343557
 30
0.0
  0
LINE
  5
36D
330
1F
100
AcDbEntity
  8
외형선
  6
Continuous
 62
     1
370
    15
100
AcDbLine
 10
32.70334195494652
 20
9.468419477343557
 30
0.0
 11
32.52183463573456
 21
9.384485892951487
 31
0.0
  0
LINE
  5
36E
330
1F
100
AcDbEntity
  8
외형선
  6
Continuous
370
    15
100
AcDbLine
 10
-55.85000169873237
 20
9.525000117719172
 30
0.0
 11
-55.85000169873237
 21
-9.525000117719175
 31
0.0
  0
LINE
  5
36F
330
1F
100
AcDbEntity
  8
외형선
  6
Continuous
370
    15
100
AcDbLine
 10
-56.85
 20
8.524999953806399
 30
0.0
 11
-56.85
 21
-8.524999953806402
 31
0.0
  0
SPLINE
  5
370
330
1F
100
AcDbEntity
  8
외형선
  6
Continuous
 62
     1
370
    15
100
AcDbSpline
210
0.0
220
0.0
230
1.0
 70
     8
 71
     3
 72
     8
 73
     4
 74
     0
 42
0.000000001
 43
0.00000001
 40
0.0
 40
0.0
 40
0.0
 40
0.0
 40
1.0
 40
1.0
 40
1.0
 40
1.0
 10
37.42239152905708
 20
-1.760901827226895
 30
0.0
 10
37.36726026907851
 20
-1.741185150604077
 30
0.0
 10
37.31186160573512
 20
-1.720534852207605
 30
0.0
 10
37.26633867906557
 20
-1.703311055293922
 30
0.0
  0
SPLINE
  5
371
330
1F
100
AcDbEntity
  8
외형선
  6
Continuous
 62
     1
370
    15
100
AcDbSpline
210
0.0
220
0.0
230
1.0
 70
     8
 71
     3
 72
    10
 73
     6
 74
     0
 42
0.000000001
 43
0.00000001
 40
0.0
 40
0.0
 40
0.0
 40
0.0
 40
0.5000000000000001
 40
0.5000000000000001
 40
1.0
 40
1.0
 40
1.0
 40
1.0
 10
37.26633867906175
 20
-1.703311055187495
 30
0.0
 10
37.24069798544033
 20
-0.9865943741102878
 30
0.0
 10
37.21503761824135
 20
-0.2545427611070714
 30
0.0
 10
37.16565283644667
 20
1.182803573860872
 30
0.0
 10
37.14194185619996
 20
1.887670395455332
 30
0.0
 10
37.11996532043753
 20
2.554707874109367
 30
0.0
  0
SPLINE
  5
372
330
1F
100
AcDbEntity
  8
외형선
  6
Continuous
 62
     1
370
    15
100
AcDbSpline
210
0.0
220
0.0
230
1.0
 70
     8
 71
     3
 72
     8
 73
     4
 74
     0
 42
0.000000001
 43
0.00000001
 40
0.0
 40
0.0
 40
0.0
 40
0.0
 40
1.0
 40
1.0
 40
1.0
 40
1.0
 10
37.11996532035224
 20
2.554707876708802
 30
0.0
 10
37.16463351211857
 20
2.543359260125735
 30
0.0
 10
37.21959539987429
 20
2.526504015939418
 30
0.0
 10
37.27635926465237
 20
2.506579759154688
 30
0.0
  0
SPLINE
  5
373
330
1F
100
AcDbEntity
  8
외형선
  6
Continuous
 62
     1
370
    15
100
AcDbSpline
210
0.0
220
0.0
230
1.0
 70
     8
 71
     3
 72
    10
 73
     6
 74
     0
 42
0.000000001
 43
0.00000001
 40
0.0
 40
0.0
 40
0.0
 40
0.0
 40
0.5
 40
0.5
 40
1.0
 40
1.0
 40
1.0
 40
1.0
 10
37.42238605461247
 20
-1.760748081193737
 30
0.0
 10
37.39686037432978
 20
-1.043875767784822
 30
0.0
 10
37.37129214426457
 20
-0.3110724663338242
 30
0.0
 10
37.32202576616388
 20
1.129347469542266
 30
0.0
 10
37.29834097036635
 20
1.836538319263541
 30
0.0
 10
37.27635684757141
 20
2.506653436016633
 30
0.0
  0
SPLINE
  5
374
330
1F
100
AcDbEntity
  8
외형선
  6
Continuous
 62
     1
370
    15
100
AcDbSpline
210
0.0
220
0.0
230
1.0
 70
     8
 71
     3
 72
     8
 73
     4
 74
     0
 42
0.000000001
 43
0.00000001
 40
0.0
 40
0.0
 40
0.0
 40
0.0
 40
1.0
 40
1.0
 40
1.0
 40
1.0
 10
36.6410017267776
 20
-1.480370212754419
 30
0.0
 10
36.59625292780284
 20
-1.464551663169795
 30
0.0
 10
36.54122048132447
 20
-1.444991932868165
 30
0.0
 10
36.4843861650256
 20
-1.424559326705912
 30
0.0
  0
SPLINE
  5
375
330
1F
100
AcDbEntity
  8
외형선
  6
Continuous
 62
     1
370
    15
100
AcDbSpline
210
0.0
220
0.0
230
1.0
 70
     8
 71
     3
 72
    10
 73
     6
 74
     0
 42
0.000000001
 43
0.00000001
 40
0.0
 40
0.0
 40
0.0
 40
0.0
 40
0.5
 40
0.5
 40
1.0
 40
1.0
 40
1.0
 40
1.0
 10
36.48436660414396
 20
-1.424006493895067
 30
0.0
 10
36.45875193556347
 20
-0.7000768176241987
 30
0.0
 10
36.43325669429245
 20
0.0353251035973869
 30
0.0
 10
36.38443938903784
 20
1.47189890990626
 30
0.0
 10
36.36112959349813
 20
2.172668307052893
 30
0.0
 10
36.33962638934338
 20
2.832859938669683
 30
0.0
  0
SPLINE
  5
376
330
1F
100
AcDbEntity
  8
외형선
  6
Continuous
 62
     1
370
    15
100
AcDbSpline
210
0.0
220
0.0
230
1.0
 70
     8
 71
     3
 72
     8
 73
     4
 74
     0
 42
0.000000001
 43
0.00000001
 40
0.0
 40
0.0
 40
0.0
 40
0.0
 40
1.0
 40
1.0
 40
1.0
 40
1.0
 10
36.33960322183272
 20
2.833571233641655
 30
0.0
 10
36.39467550276915
 20
2.814453740850615
 30
0.0
 10
36.45000897022302
 20
2.792306372548895
 30
0.0
 10
36.49546431373562
 20
2.771426727134715
 30
0.0
  0
SPLINE
  5
377
330
1F
100
AcDbEntity
  8
외형선
  6
Continuous
 62
     1
370
    15
100
AcDbSpline
210
0.0
220
0.0
230
1.0
 70
     8
 71
     3
 72
    10
 73
     6
 74
     0
 42
0.000000001
 43
0.00000001
 40
0.0
 40
0.0
 40
0.0
 40
0.0
 40
0.5
 40
0.5
 40
1.0
 40
1.0
 40
1.0
 40
1.0
 10
36.64100172675771
 20
-1.480370212184502
 30
0.0
 10
36.61529570637569
 20
-0.7587988236447583
 30
0.0
 10
36.58967874283687
 20
-0.0248619675330986
 30
0.0
 10
36.54058540181174
 20
1.410195298014951
 30
0.0
 10
36.51712173371052
 20
2.110903170320411
 30
0.0
 10
36.49546438603485
 20
2.771424522100892
 30
0.0
  0
SPLINE
  5
378
330
1F
100
AcDbEntity
  8
외형선
  6
Continuous
 62
     1
370
    15
100
AcDbSpline
210
0.0
220
0.0
230
1.0
 70
     8
 71
     3
 72
    10
 73
     6
 74
     0
 42
0.000000001
 43
0.00000001
 40
0.0
 40
0.0
 40
0.0
 40
0.0
 40
0.5
 40
0.5
 40
1.0
 40
1.0
 40
1.0
 40
1.0
 10
37.26633867906557
 20
-1.703311055293922
 30
0.0
 10
37.17368051738831
 20
-1.668253437608017
 30
0.0
 10
37.06117279755361
 20
-1.628903460233399
 30
0.0
 10
36.83651819953386
 20
-1.549736207711771
 30
0.0
 10
36.72933827302447
 20
-1.511596884060598
 30
0.0
 10
36.641001726778
 20
-1.480370212754375
 30
0.0
  0
SPLINE
  5
379
330
1F
100
AcDbEntity
  8
외형선
  6
Continuous
 62
     1
370
    15
100
AcDbSpline
210
0.0
220
0.0
230
1.0
 70
     8
 71
     3
 72
    10
 73
     6
 74
     0
 42
0.000000001
 43
0.00000001
 40
0.0
 40
0.0
 40
0.0
 40
0.0
 40
0.5
 40
0.5
 40
1.0
 40
1.0
 40
1.0
 40
1.0
 10
36.49546431373562
 20
2.771426727134711
 30
0.0
 10
36.58798541863717
 20
2.728927700301101
 30
0.0
 10
36.70035963518529
 20
2.686513501140476
 30
0.0
 10
36.92474801782495
 20
2.609837956611498
 30
0.0
 10
37.03178811922896
 20
2.577110602392009
 30
0.0
 10
37.11996532035189
 20
2.55470787670872
 30
0.0
  0
SPLINE
  5
37A
330
1F
100
AcDbEntity
  8
외형선
  6
Continuous
 62
     1
370
    15
100
AcDbSpline
210
0.0
220
0.0
230
1.0
 70
     8
 71
     3
 72
     8
 73
     4
 74
     0
 42
0.000000001
 43
0.00000001
 40
0.0
 40
0.0
 40
0.0
 40
0.0
 40
1.0
 40
1.0
 40
1.0
 40
1.0
 10
35.39662460676962
 20
-1.032311184682085
 30
0.0
 10
35.3414932885137
 20
-1.012370663529166
 30
0.0
 10
35.28609665796651
 20
-0.9928948204265993
 30
0.0
 10
35.24057566787431
 20
-0.9782579156435531
 30
0.0
  0
SPLINE
  5
37B
330
1F
100
AcDbEntity
  8
외형선
  6
Continuous
 62
     1
370
    15
100
AcDbSpline
210
0.0
220
0.0
230
1.0
 70
     8
 71
     3
 72
    10
 73
     6
 74
     0
 42
0.000000001
 43
0.00000001
 40
0.0
 40
0.0
 40
0.0
 40
0.0
 40
0.5
 40
0.5
 40
1.0
 40
1.0
 40
1.0
 40
1.0
 10
35.24057566786527
 20
-0.978257915388328
 30
0.0
 10
35.2147754335721
 20
-0.2472203355044105
 30
0.0
 10
35.18931154819798
 20
0.48936511197949
 30
0.0
 10
35.14097506205255
 20
1.916239987733524
 30
0.0
 10
35.11815754321938
 20
2.605726757914679
 30
0.0
 10
35.09720919426498
 20
3.250838535819645
 30
0.0
  0
SPLINE
  5
37C
330
1F
100
AcDbEntity
  8
외형선
  6
Continuous
 62
     1
370
    15
100
AcDbSpline
210
0.0
220
0.0
230
1.0
 70
     8
 71
     3
 72
     8
 73
     4
 74
     0
 42
0.000000001
 43
0.00000001
 40
0.0
 40
0.0
 40
0.0
 40
0.0
 40
1.0
 40
1.0
 40
1.0
 40
1.0
 10
35.09720919426198
 20
3.250838535922339
 30
0.0
 10
35.14184733262763
 20
3.242534273495631
 30
0.0
 10
35.19678206390725
 20
3.227594679172912
 30
0.0
 10
35.25352193787811
 20
3.208152816942045
 30
0.0
  0
SPLINE
  5
37D
330
1F
100
AcDbEntity
  8
외형선
  6
Continuous
 62
     1
370
    15
100
AcDbSpline
210
0.0
220
0.0
230
1.0
 70
     8
 71
     3
 72
    10
 73
     6
 74
     0
 42
0.000000001
 43
0.00000001
 40
0.0
 40
0.0
 40
0.0
 40
0.0
 40
0.5
 40
0.5
 40
1.0
 40
1.0
 40
1.0
 40
1.0
 10
35.3966216335335
 20
-1.032226540953836
 30
0.0
 10
35.37092364228542
 20
-0.3006413726825681
 30
0.0
 10
35.34553565511894
 20
0.4371447432941125
 30
0.0
 10
35.29728276358597
 20
1.867991440567385
 30
0.0
 10
35.27442873114083
 20
2.56068083866842
 30
0.0
 10
35.25350055032489
 20
3.208815172624968
 30
0.0
  0
SPLINE
  5
37E
330
1F
100
AcDbEntity
  8
외형선
  6
Continuous
 62
     1
370
    15
100
AcDbSpline
210
0.0
220
0.0
230
1.0
 70
     8
 71
     3
 72
    17
 73
    13
 74
     0
 42
0.000000001
 43
0.00000001
 40
0.0
 40
0.0
 40
0.0
 40
0.0
 40
0.0000451207917106
 40
0.0000451207917106
 40
0.0000451207917106
 40
0.0000902371274598
 40
0.0000902371274598
 40
0.0000902371274598
 40
0.0001347538561577
 40
0.0001347538561577
 40
0.0001347538561577
 40
0.0001803525096868
 40
0.0001803525096868
 40
0.0001803525096868
 40
0.0001803525096868
 10
34.61525674260847
 20
-0.752783503147036
 30
0.0
 10
34.60412791906847
 20
-0.7481326263736161
 30
0.0
 10
34.59227981733227
 20
-0.743295076309634
 30
0.0
 10
34.57993457964866
 20
-0.7383519752075056
 30
0.0
 10
34.5675901228071
 20
-0.7334091867588288
 30
0.0
 10
34.55467565098169
 20
-0.7283315843190792
 30
0.0
 10
34.54142037787287
 20
-0.72320450940909
 30
0.0
 10
34.52834035698837
 20
-0.7181452212036632
 30
0.0
 10
34.5148531258283
 20
-0.7130085858181499
 30
0.0
 10
34.50118755306212
 20
-0.7078819287337463
 30
0.0
 10
34.48719260502142
 20
-0.7026317060942535
 30
0.0
 10
34.47292604644244
 20
-0.6973602447715965
 30
0.0
 10
34.45864706787629
 20
-0.6921687178984293
 30
0.0
  0
SPLINE
  5
37F
330
1F
100
AcDbEntity
  8
외형선
  6
Continuous
 62
     1
370
    15
100
AcDbSpline
210
0.0
220
0.0
230
1.0
 70
     8
 71
     3
 72
    12
 73
     8
 74
     0
 42
0.000000001
 43
0.00000001
 40
0.0
 40
0.0
 40
0.0
 40
0.0
 40
0.5000000000000001
 40
0.5000000000000001
 40
0.75
 40
0.75
 40
1.0
 40
1.0
 40
1.0
 40
1.0
 10
34.45864571870415
 20
-0.692130067185559
 30
0.0
 10
34.43293960067862
 20
0.0442923658103975
 30
0.0
 10
34.40770959699407
 20
0.7822447525786345
 30
0.0
 10
34.37197364157825
 20
1.849009519467826
 30
0.0
 10
34.36040951657495
 20
2.197973085406639
 30
0.0
 10
34.33815140300251
 20
2.876893100454454
 30
0.0
 10
34.32776891162715
 20
3.203848403690804
 30
0.0
 10
34.31704026382383
 20
3.527180004230749
 30
0.0
  0
SPLINE
  5
380
330
1F
100
AcDbEntity
  8
외형선
  6
Continuous
 62
     1
370
    15
100
AcDbSpline
210
0.0
220
0.0
230
1.0
 70
     8
 71
     3
 72
     8
 73
     4
 74
     0
 42
0.000000001
 43
0.00000001
 40
0.0
 40
0.0
 40
0.0
 40
0.0
 40
1.0
 40
1.0
 40
1.0
 40
1.0
 10
34.31703892515063
 20
3.527220348119338
 30
0.0
 10
34.37210194014445
 20
3.508567012798979
 30
0.0
 10
34.42743085738569
 20
3.485514155555483
 30
0.0
 10
34.47288733849918
 20
3.462291966181835
 30
0.0
  0
SPLINE
  5
381
330
1F
100
AcDbEntity
  8
외형선
  6
Continuous
 62
     1
370
    15
100
AcDbSpline
210
0.0
220
0.0
230
1.0
 70
     8
 71
     3
 72
    12
 73
     8
 74
     0
 42
0.000000001
 43
0.00000001
 40
0.0
 40
0.0
 40
0.0
 40
0.0
 40
0.4999999999999998
 40
0.4999999999999998
 40
0.7499999999999999
 40
0.7499999999999999
 40
1.0
 40
1.0
 40
1.0
 40
1.0
 10
34.61525674260048
 20
-0.7527835029091214
 30
0.0
 10
34.58944761912252
 20
-0.0184287066053699
 30
0.0
 10
34.56408655717254
 20
0.7183542297371055
 30
0.0
 10
34.52813462126394
 20
1.784371417488527
 30
0.0
 10
34.5164953318704
 20
2.133250702557158
 30
0.0
 10
34.49408449312611
 20
2.812254374897742
 30
0.0
 10
34.48360438651494
 20
3.139572903076251
 30
0.0
 10
34.47288733849935
 20
3.462291966181718
 30
0.0
  0
SPLINE
  5
382
330
1F
100
AcDbEntity
  8
외형선
  6
Continuous
 62
     1
370
    15
100
AcDbSpline
210
0.0
220
0.0
230
1.0
 70
     8
 71
     3
 72
    10
 73
     6
 74
     0
 42
0.000000001
 43
0.00000001
 40
0.0
 40
0.0
 40
0.0
 40
0.0
 40
0.5
 40
0.5
 40
1.0
 40
1.0
 40
1.0
 40
1.0
 10
35.24057566787425
 20
-0.978257915643546
 30
0.0
 10
35.14790981375413
 20
-0.9484619625975217
 30
0.0
 10
35.0353922996147
 20
-0.9114571915924436
 30
0.0
 10
34.81074959147531
 20
-0.8311929795075876
 30
0.0
 10
34.70358279707793
 20
-0.7896960836854223
 30
0.0
 10
34.61525674260886
 20
-0.75278350314702
 30
0.0
  0
SPLINE
  5
383
330
1F
100
AcDbEntity
  8
외형선
  6
Continuous
 62
     1
370
    15
100
AcDbSpline
210
0.0
220
0.0
230
1.0
 70
     8
 71
     3
 72
    10
 73
     6
 74
     0
 42
0.000000001
 43
0.00000001
 40
0.0
 40
0.0
 40
0.0
 40
0.0
 40
0.5
 40
0.5
 40
1.0
 40
1.0
 40
1.0
 40
1.0
 10
34.47288733849935
 20
3.462291966181732
 30
0.0
 10
34.56538429027475
 20
3.415038380378393
 30
0.0
 10
34.67771287406228
 20
3.370793117775792
 30
0.0
 10
34.90204794570164
 20
3.296175085886508
 30
0.0
 10
35.00906446789374
 20
3.267236552642585
 30
0.0
 10
35.09720919426164
 20
3.25083853592224
 30
0.0
  0
SPLINE
  5
384
330
1F
100
AcDbEntity
  8
외형선
  6
Continuous
 62
     1
370
    15
100
AcDbSpline
210
0.0
220
0.0
230
1.0
 70
     8
 71
     3
 72
     8
 73
     4
 74
     0
 42
0.000000001
 43
0.00000001
 40
0.0
 40
0.0
 40
0.0
 40
0.0
 40
1.0
 40
1.0
 40
1.0
 40
1.0
 10
37.75560692296867
 20
-1.879958635520223
 30
0.0
 10
37.64445703728373
 20
-1.84028235474325
 30
0.0
 10
37.53324984417677
 20
-1.800548343155114
 30
0.0
 10
37.42199886173225
 20
-1.760761396857616
 30
0.0
  0
SPLINE
  5
385
330
1F
100
AcDbEntity
  8
외형선
  6
Continuous
 62
     1
370
    15
100
AcDbSpline
210
0.0
220
0.0
230
1.0
 70
     8
 71
     3
 72
    14
 73
    10
 74
     0
 42
0.000000001
 43
0.00000001
 40
0.0
 40
0.0
 40
0.0
 40
0.0
 40
0.066347254519168
 40
0.2327671517063692
 40
0.3953701768700115
 40
0.5636367013417352
 40
0.71235608181704
 40
0.8651615573826198
 40
1.0
 40
1.0
 40
1.0
 40
1.0
 10
37.7518814444542
 20
-1.882568350993099
 30
0.0
 10
37.7528275030289
 20
-1.881904951540301
 30
0.0
 10
37.75614657570755
 20
-1.879577536454468
 30
0.0
 10
37.64855346045263
 20
-1.954920016489863
 30
0.0
 10
37.41721868580774
 20
-2.116899629880503
 30
0.0
 10
37.07224858141173
 20
-2.358454023657762
 30
0.0
 10
36.63829571975427
 20
-2.662305778709714
 30
0.0
 10
36.16649213272453
 20
-2.992670699701007
 30
0.0
 10
35.8153357001938
 20
-3.238552311891926
 30
0.0
 10
35.65072458386422
 20
-3.353813895955684
 30
0.0
  0
SPLINE
  5
386
330
1F
100
AcDbEntity
  8
외형선
  6
Continuous
 62
     1
370
    15
100
AcDbSpline
210
0.0
220
0.0
230
1.0
 70
     8
 71
     3
 72
     8
 73
     4
 74
     0
 42
0.000000001
 43
0.00000001
 40
0.0
 40
0.0
 40
0.0
 40
0.0
 40
1.0
 40
1.0
 40
1.0
 40
1.0
 10
38.39999963641165
 20
-4.809926601612739
 30
0.0
 10
37.48308542740367
 20
-4.333473843149472
 30
0.0
 10
36.56666556157133
 20
-3.848001361294768
 30
0.0
 10
35.6507233317345
 20
-3.35381399315632
 30
0.0
  0
LINE
  5
387
330
1F
100
AcDbEntity
  8
외형선
  6
Continuous
 62
     1
370
    15
100
AcDbLine
 10
38.40000000000001
 20
-8.728666231036188
 30
0.0
 11
38.40000000000001
 21
-4.809926729649307
 31
0.0
  0
SPLINE
  5
388
330
1F
100
AcDbEntity
  8
외형선
  6
Continuous
 62
     1
370
    15
100
AcDbSpline
210
0.0
220
0.0
230
1.0
 70
     8
 71
     3
 72
     8
 73
     4
 74
     0
 42
0.000000001
 43
0.00000001
 40
0.0
 40
0.0
 40
0.0
 40
0.0
 40
1.0
 40
1.0
 40
1.0
 40
1.0
 10
37.84999963641167
 20
-9.242006032211817
 30
0.0
 10
38.03249968099001
 20
-9.07463621264163
 30
0.0
 10
38.21575979977462
 20
-8.903557135100117
 30
0.0
 10
38.39999963641165
 20
-8.728665898620694
 30
0.0
  0
SPLINE
  5
389
330
1F
100
AcDbEntity
  8
외형선
  6
Continuous
 62
     1
370
    15
100
AcDbSpline
210
0.0
220
0.0
230
1.0
 70
     8
 71
     3
 72
     8
 73
     4
 74
     0
 42
0.000000001
 43
0.00000001
 40
0.0
 40
0.0
 40
0.0
 40
0.0
 40
1.0
 40
1.0
 40
1.0
 40
1.0
 10
37.84999963641391
 20
-9.24200603220982
 30
0.0
 10
37.8285555401981
 20
-9.24011644750057
 30
0.0
 10
37.80710916748936
 20
-9.238217475902026
 30
0.0
 10
37.78566061523232
 20
-9.236309124090475
 30
0.0
  0
SPLINE
  5
38A
330
1F
100
AcDbEntity
  8
외형선
  6
Continuous
 62
     1
370
    15
100
AcDbSpline
210
0.0
220
0.0
230
1.0
 70
     8
 71
     3
 72
     8
 73
     4
 74
     0
 42
0.000000001
 43
0.00000001
 40
0.0
 40
0.0
 40
0.0
 40
0.0
 40
1.0
 40
1.0
 40
1.0
 40
1.0
 10
37.62933677120481
 20
-9.168615892485246
 30
0.0
 10
37.67408443229274
 20
-9.20743251905815
 30
0.0
 10
37.72911402285987
 20
-9.231278192423966
 30
0.0
 10
37.78594426388176
 20
-9.23633436075773
 30
0.0
  0
SPLINE
  5
38B
330
1F
100
AcDbEntity
  8
외형선
  6
Continuous
 62
     1
370
    15
100
AcDbSpline
210
0.0
220
0.0
230
1.0
 70
     8
 71
     3
 72
    10
 73
     6
 74
     0
 42
0.000000001
 43
0.00000001
 40
0.0
 40
0.0
 40
0.0
 40
0.0
 40
0.5
 40
0.5
 40
1.0
 40
1.0
 40
1.0
 40
1.0
 10
37.00402440757713
 20
-9.109232282141651
 30
0.0
 10
37.09668457700346
 20
-9.04604015134117
 30
0.0
 10
37.20919778838191
 20
-9.020766160939145
 30
0.0
 10
37.4338412494142
 20
-9.044402283042373
 30
0.0
 10
37.54101058780296
 20
-9.09199681577074
 30
0.0
 10
37.62933677120289
 20
-9.168615892483599
 30
0.0
  0
SPLINE
  5
38C
330
1F
100
AcDbEntity
  8
외형선
  6
Continuous
 62
     1
370
    15
100
AcDbSpline
210
0.0
220
0.0
230
1.0
 70
     8
 71
     3
 72
     8
 73
     4
 74
     0
 42
0.000000001
 43
0.00000001
 40
0.0
 40
0.0
 40
0.0
 40
0.0
 40
1.0
 40
1.0
 40
1.0
 40
1.0
 10
36.84797657405281
 20
-9.147037375560053
 30
0.0
 10
36.90310798819579
 20
-9.15262920473885
 30
0.0
 10
36.95850462357794
 20
-9.140275740860723
 30
0.0
 10
37.00402440757713
 20
-9.109232282141653
 30
0.0
  0
SPLINE
  5
38D
330
1F
100
AcDbEntity
  8
외형선
  6
Continuous
 62
     1
370
    15
100
AcDbSpline
210
0.0
220
0.0
230
1.0
 70
     8
 71
     3
 72
     8
 73
     4
 74
     0
 42
0.000000001
 43
0.00000001
 40
0.0
 40
0.0
 40
0.0
 40
0.0
 40
1.0
 40
1.0
 40
1.0
 40
1.0
 10
36.84792914098719
 20
-9.1470325645363
 30
0.0
 10
36.48596126042688
 20
-9.110318920625335
 30
0.0
 10
36.12377708656285
 20
-9.070976365360066
 30
0.0
 10
35.76184337268953
 20
-9.029055846008703
 30
0.0
  0
SPLINE
  5
38E
330
1F
100
AcDbEntity
  8
외형선
  6
Continuous
 62
     1
370
    15
100
AcDbSpline
210
0.0
220
0.0
230
1.0
 70
     8
 71
     3
 72
     8
 73
     4
 74
     0
 42
0.000000001
 43
0.00000001
 40
0.0
 40
0.0
 40
0.0
 40
0.0
 40
1.0
 40
1.0
 40
1.0
 40
1.0
 10
35.60360087126091
 20
-8.95753835379943
 30
0.0
 10
35.64834988751178
 20
-8.997172168961276
 30
0.0
 10
35.70338220906788
 20
-9.022283411517733
 30
0.0
 10
35.7602169846697
 20
-9.028867454114827
 30
0.0
  0
SPLINE
  5
38F
330
1F
100
AcDbEntity
  8
외형선
  6
Continuous
 62
     1
370
    15
100
AcDbSpline
210
0.0
220
0.0
230
1.0
 70
     8
 71
     3
 72
    10
 73
     6
 74
     0
 42
0.000000001
 43
0.00000001
 40
0.0
 40
0.0
 40
0.0
 40
0.0
 40
0.5
 40
0.5
 40
1.0
 40
1.0
 40
1.0
 40
1.0
 10
34.97825959323509
 20
-8.881449291535796
 30
0.0
 10
35.07091979123388
 20
-8.821655803628744
 30
0.0
 10
35.18342578331462
 20
-8.799710433918026
 30
0.0
 10
35.4080810513743
 20
-8.829245397342195
 30
0.0
 10
35.515261920985
 20
-8.879297312539459
 30
0.0
 10
35.60360087126084
 20
-8.957538353799412
 30
0.0
  0
SPLINE
  5
390
330
1F
100
AcDbEntity
  8
외형선
  6
Continuous
 62
     1
370
    15
100
AcDbSpline
210
0.0
220
0.0
230
1.0
 70
     8
 71
     3
 72
     8
 73
     4
 74
     0
 42
0.000000001
 43
0.00000001
 40
0.0
 40
0.0
 40
0.0
 40
0.0
 40
1.0
 40
1.0
 40
1.0
 40
1.0
 10
34.82220513802372
 20
-8.914362325767996
 30
0.0
 10
34.87733547665798
 20
-8.921435988395706
 30
0.0
 10
34.93273449985747
 20
-8.910826566559171
 30
0.0
 10
34.97825959323475
 20
-8.88144929153601
 30
0.0
  0
SPLINE
  5
391
330
1F
100
AcDbEntity
  8
외형선
  6
Continuous
 62
     1
370
    15
100
AcDbSpline
210
0.0
220
0.0
230
1.0
 70
     8
 71
     3
 72
     8
 73
     4
 74
     0
 42
0.000000001
 43
0.00000001
 40
0.0
 40
0.0
 40
0.0
 40
0.0
 40
1.0
 40
1.0
 40
1.0
 40
1.0
 10
34.82069620539033
 20
-8.914168702499062
 30
0.0
 10
34.45803605345483
 20
-8.867629220626764
 30
0.0
 10
34.09645879217803
 20
-8.818567822543494
 30
0.0
 10
33.73376970068446
 20
-8.766927753183797
 30
0.0
  0
SPLINE
  5
392
330
1F
100
AcDbEntity
  8
외형선
  6
Continuous
 62
     1
370
    15
100
AcDbSpline
210
0.0
220
0.0
230
1.0
 70
     8
 71
     3
 72
     8
 73
     4
 74
     0
 42
0.000000001
 43
0.00000001
 40
0.0
 40
0.0
 40
0.0
 40
0.0
 40
1.0
 40
1.0
 40
1.0
 40
1.0
 10
33.57779082053118
 20
-8.692461506337386
 30
0.0
 10
33.62254135441927
 20
-8.73268830734542
 30
0.0
 10
33.67757354907238
 20
-8.758926933488407
 30
0.0
 10
33.73440619271943
 20
-8.76701837508484
 30
0.0
  0
SPLINE
  5
393
330
1F
100
AcDbEntity
  8
외형선
  6
Continuous
 62
     1
370
    15
100
AcDbSpline
210
0.0
220
0.0
230
1.0
 70
     8
 71
     3
 72
    10
 73
     6
 74
     0
 42
0.000000001
 43
0.00000001
 40
0.0
 40
0.0
 40
0.0
 40
0.0
 40
0.5
 40
0.5
 40
1.0
 40
1.0
 40
1.0
 40
1.0
 10
32.95247017527119
 20
-8.600115090546291
 30
0.0
 10
33.04513172284285
 20
-8.544053585407044
 30
0.0
 10
33.15764737462951
 20
-8.525558738710874
 30
0.0
 10
33.38229243833061
 20
-8.560833337920727
 30
0.0
 10
33.48946231607427
 20
-8.613061935797878
 30
0.0
 10
33.57779082053118
 20
-8.692461506337384
 30
0.0
  0
SPLINE
  5
394
330
1F
100
AcDbEntity
  8
외형선
  6
Continuous
 62
     1
370
    15
100
AcDbSpline
210
0.0
220
0.0
230
1.0
 70
     8
 71
     3
 72
     8
 73
     4
 74
     0
 42
0.000000001
 43
0.00000001
 40
0.0
 40
0.0
 40
0.0
 40
0.0
 40
1.0
 40
1.0
 40
1.0
 40
1.0
 10
32.79642448909684
 20
-8.627983624680319
 30
0.0
 10
32.85155517904062
 20
-8.636477816602591
 30
0.0
 10
32.90695100689547
 20
-8.627654810728998
 30
0.0
 10
32.95247017527085
 20
-8.600115090546483
 30
0.0
  0
SPLINE
  5
395
330
1F
100
AcDbEntity
  8
외형선
  6
Continuous
 62
     1
370
    15
100
AcDbSpline
210
0.0
220
0.0
230
1.0
 70
     8
 71
     3
 72
     8
 73
     4
 74
     0
 42
0.000000001
 43
0.00000001
 40
0.0
 40
0.0
 40
0.0
 40
0.0
 40
1.0
 40
1.0
 40
1.0
 40
1.0
 10
32.79534625883289
 20
-8.627817490464222
 30
0.0
 10
32.4337847797994
 20
-8.572105504657282
 30
0.0
 10
32.07198252439656
 20
-8.513913695346597
 30
0.0
 10
31.71040477228379
 20
-8.453316787700608
 30
0.0
  0
SPLINE
  5
396
330
1F
100
AcDbEntity
  8
외형선
  6
Continuous
 62
     1
370
    15
100
AcDbSpline
210
0.0
220
0.0
230
1.0
 70
     8
 71
     3
 72
     8
 73
     4
 74
     0
 42
0.000000001
 43
0.00000001
 40
0.0
 40
0.0
 40
0.0
 40
0.0
 40
1.0
 40
1.0
 40
1.0
 40
1.0
 10
31.5521376196543
 20
-8.375758973278716
 30
0.0
 10
31.59687917130363
 20
-8.416319588383994
 30
0.0
 10
31.65190526065069
 20
-8.443511639900406
 30
0.0
 10
31.70873373276159
 20
-8.453036720379782
 30
0.0
  0
SPLINE
  5
397
330
1F
100
AcDbEntity
  8
외형선
  6
Continuous
 62
     1
370
    15
100
AcDbSpline
210
0.0
220
0.0
230
1.0
 70
     8
 71
     3
 72
    10
 73
     6
 74
     0
 42
0.000000001
 43
0.00000001
 40
0.0
 40
0.0
 40
0.0
 40
0.0
 40
0.5
 40
0.5
 40
1.0
 40
1.0
 40
1.0
 40
1.0
 10
30.92688586966189
 20
-8.267744981336701
 30
0.0
 10
31.01953054471434
 20
-8.215779531228662
 30
0.0
 10
31.13202229462141
 20
-8.200848360582542
 30
0.0
 10
31.35664887639776
 20
-8.241621514256396
 30
0.0
 10
31.46381491660107
 20
-8.295689708098017
 30
0.0
 10
31.5521376196543
 20
-8.375758973278709
 30
0.0
  0
SPLINE
  5
398
330
1F
100
AcDbEntity
  8
외형선
  6
Continuous
 62
     1
370
    15
100
AcDbSpline
210
0.0
220
0.0
230
1.0
 70
     8
 71
     3
 72
     8
 73
     4
 74
     0
 42
0.000000001
 43
0.00000001
 40
0.0
 40
0.0
 40
0.0
 40
0.0
 40
1.0
 40
1.0
 40
1.0
 40
1.0
 10
30.77085460427921
 20
-8.290356168494144
 30
0.0
 10
30.82597780841954
 20
-8.3002402248526
 30
0.0
 10
30.88136896521515
 20
-8.293275929832289
 30
0.0
 10
30.92688586966189
 20
-8.267744981337408
 30
0.0
  0
SPLINE
  5
399
330
1F
100
AcDbEntity
  8
외형선
  6
Continuous
 62
     1
370
    15
100
AcDbSpline
210
0.0
220
0.0
230
1.0
 70
     8
 71
     3
 72
     8
 73
     4
 74
     0
 42
0.000000001
 43
0.00000001
 40
0.0
 40
0.0
 40
0.0
 40
0.0
 40
1.0
 40
1.0
 40
1.0
 40
1.0
 10
30.77080341112391
 20
-8.29034698911036
 30
0.0
 10
30.40837553789824
 20
-8.225360376542037
 30
0.0
 10
30.04709228738334
 20
-8.158057327106851
 30
0.0
 10
29.68478277503495
 20
-8.08836229815224
 30
0.0
  0
SPLINE
  5
39A
330
1F
100
AcDbEntity
  8
외형선
  6
Continuous
 62
     1
370
    15
100
AcDbSpline
210
0.0
220
0.0
230
1.0
 70
     8
 71
     3
 72
     8
 73
     4
 74
     0
 42
0.000000001
 43
0.00000001
 40
0.0
 40
0.0
 40
0.0
 40
0.0
 40
1.0
 40
1.0
 40
1.0
 40
1.0
 10
29.52672413775255
 20
-8.008471892621731
 30
0.0
 10
29.57145742799892
 20
-8.049142253649695
 30
0.0
 10
29.62647460355387
 20
-8.077144972760133
 30
0.0
 10
29.68329239806175
 20
-8.08807559177364
 30
0.0
  0
SPLINE
  5
39B
330
1F
100
AcDbEntity
  8
외형선
  6
Continuous
 62
     1
370
    15
100
AcDbSpline
210
0.0
220
0.0
230
1.0
 70
     8
 71
     3
 72
    10
 73
     6
 74
     0
 42
0.000000001
 43
0.00000001
 40
0.0
 40
0.0
 40
0.0
 40
0.0
 40
0.5
 40
0.5
 40
1.0
 40
1.0
 40
1.0
 40
1.0
 10
28.90158752537234
 20
-7.88540666213513
 30
0.0
 10
28.99421880717878
 20
-7.837818926535103
 30
0.0
 10
29.10670426587953
 20
-7.826532459455544
 30
0.0
 10
29.33129046316529
 20
-7.872585969841214
 30
0.0
 10
29.43842977045838
 20
-7.92819691676339
 30
0.0
 10
29.52672413775255
 20
-8.008471892621717
 30
0.0
  0
SPLINE
  5
39C
330
1F
100
AcDbEntity
  8
외형선
  6
Continuous
 62
     1
370
    15
100
AcDbSpline
210
0.0
220
0.0
230
1.0
 70
     8
 71
     3
 72
     8
 73
     4
 74
     0
 42
0.000000001
 43
0.00000001
 40
0.0
 40
0.0
 40
0.0
 40
0.0
 40
1.0
 40
1.0
 40
1.0
 40
1.0
 10
28.74558517063971
 20
-7.902681351491477
 30
0.0
 10
28.80070209152379
 20
-7.913871858105834
 30
0.0
 10
28.85608314597002
 20
-7.908783758224031
 30
0.0
 10
28.90158752537197
 20
-7.885406662135271
 30
0.0
  0
SPLINE
  5
39D
330
1F
100
AcDbEntity
  8
외형선
  6
Continuous
 62
     1
370
    15
100
AcDbSpline
210
0.0
220
0.0
230
1.0
 70
     8
 71
     3
 72
     8
 73
     4
 74
     0
 42
0.000000001
 43
0.00000001
 40
0.0
 40
0.0
 40
0.0
 40
0.0
 40
1.0
 40
1.0
 40
1.0
 40
1.0
 10
28.74579680451355
 20
-7.902724319714787
 30
0.0
 10
28.38342483427502
 20
-7.829152031187947
 30
0.0
 10
28.02078461108613
 20
-7.753291114099239
 30
0.0
 10
27.65834465143413
 20
-7.67523915902221
 30
0.0
  0
SPLINE
  5
39E
330
1F
100
AcDbEntity
  8
외형선
  6
Continuous
 62
     1
370
    15
100
AcDbSpline
210
0.0
220
0.0
230
1.0
 70
     8
 71
     3
 72
     8
 73
     4
 74
     0
 42
0.000000001
 43
0.00000001
 40
0.0
 40
0.0
 40
0.0
 40
0.0
 40
1.0
 40
1.0
 40
1.0
 40
1.0
 10
27.5017745775412
 20
-7.593866120697756
 30
0.0
 10
27.54648873575862
 20
-7.634376965065629
 30
0.0
 10
27.60149113638553
 20
-7.662995643398389
 30
0.0
 10
27.65829621529301
 20
-7.675228728219812
 30
0.0
  0
SPLINE
  5
39F
330
1F
100
AcDbEntity
  8
외형선
  6
Continuous
 62
     1
370
    15
100
AcDbSpline
210
0.0
220
0.0
230
1.0
 70
     8
 71
     3
 72
    10
 73
     6
 74
     0
 42
0.000000001
 43
0.00000001
 40
0.0
 40
0.0
 40
0.0
 40
0.0
 40
0.5
 40
0.5
 40
1.0
 40
1.0
 40
1.0
 40
1.0
 10
26.87680278635175
 20
-7.456574562302563
 30
0.0
 10
26.96940060071663
 20
-7.41367567097355
 30
0.0
 10
27.08184580352324
 20
-7.406098053392581
 30
0.0
 10
27.30638382878826
 20
-7.457109286036273
 30
0.0
 10
27.41350423888414
 20
-7.51389355509008
 30
0.0
 10
27.50177457754116
 20
-7.593866120697724
 30
0.0
  0
SPLINE
  5
3A0
330
1F
100
AcDbEntity
  8
외형선
  6
Continuous
 62
     1
370
    15
100
AcDbSpline
210
0.0
220
0.0
230
1.0
 70
     8
 71
     3
 72
     8
 73
     4
 74
     0
 42
0.000000001
 43
0.00000001
 40
0.0
 40
0.0
 40
0.0
 40
0.0
 40
1.0
 40
1.0
 40
1.0
 40
1.0
 10
26.72083549036275
 20
-7.468359829236318
 30
0.0
 10
26.7759386490949
 20
-7.480812793109729
 30
0.0
 10
26.83130811135513
 20
-7.477651421752276
 30
0.0
 10
26.8768027863514
 20
-7.456574562302718
 30
0.0
  0
SPLINE
  5
3A1
330
1F
100
AcDbEntity
  8
외형선
  6
Continuous
 62
     1
370
    15
100
AcDbSpline
210
0.0
220
0.0
230
1.0
 70
     8
 71
     3
 72
     8
 73
     4
 74
     0
 42
0.000000001
 43
0.00000001
 40
0.0
 40
0.0
 40
0.0
 40
0.0
 40
1.0
 40
1.0
 40
1.0
 40
1.0
 10
26.72037318896292
 20
-7.468255350840154
 30
0.0
 10
26.35843339164737
 20
-7.386457351918429
 30
0.0
 10
25.99766458301875
 20
-7.302605415048985
 30
0.0
 10
25.63598975544951
 20
-7.216612787987478
 30
0.0
  0
SPLINE
  5
3A2
330
1F
100
AcDbEntity
  8
외형선
  6
Continuous
 62
     1
370
    15
100
AcDbSpline
210
0.0
220
0.0
230
1.0
 70
     8
 71
     3
 72
     8
 73
     4
 74
     0
 42
0.000000001
 43
0.00000001
 40
0.0
 40
0.0
 40
0.0
 40
0.0
 40
1.0
 40
1.0
 40
1.0
 40
1.0
 10
25.47737228147204
 20
-7.133370711210292
 30
0.0
 10
25.52206867880628
 20
-7.173505654099031
 30
0.0
 10
25.57705361106419
 20
-7.20259875366799
 30
0.0
 10
25.63383970058864
 20
-7.216101562976336
 30
0.0
  0
SPLINE
  5
3A3
330
1F
100
AcDbEntity
  8
외형선
  6
Continuous
 62
     1
370
    15
100
AcDbSpline
210
0.0
220
0.0
230
1.0
 70
     8
 71
     3
 72
    10
 73
     6
 74
     0
 42
0.000000001
 43
0.00000001
 40
0.0
 40
0.0
 40
0.0
 40
0.0
 40
0.5
 40
0.5
 40
1.0
 40
1.0
 40
1.0
 40
1.0
 10
24.8526070820495
 20
-6.982597143611658
 30
0.0
 10
24.94517729843795
 20
-6.944613765188956
 30
0.0
 10
25.05760075948535
 20
-6.94078762054628
 30
0.0
 10
25.28206918682932
 20
-6.996493605231583
 30
0.0
 10
25.38914760656863
 20
-7.054149733686129
 30
0.0
 10
25.47737228147201
 20
-7.133370711210283
 30
0.0
  0
SPLINE
  5
3A4
330
1F
100
AcDbEntity
  8
외형선
  6
Continuous
 62
     1
370
    15
100
AcDbSpline
210
0.0
220
0.0
230
1.0
 70
     8
 71
     3
 72
     8
 73
     4
 74
     0
 42
0.000000001
 43
0.00000001
 40
0.0
 40
0.0
 40
0.0
 40
0.0
 40
1.0
 40
1.0
 40
1.0
 40
1.0
 10
24.69668807997144
 20
-6.988882916522744
 30
0.0
 10
24.75177855500063
 20
-7.002496995433837
 30
0.0
 10
24.8071312614172
 20
-7.001256766236958
 30
0.0
 10
24.85260708204918
 20
-6.982597143611796
 30
0.0
  0
SPLINE
  5
3A5
330
1F
100
AcDbEntity
  8
외형선
  6
Continuous
 62
     1
370
    15
100
AcDbSpline
210
0.0
220
0.0
230
1.0
 70
     8
 71
     3
 72
     8
 73
     4
 74
     0
 42
0.000000001
 43
0.00000001
 40
0.0
 40
0.0
 40
0.0
 40
0.0
 40
1.0
 40
1.0
 40
1.0
 40
1.0
 10
24.69671977870868
 20
-6.988890749977442
 30
0.0
 10
24.33457443080898
 20
-6.899396712176268
 30
0.0
 10
23.97213459064371
 20
-6.807872767126122
 30
0.0
 10
23.60986799676348
 20
-6.714436374605416
 30
0.0
  0
SPLINE
  5
3A6
330
1F
100
AcDbEntity
  8
외형선
  6
Continuous
 62
     1
370
    15
100
AcDbSpline
210
0.0
220
0.0
230
1.0
 70
     8
 71
     3
 72
     8
 73
     4
 74
     0
 42
0.000000001
 43
0.00000001
 40
0.0
 40
0.0
 40
0.0
 40
0.0
 40
1.0
 40
1.0
 40
1.0
 40
1.0
 10
23.45372839804796
 20
-6.631021351802522
 30
0.0
 10
23.49839596890816
 20
-6.670506324773475
 30
0.0
 10
23.55335786299017
 20
-6.699861332038678
 30
0.0
 10
23.61012308973167
 20
-6.714502168279571
 30
0.0
  0
SPLINE
  5
3A7
330
1F
100
AcDbEntity
  8
외형선
  6
Continuous
 62
     1
370
    15
100
AcDbSpline
210
0.0
220
0.0
230
1.0
 70
     8
 71
     3
 72
    10
 73
     6
 74
     0
 42
0.000000001
 43
0.00000001
 40
0.0
 40
0.0
 40
0.0
 40
0.0
 40
0.5
 40
0.5
 40
1.0
 40
1.0
 40
1.0
 40
1.0
 10
22.82921945677518
 20
-6.467825517683773
 30
0.0
 10
22.9217403353413
 20
-6.435004528558146
 30
0.0
 10
23.03410795178613
 20
-6.434940150873549
 30
0.0
 10
23.25849994901407
 20
-6.494937779977924
 30
0.0
 10
23.36554514921986
 20
-6.553069649271725
 30
0.0
 10
23.45372839804796
 20
-6.631021351802509
 30
0.0
  0
SPLINE
  5
3A8
330
1F
100
AcDbEntity
  8
외형선
  6
Continuous
 62
     1
370
    15
100
AcDbSpline
210
0.0
220
0.0
230
1.0
 70
     8
 71
     3
 72
     8
 73
     4
 74
     0
 42
0.000000001
 43
0.00000001
 40
0.0
 40
0.0
 40
0.0
 40
0.0
 40
1.0
 40
1.0
 40
1.0
 40
1.0
 10
22.67335518525883
 20
-6.46852771064057
 30
0.0
 10
22.72842593888284
 20
-6.483244931844288
 30
0.0
 10
22.78376045947697
 20
-6.483951707567632
 30
0.0
 10
22.82921945677484
 20
-6.467825517683933
 30
0.0
  0
SPLINE
  5
3A9
330
1F
100
AcDbEntity
  8
외형선
  6
Continuous
 62
     1
370
    15
100
AcDbSpline
210
0.0
220
0.0
230
1.0
 70
     8
 71
     3
 72
     8
 73
     4
 74
     0
 42
0.000000001
 43
0.00000001
 40
0.0
 40
0.0
 40
0.0
 40
0.0
 40
1.0
 40
1.0
 40
1.0
 40
1.0
 10
22.67315559392418
 20
-6.468474371242484
 30
0.0
 10
22.31039879615614
 20
-6.371529778134695
 30
0.0
 10
21.94881265565405
 20
-6.272826010379966
 30
0.0
 10
21.58647108140926
 20
-6.172275675054971
 30
0.0
  0
SPLINE
  5
3AA
330
1F
100
AcDbEntity
  8
외형선
  6
Continuous
 62
     1
370
    15
100
AcDbSpline
210
0.0
220
0.0
230
1.0
 70
     8
 71
     3
 72
     8
 73
     4
 74
     0
 42
0.000000001
 43
0.00000001
 40
0.0
 40
0.0
 40
0.0
 40
0.0
 40
1.0
 40
1.0
 40
1.0
 40
1.0
 10
21.43092473440024
 20
-6.088628462506449
 30
0.0
 10
21.47556557990654
 20
-6.127262111220274
 30
0.0
 10
21.53050190190979
 20
-6.156744504857638
 30
0.0
 10
21.58724027775676
 20
-6.172489125738055
 30
0.0
  0
SPLINE
  5
3AB
330
1F
100
AcDbEntity
  8
외형선
  6
Continuous
 62
     1
370
    15
100
AcDbSpline
210
0.0
220
0.0
230
1.0
 70
     8
 71
     3
 72
    10
 73
     6
 74
     0
 42
0.000000001
 43
0.00000001
 40
0.0
 40
0.0
 40
0.0
 40
0.0
 40
0.5
 40
0.5
 40
1.0
 40
1.0
 40
1.0
 40
1.0
 10
20.80661299603943
 20
-5.913811855287209
 30
0.0
 10
20.89911209858953
 20
-5.886328814354597
 30
0.0
 10
21.01145562439908
 20
-5.890040023208986
 30
0.0
 10
21.23578482968193
 20
-5.954041104258222
 30
0.0
 10
21.34279139517687
 20
-6.01235498630067
 30
0.0
 10
21.43092473440024
 20
-6.088628462506435
 30
0.0
  0
SPLINE
  5
3AC
330
1F
100
AcDbEntity
  8
외형선
  6
Continuous
 62
     1
370
    15
100
AcDbSpline
210
0.0
220
0.0
230
1.0
 70
     8
 71
     3
 72
     8
 73
     4
 74
     0
 42
0.000000001
 43
0.00000001
 40
0.0
 40
0.0
 40
0.0
 40
0.0
 40
1.0
 40
1.0
 40
1.0
 40
1.0
 10
20.65076971582184
 20
-5.908970191426443
 30
0.0
 10
20.7058362075777
 20
-5.924680117821712
 30
0.0
 10
20.76116338092159
 20
-5.927315701251205
 30
0.0
 10
20.80661299603909
 20
-5.91381185528728
 30
0.0
  0
SPLINE
  5
3AD
330
1F
100
AcDbEntity
  8
외형선
  6
Continuous
 62
     1
370
    15
100
AcDbSpline
210
0.0
220
0.0
230
1.0
 70
     8
 71
     3
 72
     8
 73
     4
 74
     0
 42
0.000000001
 43
0.00000001
 40
0.0
 40
0.0
 40
0.0
 40
0.0
 40
1.0
 40
1.0
 40
1.0
 40
1.0
 10
20.64896622933988
 20
-5.908455661031079
 30
0.0
 10
20.28672234011336
 20
-5.805105629933012
 30
0.0
 10
19.92415662905884
 20
-5.700028260354378
 30
0.0
 10
19.56173731814557
 20
-5.593358459630792
 30
0.0
  0
SPLINE
  5
3AE
330
1F
100
AcDbEntity
  8
외형선
  6
Continuous
 62
     1
370
    15
100
AcDbSpline
210
0.0
220
0.0
230
1.0
 70
     8
 71
     3
 72
     8
 73
     4
 74
     0
 42
0.000000001
 43
0.00000001
 40
0.0
 40
0.0
 40
0.0
 40
0.0
 40
1.0
 40
1.0
 40
1.0
 40
1.0
 10
19.40815065117891
 20
-5.510551941756953
 30
0.0
 10
19.4528163737962
 20
-5.548080782905556
 30
0.0
 10
19.50777535689743
 20
-5.577477282358254
 30
0.0
 10
19.56453830663455
 20
-5.594182833715957
 30
0.0
  0
SPLINE
  5
3AF
330
1F
100
AcDbEntity
  8
외형선
  6
Continuous
 62
     1
370
    15
100
AcDbSpline
210
0.0
220
0.0
230
1.0
 70
     8
 71
     3
 72
    10
 73
     6
 74
     0
 42
0.000000001
 43
0.00000001
 40
0.0
 40
0.0
 40
0.0
 40
0.0
 40
0.5
 40
0.5
 40
1.0
 40
1.0
 40
1.0
 40
1.0
 10
18.7835602293105
 20
-5.325236832808942
 30
0.0
 10
18.87609724402922
 20
-5.303273081088593
 30
0.0
 10
18.98847557573268
 20
-5.310756778506805
 30
0.0
 10
19.21289703749144
 20
-5.378349025099107
 30
0.0
 10
19.3199574071476
 20
-5.436450593974207
 30
0.0
 10
19.40815065117891
 20
-5.510551941756995
 30
0.0
  0
SPLINE
  5
3B0
330
1F
100
AcDbEntity
  8
외형선
  6
Continuous
 62
     1
370
    15
100
AcDbSpline
210
0.0
220
0.0
230
1.0
 70
     8
 71
     3
 72
     8
 73
     4
 74
     0
 42
0.000000001
 43
0.00000001
 40
0.0
 40
0.0
 40
0.0
 40
0.0
 40
1.0
 40
1.0
 40
1.0
 40
1.0
 10
18.62765695940745
 20
-5.314810653399009
 30
0.0
 10
18.68274031533608
 20
-5.331450676018227
 30
0.0
 10
18.73808829025364
 20
-5.336029642396703
 30
0.0
 10
18.78356022931013
 20
-5.325236832809038
 30
0.0
  0
SPLINE
  5
3B1
330
1F
100
AcDbEntity
  8
외형선
  6
Continuous
 62
     1
370
    15
100
AcDbSpline
210
0.0
220
0.0
230
1.0
 70
     8
 71
     3
 72
     8
 73
     4
 74
     0
 42
0.000000001
 43
0.00000001
 40
0.0
 40
0.0
 40
0.0
 40
0.0
 40
1.0
 40
1.0
 40
1.0
 40
1.0
 10
18.62831827716707
 20
-5.315010427758169
 30
0.0
 10
18.26527484523589
 20
-5.205341350410199
 30
0.0
 10
17.90336084797875
 20
-5.094252591786057
 30
0.0
 10
17.54089034798554
 20
-4.981670566681322
 30
0.0
  0
SPLINE
  5
3B2
330
1F
100
AcDbEntity
  8
외형선
  6
Continuous
 62
     1
370
    15
100
AcDbSpline
210
0.0
220
0.0
230
1.0
 70
     8
 71
     3
 72
     8
 73
     4
 74
     0
 42
0.000000001
 43
0.00000001
 40
0.0
 40
0.0
 40
0.0
 40
0.0
 40
1.0
 40
1.0
 40
1.0
 40
1.0
 10
17.38448008441478
 20
-4.898613512955665
 30
0.0
 10
17.42917548797755
 20
-4.934859603180113
 30
0.0
 10
17.48415804452704
 20
-4.964049737766265
 30
0.0
 10
17.54094231036723
 20
-4.981686706001645
 30
0.0
  0
SPLINE
  5
3B3
330
1F
100
AcDbEntity
  8
외형선
  6
Continuous
 62
     1
370
    15
100
AcDbSpline
210
0.0
220
0.0
230
1.0
 70
     8
 71
     3
 72
    10
 73
     6
 74
     0
 42
0.000000001
 43
0.00000001
 40
0.0
 40
0.0
 40
0.0
 40
0.0
 40
0.5
 40
0.5
 40
1.0
 40
1.0
 40
1.0
 40
1.0
 10
16.75964417192174
 20
-4.703643623105203
 30
0.0
 10
16.85222981859157
 20
-4.687324408719919
 30
0.0
 10
16.96466331103463
 20
-4.698560713420106
 30
0.0
 10
17.18915626901097
 20
-4.769443859758494
 30
0.0
 10
17.29624676801077
 20
-4.827060008741485
 30
0.0
 10
17.38448008441478
 20
-4.898613512955686
 30
0.0
  0
SPLINE
  5
3B4
330
1F
100
AcDbEntity
  8
외형선
  6
Continuous
 62
     1
370
    15
100
AcDbSpline
210
0.0
220
0.0
230
1.0
 70
     8
 71
     3
 72
     8
 73
     4
 74
     0
 42
0.000000001
 43
0.00000001
 40
0.0
 40
0.0
 40
0.0
 40
0.0
 40
1.0
 40
1.0
 40
1.0
 40
1.0
 10
16.60369202913375
 20
-4.687733179982926
 30
0.0
 10
16.65879290029874
 20
-4.705181783883551
 30
0.0
 10
16.71415690256418
 20
-4.711661242759368
 30
0.0
 10
16.75964417192134
 20
-4.70364362310521
 30
0.0
  0
SPLINE
  5
3B5
330
1F
100
AcDbEntity
  8
외형선
  6
Continuous
 62
     1
370
    15
100
AcDbSpline
210
0.0
220
0.0
230
1.0
 70
     8
 71
     3
 72
     8
 73
     4
 74
     0
 42
0.000000001
 43
0.00000001
 40
0.0
 40
0.0
 40
0.0
 40
0.0
 40
1.0
 40
1.0
 40
1.0
 40
1.0
 10
16.6004064340305
 20
-4.686692706969533
 30
0.0
 10
16.23860792040136
 20
-4.572115530971201
 30
0.0
 10
15.87646161036727
 20
-4.456158884619226
 30
0.0
 10
15.51443409917842
 20
-4.338971366136883
 30
0.0
  0
SPLINE
  5
3B6
330
1F
100
AcDbEntity
  8
외형선
  6
Continuous
 62
     1
370
    15
100
AcDbSpline
210
0.0
220
0.0
230
1.0
 70
     8
 71
     3
 72
     8
 73
     4
 74
     0
 42
0.000000001
 43
0.00000001
 40
0.0
 40
0.0
 40
0.0
 40
0.0
 40
1.0
 40
1.0
 40
1.0
 40
1.0
 10
15.36010848297757
 20
-4.257852524598153
 30
0.0
 10
15.40482133177601
 20
-4.292546953953533
 30
0.0
 10
15.4598218298383
 20
-4.321294281022892
 30
0.0
 10
15.5166252354224
 20
-4.339680616685333
 30
0.0
  0
SPLINE
  5
3B7
330
1F
100
AcDbEntity
  8
외형선
  6
Continuous
 62
     1
370
    15
100
AcDbSpline
210
0.0
220
0.0
230
1.0
 70
     8
 71
     3
 72
    10
 73
     6
 74
     0
 42
0.000000001
 43
0.00000001
 40
0.0
 40
0.0
 40
0.0
 40
0.0
 40
0.5
 40
0.5
 40
1.0
 40
1.0
 40
1.0
 40
1.0
 10
14.73508371332841
 20
-4.054709587817863
 30
0.0
 10
14.82769162418398
 20
-4.044140650442159
 30
0.0
 10
14.94014455014283
 20
-4.059026641046659
 30
0.0
 10
15.1647020353417
 20
-4.132652935930656
 30
0.0
 10
15.27183226310243
 20
-4.189355590125791
 30
0.0
 10
15.36010848297752
 20
-4.257852524598084
 30
0.0
  0
SPLINE
  5
3B8
330
1F
100
AcDbEntity
  8
외형선
  6
Continuous
 62
     1
370
    15
100
AcDbSpline
210
0.0
220
0.0
230
1.0
 70
     8
 71
     3
 72
     8
 73
     4
 74
     0
 42
0.000000001
 43
0.00000001
 40
0.0
 40
0.0
 40
0.0
 40
0.0
 40
1.0
 40
1.0
 40
1.0
 40
1.0
 10
14.57909090198557
 20
-4.033377750840977
 30
0.0
 10
14.63420278479919
 20
-4.051550429994041
 30
0.0
 10
14.68958111255051
 20
-4.059902601390922
 30
0.0
 10
14.73508371332807
 20
-4.054709587817888
 30
0.0
  0
SPLINE
  5
3B9
330
1F
100
AcDbEntity
  8
외형선
  6
Continuous
 62
     1
370
    15
100
AcDbSpline
210
0.0
220
0.0
230
1.0
 70
     8
 71
     3
 72
     8
 73
     4
 74
     0
 42
0.000000001
 43
0.00000001
 40
0.0
 40
0.0
 40
0.0
 40
0.0
 40
1.0
 40
1.0
 40
1.0
 40
1.0
 10
14.57813008758175
 20
-4.033060927395193
 30
0.0
 10
14.21542702786419
 20
-3.913460392542778
 30
0.0
 10
13.85377654480821
 20
-3.792814238567901
 30
0.0
 10
13.49179278525234
 20
-3.671075099236909
 30
0.0
  0
SPLINE
  5
3BA
330
1F
100
AcDbEntity
  8
외형선
  6
Continuous
 62
     1
370
    15
100
AcDbSpline
210
0.0
220
0.0
230
1.0
 70
     8
 71
     3
 72
     8
 73
     4
 74
     0
 42
0.000000001
 43
0.00000001
 40
0.0
 40
0.0
 40
0.0
 40
0.0
 40
1.0
 40
1.0
 40
1.0
 40
1.0
 10
13.33513042235742
 20
-3.590746275041889
 30
0.0
 10
13.37986383072727
 20
-3.623734781495051
 30
0.0
 10
13.43487970164036
 20
-3.651934575601896
 30
0.0
 10
13.49169644648246
 20
-3.67104269942414
 30
0.0
  0
SPLINE
  5
3BB
330
1F
100
AcDbEntity
  8
외형선
  6
Continuous
 62
     1
370
    15
100
AcDbSpline
210
0.0
220
0.0
230
1.0
 70
     8
 71
     3
 72
    10
 73
     6
 74
     0
 42
0.000000001
 43
0.00000001
 40
0.4593464760013465
 40
0.4593464760013465
 40
0.4593464760013465
 40
0.4593464760013465
 40
0.5
 40
0.5
 40
1.0
 40
1.0
 40
1.0
 40
1.0
 10
13.0
 20
-3.423171182517162
 30
0.0
 10
13.00912257248511
 20
-3.426002968455824
 30
0.0
 10
13.01825464320211
 20
-3.428965953905958
 30
0.0
 10
13.13968561121536
 20
-3.470089315285394
 30
0.0
 10
13.24683101748882
 20
-3.525630166221511
 30
0.0
 10
13.33513042235739
 20
-3.590746275041878
 30
0.0
  0
SPLINE
  5
3BC
330
1F
100
AcDbEntity
  8
외형선
  6
Continuous
 62
     1
370
    15
100
AcDbSpline
210
0.0
220
0.0
230
1.0
 70
     8
 71
     3
 72
     8
 73
     4
 74
     0
 42
0.000000001
 43
0.00000001
 40
0.0
 40
0.0
 40
0.0
 40
0.0
 40
0.8063806178558954
 40
0.8063806178558954
 40
0.8063806178558954
 40
0.8063806178558954
 10
13.12856261175403
 20
6.439279398017804
 30
0.0
 10
13.08411002928179
 20
6.451207435517697
 30
0.0
 10
13.0394831064829
 20
6.454065699338246
 30
0.0
 10
13.0
 20
6.446345507600698
 30
0.0
  0
SPLINE
  5
3BD
330
1F
100
AcDbEntity
  8
외형선
  6
Continuous
 62
     1
370
    15
100
AcDbSpline
210
0.0
220
0.0
230
1.0
 70
     8
 71
     3
 72
     8
 73
     4
 74
     0
 42
0.000000001
 43
0.00000001
 40
0.0
 40
0.0
 40
0.0
 40
0.0
 40
1.0
 40
1.0
 40
1.0
 40
1.0
 10
14.21403274393712
 20
6.142310183744035
 30
0.0
 10
13.85275528363771
 20
6.242890215459449
 30
0.0
 10
13.49247514646549
 20
6.341621135185624
 30
0.0
 10
13.13104637843404
 20
6.438612893871964
 30
0.0
  0
SPLINE
  5
3BE
330
1F
100
AcDbEntity
  8
외형선
  6
Continuous
 62
     1
370
    15
100
AcDbSpline
210
0.0
220
0.0
230
1.0
 70
     8
 71
     3
 72
     8
 73
     4
 74
     0
 42
0.000000001
 43
0.00000001
 40
0.0
 40
0.0
 40
0.0
 40
0.0
 40
1.0
 40
1.0
 40
1.0
 40
1.0
 10
14.37279240644146
 20
6.057776361562942
 30
0.0
 10
14.32805330211048
 20
6.096385109701847
 30
0.0
 10
14.27303113028881
 20
6.125883918926421
 30
0.0
 10
14.21620842411247
 20
6.141704452313098
 30
0.0
  0
SPLINE
  5
3BF
330
1F
100
AcDbEntity
  8
외형선
  6
Continuous
 62
     1
370
    15
100
AcDbSpline
210
0.0
220
0.0
230
1.0
 70
     8
 71
     3
 72
    10
 73
     6
 74
     0
 42
0.000000001
 43
0.00000001
 40
0.0
 40
0.0
 40
0.0
 40
0.0
 40
0.5
 40
0.5
 40
1.0
 40
1.0
 40
1.0
 40
1.0
 10
14.99798831634784
 20
5.882136226536614
 30
0.0
 10
14.90534700810633
 20
5.854955251056813
 30
0.0
 10
14.79285152284444
 20
5.858936799052431
 30
0.0
 10
14.56824662047526
 20
5.923233910859073
 30
0.0
 10
14.46109775655481
 20
5.981571013404112
 30
0.0
 10
14.37279240644177
 20
6.057776361562807
 30
0.0
  0
SPLINE
  5
3C0
330
1F
100
AcDbEntity
  8
외형선
  6
Continuous
 62
     1
370
    15
100
AcDbSpline
210
0.0
220
0.0
230
1.0
 70
     8
 71
     3
 72
     8
 73
     4
 74
     0
 42
0.000000001
 43
0.00000001
 40
0.0
 40
0.0
 40
0.0
 40
0.0
 40
1.0
 40
1.0
 40
1.0
 40
1.0
 10
15.15400424201211
 20
5.876943131170867
 30
0.0
 10
15.09888303493302
 20
5.892719970414722
 30
0.0
 10
15.04349738254778
 20
5.895488594243504
 30
0.0
 10
14.99798831634786
 20
5.882136226536607
 30
0.0
  0
SPLINE
  5
3C1
330
1F
100
AcDbEntity
  8
외형선
  6
Continuous
 62
     1
370
    15
100
AcDbSpline
210
0.0
220
0.0
230
1.0
 70
     8
 71
     3
 72
     8
 73
     4
 74
     0
 42
0.000000001
 43
0.00000001
 40
0.0
 40
0.0
 40
0.0
 40
0.0
 40
1.0
 40
1.0
 40
1.0
 40
1.0
 10
16.23965044260439
 20
5.561318348739926
 30
0.0
 10
15.87775668748269
 20
5.668159882120905
 30
0.0
 10
15.51567022200675
 20
5.773427224652005
 30
0.0
 10
15.15385742087582
 20
5.876985154353127
 30
0.0
  0
SPLINE
  5
3C2
330
1F
100
AcDbEntity
  8
외형선
  6
Continuous
 62
     1
370
    15
100
AcDbSpline
210
0.0
220
0.0
230
1.0
 70
     8
 71
     3
 72
     8
 73
     4
 74
     0
 42
0.000000001
 43
0.00000001
 40
0.0
 40
0.0
 40
0.0
 40
0.0
 40
1.0
 40
1.0
 40
1.0
 40
1.0
 10
16.39795758382994
 20
5.47714166237291
 30
0.0
 10
16.3532354445021
 20
5.514623929877475
 30
0.0
 10
16.29822609747802
 20
5.544024271895934
 30
0.0
 10
16.24141421051655
 20
5.560797620384589
 30
0.0
  0
SPLINE
  5
3C3
330
1F
100
AcDbEntity
  8
외형선
  6
Continuous
 62
     1
370
    15
100
AcDbSpline
210
0.0
220
0.0
230
1.0
 70
     8
 71
     3
 72
    10
 73
     6
 74
     0
 42
0.000000001
 43
0.00000001
 40
0.0
 40
0.0
 40
0.0
 40
0.0
 40
0.5
 40
0.5
 40
1.0
 40
1.0
 40
1.0
 40
1.0
 10
17.02300967341822
 20
5.291103277037946
 30
0.0
 10
16.93039856818714
 20
5.269463055534073
 30
0.0
 10
16.81793980498954
 20
5.277198860374211
 30
0.0
 10
16.59337635626083
 20
5.345046227825
 30
0.0
 10
16.48624288349561
 20
5.403148484306444
 30
0.0
 10
16.39795758383033
 20
5.477141662372714
 30
0.0
  0
SPLINE
  5
3C4
330
1F
100
AcDbEntity
  8
외형선
  6
Continuous
 62
     1
370
    15
100
AcDbSpline
210
0.0
220
0.0
230
1.0
 70
     8
 71
     3
 72
     8
 73
     4
 74
     0
 42
0.000000001
 43
0.00000001
 40
0.0
 40
0.0
 40
0.0
 40
0.0
 40
1.0
 40
1.0
 40
1.0
 40
1.0
 10
17.17899503754867
 20
5.280331668952167
 30
0.0
 10
17.12388610873555
 20
5.297031715639159
 30
0.0
 10
17.06851050534121
 20
5.301735350577838
 30
0.0
 10
17.02300967341822
 20
5.291103277037996
 30
0.0
  0
SPLINE
  5
3C5
330
1F
100
AcDbEntity
  8
외형선
  6
Continuous
 62
     1
370
    15
100
AcDbSpline
210
0.0
220
0.0
230
1.0
 70
     8
 71
     3
 72
     8
 73
     4
 74
     0
 42
0.000000001
 43
0.00000001
 40
0.0
 40
0.0
 40
0.0
 40
0.0
 40
1.0
 40
1.0
 40
1.0
 40
1.0
 10
18.26548236285507
 20
4.946320851171413
 30
0.0
 10
17.90245751305243
 20
5.059343020188928
 30
0.0
 10
17.54031238977976
 20
5.170845190466165
 30
0.0
 10
17.1769864586137
 20
5.280940325963654
 30
0.0
  0
SPLINE
  5
3C6
330
1F
100
AcDbEntity
  8
외형선
  6
Continuous
 62
     1
370
    15
100
AcDbSpline
210
0.0
220
0.0
230
1.0
 70
     8
 71
     3
 72
     8
 73
     4
 74
     0
 42
0.000000001
 43
0.00000001
 40
0.0
 40
0.0
 40
0.0
 40
0.0
 40
1.0
 40
1.0
 40
1.0
 40
1.0
 10
18.42264405813154
 20
4.86309572444465
 30
0.0
 10
18.37793741432179
 20
4.899261734032214
 30
0.0
 10
18.32294360279022
 20
4.928430936242924
 30
0.0
 10
18.26614880145583
 20
4.946113364385143
 30
0.0
  0
SPLINE
  5
3C7
330
1F
100
AcDbEntity
  8
외형선
  6
Continuous
 62
     1
370
    15
100
AcDbSpline
210
0.0
220
0.0
230
1.0
 70
     8
 71
     3
 72
    10
 73
     6
 74
     0
 42
0.000000001
 43
0.00000001
 40
0.0
 40
0.0
 40
0.0
 40
0.0
 40
0.5
 40
0.5
 40
1.0
 40
1.0
 40
1.0
 40
1.0
 10
19.04751076409975
 20
4.667656556347636
 30
0.0
 10
18.95492357547386
 20
4.651653303357106
 30
0.0
 10
18.84248292127884
 20
4.663094640855208
 30
0.0
 10
18.61798252871291
 20
4.734139107386047
 30
0.0
 10
18.51088772891406
 20
4.791709881724023
 30
0.0
 10
18.42264405813187
 20
4.863095724444511
 30
0.0
  0
SPLINE
  5
3C8
330
1F
100
AcDbEntity
  8
외형선
  6
Continuous
 62
     1
370
    15
100
AcDbSpline
210
0.0
220
0.0
230
1.0
 70
     8
 71
     3
 72
     8
 73
     4
 74
     0
 42
0.000000001
 43
0.00000001
 40
0.0
 40
0.0
 40
0.0
 40
0.0
 40
1.0
 40
1.0
 40
1.0
 40
1.0
 10
19.20345234381696
 20
4.651448707168685
 30
0.0
 10
19.14835473330979
 20
4.668937019150993
 30
0.0
 10
19.09299437456625
 20
4.67551818100676
 30
0.0
 10
19.04751076409975
 20
4.667656556347675
 30
0.0
  0
SPLINE
  5
3C9
330
1F
100
AcDbEntity
  8
외형선
  6
Continuous
 62
     1
370
    15
100
AcDbSpline
210
0.0
220
0.0
230
1.0
 70
     8
 71
     3
 72
     8
 73
     4
 74
     0
 42
0.000000001
 43
0.00000001
 40
0.0
 40
0.0
 40
0.0
 40
0.0
 40
1.0
 40
1.0
 40
1.0
 40
1.0
 10
20.28786328713849
 20
4.303454683386105
 30
0.0
 10
19.92606238152896
 20
4.420824787201733
 30
0.0
 10
19.56409573309426
 20
4.536980719497405
 30
0.0
 10
19.20242925141974
 20
4.651773439450134
 30
0.0
  0
SPLINE
  5
3CA
330
1F
100
AcDbEntity
  8
외형선
  6
Continuous
 62
     1
370
    15
100
AcDbSpline
210
0.0
220
0.0
230
1.0
 70
     8
 71
     3
 72
     8
 73
     4
 74
     0
 42
0.000000001
 43
0.00000001
 40
0.0
 40
0.0
 40
0.0
 40
0.0
 40
1.0
 40
1.0
 40
1.0
 40
1.0
 10
20.44663893246687
 20
4.220970689763297
 30
0.0
 10
20.40195907309428
 20
4.255562239598193
 30
0.0
 10
20.34698646109322
 20
4.284273938830529
 30
0.0
 10
20.29021073502386
 20
4.302693141244538
 30
0.0
  0
SPLINE
  5
3CB
330
1F
100
AcDbEntity
  8
외형선
  6
Continuous
 62
     1
370
    15
100
AcDbSpline
210
0.0
220
0.0
230
1.0
 70
     8
 71
     3
 72
    10
 73
     6
 74
     0
 42
0.000000001
 43
0.00000001
 40
0.0
 40
0.0
 40
0.0
 40
0.0
 40
0.5
 40
0.5
 40
1.0
 40
1.0
 40
1.0
 40
1.0
 10
21.07126916093632
 20
4.017499713520982
 30
0.0
 10
20.97872824149468
 20
4.007248511747134
 30
0.0
 10
20.86634010679572
 20
4.022314044061369
 30
0.0
 10
20.64190981462426
 20
4.096050084787562
 30
0.0
 10
20.53484492873874
 20
4.15268081243096
 30
0.0
 10
20.4466389324672
 20
4.220970689763183
 30
0.0
  0
SPLINE
  5
3CC
330
1F
100
AcDbEntity
  8
외형선
  6
Continuous
 62
     1
370
    15
100
AcDbSpline
210
0.0
220
0.0
230
1.0
 70
     8
 71
     3
 72
     8
 73
     4
 74
     0
 42
0.000000001
 43
0.00000001
 40
0.0
 40
0.0
 40
0.0
 40
0.0
 40
1.0
 40
1.0
 40
1.0
 40
1.0
 10
21.22716024677854
 20
3.99589196050818
 30
0.0
 10
21.17208095943288
 20
4.014094392795625
 30
0.0
 10
21.11673733182143
 20
4.022536441023158
 30
0.0
 10
21.0712691609364
 20
4.017499713520968
 30
0.0
  0
SPLINE
  5
3CD
330
1F
100
AcDbEntity
  8
외형선
  6
Continuous
 62
     1
370
    15
100
AcDbSpline
210
0.0
220
0.0
230
1.0
 70
     8
 71
     3
 72
     8
 73
     4
 74
     0
 42
0.000000001
 43
0.00000001
 40
0.0
 40
0.0
 40
0.0
 40
0.0
 40
1.0
 40
1.0
 40
1.0
 40
1.0
 10
22.31434779859197
 20
3.632893397983894
 30
0.0
 10
21.95183968912561
 20
3.754993164369031
 30
0.0
 10
21.59004954085535
 20
3.875965587900426
 30
0.0
 10
21.22709331834878
 20
3.995914078793851
 30
0.0
  0
SPLINE
  5
3CE
330
1F
100
AcDbEntity
  8
외형선
  6
Continuous
 62
     1
370
    15
100
AcDbSpline
210
0.0
220
0.0
230
1.0
 70
     8
 71
     3
 72
     8
 73
     4
 74
     0
 42
0.000000001
 43
0.00000001
 40
0.0
 40
0.0
 40
0.0
 40
0.0
 40
1.0
 40
1.0
 40
1.0
 40
1.0
 10
22.46985802172927
 20
3.553073069674737
 30
0.0
 10
22.42520276970939
 20
3.585926437598678
 30
0.0
 10
22.37025392190824
 20
3.61406334376983
 30
0.0
 10
22.31350326755526
 20
3.633177850829357
 30
0.0
  0
SPLINE
  5
3CF
330
1F
100
AcDbEntity
  8
외형선
  6
Continuous
 62
     1
370
    15
100
AcDbSpline
210
0.0
220
0.0
230
1.0
 70
     8
 71
     3
 72
    10
 73
     6
 74
     0
 42
0.000000001
 43
0.00000001
 40
0.0
 40
0.0
 40
0.0
 40
0.0
 40
0.5
 40
0.5
 40
1.0
 40
1.0
 40
1.0
 40
1.0
 10
23.09421536091671
 20
3.342587751394356
 30
0.0
 10
23.00171187412487
 20
3.338124955714184
 30
0.0
 10
22.88935663699603
 20
3.356735245786519
 30
0.0
 10
22.66501737646271
 20
3.432802847284931
 30
0.0
 10
22.55800579838196
 20
3.488221765358629
 30
0.0
 10
22.46985802172961
 20
3.553073069674616
 30
0.0
  0
SPLINE
  5
3D0
330
1F
100
AcDbEntity
  8
외형선
  6
Continuous
 62
     1
370
    15
100
AcDbSpline
210
0.0
220
0.0
230
1.0
 70
     8
 71
     3
 72
     8
 73
     4
 74
     0
 42
0.000000001
 43
0.00000001
 40
0.0
 40
0.0
 40
0.0
 40
0.0
 40
1.0
 40
1.0
 40
1.0
 40
1.0
 10
23.2500441984695
 20
3.315775818029261
 30
0.0
 10
23.19498234689866
 20
3.334551832515986
 30
0.0
 10
23.13966030968356
 20
3.344780225733173
 30
0.0
 10
23.09421536091671
 20
3.342587751394353
 30
0.0
  0
SPLINE
  5
3D1
330
1F
100
AcDbEntity
  8
외형선
  6
Continuous
 62
     1
370
    15
100
AcDbSpline
210
0.0
220
0.0
230
1.0
 70
     8
 71
     3
 72
     8
 73
     4
 74
     0
 42
0.000000001
 43
0.00000001
 40
0.0
 40
0.0
 40
0.0
 40
0.0
 40
1.0
 40
1.0
 40
1.0
 40
1.0
 10
24.33724937374794
 20
2.942408548553056
 30
0.0
 10
23.97481231166822
 20
3.067753496138378
 30
0.0
 10
23.61223537592095
 20
3.192269224957885
 30
0.0
 10
23.24998683083592
 20
3.31579538030484
 30
0.0
  0
SPLINE
  5
3D2
330
1F
100
AcDbEntity
  8
외형선
  6
Continuous
 62
     1
370
    15
100
AcDbSpline
210
0.0
220
0.0
230
1.0
 70
     8
 71
     3
 72
     8
 73
     4
 74
     0
 42
0.000000001
 43
0.00000001
 40
0.0
 40
0.0
 40
0.0
 40
0.0
 40
1.0
 40
1.0
 40
1.0
 40
1.0
 10
24.49240022829198
 20
2.86497619707839
 30
0.0
 10
24.44774788194044
 20
2.89585712073948
 30
0.0
 10
24.39280064813138
 20
2.923197039674202
 30
0.0
 10
24.33604919421096
 20
2.942823614490846
 30
0.0
  0
SPLINE
  5
3D3
330
1F
100
AcDbEntity
  8
외형선
  6
Continuous
 62
     1
370
    15
100
AcDbSpline
210
0.0
220
0.0
230
1.0
 70
     8
 71
     3
 72
    10
 73
     6
 74
     0
 42
0.000000001
 43
0.00000001
 40
0.0
 40
0.0
 40
0.0
 40
0.0
 40
0.5
 40
0.5
 40
1.0
 40
1.0
 40
1.0
 40
1.0
 10
25.11686613315479
 20
2.648872722035632
 30
0.0
 10
25.02434955745817
 20
2.650250925930104
 30
0.0
 10
24.91199239667466
 20
2.672300040447572
 30
0.0
 10
24.68760992585572
 20
2.750184599273071
 30
0.0
 10
24.5805696292198
 20
2.803999501299279
 30
0.0
 10
24.49240022829233
 20
2.864976197078322
 30
0.0
  0
SPLINE
  5
3D4
330
1F
100
AcDbEntity
  8
외형선
  6
Continuous
 62
     1
370
    15
100
AcDbSpline
210
0.0
220
0.0
230
1.0
 70
     8
 71
     3
 72
     8
 73
     4
 74
     0
 42
0.000000001
 43
0.00000001
 40
0.0
 40
0.0
 40
0.0
 40
0.0
 40
1.0
 40
1.0
 40
1.0
 40
1.0
 10
25.2727434451506
 20
2.61692847477436
 30
0.0
 10
25.21766826036205
 20
2.636205307591288
 30
0.0
 10
25.16232907589026
 20
2.648195468210998
 30
0.0
 10
25.11686613315484
 20
2.648872722035632
 30
0.0
  0
SPLINE
  5
3D5
330
1F
100
AcDbEntity
  8
외형선
  6
Continuous
 62
     1
370
    15
100
AcDbSpline
210
0.0
220
0.0
230
1.0
 70
     8
 71
     3
 72
     8
 73
     4
 74
     0
 42
0.000000001
 43
0.00000001
 40
0.0
 40
0.0
 40
0.0
 40
0.0
 40
1.0
 40
1.0
 40
1.0
 40
1.0
 10
26.36134799880816
 20
2.233345760469367
 30
0.0
 10
25.9980813263175
 20
2.362037421450362
 30
0.0
 10
25.63533033068298
 20
2.490021738678022
 30
0.0
 10
25.27145824488355
 20
2.617378303270156
 30
0.0
  0
SPLINE
  5
3D6
330
1F
100
AcDbEntity
  8
외형선
  6
Continuous
 62
     1
370
    15
100
AcDbSpline
210
0.0
220
0.0
230
1.0
 70
     8
 71
     3
 72
     8
 73
     4
 74
     0
 42
0.000000001
 43
0.00000001
 40
0.0
 40
0.0
 40
0.0
 40
0.0
 40
1.0
 40
1.0
 40
1.0
 40
1.0
 10
26.51568935929944
 20
2.158731931367294
 30
0.0
 10
26.47100521064525
 20
2.187519052162505
 30
0.0
 10
26.41603260309299
 20
2.213973345037429
 30
0.0
 10
26.35925805621829
 20
2.234086143044633
 30
0.0
  0
SPLINE
  5
3D7
330
1F
100
AcDbEntity
  8
외형선
  6
Continuous
 62
     1
370
    15
100
AcDbSpline
210
0.0
220
0.0
230
1.0
 70
     8
 71
     3
 72
    10
 73
     6
 74
     0
 42
0.000000001
 43
0.00000001
 40
0.0
 40
0.0
 40
0.0
 40
0.0
 40
0.5
 40
0.5
 40
1.0
 40
1.0
 40
1.0
 40
1.0
 10
27.14042103092324
 20
1.937929669186834
 30
0.0
 10
27.04785228862482
 20
1.945141319661291
 30
0.0
 10
26.93543651455499
 20
1.970540485473377
 30
0.0
 10
26.71097627767668
 20
2.049917302389614
 30
0.0
 10
26.60390267644033
 20
2.101901769156202
 30
0.0
 10
26.51568935929978
 20
2.158731931367262
 30
0.0
  0
SPLINE
  5
3D8
330
1F
100
AcDbEntity
  8
외형선
  6
Continuous
 62
     1
370
    15
100
AcDbSpline
210
0.0
220
0.0
230
1.0
 70
     8
 71
     3
 72
     8
 73
     4
 74
     0
 42
0.000000001
 43
0.00000001
 40
0.0
 40
0.0
 40
0.0
 40
0.0
 40
1.0
 40
1.0
 40
1.0
 40
1.0
 10
27.29635163933337
 20
1.901081799938
 30
0.0
 10
27.24125759974075
 20
1.920720517264526
 30
0.0
 10
27.18590090472807
 20
1.934386519033106
 30
0.0
 10
27.14042103092331
 20
1.93792966918681
 30
0.0
  0
SPLINE
  5
3D9
330
1F
100
AcDbEntity
  8
외형선
  6
Continuous
 62
     1
370
    15
100
AcDbSpline
210
0.0
220
0.0
230
1.0
 70
     8
 71
     3
 72
     8
 73
     4
 74
     0
 42
0.000000001
 43
0.00000001
 40
0.0
 40
0.0
 40
0.0
 40
0.0
 40
1.0
 40
1.0
 40
1.0
 40
1.0
 10
28.3839135186341
 20
1.512027091578597
 30
0.0
 10
28.021224258991
 20
1.642233812000983
 30
0.0
 10
27.65842259103643
 20
1.772018989587709
 30
0.0
 10
27.29597764414692
 20
1.901215113392118
 30
0.0
  0
SPLINE
  5
3DA
330
1F
100
AcDbEntity
  8
외형선
  6
Continuous
 62
     1
370
    15
100
AcDbSpline
210
0.0
220
0.0
230
1.0
 70
     8
 71
     3
 72
     8
 73
     4
 74
     0
 42
0.000000001
 43
0.00000001
 40
0.0
 40
0.0
 40
0.0
 40
0.0
 40
1.0
 40
1.0
 40
1.0
 40
1.0
 10
28.53974621897834
 20
1.440075094797711
 30
0.0
 10
28.49504251502592
 20
1.466537208582411
 30
0.0
 10
28.44005006693796
 20
1.491873960275555
 30
0.0
 10
28.38325453549365
 20
1.512263668336768
 30
0.0
  0
SPLINE
  5
3DB
330
1F
100
AcDbEntity
  8
외형선
  6
Continuous
 62
     1
370
    15
100
AcDbSpline
210
0.0
220
0.0
230
1.0
 70
     8
 71
     3
 72
    10
 73
     6
 74
     0
 42
0.000000001
 43
0.00000001
 40
0.0
 40
0.0
 40
0.0
 40
0.0
 40
0.5
 40
0.5
 40
1.0
 40
1.0
 40
1.0
 40
1.0
 10
29.16468723303709
 20
1.216267395595176
 30
0.0
 10
29.07209303827668
 20
1.229270246656585
 30
0.0
 10
28.95965437391143
 20
1.257827440296987
 30
0.0
 10
28.73512305905157
 20
1.338083357197604
 30
0.0
 10
28.62800630938509
 20
1.387830015564981
 30
0.0
 10
28.53974621897871
 20
1.440075094797672
 30
0.0
  0
SPLINE
  5
3DC
330
1F
100
AcDbEntity
  8
외형선
  6
Continuous
 62
     1
370
    15
100
AcDbSpline
210
0.0
220
0.0
230
1.0
 70
     8
 71
     3
 72
     8
 73
     4
 74
     0
 42
0.000000001
 43
0.00000001
 40
0.0
 40
0.0
 40
0.0
 40
0.0
 40
1.0
 40
1.0
 40
1.0
 40
1.0
 10
29.32066289177666
 20
1.174703443823603
 30
0.0
 10
29.2655563931439
 20
1.194607800820142
 30
0.0
 10
29.21018386848377
 20
1.209878377622298
 30
0.0
 10
29.16468723303711
 20
1.216267395595171
 30
0.0
  0
SPLINE
  5
3DD
330
1F
100
AcDbEntity
  8
외형선
  6
Continuous
 62
     1
370
    15
100
AcDbSpline
210
0.0
220
0.0
230
1.0
 70
     8
 71
     3
 72
     8
 73
     4
 74
     0
 42
0.000000001
 43
0.00000001
 40
0.0
 40
0.0
 40
0.0
 40
0.0
 40
1.0
 40
1.0
 40
1.0
 40
1.0
 10
30.40887371872532
 20
0.7803091279202654
 30
0.0
 10
30.04621626238828
 20
0.91204684389613
 30
0.0
 10
29.68383773951003
 20
1.043525618542327
 30
0.0
 10
29.32042511374934
 20
1.174789328704756
 30
0.0
  0
SPLINE
  5
3DE
330
1F
100
AcDbEntity
  8
외형선
  6
Continuous
 62
     1
370
    15
100
AcDbSpline
210
0.0
220
0.0
230
1.0
 70
     8
 71
     3
 72
     8
 73
     4
 74
     0
 42
0.000000001
 43
0.00000001
 40
0.0
 40
0.0
 40
0.0
 40
0.0
 40
1.0
 40
1.0
 40
1.0
 40
1.0
 10
30.56447645933603
 20
0.7118345124584042
 30
0.0
 10
30.51974992767529
 20
0.735871068801746
 30
0.0
 10
30.46474017852663
 20
0.7600152766017896
 30
0.0
 10
30.40792940531256
 20
0.7806521559270063
 30
0.0
  0
SPLINE
  5
3DF
330
1F
100
AcDbEntity
  8
외형선
  6
Continuous
 62
     1
370
    15
100
AcDbSpline
210
0.0
220
0.0
230
1.0
 70
     8
 71
     3
 72
    10
 73
     6
 74
     0
 42
0.000000001
 43
0.00000001
 40
0.0
 40
0.0
 40
0.0
 40
0.0
 40
0.5
 40
0.5
 40
1.0
 40
1.0
 40
1.0
 40
1.0
 10
31.18959516359391
 20
0.4859655391072089
 30
0.0
 10
31.09696247290653
 20
0.5046925261948267
 30
0.0
 10
30.98447998621273
 20
0.5362784919799299
 30
0.0
 10
30.75989913699961
 20
0.6170764258014039
 30
0.0
 10
30.65276382845703
 20
0.6643878573415414
 30
0.0
 10
30.56447645933642
 20
0.7118345124583705
 30
0.0
  0
SPLINE
  5
3E0
330
1F
100
AcDbEntity
  8
외형선
  6
Continuous
 62
     1
370
    15
100
AcDbSpline
210
0.0
220
0.0
230
1.0
 70
     8
 71
     3
 72
     8
 73
     4
 74
     0
 42
0.000000001
 43
0.00000001
 40
0.0
 40
0.0
 40
0.0
 40
0.0
 40
1.0
 40
1.0
 40
1.0
 40
1.0
 10
31.34560504165037
 20
0.4399600613298382
 30
0.0
 10
31.29048599618638
 20
0.4599912634322205
 30
0.0
 10
31.23510251464896
 20
0.4767655950132195
 30
0.0
 10
31.18959516359391
 20
0.4859655391072124
 30
0.0
  0
SPLINE
  5
3E1
330
1F
100
AcDbEntity
  8
외형선
  6
Continuous
 62
     1
370
    15
100
AcDbSpline
210
0.0
220
0.0
230
1.0
 70
     8
 71
     3
 72
     8
 73
     4
 74
     0
 42
0.000000001
 43
0.00000001
 40
0.0
 40
0.0
 40
0.0
 40
0.0
 40
1.0
 40
1.0
 40
1.0
 40
1.0
 10
32.43318610074093
 20
0.044613572408581
 30
0.0
 10
32.07057071349001
 20
0.1764615027127299
 30
0.0
 10
31.70786948313012
 20
0.3083069821304907
 30
0.0
 10
31.34555114326184
 20
0.4399796489241119
 30
0.0
  0
SPLINE
  5
3E2
330
1F
100
AcDbEntity
  8
외형선
  6
Continuous
 62
     1
370
    15
100
AcDbSpline
210
0.0
220
0.0
230
1.0
 70
     8
 71
     3
 72
     8
 73
     4
 74
     0
 42
0.000000001
 43
0.00000001
 40
0.0
 40
0.0
 40
0.0
 40
0.0
 40
1.0
 40
1.0
 40
1.0
 40
1.0
 10
32.58968177655444
 20
-0.0201407114792413
 30
0.0
 10
32.54494563232396
 20
0.0012602496258065
 30
0.0
 10
32.48992452487821
 20
0.0239833295790195
 30
0.0
 10
32.43310112180885
 20
0.044644470976289
 30
0.0
  0
SPLINE
  5
3E3
330
1F
100
AcDbEntity
  8
외형선
  6
Continuous
 62
     1
370
    15
100
AcDbSpline
210
0.0
220
0.0
230
1.0
 70
     8
 71
     3
 72
    10
 73
     6
 74
     0
 42
0.000000001
 43
0.00000001
 40
0.0
 40
0.0
 40
0.0
 40
0.0
 40
0.5
 40
0.5
 40
1.0
 40
1.0
 40
1.0
 40
1.0
 10
33.21491575723083
 20
-0.2462517445330388
 30
0.0
 10
33.12227393639009
 20
-0.2219290818480157
 30
0.0
 10
33.00978463800347
 20
-0.1875582294296709
 30
0.0
 10
32.78516179582971
 20
-0.1068700850102253
 30
0.0
 10
32.67799808453103
 20
-0.0623896335635088
 30
0.0
 10
32.58968177655478
 20
-0.0201407114792502
 30
0.0
  0
SPLINE
  5
3E4
330
1F
100
AcDbEntity
  8
외형선
  6
Continuous
 62
     1
370
    15
100
AcDbSpline
210
0.0
220
0.0
230
1.0
 70
     8
 71
     3
 72
     8
 73
     4
 74
     0
 42
0.000000001
 43
0.00000001
 40
0.0
 40
0.0
 40
0.0
 40
0.0
 40
1.0
 40
1.0
 40
1.0
 40
1.0
 10
33.3709504555296
 20
-0.2964351292547018
 30
0.0
 10
33.31582509934563
 20
-0.2763825728478757
 30
0.0
 10
33.26043257156184
 20
-0.2582019643303628
 30
0.0
 10
33.21491575723083
 20
-0.2462517445330583
 30
0.0
  0
SPLINE
  5
3E5
330
1F
100
AcDbEntity
  8
외형선
  6
Continuous
 62
     1
370
    15
100
AcDbSpline
210
0.0
220
0.0
230
1.0
 70
     8
 71
     3
 72
     8
 73
     4
 74
     0
 42
0.000000001
 43
0.00000001
 40
0.0
 40
0.0
 40
0.0
 40
0.0
 40
1.0
 40
1.0
 40
1.0
 40
1.0
 10
34.45854991126842
 20
-0.692133393853771
 30
0.0
 10
34.09626299383044
 20
-0.560413658206496
 30
0.0
 10
33.73399251885613
 20
-0.4284963340852475
 30
0.0
 10
33.37080486911438
 20
-0.296382170327897
 30
0.0
  0
SPLINE
  5
3E6
330
1F
100
AcDbEntity
  8
외형선
  6
Continuous
 62
     1
370
    15
100
AcDbSpline
210
0.0
220
0.0
230
1.0
 70
     8
 71
     3
 72
     8
 73
     4
 74
     0
 42
0.000000001
 43
0.00000001
 40
0.0
 40
0.0
 40
0.0
 40
0.0
 40
1.0
 40
1.0
 40
1.0
 40
1.0
 10
36.48298169350122
 20
-1.424054400674413
 30
0.0
 10
36.12069506221562
 20
-1.293807070347134
 30
0.0
 10
35.75834898667463
 20
-1.163143920673397
 30
0.0
 10
35.39641081825502
 20
-1.032233859178884
 30
0.0
  0
SPLINE
  5
3E7
330
1F
100
AcDbEntity
  8
외형선
  6
Continuous
 62
     1
370
    15
100
AcDbSpline
210
0.0
220
0.0
230
1.0
 70
     8
 71
     3
 72
    12
 73
     8
 74
     0
 42
0.000000001
 43
0.00000001
 40
0.0
 40
0.0
 40
0.0
 40
0.0
 40
0.4999999999999999
 40
0.4999999999999999
 40
0.7499999999999998
 40
0.7499999999999998
 40
1.0
 40
1.0
 40
1.0
 40
1.0
 10
31.34560289456986
 20
0.4400228725982842
 30
0.0
 10
31.32036596162636
 20
1.178311312851909
 30
0.0
 10
31.29614175983104
 20
1.90245297588668
 30
0.0
 10
31.26252776653217
 20
2.928853359557293
 30
0.0
 10
31.25209848859907
 20
3.258020655469826
 30
0.0
 10
31.23030283753852
 20
3.91090759307547
 30
0.0
 10
31.21893262983107
 20
4.234507762621485
 30
0.0
 10
31.20717077187393
 20
4.55172366442884
 30
0.0
  0
SPLINE
  5
3E8
330
1F
100
AcDbEntity
  8
외형선
  6
Continuous
 62
     1
370
    15
100
AcDbSpline
210
0.0
220
0.0
230
1.0
 70
     8
 71
     3
 72
     8
 73
     4
 74
     0
 42
0.000000001
 43
0.00000001
 40
0.0
 40
0.0
 40
0.0
 40
0.0
 40
1.0
 40
1.0
 40
1.0
 40
1.0
 10
32.29442539551388
 20
4.199883582384887
 30
0.0
 10
31.9312469317201
 20
4.318404344443943
 30
0.0
 10
31.56804241251128
 20
4.435716569853922
 30
0.0
 10
31.20528250407133
 20
4.551669638835252
 30
0.0
  0
SPLINE
  5
3E9
330
1F
100
AcDbEntity
  8
외형선
  6
Continuous
 62
     1
370
    15
100
AcDbSpline
210
0.0
220
0.0
230
1.0
 70
     8
 71
     3
 72
    12
 73
     8
 74
     0
 42
0.000000001
 43
0.00000001
 40
0.0
 40
0.0
 40
0.0
 40
0.0
 40
0.5000000000000003
 40
0.5000000000000003
 40
0.7500000000000001
 40
0.7500000000000001
 40
1.0
 40
1.0
 40
1.0
 40
1.0
 10
32.43310228520497
 20
0.0446106862353339
 30
0.0
 10
32.40761698309322
 20
0.784697023876328
 30
0.0
 10
32.38296175790062
 20
1.51607708038523
 30
0.0
 10
32.34850746450607
 20
2.559724867414603
 30
0.0
 10
32.33743920519774
 20
2.898812703321477
 30
0.0
 10
32.31628059065011
 20
3.554359484906202
 30
0.0
 10
32.30533006654181
 20
3.879341652618093
 30
0.0
 10
32.29389841163069
 20
4.199874532255498
 30
0.0
  0
SPLINE
  5
3EA
330
1F
100
AcDbEntity
  8
외형선
  6
Continuous
 62
     1
370
    15
100
AcDbSpline
210
0.0
220
0.0
230
1.0
 70
     8
 71
     3
 72
     8
 73
     4
 74
     0
 42
0.000000001
 43
0.00000001
 40
0.0
 40
0.0
 40
0.0
 40
0.0
 40
1.0
 40
1.0
 40
1.0
 40
1.0
 10
37.84999963641391
 20
2.304549739223317
 30
0.0
 10
37.65887967020277
 20
2.372087217429302
 30
0.0
 10
37.46757884689467
 20
2.439461366227922
 30
0.0
 10
37.27616596554657
 20
2.506647607540886
 30
0.0
  0
LINE
  5
3EB
330
1F
100
AcDbEntity
  8
외형선
  6
Continuous
 62
     1
370
    15
100
AcDbLine
 10
37.84999814033509
 20
-1.813864102587106
 30
0.0
 11
37.84999814033509
 21
2.304549794644116
 31
0.0
  0
LINE
  5
3EC
330
1F
100
AcDbEntity
  8
외형선
  6
Continuous
 62
     1
370
    15
100
AcDbLine
 10
37.84999814033509
 20
-1.813864102587106
 30
0.0
 11
37.75560673475265
 21
-1.879958668723706
 31
0.0
  0
SPLINE
  5
3ED
330
1F
100
AcDbEntity
  8
외형선
  6
Continuous
 62
     1
370
    15
100
AcDbSpline
210
0.0
220
0.0
230
1.0
 70
     8
 71
     3
 72
     8
 73
     4
 74
     0
 42
0.000000001
 43
0.00000001
 40
0.0
 40
0.0
 40
0.0
 40
0.0
 40
1.0
 40
1.0
 40
1.0
 40
1.0
 10
36.34149262974883
 20
2.832915347462505
 30
0.0
 10
35.97808186042764
 20
2.959070623454439
 30
0.0
 10
35.61467258864056
 20
3.084407574931161
 30
0.0
 10
35.25173626502394
 20
3.208764669399732
 30
0.0
  0
SPLINE
  5
3EE
330
1F
100
AcDbEntity
  8
외형선
  6
Continuous
 62
     1
370
    15
100
AcDbSpline
210
0.0
220
0.0
230
1.0
 70
     8
 71
     3
 72
    12
 73
     8
 74
     0
 42
0.000000001
 43
0.00000001
 40
0.0
 40
0.0
 40
0.0
 40
0.0
 40
0.5
 40
0.5
 40
0.75
 40
0.75
 40
1.0
 40
1.0
 40
1.0
 40
1.0
 10
33.37094844808288
 20
-0.2963771996736124
 30
0.0
 10
33.34531922633042
 20
0.4432144566624032
 30
0.0
 10
33.32035797743001
 20
1.178838426039951
 30
0.0
 10
33.28525995467211
 20
2.234776015285492
 30
0.0
 10
33.27394689181867
 20
2.578930092469831
 30
0.0
 10
33.25225251893374
 20
3.246192840120267
 30
0.0
 10
33.24189841840101
 20
3.569221308640648
 30
0.0
 10
33.23077727083884
 20
3.891621543839685
 30
0.0
  0
SPLINE
  5
3EF
330
1F
100
AcDbEntity
  8
외형선
  6
Continuous
 62
     1
370
    15
100
AcDbSpline
210
0.0
220
0.0
230
1.0
 70
     8
 71
     3
 72
     8
 73
     4
 74
     0
 42
0.000000001
 43
0.00000001
 40
0.0
 40
0.0
 40
0.0
 40
0.0
 40
1.0
 40
1.0
 40
1.0
 40
1.0
 10
34.31714884010665
 20
3.527183112926162
 30
0.0
 10
33.9556539137827
 20
3.649644536220181
 30
0.0
 10
33.59343975866537
 20
3.771173319657494
 30
0.0
 10
33.23070704329595
 20
3.89163844201776
 30
0.0
  0
SPLINE
  5
3F0
330
1F
100
AcDbEntity
  8
외형선
  6
Continuous
 62
     1
370
    15
100
AcDbSpline
210
0.0
220
0.0
230
1.0
 70
     8
 71
     3
 72
    12
 73
     8
 74
     0
 42
0.000000001
 43
0.00000001
 40
0.0
 40
0.0
 40
0.0
 40
0.0
 40
0.4999999999999999
 40
0.4999999999999999
 40
0.7499999999999999
 40
0.7499999999999999
 40
1.0
 40
1.0
 40
1.0
 40
1.0
 10
33.21491575721436
 20
-0.2462517440596166
 30
0.0
 10
33.18920521421042
 20
0.4921956887223491
 30
0.0
 10
33.1641915127
 20
1.225983286912973
 30
0.0
 10
33.12906485555774
 20
2.278055194276336
 30
0.0
 10
33.11775043107187
 20
2.62073923624026
 30
0.0
 10
33.09606904486961
 20
3.284728600407851
 30
0.0
 10
33.08561059713318
 20
3.607118905540302
 30
0.0
 10
33.07438752874518
 20
3.928603712105319
 30
0.0
  0
SPLINE
  5
3F1
330
1F
100
AcDbEntity
  8
외형선
  6
Continuous
 62
     1
370
    15
100
AcDbSpline
210
0.0
220
0.0
230
1.0
 70
     8
 71
     3
 72
     8
 73
     4
 74
     0
 42
0.000000001
 43
0.00000001
 40
0.0
 40
0.0
 40
0.0
 40
0.0
 40
1.0
 40
1.0
 40
1.0
 40
1.0
 10
33.07438752874518
 20
3.928603712115398
 30
0.0
 10
33.11905509027437
 20
3.923398720585981
 30
0.0
 10
33.17401497665853
 20
3.910466150101856
 30
0.0
 10
33.23077749502558
 20
3.891615044675342
 30
0.0
  0
SPLINE
  5
3F2
330
1F
100
AcDbEntity
  8
외형선
  6
Continuous
 62
     1
370
    15
100
AcDbSpline
210
0.0
220
0.0
230
1.0
 70
     8
 71
     3
 72
    10
 73
     6
 74
     0
 42
0.000000001
 43
0.00000001
 40
0.0
 40
0.0
 40
0.0
 40
0.0
 40
0.5
 40
0.5
 40
1.0
 40
1.0
 40
1.0
 40
1.0
 10
29.32065973415698
 20
1.174797117168698
 30
0.0
 10
29.29614381125943
 20
1.90208247068197
 30
0.0
 10
29.27297260021108
 20
2.605355796683289
 30
0.0
 10
29.23057224695953
 20
3.919378233555703
 30
0.0
 10
29.20736718095552
 20
4.569605387975693
 30
0.0
 10
29.18283942001032
 20
5.184507464173693
 30
0.0
  0
SPLINE
  5
3F3
330
1F
100
AcDbEntity
  8
외형선
  6
Continuous
 62
     1
370
    15
100
AcDbSpline
210
0.0
220
0.0
230
1.0
 70
     8
 71
     3
 72
     8
 73
     4
 74
     0
 42
0.000000001
 43
0.00000001
 40
0.0
 40
0.0
 40
0.0
 40
0.0
 40
1.0
 40
1.0
 40
1.0
 40
1.0
 10
30.2695405894942
 20
4.848068618440115
 30
0.0
 10
29.90779394748731
 20
4.961605896418147
 30
0.0
 10
29.54567888626244
 20
5.073787305530756
 30
0.0
 10
29.18284541465275
 20
5.184547675778814
 30
0.0
  0
SPLINE
  5
3F4
330
1F
100
AcDbEntity
  8
외형선
  6
Continuous
 62
     1
370
    15
100
AcDbSpline
210
0.0
220
0.0
230
1.0
 70
     8
 71
     3
 72
    12
 73
     8
 74
     0
 42
0.000000001
 43
0.00000001
 40
0.0
 40
0.0
 40
0.0
 40
0.0
 40
0.5
 40
0.5
 40
0.75
 40
0.75
 40
1.0
 40
1.0
 40
1.0
 40
1.0
 10
30.40794212353872
 20
0.7802776990195
 30
0.0
 10
30.38299816236226
 20
1.514688677255192
 30
0.0
 10
30.35921705292989
 20
2.230378931411286
 30
0.0
 10
30.32641308310693
 20
3.23912207645054
 30
0.0
 10
30.31599125336074
 20
3.564506425192432
 30
0.0
 10
30.29359248135736
 20
4.214007893409926
 30
0.0
 10
30.28194205979516
 20
4.534814088334111
 30
0.0
 10
30.26992941171292
 20
4.848079665767044
 30
0.0
  0
SPLINE
  5
3F5
330
1F
100
AcDbEntity
  8
외형선
  6
Continuous
 62
     1
370
    15
100
AcDbSpline
210
0.0
220
0.0
230
1.0
 70
     8
 71
     3
 72
     8
 73
     4
 74
     0
 42
0.000000001
 43
0.00000001
 40
0.0
 40
0.0
 40
0.0
 40
0.0
 40
1.0
 40
1.0
 40
1.0
 40
1.0
 10
32.2938918793043
 20
4.20005769081043
 30
0.0
 10
32.34897730604737
 20
4.182081126176795
 30
0.0
 10
32.40432495085736
 20
4.158354048788189
 30
0.0
 10
32.44979425830459
 20
4.133000294157769
 30
0.0
  0
SPLINE
  5
3F6
330
1F
100
AcDbEntity
  8
외형선
  6
Continuous
 62
     1
370
    15
100
AcDbSpline
210
0.0
220
0.0
230
1.0
 70
     8
 71
     3
 72
    12
 73
     8
 74
     0
 42
0.000000001
 43
0.00000001
 40
0.0
 40
0.0
 40
0.0
 40
0.0
 40
0.5000000000000001
 40
0.5000000000000001
 40
0.75
 40
0.75
 40
1.0
 40
1.0
 40
1.0
 40
1.0
 10
32.589681776552
 20
-0.0201407113987724
 30
0.0
 10
32.56406668980381
 20
0.7186616550889067
 30
0.0
 10
32.53925745014428
 20
1.449636652593751
 30
0.0
 10
32.50456163351637
 20
2.493530141122809
 30
0.0
 10
32.49341113725578
 20
2.832840044578321
 30
0.0
 10
32.47208858728735
 20
3.489023860153969
 30
0.0
 10
32.46122501828208
 20
3.812768831520502
 30
0.0
 10
32.44979425873802
 20
4.133000282021415
 30
0.0
  0
SPLINE
  5
3F7
330
1F
100
AcDbEntity
  8
외형선
  6
Continuous
 62
     1
370
    15
100
AcDbSpline
210
0.0
220
0.0
230
1.0
 70
     8
 71
     3
 72
    12
 73
     8
 74
     0
 42
0.000000001
 43
0.00000001
 40
0.0
 40
0.0
 40
0.0
 40
0.0
 40
0.5000000000000003
 40
0.5000000000000003
 40
0.7500000000000003
 40
0.7500000000000003
 40
1.0
 40
1.0
 40
1.0
 40
1.0
 10
31.1895951635689
 20
0.485965539835135
 30
0.0
 10
31.16430627032494
 20
1.222302980583532
 30
0.0
 10
31.1400596054357
 20
1.943804743335674
 30
0.0
 10
31.10645706310854
 20
2.965293066732711
 30
0.0
 10
31.09603281322276
 20
3.292769526135837
 30
0.0
 10
31.07405021236345
 20
3.943814406207176
 30
0.0
 10
31.06258676018555
 20
4.266295922777234
 30
0.0
 10
31.05073426118005
 20
4.582165986143158
 30
0.0
  0
SPLINE
  5
3F8
330
1F
100
AcDbEntity
  8
외형선
  6
Continuous
 62
     1
370
    15
100
AcDbSpline
210
0.0
220
0.0
230
1.0
 70
     8
 71
     3
 72
     8
 73
     4
 74
     0
 42
0.000000001
 43
0.00000001
 40
0.0
 40
0.0
 40
0.0
 40
0.0
 40
1.0
 40
1.0
 40
1.0
 40
1.0
 10
31.05073427121194
 20
4.58216571880247
 30
0.0
 10
31.09542711229101
 20
4.580073191909298
 30
0.0
 10
31.15040906233978
 20
4.569210118345771
 30
0.0
 10
31.20719544634412
 20
4.551058172098175
 30
0.0
  0
SPLINE
  5
3F9
330
1F
100
AcDbEntity
  8
외형선
  6
Continuous
 62
     1
370
    15
100
AcDbSpline
210
0.0
220
0.0
230
1.0
 70
     8
 71
     3
 72
    10
 73
     6
 74
     0
 42
0.000000001
 43
0.00000001
 40
0.0
 40
0.0
 40
0.0
 40
0.0
 40
0.5
 40
0.5
 40
1.0
 40
1.0
 40
1.0
 40
1.0
 10
32.44979425830482
 20
4.133000294157648
 30
0.0
 10
32.54233383599109
 20
4.081400085621715
 30
0.0
 10
32.65472068211827
 20
4.035714268101406
 30
0.0
 10
32.87914156737659
 20
3.963798926435286
 30
0.0
 10
32.98619826178579
 20
3.938880171626087
 30
0.0
 10
33.07438752874484
 20
3.928603712115274
 30
0.0
  0
SPLINE
  5
3FA
330
1F
100
AcDbEntity
  8
외형선
  6
Continuous
 62
     1
370
    15
100
AcDbSpline
210
0.0
220
0.0
230
1.0
 70
     8
 71
     3
 72
     8
 73
     4
 74
     0
 42
0.000000001
 43
0.00000001
 40
0.0
 40
0.0
 40
0.0
 40
0.0
 40
1.0
 40
1.0
 40
1.0
 40
1.0
 10
37.84999963641167
 20
2.304549739224663
 30
0.0
 10
38.03249968099001
 20
2.221461906806882
 30
0.0
 10
38.21575979977462
 20
2.149112596230582
 30
0.0
 10
38.39999963641165
 20
2.088304726388921
 30
0.0
  0
LINE
  5
3FB
330
1F
100
AcDbEntity
  8
외형선
  6
Continuous
 62
     1
370
    15
100
AcDbLine
 10
38.40000000000001
 20
2.088304841890929
 30
0.0
 11
38.40000000000001
 21
-1.428749994374815
 31
0.0
  0
SPLINE
  5
3FC
330
1F
100
AcDbEntity
  8
외형선
  6
Continuous
 62
     1
370
    15
100
AcDbSpline
210
0.0
220
0.0
230
1.0
 70
    24
 71
     3
 72
     8
 73
     4
 74
     0
 42
0.000000001
 43
0.00000001
 40
0.0000003033323757
 40
0.0000003033323757
 40
0.0000003033323757
 40
0.0000003033323757
 40
0.0008316029042958
 40
0.0008316029042958
 40
0.0008316029042958
 40
0.0008316029042958
 10
38.39999963641165
 20
-1.428750000000033
 30
0.0
 10
38.21729763595872
 20
-1.556679317963198
 30
0.0
 10
38.0339314582445
 20
-1.685073697851379
 30
0.0
 10
37.84999963641167
 20
-1.813864146015375
 30
0.0
  0
SPLINE
  5
3FD
330
1F
100
AcDbEntity
  8
외형선
  6
Continuous
 62
     1
370
    15
100
AcDbSpline
210
0.0
220
0.0
230
1.0
 70
     8
 71
     3
 72
     8
 73
     4
 74
     0
 42
0.000000001
 43
0.00000001
 40
0.0
 40
0.0
 40
0.0
 40
0.0
 40
1.0
 40
1.0
 40
1.0
 40
1.0
 10
30.26993457711419
 20
4.84794496157591
 30
0.0
 10
30.32503217340368
 20
4.830651975066869
 30
0.0
 10
30.38039784635927
 20
4.806300897915014
 30
0.0
 10
30.42589132725421
 20
4.778888867936084
 30
0.0
  0
SPLINE
  5
3FE
330
1F
100
AcDbEntity
  8
외형선
  6
Continuous
 62
     1
370
    15
100
AcDbSpline
210
0.0
220
0.0
230
1.0
 70
     8
 71
     3
 72
    12
 73
     8
 74
     0
 42
0.000000001
 43
0.00000001
 40
0.0
 40
0.0
 40
0.0
 40
0.0
 40
0.5000000000000001
 40
0.5000000000000001
 40
0.7500000000000002
 40
0.7500000000000002
 40
1.0
 40
1.0
 40
1.0
 40
1.0
 10
30.56447645933567
 20
0.7118345124799621
 30
0.0
 10
30.53938262936801
 20
1.445624726178529
 30
0.0
 10
30.51543211243867
 20
2.161518230885635
 30
0.0
 10
30.4823716796483
 20
3.171261079152162
 30
0.0
 10
30.47195012882602
 20
3.496245607335807
 30
0.0
 10
30.44956314075986
 20
4.14503760970671
 30
0.0
 10
30.43791185169911
 20
4.465655862478554
 30
0.0
 10
30.4258913272749
 20
4.778888867403071
 30
0.0
  0
SPLINE
  5
3FF
330
1F
100
AcDbEntity
  8
외형선
  6
Continuous
 62
     1
370
    15
100
AcDbSpline
210
0.0
220
0.0
230
1.0
 70
     8
 71
     3
 72
    12
 73
     8
 74
     0
 42
0.000000001
 43
0.00000001
 40
0.0
 40
0.0
 40
0.0
 40
0.0
 40
0.2500000000000001
 40
0.2500000000000001
 40
0.5000000000000001
 40
0.5000000000000001
 40
1.0
 40
1.0
 40
1.0
 40
1.0
 10
27.29634681849726
 20
1.901226890959526
 30
0.0
 10
27.28459465539819
 20
2.254928165238892
 30
0.0
 10
27.27323480510856
 20
2.600661689936365
 30
0.0
 10
27.25146063748868
 20
3.270731588028733
 30
0.0
 10
27.24102501087204
 20
3.595469868027747
 30
0.0
 10
27.20739567652949
 20
4.567467868043982
 30
0.0
 10
27.18316475592464
 20
5.199283502004773
 30
0.0
 10
27.15792553922299
 20
5.786285182119775
 30
0.0
  0
SPLINE
  5
400
330
1F
100
AcDbEntity
  8
외형선
  6
Continuous
 62
     1
370
    15
100
AcDbSpline
210
0.0
220
0.0
230
1.0
 70
     8
 71
     3
 72
     8
 73
     4
 74
     0
 42
0.000000001
 43
0.00000001
 40
0.0
 40
0.0
 40
0.0
 40
0.0
 40
1.0
 40
1.0
 40
1.0
 40
1.0
 10
28.24524641443057
 20
5.467234224202459
 30
0.0
 10
27.88267921853198
 20
5.57518460797567
 30
0.0
 10
27.52005950619193
 20
5.68156858392649
 30
0.0
 10
27.15785568519978
 20
5.786250316854099
 30
0.0
  0
SPLINE
  5
401
330
1F
100
AcDbEntity
  8
외형선
  6
Continuous
 62
     1
370
    15
100
AcDbSpline
210
0.0
220
0.0
230
1.0
 70
     8
 71
     3
 72
    12
 73
     8
 74
     0
 42
0.000000001
 43
0.00000001
 40
0.0
 40
0.0
 40
0.0
 40
0.0
 40
0.2500000000000002
 40
0.2500000000000002
 40
0.5000000000000003
 40
0.5000000000000003
 40
1.0
 40
1.0
 40
1.0
 40
1.0
 10
28.38326316864654
 20
1.51200586205425
 30
0.0
 10
28.37122055686044
 20
1.871625673731961
 30
0.0
 10
28.35953600503731
 20
2.224403386179544
 30
0.0
 10
28.3370626637865
 20
2.910335131755732
 30
0.0
 10
28.32660108321598
 20
3.240351381168908
 30
0.0
 10
28.29391272387105
 20
4.221307526697304
 30
0.0
 10
28.27019711907363
 20
4.864187142255615
 30
0.0
 10
28.24529941388695
 20
5.46724107512461
 30
0.0
  0
SPLINE
  5
402
330
1F
100
AcDbEntity
  8
외형선
  6
Continuous
 62
     1
370
    15
100
AcDbSpline
210
0.0
220
0.0
230
1.0
 70
     8
 71
     3
 72
    10
 73
     6
 74
     0
 42
0.000000001
 43
0.00000001
 40
0.0
 40
0.0
 40
0.0
 40
0.0
 40
0.5
 40
0.5
 40
1.0
 40
1.0
 40
1.0
 40
1.0
 10
30.4258913272544
 20
4.778888867935974
 30
0.0
 10
30.51847317262047
 20
4.723103813225739
 30
0.0
 10
30.63089098498796
 20
4.676116493370047
 30
0.0
 10
30.85538958365839
 20
4.607118193189551
 30
0.0
 10
30.96249018616108
 20
4.586297322805718
 30
0.0
 10
31.0507342712116
 20
4.582165718802363
 30
0.0
  0
SPLINE
  5
403
330
1F
100
AcDbEntity
  8
외형선
  6
Continuous
 62
     1
370
    15
100
AcDbSpline
210
0.0
220
0.0
230
1.0
 70
     8
 71
     3
 72
    12
 73
     8
 74
     0
 42
0.000000001
 43
0.00000001
 40
0.0
 40
0.0
 40
0.0
 40
0.0
 40
0.2500000000000001
 40
0.2500000000000001
 40
0.5
 40
0.5
 40
1.0
 40
1.0
 40
1.0
 40
1.0
 10
29.1646872330052
 20
1.21626739653818
 30
0.0
 10
29.1524131336113
 20
1.578689448680597
 30
0.0
 10
29.14047182759204
 20
1.935144050639993
 30
0.0
 10
29.11744934420452
 20
2.629830556074774
 30
0.0
 10
29.10647036760813
 20
2.967061249767559
 30
0.0
 10
29.07440005673928
 20
3.950099953669463
 30
0.0
 10
29.05101267127461
 20
4.597952027616829
 30
0.0
 10
29.02631883723173
 20
5.209549702166528
 30
0.0
  0
SPLINE
  5
404
330
1F
100
AcDbEntity
  8
외형선
  6
Continuous
 62
     1
370
    15
100
AcDbSpline
210
0.0
220
0.0
230
1.0
 70
     8
 71
     3
 72
     8
 73
     4
 74
     0
 42
0.000000001
 43
0.00000001
 40
0.0
 40
0.0
 40
0.0
 40
0.0
 40
1.0
 40
1.0
 40
1.0
 40
1.0
 10
29.0263188372319
 20
5.209549702171008
 30
0.0
 10
29.07103355282314
 20
5.210603650778873
 30
0.0
 10
29.12603483273735
 20
5.201889956204971
 30
0.0
 10
29.18283772234199
 20
5.184550023972983
 30
0.0
  0
SPLINE
  5
405
330
1F
100
AcDbEntity
  8
외형선
  6
Continuous
 62
     1
370
    15
100
AcDbSpline
210
0.0
220
0.0
230
1.0
 70
     8
 71
     3
 72
     8
 73
     4
 74
     0
 42
0.000000001
 43
0.00000001
 40
0.0
 40
0.0
 40
0.0
 40
0.0
 40
1.0
 40
1.0
 40
1.0
 40
1.0
 10
28.2453003598584
 20
5.467218162536513
 30
0.0
 10
28.30041406869204
 20
5.450808639743792
 30
0.0
 10
28.35579193886323
 20
5.426066096421481
 30
0.0
 10
28.40129205135302
 20
5.396833197508689
 30
0.0
  0
SPLINE
  5
406
330
1F
100
AcDbEntity
  8
외형선
  6
Continuous
 62
     1
370
    15
100
AcDbSpline
210
0.0
220
0.0
230
1.0
 70
     8
 71
     3
 72
    12
 73
     8
 74
     0
 42
0.000000001
 43
0.00000001
 40
0.0
 40
0.0
 40
0.0
 40
0.0
 40
0.2499999999999999
 40
0.2499999999999999
 40
0.4999999999999999
 40
0.4999999999999999
 40
1.0
 40
1.0
 40
1.0
 40
1.0
 10
28.53974621897859
 20
1.44007509480017
 30
0.0
 10
28.52761682284788
 20
1.799804639606021
 30
0.0
 10
28.5158420719189
 20
2.152873579889183
 30
0.0
 10
28.49318631374601
 20
2.839649029846234
 30
0.0
 10
28.4826210646257
 20
3.170326203709676
 30
0.0
 10
28.44995836117069
 20
4.150267241111878
 30
0.0
 10
28.42623108130768
 20
4.79317729982831
 30
0.0
 10
28.40129205135324
 20
5.396833197508938
 30
0.0
  0
SPLINE
  5
407
330
1F
100
AcDbEntity
  8
외형선
  6
Continuous
 62
     1
370
    15
100
AcDbSpline
210
0.0
220
0.0
230
1.0
 70
     8
 71
     3
 72
    10
 73
     6
 74
     0
 42
0.000000001
 43
0.00000001
 40
0.0
 40
0.0
 40
0.0
 40
0.0
 40
0.5
 40
0.5
 40
1.0
 40
1.0
 40
1.0
 40
1.0
 10
28.40129205135324
 20
5.396833197508551
 30
0.0
 10
28.49390292428095
 20
5.337332591062163
 30
0.0
 10
28.60636431824653
 20
5.289453440054002
 30
0.0
 10
28.83092062168409
 20
5.223995862525959
 30
0.0
 10
28.93804672530496
 20
5.207469083558896
 30
0.0
 10
29.02631883723156
 20
5.209549702170859
 30
0.0
  0
SPLINE
  5
408
330
1F
100
AcDbEntity
  8
외형선
  6
Continuous
 62
     1
370
    15
100
AcDbSpline
210
0.0
220
0.0
230
1.0
 70
     8
 71
     3
 72
     8
 73
     4
 74
     0
 42
0.000000001
 43
0.00000001
 40
0.0
 40
0.0
 40
0.0
 40
0.0
 40
1.0
 40
1.0
 40
1.0
 40
1.0
 10
36.91629660266491
 20
9.393100276114614
 30
0.0
 10
36.86123495862071
 20
9.39642126643538
 30
0.0
 10
36.80591210542357
 20
9.381586299659494
 30
0.0
 10
36.7604671437405
 20
9.348415595749215
 30
0.0
  0
SPLINE
  5
409
330
1F
100
AcDbEntity
  8
외형선
  6
Continuous
 62
     1
370
    15
100
AcDbSpline
210
0.0
220
0.0
230
1.0
 70
     8
 71
     3
 72
     8
 73
     4
 74
     0
 42
0.000000001
 43
0.00000001
 40
0.0
 40
0.0
 40
0.0
 40
0.0
 40
1.0
 40
1.0
 40
1.0
 40
1.0
 10
37.75560692296867
 20
9.337632490558429
 30
0.0
 10
37.47541366714773
 20
9.35776932173057
 30
0.0
 10
37.19485614089871
 20
9.376307469286152
 30
0.0
 10
36.91415132141105
 20
9.393229635072016
 30
0.0
  0
SPLINE
  5
40A
330
1F
100
AcDbEntity
  8
외형선
  6
Continuous
 62
     1
370
    15
100
AcDbSpline
210
0.0
220
0.0
230
1.0
 70
     8
 71
     3
 72
    18
 73
    14
 74
     0
 42
0.000000001
 43
0.00000001
 40
0.0
 40
0.0
 40
0.0
 40
0.0
 40
0.2500000000000004
 40
0.2500000000000004
 40
0.3750000000000004
 40
0.3750000000000004
 40
0.5000000000000003
 40
0.5000000000000003
 40
0.6250000000000002
 40
0.6250000000000002
 40
0.7500000000000001
 40
0.7500000000000001
 40
1.0
 40
1.0
 40
1.0
 40
1.0
 10
37.75560692296867
 20
9.33763249055846
 30
0.0
 10
37.78041353707022
 20
8.862344441692054
 30
0.0
 10
37.75915930996717
 20
8.392114858464188
 30
0.0
 10
37.64553882098988
 20
7.69574719056707
 30
0.0
 10
37.59342710707594
 20
7.4644615205719
 30
0.0
 10
37.4632070471981
 20
7.020880799343457
 30
0.0
 10
37.38489907751509
 20
6.806632108457999
 30
0.0
 10
37.2013344259278
 20
6.393533970139407
 30
0.0
 10
37.09519007283197
 20
6.193308671287079
 30
0.0
 10
36.85864470473496
 20
5.815655841363087
 30
0.0
 10
36.72968126265525
 20
5.640010709714469
 30
0.0
 10
36.31295503698524
 20
5.149861802888621
 30
0.0
 10
35.99147073940141
 20
4.87036972133504
 30
0.0
 10
35.6507233317345
 20
4.647515600714025
 30
0.0
  0
SPLINE
  5
40B
330
1F
100
AcDbEntity
  8
외형선
  6
Continuous
 62
     1
370
    15
100
AcDbSpline
210
0.0
220
0.0
230
1.0
 70
     8
 71
     3
 72
     8
 73
     4
 74
     0
 42
0.000000001
 43
0.00000001
 40
0.0
 40
0.0
 40
0.0
 40
0.0
 40
1.0
 40
1.0
 40
1.0
 40
1.0
 10
38.39999963641165
 20
3.38117660161271
 30
0.0
 10
37.48308542740364
 20
3.812691717480481
 30
0.0
 10
36.56666556157128
 20
4.234697590088958
 30
0.0
 10
35.65072333173444
 20
4.647515600714021
 30
0.0
  0
LINE
  5
40C
330
1F
100
AcDbEntity
  8
외형선
  6
Continuous
 62
     1
370
    15
100
AcDbLine
 10
38.40000000000001
 20
2.113519236445425
 30
0.0
 11
38.40000000000001
 21
3.38117661885917
 31
0.0
  0
SPLINE
  5
40D
330
1F
100
AcDbEntity
  8
외형선
  6
Continuous
 62
     1
370
    15
100
AcDbSpline
210
0.0
220
0.0
230
1.0
 70
     8
 71
     3
 72
     8
 73
     4
 74
     0
 42
0.000000001
 43
0.00000001
 40
0.0
 40
0.0
 40
0.0
 40
0.0
 40
1.0
 40
1.0
 40
1.0
 40
1.0
 10
27.00136401147424
 20
5.804987689787721
 30
0.0
 10
27.04609428268198
 20
5.809169561792396
 30
0.0
 10
27.10110934343069
 20
5.802650799098897
 30
0.0
 10
27.15792793614835
 20
5.786229435346888
 30
0.0
  0
SPLINE
  5
40E
330
1F
100
AcDbEntity
  8
외형선
  6
Continuous
 62
     1
370
    15
100
AcDbSpline
210
0.0
220
0.0
230
1.0
 70
     8
 71
     3
 72
    10
 73
     6
 74
     0
 42
0.000000001
 43
0.00000001
 40
0.0
 40
0.0
 40
0.0
 40
0.0
 40
0.5
 40
0.5
 40
1.0
 40
1.0
 40
1.0
 40
1.0
 10
26.37617950910393
 20
5.982198253514644
 30
0.0
 10
26.46881669236782
 20
5.919217472871599
 30
0.0
 10
26.58129332409098
 20
5.870622816618242
 30
0.0
 10
26.80589893262797
 20
5.808920862450281
 30
0.0
 10
26.91305453329986
 20
5.796731559776207
 30
0.0
 10
27.0013640114739
 20
5.804987689787561
 30
0.0
  0
SPLINE
  5
40F
330
1F
100
AcDbEntity
  8
외형선
  6
Continuous
 62
     1
370
    15
100
AcDbSpline
210
0.0
220
0.0
230
1.0
 70
     8
 71
     3
 72
     8
 73
     4
 74
     0
 42
0.000000001
 43
0.00000001
 40
0.0
 40
0.0
 40
0.0
 40
0.0
 40
1.0
 40
1.0
 40
1.0
 40
1.0
 10
26.22015322351771
 20
6.053720091477347
 30
0.0
 10
26.27527309992988
 20
6.038206148782207
 30
0.0
 10
26.33066236207659
 20
6.013143769682324
 30
0.0
 10
26.37617950910368
 20
5.982198253514801
 30
0.0
  0
SPLINE
  5
410
330
1F
100
AcDbEntity
  8
외형선
  6
Continuous
 62
     1
370
    15
100
AcDbSpline
210
0.0
220
0.0
230
1.0
 70
     8
 71
     3
 72
     8
 73
     4
 74
     0
 42
0.000000001
 43
0.00000001
 40
0.0
 40
0.0
 40
0.0
 40
0.0
 40
1.0
 40
1.0
 40
1.0
 40
1.0
 10
26.22012281068331
 20
6.053728651414035
 30
0.0
 10
25.85691453718258
 20
6.155956518860419
 30
0.0
 10
25.49364128530775
 20
6.256436331890947
 30
0.0
 10
25.12948644032841
 20
6.355151109445481
 30
0.0
  0
SPLINE
  5
411
330
1F
100
AcDbEntity
  8
외형선
  6
Continuous
 62
     1
370
    15
100
AcDbSpline
210
0.0
220
0.0
230
1.0
 70
     8
 71
     3
 72
     8
 73
     4
 74
     0
 42
0.000000001
 43
0.00000001
 40
0.0
 40
0.0
 40
0.0
 40
0.0
 40
1.0
 40
1.0
 40
1.0
 40
1.0
 10
24.97594264320306
 20
6.366707428963361
 30
0.0
 10
25.0206853333241
 20
6.374007153063387
 30
0.0
 10
25.07571122559747
 20
6.369730087959541
 30
0.0
 10
25.13253805788221
 20
6.354323834367998
 30
0.0
  0
SPLINE
  5
412
330
1F
100
AcDbEntity
  8
외형선
  6
Continuous
 62
     1
370
    15
100
AcDbSpline
210
0.0
220
0.0
230
1.0
 70
     8
 71
     3
 72
    10
 73
     6
 74
     0
 42
0.000000001
 43
0.00000001
 40
0.0
 40
0.0
 40
0.0
 40
0.0
 40
0.5
 40
0.5
 40
1.0
 40
1.0
 40
1.0
 40
1.0
 10
24.35066673379006
 20
6.532314679669307
 30
0.0
 10
24.44331852438106
 20
6.466343355491682
 30
0.0
 10
24.55582319714895
 20
6.417427568579813
 30
0.0
 10
24.78045691856502
 20
6.360020984248886
 30
0.0
 10
24.88762259245092
 20
6.352298103076537
 30
0.0
 10
24.97594264320249
 20
6.366707428963144
 30
0.0
  0
SPLINE
  5
413
330
1F
100
AcDbEntity
  8
외형선
  6
Continuous
 62
     1
370
    15
100
AcDbSpline
210
0.0
220
0.0
230
1.0
 70
     8
 71
     3
 72
     8
 73
     4
 74
     0
 42
0.000000001
 43
0.00000001
 40
0.0
 40
0.0
 40
0.0
 40
0.0
 40
1.0
 40
1.0
 40
1.0
 40
1.0
 10
24.19462545939837
 20
6.604330307674998
 30
0.0
 10
24.24975486650683
 20
6.589885973913203
 30
0.0
 10
24.30514948389335
 20
6.564724557873808
 30
0.0
 10
24.35066673378959
 20
6.53231467966855
 30
0.0
  0
SPLINE
  5
414
330
1F
100
AcDbEntity
  8
외형선
  6
Continuous
 62
     1
370
    15
100
AcDbSpline
210
0.0
220
0.0
230
1.0
 70
     8
 71
     3
 72
     8
 73
     4
 74
     0
 42
0.000000001
 43
0.00000001
 40
0.0
 40
0.0
 40
0.0
 40
0.0
 40
1.0
 40
1.0
 40
1.0
 40
1.0
 10
24.19435137736227
 20
6.604402118934646
 30
0.0
 10
23.83180188976363
 20
6.699391943343647
 30
0.0
 10
23.46917408395031
 20
6.792490239783918
 30
0.0
 10
23.10693640705492
 20
6.883578385935914
 30
0.0
  0
SPLINE
  5
415
330
1F
100
AcDbEntity
  8
외형선
  6
Continuous
 62
     1
370
    15
100
AcDbSpline
210
0.0
220
0.0
230
1.0
 70
     8
 71
     3
 72
     8
 73
     4
 74
     0
 42
0.000000001
 43
0.00000001
 40
0.0
 40
0.0
 40
0.0
 40
0.0
 40
1.0
 40
1.0
 40
1.0
 40
1.0
 10
22.95028840442799
 20
6.889523282500972
 30
0.0
 10
22.99503648564828
 20
6.899889138338301
 30
0.0
 10
23.05006747973582
 20
6.897878605118754
 30
0.0
 10
23.10690146347966
 20
6.883587172829314
 30
0.0
  0
SPLINE
  5
416
330
1F
100
AcDbEntity
  8
외형선
  6
Continuous
 62
     1
370
    15
100
AcDbSpline
210
0.0
220
0.0
230
1.0
 70
     8
 71
     3
 72
    10
 73
     6
 74
     0
 42
0.000000001
 43
0.00000001
 40
0.0
 40
0.0
 40
0.0
 40
0.0
 40
0.5
 40
0.5
 40
1.0
 40
1.0
 40
1.0
 40
1.0
 10
22.32495100055822
 20
7.042913208159261
 30
0.0
 10
22.41761245654683
 20
6.974251514807181
 30
0.0
 10
22.53011593833732
 20
6.925219936767197
 30
0.0
 10
22.75476918698185
 20
6.872311675662887
 30
0.0
 10
22.86194924691821
 20
6.869059590056915
 30
0.0
 10
22.9502884044276
 20
6.889523282500816
 30
0.0
  0
SPLINE
  5
417
330
1F
100
AcDbEntity
  8
외형선
  6
Continuous
 62
     1
370
    15
100
AcDbSpline
210
0.0
220
0.0
230
1.0
 70
     8
 71
     3
 72
     8
 73
     4
 74
     0
 42
0.000000001
 43
0.00000001
 40
0.0
 40
0.0
 40
0.0
 40
0.0
 40
1.0
 40
1.0
 40
1.0
 40
1.0
 10
22.16889583679028
 20
7.115178875266766
 30
0.0
 10
22.22402510937658
 20
7.101819503446157
 30
0.0
 10
22.2794241714636
 20
7.076648369615873
 30
0.0
 10
22.32495100055799
 20
7.042913208159414
 30
0.0
  0
SPLINE
  5
418
330
1F
100
AcDbEntity
  8
외형선
  6
Continuous
 62
     1
370
    15
100
AcDbSpline
210
0.0
220
0.0
230
1.0
 70
     8
 71
     3
 72
     8
 73
     4
 74
     0
 42
0.000000001
 43
0.00000001
 40
0.0
 40
0.0
 40
0.0
 40
0.0
 40
1.0
 40
1.0
 40
1.0
 40
1.0
 10
22.1688574692719
 20
7.115188172785002
 30
0.0
 10
21.80666028731709
 20
7.20295859161086
 30
0.0
 10
21.44466632262331
 20
7.288663499486455
 30
0.0
 10
21.08167146630117
 20
7.37231900173086
 30
0.0
  0
SPLINE
  5
419
330
1F
100
AcDbEntity
  8
외형선
  6
Continuous
 62
     1
370
    15
100
AcDbSpline
210
0.0
220
0.0
230
1.0
 70
     8
 71
     3
 72
     8
 73
     4
 74
     0
 42
0.000000001
 43
0.00000001
 40
0.0
 40
0.0
 40
0.0
 40
0.0
 40
1.0
 40
1.0
 40
1.0
 40
1.0
 10
20.92447594652842
 20
7.371900996783216
 30
0.0
 10
20.96922668424614
 20
7.385280071455439
 30
0.0
 10
21.02425974451941
 20
7.385549692359531
 30
0.0
 10
21.08109344005555
 20
7.372452211330833
 30
0.0
  0
SPLINE
  5
41A
330
1F
100
AcDbEntity
  8
외형선
  6
Continuous
 62
     1
370
    15
100
AcDbSpline
210
0.0
220
0.0
230
1.0
 70
     8
 71
     3
 72
    10
 73
     6
 74
     0
 42
0.000000001
 43
0.00000001
 40
0.0
 40
0.0
 40
0.0
 40
0.0
 40
0.5
 40
0.5
 40
1.0
 40
1.0
 40
1.0
 40
1.0
 10
20.29914201458575
 20
7.511802118437705
 30
0.0
 10
20.39180325217963
 20
7.440950050653539
 30
0.0
 10
20.50431878792843
 20
7.392175187499769
 30
0.0
 10
20.72896982540087
 20
7.344213174865329
 30
0.0
 10
20.83614415359195
 20
7.34549254601979
 30
0.0
 10
20.92447594652805
 20
7.371900996783024
 30
0.0
  0
SPLINE
  5
41B
330
1F
100
AcDbEntity
  8
외형선
  6
Continuous
 62
     1
370
    15
100
AcDbSpline
210
0.0
220
0.0
230
1.0
 70
     8
 71
     3
 72
     8
 73
     4
 74
     0
 42
0.000000001
 43
0.00000001
 40
0.0
 40
0.0
 40
0.0
 40
0.0
 40
1.0
 40
1.0
 40
1.0
 40
1.0
 10
20.1430922214
 20
7.583713288728644
 30
0.0
 10
20.1982243201867
 20
7.571584127242586
 30
0.0
 10
20.25362175839145
 20
7.546608520350459
 30
0.0
 10
20.29914201458556
 20
7.511802118437872
 30
0.0
  0
SPLINE
  5
41C
330
1F
100
AcDbEntity
  8
외형선
  6
Continuous
 62
     1
370
    15
100
AcDbSpline
210
0.0
220
0.0
230
1.0
 70
     8
 71
     3
 72
     8
 73
     4
 74
     0
 42
0.000000001
 43
0.00000001
 40
0.0
 40
0.0
 40
0.0
 40
0.0
 40
1.0
 40
1.0
 40
1.0
 40
1.0
 10
20.14213567379741
 20
7.583923725838206
 30
0.0
 10
19.77979898529796
 20
7.663634595655223
 30
0.0
 10
19.41735886050466
 20
7.74117561697796
 30
0.0
 10
19.0552830268139
 20
7.816448300687485
 30
0.0
  0
SPLINE
  5
41D
330
1F
100
AcDbEntity
  8
외형선
  6
Continuous
 62
     1
370
    15
100
AcDbSpline
210
0.0
220
0.0
230
1.0
 70
     8
 71
     3
 72
     8
 73
     4
 74
     0
 42
0.000000001
 43
0.00000001
 40
0.0
 40
0.0
 40
0.0
 40
0.0
 40
1.0
 40
1.0
 40
1.0
 40
1.0
 10
18.8987432594615
 20
7.809390658091102
 30
0.0
 10
18.94348905137858
 20
7.825697751595809
 30
0.0
 10
18.99851837822357
 20
7.828249262010045
 30
0.0
 10
19.05535051942481
 20
7.816434269487194
 30
0.0
  0
SPLINE
  5
41E
330
1F
100
AcDbEntity
  8
외형선
  6
Continuous
 62
     1
370
    15
100
AcDbSpline
210
0.0
220
0.0
230
1.0
 70
     8
 71
     3
 72
    10
 73
     6
 74
     0
 42
0.000000001
 43
0.00000001
 40
0.0
 40
0.0
 40
0.0
 40
0.0
 40
0.5
 40
0.5
 40
1.0
 40
1.0
 40
1.0
 40
1.0
 10
18.27344570377281
 20
7.935244434645947
 30
0.0
 10
18.36609969466591
 20
7.862556151000119
 30
0.0
 10
18.47859735006818
 20
7.814263296031589
 30
0.0
 10
18.7032376038342
 20
7.771426169430052
 30
0.0
 10
18.81041093701933
 20
7.77719895067329
 30
0.0
 10
18.89874325946113
 20
7.809390658090871
 30
0.0
  0
SPLINE
  5
41F
330
1F
100
AcDbEntity
  8
외형선
  6
Continuous
 62
     1
370
    15
100
AcDbSpline
210
0.0
220
0.0
230
1.0
 70
     8
 71
     3
 72
     8
 73
     4
 74
     0
 42
0.000000001
 43
0.00000001
 40
0.0
 40
0.0
 40
0.0
 40
0.0
 40
1.0
 40
1.0
 40
1.0
 40
1.0
 10
18.11740308906096
 20
8.006517102401814
 30
0.0
 10
18.17252863540722
 20
7.995634527686237
 30
0.0
 10
18.2279234507391
 20
7.970957245382001
 30
0.0
 10
18.27344570377257
 20
7.935244434646124
 30
0.0
  0
SPLINE
  5
420
330
1F
100
AcDbEntity
  8
외형선
  6
Continuous
 62
     1
370
    15
100
AcDbSpline
210
0.0
220
0.0
230
1.0
 70
     8
 71
     3
 72
     8
 73
     4
 74
     0
 42
0.000000001
 43
0.00000001
 40
0.0
 40
0.0
 40
0.0
 40
0.0
 40
1.0
 40
1.0
 40
1.0
 40
1.0
 10
18.11734859706704
 20
8.00652785988523
 30
0.0
 10
17.75543893949909
 20
8.077973804052514
 30
0.0
 10
17.39396531068351
 20
8.14709009319231
 30
0.0
 10
17.03140224709087
 20
8.213909866688615
 30
0.0
  0
SPLINE
  5
421
330
1F
100
AcDbEntity
  8
외형선
  6
Continuous
 62
     1
370
    15
100
AcDbSpline
210
0.0
220
0.0
230
1.0
 70
     8
 71
     3
 72
     8
 73
     4
 74
     0
 42
0.000000001
 43
0.00000001
 40
0.0
 40
0.0
 40
0.0
 40
0.0
 40
1.0
 40
1.0
 40
1.0
 40
1.0
 10
16.87316509810248
 20
8.200728931158315
 30
0.0
 10
16.91790374313759
 20
8.219870829548155
 30
0.0
 10
16.97292633107398
 20
8.224685706688936
 30
0.0
 10
17.02974961992236
 20
8.214214426309288
 30
0.0
  0
SPLINE
  5
422
330
1F
100
AcDbEntity
  8
외형선
  6
Continuous
 62
     1
370
    15
100
AcDbSpline
210
0.0
220
0.0
230
1.0
 70
     8
 71
     3
 72
    10
 73
     6
 74
     0
 42
0.000000001
 43
0.00000001
 40
0.0
 40
0.0
 40
0.0
 40
0.0
 40
0.5
 40
0.5
 40
1.0
 40
1.0
 40
1.0
 40
1.0
 10
16.24796582058494
 20
8.31153747052016
 30
0.0
 10
16.34060479495855
 20
8.237513210711692
 30
0.0
 10
16.45309850154602
 20
8.190047284143008
 30
0.0
 10
16.6777062692215
 20
8.152686234431206
 30
0.0
 10
16.78485808371383
 20
8.162945849099541
 30
0.0
 10
16.87316509810213
 20
8.200728931158066
 30
0.0
  0
SPLINE
  5
423
330
1F
100
AcDbEntity
  8
외형선
  6
Continuous
 62
     1
370
    15
100
AcDbSpline
210
0.0
220
0.0
230
1.0
 70
     8
 71
     3
 72
     8
 73
     4
 74
     0
 42
0.000000001
 43
0.00000001
 40
0.0
 40
0.0
 40
0.0
 40
0.0
 40
1.0
 40
1.0
 40
1.0
 40
1.0
 10
16.09194880361508
 20
8.381616114156158
 30
0.0
 10
16.14707051451997
 20
8.372094546699335
 30
0.0
 10
16.20245676996669
 20
8.34790201157186
 30
0.0
 10
16.24796582058474
 20
8.311537470520326
 30
0.0
  0
SPLINE
  5
424
330
1F
100
AcDbEntity
  8
외형선
  6
Continuous
 62
     1
370
    15
100
AcDbSpline
210
0.0
220
0.0
230
1.0
 70
     8
 71
     3
 72
     8
 73
     4
 74
     0
 42
0.000000001
 43
0.00000001
 40
0.0
 40
0.0
 40
0.0
 40
0.0
 40
1.0
 40
1.0
 40
1.0
 40
1.0
 10
16.09328837391843
 20
8.381384709564683
 30
0.0
 10
15.73010506306544
 20
8.444125940582195
 30
0.0
 10
15.3667910436054
 20
8.504456928209
 30
0.0
 10
15.00381743734987
 20
8.562300842670096
 30
0.0
  0
SPLINE
  5
425
330
1F
100
AcDbEntity
  8
외형선
  6
Continuous
 62
     1
370
    15
100
AcDbSpline
210
0.0
220
0.0
230
1.0
 70
     8
 71
     3
 72
     8
 73
     4
 74
     0
 42
0.000000001
 43
0.00000001
 40
0.0
 40
0.0
 40
0.0
 40
0.0
 40
1.0
 40
1.0
 40
1.0
 40
1.0
 10
14.84797704122519
 20
8.542328947474614
 30
0.0
 10
14.89270050549084
 20
8.564187542867478
 30
0.0
 10
14.94771061401303
 20
8.571242584828296
 30
0.0
 10
15.00452372911683
 20
8.562188284089567
 30
0.0
  0
SPLINE
  5
426
330
1F
100
AcDbEntity
  8
외형선
  6
Continuous
 62
     1
370
    15
100
AcDbSpline
210
0.0
220
0.0
230
1.0
 70
     8
 71
     3
 72
    10
 73
     6
 74
     0
 42
0.000000001
 43
0.00000001
 40
0.0
 40
0.0
 40
0.0
 40
0.0
 40
0.5000000000000003
 40
0.5000000000000003
 40
1.0
 40
1.0
 40
1.0
 40
1.0
 10
14.22291098565785
 20
8.637624498844472
 30
0.0
 10
14.31552596389817
 20
8.56265993421759
 30
0.0
 10
14.42798528892384
 20
8.51625658088558
 30
0.0
 10
14.65255228393315
 20
8.48451405370747
 30
0.0
 10
14.75968789149312
 20
8.499177621134342
 30
0.0
 10
14.84797704122484
 20
8.54232894747438
 30
0.0
  0
SPLINE
  5
427
330
1F
100
AcDbEntity
  8
외형선
  6
Continuous
 62
     1
370
    15
100
AcDbSpline
210
0.0
220
0.0
230
1.0
 70
     8
 71
     3
 72
     8
 73
     4
 74
     0
 42
0.000000001
 43
0.00000001
 40
0.0
 40
0.0
 40
0.0
 40
0.0
 40
1.0
 40
1.0
 40
1.0
 40
1.0
 10
14.06692200132959
 20
8.706197586105729
 30
0.0
 10
14.12203081429426
 20
8.698052136220388
 30
0.0
 10
14.17740745382036
 20
8.674456040761187
 30
0.0
 10
14.22291098565763
 20
8.63762449884465
 30
0.0
  0
SPLINE
  5
428
330
1F
100
AcDbEntity
  8
외형선
  6
Continuous
 62
     1
370
    15
100
AcDbSpline
210
0.0
220
0.0
230
1.0
 70
     8
 71
     3
 72
     8
 73
     4
 74
     0
 42
0.000000001
 43
0.00000001
 40
0.0
 40
0.0
 40
0.0
 40
0.0
 40
0.9809819935018473
 40
0.9809819935018473
 40
0.9809819935018473
 40
0.9809819935018473
 10
14.06797687060656
 20
8.706041662511415
 30
0.0
 10
13.71193085144722
 20
8.75867228277792
 30
0.0
 10
13.35650409336364
 20
8.808851955716344
 30
0.0
 10
13.00000000000001
 20
8.856615026908871
 30
0.0
  0
SPLINE
  5
429
330
1F
100
AcDbEntity
  8
외형선
  6
Continuous
 62
     1
370
    15
100
AcDbSpline
210
0.0
220
0.0
230
1.0
 70
     8
 71
     3
 72
    10
 73
     6
 74
     0
 42
0.000000001
 43
0.00000001
 40
0.0
 40
0.0
 40
0.0
 40
0.0
 40
0.3923487760328349
 40
0.7838600051319279
 40
1.0
 40
1.0
 40
1.0
 40
1.0
 10
18.53600520789624
 20
8.148899301886557
 30
0.0
 10
18.48689378816599
 20
8.116240246677679
 30
0.0
 10
18.38877578685336
 20
8.050991853545204
 30
0.0
 10
18.24206768317764
 20
8.00433537874415
 30
0.0
 10
18.15896569976439
 20
8.003632836175454
 30
0.0
 10
18.12940653562546
 20
8.003382943570612
 30
0.0
  0
SPLINE
  5
42A
330
1F
100
AcDbEntity
  8
외형선
  6
Continuous
 62
     1
370
    15
100
AcDbSpline
210
0.0
220
0.0
230
1.0
 70
     8
 71
     3
 72
     8
 73
     4
 74
     0
 42
0.000000001
 43
0.00000001
 40
0.0
 40
0.0
 40
0.0
 40
0.0
 40
1.0
 40
1.0
 40
1.0
 40
1.0
 10
18.69202995889847
 20
8.219568781274054
 30
0.0
 10
18.63690669353409
 20
8.209430543320869
 30
0.0
 10
18.58151846273969
 20
8.185000998557518
 30
0.0
 10
18.53600504393066
 20
8.148899510252077
 30
0.0
  0
SPLINE
  5
42B
330
1F
100
AcDbEntity
  8
외형선
  6
Continuous
 62
     1
370
    15
100
AcDbSpline
210
0.0
220
0.0
230
1.0
 70
     8
 71
     3
 72
     8
 73
     4
 74
     0
 42
0.000000001
 43
0.00000001
 40
0.0
 40
0.0
 40
0.0
 40
0.0
 40
1.0
 40
1.0
 40
1.0
 40
1.0
 10
19.78083235326736
 20
8.412524324653463
 30
0.0
 10
19.4176640971792
 20
8.350595431433424
 30
0.0
 10
19.05454828671154
 20
8.286243269115213
 30
0.0
 10
18.6919552077317
 20
8.219555033049575
 30
0.0
  0
SPLINE
  5
42C
330
1F
100
AcDbEntity
  8
외형선
  6
Continuous
 62
     1
370
    15
100
AcDbSpline
210
0.0
220
0.0
230
1.0
 70
     8
 71
     3
 72
     8
 73
     4
 74
     0
 42
0.000000001
 43
0.00000001
 40
0.0
 40
0.0
 40
0.0
 40
0.0
 40
1.0
 40
1.0
 40
1.0
 40
1.0
 10
19.93622470281446
 20
8.395291618158124
 30
0.0
 10
19.8914832913047
 20
8.415950463166245
 30
0.0
 10
19.83645746932162
 20
8.422010571207165
 30
0.0
 10
19.77962985181219
 20
8.412319260445242
 30
0.0
  0
SPLINE
  5
42D
330
1F
100
AcDbEntity
  8
외형선
  6
Continuous
 62
     1
370
    15
100
AcDbSpline
210
0.0
220
0.0
230
1.0
 70
     8
 71
     3
 72
    10
 73
     6
 74
     0
 42
0.000000001
 43
0.00000001
 40
0.0
 40
0.0
 40
0.0
 40
0.0
 40
0.5
 40
0.5
 40
1.0
 40
1.0
 40
1.0
 40
1.0
 10
20.56150200328025
 20
8.497574352574366
 30
0.0
 10
20.46885345468795
 20
8.422979951214538
 30
0.0
 10
20.35635479801493
 20
8.376077064503965
 30
0.0
 10
20.13171840865098
 20
8.341805903492803
 30
0.0
 10
20.02454834330948
 20
8.354509167672516
 30
0.0
 10
19.93622470281466
 20
8.395291618157964
 30
0.0
  0
SPLINE
  5
42E
330
1F
100
AcDbEntity
  8
외형선
  6
Continuous
 62
     1
370
    15
100
AcDbSpline
210
0.0
220
0.0
230
1.0
 70
     8
 71
     3
 72
     8
 73
     4
 74
     0
 42
0.000000001
 43
0.00000001
 40
0.0
 40
0.0
 40
0.0
 40
0.0
 40
1.0
 40
1.0
 40
1.0
 40
1.0
 10
20.71754456966713
 20
8.566864128365735
 30
0.0
 10
20.66241591099035
 20
8.558098205587575
 30
0.0
 10
20.6070206568774
 20
8.53422292146581
 30
0.0
 10
20.56150200328059
 20
8.49757435257464
 30
0.0
  0
SPLINE
  5
42F
330
1F
100
AcDbEntity
  8
외형선
  6
Continuous
 62
     1
370
    15
100
AcDbSpline
210
0.0
220
0.0
230
1.0
 70
     8
 71
     3
 72
     8
 73
     4
 74
     0
 42
0.000000001
 43
0.00000001
 40
0.0
 40
0.0
 40
0.0
 40
0.0
 40
1.0
 40
1.0
 40
1.0
 40
1.0
 10
21.80542170563668
 20
8.73255111804171
 30
0.0
 10
21.44352657571935
 20
8.679865302532603
 30
0.0
 10
21.08080956997961
 20
8.624625464618054
 30
0.0
 10
20.71773918416841
 20
8.566895073483428
 30
0.0
  0
SPLINE
  5
430
330
1F
100
AcDbEntity
  8
외형선
  6
Continuous
 62
     1
370
    15
100
AcDbSpline
210
0.0
220
0.0
230
1.0
 70
     8
 71
     3
 72
    17
 73
    13
 74
     0
 42
0.000000001
 43
0.00000001
 40
0.0
 40
0.0
 40
0.0
 40
0.0
 40
0.0000451207238803
 40
0.0000451207238803
 40
0.0000451207238803
 40
0.000090237000634
 40
0.000090237000634
 40
0.000090237000634
 40
0.0001347627553607
 40
0.0001347627553607
 40
0.0001347627553607
 40
0.0001803708057399
 40
0.0001803708057399
 40
0.0001803708057399
 40
0.0001803708057399
 10
21.96190780346961
 20
8.709273914153647
 30
0.0
 10
21.95077969121692
 20
8.715064291377578
 30
0.0
 10
21.93893255392999
 20
8.719959008284063
 30
0.0
 10
21.92658828492632
 20
8.723880181823423
 30
0.0
 10
21.91424479570306
 20
8.727801107664488
 30
0.0
 10
21.90133135737719
 20
8.730771974455932
 30
0.0
 10
21.88807700442722
 20
8.732742195254568
 30
0.0
 10
21.87499524129848
 20
8.734686761081084
 30
0.0
 10
21.86150601779612
 20
8.735667919513089
 30
0.0
 10
21.84783820427648
 20
8.735661277287084
 30
0.0
 10
21.83384092062889
 20
8.735654474946584
 30
0.0
 10
21.8195717354308
 20
8.73461114647293
 30
0.0
 10
21.80528992392598
 20
8.732531932744005
 30
0.0
  0
SPLINE
  5
431
330
1F
100
AcDbEntity
  8
외형선
  6
Continuous
 62
     1
370
    15
100
AcDbSpline
210
0.0
220
0.0
230
1.0
 70
     8
 71
     3
 72
    10
 73
     6
 74
     0
 42
0.000000001
 43
0.00000001
 40
0.0
 40
0.0
 40
0.0
 40
0.0
 40
0.5
 40
0.5
 40
1.0
 40
1.0
 40
1.0
 40
1.0
 10
22.58725305924403
 20
8.795844771173423
 30
0.0
 10
22.49457885209367
 20
8.720536565122002
 30
0.0
 10
22.38205429406381
 20
8.674853024064403
 30
0.0
 10
22.15740600234997
 20
8.646286126000488
 30
0.0
 10
22.05023811931127
 20
8.663312313711378
 30
0.0
 10
21.96190780346981
 20
8.709273914153462
 30
0.0
  0
SPLINE
  5
432
330
1F
100
AcDbEntity
  8
외형선
  6
Continuous
 62
     1
370
    15
100
AcDbSpline
210
0.0
220
0.0
230
1.0
 70
     8
 71
     3
 72
     8
 73
     4
 74
     0
 42
0.000000001
 43
0.00000001
 40
0.0
 40
0.0
 40
0.0
 40
0.0
 40
1.0
 40
1.0
 40
1.0
 40
1.0
 10
22.74330647728473
 20
8.86337860138124
 30
0.0
 10
22.68817432061289
 20
8.856029300451196
 30
0.0
 10
22.63277653325176
 20
8.832837708757188
 30
0.0
 10
22.58725305924438
 20
8.795844771173693
 30
0.0
  0
SPLINE
  5
433
330
1F
100
AcDbEntity
  8
외형선
  6
Continuous
 62
     1
370
    15
100
AcDbSpline
210
0.0
220
0.0
230
1.0
 70
     8
 71
     3
 72
     8
 73
     4
 74
     0
 42
0.000000001
 43
0.00000001
 40
0.0
 40
0.0
 40
0.0
 40
0.0
 40
1.0
 40
1.0
 40
1.0
 40
1.0
 10
23.82946086893381
 20
9.00039687692085
 30
0.0
 10
23.46769994413191
 20
8.957345628765472
 30
0.0
 10
23.10601772537481
 20
8.911721715983946
 30
0.0
 10
22.74487894054216
 20
8.863588199683411
 30
0.0
  0
SPLINE
  5
434
330
1F
100
AcDbEntity
  8
외형선
  6
Continuous
 62
     1
370
    15
100
AcDbSpline
210
0.0
220
0.0
230
1.0
 70
     8
 71
     3
 72
     8
 73
     4
 74
     0
 42
0.000000001
 43
0.00000001
 40
0.0
 40
0.0
 40
0.0
 40
0.0
 40
1.0
 40
1.0
 40
1.0
 40
1.0
 10
23.98770145502348
 20
8.9711065691285
 30
0.0
 10
23.94295255118502
 20
8.996918183471932
 30
0.0
 10
23.88791994253174
 20
9.00735254949724
 30
0.0
 10
23.83108586097246
 20
9.000590241242657
 30
0.0
  0
SPLINE
  5
435
330
1F
100
AcDbEntity
  8
외형선
  6
Continuous
 62
     1
370
    15
100
AcDbSpline
210
0.0
220
0.0
230
1.0
 70
     8
 71
     3
 72
    10
 73
     6
 74
     0
 42
0.000000001
 43
0.00000001
 40
0.0
 40
0.0
 40
0.0
 40
0.0
 40
0.5
 40
0.5
 40
1.0
 40
1.0
 40
1.0
 40
1.0
 10
24.61303205937455
 20
9.041077492319934
 30
0.0
 10
24.52037522893787
 20
8.965566329128164
 30
0.0
 10
24.40786655966595
 20
8.921412732215986
 30
0.0
 10
24.1832141069947
 20
8.898828996905783
 30
0.0
 10
24.07603592918483
 20
8.920154362823551
 30
0.0
 10
23.9877014550237
 20
8.97110656912833
 30
0.0
  0
SPLINE
  5
436
330
1F
100
AcDbEntity
  8
외형선
  6
Continuous
 62
     1
370
    15
100
AcDbSpline
210
0.0
220
0.0
230
1.0
 70
     8
 71
     3
 72
     8
 73
     4
 74
     0
 42
0.000000001
 43
0.00000001
 40
0.0
 40
0.0
 40
0.0
 40
0.0
 40
1.0
 40
1.0
 40
1.0
 40
1.0
 10
24.7690821141581
 20
9.106411947387508
 30
0.0
 10
24.71395096727147
 20
9.100532332879391
 30
0.0
 10
24.65855320484732
 20
9.07817518526131
 30
0.0
 10
24.61303205937489
 20
9.041077492320218
 30
0.0
  0
SPLINE
  5
437
330
1F
100
AcDbEntity
  8
외형선
  6
Continuous
 62
     1
370
    15
100
AcDbSpline
210
0.0
220
0.0
230
1.0
 70
     8
 71
     3
 72
     8
 73
     4
 74
     0
 42
0.000000001
 43
0.00000001
 40
0.0
 40
0.0
 40
0.0
 40
0.0
 40
1.0
 40
1.0
 40
1.0
 40
1.0
 10
25.85628707005512
 20
9.21456783720558
 30
0.0
 10
25.49433009784391
 20
9.18115965762559
 30
0.0
 10
25.13157706692257
 20
9.145074025749794
 30
0.0
 10
24.76849664036367
 20
9.106349505650067
 30
0.0
  0
SPLINE
  5
438
330
1F
100
AcDbEntity
  8
외형선
  6
Continuous
 62
     1
370
    15
100
AcDbSpline
210
0.0
220
0.0
230
1.0
 70
     8
 71
     3
 72
    17
 73
    13
 74
     0
 42
0.000000001
 43
0.00000001
 40
0.0
 40
0.0
 40
0.0
 40
0.0
 40
0.0000451207540598
 40
0.0000451207540598
 40
0.0000451207540598
 40
0.0000902370659314
 40
0.0000902370659314
 40
0.0000902370659314
 40
0.000134757531757
 40
0.000134757531757
 40
0.000134757531757
 40
0.0001803601689432
 40
0.0001803601689432
 40
0.0001803601689432
 40
0.0001803601689432
 10
26.01344766678456
 20
9.179190356076523
 30
0.0
 10
26.00231963554963
 20
9.186191481066873
 30
0.0
 10
25.99047239631025
 20
9.192267664919553
 30
0.0
 10
25.97812796604475
 20
9.197321274166738
 30
0.0
 10
25.96578431445143
 20
9.202374564638186
 30
0.0
 10
25.95287061287674
 20
9.206435546315978
 30
0.0
 10
25.9396159588813
 20
9.20943523505978
 30
0.0
 10
25.92653545340264
 20
9.212395511884912
 30
0.0
 10
25.91304753202039
 20
9.21433941774753
 30
0.0
 10
25.8993810490372
 20
9.215225656152763
 30
0.0
 10
25.88538512599857
 20
9.216133257949712
 30
0.0
 10
25.87111733981189
 20
9.215936546703817
 30
0.0
 10
25.85683694068783
 20
9.214618587580658
 30
0.0
  0
SPLINE
  5
439
330
1F
100
AcDbEntity
  8
외형선
  6
Continuous
 62
     1
370
    15
100
AcDbSpline
210
0.0
220
0.0
230
1.0
 70
     8
 71
     3
 72
    10
 73
     6
 74
     0
 42
0.000000001
 43
0.00000001
 40
0.0
 40
0.0
 40
0.0
 40
0.0
 40
0.5
 40
0.5
 40
1.0
 40
1.0
 40
1.0
 40
1.0
 10
26.6387509764489
 20
9.232439317984115
 30
0.0
 10
26.54608350949368
 20
9.157128044166887
 30
0.0
 10
26.43356523478857
 20
9.114740025043046
 30
0.0
 10
26.20893162151989
 20
9.098190373161279
 30
0.0
 10
26.10177339016391
 20
9.123620829338892
 30
0.0
 10
26.01344766678478
 20
9.179190356076338
 30
0.0
  0
SPLINE
  5
43A
330
1F
100
AcDbEntity
  8
외형선
  6
Continuous
 62
     1
370
    15
100
AcDbSpline
210
0.0
220
0.0
230
1.0
 70
     8
 71
     3
 72
     8
 73
     4
 74
     0
 42
0.000000001
 43
0.00000001
 40
0.0
 40
0.0
 40
0.0
 40
0.0
 40
1.0
 40
1.0
 40
1.0
 40
1.0
 10
26.79479151433375
 20
9.295214094370001
 30
0.0
 10
26.73966357382537
 20
9.290832228146185
 30
0.0
 10
26.6842702612706
 20
9.269433048748544
 30
0.0
 10
26.63875097644924
 20
9.232439317984406
 30
0.0
  0
SPLINE
  5
43B
330
1F
100
AcDbEntity
  8
외형선
  6
Continuous
 62
     1
370
    15
100
AcDbSpline
210
0.0
220
0.0
230
1.0
 70
     8
 71
     3
 72
     8
 73
     4
 74
     0
 42
0.000000001
 43
0.00000001
 40
0.0
 40
0.0
 40
0.0
 40
0.0
 40
1.0
 40
1.0
 40
1.0
 40
1.0
 10
27.88222255633553
 20
9.373542416523657
 30
0.0
 10
27.51988929320348
 20
9.350141086364685
 30
0.0
 10
27.15765996030574
 20
9.324050817381389
 30
0.0
 10
26.79600138083728
 20
9.295310251037323
 30
0.0
  0
SPLINE
  5
43C
330
1F
100
AcDbEntity
  8
외형선
  6
Continuous
 62
     1
370
    15
100
AcDbSpline
210
0.0
220
0.0
230
1.0
 70
     8
 71
     3
 72
     8
 73
     4
 74
     0
 42
0.000000001
 43
0.00000001
 40
0.0
 40
0.0
 40
0.0
 40
0.0
 40
1.0
 40
1.0
 40
1.0
 40
1.0
 10
28.03899638180663
 20
9.332315120631916
 30
0.0
 10
27.9942601100966
 20
9.362662664910898
 30
0.0
 10
27.9392383392541
 20
9.377224636669196
 30
0.0
 10
27.88241504929893
 20
9.37355484844756
 30
0.0
  0
SPLINE
  5
43D
330
1F
100
AcDbEntity
  8
외형선
  6
Continuous
 62
     1
370
    15
100
AcDbSpline
210
0.0
220
0.0
230
1.0
 70
     8
 71
     3
 72
    10
 73
     6
 74
     0
 42
0.000000001
 43
0.00000001
 40
0.0
 40
0.0
 40
0.0
 40
0.0
 40
0.5
 40
0.5
 40
1.0
 40
1.0
 40
1.0
 40
1.0
 10
28.66418769894491
 20
9.368288086375982
 30
0.0
 10
28.57155428498842
 20
9.29367730978248
 30
0.0
 10
28.45906827425934
 20
9.253324214516054
 30
0.0
 10
28.23446031995606
 20
9.242967271148805
 30
0.0
 10
28.12730518405382
 20
9.272409473961025
 30
0.0
 10
28.03899638180687
 20
9.332315120631739
 30
0.0
  0
SPLINE
  5
43E
330
1F
100
AcDbEntity
  8
외형선
  6
Continuous
 62
     1
370
    15
100
AcDbSpline
210
0.0
220
0.0
230
1.0
 70
     8
 71
     3
 72
     8
 73
     4
 74
     0
 42
0.000000001
 43
0.00000001
 40
0.0
 40
0.0
 40
0.0
 40
0.0
 40
1.0
 40
1.0
 40
1.0
 40
1.0
 10
28.82020394320674
 20
9.428103041480709
 30
0.0
 10
28.76508338788179
 20
9.425250598926153
 30
0.0
 10
28.70969712196008
 20
9.404943254834619
 30
0.0
 10
28.66418769894526
 20
9.368288086376252
 30
0.0
  0
SPLINE
  5
43F
330
1F
100
AcDbEntity
  8
외형선
  6
Continuous
 62
     1
370
    15
100
AcDbSpline
210
0.0
220
0.0
230
1.0
 70
     8
 71
     3
 72
     8
 73
     4
 74
     0
 42
0.000000001
 43
0.00000001
 40
0.0
 40
0.0
 40
0.0
 40
0.0
 40
1.0
 40
1.0
 40
1.0
 40
1.0
 10
29.90730862212027
 20
9.476254734736854
 30
0.0
 10
29.54584715664591
 20
9.462944576632841
 30
0.0
 10
29.18361774734871
 20
9.44690501132517
 30
0.0
 10
28.82108705829918
 20
9.428148736606238
 30
0.0
  0
SPLINE
  5
440
330
1F
100
AcDbEntity
  8
외형선
  6
Continuous
 62
     1
370
    15
100
AcDbSpline
210
0.0
220
0.0
230
1.0
 70
     8
 71
     3
 72
     8
 73
     4
 74
     0
 42
0.000000001
 43
0.00000001
 40
0.0
 40
0.0
 40
0.0
 40
0.0
 40
1.0
 40
1.0
 40
1.0
 40
1.0
 10
30.06418234522575
 20
9.429519450463468
 30
0.0
 10
30.01945706704242
 20
9.461864007708774
 30
0.0
 10
29.96444772560888
 20
9.4783585227252
 30
0.0
 10
29.90763362305434
 20
9.476266701574955
 30
0.0
  0
SPLINE
  5
441
330
1F
100
AcDbEntity
  8
외형선
  6
Continuous
 62
     1
370
    15
100
AcDbSpline
210
0.0
220
0.0
230
1.0
 70
     8
 71
     3
 72
    10
 73
     6
 74
     0
 42
0.000000001
 43
0.00000001
 40
0.0
 40
0.0
 40
0.0
 40
0.0
 40
0.5
 40
0.5
 40
1.0
 40
1.0
 40
1.0
 40
1.0
 10
30.68925161942266
 20
9.448169481848316
 30
0.0
 10
30.59662284820425
 20
9.37466728826176
 30
0.0
 10
30.48414404527492
 20
9.336581977321257
 30
0.0
 10
30.25958625834797
 20
9.332440936167044
 30
0.0
 10
30.1524669612667
 20
9.365673524101085
 30
0.0
 10
30.06418234522599
 20
9.42951945046328
 30
0.0
  0
SPLINE
  5
442
330
1F
100
AcDbEntity
  8
외형선
  6
Continuous
 62
     1
370
    15
100
AcDbSpline
210
0.0
220
0.0
230
1.0
 70
     8
 71
     3
 72
     8
 73
     4
 74
     0
 42
0.000000001
 43
0.00000001
 40
0.0
 40
0.0
 40
0.0
 40
0.0
 40
1.0
 40
1.0
 40
1.0
 40
1.0
 10
30.84523823515885
 20
9.50468379370138
 30
0.0
 10
30.79012751261845
 20
9.503373892505648
 30
0.0
 10
30.73475259159115
 20
9.484275123979804
 30
0.0
 10
30.689251619423
 20
9.448169481848586
 30
0.0
  0
SPLINE
  5
443
330
1F
100
AcDbEntity
  8
외형선
  6
Continuous
 62
     1
370
    15
100
AcDbSpline
210
0.0
220
0.0
230
1.0
 70
     8
 71
     3
 72
     8
 73
     4
 74
     0
 42
0.000000001
 43
0.00000001
 40
0.0
 40
0.0
 40
0.0
 40
0.0
 40
1.0
 40
1.0
 40
1.0
 40
1.0
 10
31.93291004025915
 20
9.522306731695272
 30
0.0
 10
31.56997202119575
 20
9.51916859373783
 30
0.0
 10
31.20716423771113
 20
9.51328767049287
 30
0.0
 10
30.84495573415612
 20
9.50467707850992
 30
0.0
  0
SPLINE
  5
444
330
1F
100
AcDbEntity
  8
외형선
  6
Continuous
 62
     1
370
    15
100
AcDbSpline
210
0.0
220
0.0
230
1.0
 70
     8
 71
     3
 72
     8
 73
     4
 74
     0
 42
0.000000001
 43
0.00000001
 40
0.0
 40
0.0
 40
0.0
 40
0.0
 40
1.0
 40
1.0
 40
1.0
 40
1.0
 10
32.08886774800342
 20
9.470299409850734
 30
0.0
 10
32.04416389185948
 20
9.504453121447453
 30
0.0
 10
31.9891702914089
 20
9.522793605106108
 30
0.0
 10
31.93237475911666
 20
9.522302101406547
 30
0.0
  0
SPLINE
  5
445
330
1F
100
AcDbEntity
  8
외형선
  6
Continuous
 62
     1
370
    15
100
AcDbSpline
210
0.0
220
0.0
230
1.0
 70
     8
 71
     3
 72
    10
 73
     6
 74
     0
 42
0.000000001
 43
0.00000001
 40
0.0
 40
0.0
 40
0.0
 40
0.0
 40
0.5
 40
0.5
 40
1.0
 40
1.0
 40
1.0
 40
1.0
 10
32.71373094333407
 20
9.47144364954766
 30
0.0
 10
32.62115200477965
 20
9.39952335608731
 30
0.0
 10
32.50872069786035
 20
9.363923163797038
 30
0.0
 10
32.28421660120821
 20
9.366025547847132
 30
0.0
 10
32.17711505207413
 20
9.402878537639333
 30
0.0
 10
32.08886774800365
 20
9.47029940985056
 30
0.0
  0
SPLINE
  5
446
330
1F
100
AcDbEntity
  8
외형선
  6
Continuous
 62
     1
370
    15
100
AcDbSpline
210
0.0
220
0.0
230
1.0
 70
     8
 71
     3
 72
     8
 73
     4
 74
     0
 42
0.000000001
 43
0.00000001
 40
0.0
 40
0.0
 40
0.0
 40
0.0
 40
1.0
 40
1.0
 40
1.0
 40
1.0
 10
32.86967299160047
 20
9.524316447702892
 30
0.0
 10
32.81457581524906
 20
9.524556517292089
 30
0.0
 10
32.75921474266679
 20
9.50677790857859
 30
0.0
 10
32.71373094333435
 20
9.471443649547934
 30
0.0
  0
SPLINE
  5
447
330
1F
100
AcDbEntity
  8
외형선
  6
Continuous
 62
     1
370
    15
100
AcDbSpline
210
0.0
220
0.0
230
1.0
 70
     8
 71
     3
 72
     8
 73
     4
 74
     0
 42
0.000000001
 43
0.00000001
 40
0.0
 40
0.0
 40
0.0
 40
0.0
 40
1.0
 40
1.0
 40
1.0
 40
1.0
 10
33.95638075367123
 20
9.511367617366878
 30
0.0
 10
33.59432857455457
 20
9.518423384184183
 30
0.0
 10
33.23153278531308
 20
9.522745846941303
 30
0.0
 10
32.8684622670394
 20
9.524321712894851
 30
0.0
  0
SPLINE
  5
448
330
1F
100
AcDbEntity
  8
외형선
  6
Continuous
 62
     1
370
    15
100
AcDbSpline
210
0.0
220
0.0
230
1.0
 70
     8
 71
     3
 72
     8
 73
     4
 74
     0
 42
0.000000001
 43
0.00000001
 40
0.0
 40
0.0
 40
0.0
 40
0.0
 40
1.0
 40
1.0
 40
1.0
 40
1.0
 10
34.11288524549681
 20
9.45443334109788
 30
0.0
 10
34.06820233697286
 20
9.490189240185353
 30
0.0
 10
34.01322966431741
 20
9.510259674739457
 30
0.0
 10
33.95645169944666
 20
9.51136623472208
 30
0.0
  0
SPLINE
  5
449
330
1F
100
AcDbEntity
  8
외형선
  6
Continuous
 62
     1
370
    15
100
AcDbSpline
210
0.0
220
0.0
230
1.0
 70
     8
 71
     3
 72
    10
 73
     6
 74
     0
 42
0.000000001
 43
0.00000001
 40
0.0
 40
0.0
 40
0.0
 40
0.0
 40
0.5
 40
0.5
 40
1.0
 40
1.0
 40
1.0
 40
1.0
 10
34.73753466828947
 20
9.43808046289635
 30
0.0
 10
34.64497551419876
 20
9.368149017313835
 30
0.0
 10
34.53256837251874
 20
9.335262750717922
 30
0.0
 10
34.30814565525688
 20
9.343610809365805
 30
0.0
 10
34.20109317278056
 20
9.383848102784759
 30
0.0
 10
34.11288524549704
 20
9.454433341097696
 30
0.0
  0
SPLINE
  5
44A
330
1F
100
AcDbEntity
  8
외형선
  6
Continuous
 62
     1
370
    15
100
AcDbSpline
210
0.0
220
0.0
230
1.0
 70
     8
 71
     3
 72
     8
 73
     4
 74
     0
 42
0.000000001
 43
0.00000001
 40
0.0
 40
0.0
 40
0.0
 40
0.0
 40
1.0
 40
1.0
 40
1.0
 40
1.0
 10
34.89342776245033
 20
9.486992752723333
 30
0.0
 10
34.83834680487746
 20
9.488782823549341
 30
0.0
 10
34.78300370716832
 20
9.4724337977909
 30
0.0
 10
34.73753466828978
 20
9.438080462896595
 30
0.0
  0
SPLINE
  5
44B
330
1F
100
AcDbEntity
  8
외형선
  6
Continuous
 62
     1
370
    15
100
AcDbSpline
210
0.0
220
0.0
230
1.0
 70
     8
 71
     3
 72
     8
 73
     4
 74
     0
 42
0.000000001
 43
0.00000001
 40
0.0
 40
0.0
 40
0.0
 40
0.0
 40
1.0
 40
1.0
 40
1.0
 40
1.0
 10
35.97900553898275
 20
9.443597683481796
 30
0.0
 10
35.616367042162
 20
9.460800775246435
 30
0.0
 10
35.25388646600996
 20
9.475285196900662
 30
0.0
 10
34.89203156861603
 20
9.487038114046213
 30
0.0
  0
SPLINE
  5
44C
330
1F
100
AcDbEntity
  8
외형선
  6
Continuous
 62
     1
370
    15
100
AcDbSpline
210
0.0
220
0.0
230
1.0
 70
     8
 71
     3
 72
     8
 73
     4
 74
     0
 42
0.000000001
 43
0.00000001
 40
0.0
 40
0.0
 40
0.0
 40
0.0
 40
1.0
 40
1.0
 40
1.0
 40
1.0
 10
36.13611209960035
 20
9.38205694761074
 30
0.0
 10
36.09145957277406
 20
9.419192885559445
 30
0.0
 10
36.03651072051085
 20
9.440869122070678
 30
0.0
 10
35.97975916639736
 20
9.443561928490391
 30
0.0
  0
SPLINE
  5
44D
330
1F
100
AcDbEntity
  8
외형선
  6
Continuous
 62
     1
370
    15
100
AcDbSpline
210
0.0
220
0.0
230
1.0
 70
     8
 71
     3
 72
    10
 73
     6
 74
     0
 42
0.000000001
 43
0.00000001
 40
0.0
 40
0.0
 40
0.0
 40
0.0
 40
0.5
 40
0.5
 40
1.0
 40
1.0
 40
1.0
 40
1.0
 10
36.76046714374013
 20
9.348415595748966
 30
0.0
 10
36.6679722619904
 20
9.280902713745844
 30
0.0
 10
36.55562622155756
 20
9.250886505579045
 30
0.0
 10
36.33128254948744
 20
9.26536962648411
 30
0.0
 10
36.22426371105418
 20
9.30874434907008
 30
0.0
 10
36.13611209960057
 20
9.382056947610574
 30
0.0
  0
SPLINE
  5
44E
330
1F
100
AcDbEntity
  8
외형선
  6
Continuous
 62
     1
370
    15
100
AcDbSpline
210
0.0
220
0.0
230
1.0
 70
     8
 71
     3
 72
     9
 73
     5
 74
     0
 42
0.000000001
 43
0.00000001
 40
0.0
 40
0.0
 40
0.0
 40
0.0
 40
0.5017549367372514
 40
1.0
 40
1.0
 40
1.0
 40
1.0
 10
17.26065579950809
 20
-8.12964700162411
 30
0.0
 10
17.30997858713096
 20
-8.096037203966661
 30
0.0
 10
17.40827913987405
 20
-8.029052715730236
 30
0.0
 10
17.52091135716549
 20
-8.001982448100522
 30
0.0
 10
17.57702980339528
 20
-7.988494820892813
 30
0.0
  0
SPLINE
  5
44F
330
1F
100
AcDbEntity
  8
외형선
  6
Continuous
 62
     1
370
    15
100
AcDbSpline
210
0.0
220
0.0
230
1.0
 70
     8
 71
     3
 72
     8
 73
     4
 74
     0
 42
0.000000001
 43
0.00000001
 40
0.0
 40
0.0
 40
0.0
 40
0.0
 40
1.0
 40
1.0
 40
1.0
 40
1.0
 10
17.10462342626695
 20
-8.20038226783396
 30
0.0
 10
17.15974858836582
 20
-8.190173014395658
 30
0.0
 10
17.21513890228029
 20
-8.165717292391255
 30
0.0
 10
17.26065508938586
 20
-8.129647228402636
 30
0.0
  0
SPLINE
  5
450
330
1F
100
AcDbEntity
  8
외형선
  6
Continuous
 62
     1
370
    15
100
AcDbSpline
210
0.0
220
0.0
230
1.0
 70
     8
 71
     3
 72
     8
 73
     4
 74
     0
 42
0.000000001
 43
0.00000001
 40
0.0
 40
0.0
 40
0.0
 40
0.0
 40
1.0
 40
1.0
 40
1.0
 40
1.0
 10
17.1053273789496
 20
-8.20025189180145
 30
0.0
 10
16.74356908755951
 20
-8.267253150371957
 30
0.0
 10
16.38124527433928
 20
-8.331936724648797
 30
0.0
 10
16.01882313103175
 20
-8.394214774083208
 30
0.0
  0
SPLINE
  5
451
330
1F
100
AcDbEntity
  8
외형선
  6
Continuous
 62
     1
370
    15
100
AcDbSpline
210
0.0
220
0.0
230
1.0
 70
     8
 71
     3
 72
     8
 73
     4
 74
     0
 42
0.000000001
 43
0.00000001
 40
0.0
 40
0.0
 40
0.0
 40
0.0
 40
1.0
 40
1.0
 40
1.0
 40
1.0
 10
15.86051714808919
 20
-8.377807820035528
 30
0.0
 10
15.9052476977912
 20
-8.398329041124606
 30
0.0
 10
15.96026451870154
 20
-8.40427615991361
 30
0.0
 10
16.0170829505274
 20
-8.394513785349977
 30
0.0
  0
SPLINE
  5
452
330
1F
100
AcDbEntity
  8
외형선
  6
Continuous
 62
     1
370
    15
100
AcDbSpline
210
0.0
220
0.0
230
1.0
 70
     8
 71
     3
 72
    10
 73
     6
 74
     0
 42
0.000000001
 43
0.00000001
 40
0.0
 40
0.0
 40
0.0
 40
0.0
 40
0.5
 40
0.5
 40
1.0
 40
1.0
 40
1.0
 40
1.0
 10
15.23538445631709
 20
-8.480862803304431
 30
0.0
 10
15.32800808306236
 20
-8.406325610982424
 30
0.0
 10
15.44048420016532
 20
-8.359366982427067
 30
0.0
 10
15.66507358319429
 20
-8.3248145644482
 30
0.0
 10
15.77221919767906
 20
-8.337299000578803
 30
0.0
 10
15.86051714808917
 20
-8.37780782003552
 30
0.0
  0
SPLINE
  5
453
330
1F
100
AcDbEntity
  8
외형선
  6
Continuous
 62
     1
370
    15
100
AcDbSpline
210
0.0
220
0.0
230
1.0
 70
     8
 71
     3
 72
     8
 73
     4
 74
     0
 42
0.000000001
 43
0.00000001
 40
0.0
 40
0.0
 40
0.0
 40
0.0
 40
1.0
 40
1.0
 40
1.0
 40
1.0
 10
15.07938164075905
 20
-8.550223712013876
 30
0.0
 10
15.13449791466255
 20
-8.541389074084465
 30
0.0
 10
15.18987961851096
 20
-8.517482000439356
 30
0.0
 10
15.23538445631706
 20
-8.480862803304461
 30
0.0
  0
SPLINE
  5
454
330
1F
100
AcDbEntity
  8
외형선
  6
Continuous
 62
     1
370
    15
100
AcDbSpline
210
0.0
220
0.0
230
1.0
 70
     8
 71
     3
 72
     8
 73
     4
 74
     0
 42
0.000000001
 43
0.00000001
 40
0.0
 40
0.0
 40
0.0
 40
0.0
 40
1.0
 40
1.0
 40
1.0
 40
1.0
 10
15.08077604569019
 20
-8.550000189611042
 30
0.0
 10
14.71747499889901
 20
-8.60824027853438
 30
0.0
 10
14.35448184950332
 20
-8.663994410664495
 30
0.0
 10
13.99226621141702
 20
-8.717197734767517
 30
0.0
  0
SPLINE
  5
455
330
1F
100
AcDbEntity
  8
외형선
  6
Continuous
 62
     1
370
    15
100
AcDbSpline
210
0.0
220
0.0
230
1.0
 70
     8
 71
     3
 72
     8
 73
     4
 74
     0
 42
0.000000001
 43
0.00000001
 40
0.0
 40
0.0
 40
0.0
 40
0.0
 40
1.0
 40
1.0
 40
1.0
 40
1.0
 10
13.83554495206126
 20
-8.694271987797027
 30
0.0
 10
13.88026231423662
 20
-8.717428541203134
 30
0.0
 10
13.93526473068437
 20
-8.725570147245614
 30
0.0
 10
13.9920720550134
 20
-8.717226252813655
 30
0.0
  0
SPLINE
  5
456
330
1F
100
AcDbEntity
  8
외형선
  6
Continuous
 62
     1
370
    15
100
AcDbSpline
210
0.0
220
0.0
230
1.0
 70
     8
 71
     3
 72
    10
 73
     6
 74
     0
 42
0.000000001
 43
0.00000001
 40
0.0
 40
0.0
 40
0.0
 40
0.0
 40
0.5
 40
0.5
 40
1.0
 40
1.0
 40
1.0
 40
1.0
 10
13.21055609656845
 20
-8.781652889870683
 30
0.0
 10
13.30317144558182
 20
-8.706387739471335
 30
0.0
 10
13.4156368829028
 20
-8.660625874673382
 30
0.0
 10
13.64016969083239
 20
-8.631757230595358
 30
0.0
 10
13.74727589056712
 20
-8.648562510825188
 30
0.0
 10
13.83554495206126
 20
-8.694271987797013
 30
0.0
  0
SPLINE
  5
457
330
1F
100
AcDbEntity
  8
외형선
  6
Continuous
 62
     1
370
    15
100
AcDbSpline
210
0.0
220
0.0
230
1.0
 70
     8
 71
     3
 72
     8
 73
     4
 74
     0
 42
0.000000001
 43
0.00000001
 40
0.0
 40
0.0
 40
0.0
 40
0.0
 40
1.0
 40
1.0
 40
1.0
 40
1.0
 10
13.05458758980831
 20
-8.84928225424536
 30
0.0
 10
13.10969261190449
 20
-8.841860068617326
 30
0.0
 10
13.16506140359139
 20
-8.818624784332737
 30
0.0
 10
13.21055609656842
 20
-8.781652889870694
 30
0.0
  0
SPLINE
  5
458
330
1F
100
AcDbEntity
  8
외형선
  6
Continuous
 62
     1
370
    15
100
AcDbSpline
210
0.0
220
0.0
230
1.0
 70
     8
 71
     3
 72
    10
 73
     6
 74
     0
 42
0.000000001
 43
0.00000001
 40
0.0
 40
0.0
 40
0.0
 40
0.0
 40
0.5
 40
0.5
 40
0.740688505451666
 40
0.740688505451666
 40
0.740688505451666
 40
0.740688505451666
 10
13.47416793245412
 20
-7.06864043999231
 30
0.0
 10
13.38160327139231
 20
-6.999888829731848
 30
0.0
 10
13.26920321447218
 20
-6.950864758986917
 30
0.0
 10
13.10294384138194
 20
-6.91187710520291
 30
0.0
 10
13.05011064336168
 20
-6.904613425658177
 30
0.0
 10
13.0
 20
-6.902807787766674
 30
0.0
  0
SPLINE
  5
459
330
1F
100
AcDbEntity
  8
외형선
  6
Continuous
 62
     1
370
    15
100
AcDbSpline
210
0.0
220
0.0
230
1.0
 70
     8
 71
     3
 72
     8
 73
     4
 74
     0
 42
0.000000001
 43
0.00000001
 40
0.0
 40
0.0
 40
0.0
 40
0.0
 40
1.0
 40
1.0
 40
1.0
 40
1.0
 10
13.63010306518498
 20
-7.140884003022215
 30
0.0
 10
13.57501224447702
 20
-7.127591163663745
 30
0.0
 10
13.51965388174057
 20
-7.102424739764988
 30
0.0
 10
13.47416793245409
 20
-7.068640439992299
 30
0.0
  0
SPLINE
  5
45A
330
1F
100
AcDbEntity
  8
외형선
  6
Continuous
 62
     1
370
    15
100
AcDbSpline
210
0.0
220
0.0
230
1.0
 70
     8
 71
     3
 72
     8
 73
     4
 74
     0
 42
0.000000001
 43
0.00000001
 40
0.0
 40
0.0
 40
0.0
 40
0.0
 40
1.0
 40
1.0
 40
1.0
 40
1.0
 10
14.72002949749638
 20
-7.39737403123288
 30
0.0
 10
14.35599763092821
 20
-7.313922327562596
 30
0.0
 10
13.99272861680647
 20
-7.228382995591616
 30
0.0
 10
13.62975443003273
 20
-7.140799880409091
 30
0.0
  0
SPLINE
  5
45B
330
1F
100
AcDbEntity
  8
외형선
  6
Continuous
 62
     1
370
    15
100
AcDbSpline
210
0.0
220
0.0
230
1.0
 70
     8
 71
     3
 72
     8
 73
     4
 74
     0
 42
0.000000001
 43
0.00000001
 40
0.0
 40
0.0
 40
0.0
 40
0.0
 40
1.0
 40
1.0
 40
1.0
 40
1.0
 10
14.87353059223864
 20
-7.395765033686251
 30
0.0
 10
14.82882494499162
 20
-7.409307604969587
 30
0.0
 10
14.77383168305062
 20
-7.409709644026107
 30
0.0
 10
14.71703662686888
 20
-7.396687887069598
 30
0.0
  0
SPLINE
  5
45C
330
1F
100
AcDbEntity
  8
외형선
  6
Continuous
 62
     1
370
    15
100
AcDbSpline
210
0.0
220
0.0
230
1.0
 70
     8
 71
     3
 72
    10
 73
     6
 74
     0
 42
0.000000001
 43
0.00000001
 40
0.0
 40
0.0
 40
0.0
 40
0.0
 40
0.5
 40
0.5
 40
1.0
 40
1.0
 40
1.0
 40
1.0
 10
15.49847423714539
 20
-7.534850746707656
 30
0.0
 10
15.40587685215446
 20
-7.463925209749329
 30
0.0
 10
15.29342960563915
 20
-7.415175219575351
 30
0.0
 10
15.06889935006085
 20
-7.36749643705466
 30
0.0
 10
14.96178669512869
 20
-7.369029830459786
 30
0.0
 10
14.87353059223938
 20
-7.39576503368737
 30
0.0
  0
SPLINE
  5
45D
330
1F
100
AcDbEntity
  8
외형선
  6
Continuous
 62
     1
370
    15
100
AcDbSpline
210
0.0
220
0.0
230
1.0
 70
     8
 71
     3
 72
     8
 73
     4
 74
     0
 42
0.000000001
 43
0.00000001
 40
0.0
 40
0.0
 40
0.0
 40
0.0
 40
1.0
 40
1.0
 40
1.0
 40
1.0
 10
15.65444893196108
 20
-7.606718372671702
 30
0.0
 10
15.59934059810193
 20
-7.594658738682247
 30
0.0
 10
15.54396849034055
 20
-7.569697349953513
 30
0.0
 10
15.49847423714539
 20
-7.53485074670766
 30
0.0
  0
SPLINE
  5
45E
330
1F
100
AcDbEntity
  8
외형선
  6
Continuous
 62
     1
370
    15
100
AcDbSpline
210
0.0
220
0.0
230
1.0
 70
     8
 71
     3
 72
     8
 73
     4
 74
     0
 42
0.000000001
 43
0.00000001
 40
0.0
 40
0.0
 40
0.0
 40
0.0
 40
1.0
 40
1.0
 40
1.0
 40
1.0
 10
16.7412476819505
 20
-7.837974740588448
 30
0.0
 10
16.37963563554852
 20
-7.763217034643112
 30
0.0
 10
16.01761553789208
 20
-7.686187088483896
 30
0.0
 10
15.6556534808015
 20
-7.606981962082324
 30
0.0
  0
SPLINE
  5
45F
330
1F
100
AcDbEntity
  8
외형선
  6
Continuous
 62
     1
370
    15
100
AcDbSpline
210
0.0
220
0.0
230
1.0
 70
     8
 71
     3
 72
     8
 73
     4
 74
     0
 42
0.000000001
 43
0.00000001
 40
0.0
 40
0.0
 40
0.0
 40
0.0
 40
1.0
 40
1.0
 40
1.0
 40
1.0
 10
16.89823942649186
 20
-7.830682418009411
 30
0.0
 10
16.85351607305358
 20
-7.847139429614911
 30
0.0
 10
16.79850709615405
 20
-7.849811956056216
 30
0.0
 10
16.74169445741578
 20
-7.838067103403256
 30
0.0
  0
SPLINE
  5
460
330
1F
100
AcDbEntity
  8
외형선
  6
Continuous
 62
     1
370
    15
100
AcDbSpline
210
0.0
220
0.0
230
1.0
 70
     8
 71
     3
 72
    10
 73
     6
 74
     0
 42
0.000000001
 43
0.00000001
 40
0.0
 40
0.0
 40
0.0
 40
0.0
 40
0.5000000000000003
 40
0.5000000000000003
 40
1.0
 40
1.0
 40
1.0
 40
1.0
 10
17.52336165490154
 20
-7.955776677831098
 30
0.0
 10
17.43073471547088
 20
-7.883015610828243
 30
0.0
 10
17.31826870710452
 20
-7.834753171234722
 30
0.0
 10
17.0936824749368
 20
-7.792185030361621
 30
0.0
 10
16.9865368398354
 20
-7.798191304431933
 30
0.0
 10
16.89823942649193
 20
-7.830682418009415
 30
0.0
  0
SPLINE
  5
461
330
1F
100
AcDbEntity
  8
외형선
  6
Continuous
 62
     1
370
    15
100
AcDbSpline
210
0.0
220
0.0
230
1.0
 70
     8
 71
     3
 72
     8
 73
     4
 74
     0
 42
0.000000001
 43
0.00000001
 40
0.0
 40
0.0
 40
0.0
 40
0.0
 40
1.0
 40
1.0
 40
1.0
 40
1.0
 10
17.67937540776123
 20
-8.027003883523813
 30
0.0
 10
17.62425943104292
 20
-8.016187506735406
 30
0.0
 10
17.56887439804532
 20
-7.991528218081955
 30
0.0
 10
17.52336165490154
 20
-7.955776677831105
 30
0.0
  0
SPLINE
  5
462
330
1F
100
AcDbEntity
  8
외형선
  6
Continuous
 62
     1
370
    15
100
AcDbSpline
210
0.0
220
0.0
230
1.0
 70
     8
 71
     3
 72
     8
 73
     4
 74
     0
 42
0.000000001
 43
0.00000001
 40
0.0
 40
0.0
 40
0.0
 40
0.0
 40
1.0
 40
1.0
 40
1.0
 40
1.0
 10
18.76681490451264
 20
-8.233288714927438
 30
0.0
 10
18.40409773730288
 20
-8.166912325678274
 30
0.0
 10
18.0422889025235
 20
-8.09822029519557
 30
0.0
 10
17.68047822002944
 20
-8.02722030093757
 30
0.0
  0
SPLINE
  5
463
330
1F
100
AcDbEntity
  8
외형선
  6
Continuous
 62
     1
370
    15
100
AcDbSpline
210
0.0
220
0.0
230
1.0
 70
     8
 71
     3
 72
     8
 73
     4
 74
     0
 42
0.000000001
 43
0.00000001
 40
0.0
 40
0.0
 40
0.0
 40
0.0
 40
1.0
 40
1.0
 40
1.0
 40
1.0
 10
18.9234841053776
 20
-8.219485132998669
 30
0.0
 10
18.87874600225516
 20
-8.238770196991588
 30
0.0
 10
18.82372420915279
 20
-8.243702923351496
 30
0.0
 10
18.76690137290245
 20
-8.233304538393547
 30
0.0
  0
SPLINE
  5
464
330
1F
100
AcDbEntity
  8
외형선
  6
Continuous
 62
     1
370
    15
100
AcDbSpline
210
0.0
220
0.0
230
1.0
 70
     8
 71
     3
 72
    10
 73
     6
 74
     0
 42
0.000000001
 43
0.00000001
 40
0.0
 40
0.0
 40
0.0
 40
0.0
 40
0.5
 40
0.5
 40
1.0
 40
1.0
 40
1.0
 40
1.0
 10
19.54871989514837
 20
-8.329504485888458
 30
0.0
 10
19.45607449435195
 20
-8.255421891209481
 30
0.0
 10
19.3435766710065
 20
-8.208006297248414
 30
0.0
 10
19.11895547266177
 20
-8.170929536811443
 30
0.0
 10
19.01179629312625
 20
-8.181416773519326
 30
0.0
 10
18.92348410537763
 20
-8.219485132998654
 30
0.0
  0
SPLINE
  5
465
330
1F
100
AcDbEntity
  8
외형선
  6
Continuous
 62
     1
370
    15
100
AcDbSpline
210
0.0
220
0.0
230
1.0
 70
     8
 71
     3
 72
     8
 73
     4
 74
     0
 42
0.000000001
 43
0.00000001
 40
0.0
 40
0.0
 40
0.0
 40
0.0
 40
1.0
 40
1.0
 40
1.0
 40
1.0
 10
19.70475343214603
 20
-8.39951548075218
 30
0.0
 10
19.64962647079105
 20
-8.390063472198728
 30
0.0
 10
19.59423447624751
 20
-8.365899581970536
 30
0.0
 10
19.54871989514837
 20
-8.329504485888439
 30
0.0
  0
SPLINE
  5
466
330
1F
100
AcDbEntity
  8
외형선
  6
Continuous
 62
     1
370
    15
100
AcDbSpline
210
0.0
220
0.0
230
1.0
 70
     8
 71
     3
 72
     8
 73
     4
 74
     0
 42
0.000000001
 43
0.00000001
 40
0.0
 40
0.0
 40
0.0
 40
0.0
 40
1.0
 40
1.0
 40
1.0
 40
1.0
 10
20.79162216277697
 20
-8.578609323690499
 30
0.0
 10
20.43057279035732
 20
-8.521528604600071
 30
0.0
 10
20.06914253754282
 20
-8.46197967391687
 30
0.0
 10
19.7077952310087
 20
-8.400036967407265
 30
0.0
  0
SPLINE
  5
467
330
1F
100
AcDbEntity
  8
외형선
  6
Continuous
 62
     1
370
    15
100
AcDbSpline
210
0.0
220
0.0
230
1.0
 70
     8
 71
     3
 72
     8
 73
     4
 74
     0
 42
0.000000001
 43
0.00000001
 40
0.0
 40
0.0
 40
0.0
 40
0.0
 40
1.0
 40
1.0
 40
1.0
 40
1.0
 10
20.94903254412738
 20
-8.55856542437631
 30
0.0
 10
20.90428682367966
 20
-8.580556904779622
 30
0.0
 10
20.84925792661429
 20
-8.58772078219572
 30
0.0
 10
20.79242599245858
 20
-8.578736402544296
 30
0.0
  0
SPLINE
  5
468
330
1F
100
AcDbEntity
  8
외형선
  6
Continuous
 62
     1
370
    15
100
AcDbSpline
210
0.0
220
0.0
230
1.0
 70
     8
 71
     3
 72
    10
 73
     6
 74
     0
 42
0.000000001
 43
0.00000001
 40
0.0
 40
0.0
 40
0.0
 40
0.0
 40
0.5000000000000003
 40
0.5000000000000003
 40
1.0
 40
1.0
 40
1.0
 40
1.0
 10
21.57435142753179
 20
-8.653098075728714
 30
0.0
 10
21.48169299960342
 20
-8.578078156131536
 30
0.0
 10
21.36919272410134
 20
-8.531737369472369
 30
0.0
 10
21.14454509155185
 20
-8.500275761085973
 30
0.0
 10
21.03736792242248
 20
-8.515150641437117
 30
0.0
 10
20.94903254412745
 20
-8.558565424376285
 30
0.0
  0
SPLINE
  5
469
330
1F
100
AcDbEntity
  8
외형선
  6
Continuous
 62
     1
370
    15
100
AcDbSpline
210
0.0
220
0.0
230
1.0
 70
     8
 71
     3
 72
     8
 73
     4
 74
     0
 42
0.000000001
 43
0.00000001
 40
0.0
 40
0.0
 40
0.0
 40
0.0
 40
1.0
 40
1.0
 40
1.0
 40
1.0
 10
21.73040347801918
 20
-8.721594885523052
 30
0.0
 10
21.67527512428764
 20
-8.713517919377237
 30
0.0
 10
21.61987709809947
 20
-8.689957455085288
 30
0.0
 10
21.57435142753179
 20
-8.653098075728725
 30
0.0
  0
SPLINE
  5
46A
330
1F
100
AcDbEntity
  8
외형선
  6
Continuous
 62
     1
370
    15
100
AcDbSpline
210
0.0
220
0.0
230
1.0
 70
     8
 71
     3
 72
     8
 73
     4
 74
     0
 42
0.000000001
 43
0.00000001
 40
0.0
 40
0.0
 40
0.0
 40
0.0
 40
1.0
 40
1.0
 40
1.0
 40
1.0
 10
22.8183429112085
 20
-8.873344073087544
 30
0.0
 10
22.45510234253763
 20
-8.825282405569311
 30
0.0
 10
22.09288922180693
 20
-8.774703364677137
 30
0.0
 10
21.7304117894997
 20
-8.721596103254328
 30
0.0
  0
SPLINE
  5
46B
330
1F
100
AcDbEntity
  8
외형선
  6
Continuous
 62
     1
370
    15
100
AcDbSpline
210
0.0
220
0.0
230
1.0
 70
     8
 71
     3
 72
     8
 73
     4
 74
     0
 42
0.000000001
 43
0.00000001
 40
0.0
 40
0.0
 40
0.0
 40
0.0
 40
1.0
 40
1.0
 40
1.0
 40
1.0
 10
22.97481056674584
 20
-8.846917375885909
 30
0.0
 10
22.93005981070087
 20
-8.871490996736759
 30
0.0
 10
22.87502682018376
 20
-8.880844237258126
 30
0.0
 10
22.81819317486764
 20
-8.873324260785346
 30
0.0
  0
SPLINE
  5
46C
330
1F
100
AcDbEntity
  8
외형선
  6
Continuous
 62
     1
370
    15
100
AcDbSpline
210
0.0
220
0.0
230
1.0
 70
     8
 71
     3
 72
    10
 73
     6
 74
     0
 42
0.000000001
 43
0.00000001
 40
0.0
 40
0.0
 40
0.0
 40
0.0
 40
0.5
 40
0.5
 40
1.0
 40
1.0
 40
1.0
 40
1.0
 10
23.6001484848961
 20
-8.925174769457136
 30
0.0
 10
23.50748636403912
 20
-8.849720317815612
 30
0.0
 10
23.39497019385529
 20
-8.804778212643896
 30
0.0
 10
23.17031781557588
 20
-8.779208228423244
 30
0.0
 10
23.06314285322551
 20
-8.798412181590175
 30
0.0
 10
22.97481056674589
 20
-8.84691737588588
 30
0.0
  0
SPLINE
  5
46D
330
1F
100
AcDbEntity
  8
외형선
  6
Continuous
 62
     1
370
    15
100
AcDbSpline
210
0.0
220
0.0
230
1.0
 70
     8
 71
     3
 72
     8
 73
     4
 74
     0
 42
0.000000001
 43
0.00000001
 40
0.0
 40
0.0
 40
0.0
 40
0.0
 40
1.0
 40
1.0
 40
1.0
 40
1.0
 10
23.7562000088777
 20
-8.991643207786971
 30
0.0
 10
23.70106736039313
 20
-8.985029058726544
 30
0.0
 10
23.64566933529758
 20
-8.962242243992964
 30
0.0
 10
23.6001484848961
 20
-8.925174769457138
 30
0.0
  0
SPLINE
  5
46E
330
1F
100
AcDbEntity
  8
외형선
  6
Continuous
 62
     1
370
    15
100
AcDbSpline
210
0.0
220
0.0
230
1.0
 70
     8
 71
     3
 72
     8
 73
     4
 74
     0
 42
0.000000001
 43
0.00000001
 40
0.0
 40
0.0
 40
0.0
 40
0.0
 40
1.0
 40
1.0
 40
1.0
 40
1.0
 10
24.84224770186484
 20
-9.114179660146057
 30
0.0
 10
24.48024776535661
 20
-9.075921846345528
 30
0.0
 10
24.11789085877533
 20
-9.03503715041772
 30
0.0
 10
23.75564438932258
 20
-8.991576549236084
 30
0.0
  0
SPLINE
  5
46F
330
1F
100
AcDbEntity
  8
외형선
  6
Continuous
 62
     1
370
    15
100
AcDbSpline
210
0.0
220
0.0
230
1.0
 70
     8
 71
     3
 72
     8
 73
     4
 74
     0
 42
0.000000001
 43
0.00000001
 40
0.0
 40
0.0
 40
0.0
 40
0.0
 40
1.0
 40
1.0
 40
1.0
 40
1.0
 10
25.00058049668095
 20
-9.081873645435152
 30
0.0
 10
24.95583244549046
 20
-9.108877504712728
 30
0.0
 10
24.90080117268243
 20
-9.120366553433133
 30
0.0
 10
24.84396712161085
 20
-9.11436135684945
 30
0.0
  0
SPLINE
  5
470
330
1F
100
AcDbEntity
  8
외형선
  6
Continuous
 62
     1
370
    15
100
AcDbSpline
210
0.0
220
0.0
230
1.0
 70
     8
 71
     3
 72
    10
 73
     6
 74
     0
 42
0.000000001
 43
0.00000001
 40
0.0
 40
0.0
 40
0.0
 40
0.0
 40
0.5
 40
0.5
 40
1.0
 40
1.0
 40
1.0
 40
1.0
 10
25.62590377814533
 20
-9.143547802613309
 30
0.0
 10
25.53324551922795
 20
-9.068075075513267
 30
0.0
 10
25.42074356695807
 20
-9.024763874034468
 30
0.0
 10
25.19609501892565
 20
-9.00516888702408
 30
0.0
 10
25.08891742493338
 20
-9.02856544728838
 30
0.0
 10
25.00058049668095
 20
-9.08187364543514
 30
0.0
  0
SPLINE
  5
471
330
1F
100
AcDbEntity
  8
외형선
  6
Continuous
 62
     1
370
    15
100
AcDbSpline
210
0.0
220
0.0
230
1.0
 70
     8
 71
     3
 72
     8
 73
     4
 74
     0
 42
0.000000001
 43
0.00000001
 40
0.0
 40
0.0
 40
0.0
 40
0.0
 40
1.0
 40
1.0
 40
1.0
 40
1.0
 10
25.78195278082733
 20
-9.207670289219102
 30
0.0
 10
25.72682514782284
 20
-9.20252781779709
 30
0.0
 10
25.67142814802988
 20
-9.180628667123871
 30
0.0
 10
25.62590377814533
 20
-9.14354780261331
 30
0.0
  0
SPLINE
  5
472
330
1F
100
AcDbEntity
  8
외형선
  6
Continuous
 62
     1
370
    15
100
AcDbSpline
210
0.0
220
0.0
230
1.0
 70
     8
 71
     3
 72
     8
 73
     4
 74
     0
 42
0.000000001
 43
0.00000001
 40
0.0
 40
0.0
 40
0.0
 40
0.0
 40
1.0
 40
1.0
 40
1.0
 40
1.0
 10
26.868207049647
 20
-9.301012550947535
 30
0.0
 10
26.50526160114399
 20
-9.272529560535883
 30
0.0
 10
26.14342580146106
 20
-9.241393675338356
 30
0.0
 10
25.78109785000166
 20
-9.207590533862659
 30
0.0
  0
SPLINE
  5
473
330
1F
100
AcDbEntity
  8
외형선
  6
Continuous
 62
     1
370
    15
100
AcDbSpline
210
0.0
220
0.0
230
1.0
 70
     8
 71
     3
 72
     8
 73
     4
 74
     0
 42
0.000000001
 43
0.00000001
 40
0.0
 40
0.0
 40
0.0
 40
0.0
 40
1.0
 40
1.0
 40
1.0
 40
1.0
 10
27.02626740544198
 20
-9.262754842590578
 30
0.0
 10
26.98152413652119
 20
-9.29203147599237
 30
0.0
 10
26.92649758667962
 20
-9.305585880468069
 30
0.0
 10
26.86967040057871
 20
-9.301127376125653
 30
0.0
  0
SPLINE
  5
474
330
1F
100
AcDbEntity
  8
외형선
  6
Continuous
 62
     1
370
    15
100
AcDbSpline
210
0.0
220
0.0
230
1.0
 70
     8
 71
     3
 72
    10
 73
     6
 74
     0
 42
0.000000001
 43
0.00000001
 40
0.0
 40
0.0
 40
0.0
 40
0.0
 40
0.5
 40
0.5
 40
1.0
 40
1.0
 40
1.0
 40
1.0
 10
27.651514671039
 20
-9.307350015797356
 30
0.0
 10
27.55886756280849
 20
-9.232341168623519
 30
0.0
 10
27.44636575360391
 20
-9.190945604406288
 30
0.0
 10
27.22174281688618
 20
-9.177498808437955
 30
0.0
 10
27.11458325667316
 20
-9.20496758514546
 30
0.0
 10
27.02626740544203
 20
-9.262754842590573
 30
0.0
  0
SPLINE
  5
475
330
1F
100
AcDbEntity
  8
외형선
  6
Continuous
 62
     1
370
    15
100
AcDbSpline
210
0.0
220
0.0
230
1.0
 70
     8
 71
     3
 72
     8
 73
     4
 74
     0
 42
0.000000001
 43
0.00000001
 40
0.0
 40
0.0
 40
0.0
 40
0.0
 40
1.0
 40
1.0
 40
1.0
 40
1.0
 10
27.80754284069697
 20
-9.368681064100109
 30
0.0
 10
27.75241759938589
 20
-9.365064464629727
 30
0.0
 10
27.69702756295239
 20
-9.344198111967561
 30
0.0
 10
27.651514671039
 20
-9.30735001579735
 30
0.0
  0
SPLINE
  5
476
330
1F
100
AcDbEntity
  8
외형선
  6
Continuous
 62
     1
370
    15
100
AcDbSpline
210
0.0
220
0.0
230
1.0
 70
     8
 71
     3
 72
     8
 73
     4
 74
     0
 42
0.000000001
 43
0.00000001
 40
0.0
 40
0.0
 40
0.0
 40
0.0
 40
1.0
 40
1.0
 40
1.0
 40
1.0
 10
28.89516158487285
 20
-9.43194355871385
 30
0.0
 10
28.53276683345356
 20
-9.413562004248833
 30
0.0
 10
28.17003930949622
 20
-9.392463826423315
 30
0.0
 10
27.80744785985164
 20
-9.368674832633879
 30
0.0
  0
SPLINE
  5
477
330
1F
100
AcDbEntity
  8
외형선
  6
Continuous
 62
     1
370
    15
100
AcDbSpline
210
0.0
220
0.0
230
1.0
 70
     8
 71
     3
 72
     8
 73
     4
 74
     0
 42
0.000000001
 43
0.00000001
 40
0.0
 40
0.0
 40
0.0
 40
0.0
 40
1.0
 40
1.0
 40
1.0
 40
1.0
 10
29.05163474355057
 20
-9.387910794876229
 30
0.0
 10
29.00690446119366
 20
-9.419280056460785
 30
0.0
 10
28.95188841641536
 20
-9.434820954970872
 30
0.0
 10
28.89506948417633
 20
-9.431938887081602
 30
0.0
  0
SPLINE
  5
478
330
1F
100
AcDbEntity
  8
외형선
  6
Continuous
 62
     1
370
    15
100
AcDbSpline
210
0.0
220
0.0
230
1.0
 70
     8
 71
     3
 72
    10
 73
     6
 74
     0
 42
0.000000001
 43
0.00000001
 40
0.0
 40
0.0
 40
0.0
 40
0.0
 40
0.5
 40
0.5
 40
1.0
 40
1.0
 40
1.0
 40
1.0
 10
29.67677007059095
 20
-9.415255136207287
 30
0.0
 10
29.58414364609762
 20
-9.34114381357985
 30
0.0
 10
29.47167263715627
 20
-9.3018901629337
 30
0.0
 10
29.24708366374347
 20
-9.294623953363581
 30
0.0
 10
29.13993675880803
 20
-9.325984760228092
 30
0.0
 10
29.05163474355064
 20
-9.387910794876216
 30
0.0
  0
SPLINE
  5
479
330
1F
100
AcDbEntity
  8
외형선
  6
Continuous
 62
     1
370
    15
100
AcDbSpline
210
0.0
220
0.0
230
1.0
 70
     8
 71
     3
 72
     8
 73
     4
 74
     0
 42
0.000000001
 43
0.00000001
 40
0.0
 40
0.0
 40
0.0
 40
0.0
 40
1.0
 40
1.0
 40
1.0
 40
1.0
 10
29.83277476967938
 20
-9.473471902531314
 30
0.0
 10
29.77766092117002
 20
-9.471385859738618
 30
0.0
 10
29.72227893585804
 20
-9.451667231510228
 30
0.0
 10
29.6767700705909
 20
-9.41525513620729
 30
0.0
  0
SPLINE
  5
47A
330
1F
100
AcDbEntity
  8
외형선
  6
Continuous
 62
     1
370
    15
100
AcDbSpline
210
0.0
220
0.0
230
1.0
 70
     8
 71
     3
 72
     8
 73
     4
 74
     0
 42
0.000000001
 43
0.00000001
 40
0.0
 40
0.0
 40
0.0
 40
0.0
 40
1.0
 40
1.0
 40
1.0
 40
1.0
 10
30.91974848636463
 20
-9.506416111091513
 30
0.0
 10
30.55671374449263
 20
-9.498164219983146
 30
0.0
 10
30.19483961636077
 20
-9.487178418735189
 30
0.0
 10
29.83227977519576
 20
-9.473453165450316
 30
0.0
  0
SPLINE
  5
47B
330
1F
100
AcDbEntity
  8
외형선
  6
Continuous
 62
     1
370
    15
100
AcDbSpline
210
0.0
220
0.0
230
1.0
 70
     8
 71
     3
 72
     8
 73
     4
 74
     0
 42
0.000000001
 43
0.00000001
 40
0.0
 40
0.0
 40
0.0
 40
0.0
 40
1.0
 40
1.0
 40
1.0
 40
1.0
 10
31.07660853907956
 20
-9.457005701490983
 30
0.0
 10
31.03189269264769
 20
-9.490282670864133
 30
0.0
 10
30.97689005170857
 20
-9.50771468819501
 30
0.0
 10
30.9200864230904
 20
-9.506423791701595
 30
0.0
  0
SPLINE
  5
47C
330
1F
100
AcDbEntity
  8
외형선
  6
Continuous
 62
     1
370
    15
100
AcDbSpline
210
0.0
220
0.0
230
1.0
 70
     8
 71
     3
 72
    10
 73
     6
 74
     0
 42
0.000000001
 43
0.00000001
 40
0.0
 40
0.0
 40
0.0
 40
0.0
 40
0.5
 40
0.5
 40
1.0
 40
1.0
 40
1.0
 40
1.0
 10
31.70157480112427
 20
-9.46688494509901
 30
0.0
 10
31.60897401187214
 20
-9.394123968821066
 30
0.0
 10
31.49651886818241
 20
-9.357255375940678
 30
0.0
 10
31.27198521630154
 20
-9.356243896630437
 30
0.0
 10
31.16487185164478
 20
-9.391321256638085
 30
0.0
 10
31.07660853907956
 20
-9.457005701490973
 30
0.0
  0
SPLINE
  5
47D
330
1F
100
AcDbEntity
  8
외형선
  6
Continuous
 62
     1
370
    15
100
AcDbSpline
210
0.0
220
0.0
230
1.0
 70
     8
 71
     3
 72
     8
 73
     4
 74
     0
 42
0.000000001
 43
0.00000001
 40
0.0
 40
0.0
 40
0.0
 40
0.0
 40
1.0
 40
1.0
 40
1.0
 40
1.0
 10
31.85753890283956
 20
-9.521615606740326
 30
0.0
 10
31.80243396386643
 20
-9.521081486578927
 30
0.0
 10
31.74706572386653
 20
-9.502629391525893
 30
0.0
 10
31.70157480112427
 20
-9.466884945099014
 30
0.0
  0
SPLINE
  5
47E
330
1F
100
AcDbEntity
  8
외형선
  6
Continuous
 62
     1
370
    15
100
AcDbSpline
210
0.0
220
0.0
230
1.0
 70
     8
 71
     3
 72
     9
 73
     5
 74
     0
 42
0.000000001
 43
0.00000001
 40
0.0
 40
0.0
 40
0.0
 40
0.0
 40
0.8692840791450208
 40
1.0
 40
1.0
 40
1.0
 40
1.0
 10
31.85500767230987
 20
-9.521591477096083
 30
0.0
 10
32.05809216089389
 20
-9.523373838268139
 30
0.0
 10
32.29171485508124
 20
-9.52542421652171
 30
0.0
 10
32.52533147615114
 20
-9.52483169991354
 30
0.0
 10
32.5558688879013
 20
-9.524754248559477
 30
0.0
  0
SPLINE
  5
47F
330
1F
100
AcDbEntity
  8
외형선
  6
Continuous
 62
     1
370
    15
100
AcDbSpline
210
0.0
220
0.0
230
1.0
 70
     8
 71
     3
 72
    12
 73
     8
 74
     0
 42
0.000000001
 43
0.00000001
 40
0.0
 40
0.0
 40
0.0
 40
0.0
 40
0.2499999999999998
 40
0.2499999999999998
 40
0.4999999999999996
 40
0.4999999999999996
 40
1.0
 40
1.0
 40
1.0
 40
1.0
 10
25.27272746656129
 20
2.617416704975083
 30
0.0
 10
25.26161441621608
 20
2.956980838748313
 30
0.0
 10
25.25126801533818
 20
3.283681728087954
 30
0.0
 10
25.22955374484231
 20
3.932503038557099
 30
0.0
 10
25.21823134864471
 20
4.254020664815458
 30
0.0
 10
25.18310795364815
 20
5.199444987378476
 30
0.0
 10
25.15813335771971
 20
5.803984774210763
 30
0.0
 10
25.13249597383619
 20
6.355228767384814
 30
0.0
  0
SPLINE
  5
480
330
1F
100
AcDbEntity
  8
외형선
  6
Continuous
 62
     1
370
    15
100
AcDbSpline
210
0.0
220
0.0
230
1.0
 70
     8
 71
     3
 72
    12
 73
     8
 74
     0
 42
0.000000001
 43
0.00000001
 40
0.0
 40
0.0
 40
0.0
 40
0.0
 40
0.2500000000000002
 40
0.2500000000000002
 40
0.5000000000000003
 40
0.5000000000000003
 40
1.0
 40
1.0
 40
1.0
 40
1.0
 10
26.3592846107783
 20
2.233281414998521
 30
0.0
 10
26.34780979300103
 20
2.581019403639113
 30
0.0
 10
26.33675374679351
 20
2.919893157663493
 30
0.0
 10
26.31562330047561
 20
3.574891020089781
 30
0.0
 10
26.30460736273189
 20
3.900315862157781
 30
0.0
 10
26.27023628532699
 20
4.861845858286992
 30
0.0
 10
26.24561997367677
 20
5.482251022600968
 30
0.0
 10
26.22015197432474
 20
6.053748123120256
 30
0.0
  0
SPLINE
  5
481
330
1F
100
AcDbEntity
  8
외형선
  6
Continuous
 62
     1
370
    15
100
AcDbSpline
210
0.0
220
0.0
230
1.0
 70
     8
 71
     3
 72
    12
 73
     8
 74
     0
 42
0.000000001
 43
0.00000001
 40
0.0
 40
0.0
 40
0.0
 40
0.0
 40
0.2500000000000001
 40
0.2500000000000001
 40
0.5000000000000001
 40
0.5000000000000001
 40
1.0
 40
1.0
 40
1.0
 40
1.0
 10
27.14042103088769
 20
1.937929670252744
 30
0.0
 10
27.12866434449248
 20
2.290128612399075
 30
0.0
 10
27.11730683268343
 20
2.634213662066932
 30
0.0
 10
27.09555034095769
 20
3.300729550794044
 30
0.0
 10
27.08502213966138
 20
3.624616076517478
 30
0.0
 10
27.0511406953722
 20
4.593169846096329
 30
0.0
 10
27.02674560512011
 20
5.221924249738914
 30
0.0
 10
27.00136401915395
 20
5.804987513361647
 30
0.0
  0
SPLINE
  5
482
330
1F
100
AcDbEntity
  8
외형선
  6
Continuous
 62
     1
370
    15
100
AcDbSpline
210
0.0
220
0.0
230
1.0
 70
     8
 71
     3
 72
    12
 73
     8
 74
     0
 42
0.000000001
 43
0.00000001
 40
0.0
 40
0.0
 40
0.0
 40
0.0
 40
0.25
 40
0.25
 40
0.5
 40
0.5
 40
1.0
 40
1.0
 40
1.0
 40
1.0
 10
26.51568936738173
 20
2.158731688137381
 30
0.0
 10
26.50412005120656
 20
2.506914202382886
 30
0.0
 10
26.49296765719355
 20
2.846383764989055
 30
0.0
 10
26.47164548260503
 20
3.502768465670707
 30
0.0
 10
26.46073339686311
 20
3.827040127112154
 30
0.0
 10
26.42635950643577
 20
4.788490432557568
 30
0.0
 10
26.4017099856386
 20
5.40954984232526
 30
0.0
 10
26.37617950910393
 20
5.982198253514602
 30
0.0
  0
SPLINE
  5
483
330
1F
100
AcDbEntity
  8
외형선
  6
Continuous
 62
     1
370
    15
100
AcDbSpline
210
0.0
220
0.0
230
1.0
 70
     8
 71
     3
 72
    12
 73
     8
 74
     0
 42
0.000000001
 43
0.00000001
 40
0.0
 40
0.0
 40
0.0
 40
0.0
 40
0.2500000000000003
 40
0.2500000000000003
 40
0.5000000000000002
 40
0.5000000000000002
 40
1.0
 40
1.0
 40
1.0
 40
1.0
 10
25.11686613313034
 20
2.648872722780043
 30
0.0
 10
25.1057609253173
 20
2.986641470763386
 30
0.0
 10
25.09541642683055
 20
3.311581995894203
 30
0.0
 10
25.07354813587735
 20
3.958097480581459
 30
0.0
 10
25.0621492943927
 20
4.278295997395309
 30
0.0
 10
25.02680408197133
 20
5.219207855834322
 30
0.0
 10
25.00169180320469
 20
5.819983602684415
 30
0.0
 10
24.97594264320279
 20
6.366707428961385
 30
0.0
  0
SPLINE
  5
484
330
1F
100
AcDbEntity
  8
외형선
  6
Continuous
 62
     1
370
    15
100
AcDbSpline
210
0.0
220
0.0
230
1.0
 70
     8
 71
     3
 72
    10
 73
     6
 74
     0
 42
0.000000001
 43
0.00000001
 40
0.0
 40
0.0
 40
0.0
 40
0.0
 40
0.5
 40
0.5
 40
1.0
 40
1.0
 40
1.0
 40
1.0
 10
23.25004213204298
 20
3.315839499198068
 30
0.0
 10
23.22910243967512
 20
3.961136860238534
 30
0.0
 10
23.20624024047358
 20
4.599158076506439
 30
0.0
 10
23.1579798644531
 20
5.806386879069995
 30
0.0
 10
23.13259258711616
 20
6.375107453821363
 30
0.0
 10
23.1068997823976
 20
6.883620444981807
 30
0.0
  0
SPLINE
  5
485
330
1F
100
AcDbEntity
  8
외형선
  6
Continuous
 62
     1
370
    15
100
AcDbSpline
210
0.0
220
0.0
230
1.0
 70
     8
 71
     3
 72
    12
 73
     8
 74
     0
 42
0.000000001
 43
0.00000001
 40
0.0
 40
0.0
 40
0.0
 40
0.0
 40
0.2499999999999999
 40
0.2499999999999999
 40
0.5000000000000001
 40
0.5000000000000001
 40
1.0
 40
1.0
 40
1.0
 40
1.0
 10
24.33606381188542
 20
2.942373704917776
 30
0.0
 10
24.3252871761259
 20
3.274060287338243
 30
0.0
 10
24.31494669030994
 20
3.59569979127574
 30
0.0
 10
24.29274698590537
 20
4.237540465517339
 30
0.0
 10
24.28120822115031
 20
4.55450584479239
 30
0.0
 10
24.24553443165806
 20
5.483097968149869
 30
0.0
 10
24.22032697297472
 20
6.072108823546339
 30
0.0
 10
24.19462139716703
 20
6.604414427999336
 30
0.0
  0
SPLINE
  5
486
330
1F
100
AcDbEntity
  8
외형선
  6
Continuous
 62
     1
370
    15
100
AcDbSpline
210
0.0
220
0.0
230
1.0
 70
     8
 71
     3
 72
    12
 73
     8
 74
     0
 42
0.000000001
 43
0.00000001
 40
0.0
 40
0.0
 40
0.0
 40
0.0
 40
0.25
 40
0.25
 40
0.5
 40
0.5
 40
1.0
 40
1.0
 40
1.0
 40
1.0
 10
24.49240023736203
 20
2.864975919876725
 30
0.0
 10
24.48152014184919
 20
3.197508329656751
 30
0.0
 10
24.47118667911356
 20
3.519019591497388
 30
0.0
 10
24.4489915927301
 20
4.1609126327831
 30
0.0
 10
24.43744704486406
 20
4.478088600083046
 30
0.0
 10
24.40173111451374
 20
5.407804298561304
 30
0.0
 10
24.37646188877625
 20
5.998228271600132
 30
0.0
 10
24.35066673379097
 20
6.532314679667875
 30
0.0
  0
SPLINE
  5
487
330
1F
100
AcDbEntity
  8
외형선
  6
Continuous
 62
     1
370
    15
100
AcDbSpline
210
0.0
220
0.0
230
1.0
 70
     8
 71
     3
 72
    10
 73
     6
 74
     0
 42
0.000000001
 43
0.00000001
 40
0.0
 40
0.0
 40
0.0
 40
0.0
 40
0.4999999999999998
 40
0.4999999999999998
 40
1.0
 40
1.0
 40
1.0
 40
1.0
 10
23.09421536090306
 20
3.342587751810415
 30
0.0
 10
23.07312530458142
 20
3.985785029068294
 30
0.0
 10
23.05011254335633
 20
4.621087638508561
 30
0.0
 10
23.00158055894067
 20
5.821389643208631
 30
0.0
 10
22.97607265990732
 20
6.385896466341995
 30
0.0
 10
22.95028840442794
 20
6.889523282493832
 30
0.0
  0
SPLINE
  5
488
330
1F
100
AcDbEntity
  8
외형선
  6
Continuous
 62
     1
370
    15
100
AcDbSpline
210
0.0
220
0.0
230
1.0
 70
     8
 71
     3
 72
    10
 73
     6
 74
     0
 42
0.000000001
 43
0.00000001
 40
0.0
 40
0.0
 40
0.0
 40
0.0
 40
0.5
 40
0.5
 40
1.0
 40
1.0
 40
1.0
 40
1.0
 10
21.22715965531214
 20
3.995908915740058
 30
0.0
 10
21.20516255441323
 20
4.626486698668041
 30
0.0
 10
21.18146815839238
 20
5.240604699519379
 30
0.0
 10
21.13219167765862
 20
6.382843796852987
 30
0.0
 10
21.10662297196635
 20
6.910499399467481
 30
0.0
 10
21.08110149984437
 20
7.372306372885317
 30
0.0
  0
SPLINE
  5
489
330
1F
100
AcDbEntity
  8
외형선
  6
Continuous
 62
     1
370
    15
100
AcDbSpline
210
0.0
220
0.0
230
1.0
 70
     8
 71
     3
 72
    10
 73
     6
 74
     0
 42
0.000000001
 43
0.00000001
 40
0.0
 40
0.0
 40
0.0
 40
0.0
 40
0.5
 40
0.5
 40
1.0
 40
1.0
 40
1.0
 40
1.0
 10
22.31351361527597
 20
3.632869478518986
 30
0.0
 10
22.2920681447029
 20
4.271976134361717
 30
0.0
 10
22.26880043344507
 20
4.899561034300556
 30
0.0
 10
22.2200254104231
 20
6.077807830436788
 30
0.0
 10
22.19453023927959
 20
6.627989526225781
 30
0.0
 10
22.1688941980922
 20
7.115210019239937
 30
0.0
  0
SPLINE
  5
48A
330
1F
100
AcDbEntity
  8
외형선
  6
Continuous
 62
     1
370
    15
100
AcDbSpline
210
0.0
220
0.0
230
1.0
 70
     8
 71
     3
 72
    10
 73
     6
 74
     0
 42
0.000000001
 43
0.00000001
 40
0.0
 40
0.0
 40
0.0
 40
0.0
 40
0.5
 40
0.5
 40
1.0
 40
1.0
 40
1.0
 40
1.0
 10
22.46985802172539
 20
3.55307306980025
 30
0.0
 10
22.44842986965759
 20
4.192128187412168
 30
0.0
 10
22.42514653468348
 20
4.820450933901208
 30
0.0
 10
22.37627292978961
 20
6.001381190330816
 30
0.0
 10
22.35069482384917
 20
6.553500883539249
 30
0.0
 10
22.32495100055817
 20
7.042913208160483
 30
0.0
  0
SPLINE
  5
48B
330
1F
100
AcDbEntity
  8
외형선
  6
Continuous
 62
     1
370
    15
100
AcDbSpline
210
0.0
220
0.0
230
1.0
 70
     8
 71
     3
 72
    12
 73
     8
 74
     0
 42
0.000000001
 43
0.00000001
 40
0.0
 40
0.0
 40
0.0
 40
0.0
 40
0.25
 40
0.25
 40
0.5
 40
0.5
 40
1.0
 40
1.0
 40
1.0
 40
1.0
 10
13.47416793239118
 20
-7.068640438710842
 30
0.0
 10
13.46240093947075
 20
-6.829062072451077
 30
0.0
 10
13.45103210026799
 20
-6.576782142472636
 30
0.0
 10
13.42925154954219
 20
-6.05348378327478
 30
0.0
 10
13.4187372986493
 20
-5.78195506156573
 30
0.0
 10
13.38488375859072
 20
-4.914089146869211
 30
0.0
 10
13.36050325209695
 20
-4.273516960996936
 30
0.0
 10
13.33513042235754
 20
-3.590746275045241
 30
0.0
  0
SPLINE
  5
48C
330
1F
100
AcDbEntity
  8
외형선
  6
Continuous
 62
     1
370
    15
100
AcDbSpline
210
0.0
220
0.0
230
1.0
 70
     8
 71
     3
 72
    12
 73
     8
 74
     0
 42
0.000000001
 43
0.00000001
 40
0.0
 40
0.0
 40
0.0
 40
0.0
 40
0.2500000000000001
 40
0.2500000000000001
 40
0.5000000000000001
 40
0.5000000000000001
 40
1.0
 40
1.0
 40
1.0
 40
1.0
 10
13.63009855925237
 20
-7.140792461768285
 30
0.0
 10
13.61833636705573
 20
-6.901832442768734
 30
0.0
 10
13.60696543559683
 20
-6.650039665076681
 30
0.0
 10
13.58516762704318
 20
-6.127412095433089
 30
0.0
 10
13.57474291135485
 20
-5.856908613177541
 30
0.0
 10
13.54114270398865
 20
-4.991877482829503
 30
0.0
 10
13.51692729767618
 20
-4.3529189995949
 30
0.0
 10
13.49169780040793
 20
-3.67107928994761
 30
0.0
  0
SPLINE
  5
48D
330
1F
100
AcDbEntity
  8
외형선
  6
Continuous
 62
     1
370
    15
100
AcDbSpline
210
0.0
220
0.0
230
1.0
 70
     8
 71
     3
 72
    12
 73
     8
 74
     0
 42
0.000000001
 43
0.00000001
 40
0.0
 40
0.0
 40
0.0
 40
0.0
 40
0.2500000000000001
 40
0.2500000000000001
 40
0.5000000000000002
 40
0.5000000000000002
 40
1.0
 40
1.0
 40
1.0
 40
1.0
 10
14.71707588569728
 20
-7.397435581202464
 30
0.0
 10
14.7050198135104
 20
-7.167847268180024
 30
0.0
 10
14.69332068797426
 20
-6.924204994880489
 30
0.0
 10
14.67081678808395
 20
-6.41535446528175
 30
0.0
 10
14.66033761467509
 20
-6.152905783001362
 30
0.0
 10
14.62767408586068
 20
-5.320206871301508
 30
0.0
 10
14.60397026550918
 20
-4.70031211009387
 30
0.0
 10
14.57907800051296
 20
-4.033031905955324
 30
0.0
  0
SPLINE
  5
48E
330
1F
100
AcDbEntity
  8
외형선
  6
Continuous
 62
     1
370
    15
100
AcDbSpline
210
0.0
220
0.0
230
1.0
 70
     8
 71
     3
 72
    10
 73
     6
 74
     0
 42
0.000000001
 43
0.00000001
 40
0.0
 40
0.0
 40
0.0
 40
0.0
 40
0.5000000000000002
 40
0.5000000000000002
 40
1.0
 40
1.0
 40
1.0
 40
1.0
 10
21.07126916093617
 20
4.017499713525295
 30
0.0
 10
21.04912353304771
 20
4.645773619205015
 30
0.0
 10
21.02528364321304
 20
5.256947253743752
 30
0.0
 10
20.9757524918921
 20
6.391843983950354
 30
0.0
 10
20.95007503045443
 20
6.91509796640449
 30
0.0
 10
20.92447594652921
 20
7.371900996762415
 30
0.0
  0
SPLINE
  5
48F
330
1F
100
AcDbEntity
  8
외형선
  6
Continuous
 62
     1
370
    15
100
AcDbSpline
210
0.0
220
0.0
230
1.0
 70
     8
 71
     3
 72
    12
 73
     8
 74
     0
 42
0.000000001
 43
0.00000001
 40
0.0
 40
0.0
 40
0.0
 40
0.0
 40
0.2499999999999999
 40
0.2499999999999999
 40
0.4999999999999998
 40
0.4999999999999998
 40
1.0
 40
1.0
 40
1.0
 40
1.0
 10
14.87353059381198
 20
-7.395765063153727
 30
0.0
 10
14.86139206417693
 20
-7.168321849121051
 30
0.0
 10
14.84960690876515
 20
-6.926623371239872
 30
0.0
 10
14.82692842205748
 20
-6.421264000084047
 30
0.0
 10
14.81634522075849
 20
-6.160189797764504
 30
0.0
 10
14.78371691754874
 20
-5.334229743148805
 30
0.0
 10
14.7600090832449
 20
-4.718453979705057
 30
0.0
 10
14.73508371333286
 20
-4.054709587936062
 30
0.0
  0
SPLINE
  5
490
330
1F
100
AcDbEntity
  8
외형선
  6
Continuous
 62
     1
370
    15
100
AcDbSpline
210
0.0
220
0.0
230
1.0
 70
     8
 71
     3
 72
    10
 73
     6
 74
     0
 42
0.000000001
 43
0.00000001
 40
0.0
 40
0.0
 40
0.0
 40
0.0
 40
0.5
 40
0.5
 40
1.0
 40
1.0
 40
1.0
 40
1.0
 10
19.2034390859807
 20
4.651802274591079
 30
0.0
 10
19.18050301853653
 20
5.263461986954288
 30
0.0
 10
19.15612053024515
 20
5.849512970523838
 30
0.0
 10
19.10613546439966
 20
6.91964523301195
 30
0.0
 10
19.08054802556825
 20
7.403304153052664
 30
0.0
 10
19.05534787173997
 20
7.816477680314646
 30
0.0
  0
SPLINE
  5
491
330
1F
100
AcDbEntity
  8
외형선
  6
Continuous
 62
     1
370
    15
100
AcDbSpline
210
0.0
220
0.0
230
1.0
 70
     8
 71
     3
 72
    10
 73
     6
 74
     0
 42
0.000000001
 43
0.00000001
 40
0.0
 40
0.0
 40
0.0
 40
0.0
 40
0.5
 40
0.5
 40
1.0
 40
1.0
 40
1.0
 40
1.0
 10
20.29018086631466
 20
4.303521216964976
 30
0.0
 10
20.26773434872185
 20
4.925796883465329
 30
0.0
 10
20.24370409591339
 20
5.527360132897
 30
0.0
 10
20.19406380256176
 20
6.636933561493334
 30
0.0
 10
20.16846804503555
 20
7.144495843253376
 30
0.0
 10
20.14307891123033
 20
7.583943673591213
 30
0.0
  0
SPLINE
  5
492
330
1F
100
AcDbEntity
  8
외형선
  6
Continuous
 62
     1
370
    15
100
AcDbSpline
210
0.0
220
0.0
230
1.0
 70
     8
 71
     3
 72
    10
 73
     6
 74
     0
 42
0.000000001
 43
0.00000001
 40
0.0
 40
0.0
 40
0.0
 40
0.0
 40
0.5
 40
0.5
 40
1.0
 40
1.0
 40
1.0
 40
1.0
 10
20.44663893244316
 20
4.220970690431306
 30
0.0
 10
20.4241916870595
 20
4.843784574272986
 30
0.0
 10
20.40012599246764
 20
5.446662368976353
 30
0.0
 10
20.35034950205696
 20
6.559920466881449
 30
0.0
 10
20.32465312263267
 20
7.069843414420381
 30
0.0
 10
20.2991420145855
 20
7.511802118442558
 30
0.0
  0
SPLINE
  5
493
330
1F
100
AcDbEntity
  8
외형선
  6
Continuous
 62
     1
370
    15
100
AcDbSpline
210
0.0
220
0.0
230
1.0
 70
     8
 71
     3
 72
    10
 73
     6
 74
     0
 42
0.000000001
 43
0.00000001
 40
0.0
 40
0.0
 40
0.0
 40
0.0
 40
0.5
 40
0.5
 40
1.0
 40
1.0
 40
1.0
 40
1.0
 10
15.4984742370894
 20
-7.534850745697726
 30
0.0
 10
15.47390981243358
 20
-7.091880835038728
 30
0.0
 10
15.45086431471383
 20
-6.59046149027677
 30
0.0
 10
15.40815263041281
 20
-5.515556098475416
 30
0.0
 10
15.38478654133559
 20
-4.911864808716546
 30
0.0
 10
15.36010848396992
 20
-4.25785255089904
 30
0.0
  0
SPLINE
  5
494
330
1F
100
AcDbEntity
  8
외형선
  6
Continuous
 62
     1
370
    15
100
AcDbSpline
210
0.0
220
0.0
230
1.0
 70
     8
 71
     3
 72
    10
 73
     6
 74
     0
 42
0.000000001
 43
0.00000001
 40
0.0
 40
0.0
 40
0.0
 40
0.0
 40
0.5
 40
0.5
 40
1.0
 40
1.0
 40
1.0
 40
1.0
 10
15.65446492059181
 20
-7.607005900583287
 30
0.0
 10
15.62992436304921
 20
-7.165704425896582
 30
0.0
 10
15.60670578088799
 20
-6.664111958951308
 30
0.0
 10
15.56427961541613
 20
-5.593002926397618
 30
0.0
 10
15.54111710017055
 20
-4.991521221612244
 30
0.0
 10
15.51659616725831
 20
-4.338906987021927
 30
0.0
  0
SPLINE
  5
495
330
1F
100
AcDbEntity
  8
외형선
  6
Continuous
 62
     1
370
    15
100
AcDbSpline
210
0.0
220
0.0
230
1.0
 70
     8
 71
     3
 72
    12
 73
     8
 74
     0
 42
0.000000001
 43
0.00000001
 40
0.0
 40
0.0
 40
0.0
 40
0.0
 40
0.4999999999999996
 40
0.4999999999999996
 40
0.7499999999999998
 40
0.7499999999999998
 40
1.0
 40
1.0
 40
1.0
 40
1.0
 10
16.74168844768221
 20
-7.83796626000289
 30
0.0
 10
16.71673007090052
 20
-7.419157704328585
 30
0.0
 10
16.69292957137316
 20
-6.935791995139748
 30
0.0
 10
16.66009239479757
 20
-6.152448991308194
 30
0.0
 10
16.64967849561548
 20
-5.88247683792684
 30
0.0
 10
16.62729739520356
 20
-5.306742413262073
 30
0.0
 10
16.61565491316163
 20
-5.003390381484868
 30
0.0
 10
16.60364906649738
 20
-4.686599568014993
 30
0.0
  0
SPLINE
  5
496
330
1F
100
AcDbEntity
  8
외형선
  6
Continuous
 62
     1
370
    15
100
AcDbSpline
210
0.0
220
0.0
230
1.0
 70
     8
 71
     3
 72
    10
 73
     6
 74
     0
 42
0.000000001
 43
0.00000001
 40
0.0
 40
0.0
 40
0.0
 40
0.0
 40
0.5
 40
0.5
 40
1.0
 40
1.0
 40
1.0
 40
1.0
 10
19.04751076349302
 20
4.667656572361034
 30
0.0
 10
19.02442997025931
 20
5.276817570287877
 30
0.0
 10
18.99990905419892
 20
5.859718216307654
 30
0.0
 10
18.94968956882784
 20
6.92216093273902
 30
0.0
 10
18.92400653538363
 20
7.401279135027268
 30
0.0
 10
18.89874325946388
 20
7.809390658045777
 30
0.0
  0
SPLINE
  5
497
330
1F
100
AcDbEntity
  8
외형선
  6
Continuous
 62
     1
370
    15
100
AcDbSpline
210
0.0
220
0.0
230
1.0
 70
     8
 71
     3
 72
    12
 73
     8
 74
     0
 42
0.000000001
 43
0.00000001
 40
0.0
 40
0.0
 40
0.0
 40
0.0
 40
0.5000000000000001
 40
0.5000000000000001
 40
0.7499999999999999
 40
0.7499999999999999
 40
1.0
 40
1.0
 40
1.0
 40
1.0
 10
16.89823942649176
 20
-7.83068241800707
 30
0.0
 10
16.87313434592919
 20
-7.41665609186172
 30
0.0
 10
16.84916700360994
 20
-6.937324007491918
 30
0.0
 10
16.81607600989435
 20
-6.158894485061433
 30
0.0
 10
16.80566097031502
 20
-5.891034649949164
 30
0.0
 10
16.78329637651107
 20
-5.319699200956132
 30
0.0
 10
16.77165545735588
 20
-5.018452163866113
 30
0.0
 10
16.75964417192512
 20
-4.703643623195191
 30
0.0
  0
SPLINE
  5
498
330
1F
100
AcDbEntity
  8
외형선
  6
Continuous
 62
     1
370
    15
100
AcDbSpline
210
0.0
220
0.0
230
1.0
 70
     8
 71
     3
 72
    10
 73
     6
 74
     0
 42
0.000000001
 43
0.00000001
 40
0.0
 40
0.0
 40
0.0
 40
0.0
 40
0.5
 40
0.5
 40
1.0
 40
1.0
 40
1.0
 40
1.0
 10
18.42264405809235
 20
4.86309572546484
 30
0.0
 10
18.39929922762018
 20
5.465519848607054
 30
0.0
 10
18.37459769284803
 20
6.038873864844147
 30
0.0
 10
18.32422798619196
 20
7.077574465850416
 30
0.0
 10
18.29857573143929
 20
7.54251520113719
 30
0.0
 10
18.2734457037719
 20
7.935244434660023
 30
0.0
  0
SPLINE
  5
499
330
1F
100
AcDbEntity
  8
외형선
  6
Continuous
 62
     1
370
    15
100
AcDbSpline
210
0.0
220
0.0
230
1.0
 70
     8
 71
     3
 72
    12
 73
     8
 74
     0
 42
0.000000001
 43
0.00000001
 40
0.0
 40
0.0
 40
0.0
 40
0.0
 40
0.5000000000000002
 40
0.5000000000000002
 40
0.7500000000000001
 40
0.7500000000000001
 40
1.0
 40
1.0
 40
1.0
 40
1.0
 10
17.5233616548599
 20
-7.955776677172709
 30
0.0
 10
17.49806241804382
 20
-7.555630646056187
 30
0.0
 10
17.47379970546253
 20
-7.087943284263497
 30
0.0
 10
17.44016746554151
 20
-6.322816432939609
 30
0.0
 10
17.42973567366968
 20
-6.060034644768658
 30
0.0
 10
17.40777585738792
 20
-5.502206214571791
 30
0.0
 10
17.39632303049196
 20
-5.207420239773564
 30
0.0
 10
17.38448008441488
 20
-4.898613512958253
 30
0.0
  0
SPLINE
  5
49A
330
1F
100
AcDbEntity
  8
외형선
  6
Continuous
 62
     1
370
    15
100
AcDbSpline
210
0.0
220
0.0
230
1.0
 70
     8
 71
     3
 72
    10
 73
     6
 74
     0
 42
0.000000001
 43
0.00000001
 40
0.0
 40
0.0
 40
0.0
 40
0.0
 40
0.5
 40
0.5
 40
1.0
 40
1.0
 40
1.0
 40
1.0
 10
17.17896824139476
 20
5.280995715992534
 30
0.0
 10
17.15522315956527
 20
5.869409184361368
 30
0.0
 10
17.13030738516389
 20
6.423188899027741
 30
0.0
 10
17.07993718324028
 20
7.414203885440179
 30
0.0
 10
17.05449887253953
 20
7.851079872941652
 30
0.0
 10
17.02977231908901
 20
8.213881389379948
 30
0.0
  0
SPLINE
  5
49B
330
1F
100
AcDbEntity
  8
외형선
  6
Continuous
 62
     1
370
    15
100
AcDbSpline
210
0.0
220
0.0
230
1.0
 70
     8
 71
     3
 72
    10
 73
     6
 74
     0
 42
0.000000001
 43
0.00000001
 40
0.0
 40
0.0
 40
0.0
 40
0.0
 40
0.5
 40
0.5
 40
1.0
 40
1.0
 40
1.0
 40
1.0
 10
18.26614003170774
 20
4.946339480058709
 30
0.0
 10
18.24280994190676
 20
5.54786530737921
 30
0.0
 10
18.2181576312362
 20
6.119578455060529
 30
0.0
 10
18.1679468205613
 20
7.154074134640434
 30
0.0
 10
18.14240402227684
 20
7.616460911114777
 30
0.0
 10
18.11740110917881
 20
8.006547991946851
 30
0.0
  0
SPLINE
  5
49C
330
1F
100
AcDbEntity
  8
외형선
  6
Continuous
 62
     1
370
    15
100
AcDbSpline
210
0.0
220
0.0
230
1.0
 70
     8
 71
     3
 72
    12
 73
     8
 74
     0
 42
0.000000001
 43
0.00000001
 40
0.0
 40
0.0
 40
0.0
 40
0.0
 40
0.5000000000000004
 40
0.5000000000000004
 40
0.7500000000000002
 40
0.7500000000000002
 40
1.0
 40
1.0
 40
1.0
 40
1.0
 10
17.6793904088882
 20
-8.027240302291759
 30
0.0
 10
17.65414428768017
 20
-7.629376142158096
 30
0.0
 10
17.629904827898
 20
-7.163617719318131
 30
0.0
 10
17.59626166452774
 20
-6.400451635556712
 30
0.0
 10
17.58582112058647
 20
-6.138165006506766
 30
0.0
 10
17.56405086332339
 20
-5.582897177827297
 30
0.0
 10
17.55269261352132
 20
-5.289344773775992
 30
0.0
 10
17.54094163960976
 20
-4.98166914356983
 30
0.0
  0
SPLINE
  5
49D
330
1F
100
AcDbEntity
  8
외형선
  6
Continuous
 62
     1
370
    15
100
AcDbSpline
210
0.0
220
0.0
230
1.0
 70
     8
 71
     3
 72
    12
 73
     8
 74
     0
 42
0.000000001
 43
0.00000001
 40
0.0
 40
0.0
 40
0.0
 40
0.0
 40
0.5000000000000002
 40
0.5000000000000002
 40
0.7500000000000001
 40
0.7500000000000001
 40
1.0
 40
1.0
 40
1.0
 40
1.0
 10
18.7668985657462
 20
-8.233263558389432
 30
0.0
 10
18.74140700116126
 20
-7.861124292417562
 30
0.0
 10
18.71673915002648
 20
-7.417695220421068
 30
0.0
 10
18.68225878056066
 20
-6.681066037046067
 30
0.0
 10
18.67118066098512
 20
-6.423720772909226
 30
0.0
 10
18.65000056152819
 20
-5.89204382910132
 30
0.0
 10
18.63908480747656
 20
-5.611252343309014
 30
0.0
 10
18.62766532890682
 20
-5.315027761338461
 30
0.0
  0
SPLINE
  5
49E
330
1F
100
AcDbEntity
  8
외형선
  6
Continuous
 62
     1
370
    15
100
AcDbSpline
210
0.0
220
0.0
230
1.0
 70
     8
 71
     3
 72
    10
 73
     6
 74
     0
 42
0.000000001
 43
0.00000001
 40
0.0
 40
0.0
 40
0.0
 40
0.0
 40
0.5
 40
0.5
 40
1.0
 40
1.0
 40
1.0
 40
1.0
 10
17.02300966307374
 20
5.291103530711359
 30
0.0
 10
16.99911879764127
 20
5.876971675406113
 30
0.0
 10
16.97406637179157
 20
6.427530282424131
 30
0.0
 10
16.92347133767068
 20
7.410725488755523
 30
0.0
 10
16.89794522213511
 20
7.843003119307701
 30
0.0
 10
16.87316509810776
 20
8.200728931076865
 30
0.0
  0
SPLINE
  5
49F
330
1F
100
AcDbEntity
  8
외형선
  6
Continuous
 62
     1
370
    15
100
AcDbSpline
210
0.0
220
0.0
230
1.0
 70
     8
 71
     3
 72
    12
 73
     8
 74
     0
 42
0.000000001
 43
0.00000001
 40
0.0
 40
0.0
 40
0.0
 40
0.0
 40
0.5
 40
0.5
 40
0.75
 40
0.75
 40
1.0
 40
1.0
 40
1.0
 40
1.0
 10
18.92348410537662
 20
-8.219485132983937
 30
0.0
 10
18.8978622059179
 20
-7.852352896870945
 30
0.0
 10
18.8730396968248
 20
-7.413266697609384
 30
0.0
 10
18.83831681699066
 20
-6.682034771535625
 30
0.0
 10
18.82715612802122
 20
-6.426306612944982
 30
0.0
 10
18.80581144100776
 20
-5.897522589540312
 30
0.0
 10
18.79497902030108
 20
-5.619440802746844
 30
0.0
 10
18.78356022931141
 20
-5.325236832832873
 30
0.0
  0
SPLINE
  5
4A0
330
1F
100
AcDbEntity
  8
외형선
  6
Continuous
 62
     1
370
    15
100
AcDbSpline
210
0.0
220
0.0
230
1.0
 70
     8
 71
     3
 72
    10
 73
     6
 74
     0
 42
0.000000001
 43
0.00000001
 40
0.0
 40
0.0
 40
0.0
 40
0.0
 40
0.5
 40
0.5
 40
1.0
 40
1.0
 40
1.0
 40
1.0
 10
16.39795758379621
 20
5.477141663189608
 30
0.0
 10
16.37384391225685
 20
6.054995798087154
 30
0.0
 10
16.348659107054
 20
6.594791171273256
 30
0.0
 10
16.2980127427742
 20
7.552272600293486
 30
0.0
 10
16.27256780826642
 20
7.96962326343658
 30
0.0
 10
16.24796582058494
 20
8.311537470520067
 30
0.0
  0
SPLINE
  5
4A1
330
1F
100
AcDbEntity
  8
외형선
  6
Continuous
 62
     1
370
    15
100
AcDbSpline
210
0.0
220
0.0
230
1.0
 70
     8
 71
     3
 72
    12
 73
     8
 74
     0
 42
0.000000001
 43
0.00000001
 40
0.0
 40
0.0
 40
0.0
 40
0.0
 40
0.5
 40
0.5
 40
0.75
 40
0.75
 40
1.0
 40
1.0
 40
1.0
 40
1.0
 10
19.54871989512171
 20
-8.329504485523705
 30
0.0
 10
19.5230048028041
 20
-7.977852815245532
 30
0.0
 10
19.49797997408766
 20
-7.552566769705354
 30
0.0
 10
19.46282892803683
 20
-6.838211140334371
 30
0.0
 10
19.45150511441354
 20
-6.587482189236502
 30
0.0
 10
19.42980299179433
 20
-6.067366610055171
 30
0.0
 10
19.41936084367413
 20
-5.797777773327299
 30
0.0
 10
19.40815065118002
 20
-5.510551941786149
 30
0.0
  0
SPLINE
  5
4A2
330
1F
100
AcDbEntity
  8
외형선
  6
Continuous
 62
     1
370
    15
100
AcDbSpline
210
0.0
220
0.0
230
1.0
 70
     8
 71
     3
 72
    10
 73
     6
 74
     0
 42
0.000000001
 43
0.00000001
 40
0.0
 40
0.0
 40
0.0
 40
0.0
 40
0.5
 40
0.5
 40
1.0
 40
1.0
 40
1.0
 40
1.0
 10
15.1540020841995
 20
5.876992720974753
 30
0.0
 10
15.12956782682532
 20
6.43852713764568
 30
0.0
 10
15.10425808319437
 20
6.956596911045368
 30
0.0
 10
15.05378623147003
 20
7.862982552612992
 30
0.0
 10
15.02864047862354
 20
8.251017940285463
 30
0.0
 10
15.00451420243704
 20
8.562311206925306
 30
0.0
  0
SPLINE
  5
4A3
330
1F
100
AcDbEntity
  8
외형선
  6
Continuous
 62
     1
370
    15
100
AcDbSpline
210
0.0
220
0.0
230
1.0
 70
     8
 71
     3
 72
    10
 73
     6
 74
     0
 42
0.000000001
 43
0.00000001
 40
0.0
 40
0.0
 40
0.0
 40
0.0
 40
0.5
 40
0.5
 40
1.0
 40
1.0
 40
1.0
 40
1.0
 10
16.24139045668316
 20
5.561366257604936
 30
0.0
 10
16.2173124628921
 20
6.137742857480861
 30
0.0
 10
16.19219828776976
 20
6.675372640298184
 30
0.0
 10
16.14174871194187
 20
7.627811735112909
 30
0.0
 10
16.11642962613587
 20
8.042296519562454
 30
0.0
 10
16.09196678387887
 20
8.38136690764158
 30
0.0
  0
SPLINE
  5
4A4
330
1F
100
AcDbEntity
  8
외형선
  6
Continuous
 62
     1
370
    15
100
AcDbSpline
210
0.0
220
0.0
230
1.0
 70
     8
 71
     3
 72
    12
 73
     8
 74
     0
 42
0.000000001
 43
0.00000001
 40
0.0
 40
0.0
 40
0.0
 40
0.0
 40
0.5
 40
0.5
 40
0.75
 40
0.75
 40
1.0
 40
1.0
 40
1.0
 40
1.0
 10
19.70479534932392
 20
-8.400085963788953
 30
0.0
 10
19.67914745815661
 20
-8.05106876702179
 30
0.0
 10
19.65416116630333
 20
-7.62814180399168
 30
0.0
 10
19.61902038280788
 20
-6.916451244071679
 30
0.0
 10
19.60769221542105
 20
-6.666466597649986
 30
0.0
 10
19.58596672577133
 20
-6.147502067605121
 30
0.0
 10
19.57561860771992
 20
-5.879225655161651
 30
0.0
 10
19.56450352219898
 20
-5.59328801002256
 30
0.0
  0
SPLINE
  5
4A5
330
1F
100
AcDbEntity
  8
외형선
  6
Continuous
 62
     1
370
    15
100
AcDbSpline
210
0.0
220
0.0
230
1.0
 70
     8
 71
     3
 72
    12
 73
     8
 74
     0
 42
0.000000001
 43
0.00000001
 40
0.0
 40
0.0
 40
0.0
 40
0.0
 40
0.4999999999999998
 40
0.4999999999999998
 40
0.7499999999999999
 40
0.7499999999999999
 40
1.0
 40
1.0
 40
1.0
 40
1.0
 10
20.79241484896428
 20
-8.578597329437162
 30
0.0
 10
20.76670572585655
 20
-8.257730442581364
 30
0.0
 10
20.74146670948547
 20
-7.860648512376642
 30
0.0
 10
20.70570995695495
 20
-7.181603413864027
 30
0.0
 10
20.69413770879837
 20
-6.941496906094544
 30
0.0
 10
20.67186145383417
 20
-6.440063466953942
 30
0.0
 10
20.66146476797572
 20
-6.181319645707253
 30
0.0
 10
20.65074781996711
 20
-5.908412618848766
 30
0.0
  0
SPLINE
  5
4A6
330
1F
100
AcDbEntity
  8
외형선
  6
Continuous
 62
     1
370
    15
100
AcDbSpline
210
0.0
220
0.0
230
1.0
 70
     8
 71
     3
 72
    10
 73
     6
 74
     0
 42
0.000000001
 43
0.00000001
 40
0.0
 40
0.0
 40
0.0
 40
0.0
 40
0.5
 40
0.5
 40
1.0
 40
1.0
 40
1.0
 40
1.0
 10
14.99798831602008
 20
5.882136233988509
 30
0.0
 10
14.97342240939975
 20
6.440681281425944
 30
0.0
 10
14.94799488021022
 20
6.955102279253905
 30
0.0
 10
14.89734171372933
 20
7.852999420232008
 30
0.0
 10
14.87213271821597
 20
8.236198289651776
 30
0.0
 10
14.84797704123331
 20
8.542328947366771
 30
0.0
  0
SPLINE
  5
4A7
330
1F
100
AcDbEntity
  8
외형선
  6
Continuous
 62
     1
370
    15
100
AcDbSpline
210
0.0
220
0.0
230
1.0
 70
     8
 71
     3
 72
    12
 73
     8
 74
     0
 42
0.000000001
 43
0.00000001
 40
0.0
 40
0.0
 40
0.0
 40
0.0
 40
0.5
 40
0.5
 40
0.75
 40
0.75
 40
1.0
 40
1.0
 40
1.0
 40
1.0
 10
20.94903254412336
 20
-8.558565424326586
 30
0.0
 10
20.92322357650249
 20
-8.243022631501601
 30
0.0
 10
20.89785642052615
 20
-7.850777687578011
 30
0.0
 10
20.86188723613898
 20
-7.177985346772115
 30
0.0
 10
20.85024087090986
 20
-6.939799759843266
 30
0.0
 10
20.82781367453399
 20
-6.441878932941068
 30
0.0
 10
20.81731644419173
 20
-6.184494114337497
 30
0.0
 10
20.80661297105937
 20
-5.913811223560302
 30
0.0
  0
SPLINE
  5
4A8
330
1F
100
AcDbEntity
  8
외형선
  6
Continuous
 62
     1
370
    15
100
AcDbSpline
210
0.0
220
0.0
230
1.0
 70
     8
 71
     3
 72
    10
 73
     6
 74
     0
 42
0.000000001
 43
0.00000001
 40
0.0
 40
0.0
 40
0.0
 40
0.0
 40
0.4999999999999998
 40
0.4999999999999998
 40
1.0
 40
1.0
 40
1.0
 40
1.0
 10
14.37279240642297
 20
6.057776361980229
 30
0.0
 10
14.34804556918338
 20
6.607087512116498
 30
0.0
 10
14.3225337543856
 20
7.109609756833107
 30
0.0
 10
14.27192587161611
 20
7.980009571985748
 30
0.0
 10
14.24684632884721
 20
8.347638025638139
 30
0.0
 10
14.22291098565785
 20
8.637624498844497
 30
0.0
  0
SPLINE
  5
4A9
330
1F
100
AcDbEntity
  8
외형선
  6
Continuous
 62
     1
370
    15
100
AcDbSpline
210
0.0
220
0.0
230
1.0
 70
     8
 71
     3
 72
    10
 73
     6
 74
     0
 42
0.000000001
 43
0.00000001
 40
0.0
 40
0.0
 40
0.0
 40
0.0
 40
0.5
 40
0.5
 40
1.0
 40
1.0
 40
1.0
 40
1.0
 10
21.57435142751731
 20
-8.653098075560976
 30
0.0
 10
21.54855233078351
 20
-8.354253106616948
 30
0.0
 10
21.52308337981177
 20
-7.977661544888162
 30
0.0
 10
21.47472577434809
 20
-7.10754353965056
 30
0.0
 10
21.45184801632323
 20
-6.614484983873785
 30
0.0
 10
21.4309247344133
 20
-6.08862846283566
 30
0.0
  0
SPLINE
  5
4AA
330
1F
100
AcDbEntity
  8
외형선
  6
Continuous
 62
     1
370
    15
100
AcDbSpline
210
0.0
220
0.0
230
1.0
 70
     8
 71
     3
 72
    10
 73
     6
 74
     0
 42
0.000000001
 43
0.00000001
 40
0.0
 40
0.0
 40
0.0
 40
0.0
 40
0.4999999999999998
 40
0.4999999999999998
 40
0.8577507210058835
 40
0.8577507210058835
 40
0.8577507210058835
 40
0.8577507210058835
 10
13.12859694493567
 20
6.438550260797198
 30
0.0
 10
13.1036145638372
 20
6.969132485417711
 30
0.0
 10
13.0780720887706
 20
7.4477212351664
 30
0.0
 10
13.03496950010317
 20
8.147530943377836
 30
0.0
 10
13.01721389145091
 20
8.40314007047274
 30
0.0
 10
13.0
 20
8.619724096672792
 30
0.0
  0
SPLINE
  5
4AB
330
1F
100
AcDbEntity
  8
외형선
  6
Continuous
 62
     1
370
    15
100
AcDbSpline
210
0.0
220
0.0
230
1.0
 70
     8
 71
     3
 72
    10
 73
     6
 74
     0
 42
0.000000001
 43
0.00000001
 40
0.0
 40
0.0
 40
0.0
 40
0.0
 40
0.5
 40
0.5
 40
1.0
 40
1.0
 40
1.0
 40
1.0
 10
14.21617854745691
 20
6.142366732449782
 30
0.0
 10
14.19148314147463
 20
6.689768043892384
 30
0.0
 10
14.16605709736982
 20
7.189743337177772
 30
0.0
 10
14.11567069549616
 20
8.054497744035244
 30
0.0
 10
14.0907264930164
 20
8.419038492435648
 30
0.0
 10
14.06693610445556
 20
8.706027464152738
 30
0.0
  0
SPLINE
  5
4AC
330
1F
100
AcDbEntity
  8
외형선
  6
Continuous
 62
     1
370
    15
100
AcDbSpline
210
0.0
220
0.0
230
1.0
 70
     8
 71
     3
 72
    10
 73
     6
 74
     0
 42
0.000000001
 43
0.00000001
 40
0.0
 40
0.0
 40
0.0
 40
0.0
 40
0.5000000000000002
 40
0.5000000000000002
 40
1.0
 40
1.0
 40
1.0
 40
1.0
 10
21.73040378192044
 20
-8.72159838350878
 30
0.0
 10
21.70470882958855
 20
-8.425842869358398
 30
0.0
 10
21.67931760587422
 20
-8.052303742682701
 30
0.0
 10
21.63104669050151
 20
-7.18745585224937
 30
0.0
 10
21.60817791756605
 20
-6.696605430668521
 30
0.0
 10
21.58723104698387
 20
-6.172258063915796
 30
0.0
  0
SPLINE
  5
4AD
330
1F
100
AcDbEntity
  8
외형선
  6
Continuous
 62
     1
370
    15
100
AcDbSpline
210
0.0
220
0.0
230
1.0
 70
     8
 71
     3
 72
    10
 73
     6
 74
     0
 42
0.000000001
 43
0.00000001
 40
0.0
 40
0.0
 40
0.0
 40
0.0
 40
0.5
 40
0.5
 40
1.0
 40
1.0
 40
1.0
 40
1.0
 10
22.8181948841512
 20
-8.873342021160871
 30
0.0
 10
22.792574359567
 20
-8.607132820170376
 30
0.0
 10
22.7670665973553
 20
-8.26171350268387
 30
0.0
 10
22.71821392358083
 20
-7.44608189196865
 30
0.0
 10
22.69488134643701
 20
-6.976298970343239
 30
0.0
 10
22.67335273310159
 20
-6.468469868132598
 30
0.0
  0
SPLINE
  5
4AE
330
1F
100
AcDbEntity
  8
외형선
  6
Continuous
 62
     1
370
    15
100
AcDbSpline
210
0.0
220
0.0
230
1.0
 70
     8
 71
     3
 72
    10
 73
     6
 74
     0
 42
0.000000001
 43
0.00000001
 40
0.0
 40
0.0
 40
0.0
 40
0.0
 40
0.5000000000000001
 40
0.5000000000000001
 40
1.0
 40
1.0
 40
1.0
 40
1.0
 10
22.97481056673396
 20
-8.846917375765303
 30
0.0
 10
22.94910775404693
 20
-8.586027382499035
 30
0.0
 10
22.92348747242082
 20
-8.24555199743528
 30
0.0
 10
22.87437539235586
 20
-7.438595496110652
 30
0.0
 10
22.8508963491437
 20
-6.972544659857865
 30
0.0
 10
22.82921945677528
 20
-6.467825517686501
 30
0.0
  0
SPLINE
  5
4AF
330
1F
100
AcDbEntity
  8
외형선
  6
Continuous
 62
     1
370
    15
100
AcDbSpline
210
0.0
220
0.0
230
1.0
 70
     8
 71
     3
 72
    10
 73
     6
 74
     0
 42
0.000000001
 43
0.00000001
 40
0.0
 40
0.0
 40
0.0
 40
0.0
 40
0.5
 40
0.5
 40
1.0
 40
1.0
 40
1.0
 40
1.0
 10
23.60014848488971
 20
-8.925174769396882
 30
0.0
 10
23.574512287762
 20
-8.681308737459398
 30
0.0
 10
23.54884994424194
 20
-8.357205288294255
 30
0.0
 10
23.49944887038166
 20
-7.579213462033515
 30
0.0
 10
23.47572361531959
 20
-7.125735621297316
 30
0.0
 10
23.45372839837304
 20
-6.631021359115072
 30
0.0
  0
SPLINE
  5
4B0
330
1F
100
AcDbEntity
  8
외형선
  6
Continuous
 62
     1
370
    15
100
AcDbSpline
210
0.0
220
0.0
230
1.0
 70
     8
 71
     3
 72
    10
 73
     6
 74
     0
 42
0.000000001
 43
0.00000001
 40
0.0
 40
0.0
 40
0.0
 40
0.0
 40
0.5
 40
0.5
 40
1.0
 40
1.0
 40
1.0
 40
1.0
 10
23.75619226839139
 20
-8.991570223436526
 30
0.0
 10
23.73067154784908
 20
-8.750929682943623
 30
0.0
 10
23.70510191993466
 20
-8.43010576066088
 30
0.0
 10
23.65582049238063
 20
-7.658025863975022
 30
0.0
 10
23.63212208303025
 20
-7.207169929600886
 30
0.0
 10
23.61011989915917
 20
-6.714430715916963
 30
0.0
  0
SPLINE
  5
4B1
330
1F
100
AcDbEntity
  8
외형선
  6
Continuous
 62
     1
370
    15
100
AcDbSpline
210
0.0
220
0.0
230
1.0
 70
     8
 71
     3
 72
    10
 73
     6
 74
     0
 42
0.000000001
 43
0.00000001
 40
0.0
 40
0.0
 40
0.0
 40
0.0
 40
0.5
 40
0.5
 40
1.0
 40
1.0
 40
1.0
 40
1.0
 10
24.8439431942046
 20
-9.114162447494483
 30
0.0
 10
24.81857970718075
 20
-8.903290347289081
 30
0.0
 10
24.79298338280486
 20
-8.611402204074027
 30
0.0
 10
24.74329001957238
 20
-7.891145386916813
 30
0.0
 10
24.7192073972698
 20
-7.463138035378963
 30
0.0
 10
24.69668900637753
 20
-6.988902426625012
 30
0.0
  0
SPLINE
  5
4B2
330
1F
100
AcDbEntity
  8
외형선
  6
Continuous
 62
     1
370
    15
100
AcDbSpline
210
0.0
220
0.0
230
1.0
 70
     8
 71
     3
 72
    10
 73
     6
 74
     0
 42
0.000000001
 43
0.00000001
 40
0.0
 40
0.0
 40
0.0
 40
0.0
 40
0.5
 40
0.5
 40
1.0
 40
1.0
 40
1.0
 40
1.0
 10
25.00058049665373
 20
-9.081873645214843
 30
0.0
 10
24.97514490834479
 20
-8.876281223514647
 30
0.0
 10
24.94944424585761
 20
-8.589357587320634
 30
0.0
 10
24.89950165697306
 20
-7.877868910072246
 30
0.0
 10
24.87527456538581
 20
-7.453664209895068
 30
0.0
 10
24.85260716499076
 20
-6.982598867265635
 30
0.0
  0
SPLINE
  5
4B3
330
1F
100
AcDbEntity
  8
외형선
  6
Continuous
 62
     1
370
    15
100
AcDbSpline
210
0.0
220
0.0
230
1.0
 70
     8
 71
     3
 72
    10
 73
     6
 74
     0
 42
0.000000001
 43
0.00000001
 40
0.0
 40
0.0
 40
0.0
 40
0.0
 40
0.5
 40
0.5
 40
1.0
 40
1.0
 40
1.0
 40
1.0
 10
25.62590377814328
 20
-9.143547802598404
 30
0.0
 10
25.60058059459087
 20
-8.955112000545954
 30
0.0
 10
25.57488768545124
 20
-8.68501811199461
 30
0.0
 10
25.52475049310154
 20
-8.003953690901874
 30
0.0
 10
25.50032153626702
 20
-7.593318598366274
 30
0.0
 10
25.4773722818035
 20
-7.133370717854243
 30
0.0
  0
SPLINE
  5
4B4
330
1F
100
AcDbEntity
  8
외형선
  6
Continuous
 62
     1
370
    15
100
AcDbSpline
210
0.0
220
0.0
230
1.0
 70
     8
 71
     3
 72
    10
 73
     6
 74
     0
 42
0.000000001
 43
0.00000001
 40
0.0
 40
0.0
 40
0.0
 40
0.0
 40
0.4999999999999999
 40
0.4999999999999999
 40
1.0
 40
1.0
 40
1.0
 40
1.0
 10
25.78194089779763
 20
-9.20758301168482
 30
0.0
 10
25.75674721324368
 20
-9.02253022905145
 30
0.0
 10
25.73116483775092
 20
-8.755982721230051
 30
0.0
 10
25.68118595603889
 20
-8.081590613545385
 30
0.0
 10
25.65680458213242
 20
-7.674070260267863
 30
0.0
 10
25.63386760711111
 20
-7.216658116834827
 30
0.0
  0
SPLINE
  5
4B5
330
1F
100
AcDbEntity
  8
외형선
  6
Continuous
 62
     1
370
    15
100
AcDbSpline
210
0.0
220
0.0
230
1.0
 70
     8
 71
     3
 72
    10
 73
     6
 74
     0
 42
0.000000001
 43
0.00000001
 40
0.0
 40
0.0
 40
0.0
 40
0.0
 40
0.5
 40
0.5
 40
1.0
 40
1.0
 40
1.0
 40
1.0
 10
26.8696501839452
 20
-9.301001757259545
 30
0.0
 10
26.8446855485906
 20
-9.145859651159995
 30
0.0
 10
26.81915548605959
 20
-8.908903065842956
 30
0.0
 10
26.76891612192045
 20
-8.288537990104844
 30
0.0
 10
26.74422259642144
 20
-7.90540749247462
 30
0.0
 10
26.72082939621382
 20
-7.468245946288729
 30
0.0
  0
SPLINE
  5
4B6
330
1F
100
AcDbEntity
  8
외형선
  6
Continuous
 62
     1
370
    15
100
AcDbSpline
210
0.0
220
0.0
230
1.0
 70
     8
 71
     3
 72
    10
 73
     6
 74
     0
 42
0.000000001
 43
0.00000001
 40
0.0
 40
0.0
 40
0.0
 40
0.0
 40
0.5
 40
0.5
 40
1.0
 40
1.0
 40
1.0
 40
1.0
 10
27.02626740538781
 20
-9.262754842265718
 30
0.0
 10
27.00124817764382
 20
-9.112825986447492
 30
0.0
 10
26.97563010839153
 20
-8.880877503639402
 30
0.0
 10
26.92516755905613
 20
-8.269510650047645
 30
0.0
 10
26.90033923324208
 20
-7.890366908015496
 30
0.0
 10
26.87680279241228
 20
-7.456574674002303
 30
0.0
  0
SPLINE
  5
4B7
330
1F
100
AcDbEntity
  8
외형선
  6
Continuous
 62
     1
370
    15
100
AcDbSpline
210
0.0
220
0.0
230
1.0
 70
     8
 71
     3
 72
    10
 73
     6
 74
     0
 42
0.000000001
 43
0.00000001
 40
0.0
 40
0.0
 40
0.0
 40
0.0
 40
0.5
 40
0.5
 40
1.0
 40
1.0
 40
1.0
 40
1.0
 10
27.6515146710387
 20
-9.307350015795558
 30
0.0
 10
27.62665347366263
 20
-9.174585295170296
 30
0.0
 10
27.60109390249917
 20
-8.959801133238171
 30
0.0
 10
27.55053529359259
 20
-8.380119722534575
 30
0.0
 10
27.52555265591005
 20
-8.015468031550995
 30
0.0
 10
27.50177457779571
 20
-7.593866125210507
 30
0.0
  0
SPLINE
  5
4B8
330
1F
100
AcDbEntity
  8
외형선
  6
Continuous
 62
     1
370
    15
100
AcDbSpline
210
0.0
220
0.0
230
1.0
 70
     8
 71
     3
 72
    10
 73
     6
 74
     0
 42
0.000000001
 43
0.00000001
 40
0.0
 40
0.0
 40
0.0
 40
0.0
 40
0.4999999999999999
 40
0.4999999999999999
 40
1.0
 40
1.0
 40
1.0
 40
1.0
 10
27.80754153746224
 20
-9.368674249423554
 30
0.0
 10
27.78281011432026
 20
-9.239351105093993
 30
0.0
 10
27.75736467809988
 20
-9.028191507122965
 30
0.0
 10
27.70697727839816
 20
-8.455433962740253
 30
0.0
 10
27.68205146005609
 20
-8.094071051472616
 30
0.0
 10
27.65829598764329
 20
-7.675224714399031
 30
0.0
  0
SPLINE
  5
4B9
330
1F
100
AcDbEntity
  8
외형선
  6
Continuous
 62
     1
370
    15
100
AcDbSpline
210
0.0
220
0.0
230
1.0
 70
     8
 71
     3
 72
    10
 73
     6
 74
     0
 42
0.000000001
 43
0.00000001
 40
0.0
 40
0.0
 40
0.0
 40
0.0
 40
0.5
 40
0.5
 40
1.0
 40
1.0
 40
1.0
 40
1.0
 10
28.89507073750516
 20
-9.431943992370758
 30
0.0
 10
28.87064941545029
 20
-9.332467932483109
 30
0.0
 10
28.84534702307687
 20
-9.15141780698384
 30
0.0
 10
28.79487695428269
 20
-8.63480919598906
 30
0.0
 10
28.76972563149926
 20
-8.299433053337927
 30
0.0
 10
28.74558802589524
 20
-7.902728278369606
 30
0.0
  0
SPLINE
  5
4BA
330
1F
100
AcDbEntity
  8
외형선
  6
Continuous
 62
     1
370
    15
100
AcDbSpline
210
0.0
220
0.0
230
1.0
 70
     8
 71
     3
 72
    10
 73
     6
 74
     0
 42
0.000000001
 43
0.00000001
 40
0.0
 40
0.0
 40
0.0
 40
0.0
 40
0.4999999999999998
 40
0.4999999999999998
 40
1.0
 40
1.0
 40
1.0
 40
1.0
 10
29.05163474345792
 20
-9.387910794518417
 30
0.0
 10
29.02717571484688
 20
-9.293495052063454
 30
0.0
 10
29.00180177667148
 20
-9.11740854371574
 30
0.0
 10
28.95113608298512
 20
-8.609871441586748
 30
0.0
 10
28.92586100135296
 20
-8.278597708828062
 30
0.0
 10
28.90158754308462
 20
-7.885406949045295
 30
0.0
  0
SPLINE
  5
4BB
330
1F
100
AcDbEntity
  8
외형선
  6
Continuous
 62
     1
370
    15
100
AcDbSpline
210
0.0
220
0.0
230
1.0
 70
     8
 71
     3
 72
    10
 73
     6
 74
     0
 42
0.000000001
 43
0.00000001
 40
0.0
 40
0.0
 40
0.0
 40
0.0
 40
0.5
 40
0.5
 40
1.0
 40
1.0
 40
1.0
 40
1.0
 10
29.67677004029419
 20
-9.41525503962466
 30
0.0
 10
29.65251202856624
 20
-9.337923149661803
 30
0.0
 10
29.62724530030309
 20
-9.179229791267144
 30
0.0
 10
29.57658006349484
 20
-8.704434482133282
 30
0.0
 10
29.55119822701349
 20
-8.388477319280323
 30
0.0
 10
29.52672413793059
 20
-8.008471895386421
 30
0.0
  0
SPLINE
  5
4BC
330
1F
100
AcDbEntity
  8
외형선
  6
Continuous
 62
     1
370
    15
100
AcDbSpline
210
0.0
220
0.0
230
1.0
 70
     8
 71
     3
 72
    10
 73
     6
 74
     0
 42
0.000000001
 43
0.00000001
 40
0.0
 40
0.0
 40
0.0
 40
0.0
 40
0.5
 40
0.5
 40
1.0
 40
1.0
 40
1.0
 40
1.0
 10
29.83276808343417
 20
-9.473451443024773
 30
0.0
 10
29.80865005785753
 20
-9.399644627645989
 30
0.0
 10
29.78351165794729
 20
-9.244747404194108
 30
0.0
 10
29.73305107217472
 20
-8.777438469690326
 30
0.0
 10
29.70774522313987
 20
-8.465161489836593
 30
0.0
 10
29.68331271303119
 20
-8.088388885711888
 30
0.0
  0
SPLINE
  5
4BD
330
1F
100
AcDbEntity
  8
외형선
  6
Continuous
 62
     1
370
    15
100
AcDbSpline
210
0.0
220
0.0
230
1.0
 70
     8
 71
     3
 72
    10
 73
     6
 74
     0
 42
0.000000001
 43
0.00000001
 40
0.0
 40
0.0
 40
0.0
 40
0.0
 40
0.5
 40
0.5
 40
1.0
 40
1.0
 40
1.0
 40
1.0
 10
30.92008191757795
 20
-9.50641541225291
 30
0.0
 10
30.89634471799862
 20
-9.462263573651022
 30
0.0
 10
30.87143012006251
 20
-9.337792862828307
 30
0.0
 10
30.82104831077937
 20
-8.928283575164873
 30
0.0
 10
30.7955972301356
 20
-8.64332291824424
 30
0.0
 10
30.77085239898732
 20
-8.29032470904484
 30
0.0
  0
SPLINE
  5
4BE
330
1F
100
AcDbEntity
  8
외형선
  6
Continuous
 62
     1
370
    15
100
AcDbSpline
210
0.0
220
0.0
230
1.0
 70
     8
 71
     3
 72
    10
 73
     6
 74
     0
 42
0.000000001
 43
0.00000001
 40
0.0
 40
0.0
 40
0.0
 40
0.0
 40
0.5000000000000001
 40
0.5000000000000001
 40
1.0
 40
1.0
 40
1.0
 40
1.0
 10
31.07660853893586
 20
-9.457005701253669
 30
0.0
 10
31.05284921635793
 20
-9.417780231457588
 30
0.0
 10
31.02787819232319
 20
-9.298234302873913
 30
0.0
 10
30.97732566265253
 20
-8.897861602928739
 30
0.0
 10
30.95176054098854
 20
-8.617105346950968
 30
0.0
 10
30.92688586966236
 20
-8.26774498133955
 30
0.0
  0
SPLINE
  5
4BF
330
1F
100
AcDbEntity
  8
외형선
  6
Continuous
 62
     1
370
    15
100
AcDbSpline
210
0.0
220
0.0
230
1.0
 70
     8
 71
     3
 72
    10
 73
     6
 74
     0
 42
0.000000001
 43
0.00000001
 40
0.0
 40
0.0
 40
0.0
 40
0.0
 40
0.5
 40
0.5
 40
1.0
 40
1.0
 40
1.0
 40
1.0
 10
31.70157479748629
 20
-9.466884941642101
 30
0.0
 10
31.67805858167051
 20
-9.444539249482986
 30
0.0
 10
31.65324357414679
 20
-9.342488040474885
 30
0.0
 10
31.60279058793967
 20
-8.975696879952846
 30
0.0
 10
31.57716873958773
 20
-8.710993556738618
 30
0.0
 10
31.55213761976741
 20
-8.375758974793658
 30
0.0
  0
LINE
  5
4C0
330
1F
100
AcDbEntity
  8
외형선
  6
Continuous
 62
     1
370
    15
100
AcDbLine
 10
38.40000000000001
 20
-1.428749994374815
 30
0.0
 11
38.40000000000001
 21
-4.809926729649307
 31
0.0
  0
SPLINE
  5
4C1
330
1F
100
AcDbEntity
  8
외형선
  6
Continuous
 62
     1
370
    15
100
AcDbSpline
210
0.0
220
0.0
230
1.0
 70
     8
 71
     3
 72
    10
 73
     6
 74
     0
 42
0.000000001
 43
0.00000001
 40
0.0
 40
0.0
 40
0.0
 40
0.0
 40
0.5
 40
0.5
 40
1.0
 40
1.0
 40
1.0
 40
1.0
 10
31.85750558604244
 20
-9.52158879905996
 30
0.0
 10
31.83413834340453
 20
-9.502750076958378
 30
0.0
 10
31.80946521778654
 20
-9.404562625950536
 30
0.0
 10
31.75925084982524
 20
-9.045635366288101
 30
0.0
 10
31.73372533584786
 20
-8.784923277907783
 30
0.0
 10
31.70875680506518
 20
-8.453343140759836
 30
0.0
  0
LINE
  5
4C2
330
1F
100
AcDbEntity
  8
외형선
  6
Continuous
 62
     1
370
    15
100
AcDbLine
 10
33.10096081495286
 20
-9.469446726143362
 30
0.0
 11
33.08768015503884
 21
-9.4576058909297
 31
0.0
  0
LINE
  5
4C3
330
1F
100
AcDbEntity
  8
외형선
  6
Continuous
 62
     1
370
    15
100
AcDbLine
 10
33.69928341507912
 20
-9.452473372220995
 30
0.0
 11
33.69747664928437
 21
-9.451831690967085
 31
0.0
  0
LINE
  5
4C4
330
1F
100
AcDbEntity
  8
외형선
  6
Continuous
 62
     1
370
    15
100
AcDbLine
 10
33.86515196561814
 20
-9.509947150945665
 30
0.0
 11
33.85635655522347
 21
-9.50843282043934
 31
0.0
  0
ELLIPSE
  5
4C5
330
1F
100
AcDbEntity
  8
외형선
  6
Continuous
 62
     1
370
    15
100
AcDbEllipse
 10
40.44046610104445
 20
-0.0000000000000018
 30
0.0
 11
13.60310976421859
 21
0.0
 31
0.0
210
0.0
220
0.0
230
1.0
 40
0.7002075382097122
 41
1.762398437415196
 42
1.769471751949607
  0
SPLINE
  5
4C6
330
1F
100
AcDbEntity
  8
외형선
  6
Continuous
 62
     1
370
    15
100
AcDbSpline
210
0.0
220
0.0
230
1.0
 70
     8
 71
     3
 72
     8
 73
     4
 74
     0
 42
0.000000001
 43
0.00000001
 40
0.0000003033323757
 40
0.0000003033323757
 40
0.0000003033323757
 40
0.0000003033323757
 40
0.0008316029042958
 40
0.0008316029042958
 40
0.0008316029042958
 40
0.0008316029042958
 10
38.39999963641165
 20
8.860547298982157
 30
0.0
 10
38.21729763595872
 20
9.02498087084435
 30
0.0
 10
38.0339314582445
 20
9.188318880117885
 30
0.0
 10
37.84999963641167
 20
9.350696330209855
 30
0.0
  0
LINE
  5
4C7
330
1F
100
AcDbEntity
  8
외형선
  6
Continuous
 62
     1
370
    15
100
AcDbLine
 10
38.40000000000001
 20
2.088304841890929
 30
0.0
 11
38.40000000000001
 21
2.113519236445425
 31
0.0
  0
LINE
  5
4C8
330
1F
100
AcDbEntity
  8
외형선
  6
Continuous
 62
     1
370
    15
100
AcDbLine
 10
38.40000000000001
 20
3.38117661885917
 30
0.0
 11
38.40000000000001
 21
8.860547095537184
 31
0.0
  0
LINE
  5
4C9
330
1F
100
AcDbEntity
  8
외형선
  6
Continuous
 62
     1
370
    15
100
AcDbLine
 10
35.09995531439782
 20
-9.460374712944033
 30
0.0
 11
35.09679626822471
 21
-9.464874863624575
 31
0.0
  0
LINE
  5
4CA
330
1F
100
AcDbEntity
  8
외형선
  6
Continuous
 62
     1
370
    15
100
AcDbLine
 10
35.86543169021607
 20
-9.519785642623903
 30
0.0
 11
35.86400490403176
 21
-9.518020786345007
 31
0.0
  0
SPLINE
  5
4CB
330
1F
100
AcDbEntity
  8
외형선
  6
Continuous
 62
     1
370
    15
100
AcDbSpline
210
0.0
220
0.0
230
1.0
 70
     8
 71
     3
 72
     8
 73
     4
 74
     0
 42
0.000000001
 43
0.00000001
 40
0.0
 40
0.0
 40
0.0
 40
0.0
 40
1.0
 40
1.0
 40
1.0
 40
1.0
 10
37.84999958932283
 20
-9.512898707164936
 30
0.0
 10
37.8293796354375
 20
-9.48183172492629
 30
0.0
 10
37.80783124521102
 20
-9.389948438354047
 30
0.0
 10
37.78594032906992
 20
-9.236306744855982
 30
0.0
  0
SPLINE
  5
4CC
330
1F
100
AcDbEntity
  8
외형선
  6
Continuous
 62
     1
370
    15
100
AcDbSpline
210
0.0
220
0.0
230
1.0
 70
     8
 71
     3
 72
     8
 73
     4
 74
     0
 42
0.000000001
 43
0.00000001
 40
0.0
 40
0.0
 40
0.0
 40
0.0
 40
1.0
 40
1.0
 40
1.0
 40
1.0
 10
37.85318610519505
 20
-9.517229723839618
 30
0.0
 10
37.85212642629412
 20
-9.515946209295375
 30
0.0
 10
37.85106423086663
 20
-9.514502745666471
 30
0.0
 10
37.84999958932283
 20
-9.512898707164936
 30
0.0
  0
SPLINE
  5
4CD
330
1F
100
AcDbEntity
  8
외형선
  6
Continuous
 62
     1
370
    15
100
AcDbSpline
210
0.0
220
0.0
230
1.0
 70
     8
 71
     3
 72
     9
 73
     5
 74
     0
 42
0.000000001
 43
0.00000001
 40
0.0
 40
0.0
 40
0.0
 40
0.0
 40
0.7292585622156625
 40
1.0
 40
1.0
 40
1.0
 40
1.0
 10
37.85002049207688
 20
-9.517214260995392
 30
0.0
 10
37.85004912969546
 20
-9.521183184719389
 30
0.0
 10
37.85008839919479
 20
-9.526625594215329
 30
0.0
 10
37.85044245094772
 20
-9.52237893833372
 30
0.0
 10
37.85053830742837
 20
-9.521229192614557
 30
0.0
  0
LINE
  5
4CE
330
1F
100
AcDbEntity
  8
외형선
  6
Continuous
 62
     1
370
    15
100
AcDbLine
 10
37.84999814033509
 20
-9.512898512184622
 30
0.0
 11
37.84999814033509
 21
-9.242005646228792
 31
0.0
  0
LINE
  5
4CF
330
1F
100
AcDbEntity
  8
외형선
  6
Continuous
 62
     1
370
    15
100
AcDbLine
 10
38.40000000000001
 20
-8.728666231036188
 30
0.0
 11
38.40000000000001
 21
-8.975000120699407
 31
0.0
  0
LINE
  5
4D0
330
1F
100
AcDbEntity
  8
외형선
  6
Continuous
 62
     1
370
    15
100
AcDbLine
 10
37.84999814033509
 20
9.350696578621863
 30
0.0
 11
37.84999814033509
 21
9.525000117719172
 31
0.0
  0
LINE
  5
4D1
330
1F
100
AcDbEntity
  8
외형선
  6
Continuous
 62
     1
370
    15
100
AcDbLine
 10
38.40000000000001
 20
8.975000120699404
 30
0.0
 11
38.40000000000001
 21
8.860547095537184
 31
0.0
  0
LINE
  5
4D2
330
1F
100
AcDbEntity
  8
외형선
  6
Continuous
 62
     1
370
    15
100
AcDbLine
 10
36.70451980233193
 20
9.465797804296015
 30
0.0
 11
36.70220267176629
 21
9.460426867008207
 31
0.0
  0
LINE
  5
4D3
330
1F
100
AcDbEntity
  8
외형선
  6
Continuous
 62
     1
370
    15
100
AcDbLine
 10
36.10354479551316
 20
9.450421668589113
 30
0.0
 11
36.1015070617199
 21
9.453256614506243
 31
0.0
  0
LINE
  5
4D4
330
1F
100
AcDbEntity
  8
외형선
  6
Continuous
 62
     1
370
    15
100
AcDbLine
 10
35.94079058766366
 20
9.520256891846655
 30
0.0
 11
35.93789976239205
 21
9.516929276287554
 31
0.0
  0
LINE
  5
4D5
330
1F
100
AcDbEntity
  8
외형선
  6
Continuous
 62
     1
370
    15
100
AcDbLine
 10
34.86455422043801
 20
9.514923207461832
 30
0.0
 11
34.86182358264924
 21
9.517564438283442
 31
0.0
  0
LINE
  5
4D6
330
1F
100
AcDbEntity
  8
외형선
  6
Continuous
 62
     1
370
    15
100
AcDbLine
 10
34.70410969257355
 20
9.450914338231085
 30
0.0
 11
34.70270898342132
 21
9.449873119592665
 31
0.0
  0
LINE
  5
4D7
330
1F
100
AcDbEntity
  8
외형선
  6
Continuous
 62
     1
370
    15
100
AcDbLine
 10
33.93904309868812
 20
9.509825147688387
 30
0.0
 11
33.93199484944343
 21
9.50920209288597
 31
0.0
  0
SPLINE
  5
4D8
330
1F
100
AcDbEntity
  8
외형선
  6
Continuous
 62
     1
370
    15
100
AcDbSpline
210
0.0
220
0.0
230
1.0
 70
     8
 71
     3
 72
    11
 73
     7
 74
     0
 42
0.000000001
 43
0.00000001
 40
0.0
 40
0.0
 40
0.0
 40
0.0
 40
0.2245805883994006
 40
0.4830537056007475
 40
0.7415268680732274
 40
1.0
 40
1.0
 40
1.0
 40
1.0
 10
32.93964084386825
 20
-9.518066421151163
 30
0.0
 10
32.92891911693485
 20
-9.512104372220264
 30
0.0
 10
32.9058575960681
 20
-9.499280513089918
 30
0.0
 10
32.87046355408876
 20
-9.32969767825173
 30
0.0
 10
32.83344365757588
 20
-9.052895122234597
 30
0.0
 10
32.80876507446199
 20
-8.769620862806914
 30
0.0
 10
32.79642578363418
 20
-8.627983741462232
 30
0.0
  0
SPLINE
  5
4D9
330
1F
100
AcDbEntity
  8
외형선
  6
Continuous
 62
     1
370
    15
100
AcDbSpline
210
0.0
220
0.0
230
1.0
 70
     8
 71
     3
 72
    11
 73
     7
 74
     0
 42
0.000000001
 43
0.00000001
 40
0.0
 40
0.0
 40
0.0
 40
0.0
 40
0.1478544154220281
 40
0.4011196480578398
 40
0.7001878690603428
 40
1.0
 40
1.0
 40
1.0
 40
1.0
 10
33.08768015503884
 20
-9.4576058909297
 30
0.0
 10
33.08128790471439
 20
-9.455065474482486
 30
0.0
 10
33.06394613515599
 20
-9.448173485844078
 30
0.0
 10
33.03246470062864
 20
-9.313299251429283
 30
0.0
 10
32.99360374060458
 20
-9.05302684433723
 30
0.0
 10
32.96619309218133
 20
-8.75121048013646
 30
0.0
 10
32.95247074365616
 20
-8.600114844739439
 30
0.0
  0
SPLINE
  5
4DA
330
1F
100
AcDbEntity
  8
외형선
  6
Continuous
 62
     1
370
    15
100
AcDbSpline
210
0.0
220
0.0
230
1.0
 70
     8
 71
     3
 72
    11
 73
     7
 74
     0
 42
0.000000001
 43
0.00000001
 40
0.0
 40
0.0
 40
0.0
 40
0.0
 40
0.0680237545697598
 40
0.3879237053227246
 40
0.6935163617063885
 40
1.0
 40
1.0
 40
1.0
 40
1.0
 10
33.69747664928437
 20
-9.451831690967085
 30
0.0
 10
33.69488745294078
 20
-9.45162071465258
 30
0.0
 10
33.68012186633393
 20
-9.45041756563242
 30
0.0
 10
33.65244577764571
 20
-9.3244087367503
 30
0.0
 10
33.61498077486883
 20
-9.082230915360352
 30
0.0
 10
33.59019929790165
 20
-8.822510371667981
 30
0.0
 10
33.57779052257538
 20
-8.692461065948011
 30
0.0
  0
SPLINE
  5
4DB
330
1F
100
AcDbEntity
  8
외형선
  6
Continuous
 62
     1
370
    15
100
AcDbSpline
210
0.0
220
0.0
230
1.0
 70
     8
 71
     3
 72
    11
 73
     7
 74
     0
 42
0.000000001
 43
0.00000001
 40
0.0
 40
0.0
 40
0.0
 40
0.0
 40
0.0945135738119185
 40
0.3963423238857788
 40
0.6981711343198707
 40
1.0
 40
1.0
 40
1.0
 40
1.0
 10
33.85635655522347
 20
-9.50843282043934
 30
0.0
 10
33.85251449045666
 20
-9.509118267995873
 30
0.0
 10
33.83640280599931
 20
-9.511992689801144
 30
0.0
 10
33.80802602571126
 20
-9.391876975774501
 30
0.0
 10
33.77121469420334
 20
-9.157029615054899
 30
0.0
 10
33.74667520015841
 20
-8.897021942722734
 30
0.0
 10
33.73440545201301
 20
-8.767018094658853
 30
0.0
  0
SPLINE
  5
4DC
330
1F
100
AcDbEntity
  8
외형선
  6
Continuous
 62
     1
370
    15
100
AcDbSpline
210
0.0
220
0.0
230
1.0
 70
     8
 71
     3
 72
    11
 73
     7
 74
     0
 42
0.000000001
 43
0.00000001
 40
0.0
 40
0.0
 40
0.0
 40
0.0
 40
0.0578479088787665
 40
0.371898612107059
 40
0.6859492900432856
 40
1.0
 40
1.0
 40
1.0
 40
1.0
 10
34.9384416282177
 20
-9.515857324004175
 30
0.0
 10
34.93620024179896
 20
-9.51873943302279
 30
0.0
 10
34.92179058526207
 20
-9.537268233194483
 30
0.0
 10
34.89521344230317
 20
-9.451676873838588
 30
0.0
 10
34.85870921735633
 20
-9.262520161096475
 30
0.0
 10
34.8343731530824
 20
-9.03041515043556
 30
0.0
 10
34.82220512032509
 20
-8.91436263918877
 30
0.0
  0
SPLINE
  5
4DD
330
1F
100
AcDbEntity
  8
외형선
  6
Continuous
 62
     1
370
    15
100
AcDbSpline
210
0.0
220
0.0
230
1.0
 70
     8
 71
     3
 72
    11
 73
     7
 74
     0
 42
0.000000001
 43
0.00000001
 40
0.0
 40
0.0
 40
0.0
 40
0.0
 40
0.0414239487642516
 40
0.3372216218292777
 40
0.6674615394846313
 40
1.0
 40
1.0
 40
1.0
 40
1.0
 10
35.09679626822471
 20
-9.464874863624575
 30
0.0
 10
35.09525617976752
 20
-9.467352066827583
 30
0.0
 10
35.08271871912481
 20
-9.487518335535405
 30
0.0
 10
35.0565561781705
 20
-9.417287752160227
 30
0.0
 10
35.01848378963226
 20
-9.242866406445957
 30
0.0
 10
34.99169973009859
 20
-9.002200148599156
 30
0.0
 10
34.97826125621796
 20
-8.881449699401859
 30
0.0
  0
SPLINE
  5
4DE
330
1F
100
AcDbEntity
  8
외형선
  6
Continuous
 62
     1
370
    15
100
AcDbSpline
210
0.0
220
0.0
230
1.0
 70
     8
 71
     3
 72
    10
 73
     6
 74
     0
 42
0.000000001
 43
0.00000001
 40
0.0
 40
0.0
 40
0.0
 40
0.0
 40
0.305287616249785
 40
0.6514455241924468
 40
1.0
 40
1.0
 40
1.0
 40
1.0
 10
35.70561301112176
 20
-9.459047578275207
 30
0.0
 10
35.69554243398173
 20
-9.449314517106284
 30
0.0
 10
35.67405308408755
 20
-9.428545384007876
 30
0.0
 10
35.63976136230278
 20
-9.259233842507127
 30
0.0
 10
35.61568125176021
 20
-9.058334798933108
 30
0.0
 10
35.60359966158867
 20
-8.957538753747942
 30
0.0
  0
SPLINE
  5
4DF
330
1F
100
AcDbEntity
  8
외형선
  6
Continuous
 62
     1
370
    15
100
AcDbSpline
210
0.0
220
0.0
230
1.0
 70
     8
 71
     3
 72
    10
 73
     6
 74
     0
 42
0.000000001
 43
0.00000001
 40
0.0
 40
0.0
 40
0.0
 40
0.0
 40
0.3025923659939078
 40
0.6512962071554844
 40
1.0
 40
1.0
 40
1.0
 40
1.0
 10
35.86400490403176
 20
-9.518020786345007
 30
0.0
 10
35.85353693701558
 20
-9.51165973125775
 30
0.0
 10
35.83100580939816
 20
-9.497968271996282
 30
0.0
 10
35.79640941616393
 20
-9.33666548495624
 30
0.0
 10
35.7722820157085
 20
-9.131467035856742
 30
0.0
 10
35.76021831631661
 20
-9.028867818415167
 30
0.0
  0
SPLINE
  5
4E0
330
1F
100
AcDbEntity
  8
외형선
  6
Continuous
 62
     1
370
    15
100
AcDbSpline
210
0.0
220
0.0
230
1.0
 70
     8
 71
     3
 72
    10
 73
     6
 74
     0
 42
0.000000001
 43
0.00000001
 40
0.0
 40
0.0
 40
0.0
 40
0.0
 40
0.200221217735083
 40
0.6001106499056326
 40
1.0
 40
1.0
 40
1.0
 40
1.0
 10
36.93742495179177
 20
-9.509792551398279
 30
0.0
 10
36.93145593936984
 20
-9.512554904820663
 30
0.0
 10
36.91356538828668
 20
-9.520834335573948
 30
0.0
 10
36.88374681616077
 20
-9.40994922617485
 30
0.0
 10
36.85990027552813
 20
-9.234674904044306
 30
0.0
 10
36.8479770064354
 20
-9.147037751972677
 30
0.0
  0
SPLINE
  5
4E1
330
1F
100
AcDbEntity
  8
외형선
  6
Continuous
 62
     1
370
    15
100
AcDbSpline
210
0.0
220
0.0
230
1.0
 70
     8
 71
     3
 72
    10
 73
     6
 74
     0
 42
0.000000001
 43
0.00000001
 40
0.0
 40
0.0
 40
0.0
 40
0.0
 40
0.2349606175982319
 40
0.6153492919581106
 40
0.9999999999999999
 40
0.9999999999999999
 40
0.9999999999999999
 40
0.9999999999999999
 10
37.10307743549347
 20
-9.454422630369665
 30
0.0
 10
37.09564325938456
 20
-9.461237342059878
 30
0.0
 10
37.07617354972982
 20
-9.479084707530461
 30
0.0
 10
37.04294682424481
 20
-9.374770339163426
 30
0.0
 10
37.01704749762145
 20
-9.198073289221863
 30
0.0
 10
37.00402569174766
 20
-9.109232574701311
 30
0.0
  0
SPLINE
  5
4E2
330
1F
100
AcDbEntity
  8
외형선
  6
Continuous
 62
     1
370
    15
100
AcDbSpline
210
0.0
220
0.0
230
1.0
 70
     8
 71
     3
 72
     9
 73
     5
 74
     0
 42
0.000000001
 43
0.00000001
 40
0.0
 40
0.0
 40
0.0
 40
0.0
 40
0.3564187897317767
 40
1.0
 40
1.0
 40
1.0
 40
1.0
 10
37.70274114012719
 20
-9.444293566048147
 30
0.0
 10
37.6942738906229
 20
-9.441547182294459
 30
0.0
 10
37.67051742842678
 20
-9.433841685747112
 30
0.0
 10
37.64546274412933
 20
-9.27247082108513
 30
0.0
 10
37.62933802008629
 20
-9.168615564703943
 30
0.0
  0
SPLINE
  5
4E3
330
1F
100
AcDbEntity
  8
외형선
  6
Continuous
 62
     1
370
    15
100
AcDbSpline
210
0.0
220
0.0
230
1.0
 70
     8
 71
     3
 72
     9
 73
     5
 74
     0
 42
0.000000001
 43
0.00000001
 40
0.0
 40
0.0
 40
0.0
 40
0.0
 40
0.6784143089072878
 40
1.0
 40
1.0
 40
1.0
 40
1.0
 10
36.91629510521889
 20
9.39310062676668
 30
0.0
 10
36.90436141635828
 20
9.446235566209984
 30
0.0
 10
36.88677085450846
 20
9.524557822603564
 30
0.0
 10
36.86918252366925
 20
9.513416439103997
 30
0.0
 10
36.86352636814118
 20
9.509833529591559
 30
0.0
  0
SPLINE
  5
4E4
330
1F
100
AcDbEntity
  8
외형선
  6
Continuous
 62
     1
370
    15
100
AcDbSpline
210
0.0
220
0.0
230
1.0
 70
     8
 71
     3
 72
    10
 73
     6
 74
     0
 42
0.000000001
 43
0.00000001
 40
0.0
 40
0.0
 40
0.0
 40
0.0
 40
0.2994383983049814
 40
0.9660851796660653
 40
1.0
 40
1.0
 40
1.0
 40
1.0
 10
36.76046621203422
 20
9.34841576963663
 30
0.0
 10
36.75507246010736
 20
9.372574190047471
 30
0.0
 10
36.73767047082058
 20
9.450517072640919
 30
0.0
 10
36.71900022108937
 20
9.500442905636218
 30
0.0
 10
36.7051884429932
 20
9.467397559376183
 30
0.0
 10
36.70451980233193
 20
9.465797804296015
 30
0.0
  0
SPLINE
  5
4E5
330
1F
100
AcDbEntity
  8
외형선
  6
Continuous
 62
     1
370
    15
100
AcDbSpline
210
0.0
220
0.0
230
1.0
 70
     8
 71
     3
 72
     9
 73
     5
 74
     0
 42
0.000000001
 43
0.00000001
 40
0.0
 40
0.0
 40
0.0
 40
0.0
 40
0.2918162501445596
 40
1.0
 40
1.0
 40
1.0
 40
1.0
 10
36.13611128330231
 20
9.38205700367689
 30
0.0
 10
36.13303940630496
 20
9.395151150787635
 30
0.0
 10
36.1225126553245
 20
9.44002235691224
 30
0.0
 10
36.11140854558633
 20
9.446110291935478
 30
0.0
 10
36.10354479551316
 20
9.450421668589113
 30
0.0
  0
SPLINE
  5
4E6
330
1F
100
AcDbEntity
  8
외형선
  6
Continuous
 62
     1
370
    15
100
AcDbSpline
210
0.0
220
0.0
230
1.0
 70
     8
 71
     3
 72
     9
 73
     5
 74
     0
 42
0.000000001
 43
0.00000001
 40
0.0
 40
0.0
 40
0.0
 40
0.0
 40
0.927998574184682
 40
1.0
 40
1.0
 40
1.0
 40
1.0
 10
35.97976084947587
 20
9.443561546504496
 30
0.0
 10
35.96770415426951
 20
9.48900808590338
 30
0.0
 10
35.95471200585277
 20
9.537980725154268
 30
0.0
 10
35.94172562556085
 20
9.521447320551628
 30
0.0
 10
35.94079058766366
 20
9.520256891846655
 30
0.0
  0
LINE
  5
4E7
330
1F
100
AcDbEntity
  8
외형선
  6
Continuous
 62
     1
370
    15
100
AcDbLine
 10
34.89342894554139
 20
9.486992843449114
 30
0.0
 11
34.86455422043801
 21
9.514923207461832
 31
0.0
  0
SPLINE
  5
4E8
330
1F
100
AcDbEntity
  8
외형선
  6
Continuous
 62
     1
370
    15
100
AcDbSpline
210
0.0
220
0.0
230
1.0
 70
     8
 71
     3
 72
     9
 73
     5
 74
     0
 42
0.000000001
 43
0.00000001
 40
0.0
 40
0.0
 40
0.0
 40
0.0
 40
0.4371932538495377
 40
1.0
 40
1.0
 40
1.0
 40
1.0
 10
34.73753299713135
 20
9.438080713152884
 30
0.0
 10
34.73278717410366
 20
9.44984561362723
 30
0.0
 10
34.7219319676569
 20
9.4767556822771
 30
0.0
 10
34.71052795041211
 20
9.460220468240129
 30
0.0
 10
34.70410969257355
 20
9.450914338231085
 30
0.0
  0
SPLINE
  5
4E9
330
1F
100
AcDbEntity
  8
외형선
  6
Continuous
 62
     1
370
    15
100
AcDbSpline
210
0.0
220
0.0
230
1.0
 70
     8
 71
     3
 72
     9
 73
     5
 74
     0
 42
0.000000001
 43
0.00000001
 40
0.0
 40
0.0
 40
0.0
 40
0.0
 40
0.3865375723565062
 40
1.0
 40
1.0
 40
1.0
 40
1.0
 10
34.11288377046586
 20
9.454433806240557
 30
0.0
 10
34.1105397177007
 20
9.459012464545586
 30
0.0
 10
34.10447548764191
 20
9.470857776961443
 30
0.0
 10
34.09815396317245
 20
9.461965644654127
 30
0.0
 10
34.09427594542504
 20
9.45651065558195
 30
0.0
  0
LINE
  5
4EA
330
1F
100
AcDbEntity
  8
외형선
  6
Continuous
 62
     1
370
    15
100
AcDbLine
 10
33.95645138025284
 20
9.511366486549376
 30
0.0
 11
33.93904309868812
 21
9.509825147688387
 31
0.0
  0
LINE
  5
4EB
330
1F
100
AcDbEntity
  8
외형선
  6
Continuous
 62
     1
370
    15
100
AcDbLine
 10
32.86967244148255
 20
9.524316526949404
 30
0.0
 11
32.86575343608857
 21
9.519239887595175
 31
0.0
  0
LINE
  5
4EC
330
1F
100
AcDbEntity
  8
외형선
  6
Continuous
 62
     1
370
    15
100
AcDbLine
 10
32.71373178958893
 20
9.471443481743334
 30
0.0
 11
32.70441483855247
 21
9.467811323702334
 31
0.0
  0
LINE
  5
4ED
330
1F
100
AcDbEntity
  8
중심선
100
AcDbLine
 10
-63.84999999999999
 20
-0.0000000000000036
 30
0.0
 11
45.39999963641165
 21
0.0000000000000107
 31
0.0
  0
CIRCLE
  5
4EE
330
1F
100
AcDbEntity
  8
해칭선
100
AcDbCircle
 10
0.0
 20
0.0
 30
0.0
 40
3.000000000000005
  0
POINT
  5
4EF
330
1F
100
AcDbEntity
  8
치수문자_일반주서
100
AcDbPoint
 10
-12.87500036358832
 20
-0.3168705809327363
 30
0.0
  0
DIMENSION
  5
4F0
330
1F
100
AcDbEntity
  8
치수문자_일반주서
100
AcDbDimension
  2
*D12
 10
53.42987960660304
 20
-9.52499999999993
 30
0.0
 11
53.42987960660301
 21
1.186166785118299
 31
0.0
 70
   160
  1
%%c<>
 71
     2
 42
19.04054407536217
 52
-270.0
  3
SLDDIMSTYLE0
100
AcDbAlignedDimension
 13
31.388659318892
 23
9.51554407536216
 33
0.0
 14
35.53897232480765
 24
-9.524999999999995
 34
0.0
 50
90.0000000000002
100
AcDbRotatedDimension
1001
ACAD
1000
DSTYLE
1002
{
1070
   273
1070
     7
1002
}
  0
DIMENSION
  5
4F1
330
1F
100
AcDbEntity
  8
치수문자_일반주서
100
AcDbDimension
  2
*D13
 10
-66.59750169873237
 20
-9.525000117719213
 30
0.0
 11
-66.5975016987324
 21
-1.526016639150088
 31
0.0
 70
   160
  1
%%c<>
 71
     2
 42
19.05000000000001
 52
-270.0
  3
SLDDIMSTYLE1
100
AcDbAlignedDimension
 13
-55.78750169873237
 23
9.524999882280836
 33
0.0
 14
-55.78750169873237
 24
-9.525000117719175
 34
0.0
 50
90.0000000000002
100
AcDbRotatedDimension
1001
ACAD
1000
DSTYLE
1002
{
1070
   273
1070
     7
1002
}
  0
DIMENSION
  5
4F2
330
1F
100
AcDbEntity
  8
치수문자_일반주서
100
AcDbDimension
  2
*D14
 10
13.0
 20
26.18826246161029
 30
0.0
 11
25.69999981820582
 21
26.18826246161029
 31
0.0
 70
   160
  1
<>
 71
     2
 42
25.39999963641165
  3
SLDDIMSTYLE0
100
AcDbAlignedDimension
 13
38.39999963641165
 23
8.860547298982153
 33
0.0
 14
13.0
 24
9.525
 34
0.0
 50
0.0000000000000345
100
AcDbRotatedDimension
1001
ACAD
1000
DSTYLE
1002
{
1070
   171
1070
     5
1070
   273
1070
     7
1002
}
1001
ACAD_DSTYLE_DIMFLIPARROW_SYMBOL
1070
   385
1070
     0
1001
ACAD_DSTYLE_DIMFLIPARROW_WHICH_SYMBOL
1070
   386
1070
     3
  0
DIMENSION
  5
4F3
330
1F
100
AcDbEntity
  8
치수문자_일반주서
100
AcDbDimension
  2
*D15
 10
-56.85000000000001
 20
42.85792746260613
 30
0.0
 11
-7.957941602472324
 21
42.85792746260613
 31
0.0
 70
   160
  1
<>
 71
     2
 42
95.24999963641164
  3
SLDDIMSTYLE2
100
AcDbAlignedDimension
 13
38.39999963641165
 23
8.860547298982153
 33
0.0
 14
-56.85
 24
8.524999953806399
 34
0.0
100
AcDbRotatedDimension
1001
ACAD
1000
DSTYLE
1002
{
1070
   273
1070
     7
1002
}
  0
INSERT
  5
4F4
330
1F
100
AcDbEntity
  8
해칭선
100
AcDbBlockReference
  2
SW_DOWELSYMBOL_0
 10
0.0
 20
0.0
 30
0.0
  0
LINE
  5
4F5
330
1F
100
AcDbEntity
  8
외형선
  6
Continuous
370
    15
100
AcDbLine
 10
13.0
 20
9.525
 30
0.0
 11
13.0
 21
-9.525000000000002
 31
0.0
  0
SPLINE
  5
4F6
330
1F
100
AcDbEntity
  8
외형선
  6
Continuous
 62
     1
370
    15
100
AcDbSpline
210
0.0
220
0.0
230
1.0
 70
     8
 71
     3
 72
     8
 73
     4
 74
     0
 42
0.000000001
 43
0.00000001
 40
0.9995550403791907
 40
0.9995550403791907
 40
0.9995550403791907
 40
0.9995550403791907
 40
1.0
 40
1.0
 40
1.0
 40
1.0
 10
12.97974962877812
 20
8.859325339803961
 30
0.0
 10
12.97958790476093
 20
8.859346962959611
 30
0.0
 10
12.9794261805155
 20
8.859368585618201
 30
0.0
 10
12.97926445604165
 20
8.859390207779738
 30
0.0
  0
SPLINE
  5
4F7
330
1F
100
AcDbEntity
  8
외형선
  6
Continuous
 62
     1
370
    15
100
AcDbSpline
210
0.0
220
0.0
230
1.0
 70
    24
 71
     3
 72
     8
 73
     4
 74
     0
 42
0.000000001
 43
0.00000001
 40
0.9999544530420612
 40
0.9999544530420612
 40
0.9999544530420612
 40
0.9999544530420612
 40
1.0
 40
1.0
 40
1.0
 40
1.0
 10
12.97974962878416
 20
8.859325339804508
 30
0.0
 10
12.97974749846941
 20
8.859348908808494
 30
0.0
 10
12.9797453681655
 20
8.859372477162148
 30
0.0
 10
12.97974323787243
 20
8.859396044865475
 30
0.0
  0
ENDSEC
  0
SECTION
  2
OBJECTS
  0
DICTIONARY
  5
C
330
0
100
AcDbDictionary
281
     1
  3
ACAD_GROUP
350
D
  3
ACAD_IMAGE_VARS
350
142
  3
ACAD_LAYOUT
350
1A
  3
ACAD_MLINESTYLE
350
17
  3
ACAD_PLOTSETTINGS
350
19
  3
ACAD_PLOTSTYLENAME
350
E
  3
ACAD_SCALELIST
350
47
  3
APPDATA
350
140
  3
DWGPROPS
350
52A
  0
DICTIONARY
  5
D
102
{ACAD_REACTORS
330
C
102
}
330
C
100
AcDbDictionary
281
     1
  0
RASTERVARIABLES
  5
142
102
{ACAD_REACTORS
330
C
102
}
330
C
100
AcDbRasterVariables
 90
        0
 70
     1
 71
     1
 72
     1
  0
DICTIONARY
  5
1A
102
{ACAD_REACTORS
330
C
102
}
330
C
100
AcDbDictionary
281
     1
  3
Layout1
350
1E
  3
Layout2
350
26
  3
Model
350
22
  0
DICTIONARY
  5
17
102
{ACAD_REACTORS
330
C
102
}
330
C
100
AcDbDictionary
281
     1
  3
Standard
350
18
  0
DICTIONARY
  5
19
102
{ACAD_REACTORS
330
C
102
}
330
C
100
AcDbDictionary
281
     1
  0
ACDBDICTIONARYWDFLT
  5
E
102
{ACAD_REACTORS
330
C
102
}
330
C
100
AcDbDictionary
281
     1
  3
Normal
350
F
100
AcDbDictionaryWithDefault
340
F
  0
DICTIONARY
  5
47
102
{ACAD_REACTORS
330
C
102
}
330
C
100
AcDbDictionary
281
     1
  3
A0
350
48
  3
A1
350
49
  3
A2
350
4A
  3
A3
350
4B
  3
A4
350
4C
  3
A5
350
4D
  3
A6
350
4E
  3
A7
350
4F
  3
A8
350
50
  3
A9
350
51
  3
B0
350
52
  3
B1
350
53
  3
B2
350
54
  3
B3
350
55
  3
B4
350
56
  3
B5
350
57
  3
B6
350
58
  3
B7
350
59
  3
B8
350
5A
  3
B9
350
5B
  3
C0
350
5C
  3
C1
350
5D
  3
C2
350
5E
  3
C3
350
5F
  3
C4
350
60
  3
C5
350
61
  3
C6
350
62
  3
C7
350
63
  3
C8
350
64
  3
C9
350
65
  3
D0
350
66
  3
D1
350
67
  3
D2
350
68
  0
DICTIONARY
  5
140
102
{ACAD_REACTORS
330
C
102
}
330
C
100
AcDbDictionary
281
     1
  0
XRECORD
  5
52A
102
{ACAD_REACTORS
330
C
102
}
330
C
100
AcDbXrecord
280
     1
  1
DWGPROPS COOKIE
  2

  3

  4

  6

  7

  8
12016016
  9

300
=
301
=
302
=
303
=
304
=
305
=
306
=
307
=
308
=
309
=
 40
0.0
 41
2458298.96908162
 42
2458302.368905926
  1

 90
        0
  0
LAYOUT
  5
1E
102
{ACAD_REACTORS
330
1A
102
}
330
1A
100
AcDbPlotSettings
  1

  2
none_device
  4

  6

 40
0.0
 41
0.0
 42
0.0
 43
0.0
 44
0.0
 45
0.0
 46
0.0
 47
0.0
 48
0.0
 49
0.0
140
0.0
141
0.0
142
1.0
143
1.0
 70
   688
 72
     1
 73
     0
 74
     5
  7

 75
    16
147
1.0
148
0.0
149
0.0
100
AcDbLayout
  1
Layout1
 70
     1
 71
     1
 10
0.0
 20
0.0
 11
420.0
 21
297.0
 12
0.0
 22
0.0
 32
0.0
 14
1.000000000000000E+20
 24
1.000000000000000E+20
 34
1.000000000000000E+20
 15
-1.000000000000000E+20
 25
-1.000000000000000E+20
 35
-1.000000000000000E+20
146
0.0
 13
0.0
 23
0.0
 33
0.0
 16
1.0
 26
0.0
 36
0.0
 17
0.0
 27
1.0
 37
0.0
 76
     0
330
1B
  0
LAYOUT
  5
26
102
{ACAD_REACTORS
330
1A
102
}
330
1A
100
AcDbPlotSettings
  1

  2
none_device
  4

  6

 40
0.0
 41
0.0
 42
0.0
 43
0.0
 44
0.0
 45
0.0
 46
0.0
 47
0.0
 48
0.0
 49
0.0
140
0.0
141
0.0
142
1.0
143
1.0
 70
   688
 72
     1
 73
     0
 74
     5
  7

 75
    16
147
1.0
148
0.0
149
0.0
100
AcDbLayout
  1
Layout2
 70
     1
 71
     2
 10
0.0
 20
0.0
 11
0.0
 21
0.0
 12
0.0
 22
0.0
 32
0.0
 14
0.0
 24
0.0
 34
0.0
 15
0.0
 25
0.0
 35
0.0
146
0.0
 13
0.0
 23
0.0
 33
0.0
 16
1.0
 26
0.0
 36
0.0
 17
0.0
 27
1.0
 37
0.0
 76
     0
330
23
  0
LAYOUT
  5
22
102
{ACAD_REACTORS
330
1A
102
}
330
1A
100
AcDbPlotSettings
  1

  2
none_device
  4
ANSI_A_(11.00_x_8.50_Inches)
  6

 40
6.35
 41
19.05
 42
6.35000508
 43
19.05000254
 44
279.4
 45
215.9
 46
128.3595243331824
 47
89.39949864893492
 48
0.0
 49
0.0
140
0.0
141
0.0
142
0.0652372490344241
143
1.0
 70
  1696
 72
     0
 73
     0
 74
     0
  7

 75
     0
147
0.0235690232323232
148
0.0
149
0.0
100
AcDbLayout
  1
Model
 70
     1
 71
     0
 10
0.0
 20
0.0
 11
420.0
 21
297.0
 12
0.0
 22
0.0
 32
0.0
 14
1.000000000000000E+20
 24
1.000000000000000E+20
 34
1.000000000000000E+20
 15
-1.000000000000000E+20
 25
-1.000000000000000E+20
 35
-1.000000000000000E+20
146
0.0
 13
0.0
 23
0.0
 33
0.0
 16
1.0
 26
0.0
 36
0.0
 17
0.0
 27
1.0
 37
0.0
 76
     0
330
1F
331
29
  0
MLINESTYLE
  5
18
102
{ACAD_REACTORS
330
17
102
}
330
17
100
AcDbMlineStyle
  2
Standard
 70
     0
  3

 62
   256
 51
90.0
 52
90.0
 71
     2
 49
0.5
 62
   256
  6
BYLAYER
 49
-0.5
 62
   256
  6
BYLAYER
  0
ACDBPLACEHOLDER
  5
F
102
{ACAD_REACTORS
330
E
102
}
330
E
  0
SCALE
  5
48
102
{ACAD_REACTORS
330
47
102
}
330
47
100
AcDbScale
 70
     0
300
1:1
140
1.0
141
1.0
290
     1
  0
SCALE
  5
49
102
{ACAD_REACTORS
330
47
102
}
330
47
100
AcDbScale
 70
     0
300
1:2
140
1.0
141
2.0
290
     0
  0
SCALE
  5
4A
102
{ACAD_REACTORS
330
47
102
}
330
47
100
AcDbScale
 70
     0
300
1:4
140
1.0
141
4.0
290
     0
  0
SCALE
  5
4B
102
{ACAD_REACTORS
330
47
102
}
330
47
100
AcDbScale
 70
     0
300
1:5
140
1.0
141
5.0
290
     0
  0
SCALE
  5
4C
102
{ACAD_REACTORS
330
47
102
}
330
47
100
AcDbScale
 70
     0
300
1:8
140
1.0
141
8.0
290
     0
  0
SCALE
  5
4D
102
{ACAD_REACTORS
330
47
102
}
330
47
100
AcDbScale
 70
     0
300
1:10
140
1.0
141
10.0
290
     0
  0
SCALE
  5
4E
102
{ACAD_REACTORS
330
47
102
}
330
47
100
AcDbScale
 70
     0
300
1:16
140
1.0
141
16.0
290
     0
  0
SCALE
  5
4F
102
{ACAD_REACTORS
330
47
102
}
330
47
100
AcDbScale
 70
     0
300
1:20
140
1.0
141
20.0
290
     0
  0
SCALE
  5
50
102
{ACAD_REACTORS
330
47
102
}
330
47
100
AcDbScale
 70
     0
300
1:30
140
1.0
141
30.0
290
     0
  0
SCALE
  5
51
102
{ACAD_REACTORS
330
47
102
}
330
47
100
AcDbScale
 70
     0
300
1:40
140
1.0
141
40.0
290
     0
  0
SCALE
  5
52
102
{ACAD_REACTORS
330
47
102
}
330
47
100
AcDbScale
 70
     0
300
1:50
140
1.0
141
50.0
290
     0
  0
SCALE
  5
53
102
{ACAD_REACTORS
330
47
102
}
330
47
100
AcDbScale
 70
     0
300
1:100
140
1.0
141
100.0
290
     0
  0
SCALE
  5
54
102
{ACAD_REACTORS
330
47
102
}
330
47
100
AcDbScale
 70
     0
300
2:1
140
2.0
141
1.0
290
     0
  0
SCALE
  5
55
102
{ACAD_REACTORS
330
47
102
}
330
47
100
AcDbScale
 70
     0
300
4:1
140
4.0
141
1.0
290
     0
  0
SCALE
  5
56
102
{ACAD_REACTORS
330
47
102
}
330
47
100
AcDbScale
 70
     0
300
8:1
140
8.0
141
1.0
290
     0
  0
SCALE
  5
57
102
{ACAD_REACTORS
330
47
102
}
330
47
100
AcDbScale
 70
     0
300
10:1
140
10.0
141
1.0
290
     0
  0
SCALE
  5
58
102
{ACAD_REACTORS
330
47
102
}
330
47
100
AcDbScale
 70
     0
300
100:1
140
100.0
141
1.0
290
     0
  0
SCALE
  5
59
102
{ACAD_REACTORS
330
47
102
}
330
47
100
AcDbScale
 70
     0
300
1/128" = 1'-0"
140
0.0078125
141
12.0
290
     0
  0
SCALE
  5
5A
102
{ACAD_REACTORS
330
47
102
}
330
47
100
AcDbScale
 70
     0
300
1/64" = 1'-0"
140
0.015625
141
12.0
290
     0
  0
SCALE
  5
5B
102
{ACAD_REACTORS
330
47
102
}
330
47
100
AcDbScale
 70
     0
300
1/32" = 1'-0"
140
0.03125
141
12.0
290
     0
  0
SCALE
  5
5C
102
{ACAD_REACTORS
330
47
102
}
330
47
100
AcDbScale
 70
     0
300
1/16" = 1'-0"
140
0.0625
141
12.0
290
     0
  0
SCALE
  5
5D
102
{ACAD_REACTORS
330
47
102
}
330
47
100
AcDbScale
 70
     0
300
3/32" = 1'-0"
140
0.09375
141
12.0
290
     0
  0
SCALE
  5
5E
102
{ACAD_REACTORS
330
47
102
}
330
47
100
AcDbScale
 70
     0
300
1/8" = 1'-0"
140
0.125
141
12.0
290
     0
  0
SCALE
  5
5F
102
{ACAD_REACTORS
330
47
102
}
330
47
100
AcDbScale
 70
     0
300
3/16" = 1'-0"
140
0.1875
141
12.0
290
     0
  0
SCALE
  5
60
102
{ACAD_REACTORS
330
47
102
}
330
47
100
AcDbScale
 70
     0
300
1/4" = 1'-0"
140
0.25
141
12.0
290
     0
  0
SCALE
  5
61
102
{ACAD_REACTORS
330
47
102
}
330
47
100
AcDbScale
 70
     0
300
3/8" = 1'-0"
140
0.375
141
12.0
290
     0
  0
SCALE
  5
62
102
{ACAD_REACTORS
330
47
102
}
330
47
100
AcDbScale
 70
     0
300
1/2" = 1'-0"
140
0.5
141
12.0
290
     0
  0
SCALE
  5
63
102
{ACAD_REACTORS
330
47
102
}
330
47
100
AcDbScale
 70
     0
300
3/4" = 1'-0"
140
0.75
141
12.0
290
     0
  0
SCALE
  5
64
102
{ACAD_REACTORS
330
47
102
}
330
47
100
AcDbScale
 70
     0
300
1" = 1'-0"
140
1.0
141
12.0
290
     0
  0
SCALE
  5
65
102
{ACAD_REACTORS
330
47
102
}
330
47
100
AcDbScale
 70
     0
300
1-1/2" = 1'-0"
140
1.5
141
12.0
290
     0
  0
SCALE
  5
66
102
{ACAD_REACTORS
330
47
102
}
330
47
100
AcDbScale
 70
     0
300
3" = 1'-0"
140
3.0
141
12.0
290
     0
  0
SCALE
  5
67
102
{ACAD_REACTORS
330
47
102
}
330
47
100
AcDbScale
 70
     0
300
6" = 1'-0"
140
6.0
141
12.0
290
     0
  0
SCALE
  5
68
102
{ACAD_REACTORS
330
47
102
}
330
47
100
AcDbScale
 70
     0
300
1'-0" = 1'-0"
140
12.0
141
12.0
290
     0
  0
ENDSEC
  0
EOF
