  0
SECTION
  2
HEADER
  9
$ACADVER
  1
AC1015
  9
$ACADMAINTVER
 70
     6
  9
$DWGCODEPAGE
  3
ANSI_949
  9
$INSBASE
 10
0.0
 20
0.0
 30
0.0
  9
$EXTMIN
 10
-53.39750000000006
 20
-49.97180738881175
 30
0.0
  9
$EXTMAX
 10
86.47629082238858
 20
42.31651582153057
 30
0.0
  9
$LIMMIN
 10
0.0
 20
0.0
  9
$LIMMAX
 10
420.0
 20
297.0
  9
$ORTHOMODE
 70
     0
  9
$REGENMODE
 70
     1
  9
$FILLMODE
 70
     1
  9
$QTEXTMODE
 70
     0
  9
$MIRRTEXT
 70
     1
  9
$LTSCALE
 40
1.0
  9
$ATTMODE
 70
     1
  9
$TEXTSIZE
 40
3.5
  9
$TRACEWID
 40
1.0
  9
$TEXTSTYLE
  7
Standard
  9
$CLAYER
  8
0
  9
$CELTYPE
  6
ByLayer
  9
$CECOLOR
 62
   256
  9
$CELTSCALE
 40
1.0
  9
$DISPSILH
 70
     0
  9
$DIMSCALE
 40
1.0
  9
$DIMASZ
 40
3.302
  9
$DIMEXO
 40
1.0
  9
$DIMDLI
 40
3.75
  9
$DIMRND
 40
0.0
  9
$DIMDLE
 40
0.0
  9
$DIMEXE
 40
1.0
  9
$DIMTP
 40
0.0
  9
$DIMTM
 40
0.0
  9
$DIMTXT
 40
3.5
  9
$DIMCEN
 40
2.5
  9
$DIMTSZ
 40
0.0
  9
$DIMTOL
 70
     0
  9
$DIMLIM
 70
     0
  9
$DIMTIH
 70
     1
  9
$DIMTOH
 70
     1
  9
$DIMSE1
 70
     0
  9
$DIMSE2
 70
     0
  9
$DIMTAD
 70
     1
  9
$DIMZIN
 70
     0
  9
$DIMBLK
  1

  9
$DIMASO
 70
     1
  9
$DIMSHO
 70
     1
  9
$DIMPOST
  1

  9
$DIMAPOST
  1

  9
$DIMALT
 70
     0
  9
$DIMALTD
 70
     3
  9
$DIMALTF
 40
0.0393700787401575
  9
$DIMLFAC
 40
1.0
  9
$DIMTOFL
 70
     1
  9
$DIMTVP
 40
0.0
  9
$DIMTIX
 70
     0
  9
$DIMSOXD
 70
     0
  9
$DIMSAH
 70
     0
  9
$DIMBLK1
  1

  9
$DIMBLK2
  1

  9
$DIMSTYLE
  2
ISO-25
  9
$DIMCLRD
 70
     0
  9
$DIMCLRE
 70
     0
  9
$DIMCLRT
 70
     0
  9
$DIMTFAC
 40
1.0
  9
$DIMGAP
 40
1.524
  9
$DIMJUST
 70
     0
  9
$DIMSD1
 70
     0
  9
$DIMSD2
 70
     0
  9
$DIMTOLJ
 70
     0
  9
$DIMTZIN
 70
     0
  9
$DIMALTZ
 70
     0
  9
$DIMALTTZ
 70
     0
  9
$DIMUPT
 70
     0
  9
$DIMDEC
 70
     2
  9
$DIMTDEC
 70
     2
  9
$DIMALTU
 70
     2
  9
$DIMALTTD
 70
     3
  9
$DIMTXSTY
  7
Standard
  9
$DIMAUNIT
 70
     0
  9
$DIMADEC
 70
     2
  9
$DIMALTRND
 40
0.0
  9
$DIMAZIN
 70
     0
  9
$DIMDSEP
 70
    44
  9
$DIMATFIT
 70
     3
  9
$DIMFRAC
 70
     0
  9
$DIMLDRBLK
  1

  9
$DIMLUNIT
 70
     2
  9
$DIMLWD
 70
    -2
  9
$DIMLWE
 70
    -2
  9
$DIMTMOVE
 70
     0
  9
$LUNITS
 70
     2
  9
$LUPREC
 70
     2
  9
$SKETCHINC
 40
1.0
  9
$FILLETRAD
 40
10.0
  9
$AUNITS
 70
     0
  9
$AUPREC
 70
     2
  9
$MENU
  1
.
  9
$ELEVATION
 40
0.0
  9
$PELEVATION
 40
0.0
  9
$THICKNESS
 40
0.0
  9
$LIMCHECK
 70
     0
  9
$CHAMFERA
 40
0.0
  9
$CHAMFERB
 40
0.0
  9
$CHAMFERC
 40
0.0
  9
$CHAMFERD
 40
0.0
  9
$SKPOLY
 70
     0
  9
$TDCREATE
 40
2458299.343695776
  9
$TDUCREATE
 40
2458298.968695776
  9
$TDUPDATE
 40
2458302.578477812
  9
$TDUUPDATE
 40
2458302.203477812
  9
$TDINDWG
 40
0.0005012963
  9
$TDUSRTIMER
 40
2458302.202976701
  9
$USRTIMER
 70
     1
  9
$ANGBASE
 50
0.0
  9
$ANGDIR
 70
     0
  9
$PDMODE
 70
     0
  9
$PDSIZE
 40
-1.0
  9
$PLINEWID
 40
0.0
  9
$SPLFRAME
 70
     0
  9
$SPLINETYPE
 70
     6
  9
$SPLINESEGS
 70
     8
  9
$HANDSEED
  5
1EE
  9
$SURFTAB1
 70
     6
  9
$SURFTAB2
 70
     6
  9
$SURFTYPE
 70
     6
  9
$SURFU
 70
     6
  9
$SURFV
 70
     6
  9
$UCSBASE
  2

  9
$UCSNAME
  2

  9
$UCSORG
 10
0.0
 20
0.0
 30
0.0
  9
$UCSXDIR
 10
1.0
 20
0.0
 30
0.0
  9
$UCSYDIR
 10
0.0
 20
1.0
 30
0.0
  9
$UCSORTHOREF
  2

  9
$UCSORTHOVIEW
 70
     0
  9
$UCSORGTOP
 10
0.0
 20
0.0
 30
0.0
  9
$UCSORGBOTTOM
 10
0.0
 20
0.0
 30
0.0
  9
$UCSORGLEFT
 10
0.0
 20
0.0
 30
0.0
  9
$UCSORGRIGHT
 10
0.0
 20
0.0
 30
0.0
  9
$UCSORGFRONT
 10
0.0
 20
0.0
 30
0.0
  9
$UCSORGBACK
 10
0.0
 20
0.0
 30
0.0
  9
$PUCSBASE
  2

  9
$PUCSNAME
  2

  9
$PUCSORG
 10
0.0
 20
0.0
 30
0.0
  9
$PUCSXDIR
 10
1.0
 20
0.0
 30
0.0
  9
$PUCSYDIR
 10
0.0
 20
1.0
 30
0.0
  9
$PUCSORTHOREF
  2

  9
$PUCSORTHOVIEW
 70
     0
  9
$PUCSORGTOP
 10
0.0
 20
0.0
 30
0.0
  9
$PUCSORGBOTTOM
 10
0.0
 20
0.0
 30
0.0
  9
$PUCSORGLEFT
 10
0.0
 20
0.0
 30
0.0
  9
$PUCSORGRIGHT
 10
0.0
 20
0.0
 30
0.0
  9
$PUCSORGFRONT
 10
0.0
 20
0.0
 30
0.0
  9
$PUCSORGBACK
 10
0.0
 20
0.0
 30
0.0
  9
$USERI1
 70
     0
  9
$USERI2
 70
     0
  9
$USERI3
 70
     0
  9
$USERI4
 70
     0
  9
$USERI5
 70
     0
  9
$USERR1
 40
0.0
  9
$USERR2
 40
0.0
  9
$USERR3
 40
0.0
  9
$USERR4
 40
0.0
  9
$USERR5
 40
0.0
  9
$WORLDVIEW
 70
     1
  9
$SHADEDGE
 70
     3
  9
$SHADEDIF
 70
    70
  9
$TILEMODE
 70
     1
  9
$MAXACTVP
 70
    64
  9
$PINSBASE
 10
0.0
 20
0.0
 30
0.0
  9
$PLIMCHECK
 70
     0
  9
$PEXTMIN
 10
1.000000000000000E+20
 20
1.000000000000000E+20
 30
1.000000000000000E+20
  9
$PEXTMAX
 10
-1.000000000000000E+20
 20
-1.000000000000000E+20
 30
-1.000000000000000E+20
  9
$PLIMMIN
 10
0.0
 20
0.0
  9
$PLIMMAX
 10
0.0
 20
0.0
  9
$UNITMODE
 70
     0
  9
$VISRETAIN
 70
     1
  9
$PLINEGEN
 70
     0
  9
$PSLTSCALE
 70
     1
  9
$TREEDEPTH
 70
  3020
  9
$CMLSTYLE
  2
Standard
  9
$CMLJUST
 70
     0
  9
$CMLSCALE
 40
20.0
  9
$PROXYGRAPHICS
 70
     1
  9
$MEASUREMENT
 70
     1
  9
$CELWEIGHT
370
    -1
  9
$ENDCAPS
280
     0
  9
$JOINSTYLE
280
     0
  9
$LWDISPLAY
290
     1
  9
$INSUNITS
 70
     4
  9
$HYPERLINKBASE
  1

  9
$STYLESHEET
  1

  9
$XEDIT
290
     1
  9
$CEPSNTYPE
380
     0
  9
$PSTYLEMODE
290
     1
  9
$FINGERPRINTGUID
  2
{B0543242-4841-4EA6-881E-243BD7D56D9A}
  9
$VERSIONGUID
  2
{FAEB1C32-E019-11D5-929B-00C0DF256EC4}
  9
$EXTNAMES
290
     1
  9
$PSVPSCALE
 40
0.0
  9
$OLESTARTUP
290
     0
  0
ENDSEC
  0
SECTION
  2
CLASSES
  0
CLASS
  1
ACDBDICTIONARYWDFLT
  2
AcDbDictionaryWithDefault
  3
ObjectDBX Classes
 90
        0
280
     0
281
     0
  0
CLASS
  1
VISUALSTYLE
  2
AcDbVisualStyle
  3
ObjectDBX Classes
 90
     4095
280
     0
281
     0
  0
CLASS
  1
MATERIAL
  2
AcDbMaterial
  3
ObjectDBX Classes
 90
     1153
280
     0
281
     0
  0
CLASS
  1
SCALE
  2
AcDbScale
  3
ObjectDBX Classes
 90
     1153
280
     0
281
     0
  0
CLASS
  1
SUN
  2
AcDbSun
  3
SCENEOE
 90
     1153
280
     0
281
     0
  0
CLASS
  1
ACDBPLACEHOLDER
  2
AcDbPlaceHolder
  3
ObjectDBX Classes
 90
        0
280
     0
281
     0
  0
CLASS
  1
LAYOUT
  2
AcDbLayout
  3
ObjectDBX Classes
 90
        0
280
     0
281
     0
  0
CLASS
  1
TABLESTYLE
  2
AcDbTableStyle
  3
ObjectDBX Classes
 90
     4095
280
     0
281
     0
  0
CLASS
  1
MLEADERSTYLE
  2
AcDbMLeaderStyle
  3
ACDB_MLEADERSTYLE_CLASS
 90
     4095
280
     0
281
     0
  0
CLASS
  1
RASTERVARIABLES
  2
AcDbRasterVariables
  3
ISM
 90
        0
280
     0
281
     0
  0
ENDSEC
  0
SECTION
  2
TABLES
  0
TABLE
  2
VPORT
  5
8
330
0
100
AcDbSymbolTable
 70
     1
  0
VPORT
  5
29
330
8
100
AcDbSymbolTableRecord
100
AcDbViewportTableRecord
  2
*Active
 70
     0
 10
0.0
 20
0.0
 11
1.0
 21
1.0
 12
5.013509435953175
 22
10.20646595411379
 13
0.0
 23
0.0
 14
10.0
 24
10.0
 15
10.0
 25
10.0
 16
0.0
 26
0.0
 36
1.0
 17
0.0
 27
0.0
 37
0.0
 40
102.8393290249127
 41
1.595744680851064
 42
50.0
 43
0.0
 44
0.0
 50
0.0
 51
0.0
 71
    16
 72
  2000
 73
     1
 74
     3
 75
     0
 76
     0
 77
     0
 78
     0
281
     0
 65
     1
110
0.0
120
0.0
130
0.0
111
1.0
121
0.0
131
0.0
112
0.0
122
1.0
132
0.0
 79
     0
146
0.0
  0
ENDTAB
  0
TABLE
  2
LTYPE
  5
5
330
0
100
AcDbSymbolTable
 70
     6
  0
LTYPE
  5
14
330
5
100
AcDbSymbolTableRecord
100
AcDbLinetypeTableRecord
  2
ByBlock
 70
     0
  3

 72
    65
 73
     0
 40
0.0
  0
LTYPE
  5
15
330
5
100
AcDbSymbolTableRecord
100
AcDbLinetypeTableRecord
  2
ByLayer
 70
     0
  3

 72
    65
 73
     0
 40
0.0
  0
LTYPE
  5
16
330
5
100
AcDbSymbolTableRecord
100
AcDbLinetypeTableRecord
  2
Continuous
 70
     0
  3
Solid line
 72
    65
 73
     0
 40
0.0
  0
LTYPE
  5
6A
330
5
100
AcDbSymbolTableRecord
100
AcDbLinetypeTableRecord
  2
HIDDEN
 70
     0
  3
Hidden __ __ __ __ __ __ __ __ __ __ __ __ __ __
 72
    65
 73
     2
 40
1.905
 49
1.27
 74
     0
 49
-0.635
 74
     0
  0
LTYPE
  5
6B
330
5
100
AcDbSymbolTableRecord
100
AcDbLinetypeTableRecord
  2
PHANTOM
 70
     0
  3
Phantom ______  __  __  ______  __  __  ______
 72
    65
 73
     6
 40
12.7
 49
6.35
 74
     0
 49
-1.27
 74
     0
 49
1.27
 74
     0
 49
-1.27
 74
     0
 49
1.27
 74
     0
 49
-1.27
 74
     0
  0
LTYPE
  5
6C
330
5
100
AcDbSymbolTableRecord
100
AcDbLinetypeTableRecord
  2
CENTER
 70
     0
  3
Center ____ _ ____ _ ____ _ ____ _ ____ _ ____
 72
    65
 73
     4
 40
10.16
 49
6.35
 74
     0
 49
-1.27
 74
     0
 49
1.27
 74
     0
 49
-1.27
 74
     0
  0
LTYPE
  5
6D
330
5
100
AcDbSymbolTableRecord
100
AcDbLinetypeTableRecord
  2
CENTERX2
 70
     0
  3
Center (2x) ________  __  ________  __  _____
 72
    65
 73
     4
 40
20.32
 49
12.7
 74
     0
 49
-2.54
 74
     0
 49
2.54
 74
     0
 49
-2.54
 74
     0
  0
LTYPE
  5
6E
330
5
100
AcDbSymbolTableRecord
100
AcDbLinetypeTableRecord
  2
DOT2
 70
     0
  3
Dot (.5x) ........................................
 72
    65
 73
     2
 40
0.635
 49
0.0
 74
     0
 49
-0.635
 74
     0
  0
ENDTAB
  0
TABLE
  2
LAYER
  5
2
330
0
100
AcDbSymbolTable
 70
    18
  0
LAYER
  5
10
330
2
100
AcDbSymbolTableRecord
100
AcDbLayerTableRecord
  2
0
 70
     0
 62
     7
  6
Continuous
370
    -3
390
F
  0
LAYER
  5
6F
330
2
100
AcDbSymbolTableRecord
100
AcDbLayerTableRecord
  2
FORMAT
 70
     0
 62
     2
  6
Continuous
370
    -3
390
F
  0
LAYER
  5
70
330
2
100
AcDbSymbolTableRecord
100
AcDbLayerTableRecord
  2
외형선
 70
     0
 62
     4
  6
Continuous
370
    30
390
F
  0
LAYER
  5
71
330
2
100
AcDbSymbolTableRecord
100
AcDbLayerTableRecord
  2
숨은선
 70
     0
 62
     2
  6
HIDDEN
370
    15
390
F
  0
LAYER
  5
72
330
2
100
AcDbSymbolTableRecord
100
AcDbLayerTableRecord
  2
중심선
 70
     0
 62
     1
  6
CENTERX2
370
    -3
390
F
  0
LAYER
  5
73
330
2
100
AcDbSymbolTableRecord
100
AcDbLayerTableRecord
  2
파단선
 70
     0
 62
     4
  6
Continuous
370
    -3
390
F
  0
LAYER
  5
74
330
2
100
AcDbSymbolTableRecord
100
AcDbLayerTableRecord
  2
해칭선
 70
     0
 62
   100
  6
Continuous
370
    -3
390
F
  0
LAYER
  5
75
330
2
100
AcDbSymbolTableRecord
100
AcDbLayerTableRecord
  2
가는실선
 70
     0
 62
     4
  6
Continuous
370
    -3
390
F
  0
LAYER
  5
76
330
2
100
AcDbSymbolTableRecord
100
AcDbLayerTableRecord
  2
치수_보조선
 70
     0
 62
     4
  6
Continuous
370
    -3
390
F
  0
LAYER
  5
77
330
2
100
AcDbSymbolTableRecord
100
AcDbLayerTableRecord
  2
치수문자_일반주서
 70
     0
 62
     7
  6
Continuous
370
    15
390
F
  0
LAYER
  5
78
330
2
100
AcDbSymbolTableRecord
100
AcDbLayerTableRecord
  2
개별주서
 70
     0
 62
   100
  6
Continuous
370
    30
390
F
  0
LAYER
  5
79
330
2
100
AcDbSymbolTableRecord
100
AcDbLayerTableRecord
  2
중간선
 70
     0
 62
     2
  6
Continuous
370
    15
390
F
  0
LAYER
  5
7A
330
2
100
AcDbSymbolTableRecord
100
AcDbLayerTableRecord
  2
윤곽선
 70
     0
 62
     3
  6
Continuous
370
    40
390
F
  0
LAYER
  5
7B
330
2
100
AcDbSymbolTableRecord
100
AcDbLayerTableRecord
  2
중심마크
 70
     0
 62
   100
  6
Continuous
370
    30
390
F
  0
LAYER
  5
7C
330
2
100
AcDbSymbolTableRecord
100
AcDbLayerTableRecord
  2
가상선
 70
     0
 62
     4
  6
PHANTOM
370
    -3
390
F
  0
LAYER
  5
7D
330
2
100
AcDbSymbolTableRecord
100
AcDbLayerTableRecord
  2
특수지정선
 70
     0
 62
     5
  6
CENTERX2
370
    60
390
F
  0
LAYER
  5
7E
330
2
100
AcDbSymbolTableRecord
100
AcDbLayerTableRecord
  2
참조1
 70
     0
 62
    -4
  6
Continuous
370
    -3
390
F
  0
LAYER
  5
1EB
330
2
100
AcDbSymbolTableRecord
100
AcDbLayerTableRecord
  2
Defpoints
 70
     0
 62
     7
  6
Continuous
290
     0
370
    -3
390
F
  0
ENDTAB
  0
TABLE
  2
STYLE
  5
3
330
0
100
AcDbSymbolTable
 70
     2
  0
STYLE
  5
11
330
3
100
AcDbSymbolTableRecord
100
AcDbTextStyleTableRecord
  2
Standard
 70
     0
 40
0.0
 41
1.0
 50
0.0
 71
     0
 42
3.5
  3
txt
  4

  0
STYLE
  5
94
330
3
100
AcDbSymbolTableRecord
100
AcDbTextStyleTableRecord
  2
SLDTEXTSTYLE0
 70
     0
 40
0.0
 41
0.75
 50
0.0
 71
     0
 42
3.5
  3
TXT
  4

  0
ENDTAB
  0
TABLE
  2
VIEW
  5
6
330
0
100
AcDbSymbolTable
 70
     0
  0
ENDTAB
  0
TABLE
  2
UCS
  5
7
330
0
100
AcDbSymbolTable
 70
     0
  0
ENDTAB
  0
TABLE
  2
APPID
  5
9
330
0
100
AcDbSymbolTable
 70
     1
  0
APPID
  5
12
330
9
100
AcDbSymbolTableRecord
100
AcDbRegAppTableRecord
  2
ACAD
 70
     0
  0
ENDTAB
  0
TABLE
  2
DIMSTYLE
  5
A
330
0
100
AcDbSymbolTable
 70
     4
100
AcDbDimStyleTable
  0
DIMSTYLE
105
27
330
A
100
AcDbSymbolTableRecord
100
AcDbDimStyleTableRecord
  2
ISO-25
 70
     0
 41
2.5
 42
0.625
 43
3.75
 44
1.25
 73
     0
 74
     0
 77
     1
 78
     8
140
2.5
141
2.5
143
0.03937007874016
147
0.625
171
     3
172
     1
178
     0
271
     2
272
     2
274
     3
278
    44
283
     0
284
     8
340
11
  0
DIMSTYLE
105
16A
102
{ACAD_REACTORS
330
169
330
191
102
}
330
A
100
AcDbSymbolTableRecord
100
AcDbDimStyleTableRecord
  2
SLDDIMSTYLE0
 70
     0
 41
3.302
 44
0.0
 45
0.000000001
 73
     0
 74
     0
 77
     1
 78
    12
 79
     3
140
3.5
143
0.0393700787401575
147
0.875
148
0.000000001
170
     1
173
     1
178
     0
271
     2
272
     2
276
     2
284
    12
340
94
  0
DIMSTYLE
105
17D
102
{ACAD_REACTORS
330
17C
102
}
330
A
100
AcDbSymbolTableRecord
100
AcDbDimStyleTableRecord
  2
SLDDIMSTYLE1
 70
     0
 41
3.302
 44
0.0
 45
0.000000001
 73
     0
 74
     0
 77
     1
 78
    12
 79
     3
140
3.5
143
0.0393700787401575
147
0.875
148
0.000000001
170
     1
172
     1
173
     1
178
     0
271
     2
272
     2
276
     2
284
    12
289
     0
340
94
  0
DIMSTYLE
105
1A6
102
{ACAD_REACTORS
330
1A5
102
}
330
A
100
AcDbSymbolTableRecord
100
AcDbDimStyleTableRecord
  2
SLDDIMSTYLE2
 70
     0
 41
3.302
 44
0.0
 45
0.000000001
 73
     0
 74
     0
 77
     1
 78
     4
 79
     1
140
3.5
143
0.0393700787401575
147
0.875
148
0.000000001
170
     1
173
     1
178
     0
271
     2
272
     2
276
     2
284
    12
340
94
  0
ENDTAB
  0
TABLE
  2
BLOCK_RECORD
  5
1
330
0
100
AcDbSymbolTable
 70
     7
  0
BLOCK_RECORD
  5
1F
330
1
100
AcDbSymbolTableRecord
100
AcDbBlockTableRecord
  2
*Model_Space
340
22
  0
BLOCK_RECORD
  5
1B
330
1
100
AcDbSymbolTableRecord
100
AcDbBlockTableRecord
  2
*Paper_Space
340
1E
  0
BLOCK_RECORD
  5
23
330
1
100
AcDbSymbolTableRecord
100
AcDbBlockTableRecord
  2
*Paper_Space0
340
26
  0
BLOCK_RECORD
  5
7F
330
1
100
AcDbSymbolTableRecord
100
AcDbBlockTableRecord
  2
블럭10
340
0
102
{BLKREFS
331
161
102
}
  0
BLOCK_RECORD
  5
16B
330
1
100
AcDbSymbolTableRecord
100
AcDbBlockTableRecord
  2
_D
340
0
  0
BLOCK_RECORD
  5
17E
330
1
100
AcDbSymbolTableRecord
100
AcDbBlockTableRecord
  2
_D_1
340
0
  0
BLOCK_RECORD
  5
192
330
1
100
AcDbSymbolTableRecord
100
AcDbBlockTableRecord
  2
_D_2
340
0
  0
BLOCK_RECORD
  5
1A7
330
1
100
AcDbSymbolTableRecord
100
AcDbBlockTableRecord
  2
_D_3
340
0
  0
BLOCK_RECORD
  5
1C0
330
1
100
AcDbSymbolTableRecord
100
AcDbBlockTableRecord
  2
SW_DOWELSYMBOL_0
340
0
102
{BLKREFS
331
1C6
102
}
  0
ENDTAB
  0
ENDSEC
  0
SECTION
  2
BLOCKS
  0
BLOCK
  5
20
330
1F
100
AcDbEntity
  8
0
100
AcDbBlockBegin
  2
*Model_Space
 70
     0
 10
0.0
 20
0.0
 30
0.0
  3
*Model_Space
  1
*Model_Space
  0
ENDBLK
  5
21
330
1F
100
AcDbEntity
  8
0
100
AcDbBlockEnd
  0
BLOCK
  5
1C
330
1B
100
AcDbEntity
 67
     1
  8
0
100
AcDbBlockBegin
  2
*Paper_Space
 70
     0
 10
0.0
 20
0.0
 30
0.0
  3
*Paper_Space
  1
*Paper_Space
  0
ENDBLK
  5
1D
330
1B
100
AcDbEntity
 67
     1
  8
0
100
AcDbBlockEnd
  0
BLOCK
  5
24
330
23
100
AcDbEntity
  8
0
100
AcDbBlockBegin
  2
*Paper_Space0
 70
     0
 10
0.0
 20
0.0
 30
0.0
  3
*Paper_Space0
  1
*Paper_Space0
  0
ENDBLK
  5
25
330
23
100
AcDbEntity
  8
0
100
AcDbBlockEnd
  0
BLOCK
  5
80
330
7F
100
AcDbEntity
  8
0
100
AcDbBlockBegin
  2
블럭10
 70
     2
 10
0.0
 20
0.0
 30
0.0
  3
블럭10
  1
블럭10
  0
ELLIPSE
  5
82
330
7F
100
AcDbEntity
  8
중심선
100
AcDbEllipse
 10
20.54032771741204
 20
12.0471743016438
 30
0.0
 11
6.600054785286829
 21
-1.261213355974178E-13
 31
0.0
210
0.0
220
0.0
230
1.0
 40
0.636358354079598
 41
0.9219305317359503
 42
6.513795318482858
  0
ELLIPSE
  5
83
330
7F
100
AcDbEntity
  8
중심선
100
AcDbEllipse
 10
20.54032771746488
 20
12.04717430159265
 30
0.0
 11
3.960054785062283
 21
1.540847449632565E-10
 31
0.0
210
0.0
220
0.0
230
1.0
 40
0.3939339440162632
 41
1.131841032648279
 42
5.62031148352944
  0
LINE
  5
84
330
7F
100
AcDbEntity
  8
중심선
100
AcDbLine
 10
2.268634060543552
 20
16.24717430164393
 30
0.0
 11
5.714909304380834
 21
16.24717430164393
 31
0.0
  0
LINE
  5
85
330
7F
100
AcDbEntity
  8
중심선
100
AcDbLine
 10
5.245725140726316
 20
7.84717430164391
 30
0.0
 11
8.692000384563599
 21
7.84717430164391
 31
0.0
  0
LINE
  5
86
330
7F
100
AcDbEntity
  8
중심선
100
AcDbLine
 10
15.74043728645272
 20
16.24717430164393
 30
0.0
 11
8.692000384563599
 21
7.84717430164391
 31
0.0
  0
LINE
  5
87
330
7F
100
AcDbEntity
  8
중심선
100
AcDbLine
 10
0.1404042013395286
 20
13.71084872107135
 30
0.0
 11
3.58671253028996
 21
13.71088815037384
 31
0.0
  0
LINE
  5
88
330
7F
100
AcDbEntity
  8
중심선
100
AcDbLine
 10
2.750260043222114
 20
10.84717430164391
 30
0.0
 11
6.196535287059397
 21
10.84717430164391
 31
0.0
  0
LINE
  5
89
330
7F
100
AcDbEntity
  8
중심선
100
AcDbLine
 10
12.29416204261559
 20
16.24717430164393
 30
0.0
 11
5.245725140726316
 21
7.84717430164391
 31
0.0
  0
LINE
  5
8A
330
7F
100
AcDbEntity
  8
중심선
100
AcDbLine
 10
10.72767329541681
 20
16.24717430164393
 30
0.0
 11
6.196535287059397
 21
10.84717430164391
 31
0.0
  0
LINE
  5
8B
330
7F
100
AcDbEntity
  8
중심선
100
AcDbLine
 10
7.28139805157953
 20
16.24717430164393
 30
0.0
 11
2.750260043222114
 21
10.84717430164391
 31
0.0
  0
LINE
  5
8C
330
7F
100
AcDbEntity
  8
중심선
100
AcDbLine
 10
5.714909304380834
 20
16.24717430164393
 30
0.0
 11
3.58671253028996
 21
13.71088815037384
 31
0.0
  0
LINE
  5
8D
330
7F
100
AcDbEntity
  8
중심선
100
AcDbLine
 10
2.268634060543552
 20
16.24717430164393
 30
0.0
 11
0.1404042013395286
 21
13.71084872107135
 31
0.0
  0
LINE
  5
8E
330
7F
100
AcDbEntity
  8
중심선
100
AcDbLine
 10
7.28139805157953
 20
16.24717430164393
 30
0.0
 11
10.72767329541681
 21
16.24717430164393
 31
0.0
  0
LINE
  5
8F
330
7F
100
AcDbEntity
  8
중심선
100
AcDbLine
 10
12.29416204261559
 20
16.24717430164393
 30
0.0
 11
15.74043728645272
 21
16.24717430164393
 31
0.0
  0
LINE
  5
90
330
7F
100
AcDbEntity
  8
중심선
100
AcDbLine
 10
19.22036997980202
 20
11.08717430171403
 30
0.0
 11
23.66174974927406
 21
11.08717430171406
 31
0.0
  0
LINE
  5
91
330
7F
100
AcDbEntity
  8
중심선
100
AcDbLine
 10
19.22039502424796
 20
13.00717430171391
 30
0.0
 11
19.22036997980202
 21
11.08717430171403
 31
0.0
  0
LINE
  5
92
330
7F
100
AcDbEntity
  8
중심선
100
AcDbLine
 10
19.22039502424796
 20
13.00717430171391
 30
0.0
 11
26.96566020931264
 21
13.00717430171391
 31
0.0
  0
LINE
  5
93
330
7F
100
AcDbEntity
  8
중심선
100
AcDbLine
 10
22.22332737316547
 20
13.45928029700563
 30
0.0
 11
24.52862924686651
 21
15.39360700705356
 31
0.0
  0
ATTDEF
  5
95
330
7F
100
AcDbEntity
  8
FORMAT
 62
     2
100
AcDbText
 10
-9.522313950597932
 20
2.075366912832191
 30
0.0
 40
4.233333333333333
  1
EH094024 [ 3 FLUTE ]
 41
0.75
  7
SLDTEXTSTYLE0
 11
-9.522313950597932
 21
-0.0412997538344756
 31
0.0
100
AcDbAttributeDefinition
  3

  2
AUTOATTR0
 70
     0
 74
     1
  0
ENDBLK
  5
81
330
7F
100
AcDbEntity
  8
0
100
AcDbBlockEnd
  0
BLOCK
  5
16C
330
16B
100
AcDbEntity
  8
0
100
AcDbBlockBegin
  2
_D
 70
     0
 10
0.0
 20
0.0
 30
0.0
  3
_D
  1
_D
  0
LINE
  5
16E
330
16B
100
AcDbEntity
  8
치수문자_일반주서
 62
     0
370
    -2
100
AcDbLine
 10
10.06250000000001
 20
5.079370580932746
 30
0.0
 11
46.32001004574686
 21
5.079370580932871
 31
0.0
  0
LINE
  5
16F
330
16B
100
AcDbEntity
  8
치수문자_일반주서
 62
     0
370
    -2
100
AcDbLine
 10
20.54792115037709
 20
-4.445629419067269
 30
0.0
 11
46.32001004574689
 21
-4.445629419067181
 31
0.0
  0
LINE
  5
170
330
16B
100
AcDbEntity
  8
치수문자_일반주서
 62
     0
370
    -2
100
AcDbLine
 10
46.32001004574686
 20
5.079370580932871
 30
0.0
 11
46.32001004574674
 21
34.85012058093287
 31
0.0
  0
LINE
  5
171
330
16B
100
AcDbEntity
  8
치수문자_일반주서
 62
     0
370
    -2
100
AcDbLine
 10
46.32001004574687
 20
1.777370580932871
 30
0.0
 11
46.32001004574688
 21
-1.143629419067182
 31
0.0
  0
SOLID
  5
172
330
16B
100
AcDbEntity
  8
치수문자_일반주서
 62
     0
100
AcDbTrace
 10
46.8703433790802
 20
1.777370580932873
 30
0.0
 11
45.76967671241353
 21
1.777370580932869
 31
0.0
 12
46.32001004574686
 22
5.079370580932871
 32
0.0
 13
46.32001004574686
 23
5.079370580932871
 33
0.0
  0
SOLID
  5
173
330
16B
100
AcDbEntity
  8
치수문자_일반주서
 62
     0
100
AcDbTrace
 10
45.76967671241354
 20
-1.143629419067184
 30
0.0
 11
46.87034337908021
 21
-1.14362941906718
 31
0.0
 12
46.32001004574689
 22
-4.445629419067181
 32
0.0
 13
46.32001004574689
 23
-4.445629419067181
 33
0.0
  0
MTEXT
  5
174
330
16B
100
AcDbEntity
  8
치수문자_일반주서
 62
     0
100
AcDbMText
 10
41.94501004574679
 20
21.72512058093286
 30
0.0
 40
3.5
 41
0.0
 71
     2
 72
     1
  1
\A1;%%c9.53 [3/8]
  7
SLDTEXTSTYLE0
 11
-3.729883127349588E-15
 21
1.0
 31
0.0
 73
     1
 44
1.0
  0
POINT
  5
175
330
16B
100
AcDbEntity
  8
Defpoints
 62
     0
100
AcDbPoint
 10
10.00000000000001
 20
5.079370580932746
 30
0.0
  0
POINT
  5
176
330
16B
100
AcDbEntity
  8
Defpoints
 62
     0
100
AcDbPoint
 10
20.48542115037709
 20
-4.445629419067269
 30
0.0
  0
POINT
  5
177
330
16B
100
AcDbEntity
  8
Defpoints
 62
     0
100
AcDbPoint
 10
46.32001004574689
 20
-4.445629419067179
 30
0.0
  0
ENDBLK
  5
16D
330
16B
100
AcDbEntity
  8
0
100
AcDbBlockEnd
  0
BLOCK
  5
17F
330
17E
100
AcDbEntity
  8
0
100
AcDbBlockBegin
  2
_D_1
 70
     0
 10
0.0
 20
0.0
 30
0.0
  3
_D_1
  1
_D_1
  0
LINE
  5
181
330
17E
100
AcDbEntity
  8
치수문자_일반주서
 62
     0
370
    -2
100
AcDbLine
 10
-38.275
 20
5.079370580932734
 30
0.0
 11
-49.02250000000004
 21
5.079370580932697
 31
0.0
  0
LINE
  5
182
330
17E
100
AcDbEntity
  8
치수문자_일반주서
 62
     0
370
    -2
100
AcDbLine
 10
-38.275
 20
-4.445629419067272
 30
0.0
 11
-49.02250000000001
 21
-4.445629419067309
 31
0.0
  0
LINE
  5
183
330
17E
100
AcDbEntity
  8
치수문자_일반주서
 62
     0
370
    -2
100
AcDbLine
 10
-49.02250000000003
 20
1.777370580932697
 30
0.0
 11
-49.02250000000002
 21
-1.14362941906731
 31
0.0
  0
SOLID
  5
184
330
17E
100
AcDbEntity
  8
치수문자_일반주서
 62
     0
100
AcDbTrace
 10
-48.47216666666669
 20
1.777370580932699
 30
0.0
 11
-49.57283333333336
 21
1.777370580932695
 31
0.0
 12
-49.02250000000004
 22
5.079370580932697
 32
0.0
 13
-49.02250000000004
 23
5.079370580932697
 33
0.0
  0
SOLID
  5
185
330
17E
100
AcDbEntity
  8
치수문자_일반주서
 62
     0
100
AcDbTrace
 10
-49.57283333333336
 20
-1.143629419067312
 30
0.0
 11
-48.47216666666669
 21
-1.143629419067308
 31
0.0
 12
-49.02250000000001
 22
-4.445629419067309
 32
0.0
 13
-49.02250000000001
 23
-4.445629419067309
 33
0.0
  0
MTEXT
  5
186
330
17E
100
AcDbEntity
  8
치수문자_일반주서
 62
     0
100
AcDbMText
 10
-53.39750000000002
 20
-0.4461376797827445
 30
0.0
 40
3.5
 41
0.0
 71
     2
 72
     1
  1
\A1;%%c9.53 [3/8]
  7
SLDTEXTSTYLE0
 11
-3.729883127349605E-15
 21
1.0
 31
0.0
 73
     1
 44
1.0
  0
POINT
  5
187
330
17E
100
AcDbEntity
  8
Defpoints
 62
     0
100
AcDbPoint
 10
-38.2125
 20
5.079370580932734
 30
0.0
  0
POINT
  5
188
330
17E
100
AcDbEntity
  8
Defpoints
 62
     0
100
AcDbPoint
 10
-38.2125
 20
-4.445629419067272
 30
0.0
  0
POINT
  5
189
330
17E
100
AcDbEntity
  8
Defpoints
 62
     0
100
AcDbPoint
 10
-49.02250000000001
 20
-4.445629419067309
 30
0.0
  0
ENDBLK
  5
180
330
17E
100
AcDbEntity
  8
0
100
AcDbBlockEnd
  0
BLOCK
  5
193
330
192
100
AcDbEntity
  8
0
100
AcDbBlockBegin
  2
_D_2
 70
     0
 10
0.0
 20
0.0
 30
0.0
  3
_D_2
  1
_D_2
  0
LINE
  5
195
330
192
100
AcDbEntity
  8
치수문자_일반주서
 62
     0
370
    -2
100
AcDbLine
 10
24.2875
 20
3.46310821232448
 30
0.0
 11
24.2875
 21
20.72832337495263
 31
0.0
  0
LINE
  5
196
330
192
100
AcDbEntity
  8
치수문자_일반주서
 62
     0
370
    -2
100
AcDbLine
 10
9.999999999999995
 20
5.141870580932731
 30
0.0
 11
9.999999999999995
 21
20.72832337495263
 31
0.0
  0
LINE
  5
197
330
192
100
AcDbEntity
  8
치수문자_일반주서
 62
     0
370
    -2
100
AcDbLine
 10
20.9855
 20
20.72832337495263
 30
0.0
 11
13.30199999999999
 21
20.72832337495263
 31
0.0
  0
SOLID
  5
198
330
192
100
AcDbEntity
  8
치수문자_일반주서
 62
     0
100
AcDbTrace
 10
20.9855
 20
20.1779900416193
 30
0.0
 11
20.9855
 21
21.27865670828596
 31
0.0
 12
24.2875
 22
20.72832337495263
 32
0.0
 13
24.2875
 23
20.72832337495263
 33
0.0
  0
SOLID
  5
199
330
192
100
AcDbEntity
  8
치수문자_일반주서
 62
     0
100
AcDbTrace
 10
13.30199999999999
 20
21.27865670828596
 30
0.0
 11
13.30199999999999
 21
20.1779900416193
 31
0.0
 12
9.999999999999995
 22
20.72832337495263
 32
0.0
 13
9.999999999999995
 23
20.72832337495263
 33
0.0
  0
MTEXT
  5
19A
330
192
100
AcDbEntity
  8
치수문자_일반주서
 62
     0
100
AcDbMText
 10
17.14375
 20
25.10332337495263
 30
0.0
 40
3.5
 41
0.0
 71
     2
 72
     1
  1
\A1;14.29 [9/16]
  7
SLDTEXTSTYLE0
 73
     1
 44
1.0
  0
POINT
  5
19B
330
192
100
AcDbEntity
  8
Defpoints
 62
     0
100
AcDbPoint
 10
24.2875
 20
3.40060821232448
 30
0.0
  0
POINT
  5
19C
330
192
100
AcDbEntity
  8
Defpoints
 62
     0
100
AcDbPoint
 10
9.999999999999995
 20
5.079370580932731
 30
0.0
  0
POINT
  5
19D
330
192
100
AcDbEntity
  8
Defpoints
 62
     0
100
AcDbPoint
 10
9.999999999999995
 20
20.72832337495263
 30
0.0
  0
ENDBLK
  5
194
330
192
100
AcDbEntity
  8
0
100
AcDbBlockEnd
  0
BLOCK
  5
1A8
330
1A7
100
AcDbEntity
  8
0
100
AcDbBlockBegin
  2
_D_3
 70
     0
 10
0.0
 20
0.0
 30
0.0
  3
_D_3
  1
_D_3
  0
LINE
  5
1AA
330
1A7
100
AcDbEntity
  8
치수문자_일반주서
 62
     0
370
    -2
100
AcDbLine
 10
24.2875
 20
4.006635657906585
 30
0.0
 11
24.2875
 21
37.94151582153057
 31
0.0
  0
LINE
  5
1AB
330
1A7
100
AcDbEntity
  8
치수문자_일반주서
 62
     0
370
    -2
100
AcDbLine
 10
-39.2125
 20
4.141870580932725
 30
0.0
 11
-39.2125
 21
37.94151582153057
 31
0.0
  0
LINE
  5
1AC
330
1A7
100
AcDbEntity
  8
치수문자_일반주서
 62
     0
370
    -2
100
AcDbLine
 10
20.9855
 20
37.94151582153057
 30
0.0
 11
-35.9105
 21
37.94151582153057
 31
0.0
  0
SOLID
  5
1AD
330
1A7
100
AcDbEntity
  8
치수문자_일반주서
 62
     0
100
AcDbTrace
 10
20.9855
 20
37.39118248819724
 30
0.0
 11
20.9855
 21
38.49184915486391
 31
0.0
 12
24.2875
 22
37.94151582153057
 32
0.0
 13
24.2875
 23
37.94151582153057
 33
0.0
  0
SOLID
  5
1AE
330
1A7
100
AcDbEntity
  8
치수문자_일반주서
 62
     0
100
AcDbTrace
 10
-35.9105
 20
38.49184915486391
 30
0.0
 11
-35.9105
 21
37.39118248819724
 31
0.0
 12
-39.2125
 22
37.94151582153057
 32
0.0
 13
-39.2125
 23
37.94151582153057
 33
0.0
  0
MTEXT
  5
1AF
330
1A7
100
AcDbEntity
  8
치수문자_일반주서
 62
     0
100
AcDbMText
 10
-4.686213274302494
 20
42.31651582153057
 30
0.0
 40
3.5
 41
0.0
 71
     2
 72
     1
  1
\A1;63.50 [2 1/2]
  7
SLDTEXTSTYLE0
 73
     1
 44
1.0
  0
POINT
  5
1B0
330
1A7
100
AcDbEntity
  8
Defpoints
 62
     0
100
AcDbPoint
 10
24.2875
 20
3.944135657906585
 30
0.0
  0
POINT
  5
1B1
330
1A7
100
AcDbEntity
  8
Defpoints
 62
     0
100
AcDbPoint
 10
-39.2125
 20
4.079370580932725
 30
0.0
  0
POINT
  5
1B2
330
1A7
100
AcDbEntity
  8
Defpoints
 62
     0
100
AcDbPoint
 10
-39.2125
 20
37.94151582153057
 30
0.0
  0
ENDBLK
  5
1A9
330
1A7
100
AcDbEntity
  8
0
100
AcDbBlockEnd
  0
BLOCK
  5
1C1
330
1C0
100
AcDbEntity
  8
0
100
AcDbBlockBegin
  2
SW_DOWELSYMBOL_0
 70
     0
 10
0.0
 20
0.0
 30
0.0
  3
SW_DOWELSYMBOL_0
  1
SW_DOWELSYMBOL_0
  0
CIRCLE
  5
1C3
330
1C0
100
AcDbEntity
  8
해칭선
 62
     0
100
AcDbCircle
 10
0.0
 20
0.0
 30
0.0
 40
3.000000000000004
  0
HATCH
  5
1C4
330
1C0
100
AcDbEntity
  8
0
  6
Continuous
 62
     0
370
     0
100
AcDbHatch
 10
0.0
 20
0.0
 30
0.0
210
0.0
220
0.0
230
1.0
  2
SOLID
 70
     1
 71
     0
 91
        1
 92
        0
 93
        3
 72
     2
 10
0.0000000000000104
 20
-0.0000000000000035
 40
3.000000000000004
 50
0.0
 51
90.0
 73
     1
 72
     1
 10
0.0000000000000104
 20
3.000000000000001
 11
0.0000000000000104
 21
-0.0000000000000036
 72
     1
 10
0.0000000000000104
 20
-0.0000000000000035
 11
3.000000000000015
 21
-0.0000000000000035
 97
        0
 75
     0
 76
     1
 98
        1
 10
0.0
 20
0.0
  0
HATCH
  5
1C5
330
1C0
100
AcDbEntity
  8
0
  6
Continuous
 62
     0
370
     0
100
AcDbHatch
 10
0.0
 20
0.0
 30
0.0
210
0.0
220
0.0
230
1.0
  2
SOLID
 70
     1
 71
     0
 91
        1
 92
        0
 93
        3
 72
     2
 10
0.0000000000000104
 20
-0.0000000000000035
 40
3.000000000000004
 50
180.0
 51
270.0000000000008
 73
     1
 72
     1
 10
0.0000000000000104
 20
-3.000000000000008
 11
0.0000000000000104
 21
-0.0000000000000036
 72
     1
 10
0.0000000000000104
 20
-0.0000000000000035
 11
-2.999999999999994
 21
-0.0000000000000035
 97
        0
 75
     0
 76
     1
 98
        1
 10
0.0
 20
0.0
  0
ENDBLK
  5
1C2
330
1C0
100
AcDbEntity
  8
0
100
AcDbBlockEnd
  0
ENDSEC
  0
SECTION
  2
ENTITIES
  0
LINE
  5
96
330
1F
100
AcDbEntity
  8
외형선
  6
Continuous
370
    15
100
AcDbLine
 10
9.999999999999995
 20
5.079370580932731
 30
0.0
 11
-38.21249999999998
 21
5.079370580932725
 31
0.0
  0
LINE
  5
97
330
1F
100
AcDbEntity
  8
외형선
  6
Continuous
370
    15
100
AcDbLine
 10
-38.21249999999998
 20
-4.445629419067275
 30
0.0
 11
6.980144718345294
 21
-4.445629419067269
 31
0.0
  0
LINE
  5
98
330
1F
100
AcDbEntity
  8
외형선
  6
Continuous
370
    15
100
AcDbLine
 10
-38.21249999999998
 20
5.079370580932724
 30
0.0
 11
-39.2125
 21
4.079370580932724
 31
0.0
  0
LINE
  5
99
330
1F
100
AcDbEntity
  8
외형선
  6
Continuous
370
    15
100
AcDbLine
 10
-39.2125
 20
-3.445629419067275
 30
0.0
 11
-38.21249999999998
 21
-4.445629419067276
 31
0.0
  0
LINE
  5
9A
330
1F
100
AcDbEntity
  8
외형선
  6
Continuous
 62
     1
370
    15
100
AcDbLine
 10
20.68530657671865
 20
-0.3913485934876109
 30
0.0
 11
20.56711034014101
 21
-0.3245078931486702
 31
0.0
  0
SPLINE
  5
9B
330
1F
100
AcDbEntity
  8
외형선
  6
Continuous
 62
     1
370
    15
100
AcDbSpline
210
0.0
220
0.0
230
1.0
 70
     8
 71
     3
 72
     9
 73
     5
 74
     0
 42
0.000000001
 43
0.00000001
 40
0.0
 40
0.0
 40
0.0
 40
0.0
 40
0.3660987824540038
 40
1.0
 40
1.0
 40
1.0
 40
1.0
 10
12.16909674237576
 20
4.936319509461512
 30
0.0
 10
12.147786827508
 20
4.941010045920171
 30
0.0
 10
12.08957872660989
 20
4.953822261320664
 30
0.0
 10
12.04612386371637
 20
4.976021777134243
 30
0.0
 10
12.01857777321988
 20
4.990094077237402
 30
0.0
  0
SPLINE
  5
9C
330
1F
100
AcDbEntity
  8
외형선
  6
Continuous
 62
     1
370
    15
100
AcDbSpline
210
0.0
220
0.0
230
1.0
 70
     8
 71
     3
 72
     9
 73
     5
 74
     0
 42
0.000000001
 43
0.00000001
 40
0.0
 40
0.0
 40
0.0
 40
0.0
 40
0.4978759532012941
 40
0.9999999999999999
 40
0.9999999999999999
 40
0.9999999999999999
 40
0.9999999999999999
 10
11.99628036155927
 20
5.019453500916835
 30
0.0
 10
11.96992979345326
 20
5.036732940880021
 30
0.0
 10
11.91700382276401
 20
5.071439256483499
 30
0.0
 10
11.85579426158027
 20
5.076719329368383
 30
0.0
 10
11.82505946901592
 20
5.079370580932733
 30
0.0
  0
SPLINE
  5
9D
330
1F
100
AcDbEntity
  8
외형선
  6
Continuous
 62
     1
370
    15
100
AcDbSpline
210
0.0
220
0.0
230
1.0
 70
     8
 71
     3
 72
    11
 73
     7
 74
     0
 42
0.000000001
 43
0.00000001
 40
0.0
 40
0.0
 40
0.0
 40
0.0
 40
0.2440153330753486
 40
0.4999875730589091
 40
0.755964630627739
 40
1.0
 40
1.0
 40
1.0
 40
1.0
 10
14.96788447631715
 20
-4.389267821475255
 30
0.0
 10
15.0119996687209
 20
-4.359264198421124
 30
0.0
 10
15.10239172608465
 20
-4.297786755652489
 30
0.0
 10
15.26877569864934
 20
-4.268514136069324
 30
0.0
 10
15.43515805311576
 20
-4.291302974707063
 30
0.0
 10
15.52553224510352
 20
-4.347934517263982
 30
0.0
 10
15.56964014749781
 20
-4.375574029126808
 30
0.0
  0
LINE
  5
9E
330
1F
100
AcDbEntity
  8
외형선
  6
Continuous
 62
     1
370
    15
100
AcDbLine
 10
11.82217876634549
 20
5.079370580932731
 30
0.0
 11
10.75109234981902
 21
5.079370580932731
 31
0.0
  0
SPLINE
  5
9F
330
1F
100
AcDbEntity
  8
외형선
  6
Continuous
 62
     1
370
    15
100
AcDbSpline
210
0.0
220
0.0
230
1.0
 70
     8
 71
     3
 72
     9
 73
     5
 74
     0
 42
0.000000001
 43
0.00000001
 40
0.0
 40
0.0
 40
0.0
 40
0.0
 40
0.4985554915106001
 40
1.0
 40
1.0
 40
1.0
 40
1.0
 10
15.57955200130251
 20
-4.385535448887139
 30
0.0
 10
15.60585421444538
 20
-4.402804015646724
 30
0.0
 10
15.65861105614251
 20
-4.437441216627621
 30
0.0
 10
15.71979305178102
 20
-4.442888162894292
 30
0.0
 10
15.75047242751237
 20
-4.44561950418775
 30
0.0
  0
LINE
  5
A0
330
1F
100
AcDbEntity
  8
외형선
  6
Continuous
 62
     1
370
    15
100
AcDbLine
 10
15.75097363445679
 20
-4.445629419067269
 30
0.0
 11
16.82484449804486
 21
-4.445629419067269
 31
0.0
  0
SPLINE
  5
A1
330
1F
100
AcDbEntity
  8
외형선
  6
Continuous
 62
     1
370
    15
100
AcDbSpline
210
0.0
220
0.0
230
1.0
 70
     8
 71
     3
 72
     9
 73
     5
 74
     0
 42
0.000000001
 43
0.00000001
 40
0.0
 40
0.0
 40
0.0
 40
0.0
 40
0.5014242049183235
 40
1.0
 40
1.0
 40
1.0
 40
1.0
 10
10.75112470724032
 20
5.07937058086469
 30
0.0
 10
10.720060473685
 20
5.07664322028569
 30
0.0
 10
10.65810847126747
 20
5.071203992278251
 30
0.0
 10
10.6045718180498
 20
5.03563778499367
 30
0.0
 10
10.57787973860579
 20
5.017905334918719
 30
0.0
  0
SPLINE
  5
A2
330
1F
100
AcDbEntity
  8
외형선
  6
Continuous
 62
     1
370
    15
100
AcDbSpline
210
0.0
220
0.0
230
1.0
 70
     8
 71
     3
 72
    11
 73
     7
 74
     0
 42
0.000000001
 43
0.00000001
 40
0.0
 40
0.0
 40
0.0
 40
0.0
 40
0.2759985765571459
 40
0.5400421943341365
 40
0.7819562684353201
 40
1.0
 40
1.0
 40
1.0
 40
1.0
 10
10.58086375926736
 20
5.020264147915092
 30
0.0
 10
10.5282981234557
 20
4.987840340777508
 30
0.0
 10
10.42544374766721
 20
4.924397173158047
 30
0.0
 10
10.24772133682378
 20
4.91204971743314
 30
0.0
 10
10.09737137114737
 20
4.950682298605401
 30
0.0
 10
10.02886240650891
 20
4.997280699914668
 30
0.0
 10
9.996385622527006
 20
5.019370746395589
 30
0.0
  0
SPLINE
  5
A3
330
1F
100
AcDbEntity
  8
외형선
  6
Continuous
 62
     1
370
    15
100
AcDbSpline
210
0.0
220
0.0
230
1.0
 70
     8
 71
     3
 72
     9
 73
     5
 74
     0
 42
0.000000001
 43
0.00000001
 40
0.0
 40
0.0
 40
0.0
 40
0.0
 40
0.5021232391725741
 40
1.0
 40
1.0
 40
1.0
 40
1.0
 10
16.82507142130827
 20
-4.445629415754103
 30
0.0
 10
16.8558036168104
 20
-4.442977097553111
 30
0.0
 10
16.91700810428397
 20
-4.437694891922952
 30
0.0
 10
16.96992875748465
 20
-4.402992637823605
 30
0.0
 10
16.99627672088107
 20
-4.385715191959214
 30
0.0
  0
SPLINE
  5
A4
330
1F
100
AcDbEntity
  8
외형선
  6
Continuous
 62
     1
370
    15
100
AcDbSpline
210
0.0
220
0.0
230
1.0
 70
     8
 71
     3
 72
    11
 73
     7
 74
     0
 42
0.000000001
 43
0.00000001
 40
0.0
 40
0.0
 40
0.0
 40
0.0
 40
0.2080640419484749
 40
0.446966460370972
 40
0.7138447390245498
 40
0.9999999999999999
 40
0.9999999999999999
 40
0.9999999999999999
 40
0.9999999999999999
 10
16.99941033598948
 20
-4.383028231212499
 30
0.0
 10
17.03225393721931
 20
-4.361264193187376
 30
0.0
 10
17.10280908000161
 20
-4.314510343034461
 30
0.0
 10
17.25170206925419
 20
-4.278212223970231
 30
0.0
 10
17.42831769089457
 20
-4.292085146944445
 30
0.0
 10
17.52745344946512
 20
-4.353246268909789
 30
0.0
 10
17.57874910665941
 20
-4.384892770547435
 30
0.0
  0
SPLINE
  5
A5
330
1F
100
AcDbEntity
  8
외형선
  6
Continuous
 62
     1
370
    15
100
AcDbSpline
210
0.0
220
0.0
230
1.0
 70
     8
 71
     3
 72
     9
 73
     5
 74
     0
 42
0.000000001
 43
0.00000001
 40
0.0
 40
0.0
 40
0.0
 40
0.0
 40
0.4985633009861354
 40
1.0
 40
1.0
 40
1.0
 40
1.0
 10
17.57954086754207
 20
-4.385526735277938
 30
0.0
 10
17.60595589237
 20
-4.402863808815163
 30
0.0
 10
17.65893818123016
 20
-4.437637875624599
 30
0.0
 10
17.72034302480155
 20
-4.442960472461496
 30
0.0
 10
17.75113366686544
 20
-4.445629417849572
 30
0.0
  0
LINE
  5
A6
330
1F
100
AcDbEntity
  8
외형선
  6
Continuous
 62
     1
370
    15
100
AcDbLine
 10
17.75112236945341
 20
-4.445629419067269
 30
0.0
 11
18.82495951903378
 21
-4.445629419067269
 31
0.0
  0
SPLINE
  5
A7
330
1F
100
AcDbEntity
  8
외형선
  6
Continuous
 62
     1
370
    15
100
AcDbSpline
210
0.0
220
0.0
230
1.0
 70
     8
 71
     3
 72
     9
 73
     5
 74
     0
 42
0.000000001
 43
0.00000001
 40
0.0
 40
0.0
 40
0.0
 40
0.0
 40
0.5021231499981732
 40
1.0
 40
1.0
 40
1.0
 40
1.0
 10
18.82507792142454
 20
-4.445629411170988
 30
0.0
 10
18.85580971302837
 20
-4.442976318692348
 30
0.0
 10
18.9170134069906
 20
-4.437692570116626
 30
0.0
 10
18.96993323614104
 20
-4.402989737262894
 30
0.0
 10
18.9962807939811
 20
-4.385712000155538
 30
0.0
  0
SPLINE
  5
A8
330
1F
100
AcDbEntity
  8
외형선
  6
Continuous
 62
     1
370
    15
100
AcDbSpline
210
0.0
220
0.0
230
1.0
 70
     8
 71
     3
 72
    11
 73
     7
 74
     0
 42
0.000000001
 43
0.00000001
 40
0.0
 40
0.0
 40
0.0
 40
0.0
 40
0.2450438954141269
 40
0.4998942731562089
 40
0.7547909839897298
 40
0.9999999999999999
 40
0.9999999999999999
 40
0.9999999999999999
 40
0.9999999999999999
 10
18.99266877964501
 20
-4.388236295054478
 30
0.0
 10
19.03596088183644
 20
-4.360065198695343
 30
0.0
 10
19.12427760534353
 20
-4.302595618746561
 30
0.0
 10
19.28935063098284
 20
-4.276757299307871
 30
0.0
 10
19.45441653038504
 20
-4.303269003847756
 30
0.0
 10
19.54264126852412
 20
-4.36119212132844
 30
0.0
 10
19.58589912394477
 20
-4.389592657213768
 30
0.0
  0
SPLINE
  5
A9
330
1F
100
AcDbEntity
  8
외형선
  6
Continuous
 62
     1
370
    15
100
AcDbSpline
210
0.0
220
0.0
230
1.0
 70
     8
 71
     3
 72
     9
 73
     5
 74
     0
 42
0.000000001
 43
0.00000001
 40
0.0
 40
0.0
 40
0.0
 40
0.0
 40
0.4985883877980591
 40
1.0
 40
1.0
 40
1.0
 40
1.0
 10
19.5826746489915
 20
-4.387758817280496
 30
0.0
 10
19.60826873286088
 20
-4.404301383757792
 30
0.0
 10
19.65960182543934
 20
-4.437480187921993
 30
0.0
 10
19.71939859309086
 20
-4.442860906579603
 30
0.0
 10
19.74938138676347
 20
-4.445558861396521
 30
0.0
  0
LINE
  5
AA
330
1F
100
AcDbEntity
  8
외형선
  6
Continuous
 62
     1
370
    15
100
AcDbLine
 10
19.75105513931554
 20
-4.445629419067269
 30
0.0
 11
20.48542115037709
 21
-4.445629419067269
 31
0.0
  0
LINE
  5
AB
330
1F
100
AcDbEntity
  8
외형선
  6
Continuous
 62
     1
370
    15
100
AcDbLine
 10
24.2875
 20
3.979370580932729
 30
0.0
 11
23.62775019829411
 21
4.639120382638616
 31
0.0
  0
SPLINE
  5
AC
330
1F
100
AcDbEntity
  8
외형선
  6
Continuous
370
    15
100
AcDbSpline
210
0.0
220
0.0
230
1.0
 70
     8
 71
     3
 72
    12
 73
     8
 74
     0
 42
0.000000001
 43
0.00000001
 40
0.0
 40
0.0
 40
0.0
 40
0.0
 40
0.25
 40
0.25
 40
0.5
 40
0.5
 40
1.0
 40
1.0
 40
1.0
 40
1.0
 10
10.00000000000026
 20
-1.089469094559145
 30
0.0
 10
9.747853237542868
 20
-0.9505089510743993
 30
0.0
 10
9.497839494180461
 20
-0.8099780743492737
 30
0.0
 10
8.995302213143978
 20
-0.5257022380157554
 30
0.0
 10
8.742580714581669
 20
-0.3819134348373112
 30
0.0
 10
7.984811875290012
 20
0.0517136206114827
 30
0.0
 10
7.484919049541509
 20
0.3428879531878445
 30
0.0
 10
6.980144718345294
 20
0.633229887830734
 30
0.0
  0
SPLINE
  5
AD
330
1F
100
AcDbEntity
  8
외형선
  6
Continuous
370
    15
100
AcDbSpline
210
0.0
220
0.0
230
1.0
 70
     8
 71
     3
 72
    12
 73
     8
 74
     0
 42
0.000000001
 43
0.00000001
 40
0.0
 40
0.0
 40
0.0
 40
0.0
 40
0.25
 40
0.25
 40
0.5
 40
0.5
 40
1.0
 40
1.0
 40
1.0
 40
1.0
 10
10.00000000000026
 20
4.655512857238463
 30
0.0
 10
9.747853237542865
 20
4.715495440463398
 30
0.0
 10
9.497839494180457
 20
4.769252737811295
 30
0.0
 10
8.995302213143978
 20
4.864392051252762
 30
0.0
 10
8.742580714581669
 20
4.905759127202087
 30
0.0
 10
7.984811875290012
 20
5.010373107612316
 30
0.0
 10
7.484919049541506
 20
5.054010373592178
 30
0.0
 10
6.980144718345294
 20
5.071125439398243
 30
0.0
  0
SPLINE
  5
AE
330
1F
100
AcDbEntity
  8
외형선
  6
Continuous
370
    15
100
AcDbSpline
210
0.0
220
0.0
230
1.0
 70
    24
 71
     3
 72
    18
 73
    14
 74
     0
 42
0.000000001
 43
0.00000001
 40
0.0
 40
0.0
 40
0.0
 40
0.0
 40
0.2500000000000001
 40
0.2500000000000001
 40
0.5
 40
0.5
 40
0.625
 40
0.625
 40
0.75
 40
0.75
 40
0.8750000000000001
 40
0.8750000000000001
 40
1.0
 40
1.0
 40
1.0
 40
1.0
 10
9.999999999999998
 20
4.655512857238525
 30
0.0
 10
9.999999999999998
 20
4.289708675255828
 30
0.0
 10
9.999999999999998
 20
3.867212076747063
 30
0.0
 10
9.999999999999998
 20
2.911442661967086
 30
0.0
 10
9.999999999999998
 20
2.376501188767639
 30
0.0
 10
9.999999999999998
 20
1.541913723926504
 30
0.0
 10
9.999999999999998
 20
1.259100361297598
 30
0.0
 10
9.999999999999998
 20
0.7024186424232143
 30
0.0
 10
9.999999999999998
 20
0.4286477460953078
 30
0.0
 10
9.999999999999998
 20
-0.0868239986170742
 30
0.0
 10
9.999999999999998
 20
-0.3283404387009134
 30
0.0
 10
10.0
 20
-0.7555412640685829
 30
0.0
 10
10.0
 20
-0.9410198511539605
 30
0.0
 10
10.0
 20
-1.089469094559005
 30
0.0
  0
LINE
  5
AF
330
1F
100
AcDbEntity
  8
외형선
  6
Continuous
370
    15
100
AcDbLine
 10
9.999999999999995
 20
5.079370580932731
 30
0.0
 11
9.999999999999995
 21
4.655512857238525
 31
0.0
  0
LINE
  5
B0
330
1F
100
AcDbEntity
  8
외형선
  6
Continuous
370
    15
100
AcDbLine
 10
9.999999999999998
 20
-1.089469094559002
 30
0.0
 11
9.999999999999995
 21
-3.553389146996154
 31
0.0
  0
SPLINE
  5
B1
330
1F
100
AcDbEntity
  8
외형선
  6
Continuous
370
    15
100
AcDbSpline
210
0.0
220
0.0
230
1.0
 70
     8
 71
     3
 72
    12
 73
     8
 74
     0
 42
0.000000001
 43
0.00000001
 40
0.0
 40
0.0
 40
0.0
 40
0.0
 40
0.2500000000000001
 40
0.2500000000000001
 40
0.5000000000000001
 40
0.5000000000000001
 40
1.0
 40
1.0
 40
1.0
 40
1.0
 10
10.00000000000026
 20
-3.553389146996239
 30
0.0
 10
9.747853237542868
 20
-3.468630717637304
 30
0.0
 10
9.497839494180457
 20
-3.378709362589392
 30
0.0
 10
8.995302213143978
 20
-3.188523276439883
 30
0.0
 10
8.742580714581669
 20
-3.088211175357359
 30
0.0
 10
7.984811875290012
 20
-2.773431761852504
 30
0.0
 10
7.484919049541509
 20
-2.545853816718586
 30
0.0
 10
6.980144718345294
 20
-2.302847538698111
 30
0.0
  0
LINE
  5
B2
330
1F
100
AcDbEntity
  8
외형선
  6
Continuous
370
    15
100
AcDbLine
 10
6.980144718345294
 20
-2.302847050881097
 30
0.0
 11
6.980144718345294
 21
-4.445629419067269
 31
0.0
  0
SPLINE
  5
B3
330
1F
100
AcDbEntity
  8
외형선
  6
Continuous
370
    15
100
AcDbSpline
210
0.0
220
0.0
230
1.0
 70
     8
 71
     3
 72
    10
 73
     6
 74
     0
 42
0.000000001
 43
0.00000001
 40
0.0
 40
0.0
 40
0.0
 40
0.0
 40
0.0129900006110514
 40
0.3975059526615091
 40
1.0
 40
1.0
 40
1.0
 40
1.0
 10
9.184675786065581
 20
-3.249294945121882
 30
0.0
 10
9.175135406983559
 20
-3.253148281446171
 30
0.0
 10
8.883191042290886
 20
-3.371063913044245
 30
0.0
 10
8.14771554759547
 20
-3.627282285732849
 30
0.0
 10
7.422706960270763
 20
-3.831801796617031
 30
0.0
 10
6.980144718345297
 20
-3.956645301696599
 30
0.0
  0
LINE
  5
B4
330
1F
100
AcDbEntity
  8
외형선
  6
Continuous
370
    15
100
AcDbLine
 10
-38.21249999999998
 20
5.079370580932725
 30
0.0
 11
-38.21249999999998
 21
-4.445629419067268
 31
0.0
  0
LINE
  5
B5
330
1F
100
AcDbEntity
  8
외형선
  6
Continuous
370
    15
100
AcDbLine
 10
6.980144718345294
 20
5.071125473755426
 30
0.0
 11
6.980144718345294
 21
0.6331749970611873
 31
0.0
  0
LINE
  5
B6
330
1F
100
AcDbEntity
  8
외형선
  6
Continuous
370
    15
100
AcDbLine
 10
-39.2125
 20
4.079370580932725
 30
0.0
 11
-39.2125
 21
-3.445629419067275
 31
0.0
  0
SPLINE
  5
B7
330
1F
100
AcDbEntity
  8
외형선
  6
Continuous
 62
     1
370
    15
100
AcDbSpline
210
0.0
220
0.0
230
1.0
 70
     8
 71
     3
 72
     8
 73
     4
 74
     0
 42
0.000000001
 43
0.00000001
 40
0.0
 40
0.0
 40
0.0
 40
0.0
 40
1.0
 40
1.0
 40
1.0
 40
1.0
 10
23.02771773570064
 20
1.32985460512194
 30
0.0
 10
23.07462645629985
 20
1.306525535956708
 30
0.0
 10
23.13093504474324
 20
1.276199869147789
 30
0.0
 10
23.18864111469076
 20
1.243581430243314
 30
0.0
  0
SPLINE
  5
B8
330
1F
100
AcDbEntity
  8
외형선
  6
Continuous
 62
     1
370
    15
100
AcDbSpline
210
0.0
220
0.0
230
1.0
 70
     8
 71
     3
 72
    12
 73
     8
 74
     0
 42
0.000000001
 43
0.00000001
 40
0.0
 40
0.0
 40
0.0
 40
0.0
 40
0.2499999999999999
 40
0.2499999999999999
 40
0.4999999999999998
 40
0.4999999999999998
 40
1.0
 40
1.0
 40
1.0
 40
1.0
 10
23.18750240026842
 20
1.24422606174029
 30
0.0
 10
23.1875763406536
 20
0.9912097882982317
 30
0.0
 10
23.18924438850947
 20
0.7339220962881131
 30
0.0
 10
23.19471221511587
 20
0.2235661596073404
 30
0.0
 10
23.19854370729588
 20
-0.0308603218563226
 30
0.0
 10
23.21277977899429
 20
-0.7918839855214236
 30
0.0
 10
23.2258612020224
 20
-1.289234253481388
 30
0.0
 10
23.24083333333332
 20
-1.746005822155535
 30
0.0
  0
SPLINE
  5
B9
330
1F
100
AcDbEntity
  8
외형선
  6
Continuous
 62
     1
370
    15
100
AcDbSpline
210
0.0
220
0.0
230
1.0
 70
     8
 71
     3
 72
    12
 73
     8
 74
     0
 42
0.000000001
 43
0.00000001
 40
0.0
 40
0.0
 40
0.0
 40
0.0
 40
0.5
 40
0.5
 40
0.75
 40
0.75
 40
1.0
 40
1.0
 40
1.0
 40
1.0
 10
23.2420391758267
 20
-1.762407883888855
 30
0.0
 10
23.20751385852082
 20
-1.292972359907718
 30
0.0
 10
23.17043455945402
 20
-0.7725864150425685
 30
0.0
 10
23.11553807482587
 20
0.0218253483819029
 30
0.0
 10
23.09737177890923
 20
0.2886785021560467
 30
0.0
 10
23.06205851408015
 20
0.8151262514044539
 30
0.0
 10
23.04529684353083
 20
1.072845879472143
 30
0.0
 10
23.02771773570049
 20
1.329854605119753
 30
0.0
  0
SPLINE
  5
BA
330
1F
100
AcDbEntity
  8
외형선
  6
Continuous
 62
     1
370
    15
100
AcDbSpline
210
0.0
220
0.0
230
1.0
 70
     8
 71
     3
 72
    10
 73
     6
 74
     0
 42
0.000000001
 43
0.00000001
 40
0.0
 40
0.0
 40
0.0
 40
0.0
 40
0.5
 40
0.5
 40
1.0
 40
1.0
 40
1.0
 40
1.0
 10
23.18758431249801
 20
1.244172785726874
 30
0.0
 10
23.36630106366653
 20
1.130447428838792
 30
0.0
 10
23.5464555687887
 20
1.036768151796064
 30
0.0
 10
23.91246485156642
 20
0.8939396081232336
 30
0.0
 10
24.09962509687283
 20
0.8444728294433731
 30
0.0
 10
24.2875
 20
0.823678543938296
 30
0.0
  0
LINE
  5
BB
330
1F
100
AcDbEntity
  8
외형선
  6
Continuous
 62
     1
370
    15
100
AcDbLine
 10
24.2875
 20
0.8236785439383115
 30
0.0
 11
24.2875
 21
-1.935670528357273
 31
0.0
  0
SPLINE
  5
BC
330
1F
100
AcDbEntity
  8
외형선
  6
Continuous
 62
     1
370
    15
100
AcDbSpline
210
0.0
220
0.0
230
1.0
 70
     8
 71
     3
 72
     8
 73
     4
 74
     0
 42
0.000000001
 43
0.00000001
 40
0.0
 40
0.0
 40
0.0
 40
0.0
 40
1.0
 40
1.0
 40
1.0
 40
1.0
 10
24.2875
 20
-1.935670528357273
 30
0.0
 10
23.95165768417522
 20
-1.89867201621105
 30
0.0
 10
23.59988926818239
 20
-1.845757569731051
 30
0.0
 10
23.2418727153631
 20
-1.777746343988649
 30
0.0
  0
SPLINE
  5
BD
330
1F
100
AcDbEntity
  8
외형선
  6
Continuous
 62
     1
370
    15
100
AcDbSpline
210
0.0
220
0.0
230
1.0
 70
     8
 71
     3
 72
    10
 73
     6
 74
     0
 42
0.000000001
 43
0.00000001
 40
0.0
 40
0.0
 40
0.0
 40
0.0
 40
0.5
 40
0.5
 40
1.0
 40
1.0
 40
1.0
 40
1.0
 10
23.24324366606541
 20
-1.778778752143954
 30
0.0
 10
23.14552862455769
 20
-1.705093303940423
 30
0.0
 10
23.02966147080811
 20
-1.638468792232975
 30
0.0
 10
22.80289128986464
 20
-1.524076090326158
 30
0.0
 10
22.69338437708328
 20
-1.476700713265762
 30
0.0
 10
22.60147444563183
 20
-1.444817613101423
 30
0.0
  0
SPLINE
  5
BE
330
1F
100
AcDbEntity
  8
외형선
  6
Continuous
 62
     1
370
    15
100
AcDbSpline
210
0.0
220
0.0
230
1.0
 70
     8
 71
     3
 72
    12
 73
     8
 74
     0
 42
0.000000001
 43
0.00000001
 40
0.0
 40
0.0
 40
0.0
 40
0.0
 40
0.5
 40
0.5
 40
0.75
 40
0.75
 40
1.0
 40
1.0
 40
1.0
 40
1.0
 10
22.60147443433025
 20
-1.44481745719152
 30
0.0
 10
22.56578744776094
 20
-0.9525007630501161
 30
0.0
 10
22.52815602036704
 20
-0.4169607307820424
 30
0.0
 10
22.47355480761523
 20
0.3838579899677114
 30
0.0
 10
22.45566790029854
 20
0.650209058161611
 30
0.0
 10
22.4212352680033
 20
1.170665021268182
 30
0.0
 10
22.40371029068353
 20
1.429694546253456
 30
0.0
 10
22.3856174687035
 20
1.684850557082795
 30
0.0
  0
SPLINE
  5
BF
330
1F
100
AcDbEntity
  8
외형선
  6
Continuous
 62
     1
370
    15
100
AcDbSpline
210
0.0
220
0.0
230
1.0
 70
     8
 71
     3
 72
    10
 73
     6
 74
     0
 42
0.000000001
 43
0.00000001
 40
0.0
 40
0.0
 40
0.0
 40
0.0
 40
0.5
 40
0.5
 40
1.0
 40
1.0
 40
1.0
 40
1.0
 10
22.38561746870278
 20
1.684850557093027
 30
0.0
 10
22.48336468941052
 20
1.619567590703491
 30
0.0
 10
22.59917224769867
 20
1.554454766548253
 30
0.0
 10
22.82599785460854
 20
1.432257835888081
 30
0.0
 10
22.9356834685684
 20
1.375625919198771
 30
0.0
 10
23.02771773570034
 20
1.329854605121892
 30
0.0
  0
SPLINE
  5
C0
330
1F
100
AcDbEntity
  8
외형선
  6
Continuous
 62
     1
370
    15
100
AcDbSpline
210
0.0
220
0.0
230
1.0
 70
     8
 71
     3
 72
     8
 73
     4
 74
     0
 42
0.000000001
 43
0.00000001
 40
0.0
 40
0.0
 40
0.0
 40
0.0
 40
1.0
 40
1.0
 40
1.0
 40
1.0
 10
22.60147444563181
 20
-1.444817613101423
 30
0.0
 10
22.55451047985456
 20
-1.42852604589705
 30
0.0
 10
22.49815997282227
 20
-1.402589415300968
 30
0.0
 10
22.44044395706038
 20
-1.371301085380665
 30
0.0
  0
SPLINE
  5
C1
330
1F
100
AcDbEntity
  8
외형선
  6
Continuous
 62
     1
370
    15
100
AcDbSpline
210
0.0
220
0.0
230
1.0
 70
     8
 71
     3
 72
    10
 73
     6
 74
     0
 42
0.000000001
 43
0.00000001
 40
0.0
 40
0.0
 40
0.0
 40
0.0
 40
0.5
 40
0.5
 40
1.0
 40
1.0
 40
1.0
 40
1.0
 10
22.44044396296482
 20
-1.371301168093165
 30
0.0
 10
22.40469914446588
 20
-0.8705990834378132
 30
0.0
 10
22.36721765271427
 20
-0.3291479543729845
 30
0.0
 10
22.29506112286645
 20
0.7448180894243807
 30
0.0
 10
22.26168684235608
 20
1.270517205340724
 30
0.0
 10
22.22552460113413
 20
1.781987504089994
 30
0.0
  0
SPLINE
  5
C2
330
1F
100
AcDbEntity
  8
외형선
  6
Continuous
 62
     1
370
    15
100
AcDbSpline
210
0.0
220
0.0
230
1.0
 70
     8
 71
     3
 72
     8
 73
     4
 74
     0
 42
0.000000001
 43
0.00000001
 40
0.0
 40
0.0
 40
0.0
 40
0.0
 40
1.0
 40
1.0
 40
1.0
 40
1.0
 10
22.22552464776423
 20
1.781986844591797
 30
0.0
 10
22.28113139849316
 20
1.751388716586663
 30
0.0
 10
22.33761155452045
 20
1.71691252734005
 30
0.0
 10
22.38561746870212
 20
1.684850557093465
 30
0.0
  0
SPLINE
  5
C3
330
1F
100
AcDbEntity
  8
외형선
  6
Continuous
 62
     1
370
    15
100
AcDbSpline
210
0.0
220
0.0
230
1.0
 70
     8
 71
     3
 72
     8
 73
     4
 74
     0
 42
0.000000001
 43
0.00000001
 40
0.0
 40
0.0
 40
0.0
 40
0.0
 40
1.0
 40
1.0
 40
1.0
 40
1.0
 10
21.3230378642319
 20
-0.7546383113621056
 30
0.0
 10
21.26741935835441
 20
-0.7234077799071956
 30
0.0
 10
21.21092058088088
 20
-0.6897769047300563
 30
0.0
 10
21.16290964805873
 20
-0.6603875340660194
 30
0.0
  0
SPLINE
  5
C4
330
1F
100
AcDbEntity
  8
외형선
  6
Continuous
 62
     1
370
    15
100
AcDbSpline
210
0.0
220
0.0
230
1.0
 70
     8
 71
     3
 72
    10
 73
     6
 74
     0
 42
0.000000001
 43
0.00000001
 40
0.0
 40
0.0
 40
0.0
 40
0.0
 40
0.5
 40
0.5
 40
1.0
 40
1.0
 40
1.0
 40
1.0
 10
21.16290953887508
 20
-0.6603859788744688
 30
0.0
 10
21.12608812311684
 20
-0.1359084938649719
 30
0.0
 10
21.08898589712853
 20
0.4089118351850905
 30
0.0
 10
21.02029359087582
 20
1.447943317239935
 30
0.0
 10
20.98365212170023
 20
1.967251900992215
 30
0.0
 10
20.94680420807754
 20
2.445610045781519
 30
0.0
  0
SPLINE
  5
C5
330
1F
100
AcDbEntity
  8
외형선
  6
Continuous
 62
     1
370
    15
100
AcDbSpline
210
0.0
220
0.0
230
1.0
 70
     8
 71
     3
 72
     8
 73
     4
 74
     0
 42
0.000000001
 43
0.00000001
 40
0.0
 40
0.0
 40
0.0
 40
0.0
 40
1.0
 40
1.0
 40
1.0
 40
1.0
 10
20.94680420807525
 20
2.445610045815222
 30
0.0
 10
20.99379071533779
 20
2.433213501432207
 30
0.0
 10
21.05017190071198
 20
2.409991349473374
 30
0.0
 10
21.10795083901411
 20
2.379952454599493
 30
0.0
  0
SPLINE
  5
C6
330
1F
100
AcDbEntity
  8
외형선
  6
Continuous
 62
     1
370
    15
100
AcDbSpline
210
0.0
220
0.0
230
1.0
 70
     8
 71
     3
 72
    12
 73
     8
 74
     0
 42
0.000000001
 43
0.00000001
 40
0.0
 40
0.0
 40
0.0
 40
0.0
 40
0.5000000000000001
 40
0.5000000000000001
 40
0.75
 40
0.75
 40
1.0
 40
1.0
 40
1.0
 40
1.0
 10
21.32303783772058
 20
-0.7546379306710251
 30
0.0
 10
21.28642740096532
 20
-0.2289365901835706
 30
0.0
 10
21.24936383501627
 20
0.3196495814482909
 30
0.0
 10
21.19763594505289
 20
1.108191249391802
 30
0.0
 10
21.18046663105964
 20
1.368282291965316
 30
0.0
 10
21.14462032161616
 20
1.883413041102407
 30
0.0
 10
21.12629333135198
 20
2.136646449558737
 30
0.0
 10
21.10795080620978
 20
2.379952889736015
 30
0.0
  0
SPLINE
  5
C7
330
1F
100
AcDbEntity
  8
외형선
  6
Continuous
 62
     1
370
    15
100
AcDbSpline
210
0.0
220
0.0
230
1.0
 70
     8
 71
     3
 72
     9
 73
     5
 74
     0
 42
0.000000001
 43
0.00000001
 40
0.0
 40
0.0
 40
0.0
 40
0.0
 40
0.3727207505955455
 40
0.9999999999999999
 40
0.9999999999999999
 40
0.9999999999999999
 40
0.9999999999999999
 10
23.47572238871449
 20
-1.817883351544401
 30
0.0
 10
23.39073742992997
 20
-1.839285540455541
 30
0.0
 10
23.16272501406972
 20
-1.896707052075013
 30
0.0
 10
22.9066002612284
 20
-2.01165831405865
 30
0.0
 10
22.74593851851219
 20
-2.083764855393841
 30
0.0
  0
SPLINE
  5
C8
330
1F
100
AcDbEntity
  8
외형선
  6
Continuous
 62
     1
370
    15
100
AcDbSpline
210
0.0
220
0.0
230
1.0
 70
     8
 71
     3
 72
     8
 73
     4
 74
     0
 42
0.000000001
 43
0.00000001
 40
0.0
 40
0.0
 40
0.0
 40
0.0
 40
1.0
 40
1.0
 40
1.0
 40
1.0
 10
24.2875
 20
-2.467325850254135
 30
0.0
 10
23.76042840035621
 20
-2.386655267224566
 30
0.0
 10
23.24704323427956
 20
-2.257128636993285
 30
0.0
 10
22.74593851851153
 20
-2.083764855396574
 30
0.0
  0
LINE
  5
C9
330
1F
100
AcDbEntity
  8
외형선
  6
Continuous
 62
     1
370
    15
100
AcDbLine
 10
24.2875
 20
-3.077837103489523
 30
0.0
 11
24.2875
 21
-2.467325850254134
 31
0.0
  0
SPLINE
  5
CA
330
1F
100
AcDbEntity
  8
외형선
  6
Continuous
 62
     1
370
    15
100
AcDbSpline
210
0.0
220
0.0
230
1.0
 70
     8
 71
     3
 72
    10
 73
     6
 74
     0
 42
0.000000001
 43
0.00000001
 40
0.0
 40
0.0
 40
0.0
 40
0.0
 40
0.4999999999999997
 40
0.4999999999999997
 40
1.0
 40
1.0
 40
1.0
 40
1.0
 10
23.34491579596284
 20
-4.021851097839983
 30
0.0
 10
23.4983010742453
 20
-3.857185144269749
 30
0.0
 10
23.65302999997256
 20
-3.695405333604826
 30
0.0
 10
23.966957653714
 20
-3.379645793018104
 30
0.0
 10
24.12711962875731
 20
-3.224807416498661
 30
0.0
 10
24.2875
 20
-3.07783710348956
 30
0.0
  0
SPLINE
  5
CB
330
1F
100
AcDbEntity
  8
외형선
  6
Continuous
 62
     1
370
    15
100
AcDbSpline
210
0.0
220
0.0
230
1.0
 70
     8
 71
     3
 72
     8
 73
     4
 74
     0
 42
0.000000001
 43
0.00000001
 40
0.0
 40
0.0
 40
0.0
 40
0.0
 40
1.0
 40
1.0
 40
1.0
 40
1.0
 10
23.07775660477701
 20
-4.163710106660792
 30
0.0
 10
23.15828274017182
 20
-4.093961061574881
 30
0.0
 10
23.25163131899193
 20
-4.047395352768817
 30
0.0
 10
23.34491579596271
 20
-4.021851097839993
 30
0.0
  0
SPLINE
  5
CC
330
1F
100
AcDbEntity
  8
외형선
  6
Continuous
 62
     1
370
    15
100
AcDbSpline
210
0.0
220
0.0
230
1.0
 70
     8
 71
     3
 72
     8
 73
     4
 74
     0
 42
0.000000001
 43
0.00000001
 40
0.0
 40
0.0
 40
0.0
 40
0.0
 40
1.0
 40
1.0
 40
1.0
 40
1.0
 10
22.91772232888523
 20
-4.239946805854793
 30
0.0
 10
22.97330077287437
 20
-4.230624612129831
 30
0.0
 10
23.02977097472357
 20
-4.205273654416606
 30
0.0
 10
23.07775660477701
 20
-4.163710106660792
 30
0.0
  0
SPLINE
  5
CD
330
1F
100
AcDbEntity
  8
외형선
  6
Continuous
 62
     1
370
    15
100
AcDbSpline
210
0.0
220
0.0
230
1.0
 70
     8
 71
     3
 72
     8
 73
     4
 74
     0
 42
0.000000001
 43
0.00000001
 40
0.0
 40
0.0
 40
0.0
 40
0.0
 40
1.0
 40
1.0
 40
1.0
 40
1.0
 10
22.91772232882661
 20
-4.239946805864529
 30
0.0
 10
22.54463191671019
 20
-4.302525403768461
 30
0.0
 10
22.17500160383423
 20
-4.350986449397718
 30
0.0
 10
21.80144744465808
 20
-4.385187168029025
 30
0.0
  0
SPLINE
  5
CE
330
1F
100
AcDbEntity
  8
외형선
  6
Continuous
 62
     1
370
    15
100
AcDbSpline
210
0.0
220
0.0
230
1.0
 70
     8
 71
     3
 72
     8
 73
     4
 74
     0
 42
0.000000001
 43
0.00000001
 40
0.0
 40
0.0
 40
0.0
 40
0.0
 40
1.0
 40
1.0
 40
1.0
 40
1.0
 10
21.64060187093769
 20
-4.347181706891767
 30
0.0
 10
21.68748759493206
 20
-4.377638557309965
 30
0.0
 10
21.74377349937666
 20
-4.390467501085654
 30
0.0
 10
21.80144744481694
 20
-4.385187168014482
 30
0.0
  0
SPLINE
  5
CF
330
1F
100
AcDbEntity
  8
외형선
  6
Continuous
 62
     1
370
    15
100
AcDbSpline
210
0.0
220
0.0
230
1.0
 70
     8
 71
     3
 72
    10
 73
     6
 74
     0
 42
0.000000001
 43
0.00000001
 40
0.0
 40
0.0
 40
0.0
 40
0.0
 40
0.5
 40
0.5
 40
1.0
 40
1.0
 40
1.0
 40
1.0
 10
20.99880851929933
 20
-4.383580271541289
 30
0.0
 10
21.09649577782582
 20
-4.306690723503622
 30
0.0
 10
21.21230700844488
 20
-4.268727133642895
 30
0.0
 10
21.43906599009044
 20
-4.259402948953034
 30
0.0
 10
21.54866534870966
 20
-4.287459969294071
 30
0.0
 10
21.64060187093766
 20
-4.347181706891746
 30
0.0
  0
SPLINE
  5
D0
330
1F
100
AcDbEntity
  8
외형선
  6
Continuous
 62
     1
370
    15
100
AcDbSpline
210
0.0
220
0.0
230
1.0
 70
     8
 71
     3
 72
     8
 73
     4
 74
     0
 42
0.000000001
 43
0.00000001
 40
0.0
 40
0.0
 40
0.0
 40
0.0
 40
1.0
 40
1.0
 40
1.0
 40
1.0
 10
20.8387715975765
 20
-4.441241075066495
 30
0.0
 10
20.89434409090795
 20
-4.439862355418843
 30
0.0
 10
20.95081622458427
 20
-4.421354960949024
 30
0.0
 10
20.99880851929932
 20
-4.383580271541295
 30
0.0
  0
SPLINE
  5
D1
330
1F
100
AcDbEntity
  8
외형선
  6
Continuous
 62
     1
370
    15
100
AcDbSpline
210
0.0
220
0.0
230
1.0
 70
     8
 71
     3
 72
     8
 73
     4
 74
     0
 42
0.000000001
 43
0.00000001
 40
0.0
 40
0.0
 40
0.0
 40
0.0
 40
1.0
 40
1.0
 40
1.0
 40
1.0
 10
20.83877159748035
 20
-4.44124107506886
 30
0.0
 10
20.46655922710487
 20
-4.450475436839491
 30
0.0
 10
20.09534160442647
 20
-4.445145375499176
 30
0.0
 10
19.72128870546571
 20
-4.425209861060202
 30
0.0
  0
SPLINE
  5
D2
330
1F
100
AcDbEntity
  8
외형선
  6
Continuous
 62
     1
370
    15
100
AcDbSpline
210
0.0
220
0.0
230
1.0
 70
     8
 71
     3
 72
     8
 73
     4
 74
     0
 42
0.000000001
 43
0.00000001
 40
0.0
 40
0.0
 40
0.0
 40
0.0
 40
1.0
 40
1.0
 40
1.0
 40
1.0
 10
19.56015946013748
 20
-4.361932227409651
 30
0.0
 10
19.60714224095623
 20
-4.400460041085504
 30
0.0
 10
19.66352227131011
 20
-4.422131148600988
 30
0.0
 10
19.72129021470581
 20
-4.425209941496555
 30
0.0
  0
SPLINE
  5
D3
330
1F
100
AcDbEntity
  8
외형선
  6
Continuous
 62
     1
370
    15
100
AcDbSpline
210
0.0
220
0.0
230
1.0
 70
     8
 71
     3
 72
    10
 73
     6
 74
     0
 42
0.000000001
 43
0.00000001
 40
0.0
 40
0.0
 40
0.0
 40
0.0
 40
0.5
 40
0.5
 40
1.0
 40
1.0
 40
1.0
 40
1.0
 10
18.91759571698876
 20
-4.306234587996149
 30
0.0
 10
19.01539905501294
 20
-4.241973857719832
 30
0.0
 10
19.13132468918723
 20
-4.219006475850343
 30
0.0
 10
19.35831257892824
 20
-4.241595536577186
 30
0.0
 10
19.4680513841804
 20
-4.286399814753879
 30
0.0
 10
19.56015946013745
 20
-4.361932227409629
 30
0.0
  0
SPLINE
  5
D4
330
1F
100
AcDbEntity
  8
외형선
  6
Continuous
 62
     1
370
    15
100
AcDbSpline
210
0.0
220
0.0
230
1.0
 70
     8
 71
     3
 72
     8
 73
     4
 74
     0
 42
0.000000001
 43
0.00000001
 40
0.0
 40
0.0
 40
0.0
 40
0.0
 40
1.0
 40
1.0
 40
1.0
 40
1.0
 10
18.7574439034521
 20
-4.341543369007066
 30
0.0
 10
18.81304337047733
 20
-4.348243909209283
 30
0.0
 10
18.86955279871833
 20
-4.337800719326966
 30
0.0
 10
18.91759571698876
 20
-4.306234587996156
 30
0.0
  0
SPLINE
  5
D5
330
1F
100
AcDbEntity
  8
외형선
  6
Continuous
 62
     1
370
    15
100
AcDbSpline
210
0.0
220
0.0
230
1.0
 70
     8
 71
     3
 72
     8
 73
     4
 74
     0
 42
0.000000001
 43
0.00000001
 40
0.0
 40
0.0
 40
0.0
 40
0.0
 40
1.0
 40
1.0
 40
1.0
 40
1.0
 10
18.7574432579354
 20
-4.341543291213002
 30
0.0
 10
18.38729894990255
 20
-4.29693552989131
 30
0.0
 10
18.01350455429325
 20
-4.237945559830387
 30
0.0
 10
17.6401350376821
 20
-4.16520559819994
 30
0.0
  0
SPLINE
  5
D6
330
1F
100
AcDbEntity
  8
외형선
  6
Continuous
 62
     1
370
    15
100
AcDbSpline
210
0.0
220
0.0
230
1.0
 70
     8
 71
     3
 72
     8
 73
     4
 74
     0
 42
0.000000001
 43
0.00000001
 40
0.0
 40
0.0
 40
0.0
 40
0.0
 40
1.0
 40
1.0
 40
1.0
 40
1.0
 10
17.47916041622508
 20
-4.080646712059067
 30
0.0
 10
17.52608444046491
 20
-4.124802102659463
 30
0.0
 10
17.58241266854985
 20
-4.153960109166463
 30
0.0
 10
17.64013511590335
 20
-4.165205613439032
 30
0.0
  0
SPLINE
  5
D7
330
1F
100
AcDbEntity
  8
외형선
  6
Continuous
 62
     1
370
    15
100
AcDbSpline
210
0.0
220
0.0
230
1.0
 70
     8
 71
     3
 72
    10
 73
     6
 74
     0
 42
0.000000001
 43
0.00000001
 40
0.0
 40
0.0
 40
0.0
 40
0.0
 40
0.5
 40
0.5
 40
1.0
 40
1.0
 40
1.0
 40
1.0
 10
16.83746477720914
 20
-3.936234806851326
 30
0.0
 10
16.93512233715709
 20
-3.888723184856368
 30
0.0
 10
17.05086807752052
 20
-3.88223149188254
 30
0.0
 10
17.27757646973507
 20
-3.93533858186144
 30
0.0
 10
17.38717702897968
 20
-3.994090572461764
 30
0.0
 10
17.47916041622505
 20
-4.080646712059046
 30
0.0
  0
SPLINE
  5
D8
330
1F
100
AcDbEntity
  8
외형선
  6
Continuous
 62
     1
370
    15
100
AcDbSpline
210
0.0
220
0.0
230
1.0
 70
     8
 71
     3
 72
     8
 73
     4
 74
     0
 42
0.000000001
 43
0.00000001
 40
0.0
 40
0.0
 40
0.0
 40
0.0
 40
1.0
 40
1.0
 40
1.0
 40
1.0
 10
16.67759081789023
 20
-3.947032369279381
 30
0.0
 10
16.73312880035751
 20
-3.961340005751278
 30
0.0
 10
16.78953392856856
 20
-3.959553763046032
 30
0.0
 10
16.83746477720914
 20
-3.936234806851321
 30
0.0
  0
SPLINE
  5
D9
330
1F
100
AcDbEntity
  8
외형선
  6
Continuous
 62
     1
370
    15
100
AcDbSpline
210
0.0
220
0.0
230
1.0
 70
     8
 71
     3
 72
     8
 73
     4
 74
     0
 42
0.000000001
 43
0.00000001
 40
0.0
 40
0.0
 40
0.0
 40
0.0
 40
1.0
 40
1.0
 40
1.0
 40
1.0
 10
16.67759078941612
 20
-3.947032361944034
 30
0.0
 10
16.30704315534246
 20
-3.851572270604044
 30
0.0
 10
15.93320884957378
 20
-3.742821760409787
 30
0.0
 10
15.56118408239788
 20
-3.622214443305984
 30
0.0
  0
SPLINE
  5
DA
330
1F
100
AcDbEntity
  8
외형선
  6
Continuous
 62
     1
370
    15
100
AcDbSpline
210
0.0
220
0.0
230
1.0
 70
     8
 71
     3
 72
     8
 73
     4
 74
     0
 42
0.000000001
 43
0.00000001
 40
0.0
 40
0.0
 40
0.0
 40
0.0
 40
1.0
 40
1.0
 40
1.0
 40
1.0
 10
15.40012815803266
 20
-3.521641905020128
 30
0.0
 10
15.44708321969387
 20
-3.568664183028817
 30
0.0
 10
15.50343344664539
 20
-3.603492168419987
 30
0.0
 10
15.56118352362481
 20
-3.622214262156424
 30
0.0
  0
SPLINE
  5
DB
330
1F
100
AcDbEntity
  8
외형선
  6
Continuous
 62
     1
370
    15
100
AcDbSpline
210
0.0
220
0.0
230
1.0
 70
     8
 71
     3
 72
    10
 73
     6
 74
     0
 42
0.000000001
 43
0.00000001
 40
0.0
 40
0.0
 40
0.0
 40
0.0
 40
0.5
 40
0.5
 40
1.0
 40
1.0
 40
1.0
 40
1.0
 10
14.75765118653112
 20
-3.297217989304845
 30
0.0
 10
14.85551630326389
 20
-3.269384040565102
 30
0.0
 10
14.97143526368068
 20
-3.279863303584343
 30
0.0
 10
15.19832027981051
 20
-3.360376476647511
 30
0.0
 10
15.30802564254555
 20
-3.429407544435428
 30
0.0
 10
15.40012815803263
 20
-3.521641905020092
 30
0.0
  0
SPLINE
  5
DC
330
1F
100
AcDbEntity
  8
외형선
  6
Continuous
 62
     1
370
    15
100
AcDbSpline
210
0.0
220
0.0
230
1.0
 70
     8
 71
     3
 72
     8
 73
     4
 74
     0
 42
0.000000001
 43
0.00000001
 40
0.0
 40
0.0
 40
0.0
 40
0.0
 40
1.0
 40
1.0
 40
1.0
 40
1.0
 10
14.59751709795606
 20
-3.282830288776391
 30
0.0
 10
14.65313810904601
 20
-3.303849243006691
 30
0.0
 10
14.70963550670578
 20
-3.310874193022566
 30
0.0
 10
14.75765118653111
 20
-3.29721798930484
 30
0.0
  0
SPLINE
  5
DD
330
1F
100
AcDbEntity
  8
외형선
  6
Continuous
 62
     1
370
    15
100
AcDbSpline
210
0.0
220
0.0
230
1.0
 70
     8
 71
     3
 72
     8
 73
     4
 74
     0
 42
0.000000001
 43
0.00000001
 40
0.0
 40
0.0
 40
0.0
 40
0.0
 40
1.0
 40
1.0
 40
1.0
 40
1.0
 10
14.59751735280703
 20
-3.28283038508372
 30
0.0
 10
14.22549640006393
 20
-3.142245182462835
 30
0.0
 10
13.85123008457505
 20
-2.99035415205823
 30
0.0
 10
13.47983255518421
 20
-2.829250129748631
 30
0.0
  0
SPLINE
  5
DE
330
1F
100
AcDbEntity
  8
외형선
  6
Continuous
 62
     1
370
    15
100
AcDbSpline
210
0.0
220
0.0
230
1.0
 70
     8
 71
     3
 72
     8
 73
     4
 74
     0
 42
0.000000001
 43
0.00000001
 40
0.0
 40
0.0
 40
0.0
 40
0.0
 40
1.0
 40
1.0
 40
1.0
 40
1.0
 10
13.31870153242113
 20
-2.718890724417464
 30
0.0
 10
13.36568270347885
 20
-2.765852082863829
 30
0.0
 10
13.42205594007248
 20
-2.804187910233809
 30
0.0
 10
13.47983133350719
 20
-2.82924959981216
 30
0.0
  0
SPLINE
  5
DF
330
1F
100
AcDbEntity
  8
외형선
  6
Continuous
 62
     1
370
    15
100
AcDbSpline
210
0.0
220
0.0
230
1.0
 70
     8
 71
     3
 72
    10
 73
     6
 74
     0
 42
0.000000001
 43
0.00000001
 40
0.0
 40
0.0
 40
0.0
 40
0.0
 40
0.5
 40
0.5
 40
1.0
 40
1.0
 40
1.0
 40
1.0
 10
12.67633582848907
 20
-2.429090300574331
 30
0.0
 10
12.77418882426704
 20
-2.422663843704163
 30
0.0
 10
12.89017241244552
 20
-2.449213662922087
 30
0.0
 10
13.11709444536433
 20
-2.551819011463714
 30
0.0
 10
13.22665201669972
 20
-2.626880027253331
 30
0.0
 10
13.3187015324211
 20
-2.718890724417454
 30
0.0
  0
SPLINE
  5
E0
330
1F
100
AcDbEntity
  8
외형선
  6
Continuous
 62
     1
370
    15
100
AcDbSpline
210
0.0
220
0.0
230
1.0
 70
     8
 71
     3
 72
     8
 73
     4
 74
     0
 42
0.000000001
 43
0.00000001
 40
0.0
 40
0.0
 40
0.0
 40
0.0
 40
1.0
 40
1.0
 40
1.0
 40
1.0
 10
12.51630732502596
 20
-2.390555325868637
 30
0.0
 10
12.57189492595416
 20
-2.416916124442364
 30
0.0
 10
12.62835885299294
 20
-2.432241169501079
 30
0.0
 10
12.67633582848907
 20
-2.429090300574322
 30
0.0
  0
SPLINE
  5
E1
330
1F
100
AcDbEntity
  8
외형선
  6
Continuous
 62
     1
370
    15
100
AcDbSpline
210
0.0
220
0.0
230
1.0
 70
     8
 71
     3
 72
     8
 73
     4
 74
     0
 42
0.000000001
 43
0.00000001
 40
0.0
 40
0.0
 40
0.0
 40
0.0
 40
1.0
 40
1.0
 40
1.0
 40
1.0
 10
12.51630969192752
 20
-2.390556448302796
 30
0.0
 10
12.14374465007678
 20
-2.213878376134237
 30
0.0
 10
11.76999384290035
 20
-2.028721203152182
 30
0.0
 10
11.40014894081735
 20
-1.837664657767283
 30
0.0
  0
SPLINE
  5
E2
330
1F
100
AcDbEntity
  8
외형선
  6
Continuous
 62
     1
370
    15
100
AcDbSpline
210
0.0
220
0.0
230
1.0
 70
     8
 71
     3
 72
     8
 73
     4
 74
     0
 42
0.000000001
 43
0.00000001
 40
0.0
 40
0.0
 40
0.0
 40
0.0
 40
1.0
 40
1.0
 40
1.0
 40
1.0
 10
11.23926040221588
 20
-1.724591363138326
 30
0.0
 10
11.28617495117451
 20
-1.768451711208451
 30
0.0
 10
11.34245748427918
 20
-1.807862082197744
 30
0.0
 10
11.40014862489244
 20
-1.837664494565032
 30
0.0
  0
SPLINE
  5
E3
330
1F
100
AcDbEntity
  8
외형선
  6
Continuous
 62
     1
370
    15
100
AcDbSpline
210
0.0
220
0.0
230
1.0
 70
     8
 71
     3
 72
    10
 73
     6
 74
     0
 42
0.000000001
 43
0.00000001
 40
0.0
 40
0.0
 40
0.0
 40
0.0
 40
0.5
 40
0.5
 40
1.0
 40
1.0
 40
1.0
 40
1.0
 10
10.59739772285421
 20
-1.388508420292159
 30
0.0
 10
10.69515571543097
 20
-1.403890060951857
 30
0.0
 10
10.81104016457913
 20
-1.444779809854071
 30
0.0
 10
11.03782929459476
 20
-1.56264050785197
 30
0.0
 10
11.14736205110459
 20
-1.638675719563335
 30
0.0
 10
11.23926040221585
 20
-1.724591363138311
 30
0.0
  0
SPLINE
  5
E4
330
1F
100
AcDbEntity
  8
외형선
  6
Continuous
 62
     1
370
    15
100
AcDbSpline
210
0.0
220
0.0
230
1.0
 70
     8
 71
     3
 72
     8
 73
     4
 74
     0
 42
0.000000001
 43
0.00000001
 40
0.0
 40
0.0
 40
0.0
 40
0.0
 40
1.0
 40
1.0
 40
1.0
 40
1.0
 10
10.43737167801591
 20
-1.32822634041819
 30
0.0
 10
10.4929568994308
 20
-1.358280155510696
 30
0.0
 10
10.5494232226722
 20
-1.380959917063131
 30
0.0
 10
10.59739772285421
 20
-1.388508420292154
 30
0.0
  0
SPLINE
  5
E5
330
1F
100
AcDbEntity
  8
외형선
  6
Continuous
 62
     1
370
    15
100
AcDbSpline
210
0.0
220
0.0
230
1.0
 70
     8
 71
     3
 72
     8
 73
     4
 74
     0
 42
0.000000001
 43
0.00000001
 40
0.0
 40
0.0
 40
0.0
 40
0.0
 40
1.0
 40
1.0
 40
1.0
 40
1.0
 10
10.43737554156292
 20
-1.328228429360709
 30
0.0
 10
10.29150446542385
 20
-1.249358875692635
 30
0.0
 10
10.14561057393243
 20
-1.169716273025021
 30
0.0
 10
10.00000000000026
 20
-1.089469094559145
 30
0.0
  0
SPLINE
  5
E6
330
1F
100
AcDbEntity
  8
외형선
  6
Continuous
370
    15
100
AcDbSpline
210
0.0
220
0.0
230
1.0
 70
    24
 71
     3
 72
    18
 73
    14
 74
     0
 42
0.000000001
 43
0.00000001
 40
0.0
 40
0.0
 40
0.0
 40
0.0
 40
0.2499999999999999
 40
0.2499999999999999
 40
0.4999999999999999
 40
0.4999999999999999
 40
0.6249999999999999
 40
0.6249999999999999
 40
0.75
 40
0.75
 40
0.875
 40
0.875
 40
1.0
 40
1.0
 40
1.0
 40
1.0
 10
9.999999999999998
 20
4.652329634884855
 30
0.0
 10
9.999999999999998
 20
4.286471458792918
 30
0.0
 10
9.999999999999998
 20
3.86397926013978
 30
0.0
 10
9.999999999999998
 20
2.908438868279307
 30
0.0
 10
9.999999999999998
 20
2.373728410173494
 30
0.0
 10
9.999999999999998
 20
1.539670249259603
 30
0.0
 10
9.999999999999998
 20
1.257062336246834
 30
0.0
 10
9.999999999999998
 20
0.7008252099059702
 30
0.0
 10
9.999999999999998
 20
0.4272933124291273
 30
0.0
 10
10.0
 20
-0.0877111963042805
 30
0.0
 10
10.0
 20
-0.3289999673969679
 30
0.0
 10
10.0
 20
-0.7558106160064405
 30
0.0
 10
10.0
 20
-0.941127454435899
 30
0.0
 10
10.0
 20
-1.089469094559005
 30
0.0
  0
SPLINE
  5
E7
330
1F
100
AcDbEntity
  8
외형선
  6
Continuous
 62
     1
370
    15
100
AcDbSpline
210
0.0
220
0.0
230
1.0
 70
     8
 71
     3
 72
     8
 73
     4
 74
     0
 42
0.000000001
 43
0.00000001
 40
0.0
 40
0.0
 40
0.0
 40
0.0
 40
1.0
 40
1.0
 40
1.0
 40
1.0
 10
10.11893384628766
 20
4.57552084491437
 30
0.0
 10
10.08346835088256
 20
4.60973076516222
 30
0.0
 10
10.04282873190726
 20
4.635644745911731
 30
0.0
 10
9.999999999997979
 20
4.652329634885644
 30
0.0
  0
SPLINE
  5
E8
330
1F
100
AcDbEntity
  8
외형선
  6
Continuous
 62
     1
370
    15
100
AcDbSpline
210
0.0
220
0.0
230
1.0
 70
     8
 71
     3
 72
    10
 73
     6
 74
     0
 42
0.000000001
 43
0.00000001
 40
0.0
 40
0.0
 40
0.0
 40
0.0
 40
0.5
 40
0.5
 40
1.0
 40
1.0
 40
1.0
 40
1.0
 10
10.7614649249098
 20
4.406534407978115
 30
0.0
 10
10.66364925239397
 20
4.364526170279768
 30
0.0
 10
10.54769714227064
 20
4.362951214944461
 30
0.0
 10
10.32069910435993
 20
4.424503449811534
 30
0.0
 10
10.21100296081282
 20
4.486711227870564
 30
0.0
 10
10.11893384628767
 20
4.575520844914365
 30
0.0
  0
SPLINE
  5
E9
330
1F
100
AcDbEntity
  8
외형선
  6
Continuous
 62
     1
370
    15
100
AcDbSpline
210
0.0
220
0.0
230
1.0
 70
     8
 71
     3
 72
     8
 73
     4
 74
     0
 42
0.000000001
 43
0.00000001
 40
0.0
 40
0.0
 40
0.0
 40
0.0
 40
1.0
 40
1.0
 40
1.0
 40
1.0
 10
10.92159994547391
 20
4.409908093180747
 30
0.0
 10
10.86599192180579
 20
4.426319725135054
 30
0.0
 10
10.80948721533154
 20
4.427158217424692
 30
0.0
 10
10.7614649249098
 20
4.406534407978114
 30
0.0
  0
SPLINE
  5
EA
330
1F
100
AcDbEntity
  8
외형선
  6
Continuous
 62
     1
370
    15
100
AcDbSpline
210
0.0
220
0.0
230
1.0
 70
     8
 71
     3
 72
     8
 73
     4
 74
     0
 42
0.000000001
 43
0.00000001
 40
0.0
 40
0.0
 40
0.0
 40
0.0
 40
1.0
 40
1.0
 40
1.0
 40
1.0
 10
12.03909218242058
 20
4.043139303327687
 30
0.0
 10
11.66502277150042
 20
4.177398744983377
 30
0.0
 10
11.29476393577346
 20
4.299775963613125
 30
0.0
 10
10.92159994559938
 20
4.409908093143844
 30
0.0
  0
SPLINE
  5
EB
330
1F
100
AcDbEntity
  8
외형선
  6
Continuous
 62
     1
370
    15
100
AcDbSpline
210
0.0
220
0.0
230
1.0
 70
     8
 71
     3
 72
     8
 73
     4
 74
     0
 42
0.000000001
 43
0.00000001
 40
0.0
 40
0.0
 40
0.0
 40
0.0
 40
1.0
 40
1.0
 40
1.0
 40
1.0
 10
12.20009531417737
 20
3.939100427877746
 30
0.0
 10
12.15315744635854
 20
3.986361774534857
 30
0.0
 10
12.09681698191346
 20
4.022420959601715
 30
0.0
 10
12.03909156114263
 20
4.043139526314181
 30
0.0
  0
SPLINE
  5
EC
330
1F
100
AcDbEntity
  8
외형선
  6
Continuous
 62
     1
370
    15
100
AcDbSpline
210
0.0
220
0.0
230
1.0
 70
     8
 71
     3
 72
    10
 73
     6
 74
     0
 42
0.000000001
 43
0.00000001
 40
0.0
 40
0.0
 40
0.0
 40
0.0
 40
0.5
 40
0.5
 40
1.0
 40
1.0
 40
1.0
 40
1.0
 10
12.84186955211196
 20
3.694594071728814
 30
0.0
 10
12.74420700669113
 20
3.672977453041615
 30
0.0
 10
12.62839987406465
 20
3.688110783061668
 30
0.0
 10
12.40164236326611
 20
3.775362403280929
 30
0.0
 10
12.29205812976377
 20
3.846503837769125
 30
0.0
 10
12.20009531417738
 20
3.939100427877739
 30
0.0
  0
SPLINE
  5
ED
330
1F
100
AcDbEntity
  8
외형선
  6
Continuous
 62
     1
370
    15
100
AcDbSpline
210
0.0
220
0.0
230
1.0
 70
     8
 71
     3
 72
     8
 73
     4
 74
     0
 42
0.000000001
 43
0.00000001
 40
0.0
 40
0.0
 40
0.0
 40
0.0
 40
1.0
 40
1.0
 40
1.0
 40
1.0
 10
13.00176726957326
 20
3.67285258913087
 30
0.0
 10
12.94624126182269
 20
3.695644222363004
 30
0.0
 10
12.88981770361995
 20
3.705206911107892
 30
0.0
 10
12.84186955211199
 20
3.694594071728817
 30
0.0
  0
SPLINE
  5
EE
330
1F
100
AcDbEntity
  8
외형선
  6
Continuous
 62
     1
370
    15
100
AcDbSpline
210
0.0
220
0.0
230
1.0
 70
     8
 71
     3
 72
     8
 73
     4
 74
     0
 42
0.000000001
 43
0.00000001
 40
0.0
 40
0.0
 40
0.0
 40
0.0
 40
1.0
 40
1.0
 40
1.0
 40
1.0
 10
14.11802335868416
 20
3.186048018044622
 30
0.0
 10
13.74450118490295
 20
3.3578119194713
 30
0.0
 10
13.37300659749955
 20
3.52047082749524
 30
0.0
 10
13.00176751568911
 20
3.67285248810844
 30
0.0
  0
SPLINE
  5
EF
330
1F
100
AcDbEntity
  8
외형선
  6
Continuous
 62
     1
370
    15
100
AcDbSpline
210
0.0
220
0.0
230
1.0
 70
     8
 71
     3
 72
     8
 73
     4
 74
     0
 42
0.000000001
 43
0.00000001
 40
0.0
 40
0.0
 40
0.0
 40
0.0
 40
1.0
 40
1.0
 40
1.0
 40
1.0
 10
14.27904033934544
 20
3.074471075836429
 30
0.0
 10
14.23209712153865
 20
3.120704836763606
 30
0.0
 10
14.17575534301543
 20
3.159500011294237
 30
0.0
 10
14.11802151230311
 20
3.186048867101539
 30
0.0
  0
SPLINE
  5
F0
330
1F
100
AcDbEntity
  8
외형선
  6
Continuous
 62
     1
370
    15
100
AcDbSpline
210
0.0
220
0.0
230
1.0
 70
     8
 71
     3
 72
    10
 73
     6
 74
     0
 42
0.000000001
 43
0.00000001
 40
0.0
 40
0.0
 40
0.0
 40
0.0
 40
0.5
 40
0.5
 40
1.0
 40
1.0
 40
1.0
 40
1.0
 10
14.92138794661907
 20
2.769175879847674
 30
0.0
 10
14.82361831714955
 20
2.769463127597753
 30
0.0
 10
14.70773694618375
 20
2.800509054601786
 30
0.0
 10
14.48082425681198
 20
2.908137829994796
 30
0.0
 10
14.37110857161357
 20
2.983794278664306
 30
0.0
 10
14.27904033934545
 20
3.074471075836425
 30
0.0
  0
SPLINE
  5
F1
330
1F
100
AcDbEntity
  8
외형선
  6
Continuous
 62
     1
370
    15
100
AcDbSpline
210
0.0
220
0.0
230
1.0
 70
     8
 71
     3
 72
     8
 73
     4
 74
     0
 42
0.000000001
 43
0.00000001
 40
0.0
 40
0.0
 40
0.0
 40
0.0
 40
1.0
 40
1.0
 40
1.0
 40
1.0
 10
15.08153377709571
 20
2.723399287060477
 30
0.0
 10
15.02592311456282
 20
2.75120409464757
 30
0.0
 10
14.96942939357438
 20
2.769034733792159
 30
0.0
 10
14.92138794661909
 20
2.769175879847677
 30
0.0
  0
SPLINE
  5
F2
330
1F
100
AcDbEntity
  8
외형선
  6
Continuous
 62
     1
370
    15
100
AcDbSpline
210
0.0
220
0.0
230
1.0
 70
     8
 71
     3
 72
     8
 73
     4
 74
     0
 42
0.000000001
 43
0.00000001
 40
0.0
 40
0.0
 40
0.0
 40
0.0
 40
1.0
 40
1.0
 40
1.0
 40
1.0
 10
16.19925440568383
 20
2.146528397505709
 30
0.0
 10
15.82607754844195
 20
2.345115487525588
 30
0.0
 10
15.45179977414827
 20
2.538269773820328
 30
0.0
 10
15.08153391304349
 20
2.723399219088089
 30
0.0
  0
SPLINE
  5
F3
330
1F
100
AcDbEntity
  8
외형선
  6
Continuous
 62
     1
370
    15
100
AcDbSpline
210
0.0
220
0.0
230
1.0
 70
     8
 71
     3
 72
     8
 73
     4
 74
     0
 42
0.000000001
 43
0.00000001
 40
0.0
 40
0.0
 40
0.0
 40
0.0
 40
1.0
 40
1.0
 40
1.0
 40
1.0
 10
16.36037751934772
 20
2.034348074296597
 30
0.0
 10
16.31339987743281
 20
2.076673238089055
 30
0.0
 10
16.25702429162247
 20
2.115785993980086
 30
0.0
 10
16.19925439340035
 20
2.146528404042399
 30
0.0
  0
SPLINE
  5
F4
330
1F
100
AcDbEntity
  8
외형선
  6
Continuous
 62
     1
370
    15
100
AcDbSpline
210
0.0
220
0.0
230
1.0
 70
     8
 71
     3
 72
    10
 73
     6
 74
     0
 42
0.000000001
 43
0.00000001
 40
0.0
 40
0.0
 40
0.0
 40
0.0
 40
0.5
 40
0.5
 40
1.0
 40
1.0
 40
1.0
 40
1.0
 10
17.00281514003667
 20
1.68739287991703
 30
0.0
 10
16.90499993052918
 20
1.709441187793241
 30
0.0
 10
16.78914310570658
 20
1.754573509500251
 30
0.0
 10
16.56221266103948
 20
1.87593026105065
 30
0.0
 10
16.45249131264674
 20
1.951356863371452
 30
0.0
 10
16.36037751934773
 20
2.034348074296591
 30
0.0
  0
SPLINE
  5
F5
330
1F
100
AcDbEntity
  8
외형선
  6
Continuous
 62
     1
370
    15
100
AcDbSpline
210
0.0
220
0.0
230
1.0
 70
     8
 71
     3
 72
     8
 73
     4
 74
     0
 42
0.000000001
 43
0.00000001
 40
0.0
 40
0.0
 40
0.0
 40
0.0
 40
1.0
 40
1.0
 40
1.0
 40
1.0
 10
17.1628863554046
 20
1.62091908210593
 30
0.0
 10
17.10728596371303
 20
1.65182291673222
 30
0.0
 10
17.05081285424573
 20
1.67657382237409
 30
0.0
 10
17.0028151400367
 20
1.687392879917023
 30
0.0
  0
SPLINE
  5
F6
330
1F
100
AcDbEntity
  8
외형선
  6
Continuous
 62
     1
370
    15
100
AcDbSpline
210
0.0
220
0.0
230
1.0
 70
     8
 71
     3
 72
     8
 73
     4
 74
     0
 42
0.000000001
 43
0.00000001
 40
0.0
 40
0.0
 40
0.0
 40
0.0
 40
1.0
 40
1.0
 40
1.0
 40
1.0
 10
18.27922978884401
 20
0.9918139102128849
 30
0.0
 10
17.90756352008868
 20
1.204128346564687
 30
0.0
 10
17.53375043640247
 20
1.414785243075713
 30
0.0
 10
17.16288622632885
 20
1.620919153849121
 30
0.0
  0
SPLINE
  5
F7
330
1F
100
AcDbEntity
  8
외형선
  6
Continuous
 62
     1
370
    15
100
AcDbSpline
210
0.0
220
0.0
230
1.0
 70
     8
 71
     3
 72
     8
 73
     4
 74
     0
 42
0.000000001
 43
0.00000001
 40
0.0
 40
0.0
 40
0.0
 40
0.0
 40
1.0
 40
1.0
 40
1.0
 40
1.0
 10
18.44005164360159
 20
0.8862632834605215
 30
0.0
 10
18.39317864291812
 20
0.9219486668562563
 30
0.0
 10
18.33690701975847
 20
0.9588657795799247
 30
0.0
 10
18.27922979851108
 20
0.9918139046905662
 30
0.0
  0
SPLINE
  5
F8
330
1F
100
AcDbEntity
  8
외형선
  6
Continuous
 62
     1
370
    15
100
AcDbSpline
210
0.0
220
0.0
230
1.0
 70
     8
 71
     3
 72
    10
 73
     6
 74
     0
 42
0.000000001
 43
0.00000001
 40
0.0
 40
0.0
 40
0.0
 40
0.0
 40
0.5
 40
0.5
 40
1.0
 40
1.0
 40
1.0
 40
1.0
 10
19.08183043831953
 20
0.5203865735456313
 30
0.0
 10
18.98407203244365
 20
0.5626290639150465
 30
0.0
 10
18.86822095844276
 20
0.6185372755041516
 30
0.0
 10
18.6415741385803
 20
0.7458245601129181
 30
0.0
 10
18.53201131779122
 20
0.816252484438617
 30
0.0
 10
18.4400516436016
 20
0.8862632834605196
 30
0.0
  0
SPLINE
  5
F9
330
1F
100
AcDbEntity
  8
외형선
  6
Continuous
 62
     1
370
    15
100
AcDbSpline
210
0.0
220
0.0
230
1.0
 70
     8
 71
     3
 72
     8
 73
     4
 74
     0
 42
0.000000001
 43
0.00000001
 40
0.0
 40
0.0
 40
0.0
 40
0.0
 40
1.0
 40
1.0
 40
1.0
 40
1.0
 10
19.24184183855123
 20
0.4374904176310515
 30
0.0
 10
19.18625906034539
 20
0.4695446051276237
 30
0.0
 10
19.12980166047974
 20
0.4996576769156625
 30
0.0
 10
19.08183043831955
 20
0.5203865735456245
 30
0.0
  0
SPLINE
  5
FA
330
1F
100
AcDbEntity
  8
외형선
  6
Continuous
 62
     1
370
    15
100
AcDbSpline
210
0.0
220
0.0
230
1.0
 70
     8
 71
     3
 72
     8
 73
     4
 74
     0
 42
0.000000001
 43
0.00000001
 40
0.0
 40
0.0
 40
0.0
 40
0.0
 40
1.0
 40
1.0
 40
1.0
 40
1.0
 10
20.35913915561527
 20
-0.205746197093037
 30
0.0
 10
19.98820149097805
 20
0.0074391842649438
 30
0.0
 10
19.61406594714273
 20
0.2228314570602372
 30
0.0
 10
19.24184107914115
 20
0.4374908555776226
 30
0.0
  0
SPLINE
  5
FB
330
1F
100
AcDbEntity
  8
외형선
  6
Continuous
 62
     1
370
    15
100
AcDbSpline
210
0.0
220
0.0
230
1.0
 70
     8
 71
     3
 72
     8
 73
     4
 74
     0
 42
0.000000001
 43
0.00000001
 40
0.0
 40
0.0
 40
0.0
 40
0.0
 40
1.0
 40
1.0
 40
1.0
 40
1.0
 10
20.5202940539267
 20
-0.2984192607089906
 30
0.0
 10
20.47330244597538
 20
-0.2714817538616859
 30
0.0
 10
20.41692299288687
 20
-0.2389557375215234
 30
0.0
 10
20.35913954510308
 20
-0.205746420939566
 30
0.0
  0
SPLINE
  5
FC
330
1F
100
AcDbEntity
  8
외형선
  6
Continuous
 62
     1
370
    15
100
AcDbSpline
210
0.0
220
0.0
230
1.0
 70
     8
 71
     3
 72
    10
 73
     6
 74
     0
 42
0.000000001
 43
0.00000001
 40
0.0
 40
0.0
 40
0.0
 40
0.0
 40
0.5
 40
0.5
 40
1.0
 40
1.0
 40
1.0
 40
1.0
 10
21.16290964805871
 20
-0.6603875340660073
 30
0.0
 10
21.06501112489866
 20
-0.6004600172383164
 30
0.0
 10
20.9489843100173
 20
-0.5371357426233296
 30
0.0
 10
20.72196761364477
 20
-0.4122274216029259
 30
0.0
 10
20.61235874788512
 20
-0.3511944993530734
 30
0.0
 10
20.52029405392671
 20
-0.2984192607089937
 30
0.0
  0
SPLINE
  5
FD
330
1F
100
AcDbEntity
  8
외형선
  6
Continuous
 62
     1
370
    15
100
AcDbSpline
210
0.0
220
0.0
230
1.0
 70
     8
 71
     3
 72
     8
 73
     4
 74
     0
 42
0.000000001
 43
0.00000001
 40
0.0
 40
0.0
 40
0.0
 40
0.0
 40
1.0
 40
1.0
 40
1.0
 40
1.0
 10
22.44044395697888
 20
-1.371301085336484
 30
0.0
 10
22.0704663235889
 20
-1.17073314758315
 30
0.0
 10
21.69635549407322
 20
-0.96426113019699
 30
0.0
 10
21.32303786419485
 20
-0.7546383113410532
 30
0.0
  0
SPLINE
  5
FE
330
1F
100
AcDbEntity
  8
외형선
  6
Continuous
 62
     1
370
    15
100
AcDbSpline
210
0.0
220
0.0
230
1.0
 70
     8
 71
     3
 72
     8
 73
     4
 74
     0
 42
0.000000001
 43
0.00000001
 40
0.0
 40
0.0
 40
0.0
 40
0.0
 40
1.0
 40
1.0
 40
1.0
 40
1.0
 10
22.22552434601086
 20
1.781987010633313
 30
0.0
 10
21.85456544720344
 20
1.986110566693462
 30
0.0
 10
21.48033684768987
 20
2.18635138692243
 30
0.0
 10
21.10795080042493
 20
2.379952474661752
 30
0.0
  0
SPLINE
  5
FF
330
1F
100
AcDbEntity
  8
외형선
  6
Continuous
 62
     1
370
    15
100
AcDbSpline
210
0.0
220
0.0
230
1.0
 70
     8
 71
     3
 72
    12
 73
     8
 74
     0
 42
0.000000001
 43
0.00000001
 40
0.0
 40
0.0
 40
0.0
 40
0.0
 40
0.2500000000000001
 40
0.2500000000000001
 40
0.5000000000000002
 40
0.5000000000000002
 40
1.0
 40
1.0
 40
1.0
 40
1.0
 10
19.24184180615224
 20
0.43749090397848
 30
0.0
 10
19.22402799461607
 20
0.7048937979611829
 30
0.0
 10
19.20712830692657
 20
0.9671567027483932
 30
0.0
 10
19.17226057072536
 20
1.488530187023921
 30
0.0
 10
19.15423989470199
 20
1.747837973438612
 30
0.0
 10
19.09951830606048
 20
2.504438854133138
 30
0.0
 10
19.06219419396787
 20
2.979052209622434
 30
0.0
 10
19.02712548392552
 20
3.385995086170215
 30
0.0
  0
SPLINE
  5
100
330
1F
100
AcDbEntity
  8
외형선
  6
Continuous
 62
     1
370
    15
100
AcDbSpline
210
0.0
220
0.0
230
1.0
 70
     8
 71
     3
 72
     8
 73
     4
 74
     0
 42
0.000000001
 43
0.00000001
 40
0.0
 40
0.0
 40
0.0
 40
0.0
 40
1.0
 40
1.0
 40
1.0
 40
1.0
 10
20.14408730077824
 20
2.867000588107885
 30
0.0
 10
19.77227750724152
 20
3.048228736308995
 30
0.0
 10
19.39825532041412
 20
3.222012246673862
 30
0.0
 10
19.02712495440576
 20
3.38599492670108
 30
0.0
  0
SPLINE
  5
101
330
1F
100
AcDbEntity
  8
외형선
  6
Continuous
 62
     1
370
    15
100
AcDbSpline
210
0.0
220
0.0
230
1.0
 70
     8
 71
     3
 72
    12
 73
     8
 74
     0
 42
0.000000001
 43
0.00000001
 40
0.0
 40
0.0
 40
0.0
 40
0.0
 40
0.2499999999999999
 40
0.2499999999999999
 40
0.4999999999999999
 40
0.4999999999999999
 40
1.0
 40
1.0
 40
1.0
 40
1.0
 10
20.35913949601251
 20
-0.2057457013458894
 30
0.0
 10
20.34085039133413
 20
0.0623469091388941
 30
0.0
 10
20.32271551600243
 20
0.3321930631228789
 30
0.0
 10
20.28750405423033
 20
0.8639360188752131
 30
0.0
 10
20.27074163049446
 20
1.12430613590972
 30
0.0
 10
20.21781693382368
 20
1.903519822733775
 30
0.0
 10
20.18044266769844
 20
2.412344780862117
 30
0.0
 10
20.14408944086707
 20
2.867002157071175
 30
0.0
  0
SPLINE
  5
102
330
1F
100
AcDbEntity
  8
외형선
  6
Continuous
 62
     1
370
    15
100
AcDbSpline
210
0.0
220
0.0
230
1.0
 70
     8
 71
     3
 72
     8
 73
     4
 74
     0
 42
0.000000001
 43
0.00000001
 40
0.0
 40
0.0
 40
0.0
 40
0.0
 40
1.0
 40
1.0
 40
1.0
 40
1.0
 10
20.14408965819465
 20
2.866999439052879
 30
0.0
 10
20.19970435525052
 20
2.839891625514859
 30
0.0
 10
20.25619464224827
 20
2.804831986366306
 30
0.0
 10
20.30420383401387
 20
2.766756520647917
 30
0.0
  0
SPLINE
  5
103
330
1F
100
AcDbEntity
  8
외형선
  6
Continuous
 62
     1
370
    15
100
AcDbSpline
210
0.0
220
0.0
230
1.0
 70
     8
 71
     3
 72
    12
 73
     8
 74
     0
 42
0.000000001
 43
0.00000001
 40
0.0
 40
0.0
 40
0.0
 40
0.0
 40
0.25
 40
0.25
 40
0.5
 40
0.5
 40
1.0
 40
1.0
 40
1.0
 40
1.0
 10
20.52029405179273
 20
-0.2984192298921768
 30
0.0
 10
20.50188965233425
 20
-0.0326407341685759
 30
0.0
 10
20.48359094015431
 20
0.2356179100139441
 30
0.0
 10
20.44797621992018
 20
0.76552924080784
 30
0.0
 10
20.43110093960054
 20
1.025017467774765
 30
0.0
 10
20.37830216657222
 20
1.800538163803295
 30
0.0
 10
20.34082471868807
 20
2.309648960159937
 30
0.0
 10
20.30420394911708
 20
2.766755083919621
 30
0.0
  0
SPLINE
  5
104
330
1F
100
AcDbEntity
  8
외형선
  6
Continuous
 62
     1
370
    15
100
AcDbSpline
210
0.0
220
0.0
230
1.0
 70
     8
 71
     3
 72
    12
 73
     8
 74
     0
 42
0.000000001
 43
0.00000001
 40
0.0
 40
0.0
 40
0.0
 40
0.0
 40
0.5
 40
0.5
 40
0.75
 40
0.75
 40
1.0
 40
1.0
 40
1.0
 40
1.0
 10
17.16288633061711
 20
1.620919438499492
 30
0.0
 10
17.12703240141188
 20
2.136416467369806
 30
0.0
 10
17.08954597131605
 20
2.633934727895697
 30
0.0
 10
17.03557949188326
 20
3.290509108744292
 30
0.0
 10
17.01819972831981
 20
3.493791033587728
 30
0.0
 10
16.98388348675065
 20
3.867754252345467
 30
0.0
 10
16.96606714090954
 20
4.04147018354466
 30
0.0
 10
16.94794564840935
 20
4.197390517746119
 30
0.0
  0
SPLINE
  5
105
330
1F
100
AcDbEntity
  8
외형선
  6
Continuous
 62
     1
370
    15
100
AcDbSpline
210
0.0
220
0.0
230
1.0
 70
     8
 71
     3
 72
     8
 73
     4
 74
     0
 42
0.000000001
 43
0.00000001
 40
0.0
 40
0.0
 40
0.0
 40
0.0
 40
1.0
 40
1.0
 40
1.0
 40
1.0
 10
18.06478066806459
 20
3.789497231988266
 30
0.0
 10
17.69196778208974
 20
3.936559298225709
 30
0.0
 10
17.31798916409672
 20
4.073117617068023
 30
0.0
 10
16.94794566775431
 20
4.197390351286953
 30
0.0
  0
SPLINE
  5
106
330
1F
100
AcDbEntity
  8
외형선
  6
Continuous
 62
     1
370
    15
100
AcDbSpline
210
0.0
220
0.0
230
1.0
 70
     8
 71
     3
 72
    12
 73
     8
 74
     0
 42
0.000000001
 43
0.00000001
 40
0.0
 40
0.0
 40
0.0
 40
0.0
 40
0.4999999999999999
 40
0.4999999999999999
 40
0.75
 40
0.75
 40
1.0
 40
1.0
 40
1.0
 40
1.0
 10
18.27922984611823
 20
0.9918131760371317
 30
0.0
 10
18.24510605041336
 20
1.514092664183529
 30
0.0
 10
18.20819053057398
 20
2.037546231480821
 30
0.0
 10
18.15311733259017
 20
2.756638804017283
 30
0.0
 10
18.13482411783298
 20
2.985334335618281
 30
0.0
 10
18.09913824249284
 20
3.411642117191759
 30
0.0
 10
18.08219736324186
 20
3.607740579249576
 30
0.0
 10
18.06478073438631
 20
3.789496654532697
 30
0.0
  0
SPLINE
  5
107
330
1F
100
AcDbEntity
  8
외형선
  6
Continuous
 62
     1
370
    15
100
AcDbSpline
210
0.0
220
0.0
230
1.0
 70
     8
 71
     3
 72
    10
 73
     6
 74
     0
 42
0.000000001
 43
0.00000001
 40
0.0
 40
0.0
 40
0.0
 40
0.0
 40
0.5
 40
0.5
 40
1.0
 40
1.0
 40
1.0
 40
1.0
 10
20.30420383401452
 20
2.766756520647399
 30
0.0
 10
20.40208519433221
 20
2.689128086545653
 30
0.0
 10
20.51803203511078
 20
2.621988223119072
 30
0.0
 10
20.74495430521701
 20
2.512175319239661
 30
0.0
 10
20.85467179830154
 20
2.469917524140378
 30
0.0
 10
20.94680420807495
 20
2.44561004581512
 30
0.0
  0
SPLINE
  5
108
330
1F
100
AcDbEntity
  8
외형선
  6
Continuous
 62
     1
370
    15
100
AcDbSpline
210
0.0
220
0.0
230
1.0
 70
     8
 71
     3
 72
    12
 73
     8
 74
     0
 42
0.000000001
 43
0.00000001
 40
0.0
 40
0.0
 40
0.0
 40
0.0
 40
0.2499999999999999
 40
0.2499999999999999
 40
0.4999999999999999
 40
0.4999999999999999
 40
1.0
 40
1.0
 40
1.0
 40
1.0
 10
19.08183043831943
 20
0.5203865735470506
 30
0.0
 10
19.06403178935484
 20
0.7854110897063773
 30
0.0
 10
19.04715859142696
 20
1.044910236436514
 30
0.0
 10
19.01187095196885
 20
1.562183788732093
 30
0.0
 10
18.99367301581275
 20
1.818805981806474
 30
0.0
 10
18.93855233608419
 20
2.565412603828089
 30
0.0
 10
18.90114686068987
 20
3.030691947424201
 30
0.0
 10
18.86619818415156
 20
3.426686837517528
 30
0.0
  0
SPLINE
  5
109
330
1F
100
AcDbEntity
  8
외형선
  6
Continuous
 62
     1
370
    15
100
AcDbSpline
210
0.0
220
0.0
230
1.0
 70
     8
 71
     3
 72
     8
 73
     4
 74
     0
 42
0.000000001
 43
0.00000001
 40
0.0
 40
0.0
 40
0.0
 40
0.0
 40
1.0
 40
1.0
 40
1.0
 40
1.0
 10
18.8661981841448
 20
3.426686837597712
 30
0.0
 10
18.91310623144385
 20
3.426076874639973
 30
0.0
 10
18.96941364218472
 20
3.411494473516449
 30
0.0
 10
19.0271255191723
 20
3.385994677160917
 30
0.0
  0
SPLINE
  5
10A
330
1F
100
AcDbEntity
  8
외형선
  6
Continuous
 62
     1
370
    15
100
AcDbSpline
210
0.0
220
0.0
230
1.0
 70
     8
 71
     3
 72
     8
 73
     4
 74
     0
 42
0.000000001
 43
0.00000001
 40
0.0
 40
0.0
 40
0.0
 40
0.0
 40
1.0
 40
1.0
 40
1.0
 40
1.0
 10
22.70968020713496
 20
5.040087175220298
 30
0.0
 10
22.65405313709626
 20
5.035966437133411
 30
0.0
 10
22.59755095922829
 20
5.014965431856334
 30
0.0
 10
22.54952397971587
 20
4.97560080920838
 30
0.0
  0
SPLINE
  5
10B
330
1F
100
AcDbEntity
  8
외형선
  6
Continuous
 62
     1
370
    15
100
AcDbSpline
210
0.0
220
0.0
230
1.0
 70
     8
 71
     3
 72
     8
 73
     4
 74
     0
 42
0.000000001
 43
0.00000001
 40
0.0
 40
0.0
 40
0.0
 40
0.0
 40
1.0
 40
1.0
 40
1.0
 40
1.0
 10
23.1875000000001
 20
5.067491533208217
 30
0.0
 10
23.02784338925899
 20
5.060997286444044
 30
0.0
 10
22.86833371350323
 20
5.051843351934381
 30
0.0
 10
22.70937071275711
 20
5.040064245152701
 30
0.0
  0
SPLINE
  5
10C
330
1F
100
AcDbEntity
  8
외형선
  6
Continuous
 62
     1
370
    15
100
AcDbSpline
210
0.0
220
0.0
230
1.0
 70
     8
 71
     3
 72
     8
 73
     4
 74
     0
 42
0.000000001
 43
0.00000001
 40
0.0
 40
0.0
 40
0.0
 40
0.0
 40
1.0
 40
1.0
 40
1.0
 40
1.0
 10
24.2875
 20
3.944135657906585
 30
0.0
 10
23.9346729717058
 20
4.338471574858399
 30
0.0
 10
23.56437026229293
 20
4.710242495060685
 30
0.0
 10
23.18749999999999
 20
5.067491533208213
 30
0.0
  0
LINE
  5
10D
330
1F
100
AcDbEntity
  8
외형선
  6
Continuous
 62
     1
370
    15
100
AcDbLine
 10
24.2875
 20
3.40060821232448
 30
0.0
 11
24.2875
 21
3.944135657906585
 31
0.0
  0
SPLINE
  5
10E
330
1F
100
AcDbEntity
  8
외형선
  6
Continuous
 62
     1
370
    15
100
AcDbSpline
210
0.0
220
0.0
230
1.0
 70
     8
 71
     3
 72
    12
 73
     8
 74
     0
 42
0.000000001
 43
0.00000001
 40
0.0
 40
0.0
 40
0.0
 40
0.0
 40
0.2500000000000003
 40
0.2500000000000003
 40
0.5000000000000007
 40
0.5000000000000007
 40
1.0
 40
1.0
 40
1.0
 40
1.0
 10
24.2875
 20
3.400608212324481
 30
0.0
 10
24.20903093977822
 20
3.221395334583567
 30
0.0
 10
24.11652629097041
 20
3.05536021156455
 30
0.0
 10
23.90193996163115
 20
2.751059293978054
 30
0.0
 10
23.77827086405158
 20
2.61189705197172
 30
0.0
 10
23.37957248400325
 20
2.257097280637206
 30
0.0
 10
23.06816545649613
 20
2.095899084632428
 30
0.0
 10
22.74593851851195
 20
2.011209551623989
 30
0.0
  0
SPLINE
  5
10F
330
1F
100
AcDbEntity
  8
외형선
  6
Continuous
 62
     1
370
    15
100
AcDbSpline
210
0.0
220
0.0
230
1.0
 70
     8
 71
     3
 72
     8
 73
     4
 74
     0
 42
0.000000001
 43
0.00000001
 40
0.0
 40
0.0
 40
0.0
 40
0.0
 40
1.0
 40
1.0
 40
1.0
 40
1.0
 10
24.2875
 20
1.235558794079363
 30
0.0
 10
23.76042840035619
 20
1.522171489125121
 30
0.0
 10
23.24704323427952
 20
1.779726734741036
 30
0.0
 10
22.74593851851147
 20
2.011209551621771
 30
0.0
  0
LINE
  5
110
330
1F
100
AcDbEntity
  8
외형선
  6
Continuous
 62
     1
370
    15
100
AcDbLine
 10
24.2875
 20
0.8236785439383115
 30
0.0
 11
24.2875
 21
1.235558794079362
 31
0.0
  0
SPLINE
  5
111
330
1F
100
AcDbEntity
  8
외형선
  6
Continuous
 62
     1
370
    15
100
AcDbSpline
210
0.0
220
0.0
230
1.0
 70
     8
 71
     3
 72
    10
 73
     6
 74
     0
 42
0.000000001
 43
0.00000001
 40
0.0
 40
0.0
 40
0.0
 40
0.0
 40
0.5
 40
0.5
 40
1.0
 40
1.0
 40
1.0
 40
1.0
 10
18.22469211101351
 20
3.692476073660447
 30
0.0
 10
18.32240339347692
 20
3.607535257876563
 30
0.0
 10
18.43823719395896
 20
3.542808616754039
 30
0.0
 10
18.66488680478496
 20
3.452980385819381
 30
0.0
 10
18.77430317058917
 20
3.427881782974437
 30
0.0
 10
18.8661981841445
 20
3.426686837597556
 30
0.0
  0
SPLINE
  5
112
330
1F
100
AcDbEntity
  8
외형선
  6
Continuous
 62
     1
370
    15
100
AcDbSpline
210
0.0
220
0.0
230
1.0
 70
     8
 71
     3
 72
     8
 73
     4
 74
     0
 42
0.000000001
 43
0.00000001
 40
0.0
 40
0.0
 40
0.0
 40
0.0
 40
1.0
 40
1.0
 40
1.0
 40
1.0
 10
18.06478067948564
 20
3.789497227483805
 30
0.0
 10
18.12033185552069
 20
3.767584168548496
 30
0.0
 10
18.17675763360914
 20
3.734145710085612
 30
0.0
 10
18.22469211101285
 20
3.692476073661015
 30
0.0
  0
SPLINE
  5
113
330
1F
100
AcDbEntity
  8
외형선
  6
Continuous
 62
     1
370
    15
100
AcDbSpline
210
0.0
220
0.0
230
1.0
 70
     8
 71
     3
 72
     8
 73
     4
 74
     0
 42
0.000000001
 43
0.00000001
 40
0.0
 40
0.0
 40
0.0
 40
0.0
 40
1.0
 40
1.0
 40
1.0
 40
1.0
 10
16.78682285047106
 20
4.210669624582329
 30
0.0
 10
16.8338203785129
 20
4.22187298506419
 30
0.0
 10
16.89018181850058
 20
4.216789345072081
 30
0.0
 10
16.94794566775575
 20
4.197390351286471
 30
0.0
  0
SPLINE
  5
114
330
1F
100
AcDbEntity
  8
외형선
  6
Continuous
 62
     1
370
    15
100
AcDbSpline
210
0.0
220
0.0
230
1.0
 70
     8
 71
     3
 72
    10
 73
     6
 74
     0
 42
0.000000001
 43
0.00000001
 40
0.0
 40
0.0
 40
0.0
 40
0.0
 40
0.5000000000000002
 40
0.5000000000000002
 40
1.0
 40
1.0
 40
1.0
 40
1.0
 10
16.14430502973439
 20
4.404959427124155
 30
0.0
 10
16.24217017943762
 20
4.317859616687142
 30
0.0
 10
16.35816722129521
 20
4.259453283977691
 30
0.0
 10
16.58516242790646
 20
4.194987081920137
 30
0.0
 10
16.69479739809711
 20
4.188732421511682
 30
0.0
 10
16.78682285047076
 20
4.210669624582138
 30
0.0
  0
SPLINE
  5
115
330
1F
100
AcDbEntity
  8
외형선
  6
Continuous
 62
     1
370
    15
100
AcDbSpline
210
0.0
220
0.0
230
1.0
 70
     8
 71
     3
 72
     8
 73
     4
 74
     0
 42
0.000000001
 43
0.00000001
 40
0.0
 40
0.0
 40
0.0
 40
0.0
 40
1.0
 40
1.0
 40
1.0
 40
1.0
 10
15.98417544186334
 20
4.492866268237885
 30
0.0
 10
16.03979292094447
 20
4.477460827409329
 30
0.0
 10
16.0962937819458
 20
4.447689352883151
 30
0.0
 10
16.14430502973373
 20
4.40495942712474
 30
0.0
  0
SPLINE
  5
116
330
1F
100
AcDbEntity
  8
외형선
  6
Continuous
 62
     1
370
    15
100
AcDbSpline
210
0.0
220
0.0
230
1.0
 70
     8
 71
     3
 72
     8
 73
     4
 74
     0
 42
0.000000001
 43
0.00000001
 40
0.0
 40
0.0
 40
0.0
 40
0.0
 40
1.0
 40
1.0
 40
1.0
 40
1.0
 10
15.98417545333959
 20
4.492866265057794
 30
0.0
 10
15.61020300690043
 20
4.596452592677599
 30
0.0
 10
15.2380806118696
 20
4.687036196406646
 30
0.0
 10
14.86647624891157
 20
4.763977936098803
 30
0.0
  0
SPLINE
  5
117
330
1F
100
AcDbEntity
  8
외형선
  6
Continuous
 62
     1
370
    15
100
AcDbSpline
210
0.0
220
0.0
230
1.0
 70
     8
 71
     3
 72
     8
 73
     4
 74
     0
 42
0.000000001
 43
0.00000001
 40
0.0
 40
0.0
 40
0.0
 40
0.0
 40
1.0
 40
1.0
 40
1.0
 40
1.0
 10
14.70538116489609
 20
4.74866848920949
 30
0.0
 10
14.75236344873016
 20
4.771047686119575
 30
0.0
 10
14.80873496928446
 20
4.775933431466725
 30
0.0
 10
14.86647606613628
 20
4.763977973942951
 30
0.0
  0
SPLINE
  5
118
330
1F
100
AcDbEntity
  8
외형선
  6
Continuous
 62
     1
370
    15
100
AcDbSpline
210
0.0
220
0.0
230
1.0
 70
     8
 71
     3
 72
    10
 73
     6
 74
     0
 42
0.000000001
 43
0.00000001
 40
0.0
 40
0.0
 40
0.0
 40
0.0
 40
0.5
 40
0.5
 40
1.0
 40
1.0
 40
1.0
 40
1.0
 10
14.06326982488245
 20
4.8589471257023
 30
0.0
 10
14.16103004208934
 20
4.775272802772264
 30
0.0
 10
14.27694012128307
 20
4.726872458623761
 30
0.0
 10
14.5038166020387
 20
4.691880692706945
 30
0.0
 10
14.61340154878276
 20
4.704855592671608
 30
0.0
 10
14.70538116489579
 20
4.748668489209268
 30
0.0
  0
SPLINE
  5
119
330
1F
100
AcDbEntity
  8
외형선
  6
Continuous
 62
     1
370
    15
100
AcDbSpline
210
0.0
220
0.0
230
1.0
 70
     8
 71
     3
 72
     8
 73
     4
 74
     0
 42
0.000000001
 43
0.00000001
 40
0.0
 40
0.0
 40
0.0
 40
0.0
 40
1.0
 40
1.0
 40
1.0
 40
1.0
 10
13.90329763052278
 20
4.932114529741609
 30
0.0
 10
13.95886214315491
 20
4.924213064468431
 30
0.0
 10
14.01531053881409
 20
4.899996142414916
 30
0.0
 10
14.06326982488179
 20
4.858947125702858
 30
0.0
  0
SPLINE
  5
11A
330
1F
100
AcDbEntity
  8
외형선
  6
Continuous
 62
     1
370
    15
100
AcDbSpline
210
0.0
220
0.0
230
1.0
 70
     8
 71
     3
 72
     8
 73
     4
 74
     0
 42
0.000000001
 43
0.00000001
 40
0.0
 40
0.0
 40
0.0
 40
0.0
 40
1.0
 40
1.0
 40
1.0
 40
1.0
 10
13.90329766675545
 20
4.932114524588919
 30
0.0
 10
13.52970028904757
 20
4.985241360702515
 30
0.0
 10
13.15986010030983
 20
5.024073652185312
 30
0.0
 10
12.78725249150947
 20
5.048519597340603
 30
0.0
  0
SPLINE
  5
11B
330
1F
100
AcDbEntity
  8
외형선
  6
Continuous
 62
     1
370
    15
100
AcDbSpline
210
0.0
220
0.0
230
1.0
 70
     8
 71
     3
 72
     8
 73
     4
 74
     0
 42
0.000000001
 43
0.00000001
 40
0.0
 40
0.0
 40
0.0
 40
0.0
 40
1.0
 40
1.0
 40
1.0
 40
1.0
 10
12.62631351436832
 20
5.005733383538335
 30
0.0
 10
12.67323631088744
 20
5.0378106255638
 30
0.0
 10
12.72955354945045
 20
5.052305088835828
 30
0.0
 10
12.78725100475687
 20
5.048519694883017
 30
0.0
  0
SPLINE
  5
11C
330
1F
100
AcDbEntity
  8
외형선
  6
Continuous
 62
     1
370
    15
100
AcDbSpline
210
0.0
220
0.0
230
1.0
 70
     8
 71
     3
 72
    10
 73
     6
 74
     0
 42
0.000000001
 43
0.00000001
 40
0.0
 40
0.0
 40
0.0
 40
0.0
 40
0.3445294752619995
 40
0.7711618750272164
 40
1.0
 40
1.0
 40
1.0
 40
1.0
 10
12.16906940174413
 20
4.936144523306435
 30
0.0
 10
12.22455600964983
 20
4.925155521174768
 30
0.0
 10
12.34875193384157
 20
4.900558788247665
 30
0.0
 10
12.50734093633203
 20
4.935712140553952
 30
0.0
 10
12.59552623021126
 20
4.987613544997576
 30
0.0
 10
12.62631351436803
 20
5.005733383538111
 30
0.0
  0
SPLINE
  5
11D
330
1F
100
AcDbEntity
  8
외형선
  6
Continuous
 62
     1
370
    15
100
AcDbSpline
210
0.0
220
0.0
230
1.0
 70
     8
 71
     3
 72
    10
 73
     6
 74
     0
 42
0.000000001
 43
0.00000001
 40
0.0
 40
0.0
 40
0.0
 40
0.0
 40
0.3742128458706203
 40
0.7468321276013405
 40
1.0
 40
1.0
 40
1.0
 40
1.0
 10
18.38952308267849
 20
4.063092528813652
 30
0.0
 10
18.33410659413108
 20
4.02104565637177
 30
0.0
 10
18.22350960500376
 20
3.937130965705032
 30
0.0
 10
18.05500072426185
 20
3.865090524810187
 30
0.0
 10
17.9592164443601
 20
3.850117484528325
 30
0.0
 10
17.92046604465638
 20
3.844060005197718
 30
0.0
  0
SPLINE
  5
11E
330
1F
100
AcDbEntity
  8
외형선
  6
Continuous
 62
     1
370
    15
100
AcDbSpline
210
0.0
220
0.0
230
1.0
 70
     8
 71
     3
 72
     8
 73
     4
 74
     0
 42
0.000000001
 43
0.00000001
 40
0.0
 40
0.0
 40
0.0
 40
0.0
 40
1.0
 40
1.0
 40
1.0
 40
1.0
 10
18.5496266124814
 20
4.156674694404453
 30
0.0
 10
18.49403589385125
 20
4.137651530400868
 30
0.0
 10
18.43754234129674
 20
4.105663347315332
 30
0.0
 10
18.38952308267874
 20
4.063092528813876
 30
0.0
  0
SPLINE
  5
11F
330
1F
100
AcDbEntity
  8
외형선
  6
Continuous
 62
     1
370
    15
100
AcDbSpline
210
0.0
220
0.0
230
1.0
 70
     8
 71
     3
 72
     8
 73
     4
 74
     0
 42
0.000000001
 43
0.00000001
 40
0.0
 40
0.0
 40
0.0
 40
0.0
 40
1.0
 40
1.0
 40
1.0
 40
1.0
 10
19.66646394862021
 20
4.501964942070865
 30
0.0
 10
19.29273684759039
 20
4.399200899904613
 30
0.0
 10
18.92110128614126
 20
4.283793461969798
 30
0.0
 10
18.54962661236465
 20
4.156674694364501
 30
0.0
  0
SPLINE
  5
120
330
1F
100
AcDbEntity
  8
외형선
  6
Continuous
 62
     1
370
    15
100
AcDbSpline
210
0.0
220
0.0
230
1.0
 70
     8
 71
     3
 72
     8
 73
     4
 74
     0
 42
0.000000001
 43
0.00000001
 40
0.0
 40
0.0
 40
0.0
 40
0.0
 40
1.0
 40
1.0
 40
1.0
 40
1.0
 10
19.8273240857799
 20
4.501278909233929
 30
0.0
 10
19.78044067081851
 20
4.518025163670067
 30
0.0
 10
19.7241487617464
 20
4.517826578453933
 30
0.0
 10
19.66646484671483
 20
4.501965189020646
 30
0.0
  0
SPLINE
  5
121
330
1F
100
AcDbEntity
  8
외형선
  6
Continuous
 62
     1
370
    15
100
AcDbSpline
210
0.0
220
0.0
230
1.0
 70
     8
 71
     3
 72
    10
 73
     6
 74
     0
 42
0.000000001
 43
0.00000001
 40
0.0
 40
0.0
 40
0.0
 40
0.0
 40
0.5
 40
0.5
 40
1.0
 40
1.0
 40
1.0
 40
1.0
 10
20.46880129151619
 20
4.656447428531501
 30
0.0
 10
20.37117926409413
 20
4.570341221103797
 30
0.0
 10
20.25544680183862
 20
4.516220659162704
 30
0.0
 10
20.02880652184923
 20
4.465412614365495
 30
0.0
 10
19.91924128568822
 20
4.468447068421042
 30
0.0
 10
19.82732408578067
 20
4.501278909233393
 30
0.0
  0
SPLINE
  5
122
330
1F
100
AcDbEntity
  8
외형선
  6
Continuous
 62
     1
370
    15
100
AcDbSpline
210
0.0
220
0.0
230
1.0
 70
     8
 71
     3
 72
     8
 73
     4
 74
     0
 42
0.000000001
 43
0.00000001
 40
0.0
 40
0.0
 40
0.0
 40
0.0
 40
1.0
 40
1.0
 40
1.0
 40
1.0
 10
20.62878026807967
 20
4.738121796194525
 30
0.0
 10
20.57322316293914
 20
4.726155349676406
 30
0.0
 10
20.51678412786841
 20
4.698770049450277
 30
0.0
 10
20.46880129151644
 20
4.656447428531719
 30
0.0
  0
SPLINE
  5
123
330
1F
100
AcDbEntity
  8
외형선
  6
Continuous
 62
     1
370
    15
100
AcDbSpline
210
0.0
220
0.0
230
1.0
 70
     8
 71
     3
 72
     8
 73
     4
 74
     0
 42
0.000000001
 43
0.00000001
 40
0.0
 40
0.0
 40
0.0
 40
0.0
 40
1.0
 40
1.0
 40
1.0
 40
1.0
 10
21.74612807374071
 20
4.936596323102751
 30
0.0
 10
21.37304738698607
 20
4.884338739437991
 30
0.0
 10
20.99889535078773
 20
4.81784091132236
 30
0.0
 10
20.62877961400142
 20
4.738121655312586
 30
0.0
  0
SPLINE
  5
124
330
1F
100
AcDbEntity
  8
외형선
  6
Continuous
 62
     1
370
    15
100
AcDbSpline
210
0.0
220
0.0
230
1.0
 70
     8
 71
     3
 72
     8
 73
     4
 74
     0
 42
0.000000001
 43
0.00000001
 40
0.0
 40
0.0
 40
0.0
 40
0.0
 40
1.0
 40
1.0
 40
1.0
 40
1.0
 10
21.90692765841691
 20
4.907842973022207
 30
0.0
 10
21.85995428005332
 20
4.935070129692671
 30
0.0
 10
21.8035845502479
 20
4.944645472262827
 30
0.0
 10
21.74581956600223
 20
4.936553107084669
 30
0.0
  0
SPLINE
  5
125
330
1F
100
AcDbEntity
  8
외형선
  6
Continuous
 62
     1
370
    15
100
AcDbSpline
210
0.0
220
0.0
230
1.0
 70
     8
 71
     3
 72
    10
 73
     6
 74
     0
 42
0.000000001
 43
0.00000001
 40
0.0
 40
0.0
 40
0.0
 40
0.0
 40
0.5
 40
0.5
 40
1.0
 40
1.0
 40
1.0
 40
1.0
 10
22.54952397971563
 20
4.97560080920818
 30
0.0
 10
22.45167659200631
 20
4.895401605898317
 30
0.0
 10
22.33579454480327
 20
4.852858578278007
 30
0.0
 10
22.10881700715033
 20
4.832621779859601
 30
0.0
 10
21.99906186927399
 20
4.854439264769549
 30
0.0
 10
21.90692765841769
 20
4.907842973021614
 30
0.0
  0
SPLINE
  5
126
330
1F
100
AcDbEntity
  8
외형선
  6
Continuous
 62
     1
370
    15
100
AcDbSpline
210
0.0
220
0.0
230
1.0
 70
     8
 71
     3
 72
    14
 73
    10
 74
     0
 42
0.000000001
 43
0.00000001
 40
0.0
 40
0.0
 40
0.0
 40
0.0
 40
0.2499999999999999
 40
0.2499999999999999
 40
0.4999999999999999
 40
0.4999999999999999
 40
0.7499999999999998
 40
0.7499999999999998
 40
1.0
 40
1.0
 40
1.0
 40
1.0
 10
18.44005166552662
 20
0.8862629523731957
 30
0.0
 10
18.42278020605496
 20
1.147077334968231
 30
0.0
 10
18.40533619946895
 20
1.406131899893457
 30
0.0
 10
18.36916568412631
 20
1.917442058054547
 30
0.0
 10
18.35069670297355
 20
2.168375183999481
 30
0.0
 10
18.31378625705742
 20
2.649593961569426
 30
0.0
 10
18.2953486880387
 20
2.879829146032848
 30
0.0
 10
18.25929936925423
 20
3.310148947109571
 30
0.0
 10
18.24206211281033
 20
3.508933339231228
 30
0.0
 10
18.22469208096525
 20
3.692476391169909
 30
0.0
  0
SPLINE
  5
127
330
1F
100
AcDbEntity
  8
외형선
  6
Continuous
 62
     1
370
    15
100
AcDbSpline
210
0.0
220
0.0
230
1.0
 70
     8
 71
     3
 72
    12
 73
     8
 74
     0
 42
0.000000001
 43
0.00000001
 40
0.0
 40
0.0
 40
0.0
 40
0.0
 40
0.5000000000000001
 40
0.5000000000000001
 40
0.75
 40
0.75
 40
1.0
 40
1.0
 40
1.0
 40
1.0
 10
17.0028151009033
 20
1.687393431655334
 30
0.0
 10
16.96663410107768
 20
2.197506355768393
 30
0.0
 10
16.92897298914601
 20
2.687123313633756
 30
0.0
 10
16.87503588787781
 20
3.329085609117319
 30
0.0
 10
16.85788703641632
 20
3.526511393763846
 30
0.0
 10
16.82310960271545
 20
3.89154660726489
 30
0.0
 10
16.80509583578211
 20
4.060230811017178
 30
0.0
 10
16.78682285047159
 20
4.210669624575308
 30
0.0
  0
SPLINE
  5
128
330
1F
100
AcDbEntity
  8
외형선
  6
Continuous
 62
     1
370
    15
100
AcDbSpline
210
0.0
220
0.0
230
1.0
 70
     8
 71
     3
 72
     8
 73
     4
 74
     0
 42
0.000000001
 43
0.00000001
 40
0.0
 40
0.0
 40
0.0
 40
0.0
 40
1.0
 40
1.0
 40
1.0
 40
1.0
 10
10.65214429628817
 20
-3.760136857260789
 30
0.0
 10
10.43480969691833
 20
-3.695388042843951
 30
0.0
 10
10.21708989262222
 20
-3.626363307556603
 30
0.0
 10
9.999999999998757
 20
-3.553389146995733
 30
0.0
  0
SPLINE
  5
129
330
1F
100
AcDbEntity
  8
외형선
  6
Continuous
 62
     1
370
    15
100
AcDbSpline
210
0.0
220
0.0
230
1.0
 70
     8
 71
     3
 72
    12
 73
     8
 74
     0
 42
0.000000001
 43
0.00000001
 40
0.0
 40
0.0
 40
0.0
 40
0.0
 40
0.5000000000000003
 40
0.5000000000000003
 40
0.7500000000000001
 40
0.7500000000000001
 40
1.0
 40
1.0
 40
1.0
 40
1.0
 10
10.65214370406529
 20
-3.760137272013852
 30
0.0
 10
10.61680883147378
 20
-3.484419181995777
 30
0.0
 10
10.57940757090049
 20
-3.124523406897138
 30
0.0
 10
10.52488436939906
 20
-2.500755580459341
 30
0.0
 10
10.50698028006517
 20
-2.279283926084503
 30
0.0
 10
10.47243076048332
 20
-1.819772911608392
 30
0.0
 10
10.45529263370655
 20
-1.579714659171216
 30
0.0
 10
10.43737202892144
 20
-1.328231264752556
 30
0.0
  0
SPLINE
  5
12A
330
1F
100
AcDbEntity
  8
외형선
  6
Continuous
 62
     1
370
    15
100
AcDbSpline
210
0.0
220
0.0
230
1.0
 70
     8
 71
     3
 72
    12
 73
     8
 74
     0
 42
0.000000001
 43
0.00000001
 40
0.0
 40
0.0
 40
0.0
 40
0.0
 40
0.5000000000000001
 40
0.5000000000000001
 40
0.75
 40
0.75
 40
1.0
 40
1.0
 40
1.0
 40
1.0
 10
16.36037751934743
 20
2.034348074300609
 30
0.0
 10
16.32370135172862
 20
2.532916276539966
 30
0.0
 10
16.28629380271515
 20
3.000136223801005
 30
0.0
 10
16.233760494407
 20
3.598199311199525
 30
0.0
 10
16.21680924212743
 20
3.781214437543168
 30
0.0
 10
16.18105859645545
 20
4.118989277869345
 30
0.0
 10
16.16271947155134
 20
4.271885582310982
 30
0.0
 10
16.14430506900414
 20
4.404959143337314
 30
0.0
  0
SPLINE
  5
12B
330
1F
100
AcDbEntity
  8
외형선
  6
Continuous
 62
     1
370
    15
100
AcDbSpline
210
0.0
220
0.0
230
1.0
 70
     8
 71
     3
 72
     8
 73
     4
 74
     0
 42
0.000000001
 43
0.00000001
 40
0.0
 40
0.0
 40
0.0
 40
0.0
 40
1.0
 40
1.0
 40
1.0
 40
1.0
 10
10.81308962867304
 20
-3.764650076849308
 30
0.0
 10
10.76617615345146
 20
-3.779340829189404
 30
0.0
 10
10.70985802988358
 20
-3.777331065317148
 30
0.0
 10
10.6521436252934
 20
-3.760136657356504
 30
0.0
  0
SPLINE
  5
12C
330
1F
100
AcDbEntity
  8
외형선
  6
Continuous
 62
     1
370
    15
100
AcDbSpline
210
0.0
220
0.0
230
1.0
 70
     8
 71
     3
 72
    12
 73
     8
 74
     0
 42
0.000000001
 43
0.00000001
 40
0.0
 40
0.0
 40
0.0
 40
0.0
 40
0.5000000000000002
 40
0.5000000000000002
 40
0.7500000000000001
 40
0.7500000000000001
 40
1.0
 40
1.0
 40
1.0
 40
1.0
 10
10.81308962866987
 20
-3.764650076825625
 30
0.0
 10
10.77785180432696
 20
-3.500951264606611
 30
0.0
 10
10.74034426191499
 20
-3.152305649169757
 30
0.0
 10
10.68539181156224
 20
-2.54206333299711
 30
0.0
 10
10.667301604751
 20
-2.32455838883552
 30
0.0
 10
10.63231785525663
 20
-1.871785790848366
 30
0.0
 10
10.61531291229762
 20
-1.636262553354237
 30
0.0
 10
10.59739772285495
 20
-1.388508420302385
 30
0.0
  0
SPLINE
  5
12D
330
1F
100
AcDbEntity
  8
외형선
  6
Continuous
 62
     1
370
    15
100
AcDbSpline
210
0.0
220
0.0
230
1.0
 70
     8
 71
     3
 72
    12
 73
     8
 74
     0
 42
0.000000001
 43
0.00000001
 40
0.0
 40
0.0
 40
0.0
 40
0.0
 40
0.25
 40
0.25
 40
0.5
 40
0.5
 40
1.0
 40
1.0
 40
1.0
 40
1.0
 10
15.08153377799561
 20
2.723399275604458
 30
0.0
 10
15.06326395566766
 20
2.956093353364026
 30
0.0
 10
15.04517503550906
 20
3.176345719979104
 30
0.0
 10
15.01010244432209
 20
3.58372688833637
 30
0.0
 10
14.993311588092
 20
3.770498963781742
 30
0.0
 10
14.94017697699657
 20
4.289470166013186
 30
0.0
 10
14.90276136720736
 20
4.571430757799588
 30
0.0
 10
14.86647608343439
 20
4.763977882150927
 30
0.0
  0
SPLINE
  5
12E
330
1F
100
AcDbEntity
  8
외형선
  6
Continuous
 62
     1
370
    15
100
AcDbSpline
210
0.0
220
0.0
230
1.0
 70
     8
 71
     3
 72
    12
 73
     8
 74
     0
 42
0.000000001
 43
0.00000001
 40
0.0
 40
0.0
 40
0.0
 40
0.0
 40
0.5000000000000002
 40
0.5000000000000002
 40
0.7500000000000001
 40
0.7500000000000001
 40
1.0
 40
1.0
 40
1.0
 40
1.0
 10
16.19925436586196
 20
2.146528778879067
 30
0.0
 10
16.16266613037468
 20
2.644553168546152
 30
0.0
 10
16.1255560971013
 20
3.108326515520333
 30
0.0
 10
16.07367360615906
 20
3.698788136106909
 30
0.0
 10
16.05660189483012
 20
3.880197458707226
 30
0.0
 10
16.02082408357405
 20
4.213133364650385
 30
0.0
 10
16.00251590091938
 20
4.363089726348807
 30
0.0
 10
15.98417542855163
 20
4.49286636241566
 30
0.0
  0
SPLINE
  5
12F
330
1F
100
AcDbEntity
  8
외형선
  6
Continuous
 62
     1
370
    15
100
AcDbSpline
210
0.0
220
0.0
230
1.0
 70
     8
 71
     3
 72
    10
 73
     6
 74
     0
 42
0.000000001
 43
0.00000001
 40
0.0
 40
0.0
 40
0.0
 40
0.0
 40
0.5
 40
0.5
 40
1.0
 40
1.0
 40
1.0
 40
1.0
 10
11.45466860460681
 20
-3.935093776103182
 30
0.0
 10
11.35700312495788
 20
-3.848415564941777
 30
0.0
 10
11.24129283477984
 20
-3.792493466010271
 30
0.0
 10
11.01462996580374
 20
-3.736342313233764
 30
0.0
 10
10.90505547480459
 20
-3.73585136895388
 30
0.0
 10
10.81308962867304
 20
-3.764650076849313
 30
0.0
  0
SPLINE
  5
130
330
1F
100
AcDbEntity
  8
외형선
  6
Continuous
 62
     1
370
    15
100
AcDbSpline
210
0.0
220
0.0
230
1.0
 70
     8
 71
     3
 72
    12
 73
     8
 74
     0
 42
0.000000001
 43
0.00000001
 40
0.0
 40
0.0
 40
0.0
 40
0.0
 40
0.5000000000000002
 40
0.5000000000000002
 40
0.7500000000000002
 40
0.7500000000000002
 40
1.0
 40
1.0
 40
1.0
 40
1.0
 10
11.45466860460676
 20
-3.935093776102872
 30
0.0
 10
11.42026396365631
 20
-3.709508969567299
 30
0.0
 10
11.38356041469025
 20
-3.397900194644939
 30
0.0
 10
11.32819745088067
 20
-2.829127940635866
 30
0.0
 10
11.30978276073319
 20
-2.62329613097457
 30
0.0
 10
11.27381988836902
 20
-2.188796421911842
 30
0.0
 10
11.25669916515931
 20
-1.962129240788277
 30
0.0
 10
11.23926038203522
 20
-1.724591088252784
 30
0.0
  0
SPLINE
  5
131
330
1F
100
AcDbEntity
  8
외형선
  6
Continuous
 62
     1
370
    15
100
AcDbSpline
210
0.0
220
0.0
230
1.0
 70
     8
 71
     3
 72
     8
 73
     4
 74
     0
 42
0.000000001
 43
0.00000001
 40
0.0
 40
0.0
 40
0.0
 40
0.0
 40
1.0
 40
1.0
 40
1.0
 40
1.0
 10
12.73116479208149
 20
-4.245150672498808
 30
0.0
 10
12.35943534641591
 20
-4.183563987926817
 30
0.0
 10
11.98553487648307
 20
-4.107910705287654
 30
0.0
 10
11.61456263130359
 20
-4.019250193738292
 30
0.0
  0
SPLINE
  5
132
330
1F
100
AcDbEntity
  8
외형선
  6
Continuous
 62
     1
370
    15
100
AcDbSpline
210
0.0
220
0.0
230
1.0
 70
     8
 71
     3
 72
    14
 73
    10
 74
     0
 42
0.000000001
 43
0.00000001
 40
0.0
 40
0.0
 40
0.0
 40
0.0
 40
0.2500000000000002
 40
0.2500000000000002
 40
0.5000000000000001
 40
0.5000000000000001
 40
0.75
 40
0.75
 40
1.0
 40
1.0
 40
1.0
 40
1.0
 10
11.61456210134255
 20
-4.01925067945744
 30
0.0
 10
11.59729984329061
 20
-3.909711679394504
 30
0.0
 10
11.58008684004454
 20
-3.780296098255277
 30
0.0
 10
11.54417135152697
 20
-3.479976475753406
 30
0.0
 10
11.52581136344603
 20
-3.309769240039904
 30
0.0
 10
11.48906770194721
 20
-2.935753170427545
 30
0.0
 10
11.47068783769007
 20
-2.731982775048235
 30
0.0
 10
11.43469563683393
 20
-2.300280290730053
 30
0.0
 10
11.41734801580983
 20
-2.073589972960336
 30
0.0
 10
11.40014870773158
 20
-1.837665630872066
 30
0.0
  0
SPLINE
  5
133
330
1F
100
AcDbEntity
  8
외형선
  6
Continuous
 62
     1
370
    15
100
AcDbSpline
210
0.0
220
0.0
230
1.0
 70
     8
 71
     3
 72
    10
 73
     6
 74
     0
 42
0.000000001
 43
0.00000001
 40
0.0
 40
0.0
 40
0.0
 40
0.0
 40
0.5
 40
0.5
 40
1.0
 40
1.0
 40
1.0
 40
1.0
 10
12.73116465826695
 20
-4.245150697601644
 30
0.0
 10
12.69508952516435
 20
-4.09096507154475
 30
0.0
 10
12.6617188742231
 20
-3.855692622576048
 30
0.0
 10
12.58940373938792
 20
-3.225212151240933
 30
0.0
 10
12.55194078329971
 20
-2.83059935965461
 30
0.0
 10
12.51630757103574
 20
-2.390558363895237
 30
0.0
  0
SPLINE
  5
134
330
1F
100
AcDbEntity
  8
외형선
  6
Continuous
 62
     1
370
    15
100
AcDbSpline
210
0.0
220
0.0
230
1.0
 70
     8
 71
     3
 72
     8
 73
     4
 74
     0
 42
0.000000001
 43
0.00000001
 40
0.0
 40
0.0
 40
0.0
 40
0.0
 40
1.0
 40
1.0
 40
1.0
 40
1.0
 10
11.6145620010611
 20
-4.019250043113424
 30
0.0
 10
11.55901701637509
 20
-4.00597506721255
 30
0.0
 10
11.50260251094567
 20
-3.977635166063648
 30
0.0
 10
11.45466860460717
 20
-3.935093776103502
 30
0.0
  0
SPLINE
  5
135
330
1F
100
AcDbEntity
  8
외형선
  6
Continuous
 62
     1
370
    15
100
AcDbSpline
210
0.0
220
0.0
230
1.0
 70
     8
 71
     3
 72
    12
 73
     8
 74
     0
 42
0.000000001
 43
0.00000001
 40
0.0
 40
0.0
 40
0.0
 40
0.0
 40
0.2500000000000001
 40
0.2500000000000001
 40
0.5000000000000002
 40
0.5000000000000002
 40
1.0
 40
1.0
 40
1.0
 40
1.0
 10
14.92138794661891
 20
2.769175879849595
 30
0.0
 10
14.90307656029653
 20
2.997670495305255
 30
0.0
 10
14.88499005019393
 20
3.213242962759641
 30
0.0
 10
14.85000852469148
 20
3.610608586748813
 30
0.0
 10
14.83302078241378
 20
3.793104551116051
 30
0.0
 10
14.77931755585155
 20
4.297798010644209
 30
0.0
 10
14.74167892982579
 20
4.568204771823388
 30
0.0
 10
14.70538116490109
 20
4.748668489182911
 30
0.0
  0
SPLINE
  5
136
330
1F
100
AcDbEntity
  8
외형선
  6
Continuous
 62
     1
370
    15
100
AcDbSpline
210
0.0
220
0.0
230
1.0
 70
     8
 71
     3
 72
    12
 73
     8
 74
     0
 42
0.000000001
 43
0.00000001
 40
0.0
 40
0.0
 40
0.0
 40
0.0
 40
0.2499999999999999
 40
0.2499999999999999
 40
0.4999999999999999
 40
0.4999999999999999
 40
1.0
 40
1.0
 40
1.0
 40
1.0
 10
14.27904032865274
 20
3.074471203853761
 30
0.0
 10
14.2610074313873
 20
3.290368230245025
 30
0.0
 10
14.24370478601219
 20
3.490187188087711
 30
0.0
 10
14.20908125109337
 20
3.858689223106025
 30
0.0
 10
14.19112344102191
 20
4.029415983021419
 30
0.0
 10
14.13639778382059
 20
4.487579170509034
 30
0.0
 10
14.09880560750945
 20
4.718999579298485
 30
0.0
 10
14.06326983683204
 20
4.858947078642233
 30
0.0
  0
SPLINE
  5
137
330
1F
100
AcDbEntity
  8
외형선
  6
Continuous
 62
     1
370
    15
100
AcDbSpline
210
0.0
220
0.0
230
1.0
 70
     8
 71
     3
 72
     8
 73
     4
 74
     0
 42
0.000000001
 43
0.00000001
 40
0.0
 40
0.0
 40
0.0
 40
0.0
 40
1.0
 40
1.0
 40
1.0
 40
1.0
 10
12.89224469402758
 20
-4.221485434840501
 30
0.0
 10
12.84528069709465
 20
-4.246905151437763
 30
0.0
 10
12.78892318386001
 20
-4.254719858105954
 30
0.0
 10
12.73116464676082
 20
-4.245150648422648
 30
0.0
  0
SPLINE
  5
138
330
1F
100
AcDbEntity
  8
외형선
  6
Continuous
 62
     1
370
    15
100
AcDbSpline
210
0.0
220
0.0
230
1.0
 70
     8
 71
     3
 72
    12
 73
     8
 74
     0
 42
0.000000001
 43
0.00000001
 40
0.0
 40
0.0
 40
0.0
 40
0.0
 40
0.2499999999999999
 40
0.2499999999999999
 40
0.4999999999999998
 40
0.4999999999999998
 40
1.0
 40
1.0
 40
1.0
 40
1.0
 10
12.89224469402713
 20
-4.221485434838756
 30
0.0
 10
12.87404422833682
 20
-4.150192762950208
 30
0.0
 10
12.85615356711906
 20
-4.05726079233387
 30
0.0
 10
12.82170665233966
 20
-3.834288551220796
 30
0.0
 10
12.80421660569846
 20
-3.702416201767238
 30
0.0
 10
12.74997559550308
 20
-3.246124809283085
 30
0.0
 10
12.71231441195324
 20
-2.861438240928476
 30
0.0
 10
12.67633592583489
 20
-2.42909147036107
 30
0.0
  0
SPLINE
  5
139
330
1F
100
AcDbEntity
  8
외형선
  6
Continuous
 62
     1
370
    15
100
AcDbSpline
210
0.0
220
0.0
230
1.0
 70
     8
 71
     3
 72
    12
 73
     8
 74
     0
 42
0.000000001
 43
0.00000001
 40
0.0
 40
0.0
 40
0.0
 40
0.0
 40
0.25
 40
0.25
 40
0.5
 40
0.5
 40
1.0
 40
1.0
 40
1.0
 40
1.0
 10
14.11802171189757
 20
3.186046478334536
 30
0.0
 10
14.10017264531755
 20
3.399665600493511
 30
0.0
 10
14.08320970465508
 20
3.596337456616737
 30
0.0
 10
14.04844561104163
 20
3.960755922620232
 30
0.0
 10
14.0304627518842
 20
4.128817952627855
 30
0.0
 10
13.97580488228339
 20
4.577531026380511
 30
0.0
 10
13.93845446380263
 20
4.800701163459627
 30
0.0
 10
13.9032976592405
 20
4.932114422389955
 30
0.0
  0
SPLINE
  5
13A
330
1F
100
AcDbEntity
  8
외형선
  6
Continuous
 62
     1
370
    15
100
AcDbSpline
210
0.0
220
0.0
230
1.0
 70
     8
 71
     3
 72
    12
 73
     8
 74
     0
 42
0.000000001
 43
0.00000001
 40
0.0
 40
0.0
 40
0.0
 40
0.0
 40
0.5000000000000002
 40
0.5000000000000002
 40
0.7500000000000001
 40
0.7500000000000001
 40
1.0
 40
1.0
 40
1.0
 40
1.0
 10
13.00176735679894
 20
3.672851635676268
 30
0.0
 10
12.96746044586436
 20
4.047858765397734
 30
0.0
 10
12.93045216778781
 20
4.368707540373164
 30
0.0
 10
12.87541140846527
 20
4.721721521700279
 30
0.0
 10
12.85715668969047
 20
4.8183405717329
 30
0.0
 10
12.82159780498362
 20
4.966677603809165
 30
0.0
 10
12.80474682227916
 20
5.018293053223773
 30
0.0
 10
12.78725119150112
 20
5.04851937225525
 30
0.0
  0
SPLINE
  5
13B
330
1F
100
AcDbEntity
  8
외형선
  6
Continuous
 62
     1
370
    15
100
AcDbSpline
210
0.0
220
0.0
230
1.0
 70
     8
 71
     3
 72
    10
 73
     6
 74
     0
 42
0.000000001
 43
0.00000001
 40
0.0
 40
0.0
 40
0.0
 40
0.0
 40
0.5
 40
0.5
 40
1.0
 40
1.0
 40
1.0
 40
1.0
 10
13.53477407398358
 20
-4.305680157198725
 30
0.0
 10
13.43689062350196
 20
-4.223984472486197
 30
0.0
 10
13.32090877099814
 20
-4.17916383069208
 30
0.0
 10
13.0940225822956
 20
-4.153217260666352
 30
0.0
 10
12.98434754129351
 20
-4.171633879857991
 30
0.0
 10
12.89224469402758
 20
-4.221485434840507
 30
0.0
  0
SPLINE
  5
13C
330
1F
100
AcDbEntity
  8
외형선
  6
Continuous
 62
     1
370
    15
100
AcDbSpline
210
0.0
220
0.0
230
1.0
 70
     8
 71
     3
 72
    12
 73
     8
 74
     0
 42
0.000000001
 43
0.00000001
 40
0.0
 40
0.0
 40
0.0
 40
0.0
 40
0.2499999999999999
 40
0.2499999999999999
 40
0.4999999999999998
 40
0.4999999999999998
 40
1.0
 40
1.0
 40
1.0
 40
1.0
 10
13.53477407398322
 20
-4.305680157197744
 30
0.0
 10
13.51638171377093
 20
-4.254512300980229
 30
0.0
 10
13.49811634164062
 20
-4.180849900674959
 30
0.0
 10
13.46260623685678
 20
-3.993204305812665
 30
0.0
 10
13.44576059113064
 20
-3.880470299814527
 30
0.0
 10
13.39278964761284
 20
-3.479641052101783
 30
0.0
 10
13.35527400284486
 20
-3.127888618852826
 30
0.0
 10
13.31870168777102
 20
-2.718892461729704
 30
0.0
  0
SPLINE
  5
13D
330
1F
100
AcDbEntity
  8
외형선
  6
Continuous
 62
     1
370
    15
100
AcDbSpline
210
0.0
220
0.0
230
1.0
 70
     8
 71
     3
 72
     8
 73
     4
 74
     0
 42
0.000000001
 43
0.00000001
 40
0.0
 40
0.0
 40
0.0
 40
0.0
 40
1.0
 40
1.0
 40
1.0
 40
1.0
 10
13.69491042743645
 20
-4.373570231111008
 30
0.0
 10
13.63928860130487
 20
-4.368009833530916
 30
0.0
 10
13.58278941260982
 20
-4.345754816872663
 30
0.0
 10
13.53477407398393
 20
-4.305680157199022
 30
0.0
  0
SPLINE
  5
13E
330
1F
100
AcDbEntity
  8
외형선
  6
Continuous
 62
     1
370
    15
100
AcDbSpline
210
0.0
220
0.0
230
1.0
 70
     8
 71
     3
 72
    12
 73
     8
 74
     0
 42
0.000000001
 43
0.00000001
 40
0.0
 40
0.0
 40
0.0
 40
0.0
 40
0.2500000000000002
 40
0.2500000000000002
 40
0.5000000000000003
 40
0.5000000000000003
 40
1.0
 40
1.0
 40
1.0
 40
1.0
 10
13.69491042946582
 20
-4.373570236289858
 30
0.0
 10
13.67658216128898
 20
-4.326797689815042
 30
0.0
 10
13.65833745651509
 20
-4.257346327618476
 30
0.0
 10
13.62278026555386
 20
-4.077363329148056
 30
0.0
 10
13.60592371202849
 20
-3.968107870234997
 30
0.0
 10
13.55358018944068
 20
-3.578869669699789
 30
0.0
 10
13.51633959713031
 20
-3.233946054282628
 30
0.0
 10
13.4798314555348
 20
-2.829250952492914
 30
0.0
  0
SPLINE
  5
13F
330
1F
100
AcDbEntity
  8
외형선
  6
Continuous
 62
     1
370
    15
100
AcDbSpline
210
0.0
220
0.0
230
1.0
 70
     8
 71
     3
 72
     8
 73
     4
 74
     0
 42
0.000000001
 43
0.00000001
 40
0.0
 40
0.0
 40
0.0
 40
0.0
 40
1.0
 40
1.0
 40
1.0
 40
1.0
 10
14.8125810758473
 20
-4.44203706635251
 30
0.0
 10
14.44154981357087
 20
-4.433705389376635
 30
0.0
 10
14.06728838522638
 20
-4.41079607641971
 30
0.0
 10
13.69491042744525
 20
-4.373570231111888
 30
0.0
  0
SPLINE
  5
140
330
1F
100
AcDbEntity
  8
외형선
  6
Continuous
 62
     1
370
    15
100
AcDbSpline
210
0.0
220
0.0
230
1.0
 70
     8
 71
     3
 72
    12
 73
     8
 74
     0
 42
0.000000001
 43
0.00000001
 40
0.0
 40
0.0
 40
0.0
 40
0.0
 40
0.5
 40
0.5
 40
0.75
 40
0.75
 40
1.0
 40
1.0
 40
1.0
 40
1.0
 10
14.81258105475242
 20
-4.442037056678179
 30
0.0
 10
14.77616807896023
 20
-4.421120552548133
 30
0.0
 10
14.73883415458106
 20
-4.306177479272414
 30
0.0
 10
14.68610432219063
 20
-4.011624476349295
 30
0.0
 10
14.66933598257577
 20
-3.894581677331182
 30
0.0
 10
14.63399880482999
 20
-3.618251556545668
 30
0.0
 10
14.61582278614707
 20
-3.459481635923335
 30
0.0
 10
14.59751710378919
 20
-3.282830345071397
 30
0.0
  0
SPLINE
  5
141
330
1F
100
AcDbEntity
  8
외형선
  6
Continuous
 62
     1
370
    15
100
AcDbSpline
210
0.0
220
0.0
230
1.0
 70
     8
 71
     3
 72
    12
 73
     8
 74
     0
 42
0.000000001
 43
0.00000001
 40
0.0
 40
0.0
 40
0.0
 40
0.0
 40
0.5
 40
0.5
 40
0.75
 40
0.75
 40
1.0
 40
1.0
 40
1.0
 40
1.0
 10
12.84186935933031
 20
3.694596107051547
 30
0.0
 10
12.8071344934698
 20
4.061314780622903
 30
0.0
 10
12.76981986445972
 20
4.371774917194017
 30
0.0
 10
12.71461515424019
 20
4.707804247610041
 30
0.0
 10
12.69635374736811
 20
4.798550312002325
 30
0.0
 10
12.66087709407466
 20
4.935174881104647
 30
0.0
 10
12.64402333189984
 20
4.981166329912503
 30
0.0
 10
12.62631351436827
 20
5.005733383537764
 30
0.0
  0
LINE
  5
142
330
1F
100
AcDbEntity
  8
외형선
  6
Continuous
 62
     1
370
    15
100
AcDbLine
 10
11.99477027724699
 20
5.010613047957154
 30
0.0
 11
11.98427033621499
 21
5.025493071164881
 31
0.0
  0
SPLINE
  5
143
330
1F
100
AcDbEntity
  8
외형선
  6
Continuous
 62
     1
370
    15
100
AcDbSpline
210
0.0
220
0.0
230
1.0
 70
     8
 71
     3
 72
     8
 73
     4
 74
     0
 42
0.000000001
 43
0.00000001
 40
0.0
 40
0.0
 40
0.0
 40
0.0
 40
1.0
 40
1.0
 40
1.0
 40
1.0
 10
14.97370249326763
 20
-4.391552556284426
 30
0.0
 10
14.92672368601448
 20
-4.426148757885868
 30
0.0
 10
14.87035425674071
 20
-4.443334389615037
 30
0.0
 10
14.81258107142158
 20
-4.442037066253129
 30
0.0
  0
SPLINE
  5
144
330
1F
100
AcDbEntity
  8
외형선
  6
Continuous
 62
     1
370
    15
100
AcDbSpline
210
0.0
220
0.0
230
1.0
 70
     8
 71
     3
 72
    12
 73
     8
 74
     0
 42
0.000000001
 43
0.00000001
 40
0.0
 40
0.0
 40
0.0
 40
0.0
 40
0.4999999999999998
 40
0.4999999999999998
 40
0.7499999999999998
 40
0.7499999999999998
 40
1.0
 40
1.0
 40
1.0
 40
1.0
 10
12.03909161347795
 20
4.043139038459667
 30
0.0
 10
12.00331091208814
 20
4.376674014836904
 30
0.0
 10
11.96583285269864
 20
4.642557974965155
 30
0.0
 10
11.91177848727801
 20
4.905675846909411
 30
0.0
 10
11.89426389917673
 20
4.971082252613555
 30
0.0
 10
11.86006341264461
 20
5.057887320334316
 30
0.0
 10
11.84229157572191
 20
5.080075646430923
 30
0.0
 10
11.82419823149774
 20
5.079353388103331
 30
0.0
  0
LINE
  5
145
330
1F
100
AcDbEntity
  8
외형선
  6
Continuous
 62
     1
370
    15
100
AcDbLine
 10
15.58046389302951
 20
-4.371317792844807
 30
0.0
 11
15.56966033573888
 21
-4.367530593669388
 31
0.0
  0
SPLINE
  5
146
330
1F
100
AcDbEntity
  8
외형선
  6
Continuous
 62
     1
370
    15
100
AcDbSpline
210
0.0
220
0.0
230
1.0
 70
     8
 71
     3
 72
    10
 73
     6
 74
     0
 42
0.000000001
 43
0.00000001
 40
0.0
 40
0.0
 40
0.0
 40
0.0
 40
0.5
 40
0.5
 40
1.0
 40
1.0
 40
1.0
 40
1.0
 10
10.11893384628691
 20
4.575520844919105
 30
0.0
 10
10.09842673189386
 20
4.703041270911196
 30
0.0
 10
10.07806462199766
 20
4.804310732452777
 30
0.0
 10
10.03868729768348
 20
4.951101867208706
 30
0.0
 10
10.01990609024366
 20
4.997112180502696
 30
0.0
 10
9.999999999999998
 20
5.016211858981711
 30
0.0
  0
LINE
  5
147
330
1F
100
AcDbEntity
  8
외형선
  6
Continuous
370
    15
100
AcDbLine
 10
9.999999999999995
 20
5.012846312071581
 30
0.0
 11
9.999999999999995
 21
5.016211858981714
 31
0.0
  0
SPLINE
  5
148
330
1F
100
AcDbEntity
  8
외형선
  6
Continuous
370
    15
100
AcDbSpline
210
0.0
220
0.0
230
1.0
 70
    24
 71
     3
 72
     8
 73
     4
 74
     0
 42
0.000000001
 43
0.00000001
 40
0.0
 40
0.0
 40
0.0
 40
0.0
 40
1.0
 40
1.0
 40
1.0
 40
1.0
 10
9.999999999999998
 20
5.016211858981712
 30
0.0
 10
9.999999999999998
 20
5.009446964770866
 30
0.0
 10
9.999999999999998
 20
4.881841723121078
 30
0.0
 10
9.999999999999998
 20
4.652329634884851
 30
0.0
  0
LINE
  5
149
330
1F
100
AcDbEntity
  8
외형선
  6
Continuous
 62
     1
370
    15
100
AcDbLine
 10
24.2875
 20
1.235558794079363
 30
0.0
 11
24.2875
 21
3.40060821232448
 31
0.0
  0
LINE
  5
14A
330
1F
100
AcDbEntity
  8
외형선
  6
Continuous
 62
     1
370
    15
100
AcDbLine
 10
19.75105513931554
 20
-4.43642623596604
 30
0.0
 11
19.74917955216136
 21
-4.435719449366289
 31
0.0
  0
LINE
  5
14B
330
1F
100
AcDbEntity
  8
외형선
  6
Continuous
 62
     1
370
    15
100
AcDbLine
 10
24.2875
 20
-1.935670528357273
 30
0.0
 11
24.2875
 21
-2.467325850254137
 31
0.0
  0
LINE
  5
14C
330
1F
100
AcDbEntity
  8
외형선
  6
Continuous
 62
     1
370
    15
100
AcDbLine
 10
24.2875
 20
3.979370580932729
 30
0.0
 11
24.2875
 21
3.944135657906585
 31
0.0
  0
SPLINE
  5
14D
330
1F
100
AcDbEntity
  8
외형선
  6
Continuous
 62
     1
370
    15
100
AcDbSpline
210
0.0
220
0.0
230
1.0
 70
     8
 71
     3
 72
    11
 73
     7
 74
     0
 42
0.000000001
 43
0.00000001
 40
0.0
 40
0.0
 40
0.0
 40
0.0
 40
0.2688303847248675
 40
0.5383939054510535
 40
0.8046410281184226
 40
0.9999999999999999
 40
0.9999999999999999
 40
0.9999999999999999
 40
0.9999999999999999
 10
12.20009531417416
 20
3.939100427908368
 30
0.0
 10
12.18161409935635
 20
4.102653077435631
 30
0.0
 10
12.14460126900453
 20
4.430204406188782
 30
0.0
 10
12.0882198001889
 20
4.763758874166665
 30
0.0
 10
12.0392077625238
 20
4.967447216750981
 30
0.0
 10
12.00798446759024
 20
4.997777004100712
 30
0.0
 10
11.99477027724699
 20
5.010613047957154
 30
0.0
  0
SPLINE
  5
14E
330
1F
100
AcDbEntity
  8
외형선
  6
Continuous
 62
     1
370
    15
100
AcDbSpline
210
0.0
220
0.0
230
1.0
 70
     8
 71
     3
 72
    12
 73
     8
 74
     0
 42
0.000000001
 43
0.00000001
 40
0.0
 40
0.0
 40
0.0
 40
0.0
 40
0.1983442683062807
 40
0.4238771902857609
 40
0.6464880819661974
 40
0.8695657630902527
 40
0.9999999999999999
 40
0.9999999999999999
 40
0.9999999999999999
 40
0.9999999999999999
 10
14.96780969726548
 20
-4.383636490248308
 30
0.0
 10
14.95372881003907
 20
-4.370724106591135
 30
0.0
 10
14.92363685444475
 20
-4.343129334373958
 30
0.0
 10
14.87754085895219
 20
-4.175326287949455
 30
0.0
 10
14.83165473460623
 20
-3.911958483691497
 30
0.0
 10
14.7919619689312
 20
-3.608414533064495
 30
0.0
 10
14.76689870440989
 20
-3.381092369337187
 30
0.0
 10
14.75765118653133
 20
-3.297217989306783
 30
0.0
  0
SPLINE
  5
14F
330
1F
100
AcDbEntity
  8
외형선
  6
Continuous
 62
     1
370
    15
100
AcDbSpline
210
0.0
220
0.0
230
1.0
 70
     8
 71
     3
 72
    12
 73
     8
 74
     0
 42
0.000000001
 43
0.00000001
 40
0.0
 40
0.0
 40
0.0
 40
0.0
 40
0.0449330881768829
 40
0.3609735633207112
 40
0.6733789165246542
 40
0.9850598517403331
 40
1.0
 40
1.0
 40
1.0
 40
1.0
 10
15.56966033573888
 20
-4.367530593669388
 30
0.0
 10
15.56709536276458
 20
-4.366982638650044
 30
0.0
 10
15.54648944690347
 20
-4.362580598107153
 30
0.0
 10
15.50736150511634
 20
-4.227281326801167
 30
0.0
 10
15.454857128142
 20
-3.958849955487433
 30
0.0
 10
15.41954790846149
 20
-3.686609657766713
 30
0.0
 10
15.40097760694891
 20
-3.528857841594324
 30
0.0
 10
15.40012817293543
 20
-3.521642032079613
 30
0.0
  0
SPLINE
  5
150
330
1F
100
AcDbEntity
  8
외형선
  6
Continuous
 62
     1
370
    15
100
AcDbSpline
210
0.0
220
0.0
230
1.0
 70
     8
 71
     3
 72
    11
 73
     7
 74
     0
 42
0.000000001
 43
0.00000001
 40
0.0
 40
0.0
 40
0.0
 40
0.0
 40
0.3394389219698395
 40
0.6747585586089443
 40
0.9645162151229733
 40
1.0
 40
1.0
 40
1.0
 40
1.0
 10
10.92159992521155
 20
4.409908245815034
 30
0.0
 10
10.90188997144391
 20
4.54542794695343
 30
0.0
 10
10.86270925546318
 20
4.814822740198101
 30
0.0
 10
10.808500245365
 20
5.012374835927286
 30
0.0
 10
10.77190887978822
 20
5.093766648627132
 30
0.0
 10
10.75314002826656
 20
5.07513966842591
 30
0.0
 10
10.75109234981902
 20
5.073107468114836
 30
0.0
  0
SPLINE
  5
151
330
1F
100
AcDbEntity
  8
외형선
  6
Continuous
 62
     1
370
    15
100
AcDbSpline
210
0.0
220
0.0
230
1.0
 70
     8
 71
     3
 72
    11
 73
     7
 74
     0
 42
0.000000001
 43
0.00000001
 40
0.0
 40
0.0
 40
0.0
 40
0.0
 40
0.148475911510347
 40
0.4347650859929363
 40
0.7181102021978848
 40
1.0
 40
1.0
 40
1.0
 40
1.0
 10
15.74998979869839
 20
-4.428585063175622
 30
0.0
 10
15.74059808652968
 20
-4.431205425328809
 30
0.0
 10
15.71309740640509
 20
-4.438878333110781
 30
0.0
 10
15.6666987691016
 20
-4.301148274713662
 30
0.0
 10
15.61363709920088
 20
-4.04010979999736
 30
0.0
 10
15.57863803270296
 20
-3.761273646748514
 30
0.0
 10
15.56118355575209
 20
-3.622214531836418
 30
0.0
  0
SPLINE
  5
152
330
1F
100
AcDbEntity
  8
외형선
  6
Continuous
 62
     1
370
    15
100
AcDbSpline
210
0.0
220
0.0
230
1.0
 70
     8
 71
     3
 72
    10
 73
     6
 74
     0
 42
0.000000001
 43
0.00000001
 40
0.0
 40
0.0
 40
0.0
 40
0.0
 40
0.0796248460622916
 40
0.5425174741162053
 40
1.0
 40
1.0
 40
1.0
 40
1.0
 10
16.82484449804486
 20
-4.430380378495564
 30
0.0
 10
16.82098166152307
 20
-4.435154213436365
 30
0.0
 10
16.79466253606966
 20
-4.467680353228274
 30
0.0
 10
16.74386440866957
 20
-4.330647903558887
 30
0.0
 10
16.69959531570677
 20
-4.074402412869502
 30
0.0
 10
16.67759087938474
 20
-3.947032792095443
 30
0.0
  0
SPLINE
  5
153
330
1F
100
AcDbEntity
  8
외형선
  6
Continuous
 62
     1
370
    15
100
AcDbSpline
210
0.0
220
0.0
230
1.0
 70
     8
 71
     3
 72
    11
 73
     7
 74
     0
 42
0.000000001
 43
0.00000001
 40
0.0
 40
0.0
 40
0.0
 40
0.0
 40
0.3018352677729952
 40
0.5999543469641859
 40
0.8891100661797442
 40
1.0
 40
1.0
 40
1.0
 40
1.0
 10
10.76146484721456
 20
4.406534968776776
 30
0.0
 10
10.74272940506483
 20
4.529945300194626
 30
0.0
 10
10.70548919108002
 20
4.775246537988067
 30
0.0
 10
10.65222170684146
 20
4.96827428122949
 30
0.0
 10
10.61065151434497
 20
5.047345588974484
 30
0.0
 10
10.58588937389058
 20
5.012888070366365
 30
0.0
 10
10.57902547699432
 20
5.003336680596051
 30
0.0
  0
SPLINE
  5
154
330
1F
100
AcDbEntity
  8
외형선
  6
Continuous
 62
     1
370
    15
100
AcDbSpline
210
0.0
220
0.0
230
1.0
 70
     8
 71
     3
 72
    11
 73
     7
 74
     0
 42
0.000000001
 43
0.00000001
 40
0.0
 40
0.0
 40
0.0
 40
0.0
 40
0.0556733152873586
 40
0.3715902017925329
 40
0.687634379827891
 40
1.0
 40
1.0
 40
1.0
 40
1.0
 10
16.99472498834551
 20
-4.378680389306743
 30
0.0
 10
16.99186086644498
 20
-4.38332083491619
 30
0.0
 10
16.97274435381266
 20
-4.41429337735454
 30
0.0
 10
16.93596554456729
 20
-4.36100613184275
 30
0.0
 10
16.88580489576433
 20
-4.220610373291728
 30
0.0
 10
16.85351527538741
 20
-4.030656869762826
 30
0.0
 10
16.83746497298453
 20
-3.936236088764625
 30
0.0
  0
SPLINE
  5
155
330
1F
100
AcDbEntity
  8
외형선
  6
Continuous
 62
     1
370
    15
100
AcDbSpline
210
0.0
220
0.0
230
1.0
 70
     8
 71
     3
 72
     9
 73
     5
 74
     0
 42
0.000000001
 43
0.00000001
 40
0.0
 40
0.0
 40
0.0
 40
0.0
 40
0.4200415129551596
 40
1.0
 40
1.0
 40
1.0
 40
1.0
 10
17.57907645795992
 20
-4.36974505015338
 30
0.0
 10
17.56499566887555
 20
-4.357962846031174
 30
0.0
 10
17.53147329394335
 20
-4.329912751555238
 30
0.0
 10
17.49836300772586
 20
-4.172145290234322
 30
0.0
 10
17.47916041622555
 20
-4.080646712061739
 30
0.0
  0
SPLINE
  5
156
330
1F
100
AcDbEntity
  8
외형선
  6
Continuous
 62
     1
370
    15
100
AcDbSpline
210
0.0
220
0.0
230
1.0
 70
     8
 71
     3
 72
     9
 73
     5
 74
     0
 42
0.000000001
 43
0.00000001
 40
0.0
 40
0.0
 40
0.0
 40
0.0
 40
0.4968686475329215
 40
0.9999999999999999
 40
0.9999999999999999
 40
0.9999999999999999
 40
0.9999999999999999
 10
17.75112245793443
 20
-4.444554525642326
 30
0.0
 10
17.73266470170318
 20
-4.433206793344021
 30
0.0
 10
17.69551654127308
 20
-4.410368297989869
 30
0.0
 10
17.65867250647548
 20
-4.247266998522358
 30
0.0
 10
17.64013511741742
 20
-4.165205621132133
 30
0.0
  0
SPLINE
  5
157
330
1F
100
AcDbEntity
  8
외형선
  6
Continuous
 62
     1
370
    15
100
AcDbSpline
210
0.0
220
0.0
230
1.0
 70
     8
 71
     3
 72
     9
 73
     5
 74
     0
 42
0.000000001
 43
0.00000001
 40
0.0
 40
0.0
 40
0.0
 40
0.0
 40
0.077806512064201
 40
1.0
 40
1.0
 40
1.0
 40
1.0
 10
18.82495951903377
 20
-4.438871849042885
 30
0.0
 10
18.82324787344134
 20
-4.441105220752444
 30
0.0
 10
18.80124912877302
 20
-4.469809395381382
 30
0.0
 10
18.7784599085776
 20
-4.403080303024436
 30
0.0
 10
18.75744383811825
 20
-4.341543168596993
 30
0.0
  0
SPLINE
  5
158
330
1F
100
AcDbEntity
  8
외형선
  6
Continuous
 62
     1
370
    15
100
AcDbSpline
210
0.0
220
0.0
230
1.0
 70
     8
 71
     3
 72
     9
 73
     5
 74
     0
 42
0.000000001
 43
0.00000001
 40
0.0
 40
0.0
 40
0.0
 40
0.0
 40
0.2363524371874834
 40
0.9999999999999999
 40
0.9999999999999999
 40
0.9999999999999999
 40
0.9999999999999999
 10
18.99499912376165
 20
-4.36979764288816
 30
0.0
 10
18.98903027665266
 20
-4.379183402742933
 30
0.0
 10
18.96377626539723
 20
-4.418894268289582
 30
0.0
 10
18.93759159740204
 20
-4.35501550915944
 30
0.0
 10
18.91759573950445
 20
-4.306234650434216
 30
0.0
  0
LINE
  5
159
330
1F
100
AcDbEntity
  8
외형선
  6
Continuous
 62
     1
370
    15
100
AcDbLine
 10
19.5834610950227
 20
-4.375946676345046
 30
0.0
 11
19.56015946013775
 21
-4.361932227410133
 31
0.0
  0
LINE
  5
15A
330
1F
100
AcDbEntity
  8
외형선
  6
Continuous
 62
     1
370
    15
100
AcDbLine
 10
19.74917955216136
 20
-4.435719449366289
 30
0.0
 11
19.72129004598385
 21
-4.425209711551134
 31
0.0
  0
LINE
  5
15B
330
1F
100
AcDbEntity
  8
중심선
100
AcDbLine
 10
-42.2125
 20
0.3168705809327276
 30
0.0
 11
27.2875
 21
0.3168705809327361
 31
0.0
  0
LINE
  5
15C
330
1F
100
AcDbEntity
  8
참조1
100
AcDbLine
 10
-7.462499999999997
 20
-0.0000000000000035
 30
0.0
 11
-7.462499999999991
 21
-40.00000000000001
 31
0.0
  0
LINE
  5
15D
330
1F
100
AcDbEntity
  8
참조1
100
AcDbLine
 10
-19.72860765519647
 20
-4.445629419067263
 30
0.0
 11
48.41397268839601
 21
-4.445629419067263
 31
0.0
  0
LINE
  5
15E
330
1F
100
AcDbEntity
  8
참조1
100
AcDbLine
 10
48.41397268839601
 20
-4.445629419067263
 30
0.0
 11
48.413972688396
 21
-6.610378025244112
 31
0.0
  0
LINE
  5
15F
330
1F
100
AcDbEntity
  8
참조1
100
AcDbLine
 10
-7.462499999999991
 20
-40.00000000000001
 30
0.0
 11
-24.19604980726569
 21
-40.0
 31
0.0
  0
CIRCLE
  5
160
330
1F
100
AcDbEntity
  8
해칭선
100
AcDbCircle
 10
0.0000000000000071
 20
0.3168705809327328
 30
0.0
 40
3.000000000000005
  0
INSERT
  5
161
330
1F
100
AcDbEntity
  8
0
  6
Continuous
 62
     7
100
AcDbBlockReference
 66
     1
  2
블럭10
 10
-21.4027729321252
 20
-52.04717430164393
 30
0.0
  0
ATTRIB
  5
162
330
161
100
AcDbEntity
  8
FORMAT
 62
     2
100
AcDbText
 10
-30.92508688272314
 20
-49.97180738881174
 30
0.0
 40
4.233333333333333
  1
EH094024 [ 3 FLUTE ]
 41
0.75
  7
SLDTEXTSTYLE0
 11
-30.92508688272314
 21
-52.08847405547841
 31
0.0
100
AcDbAttribute
  2
AUTOATTR0
 70
     0
 74
     1
  0
SEQEND
  5
163
330
161
100
AcDbEntity
  8
0
  6
Continuous
 62
     7
  0
HATCH
  5
164
330
1F
100
AcDbEntity
  8
중심선
100
AcDbHatch
 10
0.0
 20
0.0
 30
0.0
210
0.0
220
0.0
230
1.0
  2
SOLID
 70
     1
 71
     0
 91
        1
 92
        0
 93
        4
 72
     1
 10
-15.68786362774435
 20
-35.8
 11
-19.13413887158163
 21
-35.8
 72
     1
 10
-19.13413887158163
 20
-35.8
 11
-21.26236873078566
 21
-38.33632558057259
 72
     1
 10
-21.26236873078566
 20
-38.33632558057259
 11
-17.81606040183523
 21
-38.3362861512701
 72
     1
 10
-17.81606040183523
 20
-38.3362861512701
 11
-15.68786362774435
 21
-35.8
 97
        0
 75
     0
 76
     1
 98
        1
 10
0.0
 20
0.0
  0
HATCH
  5
165
330
1F
100
AcDbEntity
  8
중심선
100
AcDbHatch
 10
0.0
 20
0.0
 30
0.0
210
0.0
220
0.0
230
1.0
  2
SOLID
 70
     1
 71
     0
 91
        1
 92
        0
 93
        4
 72
     1
 10
-10.67509963670837
 20
-35.80000000000003
 11
-14.12137488054566
 21
-35.80000000000003
 72
     1
 10
-14.12137488054566
 20
-35.80000000000003
 11
-18.65251288890307
 21
-41.20000000000002
 72
     1
 10
-18.65251288890307
 20
-41.20000000000002
 11
-15.20623764506579
 21
-41.20000000000002
 72
     1
 10
-15.20623764506579
 20
-41.20000000000002
 11
-10.67509963670837
 21
-35.80000000000003
 97
        0
 75
     0
 76
     1
 98
        1
 10
0.0
 20
0.0
  0
HATCH
  5
166
330
1F
100
AcDbEntity
  8
중심선
100
AcDbHatch
 10
0.0
 20
0.0
 30
0.0
210
0.0
220
0.0
230
1.0
  2
SOLID
 70
     1
 71
     0
 91
        1
 92
        0
 93
        4
 72
     1
 10
-5.662335645672478
 20
-35.8
 11
-9.108610889509649
 21
-35.80000000000003
 72
     1
 10
-9.108610889509649
 20
-35.80000000000003
 11
-16.15704779139887
 21
-44.20000000000002
 72
     1
 10
-16.15704779139887
 20
-44.20000000000002
 11
-12.71077254756159
 21
-44.20000000000002
 72
     1
 10
-12.71077254756159
 20
-44.20000000000002
 11
-5.662335645672478
 21
-35.8
 97
        0
 75
     0
 76
     1
 98
        1
 10
0.0
 20
0.0
  0
HATCH
  5
167
330
1F
100
AcDbEntity
  8
중심선
100
AcDbHatch
 10
0.0
 20
0.0
 30
0.0
210
0.0
220
0.0
230
1.0
  2
SOLID
 70
     1
 71
     0
 91
        1
 92
        0
 93
        6
 72
     3
 10
-0.8624452146603068
 20
-40.00000000005127
 11
3.960054785062284
 21
1.540850780301639E-10
 40
0.3939339440162633
 50
17.09539180608433
 51
320.001965768507
 73
     0
 72
     1
 10
0.820554441040261
 20
-38.58789400463827
 11
3.125856314741326
 21
-36.65356729459038
 72
     3
 10
-0.8624452147131534
 20
-40.00000000000015
 11
6.600054785286829
 21
-1.249000902703301E-13
 40
0.6363583540795982
 50
39.99873849337408
 51
368.4976242363725
 73
     1
 72
     1
 10
5.562887277187456
 20
-39.03999999993002
 11
-2.182377907877231
 21
-39.03999999993002
 72
     1
 10
-2.182377907877231
 20
-39.03999999993002
 11
-2.182402952323165
 21
-40.95999999992991
 72
     1
 10
-2.182402952323165
 20
-40.95999999992991
 11
2.258976817148873
 21
-40.95999999992988
 97
        0
 75
     0
 76
     1
 98
        1
 10
0.0
 20
0.0
  0
POINT
  5
168
330
1F
100
AcDbEntity
  8
치수문자_일반주서
100
AcDbPoint
 10
0.0000000000000104
 20
-0.0000000000000035
 30
0.0
  0
DIMENSION
  5
169
330
1F
100
AcDbEntity
  8
치수문자_일반주서
100
AcDbDimension
  2
_D
 10
46.32001004574689
 20
-4.445629419067181
 30
0.0
 11
46.32001004574679
 21
21.72512058093287
 31
0.0
 70
   160
  1
%%c<>
 71
     2
 42
9.525000000000054
  3
SLDDIMSTYLE0
100
AcDbAlignedDimension
 13
10.00000000000001
 23
5.079370580932746
 33
0.0
 14
20.48542115037709
 24
-4.445629419067269
 34
0.0
 50
90.0000000000002
100
AcDbRotatedDimension
1001
ACAD
1000
DSTYLE
1002
{
1070
   171
1070
     6
1070
   273
1070
     7
1002
}
  0
DIMENSION
  5
17C
330
1F
100
AcDbEntity
  8
치수문자_일반주서
100
AcDbDimension
  2
_D_1
 10
-49.02250000000001
 20
-4.445629419067309
 30
0.0
 11
-49.02250000000002
 21
-0.4461376797827282
 31
0.0
 70
   160
  1
%%c<>
 71
     2
 42
9.525000000000006
  3
SLDDIMSTYLE1
100
AcDbAlignedDimension
 13
-38.2125
 23
5.079370580932734
 33
0.0
 14
-38.2125
 24
-4.445629419067272
 34
0.0
 50
90.0000000000002
100
AcDbRotatedDimension
1001
ACAD
1000
DSTYLE
1002
{
1070
   171
1070
     6
1070
   273
1070
     7
1002
}
  0
DIMENSION
  5
191
330
1F
100
AcDbEntity
  8
치수문자_일반주서
100
AcDbDimension
  2
_D_2
 10
9.999999999999995
 20
20.72832337495263
 30
0.0
 11
17.14375
 21
20.72832337495263
 31
0.0
 70
   160
  1
<>
 71
     2
 42
14.2875
  3
SLDDIMSTYLE0
100
AcDbAlignedDimension
 13
24.2875
 23
3.40060821232448
 33
0.0
 14
9.999999999999995
 24
5.079370580932731
 34
0.0
 50
0.0000000000000142
100
AcDbRotatedDimension
1001
ACAD
1000
DSTYLE
1002
{
1070
   171
1070
     6
1070
   273
1070
     7
1002
}
  0
DIMENSION
  5
1A5
330
1F
100
AcDbEntity
  8
치수문자_일반주서
100
AcDbDimension
  2
_D_3
 10
-39.2125
 20
37.94151582153057
 30
0.0
 11
-4.686213274302494
 21
37.94151582153057
 31
0.0
 70
   160
  1
<>
 71
     2
 42
63.5
  3
SLDDIMSTYLE2
100
AcDbAlignedDimension
 13
24.2875
 23
3.944135657906585
 33
0.0
 14
-39.2125
 24
4.079370580932725
 34
0.0
100
AcDbRotatedDimension
1001
ACAD
1000
DSTYLE
1002
{
1070
   171
1070
     6
1070
   273
1070
     7
1002
}
  0
LINE
  5
1B9
330
1F
100
AcDbEntity
  8
참조1
100
AcDbLine
 10
73.77629082238857
 20
7.440000000000002
 30
0.0
 11
73.77629082238857
 21
-7.440000000000002
 31
0.0
  0
LINE
  5
1BA
330
1F
100
AcDbEntity
  8
참조1
100
AcDbLine
 10
86.47629082238858
 20
5.440000000000002
 30
0.0
 11
73.77629082238857
 21
5.440000000000002
 31
0.0
  0
SOLID
  5
1BB
330
1F
100
AcDbEntity
  8
참조1
100
AcDbTrace
 10
73.77629082238857
 20
5.440000000000002
 30
0.0
 11
80.12629082238857
 21
4.424000000000002
 31
0.0
 12
80.12629082238857
 22
6.456000000000002
 32
0.0
 13
80.12629082238857
 23
6.456000000000002
 33
0.0
  0
LINE
  5
1BC
330
1F
100
AcDbEntity
  8
참조1
100
AcDbLine
 10
86.47629082238858
 20
-5.440000000000002
 30
0.0
 11
73.77629082238857
 21
-5.440000000000002
 31
0.0
  0
SOLID
  5
1BD
330
1F
100
AcDbEntity
  8
참조1
100
AcDbTrace
 10
73.77629082238857
 20
-5.440000000000002
 30
0.0
 11
80.12629082238857
 21
-6.456000000000002
 31
0.0
 12
80.12629082238857
 22
-4.424000000000002
 32
0.0
 13
80.12629082238857
 23
-4.424000000000002
 33
0.0
  0
MTEXT
  5
1BE
330
1F
100
AcDbEntity
  8
참조1
100
AcDbMText
 10
83.37640563295113
 20
11.06571756601608
 30
0.0
 40
3.5
 41
0.0
 71
     1
 72
     1
  1
A
  7
SLDTEXTSTYLE0
 73
     1
 44
1.0
  0
MTEXT
  5
1BF
330
1F
100
AcDbEntity
  8
참조1
100
AcDbMText
 10
83.37640563295113
 20
0.1857175660160736
 30
0.0
 40
3.5
 41
0.0
 71
     1
 72
     1
  1
A
  7
SLDTEXTSTYLE0
 73
     1
 44
1.0
  0
INSERT
  5
1C6
330
1F
100
AcDbEntity
  8
해칭선
100
AcDbBlockReference
  2
SW_DOWELSYMBOL_0
 10
0.0000000000000071
 20
0.3168705809327328
 30
0.0
  0
ENDSEC
  0
SECTION
  2
OBJECTS
  0
DICTIONARY
  5
C
330
0
100
AcDbDictionary
281
     1
  3
ACAD_GROUP
350
D
  3
ACAD_IMAGE_VARS
350
1EA
  3
ACAD_LAYOUT
350
1A
  3
ACAD_MLINESTYLE
350
17
  3
ACAD_PLOTSETTINGS
350
19
  3
ACAD_PLOTSTYLENAME
350
E
  3
ACAD_SCALELIST
350
47
  3
APPDATA
350
1E8
  3
DWGPROPS
350
1ED
  0
DICTIONARY
  5
D
102
{ACAD_REACTORS
330
C
102
}
330
C
100
AcDbDictionary
281
     1
  0
RASTERVARIABLES
  5
1EA
102
{ACAD_REACTORS
330
C
102
}
330
C
100
AcDbRasterVariables
 90
        0
 70
     1
 71
     1
 72
     1
  0
DICTIONARY
  5
1A
102
{ACAD_REACTORS
330
C
102
}
330
C
100
AcDbDictionary
281
     1
  3
Layout1
350
1E
  3
Layout2
350
26
  3
Model
350
22
  0
DICTIONARY
  5
17
102
{ACAD_REACTORS
330
C
102
}
330
C
100
AcDbDictionary
281
     1
  3
Standard
350
18
  0
DICTIONARY
  5
19
102
{ACAD_REACTORS
330
C
102
}
330
C
100
AcDbDictionary
281
     1
  0
ACDBDICTIONARYWDFLT
  5
E
102
{ACAD_REACTORS
330
C
102
}
330
C
100
AcDbDictionary
281
     1
  3
Normal
350
F
100
AcDbDictionaryWithDefault
340
F
  0
DICTIONARY
  5
47
102
{ACAD_REACTORS
330
C
102
}
330
C
100
AcDbDictionary
281
     1
  3
A0
350
48
  3
A1
350
49
  3
A2
350
4A
  3
A3
350
4B
  3
A4
350
4C
  3
A5
350
4D
  3
A6
350
4E
  3
A7
350
4F
  3
A8
350
50
  3
A9
350
51
  3
B0
350
52
  3
B1
350
53
  3
B2
350
54
  3
B3
350
55
  3
B4
350
56
  3
B5
350
57
  3
B6
350
58
  3
B7
350
59
  3
B8
350
5A
  3
B9
350
5B
  3
C0
350
5C
  3
C1
350
5D
  3
C2
350
5E
  3
C3
350
5F
  3
C4
350
60
  3
C5
350
61
  3
C6
350
62
  3
C7
350
63
  3
C8
350
64
  3
C9
350
65
  3
D0
350
66
  3
D1
350
67
  3
D2
350
68
  0
DICTIONARY
  5
1E8
102
{ACAD_REACTORS
330
C
102
}
330
C
100
AcDbDictionary
281
     1
  0
XRECORD
  5
1ED
102
{ACAD_REACTORS
330
C
102
}
330
C
100
AcDbXrecord
280
     1
  1
DWGPROPS COOKIE
  2

  3

  4

  6

  7

  8
12016016
  9

300
=
301
=
302
=
303
=
304
=
305
=
306
=
307
=
308
=
309
=
 40
0.0
 41
2458298.968695776
 42
2458302.203477812
  1

 90
        0
  0
LAYOUT
  5
1E
102
{ACAD_REACTORS
330
1A
102
}
330
1A
100
AcDbPlotSettings
  1

  2
none_device
  4

  6

 40
0.0
 41
0.0
 42
0.0
 43
0.0
 44
0.0
 45
0.0
 46
0.0
 47
0.0
 48
0.0
 49
0.0
140
0.0
141
0.0
142
1.0
143
1.0
 70
   688
 72
     1
 73
     0
 74
     5
  7

 75
    16
147
1.0
148
0.0
149
0.0
100
AcDbLayout
  1
Layout1
 70
     1
 71
     1
 10
0.0
 20
0.0
 11
420.0
 21
297.0
 12
0.0
 22
0.0
 32
0.0
 14
1.000000000000000E+20
 24
1.000000000000000E+20
 34
1.000000000000000E+20
 15
-1.000000000000000E+20
 25
-1.000000000000000E+20
 35
-1.000000000000000E+20
146
0.0
 13
0.0
 23
0.0
 33
0.0
 16
1.0
 26
0.0
 36
0.0
 17
0.0
 27
1.0
 37
0.0
 76
     0
330
1B
  0
LAYOUT
  5
26
102
{ACAD_REACTORS
330
1A
102
}
330
1A
100
AcDbPlotSettings
  1

  2
none_device
  4

  6

 40
0.0
 41
0.0
 42
0.0
 43
0.0
 44
0.0
 45
0.0
 46
0.0
 47
0.0
 48
0.0
 49
0.0
140
0.0
141
0.0
142
1.0
143
1.0
 70
   688
 72
     1
 73
     0
 74
     5
  7

 75
    16
147
1.0
148
0.0
149
0.0
100
AcDbLayout
  1
Layout2
 70
     1
 71
     2
 10
0.0
 20
0.0
 11
0.0
 21
0.0
 12
0.0
 22
0.0
 32
0.0
 14
0.0
 24
0.0
 34
0.0
 15
0.0
 25
0.0
 35
0.0
146
0.0
 13
0.0
 23
0.0
 33
0.0
 16
1.0
 26
0.0
 36
0.0
 17
0.0
 27
1.0
 37
0.0
 76
     0
330
23
  0
LAYOUT
  5
22
102
{ACAD_REACTORS
330
1A
102
}
330
1A
100
AcDbPlotSettings
  1

  2
none_device
  4
ANSI_A_(11.00_x_8.50_Inches)
  6

 40
6.35
 41
19.05
 42
6.35000508
 43
19.05000254
 44
279.4
 45
215.9
 46
108.1449830654433
 47
90.7731756740194
 48
0.0
 49
0.0
140
0.0
141
0.0
142
0.0744403274023622
143
1.0
 70
  1696
 72
     0
 73
     0
 74
     0
  7

 75
     0
147
0.0235690232323232
148
0.0
149
0.0
100
AcDbLayout
  1
Model
 70
     1
 71
     0
 10
0.0
 20
0.0
 11
420.0
 21
297.0
 12
0.0
 22
0.0
 32
0.0
 14
-53.39750000000006
 24
-49.97180738881175
 34
0.0
 15
86.47629082238858
 25
42.31651582153057
 35
0.0
146
0.0
 13
0.0
 23
0.0
 33
0.0
 16
1.0
 26
0.0
 36
0.0
 17
0.0
 27
1.0
 37
0.0
 76
     0
330
1F
331
29
  0
MLINESTYLE
  5
18
102
{ACAD_REACTORS
330
17
102
}
330
17
100
AcDbMlineStyle
  2
Standard
 70
     0
  3

 62
   256
 51
90.0
 52
90.0
 71
     2
 49
0.5
 62
   256
  6
BYLAYER
 49
-0.5
 62
   256
  6
BYLAYER
  0
ACDBPLACEHOLDER
  5
F
102
{ACAD_REACTORS
330
E
102
}
330
E
  0
SCALE
  5
48
102
{ACAD_REACTORS
330
47
102
}
330
47
100
AcDbScale
 70
     0
300
1:1
140
1.0
141
1.0
290
     1
  0
SCALE
  5
49
102
{ACAD_REACTORS
330
47
102
}
330
47
100
AcDbScale
 70
     0
300
1:2
140
1.0
141
2.0
290
     0
  0
SCALE
  5
4A
102
{ACAD_REACTORS
330
47
102
}
330
47
100
AcDbScale
 70
     0
300
1:4
140
1.0
141
4.0
290
     0
  0
SCALE
  5
4B
102
{ACAD_REACTORS
330
47
102
}
330
47
100
AcDbScale
 70
     0
300
1:5
140
1.0
141
5.0
290
     0
  0
SCALE
  5
4C
102
{ACAD_REACTORS
330
47
102
}
330
47
100
AcDbScale
 70
     0
300
1:8
140
1.0
141
8.0
290
     0
  0
SCALE
  5
4D
102
{ACAD_REACTORS
330
47
102
}
330
47
100
AcDbScale
 70
     0
300
1:10
140
1.0
141
10.0
290
     0
  0
SCALE
  5
4E
102
{ACAD_REACTORS
330
47
102
}
330
47
100
AcDbScale
 70
     0
300
1:16
140
1.0
141
16.0
290
     0
  0
SCALE
  5
4F
102
{ACAD_REACTORS
330
47
102
}
330
47
100
AcDbScale
 70
     0
300
1:20
140
1.0
141
20.0
290
     0
  0
SCALE
  5
50
102
{ACAD_REACTORS
330
47
102
}
330
47
100
AcDbScale
 70
     0
300
1:30
140
1.0
141
30.0
290
     0
  0
SCALE
  5
51
102
{ACAD_REACTORS
330
47
102
}
330
47
100
AcDbScale
 70
     0
300
1:40
140
1.0
141
40.0
290
     0
  0
SCALE
  5
52
102
{ACAD_REACTORS
330
47
102
}
330
47
100
AcDbScale
 70
     0
300
1:50
140
1.0
141
50.0
290
     0
  0
SCALE
  5
53
102
{ACAD_REACTORS
330
47
102
}
330
47
100
AcDbScale
 70
     0
300
1:100
140
1.0
141
100.0
290
     0
  0
SCALE
  5
54
102
{ACAD_REACTORS
330
47
102
}
330
47
100
AcDbScale
 70
     0
300
2:1
140
2.0
141
1.0
290
     0
  0
SCALE
  5
55
102
{ACAD_REACTORS
330
47
102
}
330
47
100
AcDbScale
 70
     0
300
4:1
140
4.0
141
1.0
290
     0
  0
SCALE
  5
56
102
{ACAD_REACTORS
330
47
102
}
330
47
100
AcDbScale
 70
     0
300
8:1
140
8.0
141
1.0
290
     0
  0
SCALE
  5
57
102
{ACAD_REACTORS
330
47
102
}
330
47
100
AcDbScale
 70
     0
300
10:1
140
10.0
141
1.0
290
     0
  0
SCALE
  5
58
102
{ACAD_REACTORS
330
47
102
}
330
47
100
AcDbScale
 70
     0
300
100:1
140
100.0
141
1.0
290
     0
  0
SCALE
  5
59
102
{ACAD_REACTORS
330
47
102
}
330
47
100
AcDbScale
 70
     0
300
1/128" = 1'-0"
140
0.0078125
141
12.0
290
     0
  0
SCALE
  5
5A
102
{ACAD_REACTORS
330
47
102
}
330
47
100
AcDbScale
 70
     0
300
1/64" = 1'-0"
140
0.015625
141
12.0
290
     0
  0
SCALE
  5
5B
102
{ACAD_REACTORS
330
47
102
}
330
47
100
AcDbScale
 70
     0
300
1/32" = 1'-0"
140
0.03125
141
12.0
290
     0
  0
SCALE
  5
5C
102
{ACAD_REACTORS
330
47
102
}
330
47
100
AcDbScale
 70
     0
300
1/16" = 1'-0"
140
0.0625
141
12.0
290
     0
  0
SCALE
  5
5D
102
{ACAD_REACTORS
330
47
102
}
330
47
100
AcDbScale
 70
     0
300
3/32" = 1'-0"
140
0.09375
141
12.0
290
     0
  0
SCALE
  5
5E
102
{ACAD_REACTORS
330
47
102
}
330
47
100
AcDbScale
 70
     0
300
1/8" = 1'-0"
140
0.125
141
12.0
290
     0
  0
SCALE
  5
5F
102
{ACAD_REACTORS
330
47
102
}
330
47
100
AcDbScale
 70
     0
300
3/16" = 1'-0"
140
0.1875
141
12.0
290
     0
  0
SCALE
  5
60
102
{ACAD_REACTORS
330
47
102
}
330
47
100
AcDbScale
 70
     0
300
1/4" = 1'-0"
140
0.25
141
12.0
290
     0
  0
SCALE
  5
61
102
{ACAD_REACTORS
330
47
102
}
330
47
100
AcDbScale
 70
     0
300
3/8" = 1'-0"
140
0.375
141
12.0
290
     0
  0
SCALE
  5
62
102
{ACAD_REACTORS
330
47
102
}
330
47
100
AcDbScale
 70
     0
300
1/2" = 1'-0"
140
0.5
141
12.0
290
     0
  0
SCALE
  5
63
102
{ACAD_REACTORS
330
47
102
}
330
47
100
AcDbScale
 70
     0
300
3/4" = 1'-0"
140
0.75
141
12.0
290
     0
  0
SCALE
  5
64
102
{ACAD_REACTORS
330
47
102
}
330
47
100
AcDbScale
 70
     0
300
1" = 1'-0"
140
1.0
141
12.0
290
     0
  0
SCALE
  5
65
102
{ACAD_REACTORS
330
47
102
}
330
47
100
AcDbScale
 70
     0
300
1-1/2" = 1'-0"
140
1.5
141
12.0
290
     0
  0
SCALE
  5
66
102
{ACAD_REACTORS
330
47
102
}
330
47
100
AcDbScale
 70
     0
300
3" = 1'-0"
140
3.0
141
12.0
290
     0
  0
SCALE
  5
67
102
{ACAD_REACTORS
330
47
102
}
330
47
100
AcDbScale
 70
     0
300
6" = 1'-0"
140
6.0
141
12.0
290
     0
  0
SCALE
  5
68
102
{ACAD_REACTORS
330
47
102
}
330
47
100
AcDbScale
 70
     0
300
1'-0" = 1'-0"
140
12.0
141
12.0
290
     0
  0
ENDSEC
  0
EOF
