  0
SECTION
  2
HEADER
  9
$ACADVER
  1
AC1015
  9
$ACADMAINTVER
 70
     6
  9
$DWGCODEPAGE
  3
ANSI_949
  9
$INSBASE
 10
0.0
 20
0.0
 30
0.0
  9
$EXTMIN
 10
-52.00000000000009
 20
-50.28867796974448
 30
0.0
  9
$EXTMAX
 10
86.47629082238856
 20
41.19907034213167
 30
0.0
  9
$LIMMIN
 10
0.0
 20
0.0
  9
$LIMMAX
 10
420.0
 20
297.0
  9
$ORTHOMODE
 70
     0
  9
$REGENMODE
 70
     1
  9
$FILLMODE
 70
     1
  9
$QTEXTMODE
 70
     0
  9
$MIRRTEXT
 70
     1
  9
$LTSCALE
 40
1.0
  9
$ATTMODE
 70
     1
  9
$TEXTSIZE
 40
3.5
  9
$TRACEWID
 40
1.0
  9
$TEXTSTYLE
  7
Standard
  9
$CLAYER
  8
0
  9
$CELTYPE
  6
ByLayer
  9
$CECOLOR
 62
   256
  9
$CELTSCALE
 40
1.0
  9
$DISPSILH
 70
     0
  9
$DIMSCALE
 40
1.0
  9
$DIMASZ
 40
3.302
  9
$DIMEXO
 40
1.0
  9
$DIMDLI
 40
3.75
  9
$DIMRND
 40
0.0
  9
$DIMDLE
 40
0.0
  9
$DIMEXE
 40
1.0
  9
$DIMTP
 40
0.0
  9
$DIMTM
 40
0.0
  9
$DIMTXT
 40
3.5
  9
$DIMCEN
 40
2.5
  9
$DIMTSZ
 40
0.0
  9
$DIMTOL
 70
     0
  9
$DIMLIM
 70
     0
  9
$DIMTIH
 70
     1
  9
$DIMTOH
 70
     1
  9
$DIMSE1
 70
     0
  9
$DIMSE2
 70
     0
  9
$DIMTAD
 70
     1
  9
$DIMZIN
 70
     0
  9
$DIMBLK
  1

  9
$DIMASO
 70
     1
  9
$DIMSHO
 70
     1
  9
$DIMPOST
  1

  9
$DIMAPOST
  1

  9
$DIMALT
 70
     0
  9
$DIMALTD
 70
     3
  9
$DIMALTF
 40
0.0393700787401575
  9
$DIMLFAC
 40
1.0
  9
$DIMTOFL
 70
     1
  9
$DIMTVP
 40
0.0
  9
$DIMTIX
 70
     0
  9
$DIMSOXD
 70
     0
  9
$DIMSAH
 70
     0
  9
$DIMBLK1
  1

  9
$DIMBLK2
  1

  9
$DIMSTYLE
  2
ISO-25
  9
$DIMCLRD
 70
     0
  9
$DIMCLRE
 70
     0
  9
$DIMCLRT
 70
     0
  9
$DIMTFAC
 40
1.0
  9
$DIMGAP
 40
1.524
  9
$DIMJUST
 70
     0
  9
$DIMSD1
 70
     0
  9
$DIMSD2
 70
     0
  9
$DIMTOLJ
 70
     0
  9
$DIMTZIN
 70
     0
  9
$DIMALTZ
 70
     0
  9
$DIMALTTZ
 70
     0
  9
$DIMUPT
 70
     0
  9
$DIMDEC
 70
     2
  9
$DIMTDEC
 70
     2
  9
$DIMALTU
 70
     2
  9
$DIMALTTD
 70
     3
  9
$DIMTXSTY
  7
Standard
  9
$DIMAUNIT
 70
     0
  9
$DIMADEC
 70
     2
  9
$DIMALTRND
 40
0.0
  9
$DIMAZIN
 70
     0
  9
$DIMDSEP
 70
    44
  9
$DIMATFIT
 70
     3
  9
$DIMFRAC
 70
     0
  9
$DIMLDRBLK
  1

  9
$DIMLUNIT
 70
     2
  9
$DIMLWD
 70
    -2
  9
$DIMLWE
 70
    -2
  9
$DIMTMOVE
 70
     0
  9
$LUNITS
 70
     2
  9
$LUPREC
 70
     2
  9
$SKETCHINC
 40
1.0
  9
$FILLETRAD
 40
10.0
  9
$AUNITS
 70
     0
  9
$AUPREC
 70
     2
  9
$MENU
  1
.
  9
$ELEVATION
 40
0.0
  9
$PELEVATION
 40
0.0
  9
$THICKNESS
 40
0.0
  9
$LIMCHECK
 70
     0
  9
$CHAMFERA
 40
0.0
  9
$CHAMFERB
 40
0.0
  9
$CHAMFERC
 40
0.0
  9
$CHAMFERD
 40
0.0
  9
$SKPOLY
 70
     0
  9
$TDCREATE
 40
2458299.343573727
  9
$TDUCREATE
 40
2458298.968573727
  9
$TDUPDATE
 40
2458302.577928253
  9
$TDUUPDATE
 40
2458302.202928253
  9
$TDINDWG
 40
0.0005780787
  9
$TDUSRTIMER
 40
2458302.202350382
  9
$USRTIMER
 70
     1
  9
$ANGBASE
 50
0.0
  9
$ANGDIR
 70
     0
  9
$PDMODE
 70
     0
  9
$PDSIZE
 40
-1.0
  9
$PLINEWID
 40
0.0
  9
$SPLFRAME
 70
     0
  9
$SPLINETYPE
 70
     6
  9
$SPLINESEGS
 70
     8
  9
$HANDSEED
  5
1B9
  9
$SURFTAB1
 70
     6
  9
$SURFTAB2
 70
     6
  9
$SURFTYPE
 70
     6
  9
$SURFU
 70
     6
  9
$SURFV
 70
     6
  9
$UCSBASE
  2

  9
$UCSNAME
  2

  9
$UCSORG
 10
0.0
 20
0.0
 30
0.0
  9
$UCSXDIR
 10
1.0
 20
0.0
 30
0.0
  9
$UCSYDIR
 10
0.0
 20
1.0
 30
0.0
  9
$UCSORTHOREF
  2

  9
$UCSORTHOVIEW
 70
     0
  9
$UCSORGTOP
 10
0.0
 20
0.0
 30
0.0
  9
$UCSORGBOTTOM
 10
0.0
 20
0.0
 30
0.0
  9
$UCSORGLEFT
 10
0.0
 20
0.0
 30
0.0
  9
$UCSORGRIGHT
 10
0.0
 20
0.0
 30
0.0
  9
$UCSORGFRONT
 10
0.0
 20
0.0
 30
0.0
  9
$UCSORGBACK
 10
0.0
 20
0.0
 30
0.0
  9
$PUCSBASE
  2

  9
$PUCSNAME
  2

  9
$PUCSORG
 10
0.0
 20
0.0
 30
0.0
  9
$PUCSXDIR
 10
1.0
 20
0.0
 30
0.0
  9
$PUCSYDIR
 10
0.0
 20
1.0
 30
0.0
  9
$PUCSORTHOREF
  2

  9
$PUCSORTHOVIEW
 70
     0
  9
$PUCSORGTOP
 10
0.0
 20
0.0
 30
0.0
  9
$PUCSORGBOTTOM
 10
0.0
 20
0.0
 30
0.0
  9
$PUCSORGLEFT
 10
0.0
 20
0.0
 30
0.0
  9
$PUCSORGRIGHT
 10
0.0
 20
0.0
 30
0.0
  9
$PUCSORGFRONT
 10
0.0
 20
0.0
 30
0.0
  9
$PUCSORGBACK
 10
0.0
 20
0.0
 30
0.0
  9
$USERI1
 70
     0
  9
$USERI2
 70
     0
  9
$USERI3
 70
     0
  9
$USERI4
 70
     0
  9
$USERI5
 70
     0
  9
$USERR1
 40
0.0
  9
$USERR2
 40
0.0
  9
$USERR3
 40
0.0
  9
$USERR4
 40
0.0
  9
$USERR5
 40
0.0
  9
$WORLDVIEW
 70
     1
  9
$SHADEDGE
 70
     3
  9
$SHADEDIF
 70
    70
  9
$TILEMODE
 70
     1
  9
$MAXACTVP
 70
    64
  9
$PINSBASE
 10
0.0
 20
0.0
 30
0.0
  9
$PLIMCHECK
 70
     0
  9
$PEXTMIN
 10
1.000000000000000E+20
 20
1.000000000000000E+20
 30
1.000000000000000E+20
  9
$PEXTMAX
 10
-1.000000000000000E+20
 20
-1.000000000000000E+20
 30
-1.000000000000000E+20
  9
$PLIMMIN
 10
0.0
 20
0.0
  9
$PLIMMAX
 10
0.0
 20
0.0
  9
$UNITMODE
 70
     0
  9
$VISRETAIN
 70
     1
  9
$PLINEGEN
 70
     0
  9
$PSLTSCALE
 70
     1
  9
$TREEDEPTH
 70
  3020
  9
$CMLSTYLE
  2
Standard
  9
$CMLJUST
 70
     0
  9
$CMLSCALE
 40
20.0
  9
$PROXYGRAPHICS
 70
     1
  9
$MEASUREMENT
 70
     1
  9
$CELWEIGHT
370
    -1
  9
$ENDCAPS
280
     0
  9
$JOINSTYLE
280
     0
  9
$LWDISPLAY
290
     1
  9
$INSUNITS
 70
     4
  9
$HYPERLINKBASE
  1

  9
$STYLESHEET
  1

  9
$XEDIT
290
     1
  9
$CEPSNTYPE
380
     0
  9
$PSTYLEMODE
290
     1
  9
$FINGERPRINTGUID
  2
{C2CC4EC1-696E-48CF-AFC7-FB38D2522770}
  9
$VERSIONGUID
  2
{FAEB1C32-E019-11D5-929B-00C0DF256EC4}
  9
$EXTNAMES
290
     1
  9
$PSVPSCALE
 40
0.0
  9
$OLESTARTUP
290
     0
  0
ENDSEC
  0
SECTION
  2
CLASSES
  0
CLASS
  1
ACDBDICTIONARYWDFLT
  2
AcDbDictionaryWithDefault
  3
ObjectDBX Classes
 90
        0
280
     0
281
     0
  0
CLASS
  1
VISUALSTYLE
  2
AcDbVisualStyle
  3
ObjectDBX Classes
 90
     4095
280
     0
281
     0
  0
CLASS
  1
MATERIAL
  2
AcDbMaterial
  3
ObjectDBX Classes
 90
     1153
280
     0
281
     0
  0
CLASS
  1
SCALE
  2
AcDbScale
  3
ObjectDBX Classes
 90
     1153
280
     0
281
     0
  0
CLASS
  1
SUN
  2
AcDbSun
  3
SCENEOE
 90
     1153
280
     0
281
     0
  0
CLASS
  1
ACDBPLACEHOLDER
  2
AcDbPlaceHolder
  3
ObjectDBX Classes
 90
        0
280
     0
281
     0
  0
CLASS
  1
LAYOUT
  2
AcDbLayout
  3
ObjectDBX Classes
 90
        0
280
     0
281
     0
  0
CLASS
  1
TABLESTYLE
  2
AcDbTableStyle
  3
ObjectDBX Classes
 90
     4095
280
     0
281
     0
  0
CLASS
  1
MLEADERSTYLE
  2
AcDbMLeaderStyle
  3
ACDB_MLEADERSTYLE_CLASS
 90
     4095
280
     0
281
     0
  0
CLASS
  1
RASTERVARIABLES
  2
AcDbRasterVariables
  3
ISM
 90
        0
280
     0
281
     0
  0
ENDSEC
  0
SECTION
  2
TABLES
  0
TABLE
  2
VPORT
  5
8
330
0
100
AcDbSymbolTable
 70
     1
  0
VPORT
  5
29
330
8
100
AcDbSymbolTableRecord
100
AcDbViewportTableRecord
  2
*Active
 70
     0
 10
0.0
 20
0.0
 11
1.0
 21
1.0
 12
-28.3781720213256
 22
-0.317272545710094
 13
0.0
 23
0.0
 14
10.0
 24
10.0
 15
10.0
 25
10.0
 16
0.0
 26
0.0
 36
1.0
 17
0.0
 27
0.0
 37
0.0
 40
102.0227426284772
 41
1.595744680851064
 42
50.0
 43
0.0
 44
0.0
 50
0.0
 51
0.0
 71
    16
 72
  2000
 73
     1
 74
     3
 75
     0
 76
     0
 77
     0
 78
     0
281
     0
 65
     1
110
0.0
120
0.0
130
0.0
111
1.0
121
0.0
131
0.0
112
0.0
122
1.0
132
0.0
 79
     0
146
0.0
  0
ENDTAB
  0
TABLE
  2
LTYPE
  5
5
330
0
100
AcDbSymbolTable
 70
     6
  0
LTYPE
  5
14
330
5
100
AcDbSymbolTableRecord
100
AcDbLinetypeTableRecord
  2
ByBlock
 70
     0
  3

 72
    65
 73
     0
 40
0.0
  0
LTYPE
  5
15
330
5
100
AcDbSymbolTableRecord
100
AcDbLinetypeTableRecord
  2
ByLayer
 70
     0
  3

 72
    65
 73
     0
 40
0.0
  0
LTYPE
  5
16
330
5
100
AcDbSymbolTableRecord
100
AcDbLinetypeTableRecord
  2
Continuous
 70
     0
  3
Solid line
 72
    65
 73
     0
 40
0.0
  0
LTYPE
  5
6A
330
5
100
AcDbSymbolTableRecord
100
AcDbLinetypeTableRecord
  2
HIDDEN
 70
     0
  3
Hidden __ __ __ __ __ __ __ __ __ __ __ __ __ __
 72
    65
 73
     2
 40
1.905
 49
1.27
 74
     0
 49
-0.635
 74
     0
  0
LTYPE
  5
6B
330
5
100
AcDbSymbolTableRecord
100
AcDbLinetypeTableRecord
  2
PHANTOM
 70
     0
  3
Phantom ______  __  __  ______  __  __  ______
 72
    65
 73
     6
 40
12.7
 49
6.35
 74
     0
 49
-1.27
 74
     0
 49
1.27
 74
     0
 49
-1.27
 74
     0
 49
1.27
 74
     0
 49
-1.27
 74
     0
  0
LTYPE
  5
6C
330
5
100
AcDbSymbolTableRecord
100
AcDbLinetypeTableRecord
  2
CENTER
 70
     0
  3
Center ____ _ ____ _ ____ _ ____ _ ____ _ ____
 72
    65
 73
     4
 40
10.16
 49
6.35
 74
     0
 49
-1.27
 74
     0
 49
1.27
 74
     0
 49
-1.27
 74
     0
  0
LTYPE
  5
6D
330
5
100
AcDbSymbolTableRecord
100
AcDbLinetypeTableRecord
  2
CENTERX2
 70
     0
  3
Center (2x) ________  __  ________  __  _____
 72
    65
 73
     4
 40
20.32
 49
12.7
 74
     0
 49
-2.54
 74
     0
 49
2.54
 74
     0
 49
-2.54
 74
     0
  0
LTYPE
  5
6E
330
5
100
AcDbSymbolTableRecord
100
AcDbLinetypeTableRecord
  2
DOT2
 70
     0
  3
Dot (.5x) ........................................
 72
    65
 73
     2
 40
0.635
 49
0.0
 74
     0
 49
-0.635
 74
     0
  0
ENDTAB
  0
TABLE
  2
LAYER
  5
2
330
0
100
AcDbSymbolTable
 70
    18
  0
LAYER
  5
10
330
2
100
AcDbSymbolTableRecord
100
AcDbLayerTableRecord
  2
0
 70
     0
 62
     7
  6
Continuous
370
    -3
390
F
  0
LAYER
  5
6F
330
2
100
AcDbSymbolTableRecord
100
AcDbLayerTableRecord
  2
FORMAT
 70
     0
 62
     2
  6
Continuous
370
    -3
390
F
  0
LAYER
  5
70
330
2
100
AcDbSymbolTableRecord
100
AcDbLayerTableRecord
  2
외형선
 70
     0
 62
     4
  6
Continuous
370
    30
390
F
  0
LAYER
  5
71
330
2
100
AcDbSymbolTableRecord
100
AcDbLayerTableRecord
  2
숨은선
 70
     0
 62
     2
  6
HIDDEN
370
    15
390
F
  0
LAYER
  5
72
330
2
100
AcDbSymbolTableRecord
100
AcDbLayerTableRecord
  2
중심선
 70
     0
 62
     1
  6
CENTERX2
370
    -3
390
F
  0
LAYER
  5
73
330
2
100
AcDbSymbolTableRecord
100
AcDbLayerTableRecord
  2
파단선
 70
     0
 62
     4
  6
Continuous
370
    -3
390
F
  0
LAYER
  5
74
330
2
100
AcDbSymbolTableRecord
100
AcDbLayerTableRecord
  2
해칭선
 70
     0
 62
   100
  6
Continuous
370
    -3
390
F
  0
LAYER
  5
75
330
2
100
AcDbSymbolTableRecord
100
AcDbLayerTableRecord
  2
가는실선
 70
     0
 62
     4
  6
Continuous
370
    -3
390
F
  0
LAYER
  5
76
330
2
100
AcDbSymbolTableRecord
100
AcDbLayerTableRecord
  2
치수_보조선
 70
     0
 62
     4
  6
Continuous
370
    -3
390
F
  0
LAYER
  5
77
330
2
100
AcDbSymbolTableRecord
100
AcDbLayerTableRecord
  2
치수문자_일반주서
 70
     0
 62
     7
  6
Continuous
370
    15
390
F
  0
LAYER
  5
78
330
2
100
AcDbSymbolTableRecord
100
AcDbLayerTableRecord
  2
개별주서
 70
     0
 62
   100
  6
Continuous
370
    30
390
F
  0
LAYER
  5
79
330
2
100
AcDbSymbolTableRecord
100
AcDbLayerTableRecord
  2
중간선
 70
     0
 62
     2
  6
Continuous
370
    15
390
F
  0
LAYER
  5
7A
330
2
100
AcDbSymbolTableRecord
100
AcDbLayerTableRecord
  2
윤곽선
 70
     0
 62
     3
  6
Continuous
370
    40
390
F
  0
LAYER
  5
7B
330
2
100
AcDbSymbolTableRecord
100
AcDbLayerTableRecord
  2
중심마크
 70
     0
 62
   100
  6
Continuous
370
    30
390
F
  0
LAYER
  5
7C
330
2
100
AcDbSymbolTableRecord
100
AcDbLayerTableRecord
  2
가상선
 70
     0
 62
     4
  6
PHANTOM
370
    -3
390
F
  0
LAYER
  5
7D
330
2
100
AcDbSymbolTableRecord
100
AcDbLayerTableRecord
  2
특수지정선
 70
     0
 62
     5
  6
CENTERX2
370
    60
390
F
  0
LAYER
  5
7E
330
2
100
AcDbSymbolTableRecord
100
AcDbLayerTableRecord
  2
참조1
 70
     0
 62
    -4
  6
Continuous
370
    -3
390
F
  0
LAYER
  5
1B7
330
2
100
AcDbSymbolTableRecord
100
AcDbLayerTableRecord
  2
Defpoints
 70
     0
 62
     7
  6
Continuous
290
     0
370
    -3
390
F
  0
ENDTAB
  0
TABLE
  2
STYLE
  5
3
330
0
100
AcDbSymbolTable
 70
     2
  0
STYLE
  5
11
330
3
100
AcDbSymbolTableRecord
100
AcDbTextStyleTableRecord
  2
Standard
 70
     0
 40
0.0
 41
1.0
 50
0.0
 71
     0
 42
3.5
  3
txt
  4

  0
STYLE
  5
94
330
3
100
AcDbSymbolTableRecord
100
AcDbTextStyleTableRecord
  2
SLDTEXTSTYLE0
 70
     0
 40
0.0
 41
0.75
 50
0.0
 71
     0
 42
3.5
  3
TXT
  4

  0
ENDTAB
  0
TABLE
  2
VIEW
  5
6
330
0
100
AcDbSymbolTable
 70
     0
  0
ENDTAB
  0
TABLE
  2
UCS
  5
7
330
0
100
AcDbSymbolTable
 70
     0
  0
ENDTAB
  0
TABLE
  2
APPID
  5
9
330
0
100
AcDbSymbolTable
 70
     1
  0
APPID
  5
12
330
9
100
AcDbSymbolTableRecord
100
AcDbRegAppTableRecord
  2
ACAD
 70
     0
  0
ENDTAB
  0
TABLE
  2
DIMSTYLE
  5
A
330
0
100
AcDbSymbolTable
 70
     3
100
AcDbDimStyleTable
  0
DIMSTYLE
105
27
330
A
100
AcDbSymbolTableRecord
100
AcDbDimStyleTableRecord
  2
ISO-25
 70
     0
 41
2.5
 42
0.625
 43
3.75
 44
1.25
 73
     0
 74
     0
 77
     1
 78
     8
140
2.5
141
2.5
143
0.03937007874016
147
0.625
171
     3
172
     1
178
     0
271
     2
272
     2
274
     3
278
    44
283
     0
284
     8
340
11
  0
DIMSTYLE
105
137
102
{ACAD_REACTORS
330
136
330
15E
330
172
102
}
330
A
100
AcDbSymbolTableRecord
100
AcDbDimStyleTableRecord
  2
SLDDIMSTYLE0
 70
     0
 41
3.302
 44
0.0
 45
0.000000001
 73
     0
 74
     0
 77
     1
 78
    12
 79
     3
140
3.5
143
0.0393700787401575
147
0.875
148
0.000000001
170
     1
173
     1
178
     0
271
     2
272
     2
276
     2
284
    12
340
94
  0
DIMSTYLE
105
14A
102
{ACAD_REACTORS
330
149
102
}
330
A
100
AcDbSymbolTableRecord
100
AcDbDimStyleTableRecord
  2
SLDDIMSTYLE1
 70
     0
 41
3.302
 44
0.0
 45
0.000000001
 73
     0
 74
     0
 77
     1
 78
    12
 79
     3
140
3.5
143
0.0393700787401575
147
0.875
148
0.000000001
170
     1
172
     1
173
     1
178
     0
271
     2
272
     2
276
     2
284
    12
289
     0
340
94
  0
ENDTAB
  0
TABLE
  2
BLOCK_RECORD
  5
1
330
0
100
AcDbSymbolTable
 70
     7
  0
BLOCK_RECORD
  5
1F
330
1
100
AcDbSymbolTableRecord
100
AcDbBlockTableRecord
  2
*Model_Space
340
22
  0
BLOCK_RECORD
  5
1B
330
1
100
AcDbSymbolTableRecord
100
AcDbBlockTableRecord
  2
*Paper_Space
340
1E
  0
BLOCK_RECORD
  5
23
330
1
100
AcDbSymbolTableRecord
100
AcDbBlockTableRecord
  2
*Paper_Space0
340
26
  0
BLOCK_RECORD
  5
7F
330
1
100
AcDbSymbolTableRecord
100
AcDbBlockTableRecord
  2
블럭10
340
0
102
{BLKREFS
331
12E
102
}
  0
BLOCK_RECORD
  5
138
330
1
100
AcDbSymbolTableRecord
100
AcDbBlockTableRecord
  2
_D
340
0
  0
BLOCK_RECORD
  5
14B
330
1
100
AcDbSymbolTableRecord
100
AcDbBlockTableRecord
  2
_D_1
340
0
  0
BLOCK_RECORD
  5
15F
330
1
100
AcDbSymbolTableRecord
100
AcDbBlockTableRecord
  2
_D_2
340
0
  0
BLOCK_RECORD
  5
173
330
1
100
AcDbSymbolTableRecord
100
AcDbBlockTableRecord
  2
_D_3
340
0
  0
BLOCK_RECORD
  5
18C
330
1
100
AcDbSymbolTableRecord
100
AcDbBlockTableRecord
  2
SW_DOWELSYMBOL_0
340
0
102
{BLKREFS
331
192
102
}
  0
ENDTAB
  0
ENDSEC
  0
SECTION
  2
BLOCKS
  0
BLOCK
  5
20
330
1F
100
AcDbEntity
  8
0
100
AcDbBlockBegin
  2
*Model_Space
 70
     0
 10
0.0
 20
0.0
 30
0.0
  3
*Model_Space
  1
*Model_Space
  0
ENDBLK
  5
21
330
1F
100
AcDbEntity
  8
0
100
AcDbBlockEnd
  0
BLOCK
  5
1C
330
1B
100
AcDbEntity
 67
     1
  8
0
100
AcDbBlockBegin
  2
*Paper_Space
 70
     0
 10
0.0
 20
0.0
 30
0.0
  3
*Paper_Space
  1
*Paper_Space
  0
ENDBLK
  5
1D
330
1B
100
AcDbEntity
 67
     1
  8
0
100
AcDbBlockEnd
  0
BLOCK
  5
24
330
23
100
AcDbEntity
  8
0
100
AcDbBlockBegin
  2
*Paper_Space0
 70
     0
 10
0.0
 20
0.0
 30
0.0
  3
*Paper_Space0
  1
*Paper_Space0
  0
ENDBLK
  5
25
330
23
100
AcDbEntity
  8
0
100
AcDbBlockEnd
  0
BLOCK
  5
80
330
7F
100
AcDbEntity
  8
0
100
AcDbBlockBegin
  2
블럭10
 70
     2
 10
0.0
 20
0.0
 30
0.0
  3
블럭10
  1
블럭10
  0
ELLIPSE
  5
82
330
7F
100
AcDbEntity
  8
중심선
100
AcDbEllipse
 10
20.54032771741204
 20
12.0471743016438
 30
0.0
 11
6.600054785286829
 21
-1.261213355974178E-13
 31
0.0
210
0.0
220
0.0
230
1.0
 40
0.636358354079598
 41
0.9219305317359503
 42
6.513795318482858
  0
ELLIPSE
  5
83
330
7F
100
AcDbEntity
  8
중심선
100
AcDbEllipse
 10
20.54032771746488
 20
12.04717430159265
 30
0.0
 11
3.960054785062283
 21
1.540847449632565E-10
 31
0.0
210
0.0
220
0.0
230
1.0
 40
0.3939339440162632
 41
1.131841032648279
 42
5.62031148352944
  0
LINE
  5
84
330
7F
100
AcDbEntity
  8
중심선
100
AcDbLine
 10
2.268634060543552
 20
16.24717430164393
 30
0.0
 11
5.714909304380834
 21
16.24717430164393
 31
0.0
  0
LINE
  5
85
330
7F
100
AcDbEntity
  8
중심선
100
AcDbLine
 10
5.245725140726316
 20
7.84717430164391
 30
0.0
 11
8.692000384563599
 21
7.84717430164391
 31
0.0
  0
LINE
  5
86
330
7F
100
AcDbEntity
  8
중심선
100
AcDbLine
 10
15.74043728645272
 20
16.24717430164393
 30
0.0
 11
8.692000384563599
 21
7.84717430164391
 31
0.0
  0
LINE
  5
87
330
7F
100
AcDbEntity
  8
중심선
100
AcDbLine
 10
0.1404042013395286
 20
13.71084872107135
 30
0.0
 11
3.58671253028996
 21
13.71088815037384
 31
0.0
  0
LINE
  5
88
330
7F
100
AcDbEntity
  8
중심선
100
AcDbLine
 10
2.750260043222114
 20
10.84717430164391
 30
0.0
 11
6.196535287059397
 21
10.84717430164391
 31
0.0
  0
LINE
  5
89
330
7F
100
AcDbEntity
  8
중심선
100
AcDbLine
 10
12.29416204261559
 20
16.24717430164393
 30
0.0
 11
5.245725140726316
 21
7.84717430164391
 31
0.0
  0
LINE
  5
8A
330
7F
100
AcDbEntity
  8
중심선
100
AcDbLine
 10
10.72767329541681
 20
16.24717430164393
 30
0.0
 11
6.196535287059397
 21
10.84717430164391
 31
0.0
  0
LINE
  5
8B
330
7F
100
AcDbEntity
  8
중심선
100
AcDbLine
 10
7.28139805157953
 20
16.24717430164393
 30
0.0
 11
2.750260043222114
 21
10.84717430164391
 31
0.0
  0
LINE
  5
8C
330
7F
100
AcDbEntity
  8
중심선
100
AcDbLine
 10
5.714909304380834
 20
16.24717430164393
 30
0.0
 11
3.58671253028996
 21
13.71088815037384
 31
0.0
  0
LINE
  5
8D
330
7F
100
AcDbEntity
  8
중심선
100
AcDbLine
 10
2.268634060543552
 20
16.24717430164393
 30
0.0
 11
0.1404042013395286
 21
13.71084872107135
 31
0.0
  0
LINE
  5
8E
330
7F
100
AcDbEntity
  8
중심선
100
AcDbLine
 10
7.28139805157953
 20
16.24717430164393
 30
0.0
 11
10.72767329541681
 21
16.24717430164393
 31
0.0
  0
LINE
  5
8F
330
7F
100
AcDbEntity
  8
중심선
100
AcDbLine
 10
12.29416204261559
 20
16.24717430164393
 30
0.0
 11
15.74043728645272
 21
16.24717430164393
 31
0.0
  0
LINE
  5
90
330
7F
100
AcDbEntity
  8
중심선
100
AcDbLine
 10
19.22036997980202
 20
11.08717430171403
 30
0.0
 11
23.66174974927406
 21
11.08717430171406
 31
0.0
  0
LINE
  5
91
330
7F
100
AcDbEntity
  8
중심선
100
AcDbLine
 10
19.22039502424796
 20
13.00717430171391
 30
0.0
 11
19.22036997980202
 21
11.08717430171403
 31
0.0
  0
LINE
  5
92
330
7F
100
AcDbEntity
  8
중심선
100
AcDbLine
 10
19.22039502424796
 20
13.00717430171391
 30
0.0
 11
26.96566020931264
 21
13.00717430171391
 31
0.0
  0
LINE
  5
93
330
7F
100
AcDbEntity
  8
중심선
100
AcDbLine
 10
22.22332737316547
 20
13.45928029700563
 30
0.0
 11
24.52862924686651
 21
15.39360700705356
 31
0.0
  0
ATTDEF
  5
95
330
7F
100
AcDbEntity
  8
FORMAT
 62
     2
100
AcDbText
 10
-9.522313950597932
 20
2.075366912832191
 30
0.0
 40
4.233333333333333
  1
EH094020 [ 3 FLUTE ]
 41
0.75
  7
SLDTEXTSTYLE0
 11
-9.522313950597932
 21
-0.0412997538344756
 31
0.0
100
AcDbAttributeDefinition
  3

  2
AUTOATTR0
 70
     0
 74
     1
  0
ENDBLK
  5
81
330
7F
100
AcDbEntity
  8
0
100
AcDbBlockEnd
  0
BLOCK
  5
139
330
138
100
AcDbEntity
  8
0
100
AcDbBlockBegin
  2
_D
 70
     0
 10
0.0
 20
0.0
 30
0.0
  3
_D
  1
_D
  0
LINE
  5
13B
330
138
100
AcDbEntity
  8
치수문자_일반주서
 62
     0
370
    -2
100
AcDbLine
 10
9.22124963607309
 20
3.968750000000009
 30
0.0
 11
45.47875968181993
 21
3.968750000000142
 31
0.0
  0
LINE
  5
13C
330
138
100
AcDbEntity
  8
치수문자_일반주서
 62
     0
370
    -2
100
AcDbLine
 10
15.58791546843771
 20
-3.968749999999996
 30
0.0
 11
45.47875968181996
 21
-3.968749999999883
 31
0.0
  0
LINE
  5
13D
330
138
100
AcDbEntity
  8
치수문자_일반주서
 62
     0
370
    -2
100
AcDbLine
 10
45.47875968181993
 20
3.968750000000142
 30
0.0
 11
45.47875968181981
 21
38.57275000000014
 31
0.0
  0
LINE
  5
13E
330
138
100
AcDbEntity
  8
치수문자_일반주서
 62
     0
370
    -2
100
AcDbLine
 10
45.47875968181992
 20
7.270750000000142
 30
0.0
 11
45.4787596818199
 21
10.57275000000014
 31
0.0
  0
LINE
  5
13F
330
138
100
AcDbEntity
  8
치수문자_일반주서
 62
     0
370
    -2
100
AcDbLine
 10
45.47875968181997
 20
-7.270749999999882
 30
0.0
 11
45.47875968181999
 21
-10.57274999999988
 31
0.0
  0
SOLID
  5
140
330
138
100
AcDbEntity
  8
치수문자_일반주서
 62
     0
100
AcDbTrace
 10
44.92842634848658
 20
7.27075000000014
 30
0.0
 11
46.02909301515325
 21
7.270750000000143
 31
0.0
 12
45.47875968181993
 22
3.968750000000142
 32
0.0
 13
45.47875968181993
 23
3.968750000000142
 33
0.0
  0
SOLID
  5
141
330
138
100
AcDbEntity
  8
치수문자_일반주서
 62
     0
100
AcDbTrace
 10
46.02909301515331
 20
-7.270749999999881
 30
0.0
 11
44.92842634848664
 21
-7.270749999999884
 31
0.0
 12
45.47875968181996
 22
-3.968749999999883
 32
0.0
 13
45.47875968181996
 23
-3.968749999999883
 33
0.0
  0
MTEXT
  5
142
330
138
100
AcDbEntity
  8
치수문자_일반주서
 62
     0
100
AcDbMText
 10
41.10375968181986
 20
24.57275000000012
 30
0.0
 40
3.5
 41
0.0
 71
     2
 72
     1
  1
\A1;%%c7.94 [5/16]
  7
SLDTEXTSTYLE0
 11
-3.580687802255610E-15
 21
1.0
 31
0.0
 73
     1
 44
1.0
  0
POINT
  5
143
330
138
100
AcDbEntity
  8
Defpoints
 62
     0
100
AcDbPoint
 10
9.15874963607309
 20
3.968750000000008
 30
0.0
  0
POINT
  5
144
330
138
100
AcDbEntity
  8
Defpoints
 62
     0
100
AcDbPoint
 10
15.52541546843771
 20
-3.968749999999997
 30
0.0
  0
POINT
  5
145
330
138
100
AcDbEntity
  8
Defpoints
 62
     0
100
AcDbPoint
 10
45.47875968181997
 20
-3.968749999999885
 30
0.0
  0
ENDBLK
  5
13A
330
138
100
AcDbEntity
  8
0
100
AcDbBlockEnd
  0
BLOCK
  5
14C
330
14B
100
AcDbEntity
  8
0
100
AcDbBlockBegin
  2
_D_1
 70
     0
 10
0.0
 20
0.0
 30
0.0
  3
_D_1
  1
_D_1
  0
LINE
  5
14E
330
14B
100
AcDbEntity
  8
치수문자_일반주서
 62
     0
370
    -2
100
AcDbLine
 10
-36.87750000000001
 20
3.968749999999996
 30
0.0
 11
-47.62500000000006
 21
3.968749999999957
 31
0.0
  0
LINE
  5
14F
330
14B
100
AcDbEntity
  8
치수문자_일반주서
 62
     0
370
    -2
100
AcDbLine
 10
-36.87750000000001
 20
-3.96874999999999
 30
0.0
 11
-47.62500000000003
 21
-3.968750000000029
 31
0.0
  0
LINE
  5
150
330
14B
100
AcDbEntity
  8
치수문자_일반주서
 62
     0
370
    -2
100
AcDbLine
 10
-47.62500000000004
 20
0.6667499999999578
 30
0.0
 11
-47.62500000000004
 21
-0.6667500000000297
 31
0.0
  0
SOLID
  5
151
330
14B
100
AcDbEntity
  8
치수문자_일반주서
 62
     0
100
AcDbTrace
 10
-47.07466666666671
 20
0.6667499999999598
 30
0.0
 11
-48.17533333333338
 21
0.6667499999999558
 31
0.0
 12
-47.62500000000006
 22
3.968749999999957
 32
0.0
 13
-47.62500000000006
 23
3.968749999999957
 33
0.0
  0
SOLID
  5
152
330
14B
100
AcDbEntity
  8
치수문자_일반주서
 62
     0
100
AcDbTrace
 10
-48.17533333333338
 20
-0.6667500000000317
 30
0.0
 11
-47.07466666666671
 21
-0.6667500000000277
 31
0.0
 12
-47.62500000000003
 22
-3.968750000000029
 32
0.0
 13
-47.62500000000003
 23
-3.968750000000029
 33
0.0
  0
MTEXT
  5
153
330
14B
100
AcDbEntity
  8
치수문자_일반주서
 62
     0
100
AcDbMText
 10
-52.00000000000004
 20
-0.6358402172629052
 30
0.0
 40
3.5
 41
0.0
 71
     2
 72
     1
  1
\A1;%%c7.94 [5/16]
  7
SLDTEXTSTYLE0
 11
-3.580687802255629E-15
 21
1.0
 31
0.0
 73
     1
 44
1.0
  0
POINT
  5
154
330
14B
100
AcDbEntity
  8
Defpoints
 62
     0
100
AcDbPoint
 10
-36.81500000000001
 20
3.968749999999996
 30
0.0
  0
POINT
  5
155
330
14B
100
AcDbEntity
  8
Defpoints
 62
     0
100
AcDbPoint
 10
-36.81500000000001
 20
-3.96874999999999
 30
0.0
  0
POINT
  5
156
330
14B
100
AcDbEntity
  8
Defpoints
 62
     0
100
AcDbPoint
 10
-47.62500000000003
 20
-3.96875000000003
 30
0.0
  0
ENDBLK
  5
14D
330
14B
100
AcDbEntity
  8
0
100
AcDbBlockEnd
  0
BLOCK
  5
160
330
15F
100
AcDbEntity
  8
0
100
AcDbBlockBegin
  2
_D_2
 70
     0
 10
0.0
 20
0.0
 30
0.0
  3
_D_2
  1
_D_2
  0
LINE
  5
162
330
15F
100
AcDbEntity
  8
치수문자_일반주서
 62
     0
370
    -2
100
AcDbLine
 10
19.52499999999998
 20
2.632281359493129
 30
0.0
 11
19.52499999999998
 21
19.75702418781196
 31
0.0
  0
LINE
  5
163
330
15F
100
AcDbEntity
  8
치수문자_일반주서
 62
     0
370
    -2
100
AcDbLine
 10
9.999999999999984
 20
4.0014610318214
 30
0.0
 11
9.999999999999984
 21
19.75702418781196
 31
0.0
  0
LINE
  5
164
330
15F
100
AcDbEntity
  8
치수문자_일반주서
 62
     0
370
    -2
100
AcDbLine
 10
9.999999999999984
 20
19.75702418781196
 30
0.0
 11
-16.92700000000001
 21
19.75702418781196
 31
0.0
  0
LINE
  5
165
330
15F
100
AcDbEntity
  8
치수문자_일반주서
 62
     0
370
    -2
100
AcDbLine
 10
16.22299999999998
 20
19.75702418781196
 30
0.0
 11
13.30199999999998
 21
19.75702418781196
 31
0.0
  0
SOLID
  5
166
330
15F
100
AcDbEntity
  8
치수문자_일반주서
 62
     0
100
AcDbTrace
 10
16.22299999999998
 20
19.20669085447862
 30
0.0
 11
16.22299999999998
 21
20.30735752114529
 31
0.0
 12
19.52499999999998
 22
19.75702418781196
 32
0.0
 13
19.52499999999998
 23
19.75702418781196
 33
0.0
  0
SOLID
  5
167
330
15F
100
AcDbEntity
  8
치수문자_일반주서
 62
     0
100
AcDbTrace
 10
13.30199999999998
 20
20.30735752114529
 30
0.0
 11
13.30199999999998
 21
19.20669085447862
 31
0.0
 12
9.999999999999984
 22
19.75702418781196
 32
0.0
 13
9.999999999999984
 23
19.75702418781196
 33
0.0
  0
MTEXT
  5
168
330
15F
100
AcDbEntity
  8
치수문자_일반주서
 62
     0
100
AcDbMText
 10
-5.114500000000016
 20
24.13202418781196
 30
0.0
 40
3.5
 41
0.0
 71
     2
 72
     1
  1
\A1;9.53 [3/8]
  7
SLDTEXTSTYLE0
 73
     1
 44
1.0
  0
POINT
  5
169
330
15F
100
AcDbEntity
  8
Defpoints
 62
     0
100
AcDbPoint
 10
19.52499999999998
 20
2.569781359493129
 30
0.0
  0
POINT
  5
16A
330
15F
100
AcDbEntity
  8
Defpoints
 62
     0
100
AcDbPoint
 10
9.999999999999984
 20
3.938961031821399
 30
0.0
  0
POINT
  5
16B
330
15F
100
AcDbEntity
  8
Defpoints
 62
     0
100
AcDbPoint
 10
9.999999999999984
 20
19.75702418781196
 30
0.0
  0
ENDBLK
  5
161
330
15F
100
AcDbEntity
  8
0
100
AcDbBlockEnd
  0
BLOCK
  5
174
330
173
100
AcDbEntity
  8
0
100
AcDbBlockBegin
  2
_D_3
 70
     0
 10
0.0
 20
0.0
 30
0.0
  3
_D_3
  1
_D_3
  0
LINE
  5
176
330
173
100
AcDbEntity
  8
치수문자_일반주서
 62
     0
370
    -2
100
AcDbLine
 10
19.52499999999998
 20
2.889190178507683
 30
0.0
 11
19.52499999999998
 21
36.82407034213167
 31
0.0
  0
LINE
  5
177
330
173
100
AcDbEntity
  8
치수문자_일반주서
 62
     0
370
    -2
100
AcDbLine
 10
-37.62500000000002
 20
3.221249999999997
 30
0.0
 11
-37.62500000000002
 21
36.82407034213167
 31
0.0
  0
LINE
  5
178
330
173
100
AcDbEntity
  8
치수문자_일반주서
 62
     0
370
    -2
100
AcDbLine
 10
16.22299999999998
 20
36.82407034213167
 30
0.0
 11
-34.32300000000002
 21
36.82407034213167
 31
0.0
  0
SOLID
  5
179
330
173
100
AcDbEntity
  8
치수문자_일반주서
 62
     0
100
AcDbTrace
 10
16.22299999999998
 20
36.27373700879834
 30
0.0
 11
16.22299999999998
 21
37.374403675465
 31
0.0
 12
19.52499999999998
 22
36.82407034213167
 32
0.0
 13
19.52499999999998
 23
36.82407034213167
 33
0.0
  0
SOLID
  5
17A
330
173
100
AcDbEntity
  8
치수문자_일반주서
 62
     0
100
AcDbTrace
 10
-34.32300000000002
 20
37.374403675465
 30
0.0
 11
-34.32300000000002
 21
36.27373700879834
 31
0.0
 12
-37.62500000000002
 22
36.82407034213167
 32
0.0
 13
-37.62500000000002
 23
36.82407034213167
 33
0.0
  0
MTEXT
  5
17B
330
173
100
AcDbEntity
  8
치수문자_일반주서
 62
     0
100
AcDbMText
 10
-6.551341946872259
 20
41.19907034213167
 30
0.0
 40
3.5
 41
0.0
 71
     2
 72
     1
  1
\A1;57.15 [2 1/4]
  7
SLDTEXTSTYLE0
 73
     1
 44
1.0
  0
POINT
  5
17C
330
173
100
AcDbEntity
  8
Defpoints
 62
     0
100
AcDbPoint
 10
19.52499999999998
 20
2.826690178507683
 30
0.0
  0
POINT
  5
17D
330
173
100
AcDbEntity
  8
Defpoints
 62
     0
100
AcDbPoint
 10
-37.62500000000002
 20
3.158749999999997
 30
0.0
  0
POINT
  5
17E
330
173
100
AcDbEntity
  8
Defpoints
 62
     0
100
AcDbPoint
 10
-37.62500000000002
 20
36.82407034213167
 30
0.0
  0
ENDBLK
  5
175
330
173
100
AcDbEntity
  8
0
100
AcDbBlockEnd
  0
BLOCK
  5
18D
330
18C
100
AcDbEntity
  8
0
100
AcDbBlockBegin
  2
SW_DOWELSYMBOL_0
 70
     0
 10
0.0
 20
0.0
 30
0.0
  3
SW_DOWELSYMBOL_0
  1
SW_DOWELSYMBOL_0
  0
CIRCLE
  5
18F
330
18C
100
AcDbEntity
  8
해칭선
 62
     0
100
AcDbCircle
 10
0.0
 20
0.0
 30
0.0
 40
3.000000000000004
  0
HATCH
  5
190
330
18C
100
AcDbEntity
  8
0
  6
Continuous
 62
     0
370
     0
100
AcDbHatch
 10
0.0
 20
0.0
 30
0.0
210
0.0
220
0.0
230
1.0
  2
SOLID
 70
     1
 71
     0
 91
        1
 92
        0
 93
        3
 72
     2
 10
0.0000000000000104
 20
-0.0000000000000035
 40
3.000000000000004
 50
0.0
 51
90.0
 73
     1
 72
     1
 10
0.0000000000000104
 20
3.000000000000001
 11
0.0000000000000104
 21
-0.0000000000000036
 72
     1
 10
0.0000000000000104
 20
-0.0000000000000035
 11
3.000000000000015
 21
-0.0000000000000035
 97
        0
 75
     0
 76
     1
 98
        1
 10
0.0
 20
0.0
  0
HATCH
  5
191
330
18C
100
AcDbEntity
  8
0
  6
Continuous
 62
     0
370
     0
100
AcDbHatch
 10
0.0
 20
0.0
 30
0.0
210
0.0
220
0.0
230
1.0
  2
SOLID
 70
     1
 71
     0
 91
        1
 92
        0
 93
        3
 72
     2
 10
0.0000000000000104
 20
-0.0000000000000035
 40
3.000000000000004
 50
180.0
 51
270.0000000000008
 73
     1
 72
     1
 10
0.0000000000000104
 20
-3.000000000000008
 11
0.0000000000000104
 21
-0.0000000000000036
 72
     1
 10
0.0000000000000104
 20
-0.0000000000000035
 11
-2.999999999999994
 21
-0.0000000000000035
 97
        0
 75
     0
 76
     1
 98
        1
 10
0.0
 20
0.0
  0
ENDBLK
  5
18E
330
18C
100
AcDbEntity
  8
0
100
AcDbBlockEnd
  0
ENDSEC
  0
SECTION
  2
ENTITIES
  0
LINE
  5
96
330
1F
100
AcDbEntity
  8
외형선
  6
Continuous
370
    15
100
AcDbLine
 10
9.158741458574385
 20
3.968750000000003
 30
0.0
 11
-36.81500000000001
 21
3.968749999999998
 31
0.0
  0
LINE
  5
97
330
1F
100
AcDbEntity
  8
외형선
  6
Continuous
370
    15
100
AcDbLine
 10
-36.81500000000001
 20
-3.968750000000002
 30
0.0
 11
6.979943483703315
 21
-3.968749999999997
 31
0.0
  0
LINE
  5
98
330
1F
100
AcDbEntity
  8
외형선
  6
Continuous
370
    15
100
AcDbLine
 10
-36.81500000000001
 20
3.968749999999996
 30
0.0
 11
-37.62500000000002
 21
3.158749999999998
 31
0.0
  0
LINE
  5
99
330
1F
100
AcDbEntity
  8
외형선
  6
Continuous
370
    15
100
AcDbLine
 10
-37.62500000000002
 20
-3.158750000000002
 30
0.0
 11
-36.81500000000001
 21
-3.968750000000002
 31
0.0
  0
LINE
  5
9A
330
1F
100
AcDbEntity
  8
외형선
  6
Continuous
 62
     1
370
    15
100
AcDbLine
 10
11.89550063699271
 20
-3.968749999999997
 30
0.0
 11
12.06251434197448
 21
-3.968749999999997
 31
0.0
  0
SPLINE
  5
9B
330
1F
100
AcDbEntity
  8
외형선
  6
Continuous
 62
     1
370
    15
100
AcDbSpline
210
0.0
220
0.0
230
1.0
 70
     8
 71
     3
 72
     9
 73
     5
 74
     0
 42
0.000000001
 43
0.00000001
 40
0.0
 40
0.0
 40
0.0
 40
0.0
 40
0.5705591594681548
 40
1.0
 40
1.0
 40
1.0
 40
1.0
 10
12.04401614303225
 20
-3.962153599704952
 30
0.0
 10
12.0694585750916
 20
-3.96459750637526
 30
0.0
 10
12.11405067678193
 20
-3.968880860046396
 30
0.0
 10
12.15672750294796
 20
-3.950277556145982
 30
0.0
 10
12.17505467504793
 20
-3.942288537682319
 30
0.0
  0
SPLINE
  5
9C
330
1F
100
AcDbEntity
  8
외형선
  6
Continuous
 62
     1
370
    15
100
AcDbSpline
210
0.0
220
0.0
230
1.0
 70
     8
 71
     3
 72
    11
 73
     7
 74
     0
 42
0.000000001
 43
0.00000001
 40
0.0
 40
0.0
 40
0.0
 40
0.0
 40
0.244591275356311
 40
0.4999546294817879
 40
0.7553359222777926
 40
1.0
 40
1.0
 40
1.0
 40
1.0
 10
12.2214778669272
 20
-3.915017018228348
 30
0.0
 10
12.26485855147169
 20
-3.885967308597778
 30
0.0
 10
12.35353045539186
 20
-3.826588506987833
 30
0.0
 10
12.51837268929705
 20
-3.79896189574557
 30
0.0
 10
12.68320889379256
 20
-3.823525984832997
 30
0.0
 10
12.77181959394401
 20
-3.880588936693278
 30
0.0
 10
12.81517537025368
 20
-3.90850891218377
 30
0.0
  0
SPLINE
  5
9D
330
1F
100
AcDbEntity
  8
외형선
  6
Continuous
 62
     1
370
    15
100
AcDbSpline
210
0.0
220
0.0
230
1.0
 70
     8
 71
     3
 72
     9
 73
     5
 74
     0
 42
0.000000001
 43
0.00000001
 40
0.0
 40
0.0
 40
0.0
 40
0.0
 40
0.4982989359334284
 40
1.0
 40
1.0
 40
1.0
 40
1.0
 10
12.81697846272077
 20
-3.90974762535968
 30
0.0
 10
12.84328159419312
 20
-3.92669861992873
 30
0.0
 10
12.8960674413535
 20
-3.960716341715148
 30
0.0
 10
12.95719118702196
 20
-3.966058432592164
 30
0.0
 10
12.98785703526357
 20
-3.968738565269503
 30
0.0
  0
LINE
  5
9E
330
1F
100
AcDbEntity
  8
외형선
  6
Continuous
 62
     1
370
    15
100
AcDbLine
 10
12.9886099578287
 20
-3.968749999999997
 30
0.0
 11
14.06211243156595
 21
-3.968749999999997
 31
0.0
  0
SPLINE
  5
9F
330
1F
100
AcDbEntity
  8
외형선
  6
Continuous
 62
     1
370
    15
100
AcDbSpline
210
0.0
220
0.0
230
1.0
 70
     8
 71
     3
 72
     9
 73
     5
 74
     0
 42
0.000000001
 43
0.00000001
 40
0.0
 40
0.0
 40
0.0
 40
0.0
 40
0.5025545319793375
 40
1.0
 40
1.0
 40
1.0
 40
1.0
 10
14.06255389255262
 20
-3.968749999399323
 30
0.0
 10
14.09386022355003
 20
-3.966047474838549
 30
0.0
 10
14.15615461949173
 20
-3.960669900090331
 30
0.0
 10
14.21030235036589
 20
-3.925132868664622
 30
0.0
 10
14.23723789369284
 20
-3.907455133434995
 30
0.0
  0
SPLINE
  5
A0
330
1F
100
AcDbEntity
  8
외형선
  6
Continuous
 62
     1
370
    15
100
AcDbSpline
210
0.0
220
0.0
230
1.0
 70
     8
 71
     3
 72
    11
 73
     7
 74
     0
 42
0.000000001
 43
0.00000001
 40
0.0
 40
0.0
 40
0.0
 40
0.0
 40
0.283684715186709
 40
0.5495889420929182
 40
0.7891444827776147
 40
1.0
 40
1.0
 40
1.0
 40
1.0
 10
14.23713522957876
 20
-3.90753576656573
 30
0.0
 10
14.28806895961635
 20
-3.876061115262834
 30
0.0
 10
14.38674404963584
 20
-3.815084547311625
 30
0.0
 10
14.56185086034653
 20
-3.801373156908054
 30
0.0
 10
14.70924612810212
 20
-3.837572208663566
 30
0.0
 10
14.77776846572381
 20
-3.882912569956439
 30
0.0
 10
14.80984652572447
 20
-3.904138215205653
 30
0.0
  0
SPLINE
  5
A1
330
1F
100
AcDbEntity
  8
외형선
  6
Continuous
 62
     1
370
    15
100
AcDbSpline
210
0.0
220
0.0
230
1.0
 70
     8
 71
     3
 72
     9
 73
     5
 74
     0
 42
0.000000001
 43
0.00000001
 40
0.0
 40
0.0
 40
0.0
 40
0.0
 40
0.498278249658228
 40
1.0
 40
1.0
 40
1.0
 40
1.0
 10
14.8141622150366
 20
-3.907759535480891
 30
0.0
 10
14.84048763224633
 20
-3.925010483443792
 30
0.0
 10
14.89332039632501
 20
-3.959631597198472
 30
0.0
 10
14.95448578181625
 20
-3.965550400540052
 30
0.0
 10
14.98517378608525
 20
-3.968519992912519
 30
0.0
  0
LINE
  5
A2
330
1F
100
AcDbEntity
  8
외형선
  6
Continuous
 62
     1
370
    15
100
AcDbLine
 10
14.98852875664925
 20
-3.968749999999997
 30
0.0
 11
16.06230218022616
 21
-3.968749999999997
 31
0.0
  0
LINE
  5
A3
330
1F
100
AcDbEntity
  8
외형선
  6
Continuous
 62
     1
370
    15
100
AcDbLine
 10
19.52499999999998
 20
2.868749999999996
 30
0.0
 11
18.9133164128801
 21
3.480433587119882
 31
0.0
  0
SPLINE
  5
A4
330
1F
100
AcDbEntity
  8
외형선
  6
Continuous
 62
     1
370
    15
100
AcDbSpline
210
0.0
220
0.0
230
1.0
 70
     8
 71
     3
 72
     9
 73
     5
 74
     0
 42
0.000000001
 43
0.00000001
 40
0.0
 40
0.0
 40
0.0
 40
0.0
 40
0.5016518073706835
 40
0.9999999999999999
 40
0.9999999999999999
 40
0.9999999999999999
 40
0.9999999999999999
 10
16.0820075817364
 20
-3.961371377459356
 30
0.0
 10
16.11150724692025
 20
-3.95771668950919
 30
0.0
 10
16.17031230802124
 20
-3.950431381459923
 30
0.0
 10
16.22068049433557
 20
-3.916293537330399
 30
0.0
 10
16.24578138895134
 20
-3.89928100440819
 30
0.0
  0
LINE
  5
A5
330
1F
100
AcDbEntity
  8
외형선
  6
Continuous
 62
     1
370
    15
100
AcDbLine
 10
16.4909349522554
 20
-3.817265454415428
 30
0.0
 11
16.52376888916329
 21
-3.820173160057869
 31
0.0
  0
LINE
  5
A6
330
1F
100
AcDbEntity
  8
외형선
  6
Continuous
370
    15
100
AcDbLine
 10
9.99999999999998
 20
3.938961031809728
 30
0.0
 11
9.158741458574385
 21
3.968667727738678
 31
0.0
  0
LINE
  5
A7
330
1F
100
AcDbEntity
  8
외형선
  6
Continuous
370
    15
100
AcDbLine
 10
9.99999999999998
 20
3.93896103180954
 30
0.0
 11
9.999999999999984
 21
2.844988987270042
 31
0.0
  0
SPLINE
  5
A8
330
1F
100
AcDbEntity
  8
외형선
  6
Continuous
370
    15
100
AcDbSpline
210
0.0
220
0.0
230
1.0
 70
     8
 71
     3
 72
    14
 73
    10
 74
     0
 42
0.000000001
 43
0.00000001
 40
0.0
 40
0.0
 40
0.0
 40
0.0
 40
0.25
 40
0.25
 40
0.5
 40
0.5
 40
0.75
 40
0.75
 40
1.0
 40
1.0
 40
1.0
 40
1.0
 10
9.999999999999984
 20
2.844988987270042
 30
0.0
 10
9.747943317663303
 20
2.946367828544624
 30
0.0
 10
9.498630722451567
 20
3.041670209133481
 30
0.0
 10
8.99547062491443
 20
3.220261525436937
 30
0.0
 10
8.742320088281824
 20
3.303427532078219
 30
0.0
 10
8.237451870705883
 20
3.455952670636698
 30
0.0
 10
7.9871882649926
 20
3.525194404102012
 30
0.0
 10
7.485459273249183
 20
3.649396960502405
 30
0.0
 10
7.232572838178186
 20
3.704443109071841
 30
0.0
 10
6.979943483703312
 20
3.751885522363724
 30
0.0
  0
SPLINE
  5
A9
330
1F
100
AcDbEntity
  8
외형선
  6
Continuous
370
    15
100
AcDbSpline
210
0.0
220
0.0
230
1.0
 70
     8
 71
     3
 72
    14
 73
    10
 74
     0
 42
0.000000001
 43
0.00000001
 40
0.0
 40
0.0
 40
0.0
 40
0.0
 40
0.2500000000000001
 40
0.2500000000000001
 40
0.5
 40
0.5
 40
0.75
 40
0.75
 40
1.0
 40
1.0
 40
1.0
 40
1.0
 10
9.999999999999984
 20
-2.389804098741202
 30
0.0
 10
9.747943317663303
 20
-2.273717949141441
 30
0.0
 10
9.498630722451571
 20
-2.153257993899522
 30
0.0
 10
8.99547062491443
 20
-1.903459741535698
 30
0.0
 10
8.74232008828182
 20
-1.774210385376504
 30
0.0
 10
8.237451870705879
 20
-1.509322437694155
 30
0.0
 10
7.9871882649926
 20
-1.373955246226183
 30
0.0
 10
7.485459273249179
 20
-1.098048835679846
 30
0.0
 10
7.232572838178186
 20
-0.9572375719200126
 30
0.0
 10
6.979943483703315
 20
-0.8148251051453453
 30
0.0
  0
LINE
  5
AA
330
1F
100
AcDbEntity
  8
외형선
  6
Continuous
370
    15
100
AcDbLine
 10
9.999999999999984
 20
-2.389804098741199
 30
0.0
 11
9.99999999999998
 21
-3.818900274926901
 31
0.0
  0
SPLINE
  5
AB
330
1F
100
AcDbEntity
  8
외형선
  6
Continuous
370
    15
100
AcDbSpline
210
0.0
220
0.0
230
1.0
 70
     8
 71
     3
 72
    14
 73
    10
 74
     0
 42
0.000000001
 43
0.00000001
 40
0.0
 40
0.0
 40
0.0
 40
0.0
 40
0.2500000000000001
 40
0.2500000000000001
 40
0.5000000000000001
 40
0.5000000000000001
 40
0.75
 40
0.75
 40
1.0
 40
1.0
 40
1.0
 40
1.0
 10
9.999999999999984
 20
-3.818900274926903
 30
0.0
 10
9.747943317663307
 20
-3.779322735387829
 30
0.0
 10
9.498630722451571
 20
-3.732226198732285
 30
0.0
 10
8.99547062491443
 20
-3.622965976551235
 30
0.0
 10
8.742320088281824
 20
-3.560805047864506
 30
0.0
 10
8.237451870705883
 20
-3.422496317747102
 30
0.0
 10
7.9871882649926
 20
-3.346513905259052
 30
0.0
 10
7.485459273249183
 20
-3.181335934121028
 30
0.0
 10
7.232572838178186
 20
-3.091954888012424
 30
0.0
 10
6.979943483703312
 20
-2.996544694155011
 30
0.0
  0
LINE
  5
AC
330
1F
100
AcDbEntity
  8
외형선
  6
Continuous
370
    15
100
AcDbLine
 10
6.979943483703315
 20
-2.996521124615231
 30
0.0
 11
6.979943483703315
 21
-3.968749999999997
 31
0.0
  0
LINE
  5
AD
330
1F
100
AcDbEntity
  8
외형선
  6
Continuous
370
    15
100
AcDbLine
 10
-36.81500000000001
 20
3.968749999999997
 30
0.0
 11
-36.81500000000001
 21
-3.968750000000006
 31
0.0
  0
LINE
  5
AE
330
1F
100
AcDbEntity
  8
외형선
  6
Continuous
370
    15
100
AcDbLine
 10
6.979943483703312
 20
3.751897242026873
 30
0.0
 11
6.979943483703315
 21
-0.8148230180230419
 31
0.0
  0
LINE
  5
AF
330
1F
100
AcDbEntity
  8
외형선
  6
Continuous
370
    15
100
AcDbLine
 10
-37.62500000000002
 20
3.158749999999997
 30
0.0
 11
-37.62500000000002
 21
-3.158750000000002
 31
0.0
  0
SPLINE
  5
B0
330
1F
100
AcDbEntity
  8
외형선
  6
Continuous
370
    15
100
AcDbSpline
210
0.0
220
0.0
230
1.0
 70
    24
 71
     3
 72
    16
 73
    12
 74
     0
 42
0.000000001
 43
0.00000001
 40
0.0
 40
0.0
 40
0.0
 40
0.0
 40
0.25
 40
0.25
 40
0.5
 40
0.5
 40
0.75
 40
0.75
 40
0.875
 40
0.875
 40
1.0
 40
1.0
 40
1.0
 40
1.0
 10
9.999999999999984
 20
2.844988987270042
 30
0.0
 10
9.999999999999984
 20
2.590254124937202
 30
0.0
 10
9.999999999999984
 20
2.28262810563907
 30
0.0
 10
9.999999999999984
 20
1.541434778592316
 30
0.0
 10
9.999999999999984
 20
1.106161506642807
 30
0.0
 10
9.999999999999984
 20
0.1348894998861919
 30
0.0
 10
9.999999999999984
 20
-0.4017915104384377
 30
0.0
 10
9.999999999999984
 20
-1.193177396710018
 30
0.0
 10
9.999999999999984
 20
-1.453846373770372
 30
0.0
 10
9.999999999999984
 20
-1.94767805348461
 30
0.0
 10
9.999999999999984
 20
-2.180658026538588
 30
0.0
 10
9.999999999999984
 20
-2.389804098749596
 30
0.0
  0
SPLINE
  5
B1
330
1F
100
AcDbEntity
  8
외형선
  6
Continuous
 62
     1
370
    15
100
AcDbSpline
210
0.0
220
0.0
230
1.0
 70
     8
 71
     3
 72
    10
 73
     6
 74
     0
 42
0.000000001
 43
0.00000001
 40
0.0
 40
0.0
 40
0.0
 40
0.0
 40
0.5
 40
0.5
 40
1.0
 40
1.0
 40
1.0
 40
1.0
 10
18.42499999999998
 20
0.8761662239346709
 30
0.0
 10
18.60315996031544
 20
0.7585713150498895
 30
0.0
 10
18.78303369165243
 20
0.664580260902747
 30
0.0
 10
19.15026653307665
 20
0.5309530558738085
 30
0.0
 10
19.33884613913137
 20
0.4913039234323548
 30
0.0
 10
19.52499999999998
 20
0.4894376336451784
 30
0.0
  0
LINE
  5
B2
330
1F
100
AcDbEntity
  8
외형선
  6
Continuous
 62
     1
370
    15
100
AcDbLine
 10
19.52499999999998
 20
0.4894376336451777
 30
0.0
 11
19.52499999999998
 21
-1.837210513558701
 31
0.0
  0
SPLINE
  5
B3
330
1F
100
AcDbEntity
  8
외형선
  6
Continuous
 62
     1
370
    15
100
AcDbSpline
210
0.0
220
0.0
230
1.0
 70
     8
 71
     3
 72
     8
 73
     4
 74
     0
 42
0.000000001
 43
0.00000001
 40
0.0
 40
0.0
 40
0.0
 40
0.0
 40
1.0
 40
1.0
 40
1.0
 40
1.0
 10
19.52499999999998
 20
-1.837210513558702
 30
0.0
 10
19.1937550101885
 20
-1.79450631873894
 30
0.0
 10
18.83810973890523
 20
-1.732904847593848
 30
0.0
 10
18.47555913437673
 20
-1.652511281009744
 30
0.0
  0
SPLINE
  5
B4
330
1F
100
AcDbEntity
  8
외형선
  6
Continuous
 62
     1
370
    15
100
AcDbSpline
210
0.0
220
0.0
230
1.0
 70
     8
 71
     3
 72
    14
 73
    10
 74
     0
 42
0.000000001
 43
0.00000001
 40
0.0
 40
0.0
 40
0.0
 40
0.0
 40
0.25
 40
0.25
 40
0.5
 40
0.5
 40
0.75
 40
0.75
 40
1.0
 40
1.0
 40
1.0
 40
1.0
 10
18.42500044649988
 20
0.7805678593773832
 30
0.0
 10
18.42503171119367
 20
0.5745664665457159
 30
0.0
 10
18.42660276413757
 20
0.3647251003210735
 30
0.0
 10
18.43179713058412
 20
-0.0510669109853357
 30
0.0
 10
18.43544683580742
 20
-0.2578446015478281
 30
0.0
 10
18.44447387126797
 20
-0.669203152685226
 30
0.0
 10
18.4499086508501
 20
-0.8752135892158805
 30
0.0
 10
18.46200367420309
 20
-1.272982856700076
 30
0.0
 10
18.46867845996615
 20
-1.465824898065115
 30
0.0
 10
18.47588811509281
 20
-1.652584226098248
 30
0.0
  0
LWPOLYLINE
  5
B5
330
1F
100
AcDbEntity
  8
외형선
  6
Continuous
 62
     1
370
    15
100
AcDbPolyline
 90
        9
 70
   128
 43
0.0
 10
18.42500044649879
 20
0.7805678593773443
 10
18.42500044649667
 20
0.7925447312536206
 10
18.42500044649032
 20
0.8045140902641795
 10
18.42500044647974
 20
0.8164758229464203
 10
18.42500044646492
 20
0.8284298159100344
 10
18.42500044644588
 20
0.8403759558380813
 10
18.4250004464226
 20
0.8523141294880637
 10
18.42500044639509
 20
0.8642442236929987
 10
18.42499999999998
 20
0.8761662239346694
  0
SPLINE
  5
B6
330
1F
100
AcDbEntity
  8
외형선
  6
Continuous
 62
     1
370
    15
100
AcDbSpline
210
0.0
220
0.0
230
1.0
 70
     8
 71
     3
 72
     8
 73
     4
 74
     0
 42
0.000000001
 43
0.00000001
 40
0.0
 40
0.0
 40
0.0
 40
0.0
 40
1.0
 40
1.0
 40
1.0
 40
1.0
 10
18.25501693671989
 20
0.9653190366947942
 30
0.0
 10
18.30243366107141
 20
0.9429997242612108
 30
0.0
 10
18.35922156441843
 20
0.9131373956106811
 30
0.0
 10
18.41738933552027
 20
0.8804442359216408
 30
0.0
  0
SPLINE
  5
B7
330
1F
100
AcDbEntity
  8
외형선
  6
Continuous
 62
     1
370
    15
100
AcDbSpline
210
0.0
220
0.0
230
1.0
 70
     8
 71
     3
 72
    12
 73
     8
 74
     0
 42
0.000000001
 43
0.00000001
 40
0.0
 40
0.0
 40
0.0
 40
0.0
 40
0.5
 40
0.5
 40
0.75
 40
0.75
 40
1.0
 40
1.0
 40
1.0
 40
1.0
 10
18.47268928034592
 20
-1.651197980740419
 30
0.0
 10
18.43731861012392
 20
-1.249571222655625
 30
0.0
 10
18.39950224709604
 20
-0.8062615148836607
 30
0.0
 10
18.34393165260988
 20
-0.1344127847942837
 30
0.0
 10
18.32561117550482
 20
0.0904815282176583
 30
0.0
 10
18.29014770136768
 20
0.5324005334234918
 30
0.0
 10
18.27305722895127
 20
0.7492717854591412
 30
0.0
 10
18.2550169367215
 20
0.9653190366730665
 30
0.0
  0
SPLINE
  5
B8
330
1F
100
AcDbEntity
  8
외형선
  6
Continuous
 62
     1
370
    15
100
AcDbSpline
210
0.0
220
0.0
230
1.0
 70
     8
 71
     3
 72
     8
 73
     4
 74
     0
 42
0.000000001
 43
0.00000001
 40
0.0
 40
0.0
 40
0.0
 40
0.0
 40
1.0
 40
1.0
 40
1.0
 40
1.0
 10
17.82542526043852
 20
-1.308706071750084
 30
0.0
 10
17.77796273135635
 20
-1.290184262953148
 30
0.0
 10
17.72113418286472
 20
-1.262662384256432
 30
0.0
 10
17.66291960493154
 20
-1.230652634215587
 30
0.0
  0
SPLINE
  5
B9
330
1F
100
AcDbEntity
  8
외형선
  6
Continuous
 62
     1
370
    15
100
AcDbSpline
210
0.0
220
0.0
230
1.0
 70
     8
 71
     3
 72
    12
 73
     8
 74
     0
 42
0.000000001
 43
0.00000001
 40
0.0
 40
0.0
 40
0.0
 40
0.0
 40
0.5000000000000001
 40
0.5000000000000001
 40
0.7500000000000002
 40
0.7500000000000002
 40
1.0
 40
1.0
 40
1.0
 40
1.0
 10
17.66291924074184
 20
-1.230648345503365
 30
0.0
 10
17.62647426163943
 20
-0.8014695991923151
 30
0.0
 10
17.58870799011312
 20
-0.3428329899195385
 30
0.0
 10
17.53488868161778
 20
0.3305691275383185
 30
0.0
 10
17.51788087521194
 20
0.5506466203798106
 30
0.0
 10
17.4827145693857
 20
0.9883077687446756
 30
0.0
 10
17.46454115412983
 20
1.205894936226981
 30
0.0
 10
17.44615385929414
 20
1.417357449574856
 30
0.0
  0
SPLINE
  5
BA
330
1F
100
AcDbEntity
  8
외형선
  6
Continuous
 62
     1
370
    15
100
AcDbSpline
210
0.0
220
0.0
230
1.0
 70
     8
 71
     3
 72
     8
 73
     4
 74
     0
 42
0.000000001
 43
0.00000001
 40
0.0
 40
0.0
 40
0.0
 40
0.0
 40
1.0
 40
1.0
 40
1.0
 40
1.0
 10
17.44615404713713
 20
1.417355289298052
 30
0.0
 10
17.5021363931977
 20
1.387184483580095
 30
0.0
 10
17.55901514510393
 20
1.352225522446701
 30
0.0
 10
17.6074735351336
 20
1.318766372219786
 30
0.0
  0
SPLINE
  5
BB
330
1F
100
AcDbEntity
  8
외형선
  6
Continuous
 62
     1
370
    15
100
AcDbSpline
210
0.0
220
0.0
230
1.0
 70
     8
 71
     3
 72
    12
 73
     8
 74
     0
 42
0.000000001
 43
0.00000001
 40
0.0
 40
0.0
 40
0.0
 40
0.0
 40
0.5
 40
0.5
 40
0.75
 40
0.75
 40
1.0
 40
1.0
 40
1.0
 40
1.0
 10
17.82542517392018
 20
-1.308705071345534
 30
0.0
 10
17.78898602709623
 20
-0.8873621634471055
 30
0.0
 10
17.75096598408861
 20
-0.4338616342205101
 30
0.0
 10
17.69647034045852
 20
0.2360524194109638
 30
0.0
 10
17.67911827020143
 20
0.4559423733177566
 30
0.0
 10
17.64407273012151
 20
0.8907006437865969
 30
0.0
 10
17.625907097796
 20
1.107481471631949
 30
0.0
 10
17.60747353513432
 20
1.318766372219558
 30
0.0
  0
SPLINE
  5
BC
330
1F
100
AcDbEntity
  8
외형선
  6
Continuous
 62
     1
370
    15
100
AcDbSpline
210
0.0
220
0.0
230
1.0
 70
     8
 71
     3
 72
    10
 73
     6
 74
     0
 42
0.000000001
 43
0.00000001
 40
0.0
 40
0.0
 40
0.0
 40
0.0
 40
0.5
 40
0.5
 40
1.0
 40
1.0
 40
1.0
 40
1.0
 10
18.47259877757083
 20
-1.650170310681621
 30
0.0
 10
18.37395261082381
 20
-1.577465104072115
 30
0.0
 10
18.25691921098388
 20
-1.511348001397476
 30
0.0
 10
18.02841918846766
 20
-1.39494995988554
 30
0.0
 10
17.91818544532363
 20
-1.34490486776105
 30
0.0
 10
17.82542526043853
 20
-1.308706071750081
 30
0.0
  0
SPLINE
  5
BD
330
1F
100
AcDbEntity
  8
외형선
  6
Continuous
 62
     1
370
    15
100
AcDbSpline
210
0.0
220
0.0
230
1.0
 70
     8
 71
     3
 72
    10
 73
     6
 74
     0
 42
0.000000001
 43
0.00000001
 40
0.0
 40
0.0
 40
0.0
 40
0.0
 40
0.5
 40
0.5
 40
1.0
 40
1.0
 40
1.0
 40
1.0
 10
17.60747353513434
 20
1.318766372219277
 30
0.0
 10
17.70618901620963
 20
1.250606119495186
 30
0.0
 10
17.82315804058675
 20
1.185120554107054
 30
0.0
 10
18.05166404795854
 20
1.064118724876652
 30
0.0
 10
18.16211754845472
 20
1.009047288697193
 30
0.0
 10
18.2550169367197
 20
0.9653190366947549
 30
0.0
  0
SPLINE
  5
BE
330
1F
100
AcDbEntity
  8
외형선
  6
Continuous
 62
     1
370
    15
100
AcDbSpline
210
0.0
220
0.0
230
1.0
 70
     8
 71
     3
 72
     8
 73
     4
 74
     0
 42
0.000000001
 43
0.00000001
 40
0.0
 40
0.0
 40
0.0
 40
0.0
 40
1.0
 40
1.0
 40
1.0
 40
1.0
 10
17.66291665610156
 20
-1.230651012777821
 30
0.0
 10
17.28903348558168
 20
-1.025068348379452
 30
0.0
 10
16.91093363264187
 20
-0.8132023929478822
 30
0.0
 10
16.53616112515393
 20
-0.5992711437943903
 30
0.0
  0
SPLINE
  5
BF
330
1F
100
AcDbEntity
  8
외형선
  6
Continuous
 62
     1
370
    15
100
AcDbSpline
210
0.0
220
0.0
230
1.0
 70
     8
 71
     3
 72
    12
 73
     8
 74
     0
 42
0.000000001
 43
0.00000001
 40
0.0
 40
0.0
 40
0.0
 40
0.0
 40
0.25
 40
0.25
 40
0.5
 40
0.5
 40
1.0
 40
1.0
 40
1.0
 40
1.0
 10
16.53616112963247
 20
-0.5992711787163622
 30
0.0
 10
16.51767493968021
 20
-0.3750949758747069
 30
0.0
 10
16.49924589587374
 20
-0.1482118278583571
 30
0.0
 10
16.46329084189503
 20
0.3010722640731667
 30
0.0
 10
16.44621994910512
 20
0.5215668669043886
 30
0.0
 10
16.39363467189031
 20
1.178272038657316
 30
0.0
 10
16.35612027892346
 20
1.611654393514464
 30
0.0
 10
16.31928973021828
 20
2.002723410834915
 30
0.0
  0
SPLINE
  5
C0
330
1F
100
AcDbEntity
  8
외형선
  6
Continuous
 62
     1
370
    15
100
AcDbSpline
210
0.0
220
0.0
230
1.0
 70
     8
 71
     3
 72
     8
 73
     4
 74
     0
 42
0.000000001
 43
0.00000001
 40
0.0
 40
0.0
 40
0.0
 40
0.0
 40
1.0
 40
1.0
 40
1.0
 40
1.0
 10
17.44615283067485
 20
1.417355944890977
 30
0.0
 10
17.07078004482042
 20
1.619657193493789
 30
0.0
 10
16.6926438649179
 20
1.816072993747873
 30
0.0
 10
16.3192897560355
 20
2.00272305616962
 30
0.0
  0
SPLINE
  5
C1
330
1F
100
AcDbEntity
  8
외형선
  6
Continuous
 62
     1
370
    15
100
AcDbSpline
210
0.0
220
0.0
230
1.0
 70
     8
 71
     3
 72
     8
 73
     4
 74
     0
 42
0.000000001
 43
0.00000001
 40
0.0
 40
0.0
 40
0.0
 40
0.0
 40
1.0
 40
1.0
 40
1.0
 40
1.0
 10
15.56453457770126
 20
-0.0398977590508755
 30
0.0
 10
15.18830917956616
 20
0.176861575879381
 30
0.0
 10
14.81255396481149
 20
0.3937024516373016
 30
0.0
 10
14.43926628691972
 20
0.6073608639934873
 30
0.0
  0
SPLINE
  5
C2
330
1F
100
AcDbEntity
  8
외형선
  6
Continuous
 62
     1
370
    15
100
AcDbSpline
210
0.0
220
0.0
230
1.0
 70
     8
 71
     3
 72
    12
 73
     8
 74
     0
 42
0.000000001
 43
0.00000001
 40
0.0
 40
0.0
 40
0.0
 40
0.0
 40
0.5000000000000001
 40
0.5000000000000001
 40
0.75
 40
0.75
 40
1.0
 40
1.0
 40
1.0
 40
1.0
 10
14.43926648388406
 20
0.6073600435020772
 30
0.0
 10
14.40467660677667
 20
1.046197856781786
 30
0.0
 10
14.3673399350429
 20
1.484668608962228
 30
0.0
 10
14.3118545118329
 20
2.084064753915325
 30
0.0
 10
14.29345991700717
 20
2.274170568897022
 30
0.0
 10
14.25765530120948
 20
2.627447935269232
 30
0.0
 10
14.24069432059272
 20
2.78944050218921
 30
0.0
 10
14.22301707400974
 20
2.939686125509223
 30
0.0
  0
SPLINE
  5
C3
330
1F
100
AcDbEntity
  8
외형선
  6
Continuous
 62
     1
370
    15
100
AcDbSpline
210
0.0
220
0.0
230
1.0
 70
     8
 71
     3
 72
    10
 73
     6
 74
     0
 42
0.000000001
 43
0.00000001
 40
0.0
 40
0.0
 40
0.0
 40
0.0
 40
0.5
 40
0.5
 40
1.0
 40
1.0
 40
1.0
 40
1.0
 10
15.34800236132525
 20
2.465472301774523
 30
0.0
 10
15.15956194150698
 20
2.550521978757661
 30
0.0
 10
14.97116309369104
 20
2.63279476350004
 30
0.0
 10
14.59634005419984
 20
2.790990592309265
 30
0.0
 10
14.41038122090352
 20
2.866863108164435
 30
0.0
 10
14.22271941132091
 20
2.939677708605555
 30
0.0
  0
SPLINE
  5
C4
330
1F
100
AcDbEntity
  8
외형선
  6
Continuous
 62
     1
370
    15
100
AcDbSpline
210
0.0
220
0.0
230
1.0
 70
     8
 71
     3
 72
    12
 73
     8
 74
     0
 42
0.000000001
 43
0.00000001
 40
0.0
 40
0.0
 40
0.0
 40
0.0
 40
0.25
 40
0.25
 40
0.5
 40
0.5
 40
1.0
 40
1.0
 40
1.0
 40
1.0
 10
15.56453494943533
 20
-0.0398972714101584
 30
0.0
 10
15.54640686438884
 20
0.1854573599878767
 30
0.0
 10
15.52893106032227
 20
0.4082747260206158
 30
0.0
 10
15.49429279039128
 20
0.8466809615560603
 30
0.0
 10
15.47631007441783
 20
1.065687827631289
 30
0.0
 10
15.42146056528711
 20
1.707492281248189
 30
0.0
 10
15.38371868428626
 20
2.114014484712897
 30
0.0
 10
15.34800255149637
 20
2.465472400452435
 30
0.0
  0
SPLINE
  5
C5
330
1F
100
AcDbEntity
  8
외형선
  6
Continuous
 62
     1
370
    15
100
AcDbSpline
210
0.0
220
0.0
230
1.0
 70
     8
 71
     3
 72
     8
 73
     4
 74
     0
 42
0.000000001
 43
0.00000001
 40
0.0
 40
0.0
 40
0.0
 40
0.0
 40
1.0
 40
1.0
 40
1.0
 40
1.0
 10
16.53616112683168
 20
-0.5992711447521004
 30
0.0
 10
16.48016653994834
 20
-0.5673077758341857
 30
0.0
 10
16.42327641182683
 20
-0.5341732128533391
 30
0.0
 10
16.37480188967371
 20
-0.5071355306843659
 30
0.0
  0
SPLINE
  5
C6
330
1F
100
AcDbEntity
  8
외형선
  6
Continuous
 62
     1
370
    15
100
AcDbSpline
210
0.0
220
0.0
230
1.0
 70
     8
 71
     3
 72
    12
 73
     8
 74
     0
 42
0.000000001
 43
0.00000001
 40
0.0
 40
0.0
 40
0.0
 40
0.0
 40
0.2500000000000001
 40
0.2500000000000001
 40
0.5000000000000001
 40
0.5000000000000001
 40
1.0
 40
1.0
 40
1.0
 40
1.0
 10
16.37480188967342
 20
-0.5071355306809174
 30
0.0
 10
16.35623068068773
 20
-0.2841075007528214
 30
0.0
 10
16.33776994842934
 20
-0.0590135554587873
 30
0.0
 10
16.30186106026339
 20
0.3854296409212628
 30
0.0
 10
16.2848474977862
 20
0.6030089316699137
 30
0.0
 10
16.23148249412336
 20
1.253462768887855
 30
0.0
 10
16.19362239960723
 20
1.679887653722435
 30
0.0
 10
16.15670665129264
 20
2.061550275659525
 30
0.0
  0
SPLINE
  5
C7
330
1F
100
AcDbEntity
  8
외형선
  6
Continuous
 62
     1
370
    15
100
AcDbSpline
210
0.0
220
0.0
230
1.0
 70
     8
 71
     3
 72
     8
 73
     4
 74
     0
 42
0.000000001
 43
0.00000001
 40
0.0
 40
0.0
 40
0.0
 40
0.0
 40
1.0
 40
1.0
 40
1.0
 40
1.0
 10
16.15670665129287
 20
2.061550275659191
 30
0.0
 10
16.20421032646581
 20
2.052750040243704
 30
0.0
 10
16.26105294122581
 20
2.031837253300255
 30
0.0
 10
16.31928976399512
 20
2.002723052190382
 30
0.0
  0
SPLINE
  5
C8
330
1F
100
AcDbEntity
  8
외형선
  6
Continuous
 62
     1
370
    15
100
AcDbSpline
210
0.0
220
0.0
230
1.0
 70
     8
 71
     3
 72
    10
 73
     6
 74
     0
 42
0.000000001
 43
0.00000001
 40
0.0
 40
0.0
 40
0.0
 40
0.0
 40
0.1066163999833714
 40
0.4924550236832945
 40
1.0
 40
1.0
 40
1.0
 40
1.0
 10
18.97771548068358
 20
-1.752954891222493
 30
0.0
 10
18.95517084607934
 20
-1.755600564265432
 30
0.0
 10
18.85103847460842
 20
-1.767820775989167
 30
0.0
 10
18.60591038549641
 20
-1.841250518455178
 30
0.0
 10
18.37280825177858
 20
-1.942813792573636
 30
0.0
 10
18.24037934113483
 20
-2.000513452110861
 30
0.0
  0
SPLINE
  5
C9
330
1F
100
AcDbEntity
  8
외형선
  6
Continuous
 62
     1
370
    15
100
AcDbSpline
210
0.0
220
0.0
230
1.0
 70
     8
 71
     3
 72
     8
 73
     4
 74
     0
 42
0.000000001
 43
0.00000001
 40
0.0
 40
0.0
 40
0.0
 40
0.0
 40
1.0
 40
1.0
 40
1.0
 40
1.0
 10
19.52499999999998
 20
-2.320163692655719
 30
0.0
 10
19.08566065076763
 20
-2.253003331515619
 30
0.0
 10
18.65786859422754
 20
-2.144985469467852
 30
0.0
 10
18.24037934113428
 20
-2.000513452113112
 30
0.0
  0
LINE
  5
CA
330
1F
100
AcDbEntity
  8
외형선
  6
Continuous
 62
     1
370
    15
100
AcDbLine
 10
19.52499999999998
 20
-2.692704320038199
 30
0.0
 11
19.52499999999998
 21
-2.320163692655717
 31
0.0
  0
SPLINE
  5
CB
330
1F
100
AcDbEntity
  8
외형선
  6
Continuous
 62
     1
370
    15
100
AcDbSpline
210
0.0
220
0.0
230
1.0
 70
     8
 71
     3
 72
    10
 73
     6
 74
     0
 42
0.000000001
 43
0.00000001
 40
0.0
 40
0.0
 40
0.0
 40
0.0
 40
0.5
 40
0.5
 40
1.0
 40
1.0
 40
1.0
 40
1.0
 10
18.58320371533735
 20
-3.619637612984513
 30
0.0
 10
18.73609451475651
 20
-3.456265426684971
 30
0.0
 10
18.89065638344722
 20
-3.295910229937333
 30
0.0
 10
19.20568039179122
 20
-2.984099900921944
 30
0.0
 10
19.3663092101559
 20
-2.832736386084087
 30
0.0
 10
19.52499999999998
 20
-2.692704320038198
 30
0.0
  0
SPLINE
  5
CC
330
1F
100
AcDbEntity
  8
외형선
  6
Continuous
 62
     1
370
    15
100
AcDbSpline
210
0.0
220
0.0
230
1.0
 70
     8
 71
     3
 72
     8
 73
     4
 74
     0
 42
0.000000001
 43
0.00000001
 40
0.0
 40
0.0
 40
0.0
 40
0.0
 40
1.0
 40
1.0
 40
1.0
 40
1.0
 10
18.30539502123444
 20
-3.76096641767466
 30
0.0
 10
18.38902098178364
 20
-3.689534876182849
 30
0.0
 10
18.48636035892001
 20
-3.643418098057523
 30
0.0
 10
18.58320371533729
 20
-3.619637612984455
 30
0.0
  0
SPLINE
  5
CD
330
1F
100
AcDbEntity
  8
외형선
  6
Continuous
 62
     1
370
    15
100
AcDbSpline
210
0.0
220
0.0
230
1.0
 70
     8
 71
     3
 72
     8
 73
     4
 74
     0
 42
0.000000001
 43
0.00000001
 40
0.0
 40
0.0
 40
0.0
 40
0.0
 40
1.0
 40
1.0
 40
1.0
 40
1.0
 10
18.14421453970272
 20
-3.835180697428164
 30
0.0
 10
18.20013218696587
 20
-3.826869262848422
 30
0.0
 10
18.25697190884704
 20
-3.802328424627369
 30
0.0
 10
18.30539502123444
 20
-3.760966417674657
 30
0.0
  0
SPLINE
  5
CE
330
1F
100
AcDbEntity
  8
외형선
  6
Continuous
 62
     1
370
    15
100
AcDbSpline
210
0.0
220
0.0
230
1.0
 70
     8
 71
     3
 72
    10
 73
     6
 74
     0
 42
0.000000001
 43
0.00000001
 40
0.0
 40
0.0
 40
0.0
 40
0.0
 40
0.5
 40
0.5
 40
1.0
 40
1.0
 40
1.0
 40
1.0
 10
18.14421105490034
 20
-3.835181215398241
 30
0.0
 10
17.95675450835148
 20
-3.863044153010835
 30
0.0
 10
17.77091305637181
 20
-3.886556529888959
 30
0.0
 10
17.39600035568315
 20
-3.92499308624412
 30
0.0
 10
17.20762087299063
 20
-3.939872054004944
 30
0.0
 10
17.01926383304685
 20
-3.95031587311851
 30
0.0
  0
SPLINE
  5
CF
330
1F
100
AcDbEntity
  8
외형선
  6
Continuous
 62
     1
370
    15
100
AcDbSpline
210
0.0
220
0.0
230
1.0
 70
     8
 71
     3
 72
     8
 73
     4
 74
     0
 42
0.000000001
 43
0.00000001
 40
0.0
 40
0.0
 40
0.0
 40
0.0
 40
1.0
 40
1.0
 40
1.0
 40
1.0
 10
16.85691672152924
 20
-3.905538883868441
 30
0.0
 10
16.90432762874839
 20
-3.938366262008155
 30
0.0
 10
16.96111202158648
 20
-3.953540232745859
 30
0.0
 10
17.01926804235671
 20
-3.950315639724479
 30
0.0
  0
SPLINE
  5
D0
330
1F
100
AcDbEntity
  8
외형선
  6
Continuous
 62
     1
370
    15
100
AcDbSpline
210
0.0
220
0.0
230
1.0
 70
     8
 71
     3
 72
    10
 73
     6
 74
     0
 42
0.000000001
 43
0.00000001
 40
0.0
 40
0.0
 40
0.0
 40
0.0
 40
0.5
 40
0.5
 40
1.0
 40
1.0
 40
1.0
 40
1.0
 10
16.20945925193242
 20
-3.914363377430371
 30
0.0
 10
16.30807124159451
 20
-3.841013639098573
 30
0.0
 10
16.42501658291988
 20
-3.807751819995417
 30
0.0
 10
16.65355810647198
 20
-3.80824297423594
 30
0.0
 10
16.76403840850602
 20
-3.841229810673563
 30
0.0
 10
16.85691672152924
 20
-3.90553888386844
 30
0.0
  0
SPLINE
  5
D1
330
1F
100
AcDbEntity
  8
외형선
  6
Continuous
 62
     1
370
    15
100
AcDbSpline
210
0.0
220
0.0
230
1.0
 70
     8
 71
     3
 72
     8
 73
     4
 74
     0
 42
0.000000001
 43
0.00000001
 40
0.0
 40
0.0
 40
0.0
 40
0.0
 40
1.0
 40
1.0
 40
1.0
 40
1.0
 10
16.04811666796013
 20
-3.964742559654245
 30
0.0
 10
16.10410464787225
 20
-3.96619831856792
 30
0.0
 10
16.16098338931048
 20
-3.950420776240716
 30
0.0
 10
16.20945925193242
 20
-3.914363377430374
 30
0.0
  0
SPLINE
  5
D2
330
1F
100
AcDbEntity
  8
외형선
  6
Continuous
 62
     1
370
    15
100
AcDbSpline
210
0.0
220
0.0
230
1.0
 70
     8
 71
     3
 72
     8
 73
     4
 74
     0
 42
0.000000001
 43
0.00000001
 40
0.0
 40
0.0
 40
0.0
 40
0.0
 40
1.0
 40
1.0
 40
1.0
 40
1.0
 10
16.04811586032305
 20
-3.964742538654662
 30
0.0
 10
15.67451090965473
 20
-3.955028307918353
 30
0.0
 10
15.29637750801632
 20
-3.927504856416354
 30
0.0
 10
14.92126134430589
 20
-3.882651266467559
 30
0.0
  0
SPLINE
  5
D3
330
1F
100
AcDbEntity
  8
외형선
  6
Continuous
 62
     1
370
    15
100
AcDbSpline
210
0.0
220
0.0
230
1.0
 70
     8
 71
     3
 72
     8
 73
     4
 74
     0
 42
0.000000001
 43
0.00000001
 40
0.0
 40
0.0
 40
0.0
 40
0.0
 40
1.0
 40
1.0
 40
1.0
 40
1.0
 10
14.75870187182698
 20
-3.80857312410781
 30
0.0
 10
14.80618281460595
 20
-3.850245953462119
 30
0.0
 10
14.86303201215108
 20
-3.875688638744478
 30
0.0
 10
14.92126155690417
 20
-3.882651291888477
 30
0.0
  0
SPLINE
  5
D4
330
1F
100
AcDbEntity
  8
외형선
  6
Continuous
 62
     1
370
    15
100
AcDbSpline
210
0.0
220
0.0
230
1.0
 70
     8
 71
     3
 72
    10
 73
     6
 74
     0
 42
0.000000001
 43
0.00000001
 40
0.0
 40
0.0
 40
0.0
 40
0.0
 40
0.5
 40
0.5
 40
1.0
 40
1.0
 40
1.0
 40
1.0
 10
14.11108680165681
 20
-3.705962637560885
 30
0.0
 10
14.20982106867779
 20
-3.650098020240462
 30
0.0
 10
14.32691550011201
 20
-3.635831725053377
 30
0.0
 10
14.5554752312244
 20
-3.674817164573108
 30
0.0
 10
14.66580071026644
 20
-3.727036111025483
 30
0.0
 10
14.75870187182698
 20
-3.80857312410781
 30
0.0
  0
SPLINE
  5
D5
330
1F
100
AcDbEntity
  8
외형선
  6
Continuous
 62
     1
370
    15
100
AcDbSpline
210
0.0
220
0.0
230
1.0
 70
     8
 71
     3
 72
     8
 73
     4
 74
     0
 42
0.000000001
 43
0.00000001
 40
0.0
 40
0.0
 40
0.0
 40
0.0
 40
1.0
 40
1.0
 40
1.0
 40
1.0
 10
13.94988876179645
 20
-3.727894600124907
 30
0.0
 10
14.00583214959866
 20
-3.738954916398784
 30
0.0
 10
14.06267179068368
 20
-3.733356227873391
 30
0.0
 10
14.11108680165681
 20
-3.705962637560888
 30
0.0
  0
SPLINE
  5
D6
330
1F
100
AcDbEntity
  8
외형선
  6
Continuous
 62
     1
370
    15
100
AcDbSpline
210
0.0
220
0.0
230
1.0
 70
     8
 71
     3
 72
     8
 73
     4
 74
     0
 42
0.000000001
 43
0.00000001
 40
0.0
 40
0.0
 40
0.0
 40
0.0
 40
1.0
 40
1.0
 40
1.0
 40
1.0
 10
13.9498887625498
 20
-3.727894600274135
 30
0.0
 10
13.57391825254988
 20
-3.653563157138298
 30
0.0
 10
13.19737774240393
 20
-3.562450723350703
 30
0.0
 10
12.82464146897311
 20
-3.456260259701472
 30
0.0
  0
SPLINE
  5
D7
330
1F
100
AcDbEntity
  8
외형선
  6
Continuous
 62
     1
370
    15
100
AcDbSpline
210
0.0
220
0.0
230
1.0
 70
     8
 71
     3
 72
     8
 73
     4
 74
     0
 42
0.000000001
 43
0.00000001
 40
0.0
 40
0.0
 40
0.0
 40
0.0
 40
1.0
 40
1.0
 40
1.0
 40
1.0
 10
12.66260015740734
 20
-3.359743852877288
 30
0.0
 10
12.71003336466301
 20
-3.406404852793361
 30
0.0
 10
12.76682292934616
 20
-3.439789336570838
 30
0.0
 10
12.82495463153981
 20
-3.456349474567793
 30
0.0
  0
SPLINE
  5
D8
330
1F
100
AcDbEntity
  8
외형선
  6
Continuous
 62
     1
370
    15
100
AcDbSpline
210
0.0
220
0.0
230
1.0
 70
     8
 71
     3
 72
    10
 73
     6
 74
     0
 42
0.000000001
 43
0.00000001
 40
0.0
 40
0.0
 40
0.0
 40
0.0
 40
0.5
 40
0.5
 40
1.0
 40
1.0
 40
1.0
 40
1.0
 10
12.01529732149811
 20
-3.156064513097766
 30
0.0
 10
12.11394802174943
 20
-3.122946293022265
 30
0.0
 10
12.23096385643992
 20
-3.128687363021985
 30
0.0
 10
12.45950206132498
 20
-3.20197490241889
 30
0.0
 10
12.5698420376791
 20
-3.268495825023606
 30
0.0
 10
12.66260015740734
 20
-3.359743852877288
 30
0.0
  0
SPLINE
  5
D9
330
1F
100
AcDbEntity
  8
외형선
  6
Continuous
 62
     1
370
    15
100
AcDbSpline
210
0.0
220
0.0
230
1.0
 70
     8
 71
     3
 72
     8
 73
     4
 74
     0
 42
0.000000001
 43
0.00000001
 40
0.0
 40
0.0
 40
0.0
 40
0.0
 40
1.0
 40
1.0
 40
1.0
 40
1.0
 10
11.85401702494777
 20
-3.147580649621506
 30
0.0
 10
11.90997889105355
 20
-3.167220581648582
 30
0.0
 10
11.96685259741774
 20
-3.172327986438583
 30
0.0
 10
12.01529732149811
 20
-3.156064513097765
 30
0.0
  0
SPLINE
  5
DA
330
1F
100
AcDbEntity
  8
외형선
  6
Continuous
 62
     1
370
    15
100
AcDbSpline
210
0.0
220
0.0
230
1.0
 70
     8
 71
     3
 72
     8
 73
     4
 74
     0
 42
0.000000001
 43
0.00000001
 40
0.0
 40
0.0
 40
0.0
 40
0.0
 40
1.0
 40
1.0
 40
1.0
 40
1.0
 10
11.85401852872242
 20
-3.147581177374741
 30
0.0
 10
11.47665007817387
 20
-3.015142981847505
 30
0.0
 10
11.1039751720601
 20
-2.869125852588267
 30
0.0
 10
10.72706261336339
 20
-2.710358522678539
 30
0.0
  0
SPLINE
  5
DB
330
1F
100
AcDbEntity
  8
외형선
  6
Continuous
 62
     1
370
    15
100
AcDbSpline
210
0.0
220
0.0
230
1.0
 70
     8
 71
     3
 72
     8
 73
     4
 74
     0
 42
0.000000001
 43
0.00000001
 40
0.0
 40
0.0
 40
0.0
 40
0.0
 40
1.0
 40
1.0
 40
1.0
 40
1.0
 10
10.56450987693225
 20
-2.600383245407523
 30
0.0
 10
10.61199613883021
 20
-2.647666169156448
 30
0.0
 10
10.66885227344939
 20
-2.685838510969028
 30
0.0
 10
10.7270625196765
 20
-2.710358483214701
 30
0.0
  0
SPLINE
  5
DC
330
1F
100
AcDbEntity
  8
외형선
  6
Continuous
 62
     1
370
    15
100
AcDbSpline
210
0.0
220
0.0
230
1.0
 70
     8
 71
     3
 72
    10
 73
     6
 74
     0
 42
0.000000001
 43
0.00000001
 40
0.0
 40
0.0
 40
0.0
 40
0.0
 40
0.5
 40
0.5
 40
1.0
 40
1.0
 40
1.0
 40
1.0
 10
9.99999999999998
 20
-2.315184833575253
 30
0.0
 10
10.09386844513501
 20
-2.323771677119315
 30
0.0
 10
10.19508858949865
 20
-2.355241670501802
 30
0.0
 10
10.39020411167419
 20
-2.453528379545751
 30
0.0
 10
10.48400989901006
 20
-2.520227971739858
 30
0.0
 10
10.56450987693226
 20
-2.600383245407524
 30
0.0
  0
SPLINE
  5
DD
330
1F
100
AcDbEntity
  8
외형선
  6
Continuous
370
    15
100
AcDbSpline
210
0.0
220
0.0
230
1.0
 70
    24
 71
     3
 72
    16
 73
    12
 74
     0
 42
0.000000001
 43
0.00000001
 40
0.0
 40
0.0
 40
0.0
 40
0.0
 40
0.25
 40
0.25
 40
0.5
 40
0.5
 40
0.75
 40
0.75
 40
0.875
 40
0.875
 40
1.0
 40
1.0
 40
1.0
 40
1.0
 10
9.999999999999984
 20
2.759467589608316
 30
0.0
 10
9.999999999999984
 20
2.504368827233758
 30
0.0
 10
9.999999999999984
 20
2.199250328974785
 30
0.0
 10
9.999999999999984
 20
1.473247486747768
 30
0.0
 10
9.999999999999984
 20
1.050957673695262
 30
0.0
 10
9.999999999999984
 20
0.1159854794458708
 30
0.0
 10
9.999999999999984
 20
-0.3971982528369421
 30
0.0
 10
9.999999999999984
 20
-1.155899697084828
 30
0.0
 10
9.999999999999984
 20
-1.406241633396569
 30
0.0
 10
9.999999999999984
 20
-1.883179472752293
 30
0.0
 10
9.999999999999984
 20
-2.109628882665168
 30
0.0
 10
9.999999999999984
 20
-2.315184833575253
 30
0.0
  0
SPLINE
  5
DE
330
1F
100
AcDbEntity
  8
외형선
  6
Continuous
 62
     1
370
    15
100
AcDbSpline
210
0.0
220
0.0
230
1.0
 70
     8
 71
     3
 72
     8
 73
     4
 74
     0
 42
0.000000001
 43
0.00000001
 40
0.0
 40
0.0
 40
0.0
 40
0.0
 40
0.0001062330276559
 40
0.0001062330276559
 40
0.0001062330276559
 40
0.0001062330276559
 10
10.08389773108558
 20
2.76826129519652
 30
0.0
 10
10.05739268513825
 20
2.762744703238054
 30
0.0
 10
10.02913851722905
 20
2.759836567393182
 30
0.0
 10
9.999999999999977
 20
2.759467589608313
 30
0.0
  0
SPLINE
  5
DF
330
1F
100
AcDbEntity
  8
외형선
  6
Continuous
 62
     1
370
    15
100
AcDbSpline
210
0.0
220
0.0
230
1.0
 70
     8
 71
     3
 72
     8
 73
     4
 74
     0
 42
0.000000001
 43
0.00000001
 40
0.0
 40
0.0
 40
0.0
 40
0.0
 40
1.0
 40
1.0
 40
1.0
 40
1.0
 10
10.24489538784236
 20
2.744789920249481
 30
0.0
 10
10.18901578791788
 20
2.768040578863763
 30
0.0
 10
10.13224267266383
 20
2.778323504349943
 30
0.0
 10
10.08389773108558
 20
2.768261295196521
 30
0.0
  0
SPLINE
  5
E0
330
1F
100
AcDbEntity
  8
외형선
  6
Continuous
 62
     1
370
    15
100
AcDbSpline
210
0.0
220
0.0
230
1.0
 70
     8
 71
     3
 72
     8
 73
     4
 74
     0
 42
0.000000001
 43
0.00000001
 40
0.0
 40
0.0
 40
0.0
 40
0.0
 40
1.0
 40
1.0
 40
1.0
 40
1.0
 10
11.37085738697218
 20
2.240510845061163
 30
0.0
 10
10.99680180059807
 20
2.419202197978725
 30
0.0
 10
10.6215744771793
 20
2.588059392395238
 30
0.0
 10
10.24489730185953
 20
2.744789123855703
 30
0.0
  0
SPLINE
  5
E1
330
1F
100
AcDbEntity
  8
외형선
  6
Continuous
 62
     1
370
    15
100
AcDbSpline
210
0.0
220
0.0
230
1.0
 70
     8
 71
     3
 72
     8
 73
     4
 74
     0
 42
0.000000001
 43
0.00000001
 40
0.0
 40
0.0
 40
0.0
 40
0.0
 40
1.0
 40
1.0
 40
1.0
 40
1.0
 10
11.53291138458725
 20
2.127553703058235
 30
0.0
 10
11.48542479849874
 20
2.173583800723757
 30
0.0
 10
11.42858051546785
 20
2.212936831089758
 30
0.0
 10
11.37039333697866
 20
2.240732523557356
 30
0.0
  0
SPLINE
  5
E2
330
1F
100
AcDbEntity
  8
외형선
  6
Continuous
 62
     1
370
    15
100
AcDbSpline
210
0.0
220
0.0
230
1.0
 70
     8
 71
     3
 72
    10
 73
     6
 74
     0
 42
0.000000001
 43
0.00000001
 40
0.0
 40
0.0
 40
0.0
 40
0.0
 40
0.5
 40
0.5
 40
1.0
 40
1.0
 40
1.0
 40
1.0
 10
12.18063732488686
 20
1.809400737811895
 30
0.0
 10
12.08193164351539
 20
1.81535485083867
 30
0.0
 10
11.96485457333603
 20
1.849754674189055
 30
0.0
 10
11.73618292707058
 20
1.961325525738418
 30
0.0
 10
11.62576378403892
 20
2.037549233011222
 30
0.0
 10
11.53291138458726
 20
2.127553703058236
 30
0.0
  0
SPLINE
  5
E3
330
1F
100
AcDbEntity
  8
외형선
  6
Continuous
 62
     1
370
    15
100
AcDbSpline
210
0.0
220
0.0
230
1.0
 70
     8
 71
     3
 72
     8
 73
     4
 74
     0
 42
0.000000001
 43
0.00000001
 40
0.0
 40
0.0
 40
0.0
 40
0.0
 40
1.0
 40
1.0
 40
1.0
 40
1.0
 10
12.34197550922672
 20
1.757550308391963
 30
0.0
 10
12.28599846055159
 20
1.786482451231773
 30
0.0
 10
12.22910510969903
 20
1.80647706953952
 30
0.0
 10
12.18063732488686
 20
1.809400737811897
 30
0.0
  0
SPLINE
  5
E4
330
1F
100
AcDbEntity
  8
외형선
  6
Continuous
 62
     1
370
    15
100
AcDbSpline
210
0.0
220
0.0
230
1.0
 70
     8
 71
     3
 72
     8
 73
     4
 74
     0
 42
0.000000001
 43
0.00000001
 40
0.0
 40
0.0
 40
0.0
 40
0.0
 40
1.0
 40
1.0
 40
1.0
 40
1.0
 10
13.4687928886179
 20
1.152658975281857
 30
0.0
 10
13.09157919169174
 20
1.360677441396378
 30
0.0
 10
12.71902878304201
 20
1.562667593756356
 30
0.0
 10
12.34197554082609
 20
1.757550292059598
 30
0.0
  0
SPLINE
  5
E5
330
1F
100
AcDbEntity
  8
외형선
  6
Continuous
 62
     1
370
    15
100
AcDbSpline
210
0.0
220
0.0
230
1.0
 70
     8
 71
     3
 72
     8
 73
     4
 74
     0
 42
0.000000001
 43
0.00000001
 40
0.0
 40
0.0
 40
0.0
 40
0.0
 40
1.0
 40
1.0
 40
1.0
 40
1.0
 10
13.63123260064215
 20
1.041683667468616
 30
0.0
 10
13.58378977811498
 20
1.081840362322183
 30
0.0
 10
13.52697049956883
 20
1.120576319144364
 30
0.0
 10
13.46879275414137
 20
1.15265904944035
 30
0.0
  0
SPLINE
  5
E6
330
1F
100
AcDbEntity
  8
외형선
  6
Continuous
 62
     1
370
    15
100
AcDbSpline
210
0.0
220
0.0
230
1.0
 70
     8
 71
     3
 72
    10
 73
     6
 74
     0
 42
0.000000001
 43
0.00000001
 40
0.0
 40
0.0
 40
0.0
 40
0.0
 40
0.5
 40
0.5
 40
1.0
 40
1.0
 40
1.0
 40
1.0
 10
14.278201552817
 20
0.6828920224066309
 30
0.0
 10
14.1796848154754
 20
0.7148253172918305
 30
0.0
 10
14.0627852361452
 20
0.7647356638804389
 30
0.0
 10
13.8343614931881
 20
0.8892866433712833
 30
0.0
 10
13.72401857992162
 20
0.9631474831072943
 30
0.0
 10
13.63123260064215
 20
1.041683667468616
 30
0.0
  0
SPLINE
  5
E7
330
1F
100
AcDbEntity
  8
외형선
  6
Continuous
 62
     1
370
    15
100
AcDbSpline
210
0.0
220
0.0
230
1.0
 70
     8
 71
     3
 72
     8
 73
     4
 74
     0
 42
0.000000001
 43
0.00000001
 40
0.0
 40
0.0
 40
0.0
 40
0.0
 40
1.0
 40
1.0
 40
1.0
 40
1.0
 10
14.43926642546199
 20
0.6073607846961417
 30
0.0
 10
14.38339372244483
 20
0.6393406055976805
 30
0.0
 10
14.32659371865384
 20
0.6672061466508857
 30
0.0
 10
14.27820155281699
 20
0.68289202240663
 30
0.0
  0
SPLINE
  5
E8
330
1F
100
AcDbEntity
  8
외형선
  6
Continuous
 62
     1
370
    15
100
AcDbSpline
210
0.0
220
0.0
230
1.0
 70
     8
 71
     3
 72
     8
 73
     4
 74
     0
 42
0.000000001
 43
0.00000001
 40
0.0
 40
0.0
 40
0.0
 40
0.0
 40
1.0
 40
1.0
 40
1.0
 40
1.0
 10
15.72700677864197
 20
-0.1388138819270004
 30
0.0
 10
15.67955501505129
 20
-0.1080997351688658
 30
0.0
 10
15.62273262654725
 20
-0.0734281119689953
 30
0.0
 10
15.5645350086356
 20
-0.039898007330339
 30
0.0
  0
SPLINE
  5
E9
330
1F
100
AcDbEntity
  8
외형선
  6
Continuous
 62
     1
370
    15
100
AcDbSpline
210
0.0
220
0.0
230
1.0
 70
     8
 71
     3
 72
    10
 73
     6
 74
     0
 42
0.000000001
 43
0.00000001
 40
0.0
 40
0.0
 40
0.0
 40
0.0
 40
0.5
 40
0.5
 40
1.0
 40
1.0
 40
1.0
 40
1.0
 10
16.37480188967371
 20
-0.5071355306843646
 30
0.0
 10
16.27606935169317
 20
-0.4520653853156048
 30
0.0
 10
16.1591053727903
 20
-0.390792600844068
 30
0.0
 10
15.93047533331179
 20
-0.2640110996090022
 30
0.0
 10
15.81996254241214
 20
-0.1989814448247593
 30
0.0
 10
15.72700677864197
 20
-0.1388138819270016
 30
0.0
  0
SPLINE
  5
EA
330
1F
100
AcDbEntity
  8
외형선
  6
Continuous
 62
     1
370
    15
100
AcDbSpline
210
0.0
220
0.0
230
1.0
 70
     8
 71
     3
 72
     8
 73
     4
 74
     0
 42
0.000000001
 43
0.00000001
 40
0.0
 40
0.0
 40
0.0
 40
0.0
 40
1.0
 40
1.0
 40
1.0
 40
1.0
 10
15.34800257114852
 20
2.465472207074265
 30
0.0
 10
15.40393710210977
 20
2.440227018651332
 30
0.0
 10
15.46077447579592
 20
2.405451120894275
 30
0.0
 10
15.50918367854555
 20
2.365560746023217
 30
0.0
  0
SPLINE
  5
EB
330
1F
100
AcDbEntity
  8
외형선
  6
Continuous
 62
     1
370
    15
100
AcDbSpline
210
0.0
220
0.0
230
1.0
 70
     8
 71
     3
 72
    10
 73
     6
 74
     0
 42
0.000000001
 43
0.00000001
 40
0.0
 40
0.0
 40
0.0
 40
0.0
 40
0.5
 40
0.5
 40
1.0
 40
1.0
 40
1.0
 40
1.0
 10
15.72700677864171
 20
-0.1388138819238162
 30
0.0
 10
15.69034011195795
 20
0.3088699230035047
 30
0.0
 10
15.65651433066682
 20
0.7477005841503458
 30
0.0
 10
15.5833404538931
 20
1.601739549440204
 30
0.0
 10
15.54533720324365
 20
2.010260630586716
 30
0.0
 10
15.50918367854845
 20
2.365560746001346
 30
0.0
  0
SPLINE
  5
EC
330
1F
100
AcDbEntity
  8
외형선
  6
Continuous
 62
     1
370
    15
100
AcDbSpline
210
0.0
220
0.0
230
1.0
 70
     8
 71
     3
 72
     9
 73
     5
 74
     0
 42
0.000000001
 43
0.00000001
 40
0.0
 40
0.0
 40
0.0
 40
0.0
 40
0.3481465208385376
 40
1.0
 40
1.0
 40
1.0
 40
1.0
 10
14.10830203309277
 20
2.966569337942143
 30
0.0
 10
14.19640033112983
 20
3.001097900175397
 30
0.0
 10
14.44944981680288
 20
3.100276148891166
 30
0.0
 10
14.70214649049748
 20
3.186005486754186
 30
0.0
 10
14.86686769641782
 20
3.241888453906406
 30
0.0
  0
SPLINE
  5
ED
330
1F
100
AcDbEntity
  8
외형선
  6
Continuous
 62
     1
370
    15
100
AcDbSpline
210
0.0
220
0.0
230
1.0
 70
     8
 71
     3
 72
     8
 73
     4
 74
     0
 42
0.000000001
 43
0.00000001
 40
0.0
 40
0.0
 40
0.0
 40
0.0
 40
1.0
 40
1.0
 40
1.0
 40
1.0
 10
15.02932926758272
 20
3.254722896869764
 30
0.0
 10
14.98187183797227
 20
3.266205740696857
 30
0.0
 10
14.92504406803208
 20
3.261268629548828
 30
0.0
 10
14.86686790965849
 20
3.241888524942835
 30
0.0
  0
SPLINE
  5
EE
330
1F
100
AcDbEntity
  8
외형선
  6
Continuous
 62
     1
370
    15
100
AcDbSpline
210
0.0
220
0.0
230
1.0
 70
     8
 71
     3
 72
    10
 73
     6
 74
     0
 42
0.000000001
 43
0.00000001
 40
0.0
 40
0.0
 40
0.0
 40
0.0
 40
0.5
 40
0.5
 40
1.0
 40
1.0
 40
1.0
 40
1.0
 10
15.67632219320962
 20
3.444510024385446
 30
0.0
 10
15.57777977840769
 20
3.357342971893881
 30
0.0
 10
15.46084413786605
 20
3.299956449988813
 30
0.0
 10
15.23239777839106
 20
3.237615472308404
 30
0.0
 10
15.12208900452083
 20
3.232278664607141
 30
0.0
 10
15.02932926758359
 20
3.254722896869197
 30
0.0
  0
SPLINE
  5
EF
330
1F
100
AcDbEntity
  8
외형선
  6
Continuous
 62
     1
370
    15
100
AcDbSpline
210
0.0
220
0.0
230
1.0
 70
     8
 71
     3
 72
     8
 73
     4
 74
     0
 42
0.000000001
 43
0.00000001
 40
0.0
 40
0.0
 40
0.0
 40
0.0
 40
1.0
 40
1.0
 40
1.0
 40
1.0
 10
15.83737769188941
 20
3.531369972347455
 30
0.0
 10
15.78149566634944
 20
3.516648315186797
 30
0.0
 10
15.72469842661627
 20
3.487301889037562
 30
0.0
 10
15.67632219320979
 20
3.444510024385595
 30
0.0
  0
SPLINE
  5
F0
330
1F
100
AcDbEntity
  8
외형선
  6
Continuous
 62
     1
370
    15
100
AcDbSpline
210
0.0
220
0.0
230
1.0
 70
     8
 71
     3
 72
     8
 73
     4
 74
     0
 42
0.000000001
 43
0.00000001
 40
0.0
 40
0.0
 40
0.0
 40
0.0
 40
1.0
 40
1.0
 40
1.0
 40
1.0
 10
16.96294514878723
 20
3.779544810405416
 30
0.0
 10
16.58593722470217
 20
3.713297084158122
 30
0.0
 10
16.21312478370353
 20
3.630357434662355
 30
0.0
 10
15.83737767048227
 20
3.531369966707917
 30
0.0
  0
SPLINE
  5
F1
330
1F
100
AcDbEntity
  8
외형선
  6
Continuous
 62
     1
370
    15
100
AcDbSpline
210
0.0
220
0.0
230
1.0
 70
     8
 71
     3
 72
     8
 73
     4
 74
     0
 42
0.000000001
 43
0.00000001
 40
0.0
 40
0.0
 40
0.0
 40
0.0
 40
1.0
 40
1.0
 40
1.0
 40
1.0
 10
17.12508981986539
 20
3.75782435281226
 30
0.0
 10
17.07764056772654
 20
3.782623484061282
 30
0.0
 10
17.02081975414117
 20
3.789715970067643
 30
0.0
 10
16.96263222271023
 20
3.779489819212979
 30
0.0
  0
SPLINE
  5
F2
330
1F
100
AcDbEntity
  8
외형선
  6
Continuous
 62
     1
370
    15
100
AcDbSpline
210
0.0
220
0.0
230
1.0
 70
     8
 71
     3
 72
    10
 73
     6
 74
     0
 42
0.000000001
 43
0.00000001
 40
0.0
 40
0.0
 40
0.0
 40
0.0
 40
0.5
 40
0.5
 40
1.0
 40
1.0
 40
1.0
 40
1.0
 10
17.77279485847747
 20
3.844599803475765
 30
0.0
 10
17.67414065744099
 20
3.762813384325464
 30
0.0
 10
17.55714221844077
 20
3.718068183568145
 30
0.0
 10
17.32851297411594
 20
3.691607065850857
 30
0.0
 10
17.21800677823871
 20
3.709261736076364
 30
0.0
 10
17.12508981986626
 20
3.757824352811605
 30
0.0
  0
SPLINE
  5
F3
330
1F
100
AcDbEntity
  8
외형선
  6
Continuous
 62
     1
370
    15
100
AcDbSpline
210
0.0
220
0.0
230
1.0
 70
     8
 71
     3
 72
     8
 73
     4
 74
     0
 42
0.000000001
 43
0.00000001
 40
0.0
 40
0.0
 40
0.0
 40
0.0
 40
1.0
 40
1.0
 40
1.0
 40
1.0
 10
17.93417689696144
 20
3.912398625191404
 30
0.0
 10
17.878186814521
 20
3.906950517789392
 30
0.0
 10
17.82130084642852
 20
3.8848122933665
 30
0.0
 10
17.77279485847764
 20
3.844599803475901
 30
0.0
  0
SPLINE
  5
F4
330
1F
100
AcDbEntity
  8
외형선
  6
Continuous
 62
     1
370
    15
100
AcDbSpline
210
0.0
220
0.0
230
1.0
 70
     8
 71
     3
 72
     8
 73
     4
 74
     0
 42
0.000000001
 43
0.00000001
 40
0.0
 40
0.0
 40
0.0
 40
0.0
 40
1.0
 40
1.0
 40
1.0
 40
1.0
 10
18.42500000000309
 20
3.949988861775412
 30
0.0
 10
18.26083857547347
 20
3.940799418446707
 30
0.0
 10
18.09702291517152
 20
3.928244362893538
 30
0.0
 10
17.93417487982379
 20
3.912398428913922
 30
0.0
  0
SPLINE
  5
F5
330
1F
100
AcDbEntity
  8
외형선
  6
Continuous
 62
     1
370
    15
100
AcDbSpline
210
0.0
220
0.0
230
1.0
 70
     8
 71
     3
 72
     8
 73
     4
 74
     0
 42
0.000000001
 43
0.00000001
 40
0.0
 40
0.0
 40
0.0
 40
0.0
 40
1.0
 40
1.0
 40
1.0
 40
1.0
 10
19.52499999999998
 20
2.826690178507683
 30
0.0
 10
19.17837450402105
 20
3.227473029963051
 30
0.0
 10
18.80523304504041
 20
3.597490449339179
 30
0.0
 10
18.42499999999998
 20
3.949988861775237
 30
0.0
  0
LINE
  5
F6
330
1F
100
AcDbEntity
  8
외형선
  6
Continuous
 62
     1
370
    15
100
AcDbLine
 10
19.52499999999998
 20
2.569781359493129
 30
0.0
 11
19.52499999999998
 21
2.826690178507683
 31
0.0
  0
SPLINE
  5
F7
330
1F
100
AcDbEntity
  8
외형선
  6
Continuous
 62
     1
370
    15
100
AcDbSpline
210
0.0
220
0.0
230
1.0
 70
     8
 71
     3
 72
    12
 73
     8
 74
     0
 42
0.000000001
 43
0.00000001
 40
0.0
 40
0.0
 40
0.0
 40
0.0
 40
0.2499999999999999
 40
0.2499999999999999
 40
0.4999999999999998
 40
0.4999999999999998
 40
1.0
 40
1.0
 40
1.0
 40
1.0
 10
19.52499999999998
 20
2.569781359493129
 30
0.0
 10
19.45962037951832
 20
2.42043034292476
 30
0.0
 10
19.38254065017411
 20
2.282062434500547
 30
0.0
 10
19.2037231206695
 20
2.028473603853898
 30
0.0
 10
19.10066349206268
 20
1.912507757658881
 30
0.0
 10
18.76840741569905
 20
1.616858090044619
 30
0.0
 10
18.50889874581357
 20
1.48254811663138
 30
0.0
 10
18.24037934113463
 20
1.411933854736407
 30
0.0
  0
SPLINE
  5
F8
330
1F
100
AcDbEntity
  8
외형선
  6
Continuous
 62
     1
370
    15
100
AcDbSpline
210
0.0
220
0.0
230
1.0
 70
     8
 71
     3
 72
     8
 73
     4
 74
     0
 42
0.000000001
 43
0.00000001
 40
0.0
 40
0.0
 40
0.0
 40
0.0
 40
1.0
 40
1.0
 40
1.0
 40
1.0
 10
19.52499999999998
 20
0.7655735109555298
 30
0.0
 10
19.0856606507676
 20
1.004513846046092
 30
0.0
 10
18.65786859422751
 20
1.219092100446594
 30
0.0
 10
18.24037934113422
 20
1.411933854734585
 30
0.0
  0
LINE
  5
F9
330
1F
100
AcDbEntity
  8
외형선
  6
Continuous
 62
     1
370
    15
100
AcDbLine
 10
19.52499999999998
 20
0.4894376336451777
 30
0.0
 11
19.52499999999998
 21
0.7655735109555296
 31
0.0
  0
SPLINE
  5
FA
330
1F
100
AcDbEntity
  8
외형선
  6
Continuous
 62
     1
370
    15
100
AcDbSpline
210
0.0
220
0.0
230
1.0
 70
     8
 71
     3
 72
    10
 73
     6
 74
     0
 42
0.000000001
 43
0.00000001
 40
0.0
 40
0.0
 40
0.0
 40
0.0
 40
0.5
 40
0.5
 40
1.0
 40
1.0
 40
1.0
 40
1.0
 10
15.50918367854628
 20
2.365560746022613
 30
0.0
 10
15.60788055306959
 20
2.284232091557652
 30
0.0
 10
15.72496198119024
 20
2.218068808597229
 30
0.0
 10
15.95357393454323
 20
2.115296566593935
 30
0.0
 10
16.06390207994877
 20
2.078742673352154
 30
0.0
 10
16.15670665129269
 20
2.061550275659109
 30
0.0
  0
SPLINE
  5
FB
330
1F
100
AcDbEntity
  8
외형선
  6
Continuous
 62
     1
370
    15
100
AcDbSpline
210
0.0
220
0.0
230
1.0
 70
     8
 71
     3
 72
     8
 73
     4
 74
     0
 42
0.000000001
 43
0.00000001
 40
0.0
 40
0.0
 40
0.0
 40
0.0
 40
1.0
 40
1.0
 40
1.0
 40
1.0
 10
14.06068991877701
 20
2.96597021225496
 30
0.0
 10
14.10810900044651
 20
2.971762754657666
 30
0.0
 10
14.16489422050169
 20
2.962115648821602
 30
0.0
 10
14.22303235032997
 20
2.939556281983652
 30
0.0
  0
SPLINE
  5
FC
330
1F
100
AcDbEntity
  8
외형선
  6
Continuous
 62
     1
370
    15
100
AcDbSpline
210
0.0
220
0.0
230
1.0
 70
     8
 71
     3
 72
    10
 73
     6
 74
     0
 42
0.000000001
 43
0.00000001
 40
0.0
 40
0.0
 40
0.0
 40
0.0
 40
0.5
 40
0.5
 40
1.0
 40
1.0
 40
1.0
 40
1.0
 10
13.41338051498009
 20
3.192732231348988
 30
0.0
 10
13.51200067423201
 20
3.105646851280691
 30
0.0
 10
13.62898431402764
 20
3.044600339935958
 30
0.0
 10
13.85751990922887
 20
2.969224135191066
 30
0.0
 10
13.96790235011208
 20
2.95463562063012
 30
0.0
 10
14.06068991877681
 20
2.965970212254842
 30
0.0
  0
SPLINE
  5
FD
330
1F
100
AcDbEntity
  8
외형선
  6
Continuous
 62
     1
370
    15
100
AcDbSpline
210
0.0
220
0.0
230
1.0
 70
     8
 71
     3
 72
     8
 73
     4
 74
     0
 42
0.000000001
 43
0.00000001
 40
0.0
 40
0.0
 40
0.0
 40
0.0
 40
1.0
 40
1.0
 40
1.0
 40
1.0
 10
13.25208411641507
 20
3.285159239241286
 30
0.0
 10
13.30804219399888
 20
3.267035836621119
 30
0.0
 10
13.36492239976575
 20
3.235522604157408
 30
0.0
 10
13.41338051497935
 20
3.192732231349638
 30
0.0
  0
SPLINE
  5
FE
330
1F
100
AcDbEntity
  8
외형선
  6
Continuous
 62
     1
370
    15
100
AcDbSpline
210
0.0
220
0.0
230
1.0
 70
     8
 71
     3
 72
     8
 73
     4
 74
     0
 42
0.000000001
 43
0.00000001
 40
0.0
 40
0.0
 40
0.0
 40
0.0
 40
1.0
 40
1.0
 40
1.0
 40
1.0
 10
13.25208488169772
 20
3.285158991385452
 30
0.0
 10
12.87583263538557
 20
3.407017573919025
 30
0.0
 10
12.50260249049775
 20
3.513824364533245
 30
0.0
 10
12.12512903343528
 20
3.604778724298491
 30
0.0
  0
SPLINE
  5
FF
330
1F
100
AcDbEntity
  8
외형선
  6
Continuous
 62
     1
370
    15
100
AcDbSpline
210
0.0
220
0.0
230
1.0
 70
     8
 71
     3
 72
     8
 73
     4
 74
     0
 42
0.000000001
 43
0.00000001
 40
0.0
 40
0.0
 40
0.0
 40
0.0
 40
1.0
 40
1.0
 40
1.0
 40
1.0
 10
11.9625854011384
 20
3.596788206891445
 30
0.0
 10
12.01006321532118
 20
3.616488433315618
 30
0.0
 10
12.06691433768183
 20
3.618805883751127
 30
0.0
 10
12.12512902757219
 20
3.604778725711239
 30
0.0
  0
SPLINE
  5
100
330
1F
100
AcDbEntity
  8
외형선
  6
Continuous
 62
     1
370
    15
100
AcDbSpline
210
0.0
220
0.0
230
1.0
 70
     8
 71
     3
 72
    10
 73
     6
 74
     0
 42
0.000000001
 43
0.00000001
 40
0.0
 40
0.0
 40
0.0
 40
0.0
 40
0.5
 40
0.5
 40
1.0
 40
1.0
 40
1.0
 40
1.0
 10
11.31499640231823
 20
3.726342781569796
 30
0.0
 10
11.4136179833634
 20
3.641402014453784
 30
0.0
 10
11.5306011304113
 20
3.591004074163763
 30
0.0
 10
11.75920013323046
 20
3.549691687388028
 30
0.0
 10
11.86967371169197
 20
3.558235856681827
 30
0.0
 10
11.96258540113821
 20
3.596788206891304
 30
0.0
  0
SPLINE
  5
101
330
1F
100
AcDbEntity
  8
외형선
  6
Continuous
 62
     1
370
    15
100
AcDbSpline
210
0.0
220
0.0
230
1.0
 70
     8
 71
     3
 72
     8
 73
     4
 74
     0
 42
0.000000001
 43
0.00000001
 40
0.0
 40
0.0
 40
0.0
 40
0.0
 40
1.0
 40
1.0
 40
1.0
 40
1.0
 10
11.15373804266951
 20
3.802701518371807
 30
0.0
 10
11.20968798523844
 20
3.793420584746893
 30
0.0
 10
11.2665319622559
 20
3.768084220645203
 30
0.0
 10
11.31499640231749
 20
3.726342781570428
 30
0.0
  0
SPLINE
  5
102
330
1F
100
AcDbEntity
  8
외형선
  6
Continuous
 62
     1
370
    15
100
AcDbSpline
210
0.0
220
0.0
230
1.0
 70
     8
 71
     3
 72
     8
 73
     4
 74
     0
 42
0.000000001
 43
0.00000001
 40
0.0
 40
0.0
 40
0.0
 40
0.0
 40
1.0
 40
1.0
 40
1.0
 40
1.0
 10
11.15373890694594
 20
3.80270137500618
 30
0.0
 10
10.78136327919126
 20
3.864470785925661
 30
0.0
 10
10.40387812218161
 20
3.9095427057083
 30
0.0
 10
10.02878974236678
 20
3.93689579013488
 30
0.0
  0
SPLINE
  5
103
330
1F
100
AcDbEntity
  8
외형선
  6
Continuous
370
    15
100
AcDbSpline
210
0.0
220
0.0
230
1.0
 70
     8
 71
     3
 72
     8
 73
     4
 74
     0
 42
0.000000001
 43
0.00000001
 40
0.0
 40
0.0
 40
0.0
 40
0.0
 40
0.0000333581058374
 40
0.0000333581058374
 40
0.0000333581058374
 40
0.0000333581058374
 10
10.00000000000007
 20
3.937482748237045
 30
0.0
 10
10.00953770270452
 20
3.937792459689282
 30
0.0
 10
10.01915230407379
 20
3.937598590124409
 30
0.0
 10
10.02878453572754
 20
3.936896169824761
 30
0.0
  0
SPLINE
  5
104
330
1F
100
AcDbEntity
  8
외형선
  6
Continuous
 62
     1
370
    15
100
AcDbSpline
210
0.0
220
0.0
230
1.0
 70
     8
 71
     3
 72
    12
 73
     8
 74
     0
 42
0.000000001
 43
0.00000001
 40
0.0
 40
0.0
 40
0.0
 40
0.0
 40
0.4999999999999999
 40
0.4999999999999999
 40
0.7499999999999999
 40
0.7499999999999999
 40
1.0
 40
1.0
 40
1.0
 40
1.0
 10
14.27820156052458
 20
0.682891926899817
 30
0.0
 10
14.24309499308027
 20
1.117907004100815
 30
0.0
 10
14.20539264155901
 20
1.549973652901713
 30
0.0
 10
14.14972254621568
 20
2.136203289870474
 30
0.0
 10
14.13132538532937
 20
2.321353069201656
 30
0.0
 10
14.09563244959533
 20
2.663913736819234
 30
0.0
 10
14.07862176268369
 20
2.820748069398277
 30
0.0
 10
14.06068990161045
 20
2.965970351277693
 30
0.0
  0
SPLINE
  5
105
330
1F
100
AcDbEntity
  8
외형선
  6
Continuous
 62
     1
370
    15
100
AcDbSpline
210
0.0
220
0.0
230
1.0
 70
     8
 71
     3
 72
    12
 73
     8
 74
     0
 42
0.000000001
 43
0.00000001
 40
0.0
 40
0.0
 40
0.0
 40
0.0
 40
0.25
 40
0.25
 40
0.5
 40
0.5
 40
1.0
 40
1.0
 40
1.0
 40
1.0
 10
12.34197545992523
 20
1.757550850516172
 30
0.0
 10
12.32348591476805
 20
1.960863768675195
 30
0.0
 10
12.3050102987136
 20
2.155442567441727
 30
0.0
 10
12.26888232994022
 20
2.519146464652734
 30
0.0
 10
12.25159860213612
 20
2.687190388230942
 30
0.0
 10
12.19941336882685
 20
3.152484057920326
 30
0.0
 10
12.1620184888769
 20
3.415206543586009
 30
0.0
 10
12.12512894992129
 20
3.604779124753474
 30
0.0
  0
SPLINE
  5
106
330
1F
100
AcDbEntity
  8
외형선
  6
Continuous
 62
     1
370
    15
100
AcDbSpline
210
0.0
220
0.0
230
1.0
 70
     8
 71
     3
 72
    12
 73
     8
 74
     0
 42
0.000000001
 43
0.00000001
 40
0.0
 40
0.0
 40
0.0
 40
0.0
 40
0.5000000000000002
 40
0.5000000000000002
 40
0.7500000000000001
 40
0.7500000000000001
 40
1.0
 40
1.0
 40
1.0
 40
1.0
 10
13.46879274459013
 20
1.152659162950721
 30
0.0
 10
13.43249866889969
 20
1.584036556085172
 30
0.0
 10
13.39470899556634
 20
1.998094481714328
 30
0.0
 10
13.34060246372499
 20
2.54067527497047
 30
0.0
 10
13.32340877465263
 20
2.707464013038678
 30
0.0
 10
13.28850217439764
 20
3.015827158123896
 30
0.0
 10
13.27042175614086
 20
3.15824750862052
 30
0.0
 10
13.25208413838112
 20
3.285159087214327
 30
0.0
  0
SPLINE
  5
107
330
1F
100
AcDbEntity
  8
외형선
  6
Continuous
 62
     1
370
    15
100
AcDbSpline
210
0.0
220
0.0
230
1.0
 70
     8
 71
     3
 72
    12
 73
     8
 74
     0
 42
0.000000001
 43
0.00000001
 40
0.0
 40
0.0
 40
0.0
 40
0.0
 40
0.4999999999999998
 40
0.4999999999999998
 40
0.7499999999999999
 40
0.7499999999999999
 40
1.0
 40
1.0
 40
1.0
 40
1.0
 10
13.63123260060451
 20
1.041683667915143
 30
0.0
 10
13.59497353134764
 20
1.471884099512838
 30
0.0
 10
13.55696205051242
 20
1.887841811064711
 30
0.0
 10
13.50221869493793
 20
2.436450699828387
 30
0.0
 10
13.48457172949619
 20
2.606283724595245
 30
0.0
 10
13.44981035329746
 20
2.918208706379134
 30
0.0
 10
13.43175099768715
 20
3.062996506371904
 30
0.0
 10
13.41338051498817
 20
3.192732231291935
 30
0.0
  0
SPLINE
  5
108
330
1F
100
AcDbEntity
  8
외형선
  6
Continuous
 62
     1
370
    15
100
AcDbSpline
210
0.0
220
0.0
230
1.0
 70
     8
 71
     3
 72
    12
 73
     8
 74
     0
 42
0.000000001
 43
0.00000001
 40
0.0
 40
0.0
 40
0.0
 40
0.0
 40
0.2500000000000002
 40
0.2500000000000002
 40
0.5000000000000003
 40
0.5000000000000003
 40
1.0
 40
1.0
 40
1.0
 40
1.0
 10
12.18063732488526
 20
1.809400737829105
 30
0.0
 10
12.16205444002157
 20
2.008862970412852
 30
0.0
 10
12.14353820763401
 20
2.199049539092112
 30
0.0
 10
12.10743869658434
 20
2.553145667098875
 30
0.0
 10
12.09032323244602
 20
2.715781993660642
 30
0.0
 10
12.03734097979457
 20
3.167745042624438
 30
0.0
 10
11.99958155879523
 20
3.41931072225507
 30
0.0
 10
11.96258540116295
 20
3.596788206772578
 30
0.0
  0
SPLINE
  5
109
330
1F
100
AcDbEntity
  8
외형선
  6
Continuous
 62
     1
370
    15
100
AcDbSpline
210
0.0
220
0.0
230
1.0
 70
     8
 71
     3
 72
    12
 73
     8
 74
     0
 42
0.000000001
 43
0.00000001
 40
0.0
 40
0.0
 40
0.0
 40
0.0
 40
0.25
 40
0.25
 40
0.5
 40
0.5
 40
1.0
 40
1.0
 40
1.0
 40
1.0
 10
11.53291138458175
 20
2.12755370311457
 30
0.0
 10
11.51451077686725
 20
2.315821439562317
 30
0.0
 10
11.49640262280651
 20
2.492530044284598
 30
0.0
 10
11.46151305046402
 20
2.816480630889856
 30
0.0
 10
11.44400342026598
 20
2.966135028990432
 30
0.0
 10
11.38935950157189
 20
3.375179580337659
 30
0.0
 10
11.35133845378688
 20
3.589218171352171
 30
0.0
 10
11.31499640231975
 20
3.726342781564041
 30
0.0
  0
SPLINE
  5
10A
330
1F
100
AcDbEntity
  8
외형선
  6
Continuous
 62
     1
370
    15
100
AcDbSpline
210
0.0
220
0.0
230
1.0
 70
     8
 71
     3
 72
    12
 73
     8
 74
     0
 42
0.000000001
 43
0.00000001
 40
0.0
 40
0.0
 40
0.0
 40
0.0
 40
0.5000000000000002
 40
0.5000000000000002
 40
0.7500000000000002
 40
0.7500000000000002
 40
1.0
 40
1.0
 40
1.0
 40
1.0
 10
10.24489559802088
 20
2.744787965334729
 30
0.0
 10
10.21046539860317
 20
3.065030592018628
 30
0.0
 10
10.17342292133441
 20
3.340466639820469
 30
0.0
 10
10.11789169352033
 20
3.646837915439077
 30
0.0
 10
10.09943679203155
 20
3.731321640632191
 30
0.0
 10
10.0634300566219
 20
3.862325859863907
 30
0.0
 10
10.0463336855571
 20
3.908686965472622
 30
0.0
 10
10.02878487195882
 20
3.936895629355468
 30
0.0
  0
SPLINE
  5
10B
330
1F
100
AcDbEntity
  8
외형선
  6
Continuous
 62
     1
370
    15
100
AcDbSpline
210
0.0
220
0.0
230
1.0
 70
     8
 71
     3
 72
    10
 73
     6
 74
     0
 42
0.000000001
 43
0.00000001
 40
0.0
 40
0.0
 40
0.0
 40
0.0
 40
0.5
 40
0.5
 40
1.0
 40
1.0
 40
1.0
 40
1.0
 10
11.37041786319379
 20
2.24048157886844
 30
0.0
 10
11.33399423779936
 20
2.613164557669682
 30
0.0
 10
11.30034530441954
 20
2.934002491443774
 30
0.0
 10
11.22746252221567
 20
3.467933743706276
 30
0.0
 10
11.18966902104627
 20
3.674047398714386
 30
0.0
 10
11.15373815832752
 20
3.802701104246208
 30
0.0
  0
SPLINE
  5
10C
330
1F
100
AcDbEntity
  8
외형선
  6
Continuous
 62
     1
370
    15
100
AcDbSpline
210
0.0
220
0.0
230
1.0
 70
     8
 71
     3
 72
    10
 73
     6
 74
     0
 42
0.000000001
 43
0.00000001
 40
0.0
 40
0.0
 40
0.0
 40
0.0
 40
0.5
 40
0.5
 40
1.0
 40
1.0
 40
1.0
 40
1.0
 10
10.78257678805006
 20
-3.86526102985433
 30
0.0
 10
10.68389863734154
 20
-3.784452932106385
 30
0.0
 10
10.56685396065265
 20
-3.741266919784584
 30
0.0
 10
10.33818988402499
 20
-3.718679686460819
 30
0.0
 10
10.22773011057005
 20
-3.738613606846178
 30
0.0
 10
10.13484815061435
 20
-3.789524332898862
 30
0.0
  0
SPLINE
  5
10D
330
1F
100
AcDbEntity
  8
외형선
  6
Continuous
 62
     1
370
    15
100
AcDbSpline
210
0.0
220
0.0
230
1.0
 70
     8
 71
     3
 72
    10
 73
     6
 74
     0
 42
0.000000001
 43
0.00000001
 40
0.0
 40
0.0
 40
0.0
 40
0.0
 40
0.5000000000000002
 40
0.5000000000000002
 40
1.0
 40
1.0
 40
1.0
 40
1.0
 10
10.13484815007359
 20
-3.789524331242237
 30
0.0
 10
10.11179517431286
 20
-3.718900163738285
 30
0.0
 10
10.08943798738523
 20
-3.619692588355901
 30
0.0
 10
10.04596099098368
 20
-3.371595423268225
 30
0.0
 10
10.02314957749366
 20
-3.219295740033332
 30
0.0
 10
10.0000000000061
 20
-3.042308924171585
 30
0.0
  0
SPLINE
  5
10E
330
1F
100
AcDbEntity
  8
외형선
  6
Continuous
 62
     1
370
    15
100
AcDbSpline
210
0.0
220
0.0
230
1.0
 70
     8
 71
     3
 72
    12
 73
     8
 74
     0
 42
0.000000001
 43
0.00000001
 40
0.0
 40
0.0
 40
0.0
 40
0.0
 40
0.25
 40
0.25
 40
0.5
 40
0.5
 40
1.0
 40
1.0
 40
1.0
 40
1.0
 10
10.78257678804815
 20
-3.865261029850626
 30
0.0
 10
10.76398940597752
 20
-3.829372036656172
 30
0.0
 10
10.74545411927203
 20
-3.774245328149022
 30
0.0
 10
10.70929010524928
 20
-3.628946561158303
 30
0.0
 10
10.69211967859454
 20
-3.539786272492217
 30
0.0
 10
10.63926115956995
 20
-3.221157807125166
 30
0.0
 10
10.60153350230657
 20
-2.936264291889007
 30
0.0
 10
10.56450987693583
 20
-2.600383245439992
 30
0.0
  0
SPLINE
  5
10F
330
1F
100
AcDbEntity
  8
외형선
  6
Continuous
370
    15
100
AcDbSpline
210
0.0
220
0.0
230
1.0
 70
    24
 71
     3
 72
    11
 73
     7
 74
     0
 42
0.000000001
 43
0.00000001
 40
0.0
 40
0.0
 40
0.0
 40
0.0
 40
0.1493573372758668
 40
0.4638921232920168
 40
0.7795284560309467
 40
1.0
 40
1.0
 40
1.0
 40
1.0
 10
10.00000000000954
 20
-2.445964364497458
 30
0.0
 10
10.00000000001362
 20
-2.478243956749896
 30
0.0
 10
10.00000000002631
 20
-2.578501827317888
 30
0.0
 10
9.999999999991044
 20
-2.737082091706593
 30
0.0
 10
10.00000000000144
 20
-2.90345890814764
 30
0.0
 10
10.00000000000042
 20
-3.001847240174655
 30
0.0
 10
10.00000000000001
 20
-3.042308924124789
 30
0.0
  0
SPLINE
  5
110
330
1F
100
AcDbEntity
  8
외형선
  6
Continuous
 62
     1
370
    15
100
AcDbSpline
210
0.0
220
0.0
230
1.0
 70
     8
 71
     3
 72
     8
 73
     4
 74
     0
 42
0.000000001
 43
0.00000001
 40
0.0
 40
0.0
 40
0.0
 40
0.0
 40
1.0
 40
1.0
 40
1.0
 40
1.0
 10
10.94393072796891
 20
-3.93070731311126
 30
0.0
 10
10.8879587951552
 20
-3.926239976515254
 30
0.0
 10
10.83105958747466
 20
-3.904963869508973
 30
0.0
 10
10.78257678805006
 20
-3.86526102985433
 30
0.0
  0
SPLINE
  5
111
330
1F
100
AcDbEntity
  8
외형선
  6
Continuous
 62
     1
370
    15
100
AcDbSpline
210
0.0
220
0.0
230
1.0
 70
     8
 71
     3
 72
    12
 73
     8
 74
     0
 42
0.000000001
 43
0.00000001
 40
0.0
 40
0.0
 40
0.0
 40
0.0
 40
0.25
 40
0.25
 40
0.5
 40
0.5
 40
1.0
 40
1.0
 40
1.0
 40
1.0
 10
10.94393061303674
 20
-3.930707118414387
 30
0.0
 10
10.92543928705064
 20
-3.899382485355288
 30
0.0
 10
10.90694735907463
 20
-3.8486698747943
 30
0.0
 10
10.87076000250339
 20
-3.711482175092242
 30
0.0
 10
10.8533838331948
 20
-3.625668512094281
 30
0.0
 10
10.80132939899559
 20
-3.319086432162627
 30
0.0
 10
10.76397278054991
 20
-3.041461822624619
 30
0.0
 10
10.72706241989043
 20
-2.710357588084335
 30
0.0
  0
SPLINE
  5
112
330
1F
100
AcDbEntity
  8
외형선
  6
Continuous
 62
     1
370
    15
100
AcDbSpline
210
0.0
220
0.0
230
1.0
 70
     8
 71
     3
 72
     9
 73
     5
 74
     0
 42
0.000000001
 43
0.00000001
 40
0.0
 40
0.0
 40
0.0
 40
0.0
 40
0.6615348884419706
 40
1.0
 40
1.0
 40
1.0
 40
1.0
 10
10.94393132554166
 20
-3.930707360805835
 30
0.0
 10
11.15362430286213
 20
-3.945227395847536
 30
0.0
 10
11.47060377134389
 20
-3.967176404577668
 30
0.0
 10
11.78805460512336
 20
-3.966586651094947
 30
0.0
 10
11.89550063699271
 20
-3.966387040116626
 30
0.0
  0
SPLINE
  5
113
330
1F
100
AcDbEntity
  8
외형선
  6
Continuous
 62
     1
370
    15
100
AcDbSpline
210
0.0
220
0.0
230
1.0
 70
     8
 71
     3
 72
     8
 73
     4
 74
     0
 42
0.000000001
 43
0.00000001
 40
0.0
 40
0.0
 40
0.0
 40
0.0
 40
1.0
 40
1.0
 40
1.0
 40
1.0
 10
10.08389773107959
 20
2.768261295250082
 30
0.0
 10
10.0570808810793
 20
3.008217207867419
 30
0.0
 10
10.02864656894895
 20
3.221206638465302
 30
0.0
 10
10.00000000000042
 20
3.394104131529166
 30
0.0
  0
SPLINE
  5
114
330
1F
100
AcDbEntity
  8
외형선
  6
Continuous
370
    15
100
AcDbSpline
210
0.0
220
0.0
230
1.0
 70
    24
 71
     3
 72
     8
 73
     4
 74
     0
 42
0.000000001
 43
0.00000001
 40
0.0
 40
0.0
 40
0.0
 40
0.0
 40
1.0
 40
1.0
 40
1.0
 40
1.0
 10
9.99999999999994
 20
3.937482748236739
 30
0.0
 10
9.99999999999994
 20
3.868511905028809
 30
0.0
 10
10.00000000000254
 20
3.685903303216255
 30
0.0
 10
10.00000000000254
 20
3.39410413153276
 30
0.0
  0
SPLINE
  5
115
330
1F
100
AcDbEntity
  8
외형선
  6
Continuous
370
    15
100
AcDbSpline
210
0.0
220
0.0
230
1.0
 70
    24
 71
     3
 72
     8
 73
     4
 74
     0
 42
0.000000001
 43
0.00000001
 40
0.0
 40
0.0
 40
0.0
 40
0.0
 40
1.0
 40
1.0
 40
1.0
 40
1.0
 10
9.999999999999984
 20
3.394104131531784
 30
0.0
 10
9.999999999999984
 20
3.211248176433183
 30
0.0
 10
9.999999999999984
 20
3.000108077092087
 30
0.0
 10
9.999999999999984
 20
2.759467589608315
 30
0.0
  0
SPLINE
  5
116
330
1F
100
AcDbEntity
  8
외형선
  6
Continuous
 62
     1
370
    15
100
AcDbSpline
210
0.0
220
0.0
230
1.0
 70
     8
 71
     3
 72
    14
 73
    10
 74
     0
 42
0.000000001
 43
0.00000001
 40
0.0
 40
0.0
 40
0.0
 40
0.0
 40
0.0000573555225212
 40
0.0000573555225212
 40
0.0000573555225212
 40
0.0001123013834947
 40
0.0001123013834947
 40
0.0001123013834947
 40
0.0001685996768633
 40
0.0001685996768633
 40
0.0001685996768633
 40
0.0001685996768633
 10
10.13484815061435
 20
-3.789524332898864
 30
0.0
 10
10.1213408126578
 20
-3.796928013686118
 30
0.0
 10
10.10695145290412
 20
-3.802919686183376
 30
0.0
 10
10.09202848320646
 20
-3.807449642020089
 30
0.0
 10
10.07772583592943
 20
-3.811791295312008
 30
0.0
 10
10.06284163122326
 20
-3.814820048882598
 30
0.0
 10
10.04765215422442
 20
-3.816521847861662
 30
0.0
 10
10.03209006262269
 20
-3.818265393844315
 30
0.0
 10
10.01611213086227
 20
-3.818627211846665
 30
0.0
 10
10.00000000000147
 20
-3.817607832986074
 30
0.0
  0
SPLINE
  5
117
330
1F
100
AcDbEntity
  8
외형선
  6
Continuous
370
    15
100
AcDbSpline
210
0.0
220
0.0
230
1.0
 70
    24
 71
     3
 72
    10
 73
     6
 74
     0
 42
0.000000001
 43
0.00000001
 40
0.0
 40
0.0
 40
0.0
 40
0.0
 40
0.5000000000000002
 40
0.5000000000000002
 40
1.0
 40
1.0
 40
1.0
 40
1.0
 10
9.999999999999984
 20
-3.042308924124795
 30
0.0
 10
9.999999999999984
 20
-3.223954320271546
 30
0.0
 10
9.999999999999984
 20
-3.380349298166224
 30
0.0
 10
9.999999999999984
 20
-3.640048404142821
 30
0.0
 10
9.99999999999998
 20
-3.742903966082507
 30
0.0
 10
9.99999999999998
 20
-3.817607832980684
 30
0.0
  0
SPLINE
  5
118
330
1F
100
AcDbEntity
  8
외형선
  6
Continuous
 62
     1
370
    15
100
AcDbSpline
210
0.0
220
0.0
230
1.0
 70
     8
 71
     3
 72
     9
 73
     5
 74
     0
 42
0.000000001
 43
0.00000001
 40
0.0
 40
0.0
 40
0.0
 40
0.0
 40
0.7578021550080973
 40
1.0
 40
1.0
 40
1.0
 40
1.0
 10
12.23312809239841
 20
-3.910359336563125
 30
0.0
 10
12.21931987994921
 20
-3.920512150819967
 30
0.0
 10
12.20109848488197
 20
-3.933909861805274
 30
0.0
 10
12.1805384441553
 20
-3.941637511270047
 30
0.0
 10
12.17555884659836
 20
-3.943509131317268
 30
0.0
  0
SPLINE
  5
119
330
1F
100
AcDbEntity
  8
외형선
  6
Continuous
 62
     1
370
    15
100
AcDbSpline
210
0.0
220
0.0
230
1.0
 70
     8
 71
     3
 72
    10
 73
     6
 74
     0
 42
0.000000001
 43
0.00000001
 40
0.0
 40
0.0
 40
0.0
 40
0.0
 40
0.5
 40
0.5
 40
1.0
 40
1.0
 40
1.0
 40
1.0
 10
12.23312809239403
 20
-3.910359336565874
 30
0.0
 10
12.19692959080592
 20
-3.933022644495301
 30
0.0
 10
12.15892293349202
 20
-3.877671387723462
 30
0.0
 10
12.08582731994152
 20
-3.619049809797413
 30
0.0
 10
12.05199550296947
 20
-3.42125096823923
 30
0.0
 10
12.01529732149811
 20
-3.156064513097743
 30
0.0
  0
LINE
  5
11A
330
1F
100
AcDbEntity
  8
외형선
  6
Continuous
 62
     1
370
    15
100
AcDbLine
 10
12.81830626029303
 20
-3.903698008979994
 30
0.0
 11
12.81528455763734
 21
-3.8996095505612
 31
0.0
  0
LINE
  5
11B
330
1F
100
AcDbEntity
  8
외형선
  6
Continuous
 62
     1
370
    15
100
AcDbLine
 10
19.52499999999998
 20
0.7655735109555298
 30
0.0
 11
19.52499999999998
 21
2.569781359493129
 31
0.0
  0
LINE
  5
11C
330
1F
100
AcDbEntity
  8
외형선
  6
Continuous
 62
     1
370
    15
100
AcDbLine
 10
14.81533727676752
 20
-3.901293027378988
 30
0.0
 11
14.80998112992931
 21
-3.899416110042417
 31
0.0
  0
LINE
  5
11D
330
1F
100
AcDbEntity
  8
외형선
  6
Continuous
 62
     1
370
    15
100
AcDbLine
 10
14.98852875664925
 20
-3.963252330779758
 30
0.0
 11
14.98508316295653
 21
-3.96668112855642
 31
0.0
  0
LINE
  5
11E
330
1F
100
AcDbEntity
  8
외형선
  6
Continuous
 62
     1
370
    15
100
AcDbLine
 10
19.52499999999998
 20
2.868749999999996
 30
0.0
 11
19.52499999999998
 21
2.826690178507683
 31
0.0
  0
LINE
  5
11F
330
1F
100
AcDbEntity
  8
외형선
  6
Continuous
 62
     1
370
    15
100
AcDbLine
 10
19.52499999999998
 20
-1.837210513558701
 30
0.0
 11
19.52499999999998
 21
-2.320163692655719
 31
0.0
  0
SPLINE
  5
120
330
1F
100
AcDbEntity
  8
외형선
  6
Continuous
 62
     1
370
    15
100
AcDbSpline
210
0.0
220
0.0
230
1.0
 70
     8
 71
     3
 72
    11
 73
     7
 74
     0
 42
0.000000001
 43
0.00000001
 40
0.0
 40
0.0
 40
0.0
 40
0.0
 40
0.2866578912336002
 40
0.6103971833396034
 40
0.9311409443401122
 40
1.0
 40
1.0
 40
1.0
 40
1.0
 10
12.06251434197448
 20
-3.959316866435136
 30
0.0
 10
12.04231929490479
 20
-3.949696743737023
 30
0.0
 10
11.99931681625088
 20
-3.929212061550045
 30
0.0
 10
11.93399414438757
 20
-3.680652219693093
 30
0.0
 10
11.88613489161515
 20
-3.384749322697516
 30
0.0
 10
11.85884109157808
 20
-3.183203124553561
 30
0.0
 10
11.85401713955424
 20
-3.147581511252623
 30
0.0
  0
SPLINE
  5
121
330
1F
100
AcDbEntity
  8
외형선
  6
Continuous
 62
     1
370
    15
100
AcDbSpline
210
0.0
220
0.0
230
1.0
 70
     8
 71
     3
 72
    10
 73
     6
 74
     0
 42
0.000000001
 43
0.00000001
 40
0.0
 40
0.0
 40
0.0
 40
0.0
 40
0.2900215702612188
 40
0.64731455471902
 40
1.0
 40
1.0
 40
1.0
 40
1.0
 10
12.81528455763734
 20
-3.8996095505612
 30
0.0
 10
12.80027105112853
 20
-3.88493015737284
 30
0.0
 10
12.7667616081179
 20
-3.852166439637257
 30
0.0
 10
12.7152951585367
 20
-3.671875241535771
 30
0.0
 10
12.68008899877717
 20
-3.463336531990166
 30
0.0
 10
12.66260015741056
 20
-3.359743852897826
 30
0.0
  0
SPLINE
  5
122
330
1F
100
AcDbEntity
  8
외형선
  6
Continuous
 62
     1
370
    15
100
AcDbSpline
210
0.0
220
0.0
230
1.0
 70
     8
 71
     3
 72
    11
 73
     7
 74
     0
 42
0.000000001
 43
0.00000001
 40
0.0
 40
0.0
 40
0.0
 40
0.0
 40
0.0007167850963096
 40
0.3360532734417115
 40
0.6703889356846242
 40
1.0
 40
1.0
 40
1.0
 40
1.0
 10
12.98785105021333
 20
-3.968615685563333
 30
0.0
 10
12.98781252051195
 20
-3.968655427026719
 30
0.0
 10
12.96974848382845
 20
-3.987287579021537
 30
0.0
 10
12.93226163362294
 20
-3.917812252400393
 30
0.0
 10
12.87743623489453
 20
-3.760293563812263
 30
0.0
 10
12.84235632384703
 20
-3.557126420134369
 30
0.0
 10
12.82494118140572
 20
-3.456265709804914
 30
0.0
  0
SPLINE
  5
123
330
1F
100
AcDbEntity
  8
외형선
  6
Continuous
 62
     1
370
    15
100
AcDbSpline
210
0.0
220
0.0
230
1.0
 70
     8
 71
     3
 72
     9
 73
     5
 74
     0
 42
0.000000001
 43
0.00000001
 40
0.0
 40
0.0
 40
0.0
 40
0.0
 40
0.2479877350005356
 40
1.0
 40
1.0
 40
1.0
 40
1.0
 10
14.06211243156595
 20
-3.938722705386372
 30
0.0
 10
14.05294678918485
 20
-3.947437110216698
 30
0.0
 10
14.01598672589348
 20
-3.982577577265631
 30
0.0
 10
13.97825984227987
 20
-3.837211601986516
 30
0.0
 10
13.94988876308223
 20
-3.727894605663014
 30
0.0
  0
SPLINE
  5
124
330
1F
100
AcDbEntity
  8
외형선
  6
Continuous
 62
     1
370
    15
100
AcDbSpline
210
0.0
220
0.0
230
1.0
 70
     8
 71
     3
 72
    10
 73
     6
 74
     0
 42
0.000000001
 43
0.00000001
 40
0.0
 40
0.0
 40
0.0
 40
0.0
 40
0.1320475371590155
 40
0.5664058522525566
 40
0.9999999999999999
 40
0.9999999999999999
 40
0.9999999999999999
 40
0.9999999999999999
 10
14.23561891040086
 20
-3.897019329894527
 30
0.0
 10
14.23026398082034
 20
-3.904191318671532
 30
0.0
 10
14.20729449938917
 20
-3.934954909594802
 30
0.0
 10
14.16499134781652
 20
-3.883784490497304
 30
0.0
 10
14.12904443418609
 20
-3.765201787469876
 30
0.0
 10
14.11108680165778
 20
-3.705962637564744
 30
0.0
  0
SPLINE
  5
125
330
1F
100
AcDbEntity
  8
외형선
  6
Continuous
 62
     1
370
    15
100
AcDbSpline
210
0.0
220
0.0
230
1.0
 70
     8
 71
     3
 72
     9
 73
     5
 74
     0
 42
0.000000001
 43
0.00000001
 40
0.0
 40
0.0
 40
0.0
 40
0.0
 40
0.1368363720742701
 40
1.0
 40
1.0
 40
1.0
 40
1.0
 10
14.80998112992931
 20
-3.899416110042417
 30
0.0
 10
14.80765474080365
 20
-3.898864358132728
 30
0.0
 10
14.7906534925946
 20
-3.89483215601186
 30
0.0
 10
14.77350437039521
 20
-3.848535078013509
 30
0.0
 10
14.75870187186183
 20
-3.808573124206093
 30
0.0
  0
SPLINE
  5
126
330
1F
100
AcDbEntity
  8
외형선
  6
Continuous
 62
     1
370
    15
100
AcDbSpline
210
0.0
220
0.0
230
1.0
 70
     8
 71
     3
 72
     9
 73
     5
 74
     0
 42
0.000000001
 43
0.00000001
 40
0.0
 40
0.0
 40
0.0
 40
0.0
 40
0.0252055666128882
 40
1.0
 40
1.0
 40
1.0
 40
1.0
 10
14.98508316295653
 20
-3.96668112855642
 30
0.0
 10
14.98455931551914
 20
-3.967218448976038
 30
0.0
 10
14.96377630970789
 20
-3.988535978864177
 30
0.0
 10
14.94224760380351
 20
-3.934917877982876
 30
0.0
 10
14.9212615411299
 20
-3.882651251714995
 30
0.0
  0
LINE
  5
127
330
1F
100
AcDbEntity
  8
외형선
  6
Continuous
 62
     1
370
    15
100
AcDbLine
 10
16.06230218022616
 20
-3.953239249207101
 30
0.0
 11
16.04811650945694
 21
-3.964742471926963
 31
0.0
  0
LINE
  5
128
330
1F
100
AcDbEntity
  8
중심선
100
AcDbLine
 10
-40.62500000000001
 20
-0.000000000000005
 30
0.0
 11
22.525
 21
0.0000000000000027
 31
0.0
  0
LINE
  5
129
330
1F
100
AcDbEntity
  8
참조1
100
AcDbLine
 10
-9.050000000000013
 20
-0.3168705809327315
 30
0.0
 11
-9.050000000000008
 21
-40.31687058093274
 31
0.0
  0
LINE
  5
12A
330
1F
100
AcDbEntity
  8
참조1
100
AcDbLine
 10
-19.72860765519648
 20
-3.96874999999999
 30
0.0
 11
48.41397268839599
 21
-3.96874999999999
 31
0.0
  0
LINE
  5
12B
330
1F
100
AcDbEntity
  8
참조1
100
AcDbLine
 10
48.41397268839599
 20
-3.96874999999999
 30
0.0
 11
48.41397268839599
 21
-6.927248606176841
 31
0.0
  0
LINE
  5
12C
330
1F
100
AcDbEntity
  8
참조1
100
AcDbLine
 10
-9.050000000000008
 20
-40.31687058093274
 30
0.0
 11
-24.19604980726571
 21
-40.31687058093273
 31
0.0
  0
CIRCLE
  5
12D
330
1F
100
AcDbEntity
  8
해칭선
100
AcDbCircle
 10
0.0
 20
0.0
 30
0.0
 40
3.000000000000005
  0
INSERT
  5
12E
330
1F
100
AcDbEntity
  8
0
  6
Continuous
 62
     7
100
AcDbBlockReference
 66
     1
  2
블럭10
 10
-22.99027293212522
 20
-52.36404488257666
 30
0.0
  0
ATTRIB
  5
12F
330
12E
100
AcDbEntity
  8
FORMAT
 62
     2
100
AcDbText
 10
-32.51258688272315
 20
-50.28867796974447
 30
0.0
 40
4.233333333333333
  1
EH094020 [ 3 FLUTE ]
 41
0.75
  7
SLDTEXTSTYLE0
 11
-32.51258688272315
 21
-52.40534463641114
 31
0.0
100
AcDbAttribute
  2
AUTOATTR0
 70
     0
 74
     1
  0
SEQEND
  5
130
330
12E
100
AcDbEntity
  8
0
  6
Continuous
 62
     7
  0
HATCH
  5
131
330
1F
100
AcDbEntity
  8
중심선
100
AcDbHatch
 10
0.0
 20
0.0
 30
0.0
210
0.0
220
0.0
230
1.0
  2
SOLID
 70
     1
 71
     0
 91
        1
 92
        0
 93
        4
 72
     1
 10
-17.27536362774439
 20
-36.11687058093273
 11
-20.72163887158167
 21
-36.11687058093273
 72
     1
 10
-20.72163887158167
 20
-36.11687058093273
 11
-22.84986873078569
 21
-38.65319616150532
 72
     1
 10
-22.84986873078569
 20
-38.65319616150532
 11
-19.40356040183526
 21
-38.65315673220283
 72
     1
 10
-19.40356040183526
 20
-38.65315673220283
 11
-17.27536362774439
 21
-36.11687058093273
 97
        0
 75
     0
 76
     1
 98
        1
 10
-0.0000000000000142
 20
-0.316870580932728
  0
HATCH
  5
132
330
1F
100
AcDbEntity
  8
중심선
100
AcDbHatch
 10
0.0
 20
0.0
 30
0.0
210
0.0
220
0.0
230
1.0
  2
SOLID
 70
     1
 71
     0
 91
        1
 92
        0
 93
        4
 72
     1
 10
-12.26259963670841
 20
-36.11687058093275
 11
-15.70887488054569
 21
-36.1168705809327
 72
     1
 10
-15.70887488054569
 20
-36.1168705809327
 11
-20.24001288890311
 21
-41.51687058093275
 72
     1
 10
-20.24001288890311
 20
-41.51687058093275
 11
-16.79373764506582
 21
-41.51687058093275
 72
     1
 10
-16.79373764506582
 20
-41.51687058093275
 11
-12.26259963670841
 21
-36.11687058093275
 97
        0
 75
     0
 76
     1
 98
        1
 10
-0.0000000000000142
 20
-0.316870580932728
  0
HATCH
  5
133
330
1F
100
AcDbEntity
  8
중심선
100
AcDbHatch
 10
0.0
 20
0.0
 30
0.0
210
0.0
220
0.0
230
1.0
  2
SOLID
 70
     1
 71
     0
 91
        1
 92
        0
 93
        4
 72
     1
 10
-7.249835645672539
 20
-36.11687058093273
 11
-10.69611088950966
 21
-36.11687058093273
 72
     1
 10
-10.69611088950966
 20
-36.11687058093273
 11
-17.7445477913989
 21
-44.51687058093275
 72
     1
 10
-17.7445477913989
 20
-44.51687058093275
 11
-14.29827254756162
 21
-44.51687058093275
 72
     1
 10
-14.29827254756162
 20
-44.51687058093275
 11
-7.249835645672539
 21
-36.11687058093273
 97
        0
 75
     0
 76
     1
 98
        1
 10
-0.0000000000000142
 20
-0.316870580932728
  0
HATCH
  5
134
330
1F
100
AcDbEntity
  8
중심선
100
AcDbHatch
 10
0.0
 20
0.0
 30
0.0
210
0.0
220
0.0
230
1.0
  2
SOLID
 70
     1
 71
     0
 91
        1
 92
        0
 93
        6
 72
     3
 10
-2.449945214660341
 20
-40.316870580984
 11
3.960054785062284
 21
1.540882976769353E-10
 40
0.3939339440162627
 50
17.09539180608437
 51
320.0019657685082
 73
     0
 72
     1
 10
-0.7669455589597727
 20
-38.90476458557106
 11
1.538356314741293
 21
-36.97043787552313
 72
     3
 10
-2.449945214713187
 20
-40.31687058093288
 11
6.600054785286829
 21
-1.278976924368180E-13
 40
0.636358354079598
 50
39.99873849337393
 51
368.4976242363725
 73
     1
 72
     1
 10
3.975387277187422
 20
-39.35687058086275
 11
-3.769877907877265
 21
-39.35687058086272
 72
     1
 10
-3.769877907877265
 20
-39.35687058086272
 11
-3.769902952323198
 21
-41.27687058086264
 72
     1
 10
-3.769902952323198
 20
-41.27687058086264
 11
0.6714768171488386
 21
-41.27687058086261
 97
        0
 75
     0
 76
     1
 98
        1
 10
-0.0000000000000142
 20
-0.316870580932728
  0
POINT
  5
135
330
1F
100
AcDbEntity
  8
치수문자_일반주서
100
AcDbPoint
 10
-0.0000000000000038
 20
-0.3168705809327315
 30
0.0
  0
DIMENSION
  5
136
330
1F
100
AcDbEntity
  8
치수문자_일반주서
100
AcDbDimension
  2
_D
 10
45.47875968181996
 20
-3.968749999999883
 30
0.0
 11
45.47875968181986
 21
24.57275000000014
 31
0.0
 70
   160
  1
%%c<>
 71
     2
 42
7.937500000000028
 52
-270.0
  3
SLDDIMSTYLE0
100
AcDbAlignedDimension
 13
9.15874963607309
 23
3.968750000000008
 33
0.0
 14
15.52541546843771
 24
-3.968749999999997
 34
0.0
 50
90.0000000000002
100
AcDbRotatedDimension
1001
ACAD
1000
DSTYLE
1002
{
1070
   171
1070
     6
1070
   273
1070
     7
1002
}
  0
DIMENSION
  5
149
330
1F
100
AcDbEntity
  8
치수문자_일반주서
100
AcDbDimension
  2
_D_1
 10
-47.62500000000003
 20
-3.968750000000029
 30
0.0
 11
-47.62500000000004
 21
-0.6358402172628896
 31
0.0
 70
   160
  1
%%c<>
 71
     2
 42
7.937499999999986
 52
-270.0
  3
SLDDIMSTYLE1
100
AcDbAlignedDimension
 13
-36.81500000000001
 23
3.968749999999996
 33
0.0
 14
-36.81500000000001
 24
-3.96874999999999
 34
0.0
 50
90.0000000000002
100
AcDbRotatedDimension
1001
ACAD
1000
DSTYLE
1002
{
1070
   171
1070
     6
1070
   273
1070
     7
1002
}
  0
DIMENSION
  5
15E
330
1F
100
AcDbEntity
  8
치수문자_일반주서
100
AcDbDimension
  2
_D_2
 10
9.999999999999984
 20
19.75702418781196
 30
0.0
 11
-5.114500000000016
 21
19.75702418781196
 31
0.0
 70
   160
  1
<>
 71
     2
 42
9.525000000000002
  3
SLDDIMSTYLE0
100
AcDbAlignedDimension
 13
19.52499999999998
 23
2.569781359493129
 33
0.0
 14
9.999999999999984
 24
3.938961031821399
 34
0.0
 50
-0.0000000000000427
100
AcDbRotatedDimension
1001
ACAD
1000
DSTYLE
1002
{
1070
   171
1070
     6
1070
   273
1070
     7
1002
}
  0
DIMENSION
  5
172
330
1F
100
AcDbEntity
  8
치수문자_일반주서
100
AcDbDimension
  2
_D_3
 10
-37.62500000000002
 20
36.82407034213167
 30
0.0
 11
-6.551341946872259
 21
36.82407034213167
 31
0.0
 70
   160
  1
<>
 71
     2
 42
57.15000000000001
  3
SLDDIMSTYLE0
100
AcDbAlignedDimension
 13
19.52499999999998
 23
2.826690178507683
 33
0.0
 14
-37.62500000000002
 24
3.158749999999997
 34
0.0
100
AcDbRotatedDimension
1001
ACAD
1000
DSTYLE
1002
{
1070
   171
1070
     6
1070
   273
1070
     7
1002
}
  0
LINE
  5
185
330
1F
100
AcDbEntity
  8
참조1
100
AcDbLine
 10
73.77629082238856
 20
7.123129419067274
 30
0.0
 11
73.77629082238856
 21
-7.756870580932731
 31
0.0
  0
LINE
  5
186
330
1F
100
AcDbEntity
  8
참조1
100
AcDbLine
 10
86.47629082238856
 20
5.123129419067274
 30
0.0
 11
73.77629082238856
 21
5.123129419067274
 31
0.0
  0
SOLID
  5
187
330
1F
100
AcDbEntity
  8
참조1
100
AcDbTrace
 10
73.77629082238856
 20
5.123129419067274
 30
0.0
 11
80.12629082238855
 21
4.107129419067274
 31
0.0
 12
80.12629082238855
 22
6.139129419067274
 32
0.0
 13
80.12629082238855
 23
6.139129419067274
 33
0.0
  0
LINE
  5
188
330
1F
100
AcDbEntity
  8
참조1
100
AcDbLine
 10
86.47629082238856
 20
-5.756870580932731
 30
0.0
 11
73.77629082238856
 21
-5.756870580932731
 31
0.0
  0
SOLID
  5
189
330
1F
100
AcDbEntity
  8
참조1
100
AcDbTrace
 10
73.77629082238856
 20
-5.756870580932731
 30
0.0
 11
80.12629082238855
 21
-6.772870580932731
 31
0.0
 12
80.12629082238855
 22
-4.740870580932731
 32
0.0
 13
80.12629082238855
 23
-4.740870580932731
 33
0.0
  0
MTEXT
  5
18A
330
1F
100
AcDbEntity
  8
참조1
100
AcDbMText
 10
83.37640563295112
 20
10.74884698508335
 30
0.0
 40
3.5
 41
0.0
 71
     1
 72
     1
  1
A
  7
SLDTEXTSTYLE0
 73
     1
 44
1.0
  0
MTEXT
  5
18B
330
1F
100
AcDbEntity
  8
참조1
100
AcDbMText
 10
83.37640563295112
 20
-0.1311530149166544
 30
0.0
 40
3.5
 41
0.0
 71
     1
 72
     1
  1
A
  7
SLDTEXTSTYLE0
 73
     1
 44
1.0
  0
INSERT
  5
192
330
1F
100
AcDbEntity
  8
해칭선
100
AcDbBlockReference
  2
SW_DOWELSYMBOL_0
 10
0.0
 20
0.0
 30
0.0
  0
ENDSEC
  0
SECTION
  2
OBJECTS
  0
DICTIONARY
  5
C
330
0
100
AcDbDictionary
281
     1
  3
ACAD_GROUP
350
D
  3
ACAD_IMAGE_VARS
350
1B6
  3
ACAD_LAYOUT
350
1A
  3
ACAD_MLINESTYLE
350
17
  3
ACAD_PLOTSETTINGS
350
19
  3
ACAD_PLOTSTYLENAME
350
E
  3
ACAD_SCALELIST
350
47
  3
APPDATA
350
1B4
  3
DWGPROPS
350
1B8
  0
DICTIONARY
  5
D
102
{ACAD_REACTORS
330
C
102
}
330
C
100
AcDbDictionary
281
     1
  0
RASTERVARIABLES
  5
1B6
102
{ACAD_REACTORS
330
C
102
}
330
C
100
AcDbRasterVariables
 90
        0
 70
     1
 71
     1
 72
     1
  0
DICTIONARY
  5
1A
102
{ACAD_REACTORS
330
C
102
}
330
C
100
AcDbDictionary
281
     1
  3
Layout1
350
1E
  3
Layout2
350
26
  3
Model
350
22
  0
DICTIONARY
  5
17
102
{ACAD_REACTORS
330
C
102
}
330
C
100
AcDbDictionary
281
     1
  3
Standard
350
18
  0
DICTIONARY
  5
19
102
{ACAD_REACTORS
330
C
102
}
330
C
100
AcDbDictionary
281
     1
  0
ACDBDICTIONARYWDFLT
  5
E
102
{ACAD_REACTORS
330
C
102
}
330
C
100
AcDbDictionary
281
     1
  3
Normal
350
F
100
AcDbDictionaryWithDefault
340
F
  0
DICTIONARY
  5
47
102
{ACAD_REACTORS
330
C
102
}
330
C
100
AcDbDictionary
281
     1
  3
A0
350
48
  3
A1
350
49
  3
A2
350
4A
  3
A3
350
4B
  3
A4
350
4C
  3
A5
350
4D
  3
A6
350
4E
  3
A7
350
4F
  3
A8
350
50
  3
A9
350
51
  3
B0
350
52
  3
B1
350
53
  3
B2
350
54
  3
B3
350
55
  3
B4
350
56
  3
B5
350
57
  3
B6
350
58
  3
B7
350
59
  3
B8
350
5A
  3
B9
350
5B
  3
C0
350
5C
  3
C1
350
5D
  3
C2
350
5E
  3
C3
350
5F
  3
C4
350
60
  3
C5
350
61
  3
C6
350
62
  3
C7
350
63
  3
C8
350
64
  3
C9
350
65
  3
D0
350
66
  3
D1
350
67
  3
D2
350
68
  0
DICTIONARY
  5
1B4
102
{ACAD_REACTORS
330
C
102
}
330
C
100
AcDbDictionary
281
     1
  0
XRECORD
  5
1B8
102
{ACAD_REACTORS
330
C
102
}
330
C
100
AcDbXrecord
280
     1
  1
DWGPROPS COOKIE
  2

  3

  4

  6

  7

  8
12016016
  9

300
=
301
=
302
=
303
=
304
=
305
=
306
=
307
=
308
=
309
=
 40
0.0
 41
2458298.968573727
 42
2458302.202928253
  1

 90
        0
  0
LAYOUT
  5
1E
102
{ACAD_REACTORS
330
1A
102
}
330
1A
100
AcDbPlotSettings
  1

  2
none_device
  4

  6

 40
0.0
 41
0.0
 42
0.0
 43
0.0
 44
0.0
 45
0.0
 46
0.0
 47
0.0
 48
0.0
 49
0.0
140
0.0
141
0.0
142
1.0
143
1.0
 70
   688
 72
     1
 73
     0
 74
     5
  7

 75
    16
147
1.0
148
0.0
149
0.0
100
AcDbLayout
  1
Layout1
 70
     1
 71
     1
 10
0.0
 20
0.0
 11
420.0
 21
297.0
 12
0.0
 22
0.0
 32
0.0
 14
1.000000000000000E+20
 24
1.000000000000000E+20
 34
1.000000000000000E+20
 15
-1.000000000000000E+20
 25
-1.000000000000000E+20
 35
-1.000000000000000E+20
146
0.0
 13
0.0
 23
0.0
 33
0.0
 16
1.0
 26
0.0
 36
0.0
 17
0.0
 27
1.0
 37
0.0
 76
     0
330
1B
  0
LAYOUT
  5
26
102
{ACAD_REACTORS
330
1A
102
}
330
1A
100
AcDbPlotSettings
  1

  2
none_device
  4

  6

 40
0.0
 41
0.0
 42
0.0
 43
0.0
 44
0.0
 45
0.0
 46
0.0
 47
0.0
 48
0.0
 49
0.0
140
0.0
141
0.0
142
1.0
143
1.0
 70
   688
 72
     1
 73
     0
 74
     5
  7

 75
    16
147
1.0
148
0.0
149
0.0
100
AcDbLayout
  1
Layout2
 70
     1
 71
     2
 10
0.0
 20
0.0
 11
0.0
 21
0.0
 12
0.0
 22
0.0
 32
0.0
 14
0.0
 24
0.0
 34
0.0
 15
0.0
 25
0.0
 35
0.0
146
0.0
 13
0.0
 23
0.0
 33
0.0
 16
1.0
 26
0.0
 36
0.0
 17
0.0
 27
1.0
 37
0.0
 76
     0
330
23
  0
LAYOUT
  5
22
102
{ACAD_REACTORS
330
1A
102
}
330
1A
100
AcDbPlotSettings
  1

  2
none_device
  4
ANSI_A_(11.00_x_8.50_Inches)
  6

 40
6.35
 41
19.05
 42
6.35000508
 43
19.05000254
 44
279.4
 45
215.9
 46
106.5679531123871
 47
91.55539950660156
 48
0.0
 49
0.0
140
0.0
141
0.0
142
0.0751583021540191
143
1.0
 70
  1696
 72
     0
 73
     0
 74
     0
  7

 75
     0
147
0.0235690232323232
148
0.0
149
0.0
100
AcDbLayout
  1
Model
 70
     1
 71
     0
 10
0.0
 20
0.0
 11
420.0
 21
297.0
 12
0.0
 22
0.0
 32
0.0
 14
-52.00000000000009
 24
-50.28867796974448
 34
0.0
 15
86.47629082238856
 25
41.19907034213167
 35
0.0
146
0.0
 13
0.0
 23
0.0
 33
0.0
 16
1.0
 26
0.0
 36
0.0
 17
0.0
 27
1.0
 37
0.0
 76
     0
330
1F
331
29
  0
MLINESTYLE
  5
18
102
{ACAD_REACTORS
330
17
102
}
330
17
100
AcDbMlineStyle
  2
Standard
 70
     0
  3

 62
   256
 51
90.0
 52
90.0
 71
     2
 49
0.5
 62
   256
  6
BYLAYER
 49
-0.5
 62
   256
  6
BYLAYER
  0
ACDBPLACEHOLDER
  5
F
102
{ACAD_REACTORS
330
E
102
}
330
E
  0
SCALE
  5
48
102
{ACAD_REACTORS
330
47
102
}
330
47
100
AcDbScale
 70
     0
300
1:1
140
1.0
141
1.0
290
     1
  0
SCALE
  5
49
102
{ACAD_REACTORS
330
47
102
}
330
47
100
AcDbScale
 70
     0
300
1:2
140
1.0
141
2.0
290
     0
  0
SCALE
  5
4A
102
{ACAD_REACTORS
330
47
102
}
330
47
100
AcDbScale
 70
     0
300
1:4
140
1.0
141
4.0
290
     0
  0
SCALE
  5
4B
102
{ACAD_REACTORS
330
47
102
}
330
47
100
AcDbScale
 70
     0
300
1:5
140
1.0
141
5.0
290
     0
  0
SCALE
  5
4C
102
{ACAD_REACTORS
330
47
102
}
330
47
100
AcDbScale
 70
     0
300
1:8
140
1.0
141
8.0
290
     0
  0
SCALE
  5
4D
102
{ACAD_REACTORS
330
47
102
}
330
47
100
AcDbScale
 70
     0
300
1:10
140
1.0
141
10.0
290
     0
  0
SCALE
  5
4E
102
{ACAD_REACTORS
330
47
102
}
330
47
100
AcDbScale
 70
     0
300
1:16
140
1.0
141
16.0
290
     0
  0
SCALE
  5
4F
102
{ACAD_REACTORS
330
47
102
}
330
47
100
AcDbScale
 70
     0
300
1:20
140
1.0
141
20.0
290
     0
  0
SCALE
  5
50
102
{ACAD_REACTORS
330
47
102
}
330
47
100
AcDbScale
 70
     0
300
1:30
140
1.0
141
30.0
290
     0
  0
SCALE
  5
51
102
{ACAD_REACTORS
330
47
102
}
330
47
100
AcDbScale
 70
     0
300
1:40
140
1.0
141
40.0
290
     0
  0
SCALE
  5
52
102
{ACAD_REACTORS
330
47
102
}
330
47
100
AcDbScale
 70
     0
300
1:50
140
1.0
141
50.0
290
     0
  0
SCALE
  5
53
102
{ACAD_REACTORS
330
47
102
}
330
47
100
AcDbScale
 70
     0
300
1:100
140
1.0
141
100.0
290
     0
  0
SCALE
  5
54
102
{ACAD_REACTORS
330
47
102
}
330
47
100
AcDbScale
 70
     0
300
2:1
140
2.0
141
1.0
290
     0
  0
SCALE
  5
55
102
{ACAD_REACTORS
330
47
102
}
330
47
100
AcDbScale
 70
     0
300
4:1
140
4.0
141
1.0
290
     0
  0
SCALE
  5
56
102
{ACAD_REACTORS
330
47
102
}
330
47
100
AcDbScale
 70
     0
300
8:1
140
8.0
141
1.0
290
     0
  0
SCALE
  5
57
102
{ACAD_REACTORS
330
47
102
}
330
47
100
AcDbScale
 70
     0
300
10:1
140
10.0
141
1.0
290
     0
  0
SCALE
  5
58
102
{ACAD_REACTORS
330
47
102
}
330
47
100
AcDbScale
 70
     0
300
100:1
140
100.0
141
1.0
290
     0
  0
SCALE
  5
59
102
{ACAD_REACTORS
330
47
102
}
330
47
100
AcDbScale
 70
     0
300
1/128" = 1'-0"
140
0.0078125
141
12.0
290
     0
  0
SCALE
  5
5A
102
{ACAD_REACTORS
330
47
102
}
330
47
100
AcDbScale
 70
     0
300
1/64" = 1'-0"
140
0.015625
141
12.0
290
     0
  0
SCALE
  5
5B
102
{ACAD_REACTORS
330
47
102
}
330
47
100
AcDbScale
 70
     0
300
1/32" = 1'-0"
140
0.03125
141
12.0
290
     0
  0
SCALE
  5
5C
102
{ACAD_REACTORS
330
47
102
}
330
47
100
AcDbScale
 70
     0
300
1/16" = 1'-0"
140
0.0625
141
12.0
290
     0
  0
SCALE
  5
5D
102
{ACAD_REACTORS
330
47
102
}
330
47
100
AcDbScale
 70
     0
300
3/32" = 1'-0"
140
0.09375
141
12.0
290
     0
  0
SCALE
  5
5E
102
{ACAD_REACTORS
330
47
102
}
330
47
100
AcDbScale
 70
     0
300
1/8" = 1'-0"
140
0.125
141
12.0
290
     0
  0
SCALE
  5
5F
102
{ACAD_REACTORS
330
47
102
}
330
47
100
AcDbScale
 70
     0
300
3/16" = 1'-0"
140
0.1875
141
12.0
290
     0
  0
SCALE
  5
60
102
{ACAD_REACTORS
330
47
102
}
330
47
100
AcDbScale
 70
     0
300
1/4" = 1'-0"
140
0.25
141
12.0
290
     0
  0
SCALE
  5
61
102
{ACAD_REACTORS
330
47
102
}
330
47
100
AcDbScale
 70
     0
300
3/8" = 1'-0"
140
0.375
141
12.0
290
     0
  0
SCALE
  5
62
102
{ACAD_REACTORS
330
47
102
}
330
47
100
AcDbScale
 70
     0
300
1/2" = 1'-0"
140
0.5
141
12.0
290
     0
  0
SCALE
  5
63
102
{ACAD_REACTORS
330
47
102
}
330
47
100
AcDbScale
 70
     0
300
3/4" = 1'-0"
140
0.75
141
12.0
290
     0
  0
SCALE
  5
64
102
{ACAD_REACTORS
330
47
102
}
330
47
100
AcDbScale
 70
     0
300
1" = 1'-0"
140
1.0
141
12.0
290
     0
  0
SCALE
  5
65
102
{ACAD_REACTORS
330
47
102
}
330
47
100
AcDbScale
 70
     0
300
1-1/2" = 1'-0"
140
1.5
141
12.0
290
     0
  0
SCALE
  5
66
102
{ACAD_REACTORS
330
47
102
}
330
47
100
AcDbScale
 70
     0
300
3" = 1'-0"
140
3.0
141
12.0
290
     0
  0
SCALE
  5
67
102
{ACAD_REACTORS
330
47
102
}
330
47
100
AcDbScale
 70
     0
300
6" = 1'-0"
140
6.0
141
12.0
290
     0
  0
SCALE
  5
68
102
{ACAD_REACTORS
330
47
102
}
330
47
100
AcDbScale
 70
     0
300
1'-0" = 1'-0"
140
12.0
141
12.0
290
     0
  0
ENDSEC
  0
EOF
