  0
SECTION
  2
HEADER
  9
$ACADVER
  1
AC1015
  9
$ACADMAINTVER
 70
     6
  9
$DWGCODEPAGE
  3
ANSI_949
  9
$INSBASE
 10
0.0
 20
0.0
 30
0.0
  9
$EXTMIN
 10
-50.41250000000012
 20
-50.28867796974448
 30
0.0
  9
$EXTMAX
 10
86.47629082238856
 20
40.39198679301992
 30
0.0
  9
$LIMMIN
 10
0.0
 20
0.0
  9
$LIMMAX
 10
420.0
 20
297.0
  9
$ORTHOMODE
 70
     0
  9
$REGENMODE
 70
     1
  9
$FILLMODE
 70
     1
  9
$QTEXTMODE
 70
     0
  9
$MIRRTEXT
 70
     1
  9
$LTSCALE
 40
1.0
  9
$ATTMODE
 70
     1
  9
$TEXTSIZE
 40
3.5
  9
$TRACEWID
 40
1.0
  9
$TEXTSTYLE
  7
Standard
  9
$CLAYER
  8
0
  9
$CELTYPE
  6
ByLayer
  9
$CECOLOR
 62
   256
  9
$CELTSCALE
 40
1.0
  9
$DISPSILH
 70
     0
  9
$DIMSCALE
 40
1.0
  9
$DIMASZ
 40
3.302
  9
$DIMEXO
 40
1.0
  9
$DIMDLI
 40
3.75
  9
$DIMRND
 40
0.0
  9
$DIMDLE
 40
0.0
  9
$DIMEXE
 40
1.0
  9
$DIMTP
 40
0.0
  9
$DIMTM
 40
0.0
  9
$DIMTXT
 40
3.5
  9
$DIMCEN
 40
2.5
  9
$DIMTSZ
 40
0.0
  9
$DIMTOL
 70
     0
  9
$DIMLIM
 70
     0
  9
$DIMTIH
 70
     1
  9
$DIMTOH
 70
     1
  9
$DIMSE1
 70
     0
  9
$DIMSE2
 70
     0
  9
$DIMTAD
 70
     1
  9
$DIMZIN
 70
     0
  9
$DIMBLK
  1

  9
$DIMASO
 70
     1
  9
$DIMSHO
 70
     1
  9
$DIMPOST
  1

  9
$DIMAPOST
  1

  9
$DIMALT
 70
     0
  9
$DIMALTD
 70
     3
  9
$DIMALTF
 40
0.0393700787401575
  9
$DIMLFAC
 40
1.0
  9
$DIMTOFL
 70
     1
  9
$DIMTVP
 40
0.0
  9
$DIMTIX
 70
     0
  9
$DIMSOXD
 70
     0
  9
$DIMSAH
 70
     0
  9
$DIMBLK1
  1

  9
$DIMBLK2
  1

  9
$DIMSTYLE
  2
ISO-25
  9
$DIMCLRD
 70
     0
  9
$DIMCLRE
 70
     0
  9
$DIMCLRT
 70
     0
  9
$DIMTFAC
 40
1.0
  9
$DIMGAP
 40
1.524
  9
$DIMJUST
 70
     0
  9
$DIMSD1
 70
     0
  9
$DIMSD2
 70
     0
  9
$DIMTOLJ
 70
     0
  9
$DIMTZIN
 70
     0
  9
$DIMALTZ
 70
     0
  9
$DIMALTTZ
 70
     0
  9
$DIMUPT
 70
     0
  9
$DIMDEC
 70
     2
  9
$DIMTDEC
 70
     2
  9
$DIMALTU
 70
     2
  9
$DIMALTTD
 70
     3
  9
$DIMTXSTY
  7
Standard
  9
$DIMAUNIT
 70
     0
  9
$DIMADEC
 70
     2
  9
$DIMALTRND
 40
0.0
  9
$DIMAZIN
 70
     0
  9
$DIMDSEP
 70
    44
  9
$DIMATFIT
 70
     3
  9
$DIMFRAC
 70
     0
  9
$DIMLDRBLK
  1

  9
$DIMLUNIT
 70
     2
  9
$DIMLWD
 70
    -2
  9
$DIMLWE
 70
    -2
  9
$DIMTMOVE
 70
     0
  9
$LUNITS
 70
     2
  9
$LUPREC
 70
     2
  9
$SKETCHINC
 40
1.0
  9
$FILLETRAD
 40
10.0
  9
$AUNITS
 70
     0
  9
$AUPREC
 70
     2
  9
$MENU
  1
.
  9
$ELEVATION
 40
0.0
  9
$PELEVATION
 40
0.0
  9
$THICKNESS
 40
0.0
  9
$LIMCHECK
 70
     0
  9
$CHAMFERA
 40
0.0
  9
$CHAMFERB
 40
0.0
  9
$CHAMFERC
 40
0.0
  9
$CHAMFERD
 40
0.0
  9
$SKPOLY
 70
     0
  9
$TDCREATE
 40
2458299.343457083
  9
$TDUCREATE
 40
2458298.968457083
  9
$TDUPDATE
 40
2458302.577237581
  9
$TDUUPDATE
 40
2458302.202237581
  9
$TDINDWG
 40
0.0007472569
  9
$TDUSRTIMER
 40
2458302.20149059
  9
$USRTIMER
 70
     1
  9
$ANGBASE
 50
0.0
  9
$ANGDIR
 70
     0
  9
$PDMODE
 70
     0
  9
$PDSIZE
 40
-1.0
  9
$PLINEWID
 40
0.0
  9
$SPLFRAME
 70
     0
  9
$SPLINETYPE
 70
     6
  9
$SPLINESEGS
 70
     8
  9
$HANDSEED
  5
1A7
  9
$SURFTAB1
 70
     6
  9
$SURFTAB2
 70
     6
  9
$SURFTYPE
 70
     6
  9
$SURFU
 70
     6
  9
$SURFV
 70
     6
  9
$UCSBASE
  2

  9
$UCSNAME
  2

  9
$UCSORG
 10
0.0
 20
0.0
 30
0.0
  9
$UCSXDIR
 10
1.0
 20
0.0
 30
0.0
  9
$UCSYDIR
 10
0.0
 20
1.0
 30
0.0
  9
$UCSORTHOREF
  2

  9
$UCSORTHOVIEW
 70
     0
  9
$UCSORGTOP
 10
0.0
 20
0.0
 30
0.0
  9
$UCSORGBOTTOM
 10
0.0
 20
0.0
 30
0.0
  9
$UCSORGLEFT
 10
0.0
 20
0.0
 30
0.0
  9
$UCSORGRIGHT
 10
0.0
 20
0.0
 30
0.0
  9
$UCSORGFRONT
 10
0.0
 20
0.0
 30
0.0
  9
$UCSORGBACK
 10
0.0
 20
0.0
 30
0.0
  9
$PUCSBASE
  2

  9
$PUCSNAME
  2

  9
$PUCSORG
 10
0.0
 20
0.0
 30
0.0
  9
$PUCSXDIR
 10
1.0
 20
0.0
 30
0.0
  9
$PUCSYDIR
 10
0.0
 20
1.0
 30
0.0
  9
$PUCSORTHOREF
  2

  9
$PUCSORTHOVIEW
 70
     0
  9
$PUCSORGTOP
 10
0.0
 20
0.0
 30
0.0
  9
$PUCSORGBOTTOM
 10
0.0
 20
0.0
 30
0.0
  9
$PUCSORGLEFT
 10
0.0
 20
0.0
 30
0.0
  9
$PUCSORGRIGHT
 10
0.0
 20
0.0
 30
0.0
  9
$PUCSORGFRONT
 10
0.0
 20
0.0
 30
0.0
  9
$PUCSORGBACK
 10
0.0
 20
0.0
 30
0.0
  9
$USERI1
 70
     0
  9
$USERI2
 70
     0
  9
$USERI3
 70
     0
  9
$USERI4
 70
     0
  9
$USERI5
 70
     0
  9
$USERR1
 40
0.0
  9
$USERR2
 40
0.0
  9
$USERR3
 40
0.0
  9
$USERR4
 40
0.0
  9
$USERR5
 40
0.0
  9
$WORLDVIEW
 70
     1
  9
$SHADEDGE
 70
     3
  9
$SHADEDIF
 70
    70
  9
$TILEMODE
 70
     1
  9
$MAXACTVP
 70
    64
  9
$PINSBASE
 10
0.0
 20
0.0
 30
0.0
  9
$PLIMCHECK
 70
     0
  9
$PEXTMIN
 10
1.000000000000000E+20
 20
1.000000000000000E+20
 30
1.000000000000000E+20
  9
$PEXTMAX
 10
-1.000000000000000E+20
 20
-1.000000000000000E+20
 30
-1.000000000000000E+20
  9
$PLIMMIN
 10
0.0
 20
0.0
  9
$PLIMMAX
 10
0.0
 20
0.0
  9
$UNITMODE
 70
     0
  9
$VISRETAIN
 70
     1
  9
$PLINEGEN
 70
     0
  9
$PSLTSCALE
 70
     1
  9
$TREEDEPTH
 70
  3020
  9
$CMLSTYLE
  2
Standard
  9
$CMLJUST
 70
     0
  9
$CMLSCALE
 40
20.0
  9
$PROXYGRAPHICS
 70
     1
  9
$MEASUREMENT
 70
     1
  9
$CELWEIGHT
370
    -1
  9
$ENDCAPS
280
     0
  9
$JOINSTYLE
280
     0
  9
$LWDISPLAY
290
     1
  9
$INSUNITS
 70
     4
  9
$HYPERLINKBASE
  1

  9
$STYLESHEET
  1

  9
$XEDIT
290
     1
  9
$CEPSNTYPE
380
     0
  9
$PSTYLEMODE
290
     1
  9
$FINGERPRINTGUID
  2
{1DC7A0FB-46A4-4F9A-B470-B0BFD2E5D60F}
  9
$VERSIONGUID
  2
{FAEB1C32-E019-11D5-929B-00C0DF256EC4}
  9
$EXTNAMES
290
     1
  9
$PSVPSCALE
 40
0.0
  9
$OLESTARTUP
290
     0
  0
ENDSEC
  0
SECTION
  2
CLASSES
  0
CLASS
  1
ACDBDICTIONARYWDFLT
  2
AcDbDictionaryWithDefault
  3
ObjectDBX Classes
 90
        0
280
     0
281
     0
  0
CLASS
  1
VISUALSTYLE
  2
AcDbVisualStyle
  3
ObjectDBX Classes
 90
     4095
280
     0
281
     0
  0
CLASS
  1
MATERIAL
  2
AcDbMaterial
  3
ObjectDBX Classes
 90
     1153
280
     0
281
     0
  0
CLASS
  1
SCALE
  2
AcDbScale
  3
ObjectDBX Classes
 90
     1153
280
     0
281
     0
  0
CLASS
  1
SUN
  2
AcDbSun
  3
SCENEOE
 90
     1153
280
     0
281
     0
  0
CLASS
  1
ACDBPLACEHOLDER
  2
AcDbPlaceHolder
  3
ObjectDBX Classes
 90
        0
280
     0
281
     0
  0
CLASS
  1
LAYOUT
  2
AcDbLayout
  3
ObjectDBX Classes
 90
        0
280
     0
281
     0
  0
CLASS
  1
TABLESTYLE
  2
AcDbTableStyle
  3
ObjectDBX Classes
 90
     4095
280
     0
281
     0
  0
CLASS
  1
MLEADERSTYLE
  2
AcDbMLeaderStyle
  3
ACDB_MLEADERSTYLE_CLASS
 90
     4095
280
     0
281
     0
  0
CLASS
  1
RASTERVARIABLES
  2
AcDbRasterVariables
  3
ISM
 90
        0
280
     0
281
     0
  0
ENDSEC
  0
SECTION
  2
TABLES
  0
TABLE
  2
VPORT
  5
8
330
0
100
AcDbSymbolTable
 70
     1
  0
VPORT
  5
29
330
8
100
AcDbSymbolTableRecord
100
AcDbViewportTableRecord
  2
*Active
 70
     0
 10
0.0
 20
0.0
 11
1.0
 21
1.0
 12
14.28250282382134
 22
-11.6768419497275
 13
0.0
 23
0.0
 14
10.0
 24
10.0
 15
10.0
 25
10.0
 16
0.0
 26
0.0
 36
1.0
 17
0.0
 27
0.0
 37
0.0
 40
126.499396760479
 41
1.595744680851064
 42
50.0
 43
0.0
 44
0.0
 50
0.0
 51
0.0
 71
    16
 72
  2000
 73
     1
 74
     3
 75
     0
 76
     0
 77
     0
 78
     0
281
     0
 65
     1
110
0.0
120
0.0
130
0.0
111
1.0
121
0.0
131
0.0
112
0.0
122
1.0
132
0.0
 79
     0
146
0.0
  0
ENDTAB
  0
TABLE
  2
LTYPE
  5
5
330
0
100
AcDbSymbolTable
 70
     6
  0
LTYPE
  5
14
330
5
100
AcDbSymbolTableRecord
100
AcDbLinetypeTableRecord
  2
ByBlock
 70
     0
  3

 72
    65
 73
     0
 40
0.0
  0
LTYPE
  5
15
330
5
100
AcDbSymbolTableRecord
100
AcDbLinetypeTableRecord
  2
ByLayer
 70
     0
  3

 72
    65
 73
     0
 40
0.0
  0
LTYPE
  5
16
330
5
100
AcDbSymbolTableRecord
100
AcDbLinetypeTableRecord
  2
Continuous
 70
     0
  3
Solid line
 72
    65
 73
     0
 40
0.0
  0
LTYPE
  5
6A
330
5
100
AcDbSymbolTableRecord
100
AcDbLinetypeTableRecord
  2
HIDDEN
 70
     0
  3
Hidden __ __ __ __ __ __ __ __ __ __ __ __ __ __
 72
    65
 73
     2
 40
1.905
 49
1.27
 74
     0
 49
-0.635
 74
     0
  0
LTYPE
  5
6B
330
5
100
AcDbSymbolTableRecord
100
AcDbLinetypeTableRecord
  2
PHANTOM
 70
     0
  3
Phantom ______  __  __  ______  __  __  ______
 72
    65
 73
     6
 40
12.7
 49
6.35
 74
     0
 49
-1.27
 74
     0
 49
1.27
 74
     0
 49
-1.27
 74
     0
 49
1.27
 74
     0
 49
-1.27
 74
     0
  0
LTYPE
  5
6C
330
5
100
AcDbSymbolTableRecord
100
AcDbLinetypeTableRecord
  2
CENTER
 70
     0
  3
Center ____ _ ____ _ ____ _ ____ _ ____ _ ____
 72
    65
 73
     4
 40
10.16
 49
6.35
 74
     0
 49
-1.27
 74
     0
 49
1.27
 74
     0
 49
-1.27
 74
     0
  0
LTYPE
  5
6D
330
5
100
AcDbSymbolTableRecord
100
AcDbLinetypeTableRecord
  2
CENTERX2
 70
     0
  3
Center (2x) ________  __  ________  __  _____
 72
    65
 73
     4
 40
20.32
 49
12.7
 74
     0
 49
-2.54
 74
     0
 49
2.54
 74
     0
 49
-2.54
 74
     0
  0
LTYPE
  5
6E
330
5
100
AcDbSymbolTableRecord
100
AcDbLinetypeTableRecord
  2
DOT2
 70
     0
  3
Dot (.5x) ........................................
 72
    65
 73
     2
 40
0.635
 49
0.0
 74
     0
 49
-0.635
 74
     0
  0
ENDTAB
  0
TABLE
  2
LAYER
  5
2
330
0
100
AcDbSymbolTable
 70
    18
  0
LAYER
  5
10
330
2
100
AcDbSymbolTableRecord
100
AcDbLayerTableRecord
  2
0
 70
     0
 62
     7
  6
Continuous
370
    -3
390
F
  0
LAYER
  5
6F
330
2
100
AcDbSymbolTableRecord
100
AcDbLayerTableRecord
  2
FORMAT
 70
     0
 62
     2
  6
Continuous
370
    -3
390
F
  0
LAYER
  5
70
330
2
100
AcDbSymbolTableRecord
100
AcDbLayerTableRecord
  2
외형선
 70
     0
 62
     4
  6
Continuous
370
    30
390
F
  0
LAYER
  5
71
330
2
100
AcDbSymbolTableRecord
100
AcDbLayerTableRecord
  2
숨은선
 70
     0
 62
     2
  6
HIDDEN
370
    15
390
F
  0
LAYER
  5
72
330
2
100
AcDbSymbolTableRecord
100
AcDbLayerTableRecord
  2
중심선
 70
     0
 62
     1
  6
CENTERX2
370
    -3
390
F
  0
LAYER
  5
73
330
2
100
AcDbSymbolTableRecord
100
AcDbLayerTableRecord
  2
파단선
 70
     0
 62
     4
  6
Continuous
370
    -3
390
F
  0
LAYER
  5
74
330
2
100
AcDbSymbolTableRecord
100
AcDbLayerTableRecord
  2
해칭선
 70
     0
 62
   100
  6
Continuous
370
    -3
390
F
  0
LAYER
  5
75
330
2
100
AcDbSymbolTableRecord
100
AcDbLayerTableRecord
  2
가는실선
 70
     0
 62
     4
  6
Continuous
370
    -3
390
F
  0
LAYER
  5
76
330
2
100
AcDbSymbolTableRecord
100
AcDbLayerTableRecord
  2
치수_보조선
 70
     0
 62
     4
  6
Continuous
370
    -3
390
F
  0
LAYER
  5
77
330
2
100
AcDbSymbolTableRecord
100
AcDbLayerTableRecord
  2
치수문자_일반주서
 70
     0
 62
     7
  6
Continuous
370
    15
390
F
  0
LAYER
  5
78
330
2
100
AcDbSymbolTableRecord
100
AcDbLayerTableRecord
  2
개별주서
 70
     0
 62
   100
  6
Continuous
370
    30
390
F
  0
LAYER
  5
79
330
2
100
AcDbSymbolTableRecord
100
AcDbLayerTableRecord
  2
중간선
 70
     0
 62
     2
  6
Continuous
370
    15
390
F
  0
LAYER
  5
7A
330
2
100
AcDbSymbolTableRecord
100
AcDbLayerTableRecord
  2
윤곽선
 70
     0
 62
     3
  6
Continuous
370
    40
390
F
  0
LAYER
  5
7B
330
2
100
AcDbSymbolTableRecord
100
AcDbLayerTableRecord
  2
중심마크
 70
     0
 62
   100
  6
Continuous
370
    30
390
F
  0
LAYER
  5
7C
330
2
100
AcDbSymbolTableRecord
100
AcDbLayerTableRecord
  2
가상선
 70
     0
 62
     4
  6
PHANTOM
370
    -3
390
F
  0
LAYER
  5
7D
330
2
100
AcDbSymbolTableRecord
100
AcDbLayerTableRecord
  2
특수지정선
 70
     0
 62
     5
  6
CENTERX2
370
    60
390
F
  0
LAYER
  5
7E
330
2
100
AcDbSymbolTableRecord
100
AcDbLayerTableRecord
  2
참조1
 70
     0
 62
    -4
  6
Continuous
370
    -3
390
F
  0
LAYER
  5
1A3
330
2
100
AcDbSymbolTableRecord
100
AcDbLayerTableRecord
  2
Defpoints
 70
     0
 62
     7
  6
Continuous
290
     0
370
    -3
390
F
  0
ENDTAB
  0
TABLE
  2
STYLE
  5
3
330
0
100
AcDbSymbolTable
 70
     2
  0
STYLE
  5
11
330
3
100
AcDbSymbolTableRecord
100
AcDbTextStyleTableRecord
  2
Standard
 70
     0
 40
0.0
 41
1.0
 50
0.0
 71
     0
 42
3.5
  3
txt
  4

  0
STYLE
  5
94
330
3
100
AcDbSymbolTableRecord
100
AcDbTextStyleTableRecord
  2
SLDTEXTSTYLE0
 70
     0
 40
0.0
 41
0.75
 50
0.0
 71
     0
 42
3.5
  3
TXT
  4

  0
ENDTAB
  0
TABLE
  2
VIEW
  5
6
330
0
100
AcDbSymbolTable
 70
     0
  0
ENDTAB
  0
TABLE
  2
UCS
  5
7
330
0
100
AcDbSymbolTable
 70
     0
  0
ENDTAB
  0
TABLE
  2
APPID
  5
9
330
0
100
AcDbSymbolTable
 70
     1
  0
APPID
  5
12
330
9
100
AcDbSymbolTableRecord
100
AcDbRegAppTableRecord
  2
ACAD
 70
     0
  0
ENDTAB
  0
TABLE
  2
DIMSTYLE
  5
A
330
0
100
AcDbSymbolTable
 70
     3
100
AcDbDimStyleTable
  0
DIMSTYLE
105
27
330
A
100
AcDbSymbolTableRecord
100
AcDbDimStyleTableRecord
  2
ISO-25
 70
     0
 41
2.5
 42
0.625
 43
3.75
 44
1.25
 73
     0
 74
     0
 77
     1
 78
     8
140
2.5
141
2.5
143
0.03937007874016
147
0.625
171
     3
172
     1
178
     0
271
     2
272
     2
274
     3
278
    44
283
     0
284
     8
340
11
  0
DIMSTYLE
105
122
102
{ACAD_REACTORS
330
121
330
135
102
}
330
A
100
AcDbSymbolTableRecord
100
AcDbDimStyleTableRecord
  2
SLDDIMSTYLE0
 70
     0
 41
3.302
 44
0.0
 45
0.000000001
 73
     0
 74
     0
 77
     1
 78
    12
 79
     3
140
3.5
143
0.0393700787401575
147
0.875
148
0.000000001
170
     1
172
     1
173
     1
178
     0
271
     2
272
     2
276
     2
284
    12
289
     0
340
94
  0
DIMSTYLE
105
14A
102
{ACAD_REACTORS
330
149
330
15E
102
}
330
A
100
AcDbSymbolTableRecord
100
AcDbDimStyleTableRecord
  2
SLDDIMSTYLE1
 70
     0
 41
3.302
 44
0.0
 45
0.000000001
 73
     0
 74
     0
 77
     1
 78
    12
 79
     3
140
3.5
143
0.0393700787401575
147
0.875
148
0.000000001
170
     1
173
     1
178
     0
271
     2
272
     2
276
     2
284
    12
340
94
  0
ENDTAB
  0
TABLE
  2
BLOCK_RECORD
  5
1
330
0
100
AcDbSymbolTable
 70
     7
  0
BLOCK_RECORD
  5
1F
330
1
100
AcDbSymbolTableRecord
100
AcDbBlockTableRecord
  2
*Model_Space
340
22
  0
BLOCK_RECORD
  5
1B
330
1
100
AcDbSymbolTableRecord
100
AcDbBlockTableRecord
  2
*Paper_Space
340
1E
  0
BLOCK_RECORD
  5
23
330
1
100
AcDbSymbolTableRecord
100
AcDbBlockTableRecord
  2
*Paper_Space0
340
26
  0
BLOCK_RECORD
  5
7F
330
1
100
AcDbSymbolTableRecord
100
AcDbBlockTableRecord
  2
블럭10
340
0
102
{BLKREFS
331
119
102
}
  0
BLOCK_RECORD
  5
123
330
1
100
AcDbSymbolTableRecord
100
AcDbBlockTableRecord
  2
_D
340
0
  0
BLOCK_RECORD
  5
136
330
1
100
AcDbSymbolTableRecord
100
AcDbBlockTableRecord
  2
_D_1
340
0
  0
BLOCK_RECORD
  5
14B
330
1
100
AcDbSymbolTableRecord
100
AcDbBlockTableRecord
  2
_D_2
340
0
  0
BLOCK_RECORD
  5
15F
330
1
100
AcDbSymbolTableRecord
100
AcDbBlockTableRecord
  2
_D_3
340
0
  0
BLOCK_RECORD
  5
178
330
1
100
AcDbSymbolTableRecord
100
AcDbBlockTableRecord
  2
SW_DOWELSYMBOL_0
340
0
102
{BLKREFS
331
17E
102
}
  0
ENDTAB
  0
ENDSEC
  0
SECTION
  2
BLOCKS
  0
BLOCK
  5
20
330
1F
100
AcDbEntity
  8
0
100
AcDbBlockBegin
  2
*Model_Space
 70
     0
 10
0.0
 20
0.0
 30
0.0
  3
*Model_Space
  1
*Model_Space
  0
ENDBLK
  5
21
330
1F
100
AcDbEntity
  8
0
100
AcDbBlockEnd
  0
BLOCK
  5
1C
330
1B
100
AcDbEntity
 67
     1
  8
0
100
AcDbBlockBegin
  2
*Paper_Space
 70
     0
 10
0.0
 20
0.0
 30
0.0
  3
*Paper_Space
  1
*Paper_Space
  0
ENDBLK
  5
1D
330
1B
100
AcDbEntity
 67
     1
  8
0
100
AcDbBlockEnd
  0
BLOCK
  5
24
330
23
100
AcDbEntity
  8
0
100
AcDbBlockBegin
  2
*Paper_Space0
 70
     0
 10
0.0
 20
0.0
 30
0.0
  3
*Paper_Space0
  1
*Paper_Space0
  0
ENDBLK
  5
25
330
23
100
AcDbEntity
  8
0
100
AcDbBlockEnd
  0
BLOCK
  5
80
330
7F
100
AcDbEntity
  8
0
100
AcDbBlockBegin
  2
블럭10
 70
     2
 10
0.0
 20
0.0
 30
0.0
  3
블럭10
  1
블럭10
  0
ELLIPSE
  5
82
330
7F
100
AcDbEntity
  8
중심선
100
AcDbEllipse
 10
20.54032771741204
 20
12.0471743016438
 30
0.0
 11
6.600054785286829
 21
-1.261213355974178E-13
 31
0.0
210
0.0
220
0.0
230
1.0
 40
0.636358354079598
 41
0.9219305317359503
 42
6.513795318482858
  0
ELLIPSE
  5
83
330
7F
100
AcDbEntity
  8
중심선
100
AcDbEllipse
 10
20.54032771746488
 20
12.04717430159265
 30
0.0
 11
3.960054785062283
 21
1.540847449632565E-10
 31
0.0
210
0.0
220
0.0
230
1.0
 40
0.3939339440162632
 41
1.131841032648279
 42
5.62031148352944
  0
LINE
  5
84
330
7F
100
AcDbEntity
  8
중심선
100
AcDbLine
 10
2.268634060543552
 20
16.24717430164393
 30
0.0
 11
5.714909304380834
 21
16.24717430164393
 31
0.0
  0
LINE
  5
85
330
7F
100
AcDbEntity
  8
중심선
100
AcDbLine
 10
5.245725140726316
 20
7.84717430164391
 30
0.0
 11
8.692000384563599
 21
7.84717430164391
 31
0.0
  0
LINE
  5
86
330
7F
100
AcDbEntity
  8
중심선
100
AcDbLine
 10
15.74043728645272
 20
16.24717430164393
 30
0.0
 11
8.692000384563599
 21
7.84717430164391
 31
0.0
  0
LINE
  5
87
330
7F
100
AcDbEntity
  8
중심선
100
AcDbLine
 10
0.1404042013395286
 20
13.71084872107135
 30
0.0
 11
3.58671253028996
 21
13.71088815037384
 31
0.0
  0
LINE
  5
88
330
7F
100
AcDbEntity
  8
중심선
100
AcDbLine
 10
2.750260043222114
 20
10.84717430164391
 30
0.0
 11
6.196535287059397
 21
10.84717430164391
 31
0.0
  0
LINE
  5
89
330
7F
100
AcDbEntity
  8
중심선
100
AcDbLine
 10
12.29416204261559
 20
16.24717430164393
 30
0.0
 11
5.245725140726316
 21
7.84717430164391
 31
0.0
  0
LINE
  5
8A
330
7F
100
AcDbEntity
  8
중심선
100
AcDbLine
 10
10.72767329541681
 20
16.24717430164393
 30
0.0
 11
6.196535287059397
 21
10.84717430164391
 31
0.0
  0
LINE
  5
8B
330
7F
100
AcDbEntity
  8
중심선
100
AcDbLine
 10
7.28139805157953
 20
16.24717430164393
 30
0.0
 11
2.750260043222114
 21
10.84717430164391
 31
0.0
  0
LINE
  5
8C
330
7F
100
AcDbEntity
  8
중심선
100
AcDbLine
 10
5.714909304380834
 20
16.24717430164393
 30
0.0
 11
3.58671253028996
 21
13.71088815037384
 31
0.0
  0
LINE
  5
8D
330
7F
100
AcDbEntity
  8
중심선
100
AcDbLine
 10
2.268634060543552
 20
16.24717430164393
 30
0.0
 11
0.1404042013395286
 21
13.71084872107135
 31
0.0
  0
LINE
  5
8E
330
7F
100
AcDbEntity
  8
중심선
100
AcDbLine
 10
7.28139805157953
 20
16.24717430164393
 30
0.0
 11
10.72767329541681
 21
16.24717430164393
 31
0.0
  0
LINE
  5
8F
330
7F
100
AcDbEntity
  8
중심선
100
AcDbLine
 10
12.29416204261559
 20
16.24717430164393
 30
0.0
 11
15.74043728645272
 21
16.24717430164393
 31
0.0
  0
LINE
  5
90
330
7F
100
AcDbEntity
  8
중심선
100
AcDbLine
 10
19.22036997980202
 20
11.08717430171403
 30
0.0
 11
23.66174974927406
 21
11.08717430171406
 31
0.0
  0
LINE
  5
91
330
7F
100
AcDbEntity
  8
중심선
100
AcDbLine
 10
19.22039502424796
 20
13.00717430171391
 30
0.0
 11
19.22036997980202
 21
11.08717430171403
 31
0.0
  0
LINE
  5
92
330
7F
100
AcDbEntity
  8
중심선
100
AcDbLine
 10
19.22039502424796
 20
13.00717430171391
 30
0.0
 11
26.96566020931264
 21
13.00717430171391
 31
0.0
  0
LINE
  5
93
330
7F
100
AcDbEntity
  8
중심선
100
AcDbLine
 10
22.22332737316547
 20
13.45928029700563
 30
0.0
 11
24.52862924686651
 21
15.39360700705356
 31
0.0
  0
ATTDEF
  5
95
330
7F
100
AcDbEntity
  8
FORMAT
 62
     2
100
AcDbText
 10
-9.522313950597932
 20
2.075366912832191
 30
0.0
 40
4.233333333333333
  1
EH094016 [ 3 FLUTE ]
 41
0.75
  7
SLDTEXTSTYLE0
 11
-9.522313950597932
 21
-0.0412997538344756
 31
0.0
100
AcDbAttributeDefinition
  3

  2
AUTOATTR0
 70
     0
 74
     1
  0
ENDBLK
  5
81
330
7F
100
AcDbEntity
  8
0
100
AcDbBlockEnd
  0
BLOCK
  5
124
330
123
100
AcDbEntity
  8
0
100
AcDbBlockBegin
  2
_D
 70
     0
 10
0.0
 20
0.0
 30
0.0
  3
_D
  1
_D
  0
LINE
  5
126
330
123
100
AcDbEntity
  8
치수문자_일반주서
 62
     0
370
    -2
100
AcDbLine
 10
9.705603968339103
 20
3.175000000000025
 30
0.0
 11
32.1685342850282
 21
3.175000000000111
 31
0.0
  0
LINE
  5
127
330
123
100
AcDbEntity
  8
치수문자_일반주서
 62
     0
370
    -2
100
AcDbLine
 10
14.00055359426361
 20
-3.174999999999998
 30
0.0
 11
32.16853428502822
 21
-3.17499999999993
 31
0.0
  0
LINE
  5
128
330
123
100
AcDbEntity
  8
치수문자_일반주서
 62
     0
370
    -2
100
AcDbLine
 10
32.1685342850282
 20
3.175000000000111
 30
0.0
 11
32.16853428502809
 21
35.15400000000011
 31
0.0
  0
LINE
  5
129
330
123
100
AcDbEntity
  8
치수문자_일반주서
 62
     0
370
    -2
100
AcDbLine
 10
32.1685342850282
 20
3.175000000000111
 30
0.0
 11
32.16853428502822
 21
-3.17499999999993
 31
0.0
  0
LINE
  5
12A
330
123
100
AcDbEntity
  8
치수문자_일반주서
 62
     0
370
    -2
100
AcDbLine
 10
32.16853428502819
 20
6.47700000000011
 30
0.0
 11
32.16853428502817
 21
9.77900000000011
 31
0.0
  0
LINE
  5
12B
330
123
100
AcDbEntity
  8
치수문자_일반주서
 62
     0
370
    -2
100
AcDbLine
 10
32.16853428502824
 20
-6.476999999999929
 30
0.0
 11
32.16853428502825
 21
-9.778999999999929
 31
0.0
  0
SOLID
  5
12C
330
123
100
AcDbEntity
  8
치수문자_일반주서
 62
     0
100
AcDbTrace
 10
31.61820095169485
 20
6.477000000000109
 30
0.0
 11
32.71886761836152
 21
6.477000000000112
 31
0.0
 12
32.1685342850282
 22
3.175000000000111
 32
0.0
 13
32.1685342850282
 23
3.175000000000111
 33
0.0
  0
SOLID
  5
12D
330
123
100
AcDbEntity
  8
치수문자_일반주서
 62
     0
100
AcDbTrace
 10
32.71886761836157
 20
-6.476999999999927
 30
0.0
 11
31.6182009516949
 21
-6.476999999999931
 31
0.0
 12
32.16853428502822
 22
-3.17499999999993
 32
0.0
 13
32.16853428502822
 23
-3.17499999999993
 33
0.0
  0
MTEXT
  5
12E
330
123
100
AcDbEntity
  8
치수문자_일반주서
 62
     0
100
AcDbMText
 10
27.79353428502814
 20
22.4665000000001
 30
0.0
 40
3.5
 41
0.0
 71
     2
 72
     1
  1
\A1;%%c6.35 [1/4]
  7
SLDTEXTSTYLE0
 11
-3.356894814614626E-15
 21
1.0
 31
0.0
 73
     1
 44
1.0
  0
POINT
  5
12F
330
123
100
AcDbEntity
  8
Defpoints
 62
     0
100
AcDbPoint
 10
9.643103968339103
 20
3.175000000000024
 30
0.0
  0
POINT
  5
130
330
123
100
AcDbEntity
  8
Defpoints
 62
     0
100
AcDbPoint
 10
13.93805359426361
 20
-3.174999999999999
 30
0.0
  0
POINT
  5
131
330
123
100
AcDbEntity
  8
Defpoints
 62
     0
100
AcDbPoint
 10
32.16853428502822
 20
-3.174999999999931
 30
0.0
  0
ENDBLK
  5
125
330
123
100
AcDbEntity
  8
0
100
AcDbBlockEnd
  0
BLOCK
  5
137
330
136
100
AcDbEntity
  8
0
100
AcDbBlockBegin
  2
_D_1
 70
     0
 10
0.0
 20
0.0
 30
0.0
  3
_D_1
  1
_D_1
  0
LINE
  5
139
330
136
100
AcDbEntity
  8
치수문자_일반주서
 62
     0
370
    -2
100
AcDbLine
 10
-35.29000000000005
 20
3.174999999999984
 30
0.0
 11
-46.03750000000009
 21
3.174999999999945
 31
0.0
  0
LINE
  5
13A
330
136
100
AcDbEntity
  8
치수문자_일반주서
 62
     0
370
    -2
100
AcDbLine
 10
-35.29000000000005
 20
-3.17500000000001
 30
0.0
 11
-46.03750000000007
 21
-3.17500000000005
 31
0.0
  0
LINE
  5
13B
330
136
100
AcDbEntity
  8
치수문자_일반주서
 62
     0
370
    -2
100
AcDbLine
 10
-46.03750000000008
 20
-0.1270000000000548
 30
0.0
 11
-46.03750000000009
 21
0.12699999999995
 31
0.0
  0
SOLID
  5
13C
330
136
100
AcDbEntity
  8
치수문자_일반주서
 62
     0
100
AcDbTrace
 10
-45.48716666666675
 20
-0.127000000000053
 30
0.0
 11
-46.58783333333341
 21
-0.1270000000000567
 31
0.0
 12
-46.03750000000009
 22
3.174999999999945
 32
0.0
 13
-46.03750000000009
 23
3.174999999999945
 33
0.0
  0
SOLID
  5
13D
330
136
100
AcDbEntity
  8
치수문자_일반주서
 62
     0
100
AcDbTrace
 10
-46.58783333333342
 20
0.1269999999999482
 30
0.0
 11
-45.48716666666675
 21
0.1269999999999519
 31
0.0
 12
-46.03750000000007
 22
-3.17500000000005
 32
0.0
 13
-46.03750000000007
 23
-3.17500000000005
 33
0.0
  0
MTEXT
  5
13E
330
136
100
AcDbEntity
  8
치수문자_일반주서
 62
     0
100
AcDbMText
 10
-50.41250000000008
 20
-0.5086721738103391
 30
0.0
 40
3.5
 41
0.0
 71
     2
 72
     1
  1
\A1;%%c6.35 [1/4]
  7
SLDTEXTSTYLE0
 11
-3.356894814614649E-15
 21
1.0
 31
0.0
 73
     1
 44
1.0
  0
POINT
  5
13F
330
136
100
AcDbEntity
  8
Defpoints
 62
     0
100
AcDbPoint
 10
-35.22750000000005
 20
3.174999999999984
 30
0.0
  0
POINT
  5
140
330
136
100
AcDbEntity
  8
Defpoints
 62
     0
100
AcDbPoint
 10
-35.22750000000005
 20
-3.17500000000001
 30
0.0
  0
POINT
  5
141
330
136
100
AcDbEntity
  8
Defpoints
 62
     0
100
AcDbPoint
 10
-46.03750000000007
 20
-3.17500000000005
 30
0.0
  0
ENDBLK
  5
138
330
136
100
AcDbEntity
  8
0
100
AcDbBlockEnd
  0
BLOCK
  5
14C
330
14B
100
AcDbEntity
  8
0
100
AcDbBlockBegin
  2
_D_2
 70
     0
 10
0.0
 20
0.0
 30
0.0
  3
_D_2
  1
_D_2
  0
LINE
  5
14E
330
14B
100
AcDbEntity
  8
치수문자_일반주서
 62
     0
370
    -2
100
AcDbLine
 10
17.93749999999998
 20
2.082106629395931
 30
0.0
 11
17.93749999999998
 21
19.34732179202409
 31
0.0
  0
LINE
  5
14F
330
14B
100
AcDbEntity
  8
치수문자_일반주서
 62
     0
370
    -2
100
AcDbLine
 10
9.99999999999998
 20
3.230843209417247
 30
0.0
 11
9.99999999999998
 21
19.34732179202409
 31
0.0
  0
LINE
  5
150
330
14B
100
AcDbEntity
  8
치수문자_일반주서
 62
     0
370
    -2
100
AcDbLine
 10
9.99999999999998
 20
19.34732179202409
 30
0.0
 11
-21.97900000000002
 21
19.34732179202409
 31
0.0
  0
LINE
  5
151
330
14B
100
AcDbEntity
  8
치수문자_일반주서
 62
     0
370
    -2
100
AcDbLine
 10
21.23949999999998
 20
19.34732179202409
 30
0.0
 11
24.54149999999998
 21
19.34732179202409
 31
0.0
  0
LINE
  5
152
330
14B
100
AcDbEntity
  8
치수문자_일반주서
 62
     0
370
    -2
100
AcDbLine
 10
6.697999999999981
 20
19.34732179202409
 30
0.0
 11
3.395999999999981
 21
19.34732179202409
 31
0.0
  0
SOLID
  5
153
330
14B
100
AcDbEntity
  8
치수문자_일반주서
 62
     0
100
AcDbTrace
 10
21.23949999999998
 20
19.89765512535742
 30
0.0
 11
21.23949999999998
 21
18.79698845869075
 31
0.0
 12
17.93749999999998
 22
19.34732179202409
 32
0.0
 13
17.93749999999998
 23
19.34732179202409
 33
0.0
  0
SOLID
  5
154
330
14B
100
AcDbEntity
  8
치수문자_일반주서
 62
     0
100
AcDbTrace
 10
6.697999999999981
 20
18.79698845869075
 30
0.0
 11
6.697999999999981
 21
19.89765512535742
 31
0.0
 12
9.99999999999998
 22
19.34732179202409
 32
0.0
 13
9.99999999999998
 23
19.34732179202409
 33
0.0
  0
MTEXT
  5
155
330
14B
100
AcDbEntity
  8
치수문자_일반주서
 62
     0
100
AcDbMText
 10
-9.291500000000019
 20
23.72232179202409
 30
0.0
 40
3.5
 41
0.0
 71
     2
 72
     1
  1
\A1;7.94 [5/16]
  7
SLDTEXTSTYLE0
 73
     1
 44
1.0
  0
POINT
  5
156
330
14B
100
AcDbEntity
  8
Defpoints
 62
     0
100
AcDbPoint
 10
17.93749999999998
 20
2.019606629395931
 30
0.0
  0
POINT
  5
157
330
14B
100
AcDbEntity
  8
Defpoints
 62
     0
100
AcDbPoint
 10
9.99999999999998
 20
3.168343209417247
 30
0.0
  0
POINT
  5
158
330
14B
100
AcDbEntity
  8
Defpoints
 62
     0
100
AcDbPoint
 10
9.99999999999998
 20
19.34732179202409
 30
0.0
  0
ENDBLK
  5
14D
330
14B
100
AcDbEntity
  8
0
100
AcDbBlockEnd
  0
BLOCK
  5
160
330
15F
100
AcDbEntity
  8
0
100
AcDbBlockBegin
  2
_D_3
 70
     0
 10
0.0
 20
0.0
 30
0.0
  3
_D_3
  1
_D_3
  0
LINE
  5
162
330
15F
100
AcDbEntity
  8
치수문자_일반주서
 62
     0
370
    -2
100
AcDbLine
 10
17.93749999999998
 20
2.082106629395931
 30
0.0
 11
17.93749999999998
 21
36.01698679301992
 31
0.0
  0
LINE
  5
163
330
15F
100
AcDbEntity
  8
치수문자_일반주서
 62
     0
370
    -2
100
AcDbLine
 10
-36.03750000000003
 20
2.427499999999995
 30
0.0
 11
-36.03750000000003
 21
36.01698679301992
 31
0.0
  0
LINE
  5
164
330
15F
100
AcDbEntity
  8
치수문자_일반주서
 62
     0
370
    -2
100
AcDbLine
 10
14.63549999999998
 20
36.01698679301992
 30
0.0
 11
-32.73550000000003
 21
36.01698679301992
 31
0.0
  0
SOLID
  5
165
330
15F
100
AcDbEntity
  8
치수문자_일반주서
 62
     0
100
AcDbTrace
 10
14.63549999999998
 20
35.46665345968659
 30
0.0
 11
14.63549999999998
 21
36.56732012635326
 31
0.0
 12
17.93749999999998
 22
36.01698679301992
 32
0.0
 13
17.93749999999998
 23
36.01698679301992
 33
0.0
  0
SOLID
  5
166
330
15F
100
AcDbEntity
  8
치수문자_일반주서
 62
     0
100
AcDbTrace
 10
-32.73550000000003
 20
36.56732012635326
 30
0.0
 11
-32.73550000000003
 21
35.46665345968659
 31
0.0
 12
-36.03750000000003
 22
36.01698679301992
 32
0.0
 13
-36.03750000000003
 23
36.01698679301992
 33
0.0
  0
MTEXT
  5
167
330
15F
100
AcDbEntity
  8
치수문자_일반주서
 62
     0
100
AcDbMText
 10
-6.69015628315714
 20
40.39198679301992
 30
0.0
 40
3.5
 41
0.0
 71
     2
 72
     1
  1
\A1;53.98 [2 1/8]
  7
SLDTEXTSTYLE0
 73
     1
 44
1.0
  0
POINT
  5
168
330
15F
100
AcDbEntity
  8
Defpoints
 62
     0
100
AcDbPoint
 10
17.93749999999998
 20
2.019606629395931
 30
0.0
  0
POINT
  5
169
330
15F
100
AcDbEntity
  8
Defpoints
 62
     0
100
AcDbPoint
 10
-36.03750000000003
 20
2.364999999999995
 30
0.0
  0
POINT
  5
16A
330
15F
100
AcDbEntity
  8
Defpoints
 62
     0
100
AcDbPoint
 10
-36.03750000000003
 20
36.01698679301992
 30
0.0
  0
ENDBLK
  5
161
330
15F
100
AcDbEntity
  8
0
100
AcDbBlockEnd
  0
BLOCK
  5
179
330
178
100
AcDbEntity
  8
0
100
AcDbBlockBegin
  2
SW_DOWELSYMBOL_0
 70
     0
 10
0.0
 20
0.0
 30
0.0
  3
SW_DOWELSYMBOL_0
  1
SW_DOWELSYMBOL_0
  0
CIRCLE
  5
17B
330
178
100
AcDbEntity
  8
해칭선
 62
     0
100
AcDbCircle
 10
0.0
 20
0.0
 30
0.0
 40
3.000000000000004
  0
HATCH
  5
17C
330
178
100
AcDbEntity
  8
0
  6
Continuous
 62
     0
370
     0
100
AcDbHatch
 10
0.0
 20
0.0
 30
0.0
210
0.0
220
0.0
230
1.0
  2
SOLID
 70
     1
 71
     0
 91
        1
 92
        0
 93
        3
 72
     2
 10
0.0000000000000104
 20
-0.0000000000000035
 40
3.000000000000004
 50
0.0
 51
90.0
 73
     1
 72
     1
 10
0.0000000000000104
 20
3.000000000000001
 11
0.0000000000000104
 21
-0.0000000000000036
 72
     1
 10
0.0000000000000104
 20
-0.0000000000000035
 11
3.000000000000015
 21
-0.0000000000000035
 97
        0
 75
     0
 76
     1
 98
        1
 10
0.0
 20
0.0
  0
HATCH
  5
17D
330
178
100
AcDbEntity
  8
0
  6
Continuous
 62
     0
370
     0
100
AcDbHatch
 10
0.0
 20
0.0
 30
0.0
210
0.0
220
0.0
230
1.0
  2
SOLID
 70
     1
 71
     0
 91
        1
 92
        0
 93
        3
 72
     2
 10
0.0000000000000104
 20
-0.0000000000000035
 40
3.000000000000004
 50
180.0
 51
270.0000000000008
 73
     1
 72
     1
 10
0.0000000000000104
 20
-3.000000000000008
 11
0.0000000000000104
 21
-0.0000000000000036
 72
     1
 10
0.0000000000000104
 20
-0.0000000000000035
 11
-2.999999999999994
 21
-0.0000000000000035
 97
        0
 75
     0
 76
     1
 98
        1
 10
0.0
 20
0.0
  0
ENDBLK
  5
17A
330
178
100
AcDbEntity
  8
0
100
AcDbBlockEnd
  0
ENDSEC
  0
SECTION
  2
ENTITIES
  0
LINE
  5
96
330
1F
100
AcDbEntity
  8
외형선
  6
Continuous
370
    15
100
AcDbLine
 10
9.644168263403252
 20
3.175000000000001
 30
0.0
 11
-35.22750000000003
 21
3.174999999999995
 31
0.0
  0
LINE
  5
97
330
1F
100
AcDbEntity
  8
외형선
  6
Continuous
370
    15
100
AcDbLine
 10
-35.22750000000003
 20
-3.175000000000005
 30
0.0
 11
6.979881628982335
 21
-3.174999999999999
 31
0.0
  0
LINE
  5
98
330
1F
100
AcDbEntity
  8
외형선
  6
Continuous
370
    15
100
AcDbLine
 10
-35.22750000000003
 20
3.174999999999995
 30
0.0
 11
-36.03750000000003
 21
2.364999999999994
 31
0.0
  0
LINE
  5
99
330
1F
100
AcDbEntity
  8
외형선
  6
Continuous
370
    15
100
AcDbLine
 10
-36.03750000000003
 20
-2.365000000000005
 30
0.0
 11
-35.22750000000003
 21
-3.175000000000005
 31
0.0
  0
SPLINE
  5
9A
330
1F
100
AcDbEntity
  8
외형선
  6
Continuous
 62
     1
370
    15
100
AcDbSpline
210
0.0
220
0.0
230
1.0
 70
     8
 71
     3
 72
     9
 73
     5
 74
     0
 42
0.000000001
 43
0.00000001
 40
0.0
 40
0.0
 40
0.0
 40
0.0
 40
0.7137640081736751
 40
0.9999999999999999
 40
0.9999999999999999
 40
0.9999999999999999
 40
0.9999999999999999
 10
11.19133528975351
 20
-3.075712327310398
 30
0.0
 10
11.20193964174755
 20
-3.087887351545973
 30
0.0
 10
11.21679658588119
 20
-3.104944844073127
 30
0.0
 10
11.23237417217233
 20
-3.116384464120794
 30
0.0
 10
11.23683303803464
 20
-3.119658895111255
 30
0.0
  0
LINE
  5
9B
330
1F
100
AcDbEntity
  8
외형선
  6
Continuous
 62
     1
370
    15
100
AcDbLine
 10
11.83454152223187
 20
-3.174999999999999
 30
0.0
 11
12.47474496974444
 21
-3.174999999999999
 31
0.0
  0
SPLINE
  5
9C
330
1F
100
AcDbEntity
  8
외형선
  6
Continuous
 62
     1
370
    15
100
AcDbSpline
210
0.0
220
0.0
230
1.0
 70
     8
 71
     3
 72
     9
 73
     5
 74
     0
 42
0.000000001
 43
0.00000001
 40
0.0
 40
0.0
 40
0.0
 40
0.0
 40
0.5021816855565762
 40
1.0
 40
1.0
 40
1.0
 40
1.0
 10
12.4725522214872
 20
-3.174902927116598
 30
0.0
 10
12.50272033685613
 20
-3.172587258606801
 30
0.0
 10
12.56279444197904
 20
-3.167976042036388
 30
0.0
 10
12.61461304687336
 20
-3.135822783251558
 30
0.0
 10
12.64040929741865
 20
-3.119816302159431
 30
0.0
  0
SPLINE
  5
9D
330
1F
100
AcDbEntity
  8
외형선
  6
Continuous
 62
     1
370
    15
100
AcDbSpline
210
0.0
220
0.0
230
1.0
 70
     8
 71
     3
 72
    11
 73
     7
 74
     0
 42
0.000000001
 43
0.00000001
 40
0.0
 40
0.0
 40
0.0
 40
0.0
 40
0.2816888899689014
 40
0.5467117913934318
 40
0.7866901291100473
 40
1.0
 40
1.0
 40
1.0
 40
1.0
 10
12.65425119233543
 20
-3.112164683995312
 30
0.0
 10
12.70462780207961
 20
-3.081088219560382
 30
0.0
 10
12.8024005135295
 20
-3.020773914856101
 30
0.0
 10
12.97551716303643
 20
-3.007776585507919
 30
0.0
 10
13.1209913042926
 20
-3.044450999964413
 30
0.0
 10
13.18718204111544
 20
-3.088678220520905
 30
0.0
 10
13.21833029791478
 20
-3.10949081287959
 30
0.0
  0
SPLINE
  5
9E
330
1F
100
AcDbEntity
  8
외형선
  6
Continuous
 62
     1
370
    15
100
AcDbSpline
210
0.0
220
0.0
230
1.0
 70
     8
 71
     3
 72
     9
 73
     5
 74
     0
 42
0.000000001
 43
0.00000001
 40
0.0
 40
0.0
 40
0.0
 40
0.0
 40
0.4978804683456802
 40
0.9999999999999999
 40
0.9999999999999999
 40
0.9999999999999999
 40
0.9999999999999999
 10
13.22066221450108
 20
-3.111397675917515
 30
0.0
 10
13.24860413778841
 20
-3.129754989306714
 30
0.0
 10
13.30472588801526
 20
-3.166625914270282
 30
0.0
 10
13.36895769714702
 20
-3.172200689262377
 30
0.0
 10
13.40120974306557
 20
-3.174999892670487
 30
0.0
  0
LINE
  5
9F
330
1F
100
AcDbEntity
  8
외형선
  6
Continuous
 62
     1
370
    15
100
AcDbLine
 10
13.40105582820825
 20
-3.174999999999999
 30
0.0
 11
14.47505136031898
 21
-3.174999999999999
 31
0.0
  0
SPLINE
  5
A0
330
1F
100
AcDbEntity
  8
외형선
  6
Continuous
 62
     1
370
    15
100
AcDbSpline
210
0.0
220
0.0
230
1.0
 70
     8
 71
     3
 72
     9
 73
     5
 74
     0
 42
0.000000001
 43
0.00000001
 40
0.0
 40
0.0
 40
0.0
 40
0.0
 40
0.5030396842441898
 40
1.0
 40
1.0
 40
1.0
 40
1.0
 10
14.47504955961054
 20
-3.17499999848234
 30
0.0
 10
14.50680188525393
 20
-3.172295766768542
 30
0.0
 10
14.56992280123316
 20
-3.166919984701045
 30
0.0
 10
14.62505616293025
 20
-3.131232308680143
 30
0.0
 10
14.65245525576792
 20
-3.113496949936204
 30
0.0
  0
SPLINE
  5
A1
330
1F
100
AcDbEntity
  8
외형선
  6
Continuous
 62
     1
370
    15
100
AcDbSpline
210
0.0
220
0.0
230
1.0
 70
     8
 71
     3
 72
    10
 73
     6
 74
     0
 42
0.000000001
 43
0.00000001
 40
0.0
 40
0.0
 40
0.0
 40
0.0
 40
0.3772385214780509
 40
0.7706722663180553
 40
0.9999999999999999
 40
0.9999999999999999
 40
0.9999999999999999
 40
0.9999999999999999
 10
14.65210177625654
 20
-3.113747154919093
 30
0.0
 10
14.69485485401322
 20
-3.086566180939721
 30
0.0
 10
14.78219644149936
 20
-3.031037326846717
 30
0.0
 10
14.92466026133677
 20
-3.003577234438327
 30
0.0
 10
15.00870683337919
 20
-3.023976411185028
 30
0.0
 10
15.03965641930407
 20
-3.031488271076237
 30
0.0
  0
LINE
  5
A2
330
1F
100
AcDbEntity
  8
외형선
  6
Continuous
 62
     1
370
    15
100
AcDbLine
 10
17.93749999999998
 20
2.074999999999999
 30
0.0
 11
17.36097703133063
 21
2.651522968669354
 31
0.0
  0
LINE
  5
A3
330
1F
100
AcDbEntity
  8
외형선
  6
Continuous
370
    15
100
AcDbLine
 10
10.00000000000018
 20
3.16834320941877
 30
0.0
 11
9.644168263403252
 21
3.165863030369741
 31
0.0
  0
LINE
  5
A4
330
1F
100
AcDbEntity
  8
외형선
  6
Continuous
370
    15
100
AcDbLine
 10
9.99999999999998
 20
3.16834320941879
 30
0.0
 11
9.99999999999998
 21
2.400139073699826
 31
0.0
  0
SPLINE
  5
A5
330
1F
100
AcDbEntity
  8
외형선
  6
Continuous
370
    15
100
AcDbSpline
210
0.0
220
0.0
230
1.0
 70
     8
 71
     3
 72
    14
 73
    10
 74
     0
 42
0.000000001
 43
0.00000001
 40
0.0
 40
0.0
 40
0.0
 40
0.0
 40
0.25
 40
0.25
 40
0.5
 40
0.5
 40
0.75
 40
0.75
 40
1.0
 40
1.0
 40
1.0
 40
1.0
 10
10.00000000000018
 20
2.400139073699754
 30
0.0
 10
9.747292141813617
 20
2.495378281533991
 30
0.0
 10
9.49554770074074
 20
2.582917493598686
 30
0.0
 10
8.995665192174013
 20
2.740932004440908
 30
0.0
 10
8.74259011069872
 20
2.811906488682709
 30
0.0
 10
8.23726966427208
 20
2.935606734768261
 30
0.0
 10
7.986714394648101
 20
2.98823625801644
 30
0.0
 10
7.485732930255895
 20
3.074508224299098
 30
0.0
 10
7.232432541207205
 20
3.108268541628732
 30
0.0
 10
6.979881628982335
 20
3.132099096684705
 30
0.0
  0
SPLINE
  5
A6
330
1F
100
AcDbEntity
  8
외형선
  6
Continuous
370
    15
100
AcDbSpline
210
0.0
220
0.0
230
1.0
 70
     8
 71
     3
 72
    14
 73
    10
 74
     0
 42
0.000000001
 43
0.00000001
 40
0.0
 40
0.0
 40
0.0
 40
0.0
 40
0.25
 40
0.25
 40
0.5
 40
0.5
 40
0.75
 40
0.75
 40
1.0
 40
1.0
 40
1.0
 40
1.0
 10
10.00000000000018
 20
-1.76213151732311
 30
0.0
 10
9.747292141813617
 20
-1.641109536266589
 30
0.0
 10
9.49554770074074
 20
-1.514681834719937
 30
0.0
 10
8.995665192174013
 20
-1.253778251593122
 30
0.0
 10
8.74259011069872
 20
-1.118434770240015
 30
0.0
 10
8.237269664272084
 20
-0.8416905244798327
 30
0.0
 10
7.986714394648101
 20
-0.7006199007952107
 30
0.0
 10
7.485732930255895
 20
-0.4150141227574372
 30
0.0
 10
7.232432541207205
 20
-0.2699244271925155
 30
0.0
 10
6.979881628982338
 20
-0.1245810464740107
 30
0.0
  0
LINE
  5
A7
330
1F
100
AcDbEntity
  8
외형선
  6
Continuous
370
    15
100
AcDbLine
 10
9.99999999999998
 20
-1.762131517323014
 30
0.0
 11
9.99999999999998
 21
-3.000060667432095
 31
0.0
  0
SPLINE
  5
A8
330
1F
100
AcDbEntity
  8
외형선
  6
Continuous
370
    15
100
AcDbSpline
210
0.0
220
0.0
230
1.0
 70
     8
 71
     3
 72
    14
 73
    10
 74
     0
 42
0.000000001
 43
0.00000001
 40
0.0
 40
0.0
 40
0.0
 40
0.0
 40
0.25
 40
0.25
 40
0.5
 40
0.5
 40
0.75
 40
0.75
 40
1.0
 40
1.0
 40
1.0
 40
1.0
 10
10.00000000000018
 20
-3.000060667432134
 30
0.0
 10
9.747292141813617
 20
-2.952435075336585
 30
0.0
 10
9.49554770074074
 20
-2.895400847258185
 30
0.0
 10
8.995665192174013
 20
-2.763913581410851
 30
0.0
 10
8.74259011069872
 20
-2.689007298805391
 30
0.0
 10
8.23726966427208
 20
-2.522792043430448
 30
0.0
 10
7.986714394648101
 20
-2.431712621319276
 30
0.0
 10
7.485732930255895
 20
-2.234964486404512
 30
0.0
 10
7.232432541207205
 20
-2.128883528635376
 30
0.0
 10
6.979881628982335
 20
-2.016532829286461
 30
0.0
  0
LINE
  5
A9
330
1F
100
AcDbEntity
  8
외형선
  6
Continuous
370
    15
100
AcDbLine
 10
6.979881628982335
 20
-2.016502930851064
 30
0.0
 11
6.979881628982335
 21
-3.174999999999999
 31
0.0
  0
SPLINE
  5
AA
330
1F
100
AcDbEntity
  8
외형선
  6
Continuous
370
    15
100
AcDbSpline
210
0.0
220
0.0
230
1.0
 70
     8
 71
     3
 72
     9
 73
     5
 74
     0
 42
0.000000001
 43
0.00000001
 40
0.0
 40
0.0
 40
0.0
 40
0.0
 40
0.2401778906960451
 40
1.0
 40
1.0
 40
1.0
 40
1.0
 10
7.856265870228671
 20
-2.378914696298367
 30
0.0
 10
7.786162750261255
 20
-2.406835989690089
 30
0.0
 10
7.494282761789983
 20
-2.523088544456078
 30
0.0
 10
7.201979846575956
 20
-2.615219485172513
 30
0.0
 10
6.979881628982335
 20
-2.685222610879832
 30
0.0
  0
LINE
  5
AB
330
1F
100
AcDbEntity
  8
외형선
  6
Continuous
370
    15
100
AcDbLine
 10
-35.22750000000003
 20
3.174999999999995
 30
0.0
 11
-35.22750000000003
 21
-3.175000000000005
 31
0.0
  0
LINE
  5
AC
330
1F
100
AcDbEntity
  8
외형선
  6
Continuous
370
    15
100
AcDbLine
 10
6.979881628982335
 20
3.132105438136889
 30
0.0
 11
6.979881628982335
 21
-0.1245828188543218
 31
0.0
  0
LINE
  5
AD
330
1F
100
AcDbEntity
  8
외형선
  6
Continuous
370
    15
100
AcDbLine
 10
-36.03750000000003
 20
2.364999999999995
 30
0.0
 11
-36.03750000000003
 21
-2.365000000000005
 31
0.0
  0
SPLINE
  5
AE
330
1F
100
AcDbEntity
  8
외형선
  6
Continuous
370
    15
100
AcDbSpline
210
0.0
220
0.0
230
1.0
 70
    24
 71
     3
 72
    14
 73
    10
 74
     0
 42
0.000000001
 43
0.00000001
 40
0.0
 40
0.0
 40
0.0
 40
0.0
 40
0.25
 40
0.25
 40
0.5
 40
0.5
 40
0.75
 40
0.75
 40
1.0
 40
1.0
 40
1.0
 40
1.0
 10
9.99999999999998
 20
2.400139073699826
 30
0.0
 10
9.99999999999998
 20
2.187807884660797
 30
0.0
 10
9.999999999999984
 20
1.933575672568214
 30
0.0
 10
9.99999999999998
 20
1.328087227446755
 30
0.0
 10
9.99999999999998
 20
0.9754976565911112
 30
0.0
 10
9.999999999999984
 20
0.1979064155802729
 30
0.0
 10
9.999999999999984
 20
-0.2274951712038069
 30
0.0
 10
9.999999999999984
 20
-1.052065800973144
 30
0.0
 10
9.999999999999984
 20
-1.447943429548664
 30
0.0
 10
9.999999999999984
 20
-1.762131517321997
 30
0.0
  0
SPLINE
  5
AF
330
1F
100
AcDbEntity
  8
외형선
  6
Continuous
 62
     1
370
    15
100
AcDbSpline
210
0.0
220
0.0
230
1.0
 70
     8
 71
     3
 72
    12
 73
     8
 74
     0
 42
0.000000001
 43
0.00000001
 40
0.0
 40
0.0
 40
0.0
 40
0.0
 40
0.5000000000000011
 40
0.5000000000000011
 40
0.7500000000000006
 40
0.7500000000000006
 40
1.0
 40
1.0
 40
1.0
 40
1.0
 10
16.83749999999998
 20
0.8240468249759444
 30
0.0
 10
17.01610488891517
 20
0.6998857724252204
 30
0.0
 10
17.19686517673168
 20
0.6046894078254405
 30
0.0
 10
17.47608560809895
 20
0.5154440827363396
 30
0.0
 10
17.57026861883123
 20
0.4950374531924314
 30
0.0
 10
17.75554346349824
 20
0.4769591173785803
 30
0.0
 10
17.84740355797624
 20
0.4788932740700951
 30
0.0
 10
17.93749999999998
 20
0.4950880597006297
 30
0.0
  0
LINE
  5
B0
330
1F
100
AcDbEntity
  8
외형선
  6
Continuous
 62
     1
370
    15
100
AcDbLine
 10
17.93749999999998
 20
0.4950880597006291
 30
0.0
 11
17.93749999999998
 21
-1.422247913250309
 31
0.0
  0
SPLINE
  5
B1
330
1F
100
AcDbEntity
  8
외형선
  6
Continuous
 62
     1
370
    15
100
AcDbSpline
210
0.0
220
0.0
230
1.0
 70
     8
 71
     3
 72
     8
 73
     4
 74
     0
 42
0.000000001
 43
0.00000001
 40
0.000000298923855
 40
0.000000298923855
 40
0.000000298923855
 40
0.000000298923855
 40
0.0000177306358404
 40
0.0000177306358404
 40
0.0000177306358404
 40
0.0000177306358404
 10
17.93749999999998
 20
-1.42224791325031
 30
0.0
 10
17.93361232419293
 20
-1.42628158026393
 30
0.0
 10
17.92972363474653
 20
-1.430314986366278
 30
0.0
 10
17.92583394665245
 20
-1.43434813340012
 30
0.0
  0
SPLINE
  5
B2
330
1F
100
AcDbEntity
  8
외형선
  6
Continuous
 62
     1
370
    15
100
AcDbSpline
210
0.0
220
0.0
230
1.0
 70
     8
 71
     3
 72
    10
 73
     6
 74
     0
 42
0.000000001
 43
0.00000001
 40
0.0
 40
0.0
 40
0.0
 40
0.0
 40
0.5
 40
0.5
 40
1.0
 40
1.0
 40
1.0
 40
1.0
 10
17.92583394664852
 20
-1.434348133390966
 30
0.0
 10
17.7677699381836
 20
-1.407918869277196
 30
0.0
 10
17.59709993579279
 20
-1.37655954279616
 30
0.0
 10
17.24622934968545
 20
-1.301564415943013
 30
0.0
 10
17.06554634712905
 20
-1.258084971001902
 30
0.0
 10
16.88215651268669
 20
-1.208606141972594
 30
0.0
  0
SPLINE
  5
B3
330
1F
100
AcDbEntity
  8
외형선
  6
Continuous
 62
     1
370
    15
100
AcDbSpline
210
0.0
220
0.0
230
1.0
 70
     8
 71
     3
 72
    10
 73
     6
 74
     0
 42
0.000000001
 43
0.00000001
 40
0.0
 40
0.0
 40
0.0
 40
0.0
 40
0.5
 40
0.5
 40
1.0
 40
1.0
 40
1.0
 40
1.0
 10
16.83749999999998
 20
0.6291552848821783
 30
0.0
 10
16.83749999999998
 20
0.3191889143805099
 30
0.0
 10
16.84272293351261
 20
0.0013664256617499
 30
0.0
 10
16.85885655178663
 20
-0.617505690312588
 30
0.0
 10
16.87013647357263
 20
-0.9244433221549714
 30
0.0
 10
16.88323549393451
 20
-1.208897192610662
 30
0.0
  0
LINE
  5
B4
330
1F
100
AcDbEntity
  8
외형선
  6
Continuous
 62
     1
370
    15
100
AcDbLine
 10
16.83749999999998
 20
0.6234275064024489
 30
0.0
 11
16.83749999999998
 21
0.8240468249759444
 31
0.0
  0
SPLINE
  5
B5
330
1F
100
AcDbEntity
  8
외형선
  6
Continuous
 62
     1
370
    15
100
AcDbSpline
210
0.0
220
0.0
230
1.0
 70
     8
 71
     3
 72
     8
 73
     4
 74
     0
 42
0.000000001
 43
0.00000001
 40
0.0
 40
0.0
 40
0.0
 40
0.0
 40
1.0
 40
1.0
 40
1.0
 40
1.0
 10
16.6517442808404
 20
0.9185081440762698
 30
0.0
 10
16.69995531352656
 20
0.8977506911516385
 30
0.0
 10
16.75748736369977
 20
0.8686081953074295
 30
0.0
 10
16.81637790089416
 20
0.8358136601257996
 30
0.0
  0
SPLINE
  5
B6
330
1F
100
AcDbEntity
  8
외형선
  6
Continuous
 62
     1
370
    15
100
AcDbSpline
210
0.0
220
0.0
230
1.0
 70
     8
 71
     3
 72
     8
 73
     4
 74
     0
 42
0.000000001
 43
0.00000001
 40
0.0
 40
0.0
 40
0.0
 40
0.0
 40
1.0
 40
1.0
 40
1.0
 40
1.0
 10
16.83807029319
 20
0.6234862764961702
 30
0.0
 10
16.83092713817232
 20
0.6945228109779066
 30
0.0
 10
16.82368830393224
 20
0.7653858595250201
 30
0.0
 10
16.81637780205825
 20
0.8358146123026825
 30
0.0
  0
SPLINE
  5
B7
330
1F
100
AcDbEntity
  8
외형선
  6
Continuous
 62
     1
370
    15
100
AcDbSpline
210
0.0
220
0.0
230
1.0
 70
     8
 71
     3
 72
    10
 73
     6
 74
     0
 42
0.000000001
 43
0.00000001
 40
0.0
 40
0.0
 40
0.0
 40
0.0
 40
0.5
 40
0.5
 40
1.0
 40
1.0
 40
1.0
 40
1.0
 10
16.87291218345548
 20
-1.204888514901457
 30
0.0
 10
16.83649475961388
 20
-0.872677034200192
 30
0.0
 10
16.79791457856775
 20
-0.5093034117719146
 30
0.0
 10
16.723244648764
 20
0.2160956581810172
 30
0.0
 10
16.68886029968925
 20
0.5721588507884675
 30
0.0
 10
16.65174428084121
 20
0.9185081440663591
 30
0.0
  0
SPLINE
  5
B8
330
1F
100
AcDbEntity
  8
외형선
  6
Continuous
 62
     1
370
    15
100
AcDbSpline
210
0.0
220
0.0
230
1.0
 70
     8
 71
     3
 72
    10
 73
     6
 74
     0
 42
0.000000001
 43
0.00000001
 40
0.0
 40
0.0
 40
0.0
 40
0.0
 40
0.5
 40
0.5
 40
1.0
 40
1.0
 40
1.0
 40
1.0
 10
14.91136117132135
 20
-0.1138699503318236
 30
0.0
 10
14.87443789309898
 20
0.2516697805279779
 30
0.0
 10
14.84037866216797
 20
0.6100124799251577
 30
0.0
 10
14.76666676989882
 20
1.307007078097473
 30
0.0
 10
14.72839437278075
 20
1.640088803959106
 30
0.0
 10
14.69203779318505
 20
1.929117659935429
 30
0.0
  0
SPLINE
  5
B9
330
1F
100
AcDbEntity
  8
외형선
  6
Continuous
 62
     1
370
    15
100
AcDbSpline
210
0.0
220
0.0
230
1.0
 70
     8
 71
     3
 72
    10
 73
     6
 74
     0
 42
0.000000001
 43
0.00000001
 40
0.0
 40
0.0
 40
0.0
 40
0.0
 40
0.5
 40
0.5
 40
1.0
 40
1.0
 40
1.0
 40
1.0
 10
15.8327259254349
 20
1.367935288951137
 30
0.0
 10
15.64160513937134
 20
1.467232981712523
 30
0.0
 10
15.45033843089803
 20
1.564083977842222
 30
0.0
 10
15.07059464094069
 20
1.751365052840094
 30
0.0
 10
14.88228452577973
 20
1.841786750512085
 30
0.0
 10
14.69173875242275
 20
1.929093930692736
 30
0.0
  0
SPLINE
  5
BA
330
1F
100
AcDbEntity
  8
외형선
  6
Continuous
 62
     1
370
    15
100
AcDbSpline
210
0.0
220
0.0
230
1.0
 70
     8
 71
     3
 72
    12
 73
     8
 74
     0
 42
0.000000001
 43
0.00000001
 40
0.0
 40
0.0
 40
0.0
 40
0.0
 40
0.5000000000000001
 40
0.5000000000000001
 40
0.75
 40
0.75
 40
1.0
 40
1.0
 40
1.0
 40
1.0
 10
16.05226572345489
 20
-0.76495172482466
 30
0.0
 10
16.01496794058076
 20
-0.4089497028404154
 30
0.0
 10
15.97703529129792
 20
-0.0355071187454664
 30
0.0
 10
15.92404558496806
 20
0.5020994530167392
 30
0.0
 10
15.90664650545061
 20
0.6789033039294186
 30
0.0
 10
15.87013187541408
 20
1.029700433331933
 30
0.0
 10
15.85144031168292
 20
1.202234807822968
 30
0.0
 10
15.83272603476556
 20
1.367936024086845
 30
0.0
  0
SPLINE
  5
BB
330
1F
100
AcDbEntity
  8
외형선
  6
Continuous
 62
     1
370
    15
100
AcDbSpline
210
0.0
220
0.0
230
1.0
 70
     8
 71
     3
 72
    10
 73
     6
 74
     0
 42
0.000000001
 43
0.00000001
 40
0.0
 40
0.0
 40
0.0
 40
0.0
 40
0.5
 40
0.5
 40
1.0
 40
1.0
 40
1.0
 40
1.0
 10
16.05226338083198
 20
-0.7649545709282832
 30
0.0
 10
15.86166754093077
 20
-0.6583282974559095
 30
0.0
 10
15.67033229654612
 20
-0.5501871843718485
 30
0.0
 10
15.28926912113634
 20
-0.3326202673037568
 30
0.0
 10
15.10076321284073
 20
-0.2234325450237942
 30
0.0
 10
14.91136098470727
 20
-0.1138700745732379
 30
0.0
  0
SPLINE
  5
BC
330
1F
100
AcDbEntity
  8
외형선
  6
Continuous
 62
     1
370
    15
100
AcDbSpline
210
0.0
220
0.0
230
1.0
 70
     8
 71
     3
 72
     8
 73
     4
 74
     0
 42
0.000000001
 43
0.00000001
 40
0.0
 40
0.0
 40
0.0
 40
0.0
 40
1.0
 40
1.0
 40
1.0
 40
1.0
 10
16.21700404109569
 20
-0.8493609697570124
 30
0.0
 10
16.16875989441328
 20
-0.8276494829092053
 30
0.0
 10
16.11118676679041
 20
-0.7979184616062491
 30
0.0
 10
16.05226618605494
 20
-0.7649561402723702
 30
0.0
  0
SPLINE
  5
BD
330
1F
100
AcDbEntity
  8
외형선
  6
Continuous
 62
     1
370
    15
100
AcDbSpline
210
0.0
220
0.0
230
1.0
 70
     8
 71
     3
 72
     8
 73
     4
 74
     0
 42
0.000000001
 43
0.00000001
 40
0.0
 40
0.0
 40
0.0
 40
0.0
 40
1.0
 40
1.0
 40
1.0
 40
1.0
 10
15.83272612978583
 20
1.367935182781385
 30
0.0
 10
15.88927104526067
 20
1.338557008585007
 30
0.0
 10
15.94675372447142
 20
1.303039313570944
 30
0.0
 10
15.99590191194542
 20
1.267565774895351
 30
0.0
  0
SPLINE
  5
BE
330
1F
100
AcDbEntity
  8
외형선
  6
Continuous
 62
     1
370
    15
100
AcDbSpline
210
0.0
220
0.0
230
1.0
 70
     8
 71
     3
 72
    12
 73
     8
 74
     0
 42
0.000000001
 43
0.00000001
 40
0.0
 40
0.0
 40
0.0
 40
0.0
 40
0.5
 40
0.5
 40
0.75
 40
0.75
 40
1.0
 40
1.0
 40
1.0
 40
1.0
 10
16.21700404109404
 20
-0.8493609697372294
 30
0.0
 10
16.17959213780503
 20
-0.5003029383537931
 30
0.0
 10
16.14120821425339
 20
-0.1308151828087646
 30
0.0
 10
16.08720898915668
 20
0.4049911178559025
 30
0.0
 10
16.06994527487413
 20
0.5800976210486651
 30
0.0
 10
16.03347460284147
 20
0.9291195194443523
 30
0.0
 10
16.01473393129544
 20
1.101447823328663
 30
0.0
 10
15.99590199707752
 20
1.267565023949596
 30
0.0
  0
SPLINE
  5
BF
330
1F
100
AcDbEntity
  8
외형선
  6
Continuous
 62
     1
370
    15
100
AcDbSpline
210
0.0
220
0.0
230
1.0
 70
     8
 71
     3
 72
     8
 73
     4
 74
     0
 42
0.000000001
 43
0.00000001
 40
0.0
 40
0.0
 40
0.0
 40
0.0
 40
1.0
 40
1.0
 40
1.0
 40
1.0
 10
16.83749999999998
 20
0.8240468249759451
 30
0.0
 10
16.83045762216573
 20
0.8279715427762887
 30
0.0
 10
16.82341664515164
 20
0.8318939753877767
 30
0.0
 10
16.81637714632364
 20
0.835814080325557
 30
0.0
  0
SPLINE
  5
C0
330
1F
100
AcDbEntity
  8
외형선
  6
Continuous
 62
     1
370
    15
100
AcDbSpline
210
0.0
220
0.0
230
1.0
 70
     8
 71
     3
 72
    10
 73
     6
 74
     0
 42
0.000000001
 43
0.00000001
 40
0.0
 40
0.0
 40
0.0
 40
0.0
 40
0.5
 40
0.5
 40
1.0
 40
1.0
 40
1.0
 40
1.0
 10
16.87252629224173
 20
-1.201367875824368
 30
0.0
 10
16.77225576639137
 20
-1.130083698271093
 30
0.0
 10
16.65373034297281
 20
-1.064977837599717
 30
0.0
 10
16.42317647591477
 20
-0.9457758902542502
 30
0.0
 10
16.3113234137248
 20
-0.8918078562527401
 30
0.0
 10
16.21700404109615
 20
-0.849360969756916
 30
0.0
  0
SPLINE
  5
C1
330
1F
100
AcDbEntity
  8
외형선
  6
Continuous
 62
     1
370
    15
100
AcDbSpline
210
0.0
220
0.0
230
1.0
 70
     8
 71
     3
 72
    10
 73
     6
 74
     0
 42
0.000000001
 43
0.00000001
 40
0.0
 40
0.0
 40
0.0
 40
0.0
 40
0.5
 40
0.5
 40
1.0
 40
1.0
 40
1.0
 40
1.0
 10
15.99590191194637
 20
1.267565774894664
 30
0.0
 10
16.09625368006294
 20
1.195135182630439
 30
0.0
 10
16.21486214497403
 20
1.129872938196213
 30
0.0
 10
16.44562691278985
 20
1.011963350727429
 30
0.0
 10
16.55744297402957
 20
0.9591099488447413
 30
0.0
 10
16.65174428084191
 20
0.9185081440744679
 30
0.0
  0
SPLINE
  5
C2
330
1F
100
AcDbEntity
  8
외형선
  6
Continuous
 62
     1
370
    15
100
AcDbSpline
210
0.0
220
0.0
230
1.0
 70
     8
 71
     3
 72
    12
 73
     8
 74
     0
 42
0.000000001
 43
0.00000001
 40
0.0
 40
0.0
 40
0.0
 40
0.0
 40
0.4999999999999997
 40
0.4999999999999997
 40
0.7499999999999998
 40
0.7499999999999998
 40
1.0
 40
1.0
 40
1.0
 40
1.0
 10
12.7896873467041
 20
1.088025867708324
 30
0.0
 10
12.75255368608565
 20
1.432155174744082
 30
0.0
 10
12.7144309964331
 20
1.75669321121956
 30
0.0
 10
12.66070177592522
 20
2.173509640778907
 30
0.0
 10
12.64358229205497
 20
2.300701513134148
 30
0.0
 10
12.60744307200414
 20
2.535927769744535
 30
0.0
 10
12.58886059410836
 20
2.642702586584186
 30
0.0
 10
12.57016885512544
 20
2.735850854694392
 30
0.0
  0
SPLINE
  5
C3
330
1F
100
AcDbEntity
  8
외형선
  6
Continuous
 62
     1
370
    15
100
AcDbSpline
210
0.0
220
0.0
230
1.0
 70
     8
 71
     3
 72
     8
 73
     4
 74
     0
 42
0.000000001
 43
0.00000001
 40
0.0
 40
0.0
 40
0.0
 40
0.0
 40
1.0
 40
1.0
 40
1.0
 40
1.0
 10
13.71034764629266
 20
2.345634214350548
 30
0.0
 10
13.33242384610435
 20
2.493225120485088
 30
0.0
 10
12.95048391042999
 20
2.624481713589764
 30
0.0
 10
12.56986281342182
 20
2.735870666203021
 30
0.0
  0
SPLINE
  5
C4
330
1F
100
AcDbEntity
  8
외형선
  6
Continuous
 62
     1
370
    15
100
AcDbSpline
210
0.0
220
0.0
230
1.0
 70
     8
 71
     3
 72
    12
 73
     8
 74
     0
 42
0.000000001
 43
0.00000001
 40
0.0
 40
0.0
 40
0.0
 40
0.0
 40
0.4999999999999999
 40
0.4999999999999999
 40
0.7499999999999999
 40
0.7499999999999999
 40
1.0
 40
1.0
 40
1.0
 40
1.0
 10
13.9291422418695
 20
0.4508555553231811
 30
0.0
 10
13.89430654715629
 20
0.806258797463082
 30
0.0
 10
13.85656251083355
 20
1.162435867659603
 30
0.0
 10
13.80036665422396
 20
1.649825897026188
 30
0.0
 10
13.78172020779212
 20
1.80448911746416
 30
0.0
 10
13.74541433573417
 20
2.091880511751065
 30
0.0
 10
13.7282246641968
 20
2.223607452962656
 30
0.0
 10
13.71034771879239
 20
2.345633841128483
 30
0.0
  0
SPLINE
  5
C5
330
1F
100
AcDbEntity
  8
외형선
  6
Continuous
 62
     1
370
    15
100
AcDbSpline
210
0.0
220
0.0
230
1.0
 70
     8
 71
     3
 72
    10
 73
     6
 74
     0
 42
0.000000001
 43
0.00000001
 40
0.0
 40
0.0
 40
0.0
 40
0.0
 40
0.5
 40
0.5
 40
1.0
 40
1.0
 40
1.0
 40
1.0
 10
13.9291419279357
 20
0.450856023473596
 30
0.0
 10
13.73908233855899
 20
0.5594643065555952
 30
0.0
 10
13.55124053424029
 20
0.6668459813079822
 30
0.0
 10
13.17156305449826
 20
0.8795970402098111
 30
0.0
 10
12.98047947133006
 20
0.9848168573762136
 30
0.0
 10
12.78968766259269
 20
1.088025613692468
 30
0.0
  0
SPLINE
  5
C6
330
1F
100
AcDbEntity
  8
외형선
  6
Continuous
 62
     1
370
    15
100
AcDbSpline
210
0.0
220
0.0
230
1.0
 70
     8
 71
     3
 72
    14
 73
    10
 74
     0
 42
0.000000001
 43
0.00000001
 40
0.0
 40
0.0
 40
0.0
 40
0.0
 40
0.0143871347630137
 40
0.159454162393434
 40
0.3055652665537825
 40
0.4548553415271229
 40
0.6051839277545922
 40
0.8015975285281002
 40
1.0
 40
1.0
 40
1.0
 40
1.0
 10
17.64606416360251
 20
-1.384146146645335
 30
0.0
 10
17.64323821244653
 20
-1.384117980458119
 30
0.0
 10
17.61191789175974
 20
-1.383805811574986
 30
0.0
 10
17.5452282815422
 20
-1.391510864575626
 30
0.0
 10
17.44549263646277
 20
-1.4080979538525
 30
0.0
 10
17.33810762760744
 20
-1.434607033672314
 30
0.0
 10
17.21337366876214
 20
-1.473447725018518
 30
0.0
 10
17.07079199374724
 20
-1.526765050655083
 30
0.0
 10
16.96365143504531
 20
-1.575773868120407
 30
0.0
 10
16.90981129748341
 20
-1.600401716864598
 30
0.0
  0
SPLINE
  5
C7
330
1F
100
AcDbEntity
  8
외형선
  6
Continuous
 62
     1
370
    15
100
AcDbSpline
210
0.0
220
0.0
230
1.0
 70
     8
 71
     3
 72
     8
 73
     4
 74
     0
 42
0.000000001
 43
0.00000001
 40
0.0
 40
0.0
 40
0.0
 40
0.0
 40
1.0
 40
1.0
 40
1.0
 40
1.0
 10
17.93749999999998
 20
-1.856130954124575
 30
0.0
 10
17.5858958378491
 20
-1.802465666754332
 30
0.0
 10
17.24368999677533
 20
-1.715975509577162
 30
0.0
 10
16.90981129748385
 20
-1.60040171686282
 30
0.0
  0
LINE
  5
C8
330
1F
100
AcDbEntity
  8
외형선
  6
Continuous
 62
     1
370
    15
100
AcDbLine
 10
17.93749999999998
 20
-1.99264706688176
 30
0.0
 11
17.93749999999998
 21
-1.856130954124574
 31
0.0
  0
SPLINE
  5
C9
330
1F
100
AcDbEntity
  8
외형선
  6
Continuous
 62
     1
370
    15
100
AcDbSpline
210
0.0
220
0.0
230
1.0
 70
     8
 71
     3
 72
    10
 73
     6
 74
     0
 42
0.000000001
 43
0.00000001
 40
0.0
 40
0.0
 40
0.0
 40
0.0
 40
0.5
 40
0.5
 40
1.0
 40
1.0
 40
1.0
 40
1.0
 10
16.99659779913323
 20
-2.896837087601353
 30
0.0
 10
17.15012583794966
 20
-2.733945599851224
 30
0.0
 10
17.30611035709439
 20
-2.573840745167555
 30
0.0
 10
17.6257709314854
 20
-2.264797062682319
 30
0.0
 10
17.78394952226554
 20
-2.12165293050932
 30
0.0
 10
17.93749999999998
 20
-1.99264706688176
 30
0.0
  0
SPLINE
  5
CA
330
1F
100
AcDbEntity
  8
외형선
  6
Continuous
 62
     1
370
    15
100
AcDbSpline
210
0.0
220
0.0
230
1.0
 70
     8
 71
     3
 72
     8
 73
     4
 74
     0
 42
0.000000001
 43
0.00000001
 40
0.0
 40
0.0
 40
0.0
 40
0.0
 40
1.0
 40
1.0
 40
1.0
 40
1.0
 10
16.70291792255524
 20
-3.036398190026677
 30
0.0
 10
16.79142562112995
 20
-2.962508419521939
 30
0.0
 10
16.89428643129132
 20
-2.917692722931509
 30
0.0
 10
16.9965977991331
 20
-2.896837087599885
 30
0.0
  0
SPLINE
  5
CB
330
1F
100
AcDbEntity
  8
외형선
  6
Continuous
 62
     1
370
    15
100
AcDbSpline
210
0.0
220
0.0
230
1.0
 70
     8
 71
     3
 72
     8
 73
     4
 74
     0
 42
0.000000001
 43
0.00000001
 40
0.0
 40
0.0
 40
0.0
 40
0.0
 40
1.0
 40
1.0
 40
1.0
 40
1.0
 10
16.54001980267047
 20
-3.107315170663052
 30
0.0
 10
16.59643893297941
 20
-3.100593304154197
 30
0.0
 10
16.65383119402966
 20
-3.07737775636939
 30
0.0
 10
16.70291792255524
 20
-3.036398190026671
 30
0.0
  0
SPLINE
  5
CC
330
1F
100
AcDbEntity
  8
외형선
  6
Continuous
 62
     1
370
    15
100
AcDbSpline
210
0.0
220
0.0
230
1.0
 70
     8
 71
     3
 72
     8
 73
     4
 74
     0
 42
0.000000001
 43
0.00000001
 40
0.0
 40
0.0
 40
0.0
 40
0.0
 40
1.0
 40
1.0
 40
1.0
 40
1.0
 10
16.54001700842358
 20
-3.107315503573699
 30
0.0
 10
16.16334031621497
 20
-3.152193268055415
 30
0.0
 10
15.78073866227782
 20
-3.175033392701708
 30
0.0
 10
15.40107738904697
 20
-3.174999963037989
 30
0.0
  0
SPLINE
  5
CD
330
1F
100
AcDbEntity
  8
외형선
  6
Continuous
 62
     1
370
    15
100
AcDbSpline
210
0.0
220
0.0
230
1.0
 70
     8
 71
     3
 72
     8
 73
     4
 74
     0
 42
0.000000001
 43
0.00000001
 40
0.0
 40
0.0
 40
0.0
 40
0.0
 40
1.0
 40
1.0
 40
1.0
 40
1.0
 10
15.23636979366984
 20
-3.120025949109031
 30
0.0
 10
15.28460642473619
 20
-3.156285223284204
 30
0.0
 10
15.34216413973219
 20
-3.174994776520331
 30
0.0
 10
15.40107752989504
 20
-3.174999963050393
 30
0.0
  0
SPLINE
  5
CE
330
1F
100
AcDbEntity
  8
외형선
  6
Continuous
 62
     1
370
    15
100
AcDbSpline
210
0.0
220
0.0
230
1.0
 70
     8
 71
     3
 72
    10
 73
     6
 74
     0
 42
0.000000001
 43
0.00000001
 40
0.0
 40
0.0
 40
0.0
 40
0.0
 40
0.5
 40
0.5
 40
1.0
 40
1.0
 40
1.0
 40
1.0
 10
14.58038062328907
 20
-3.085700961251432
 30
0.0
 10
14.68075415205256
 20
-3.018483854152209
 30
0.0
 10
14.79938546325641
 20
-2.99304226726235
 30
0.0
 10
15.03018070965228
 20
-3.008795497262865
 30
0.0
 10
15.14202595530477
 20
-3.049108079708781
 30
0.0
 10
15.23636979367184
 20
-3.120025949104163
 30
0.0
  0
SPLINE
  5
CF
330
1F
100
AcDbEntity
  8
외형선
  6
Continuous
 62
     1
370
    15
100
AcDbSpline
210
0.0
220
0.0
230
1.0
 70
     8
 71
     3
 72
     8
 73
     4
 74
     0
 42
0.000000001
 43
0.00000001
 40
0.0
 40
0.0
 40
0.0
 40
0.0
 40
1.0
 40
1.0
 40
1.0
 40
1.0
 10
14.41720452578893
 20
-3.12413181008511
 30
0.0
 10
14.47375006995141
 20
-3.129936260135549
 30
0.0
 10
14.53123204291779
 20
-3.118614274465318
 30
0.0
 10
14.58038062328869
 20
-3.085700961251689
 30
0.0
  0
SPLINE
  5
D0
330
1F
100
AcDbEntity
  8
외형선
  6
Continuous
 62
     1
370
    15
100
AcDbSpline
210
0.0
220
0.0
230
1.0
 70
     8
 71
     3
 72
    10
 73
     6
 74
     0
 42
0.000000001
 43
0.00000001
 40
0.0
 40
0.0
 40
0.0
 40
0.0
 40
0.5
 40
0.5
 40
1.0
 40
1.0
 40
1.0
 40
1.0
 10
14.41720452577074
 20
-3.124131810083296
 30
0.0
 10
14.22623388564062
 20
-3.104528505203781
 30
0.0
 10
14.03505198936806
 20
-3.079282843635883
 30
0.0
 10
13.65534335019809
 20
-3.017978632528313
 30
0.0
 10
13.46727231598005
 20
-2.981980104889856
 30
0.0
 10
13.27694698659473
 20
-2.940560127317433
 30
0.0
  0
SPLINE
  5
D1
330
1F
100
AcDbEntity
  8
외형선
  6
Continuous
 62
     1
370
    15
100
AcDbSpline
210
0.0
220
0.0
230
1.0
 70
     8
 71
     3
 72
     8
 73
     4
 74
     0
 42
0.000000001
 43
0.00000001
 40
0.0
 40
0.0
 40
0.0
 40
0.0
 40
1.0
 40
1.0
 40
1.0
 40
1.0
 10
13.11255632225029
 20
-2.851825200563299
 30
0.0
 10
13.16068821669912
 20
-2.89719500260388
 30
0.0
 10
13.21816051852282
 20
-2.927766589825383
 30
0.0
 10
13.27694694117388
 20
-2.94056011743262
 30
0.0
  0
SPLINE
  5
D2
330
1F
100
AcDbEntity
  8
외형선
  6
Continuous
 62
     1
370
    15
100
AcDbSpline
210
0.0
220
0.0
230
1.0
 70
     8
 71
     3
 72
    10
 73
     6
 74
     0
 42
0.000000001
 43
0.00000001
 40
0.0
 40
0.0
 40
0.0
 40
0.0
 40
0.5
 40
0.5
 40
1.0
 40
1.0
 40
1.0
 40
1.0
 10
12.45825597829854
 20
-2.68135377325564
 30
0.0
 10
12.55823682027235
 20
-2.640569990937584
 30
0.0
 10
12.67646756011398
 20
-2.63957766251789
 30
0.0
 10
12.90678590757027
 20
-2.701237320597188
 30
0.0
 10
13.01851763906855
 20
-2.763183012484403
 30
0.0
 10
13.11255632225204
 20
-2.851825200559578
 30
0.0
  0
SPLINE
  5
D3
330
1F
100
AcDbEntity
  8
외형선
  6
Continuous
 62
     1
370
    15
100
AcDbSpline
210
0.0
220
0.0
230
1.0
 70
     8
 71
     3
 72
     8
 73
     4
 74
     0
 42
0.000000001
 43
0.00000001
 40
0.0
 40
0.0
 40
0.0
 40
0.0
 40
1.0
 40
1.0
 40
1.0
 40
1.0
 10
12.29525541429893
 20
-2.681616547737221
 30
0.0
 10
12.35171307376708
 20
-2.699123369411128
 30
0.0
 10
12.40914343337857
 20
-2.701387564745533
 30
0.0
 10
12.45825597829815
 20
-2.681353773255794
 30
0.0
  0
SPLINE
  5
D4
330
1F
100
AcDbEntity
  8
외형선
  6
Continuous
 62
     1
370
    15
100
AcDbSpline
210
0.0
220
0.0
230
1.0
 70
     8
 71
     3
 72
    10
 73
     6
 74
     0
 42
0.000000001
 43
0.00000001
 40
0.0
 40
0.0
 40
0.0
 40
0.0
 40
0.5
 40
0.5
 40
1.0
 40
1.0
 40
1.0
 40
1.0
 10
12.29525604193347
 20
-2.681616742359062
 30
0.0
 10
12.10610547621831
 20
-2.622963503544281
 30
0.0
 10
11.91739823403824
 20
-2.559574909915039
 30
0.0
 10
11.53634420300517
 20
-2.423436760365274
 30
0.0
 10
11.3450953755253
 20
-2.350799092078233
 30
0.0
 10
11.15466571533057
 20
-2.274180292676935
 30
0.0
  0
SPLINE
  5
D5
330
1F
100
AcDbEntity
  8
외형선
  6
Continuous
 62
     1
370
    15
100
AcDbSpline
210
0.0
220
0.0
230
1.0
 70
     8
 71
     3
 72
     8
 73
     4
 74
     0
 42
0.000000001
 43
0.00000001
 40
0.0
 40
0.0
 40
0.0
 40
0.0
 40
1.0
 40
1.0
 40
1.0
 40
1.0
 10
10.98988641336874
 20
-2.164569118004021
 30
0.0
 10
11.03814624657458
 20
-2.212446970292533
 30
0.0
 10
11.09573133302626
 20
-2.250468221409966
 30
0.0
 10
11.15466564972709
 20
-2.274180266281572
 30
0.0
  0
SPLINE
  5
D6
330
1F
100
AcDbEntity
  8
외형선
  6
Continuous
 62
     1
370
    15
100
AcDbSpline
210
0.0
220
0.0
230
1.0
 70
     8
 71
     3
 72
    10
 73
     6
 74
     0
 42
0.000000001
 43
0.00000001
 40
0.0
 40
0.0
 40
0.0
 40
0.0
 40
0.5000000000000001
 40
0.5000000000000001
 40
1.0
 40
1.0
 40
1.0
 40
1.0
 10
10.33402840623137
 20
-1.880888585478521
 30
0.0
 10
10.43436447137629
 20
-1.872348648416552
 30
0.0
 10
10.55295724398894
 20
-1.896542868219659
 30
0.0
 10
10.78364829555377
 20
-1.996241720797774
 30
0.0
 10
10.89552251730903
 20
-2.070952120658679
 30
0.0
 10
10.98988641337074
 20
-2.16456911800098
 30
0.0
  0
SPLINE
  5
D7
330
1F
100
AcDbEntity
  8
외형선
  6
Continuous
 62
     1
370
    15
100
AcDbSpline
210
0.0
220
0.0
230
1.0
 70
     8
 71
     3
 72
     8
 73
     4
 74
     0
 42
0.000000001
 43
0.00000001
 40
0.0
 40
0.0
 40
0.0
 40
0.0
 40
1.0
 40
1.0
 40
1.0
 40
1.0
 10
10.17097931008157
 20
-1.843162262692095
 30
0.0
 10
10.2274863557097
 20
-1.869660682174224
 30
0.0
 10
10.28492297895973
 20
-1.885068112129116
 30
0.0
 10
10.33402840623098
 20
-1.880888585478548
 30
0.0
  0
SPLINE
  5
D8
330
1F
100
AcDbEntity
  8
외형선
  6
Continuous
 62
     1
370
    15
100
AcDbSpline
210
0.0
220
0.0
230
1.0
 70
     8
 71
     3
 72
     8
 73
     4
 74
     0
 42
0.000000001
 43
0.00000001
 40
0.0
 40
0.0
 40
0.0
 40
0.0
 40
1.0
 40
1.0
 40
1.0
 40
1.0
 10
10.17098859883947
 20
-1.843166618560845
 30
0.0
 10
10.11401519959251
 20
-1.81644953802182
 30
0.0
 10
10.05700530252257
 20
-1.789431399058062
 30
0.0
 10
10.0000000000001
 20
-1.762131517323071
 30
0.0
  0
SPLINE
  5
D9
330
1F
100
AcDbEntity
  8
외형선
  6
Continuous
370
    15
100
AcDbSpline
210
0.0
220
0.0
230
1.0
 70
    24
 71
     3
 72
    14
 73
    10
 74
     0
 42
0.000000001
 43
0.00000001
 40
0.0
 40
0.0
 40
0.0
 40
0.0
 40
0.25
 40
0.25
 40
0.5
 40
0.5
 40
0.75
 40
0.75
 40
1.0
 40
1.0
 40
1.0
 40
1.0
 10
9.99999999999998
 20
2.288261004522779
 30
0.0
 10
9.99999999999998
 20
2.071280078993863
 30
0.0
 10
9.99999999999998
 20
1.81419672284717
 30
0.0
 10
9.99999999999998
 20
1.211298710069343
 30
0.0
 10
9.99999999999998
 20
0.8643850654232991
 30
0.0
 10
9.999999999999984
 20
0.1093678477054957
 30
0.0
 10
9.99999999999998
 20
-0.2988826598222769
 30
0.0
 10
9.999999999999984
 20
-1.085603475255053
 30
0.0
 10
9.999999999999984
 20
-1.461293209972651
 30
0.0
 10
9.999999999999984
 20
-1.762131517321997
 30
0.0
  0
SPLINE
  5
DA
330
1F
100
AcDbEntity
  8
외형선
  6
Continuous
 62
     1
370
    15
100
AcDbSpline
210
0.0
220
0.0
230
1.0
 70
     8
 71
     3
 72
     8
 73
     4
 74
     0
 42
0.000000001
 43
0.00000001
 40
0.0
 40
0.0
 40
0.0
 40
0.0
 40
1.0
 40
1.0
 40
1.0
 40
1.0
 10
10.50312530756088
 20
2.158402135632996
 30
0.0
 10
10.35303914826368
 20
2.130436689534542
 30
0.0
 10
10.1634913590092
 20
2.181603862316603
 30
0.0
 10
9.999999999999416
 20
2.288261004523152
 30
0.0
  0
SPLINE
  5
DB
330
1F
100
AcDbEntity
  8
외형선
  6
Continuous
 62
     1
370
    15
100
AcDbSpline
210
0.0
220
0.0
230
1.0
 70
     8
 71
     3
 72
     8
 73
     4
 74
     0
 42
0.000000001
 43
0.00000001
 40
0.0
 40
0.0
 40
0.0
 40
0.0
 40
1.0
 40
1.0
 40
1.0
 40
1.0
 10
10.66594475951672
 20
2.131658844843845
 30
0.0
 10
10.60954710167151
 20
2.155888494547793
 30
0.0
 10
10.55217744840387
 20
2.167541985750971
 30
0.0
 10
10.50312530756087
 20
2.158402135632999
 30
0.0
  0
SPLINE
  5
DC
330
1F
100
AcDbEntity
  8
외형선
  6
Continuous
 62
     1
370
    15
100
AcDbSpline
210
0.0
220
0.0
230
1.0
 70
     8
 71
     3
 72
     8
 73
     4
 74
     0
 42
0.000000001
 43
0.00000001
 40
0.0
 40
0.0
 40
0.0
 40
0.0
 40
1.0
 40
1.0
 40
1.0
 40
1.0
 10
11.80574042007815
 20
1.602029037613224
 30
0.0
 10
11.42551097916321
 20
1.791394425016434
 30
0.0
 10
11.04336761562699
 20
1.969509843919666
 30
0.0
 10
10.66594492323557
 20
2.131658774508118
 30
0.0
  0
SPLINE
  5
DD
330
1F
100
AcDbEntity
  8
외형선
  6
Continuous
 62
     1
370
    15
100
AcDbSpline
210
0.0
220
0.0
230
1.0
 70
     8
 71
     3
 72
     8
 73
     4
 74
     0
 42
0.000000001
 43
0.00000001
 40
0.0
 40
0.0
 40
0.0
 40
0.0
 40
1.0
 40
1.0
 40
1.0
 40
1.0
 10
11.97050862779281
 20
1.487344926150006
 30
0.0
 10
11.92225148727124
 20
1.532757005367635
 30
0.0
 10
11.86467221769488
 20
1.572679278081076
 30
0.0
 10
11.80574039861206
 20
1.602029048303967
 30
0.0
  0
SPLINE
  5
DE
330
1F
100
AcDbEntity
  8
외형선
  6
Continuous
 62
     1
370
    15
100
AcDbSpline
210
0.0
220
0.0
230
1.0
 70
     8
 71
     3
 72
    10
 73
     6
 74
     0
 42
0.000000001
 43
0.00000001
 40
0.0
 40
0.0
 40
0.0
 40
0.0
 40
0.5
 40
0.5
 40
1.0
 40
1.0
 40
1.0
 40
1.0
 10
12.62654464231433
 20
1.149402780334749
 30
0.0
 10
12.52616882338136
 20
1.164500117675256
 30
0.0
 10
12.40753434098894
 20
1.204121620239745
 30
0.0
 10
12.1767473626799
 20
1.321415444353359
 30
0.0
 10
12.06488032154861
 20
1.398537036034119
 30
0.0
 10
11.97050862779327
 20
1.487344926149837
 30
0.0
  0
SPLINE
  5
DF
330
1F
100
AcDbEntity
  8
외형선
  6
Continuous
 62
     1
370
    15
100
AcDbSpline
210
0.0
220
0.0
230
1.0
 70
     8
 71
     3
 72
     8
 73
     4
 74
     0
 42
0.000000001
 43
0.00000001
 40
0.0
 40
0.0
 40
0.0
 40
0.0
 40
1.0
 40
1.0
 40
1.0
 40
1.0
 10
12.78968735622778
 20
1.088025779418655
 30
0.0
 10
12.73315169511641
 20
1.118608723191
 30
0.0
 10
12.67568203553161
 20
1.142012117829371
 30
0.0
 10
12.62654464231432
 20
1.14940278033475
 30
0.0
  0
SPLINE
  5
E0
330
1F
100
AcDbEntity
  8
외형선
  6
Continuous
 62
     1
370
    15
100
AcDbSpline
210
0.0
220
0.0
230
1.0
 70
     8
 71
     3
 72
     8
 73
     4
 74
     0
 42
0.000000001
 43
0.00000001
 40
0.0
 40
0.0
 40
0.0
 40
0.0
 40
1.0
 40
1.0
 40
1.0
 40
1.0
 10
14.0934208177263
 20
0.3437527707297917
 30
0.0
 10
14.0453190983582
 20
0.379816611047684
 30
0.0
 10
13.98789094439937
 20
0.4172842902368914
 30
0.0
 10
13.92914221188749
 20
0.4508558612112418
 30
0.0
  0
SPLINE
  5
E1
330
1F
100
AcDbEntity
  8
외형선
  6
Continuous
 62
     1
370
    15
100
AcDbSpline
210
0.0
220
0.0
230
1.0
 70
     8
 71
     3
 72
    10
 73
     6
 74
     0
 42
0.000000001
 43
0.00000001
 40
0.0
 40
0.0
 40
0.0
 40
0.0
 40
0.5
 40
0.5
 40
1.0
 40
1.0
 40
1.0
 40
1.0
 10
14.74825468371543
 20
-0.0264653600991731
 30
0.0
 10
14.64817783497079
 20
0.0200726310383494
 30
0.0
 10
14.52984783133419
 20
0.0762886948045408
 30
0.0
 10
14.29935437884719
 20
0.2029411800493246
 30
0.0
 10
14.18752262427951
 20
0.2732007703078552
 30
0.0
 10
14.09342081772675
 20
0.3437527707297521
 30
0.0
  0
SPLINE
  5
E2
330
1F
100
AcDbEntity
  8
외형선
  6
Continuous
 62
     1
370
    15
100
AcDbSpline
210
0.0
220
0.0
230
1.0
 70
     8
 71
     3
 72
     8
 73
     4
 74
     0
 42
0.000000001
 43
0.00000001
 40
0.0
 40
0.0
 40
0.0
 40
0.0
 40
1.0
 40
1.0
 40
1.0
 40
1.0
 10
14.91136119622719
 20
-0.1138701969319218
 30
0.0
 10
14.85486818564581
 20
-0.0811909941589067
 30
0.0
 10
14.79740246209042
 20
-0.0493201851974397
 30
0.0
 10
14.74825468371543
 20
-0.0264653600991728
 30
0.0
  0
SPLINE
  5
E3
330
1F
100
AcDbEntity
  8
외형선
  6
Continuous
 62
     1
370
    15
100
AcDbSpline
210
0.0
220
0.0
230
1.0
 70
     8
 71
     3
 72
    10
 73
     6
 74
     0
 42
0.000000001
 43
0.00000001
 40
0.0
 40
0.0
 40
0.0
 40
0.0
 40
0.5
 40
0.5
 40
1.0
 40
1.0
 40
1.0
 40
1.0
 10
14.7482546837146
 20
-0.0264653600911079
 30
0.0
 10
14.71130319889085
 20
0.3349442117594065
 30
0.0
 10
14.67693110786113
 20
0.6885798190070643
 30
0.0
 10
14.60225381290964
 20
1.373236831399618
 30
0.0
 10
14.56377789609905
 20
1.697262472182535
 30
0.0
 10
14.52754573770745
 20
1.975309673054042
 30
0.0
  0
SPLINE
  5
E4
330
1F
100
AcDbEntity
  8
외형선
  6
Continuous
 62
     1
370
    15
100
AcDbSpline
210
0.0
220
0.0
230
1.0
 70
     8
 71
     3
 72
     8
 73
     4
 74
     0
 42
0.000000001
 43
0.00000001
 40
0.0
 40
0.0
 40
0.0
 40
0.0
 40
1.0
 40
1.0
 40
1.0
 40
1.0
 10
14.52754573770286
 20
1.975309673091282
 30
0.0
 10
14.57572117589603
 20
1.972508573626227
 30
0.0
 10
14.63323299169741
 20
1.955902294027259
 30
0.0
 10
14.69205925024768
 20
1.928947076546091
 30
0.0
  0
SPLINE
  5
E5
330
1F
100
AcDbEntity
  8
외형선
  6
Continuous
 62
     1
370
    15
100
AcDbSpline
210
0.0
220
0.0
230
1.0
 70
     8
 71
     3
 72
     8
 73
     4
 74
     0
 42
0.000000001
 43
0.00000001
 40
0.0
 40
0.0
 40
0.0
 40
0.0
 40
1.0
 40
1.0
 40
1.0
 40
1.0
 10
16.32676880122267
 20
3.09113334978708
 30
0.0
 10
16.27025723291482
 20
3.083668042745337
 30
0.0
 10
16.2127736371972
 20
3.059842902638157
 30
0.0
 10
16.16360843213939
 20
3.018547000029896
 30
0.0
  0
SPLINE
  5
E6
330
1F
100
AcDbEntity
  8
외형선
  6
Continuous
 62
     1
370
    15
100
AcDbSpline
210
0.0
220
0.0
230
1.0
 70
     8
 71
     3
 72
     8
 73
     4
 74
     0
 42
0.000000001
 43
0.00000001
 40
0.0
 40
0.0
 40
0.0
 40
0.0
 40
1.0
 40
1.0
 40
1.0
 40
1.0
 10
16.83749999999998
 20
3.145155137821787
 30
0.0
 10
16.66641492645731
 20
3.131649980179644
 30
0.0
 10
16.49719599568859
 20
3.113647061747872
 30
0.0
 10
16.32677518562361
 20
3.091134193178831
 30
0.0
  0
SPLINE
  5
E7
330
1F
100
AcDbEntity
  8
외형선
  6
Continuous
 62
     1
370
    15
100
AcDbSpline
210
0.0
220
0.0
230
1.0
 70
     8
 71
     3
 72
    10
 73
     6
 74
     0
 42
0.000000001
 43
0.00000001
 40
0.0
 40
0.0
 40
0.0
 40
0.0
 40
0.5
 40
0.5
 40
1.0
 40
1.0
 40
1.0
 40
1.0
 10
17.92583394664852
 20
2.029658538159969
 30
0.0
 10
17.7613630875729
 20
2.234562912375975
 30
0.0
 10
17.58330666556
 20
2.427053062212657
 30
0.0
 10
17.21730333754326
 20
2.79692293664775
 30
0.0
 10
17.02880052238627
 20
2.974050624308008
 30
0.0
 10
16.83749999999998
 20
3.145155137821781
 30
0.0
  0
SPLINE
  5
E8
330
1F
100
AcDbEntity
  8
외형선
  6
Continuous
 62
     1
370
    15
100
AcDbSpline
210
0.0
220
0.0
230
1.0
 70
     8
 71
     3
 72
    12
 73
     8
 74
     0
 42
0.000000001
 43
0.00000001
 40
0.0
 40
0.0
 40
0.0
 40
0.0
 40
0.25
 40
0.25
 40
0.5
 40
0.5
 40
1.0
 40
1.0
 40
1.0
 40
1.0
 10
17.92583394666306
 20
2.029658538154124
 30
0.0
 10
17.8731440510917
 20
1.913636138623392
 30
0.0
 10
17.8114109935469
 20
1.806100820515126
 30
0.0
 10
17.66883796667798
 20
1.608962177165617
 30
0.0
 10
17.58713084657787
 20
1.518997752302607
 30
0.0
 10
17.32473300981453
 20
1.289585718270108
 30
0.0
 10
17.12068454072384
 20
1.185024027021099
 30
0.0
 10
16.90981129748358
 20
1.129538483747386
 30
0.0
  0
SPLINE
  5
E9
330
1F
100
AcDbEntity
  8
외형선
  6
Continuous
 62
     1
370
    15
100
AcDbSpline
210
0.0
220
0.0
230
1.0
 70
     8
 71
     3
 72
     8
 73
     4
 74
     0
 42
0.000000001
 43
0.00000001
 40
0.0
 40
0.0
 40
0.0
 40
0.0
 40
1.0
 40
1.0
 40
1.0
 40
1.0
 10
17.93749999999998
 20
0.6124588087644217
 30
0.0
 10
17.58589583784912
 20
0.8037185699819293
 30
0.0
 10
17.24368999677537
 20
0.9753320632429984
 30
0.0
 10
16.90981129748391
 20
1.12953848374882
 30
0.0
  0
LINE
  5
EA
330
1F
100
AcDbEntity
  8
외형선
  6
Continuous
 62
     1
370
    15
100
AcDbLine
 10
17.93749999999998
 20
0.4950880597006291
 30
0.0
 11
17.93749999999998
 21
0.6124588087644215
 31
0.0
  0
SPLINE
  5
EB
330
1F
100
AcDbEntity
  8
외형선
  6
Continuous
 62
     1
370
    15
100
AcDbSpline
210
0.0
220
0.0
230
1.0
 70
     8
 71
     3
 72
    10
 73
     6
 74
     0
 42
0.000000001
 43
0.00000001
 40
0.0
 40
0.0
 40
0.0
 40
0.0
 40
0.5
 40
0.5
 40
1.0
 40
1.0
 40
1.0
 40
1.0
 10
13.87324533923113
 20
2.247763177954807
 30
0.0
 10
13.97320491537898
 20
2.162021291490994
 30
0.0
 10
14.09143378847966
 20
2.098405098533551
 30
0.0
 10
14.32174422851936
 20
2.008000363036809
 30
0.0
 10
14.43347845867761
 20
1.980779095160045
 30
0.0
 10
14.5275457377042
 20
1.975309673088079
 30
0.0
  0
SPLINE
  5
EC
330
1F
100
AcDbEntity
  8
외형선
  6
Continuous
 62
     1
370
    15
100
AcDbSpline
210
0.0
220
0.0
230
1.0
 70
     8
 71
     3
 72
     8
 73
     4
 74
     0
 42
0.000000001
 43
0.00000001
 40
0.0
 40
0.0
 40
0.0
 40
0.0
 40
1.0
 40
1.0
 40
1.0
 40
1.0
 10
13.71034766519999
 20
2.345634206967945
 30
0.0
 10
13.76677126814831
 20
2.323599048793413
 30
0.0
 10
13.82416716977593
 20
2.289860743745151
 30
0.0
 10
13.87324533923018
 20
2.247763177955618
 30
0.0
  0
SPLINE
  5
ED
330
1F
100
AcDbEntity
  8
외형선
  6
Continuous
 62
     1
370
    15
100
AcDbSpline
210
0.0
220
0.0
230
1.0
 70
     8
 71
     3
 72
     8
 73
     4
 74
     0
 42
0.000000001
 43
0.00000001
 40
0.0
 40
0.0
 40
0.0
 40
0.0
 40
1.0
 40
1.0
 40
1.0
 40
1.0
 10
12.40540305191753
 20
2.739523745589819
 30
0.0
 10
12.45366412781845
 20
2.754830173494466
 30
0.0
 10
12.5112484042426
 20
2.753025844878644
 30
0.0
 10
12.57018372553691
 20
2.735776746628706
 30
0.0
  0
SPLINE
  5
EE
330
1F
100
AcDbEntity
  8
외형선
  6
Continuous
 62
     1
370
    15
100
AcDbSpline
210
0.0
220
0.0
230
1.0
 70
     8
 71
     3
 72
    10
 73
     6
 74
     0
 42
0.000000001
 43
0.00000001
 40
0.0
 40
0.0
 40
0.0
 40
0.0
 40
0.5
 40
0.5
 40
1.0
 40
1.0
 40
1.0
 40
1.0
 10
11.74940603761548
 20
2.898463796922985
 30
0.0
 10
11.84977170459439
 20
2.811712745162999
 30
0.0
 10
11.96839518022156
 20
2.758959797295234
 30
0.0
 10
12.19915359417868
 20
2.708236244671677
 30
0.0
 10
12.31102791237118
 20
2.709591833739357
 30
0.0
 10
12.40540305191904
 20
2.739523745585103
 30
0.0
  0
SPLINE
  5
EF
330
1F
100
AcDbEntity
  8
외형선
  6
Continuous
 62
     1
370
    15
100
AcDbSpline
210
0.0
220
0.0
230
1.0
 70
     8
 71
     3
 72
     8
 73
     4
 74
     0
 42
0.000000001
 43
0.00000001
 40
0.0
 40
0.0
 40
0.0
 40
0.0
 40
1.0
 40
1.0
 40
1.0
 40
1.0
 10
11.58629339799402
 20
2.979065937304869
 30
0.0
 10
11.64281997060226
 20
2.967807985277282
 30
0.0
 10
11.70027887680235
 20
2.940926852256304
 30
0.0
 10
11.74940603761454
 20
2.898463796923803
 30
0.0
  0
SPLINE
  5
F0
330
1F
100
AcDbEntity
  8
외형선
  6
Continuous
 62
     1
370
    15
100
AcDbSpline
210
0.0
220
0.0
230
1.0
 70
     8
 71
     3
 72
    10
 73
     6
 74
     0
 42
0.000000001
 43
0.00000001
 40
0.0
 40
0.0
 40
0.0
 40
0.0
 40
0.4999999999999998
 40
0.4999999999999998
 40
1.0
 40
1.0
 40
1.0
 40
1.0
 10
11.58661489072561
 20
2.979001903022655
 30
0.0
 10
11.39587190279912
 20
3.016996741597451
 30
0.0
 10
11.2047860511248
 20
3.049651582045087
 30
0.0
 10
10.82500212484116
 20
3.103804048580204
 30
0.0
 10
10.63720804859424
 20
3.125296074897479
 30
0.0
 10
10.44725109246191
 20
3.141247662129392
 30
0.0
  0
SPLINE
  5
F1
330
1F
100
AcDbEntity
  8
외형선
  6
Continuous
 62
     1
370
    15
100
AcDbSpline
210
0.0
220
0.0
230
1.0
 70
     8
 71
     3
 72
     8
 73
     4
 74
     0
 42
0.000000001
 43
0.00000001
 40
0.0
 40
0.0
 40
0.0
 40
0.0
 40
1.0
 40
1.0
 40
1.0
 40
1.0
 10
10.28287249639271
 20
3.101483397947202
 30
0.0
 10
10.3310098797909
 20
3.132802417128985
 30
0.0
 10
10.38847098464137
 20
3.146183699026703
 30
0.0
 10
10.44724983717301
 20
3.141247767541876
 30
0.0
  0
SPLINE
  5
F2
330
1F
100
AcDbEntity
  8
외형선
  6
Continuous
 62
     1
370
    15
100
AcDbSpline
210
0.0
220
0.0
230
1.0
 70
     8
 71
     3
 72
     8
 73
     4
 74
     0
 42
0.000000001
 43
0.00000001
 40
0.0
 40
0.0
 40
0.0
 40
0.0
 40
1.0
 40
1.0
 40
1.0
 40
1.0
 10
9.999999999999293
 20
3.012052796972453
 30
0.0
 10
10.10254233833723
 20
3.017244878718429
 30
0.0
 10
10.19921413984484
 20
3.047053815604131
 30
0.0
 10
10.28287249639222
 20
3.101483397946848
 30
0.0
  0
SPLINE
  5
F3
330
1F
100
AcDbEntity
  8
외형선
  6
Continuous
 62
     1
370
    15
100
AcDbSpline
210
0.0
220
0.0
230
1.0
 70
     8
 71
     3
 72
     9
 73
     5
 74
     0
 42
0.000000001
 43
0.00000001
 40
0.0
 40
0.0
 40
0.0
 40
0.0
 40
0.7279118529269241
 40
0.9999999999999999
 40
0.9999999999999999
 40
0.9999999999999999
 40
0.9999999999999999
 10
14.04198284964446
 20
2.497749100063947
 30
0.0
 10
13.97297464202916
 20
2.445331787543135
 30
0.0
 10
13.87817166919967
 20
2.373321265513519
 30
0.0
 10
13.77577929977326
 20
2.338251340236737
 30
0.0
 10
13.7479195497016
 20
2.328709229250186
 30
0.0
  0
SPLINE
  5
F4
330
1F
100
AcDbEntity
  8
외형선
  6
Continuous
 62
     1
370
    15
100
AcDbSpline
210
0.0
220
0.0
230
1.0
 70
     8
 71
     3
 72
     8
 73
     4
 74
     0
 42
0.000000001
 43
0.00000001
 40
0.0
 40
0.0
 40
0.0
 40
0.0
 40
1.0
 40
1.0
 40
1.0
 40
1.0
 10
14.2050758800079
 20
2.591453629376419
 30
0.0
 10
14.14855536695929
 20
2.572648362284656
 30
0.0
 10
14.09110330484922
 20
2.540634508543598
 30
0.0
 10
14.04198284964499
 20
2.497749100064329
 30
0.0
  0
SPLINE
  5
F5
330
1F
100
AcDbEntity
  8
외형선
  6
Continuous
 62
     1
370
    15
100
AcDbSpline
210
0.0
220
0.0
230
1.0
 70
     8
 71
     3
 72
    10
 73
     6
 74
     0
 42
0.000000001
 43
0.00000001
 40
0.0
 40
0.0
 40
0.0
 40
0.0
 40
0.5
 40
0.5
 40
1.0
 40
1.0
 40
1.0
 40
1.0
 10
15.34428098882478
 20
2.913438274814089
 30
0.0
 10
15.1543822096888
 20
2.869850595565533
 30
0.0
 10
14.96662511771483
 20
2.821234248756948
 30
0.0
 10
14.58686732066812
 20
2.713737860054916
 30
0.0
 10
14.39580952334394
 20
2.65491317749707
 30
0.0
 10
14.20510892719119
 20
2.591464624648403
 30
0.0
  0
SPLINE
  5
F6
330
1F
100
AcDbEntity
  8
외형선
  6
Continuous
 62
     1
370
    15
100
AcDbSpline
210
0.0
220
0.0
230
1.0
 70
     8
 71
     3
 72
     8
 73
     4
 74
     0
 42
0.000000001
 43
0.00000001
 40
0.0
 40
0.0
 40
0.0
 40
0.0
 40
1.0
 40
1.0
 40
1.0
 40
1.0
 10
15.50838589323485
 20
2.902864745106951
 30
0.0
 10
15.46023155629602
 20
2.923700233440307
 30
0.0
 10
15.4027545857313
 20
2.926861654649592
 30
0.0
 10
15.34396107954492
 20
2.913364840578502
 30
0.0
  0
SPLINE
  5
F7
330
1F
100
AcDbEntity
  8
외형선
  6
Continuous
 62
     1
370
    15
100
AcDbSpline
210
0.0
220
0.0
230
1.0
 70
     8
 71
     3
 72
    10
 73
     6
 74
     0
 42
0.000000001
 43
0.00000001
 40
0.0
 40
0.0
 40
0.0
 40
0.0
 40
0.5
 40
0.5
 40
1.0
 40
1.0
 40
1.0
 40
1.0
 10
16.16360843213886
 20
3.018547000029479
 30
0.0
 10
16.06346521926519
 20
2.93443254630469
 30
0.0
 10
15.94506234326382
 20
2.886871034683102
 30
0.0
 10
15.71444401499194
 20
2.85105698385221
 30
0.0
 10
15.60255865000083
 20
2.862117940151599
 30
0.0
 10
15.50838589323596
 20
2.902864745106138
 30
0.0
  0
SPLINE
  5
F8
330
1F
100
AcDbEntity
  8
외형선
  6
Continuous
 62
     1
370
    15
100
AcDbSpline
210
0.0
220
0.0
230
1.0
 70
     8
 71
     3
 72
    14
 73
    10
 74
     0
 42
0.000000001
 43
0.00000001
 40
0.0
 40
0.0
 40
0.0
 40
0.0
 40
0.2499999999999999
 40
0.2499999999999999
 40
0.4999999999999999
 40
0.4999999999999999
 40
0.7499999999999998
 40
0.7499999999999998
 40
1.0
 40
1.0
 40
1.0
 40
1.0
 10
14.09342087114479
 20
0.3437522370608475
 30
0.0
 10
14.07566392777389
 20
0.5211516673952905
 30
0.0
 10
14.05798299679302
 20
0.6966554480401218
 30
0.0
 10
14.02104150262104
 20
1.043962145898192
 30
0.0
 10
14.00215228640215
 20
1.214506377638767
 30
0.0
 10
13.96438644560384
 20
1.541402214917633
 30
0.0
 10
13.94551418682735
 20
1.697716154473103
 30
0.0
 10
13.90863801017096
 20
1.989389070552206
 30
0.0
 10
13.89105299897076
 20
2.123792968429937
 30
0.0
 10
13.87324529879859
 20
2.247763459430908
 30
0.0
  0
SPLINE
  5
F9
330
1F
100
AcDbEntity
  8
외형선
  6
Continuous
 62
     1
370
    15
100
AcDbSpline
210
0.0
220
0.0
230
1.0
 70
     8
 71
     3
 72
    12
 73
     8
 74
     0
 42
0.000000001
 43
0.00000001
 40
0.0
 40
0.0
 40
0.0
 40
0.0
 40
0.5000000000000006
 40
0.5000000000000006
 40
0.7500000000000003
 40
0.7500000000000003
 40
1.0
 40
1.0
 40
1.0
 40
1.0
 10
12.62654439900012
 20
1.149404969003797
 30
0.0
 10
12.58901147467342
 20
1.487022472022075
 30
0.0
 10
12.5507543520431
 20
1.802482488748388
 30
0.0
 10
12.49726501033603
 20
2.2033831797876
 30
0.0
 10
12.47980249537067
 20
2.326108417999277
 30
0.0
 10
12.44306827870304
 20
2.551188350673921
 30
0.0
 10
12.42425099759522
 20
2.652351041409655
 30
0.0
 10
12.40540325077112
 20
2.739522825881128
 30
0.0
  0
SPLINE
  5
FA
330
1F
100
AcDbEntity
  8
외형선
  6
Continuous
 62
     1
370
    15
100
AcDbSpline
210
0.0
220
0.0
230
1.0
 70
     8
 71
     3
 72
    12
 73
     8
 74
     0
 42
0.000000001
 43
0.00000001
 40
0.0
 40
0.0
 40
0.0
 40
0.0
 40
0.2499999999999999
 40
0.2499999999999999
 40
0.4999999999999998
 40
0.4999999999999998
 40
1.0
 40
1.0
 40
1.0
 40
1.0
 10
11.97050861206305
 20
1.487345059682725
 30
0.0
 10
11.95168322033679
 20
1.647152650496792
 30
0.0
 10
11.93296694010202
 20
1.799016982973687
 30
0.0
 10
11.89657715126108
 20
2.080636133166367
 30
0.0
 10
11.87934118478942
 20
2.209521622663068
 30
0.0
 10
11.82519595866014
 20
2.567595915810474
 30
0.0
 10
11.78677859715576
 20
2.763804153039597
 30
0.0
 10
11.74940625338242
 20
2.898463019478903
 30
0.0
  0
SPLINE
  5
FB
330
1F
100
AcDbEntity
  8
외형선
  6
Continuous
 62
     1
370
    15
100
AcDbSpline
210
0.0
220
0.0
230
1.0
 70
     8
 71
     3
 72
    14
 73
    10
 74
     0
 42
0.000000001
 43
0.00000001
 40
0.0
 40
0.0
 40
0.0
 40
0.0
 40
0.2500000000000002
 40
0.2500000000000002
 40
0.5000000000000001
 40
0.5000000000000001
 40
0.75
 40
0.75
 40
1.0
 40
1.0
 40
1.0
 40
1.0
 10
10.66594461553827
 20
2.131659934906383
 30
0.0
 10
10.64829110378651
 20
2.265311782462417
 30
0.0
 10
10.63077584324964
 20
2.388417356960197
 30
0.0
 10
10.59412726294143
 20
2.613379588807023
 30
0.0
 10
10.57538149391091
 20
2.714220328446766
 30
0.0
 10
10.53787741162402
 20
2.887511191968212
 30
0.0
 10
10.51912331589341
 20
2.959941706394567
 30
0.0
 10
10.48244264589921
 20
3.073779469520851
 30
0.0
 10
10.464877993425
 20
3.115034253241179
 30
0.0
 10
10.44724976970945
 20
3.141247867862999
 30
0.0
  0
SPLINE
  5
FC
330
1F
100
AcDbEntity
  8
외형선
  6
Continuous
 62
     1
370
    15
100
AcDbSpline
210
0.0
220
0.0
230
1.0
 70
     8
 71
     3
 72
    12
 73
     8
 74
     0
 42
0.000000001
 43
0.00000001
 40
0.0
 40
0.0
 40
0.0
 40
0.0
 40
0.2500000000000002
 40
0.2500000000000002
 40
0.5000000000000003
 40
0.5000000000000003
 40
1.0
 40
1.0
 40
1.0
 40
1.0
 10
11.80574037359686
 20
1.602029260797316
 30
0.0
 10
11.78710168337312
 20
1.760359058755151
 30
0.0
 10
11.76864937675698
 20
1.910070954976041
 30
0.0
 10
11.73290602979232
 20
2.186438941811769
 30
0.0
 10
11.7157633988203
 20
2.312985353547136
 30
0.0
 10
11.66145716414083
 20
2.663679741138168
 30
0.0
 10
11.62323405926106
 20
2.852537748119679
 30
0.0
 10
11.58631152204105
 20
2.97900386379808
 30
0.0
  0
SPLINE
  5
FD
330
1F
100
AcDbEntity
  8
외형선
  6
Continuous
 62
     1
370
    15
100
AcDbSpline
210
0.0
220
0.0
230
1.0
 70
     8
 71
     3
 72
    10
 73
     6
 74
     0
 42
0.000000001
 43
0.00000001
 40
0.0
 40
0.0
 40
0.0
 40
0.0
 40
0.4999999999999998
 40
0.4999999999999998
 40
1.0
 40
1.0
 40
1.0
 40
1.0
 10
10.39030079238672
 20
-3.066087760521282
 30
0.0
 10
10.35327658764486
 20
-2.971042063223896
 30
0.0
 10
10.31918277122889
 20
-2.818821869413961
 30
0.0
 10
10.2457664100367
 20
-2.403562646933982
 30
0.0
 10
10.20749033010644
 20
-2.139818962200223
 30
0.0
 10
10.17097995522892
 20
-1.843167504605429
 30
0.0
  0
SPLINE
  5
FE
330
1F
100
AcDbEntity
  8
외형선
  6
Continuous
 62
     1
370
    15
100
AcDbSpline
210
0.0
220
0.0
230
1.0
 70
     8
 71
     3
 72
     8
 73
     4
 74
     0
 42
0.000000001
 43
0.00000001
 40
0.0
 40
0.0
 40
0.0
 40
0.0
 40
1.0
 40
1.0
 40
1.0
 40
1.0
 10
10.39030144513244
 20
-3.066087647652512
 30
0.0
 10
10.26050313938046
 20
-3.046639500836576
 30
0.0
 10
10.13023974550326
 20
-3.024605788579024
 30
0.0
 10
9.999999999999297
 20
-3.000060667431966
 30
0.0
  0
SPLINE
  5
FF
330
1F
100
AcDbEntity
  8
외형선
  6
Continuous
 62
     1
370
    15
100
AcDbSpline
210
0.0
220
0.0
230
1.0
 70
     8
 71
     3
 72
     8
 73
     4
 74
     0
 42
0.000000001
 43
0.00000001
 40
0.0
 40
0.0
 40
0.0
 40
0.0
 40
1.0
 40
1.0
 40
1.0
 40
1.0
 10
10.55502851236613
 20
-3.039169365211501
 30
0.0
 10
10.5067849948062
 20
-3.066024393362222
 30
0.0
 10
10.44922030823299
 20
-3.074915677076986
 30
0.0
 10
10.3903007052346
 20
-3.066087536790929
 30
0.0
  0
SPLINE
  5
100
330
1F
100
AcDbEntity
  8
외형선
  6
Continuous
 62
     1
370
    15
100
AcDbSpline
210
0.0
220
0.0
230
1.0
 70
     8
 71
     3
 72
    12
 73
     8
 74
     0
 42
0.000000001
 43
0.00000001
 40
0.0
 40
0.0
 40
0.0
 40
0.0
 40
0.2500000000000001
 40
0.2500000000000001
 40
0.5000000000000001
 40
0.5000000000000001
 40
1.0
 40
1.0
 40
1.0
 40
1.0
 10
10.5550285123659
 20
-3.039169365210998
 30
0.0
 10
10.53628939436292
 20
-2.997715707246431
 30
0.0
 10
10.51777808009724
 20
-2.940911030854784
 30
0.0
 10
10.4820057131718
 20
-2.800479394764463
 30
0.0
 10
10.46461171763752
 20
-2.716987652064196
 30
0.0
 10
10.40960326030971
 20
-2.422773458462059
 30
0.0
 10
10.3710536755553
 20
-2.169452146950376
 30
0.0
 10
10.33402852715635
 20
-1.880889527930794
 30
0.0
  0
SPLINE
  5
101
330
1F
100
AcDbEntity
  8
외형선
  6
Continuous
 62
     1
370
    15
100
AcDbSpline
210
0.0
220
0.0
230
1.0
 70
     8
 71
     3
 72
    10
 73
     6
 74
     0
 42
0.000000001
 43
0.00000001
 40
0.0
 40
0.0
 40
0.0
 40
0.0
 40
0.5
 40
0.5
 40
1.0
 40
1.0
 40
1.0
 40
1.0
 10
11.21104551983302
 20
-3.102496513540957
 30
0.0
 10
11.11066856232013
 20
-3.022833516462249
 30
0.0
 10
10.99203312520656
 20
-2.982487674329928
 30
0.0
 10
10.76123313755262
 20
-2.964811632594269
 30
0.0
 10
10.64938162991055
 20
-2.986647166252519
 30
0.0
 10
10.55502851236613
 20
-3.0391693652115
 30
0.0
  0
SPLINE
  5
102
330
1F
100
AcDbEntity
  8
외형선
  6
Continuous
 62
     1
370
    15
100
AcDbSpline
210
0.0
220
0.0
230
1.0
 70
     8
 71
     3
 72
    10
 73
     6
 74
     0
 42
0.000000001
 43
0.00000001
 40
0.0
 40
0.0
 40
0.0
 40
0.0
 40
0.5
 40
0.5
 40
1.0
 40
1.0
 40
1.0
 40
1.0
 10
11.2110453901661
 20
-3.102496375074296
 30
0.0
 10
11.17337180248255
 20
-3.062266027148186
 30
0.0
 10
11.13559524880252
 20
-2.957267469638166
 30
0.0
 10
11.06551676397309
 20
-2.643600042104516
 30
0.0
 10
11.02754565760035
 20
-2.426505973836718
 30
0.0
 10
10.98988663395092
 20
-2.164570652252046
 30
0.0
  0
SPLINE
  5
103
330
1F
100
AcDbEntity
  8
외형선
  6
Continuous
 62
     1
370
    15
100
AcDbSpline
210
0.0
220
0.0
230
1.0
 70
     8
 71
     3
 72
    12
 73
     8
 74
     0
 42
0.000000001
 43
0.00000001
 40
0.0
 40
0.0
 40
0.0
 40
0.0
 40
0.4999999999999998
 40
0.4999999999999998
 40
0.7499999999999999
 40
0.7499999999999999
 40
1.0
 40
1.0
 40
1.0
 40
1.0
 10
10.50312530756062
 20
2.158402135634833
 30
0.0
 10
10.46801535484406
 20
2.415305184430061
 30
0.0
 10
10.43019596308751
 20
2.635511844687001
 30
0.0
 10
10.37358890366457
 20
2.878028964326755
 30
0.0
 10
10.35479399709896
 20
2.944372372882251
 30
0.0
 10
10.31818804012432
 20
3.045963013227632
 30
0.0
 10
10.30085826066303
 20
3.081136002138354
 30
0.0
 10
10.28287247931939
 20
3.101483417261877
 30
0.0
  0
SPLINE
  5
104
330
1F
100
AcDbEntity
  8
외형선
  6
Continuous
 62
     1
370
    15
100
AcDbSpline
210
0.0
220
0.0
230
1.0
 70
     8
 71
     3
 72
     8
 73
     4
 74
     0
 42
0.000000001
 43
0.00000001
 40
0.0
 40
0.0
 40
0.0
 40
0.0
 40
1.0
 40
1.0
 40
1.0
 40
1.0
 10
11.37421664947354
 20
-3.163916849524855
 30
0.0
 10
11.31767255284747
 20
-3.161198957371822
 30
0.0
 10
11.26019248165009
 20
-3.141501424355855
 30
0.0
 10
11.21104551983301
 20
-3.102496513540958
 30
0.0
  0
SPLINE
  5
105
330
1F
100
AcDbEntity
  8
외형선
  6
Continuous
 62
     1
370
    15
100
AcDbSpline
210
0.0
220
0.0
230
1.0
 70
     8
 71
     3
 72
    12
 73
     8
 74
     0
 42
0.000000001
 43
0.00000001
 40
0.0
 40
0.0
 40
0.0
 40
0.0
 40
0.5000000000000001
 40
0.5000000000000001
 40
0.75
 40
0.75
 40
1.0
 40
1.0
 40
1.0
 40
1.0
 10
11.37421660996085
 20
-3.163916817110217
 30
0.0
 10
11.33687433010521
 20
-3.133282673994258
 30
0.0
 10
11.29902614047372
 20
-3.037339780453808
 30
0.0
 10
11.24632245511781
 20
-2.81317719752378
 30
0.0
 10
11.22874106512378
 20
-2.724621791753719
 30
0.0
 10
11.19210401765942
 20
-2.51896102760518
 30
0.0
 10
11.17338034635868
 20
-2.402311265109514
 30
0.0
 10
11.15466540021045
 20
-2.274178557939785
 30
0.0
  0
LINE
  5
106
330
1F
100
AcDbEntity
  8
외형선
  6
Continuous
 62
     1
370
    15
100
AcDbLine
 10
11.37421700893449
 20
-3.163916866802976
 30
0.0
 11
11.83454152223187
 21
-3.170666711150637
 31
0.0
  0
SPLINE
  5
107
330
1F
100
AcDbEntity
  8
외형선
  6
Continuous
370
    15
100
AcDbSpline
210
0.0
220
0.0
230
1.0
 70
    24
 71
     3
 72
    12
 73
     8
 74
     0
 42
0.000000001
 43
0.00000001
 40
0.0
 40
0.0
 40
0.0
 40
0.0
 40
0.5
 40
0.5
 40
0.75
 40
0.75
 40
1.0
 40
1.0
 40
1.0
 40
1.0
 10
9.999999999999874
 20
3.012052796972492
 30
0.0
 10
9.999999999999874
 20
2.990111908309145
 30
0.0
 10
10.00000000000006
 20
2.915178519642569
 30
0.0
 10
10.00000000000006
 20
2.731853668148815
 30
0.0
 10
9.999999999999984
 20
2.659114599915489
 30
0.0
 10
9.999999999999984
 20
2.490052239334247
 30
0.0
 10
9.999999999999995
 20
2.393467783197608
 30
0.0
 10
9.999999999999995
 20
2.288261004522776
 30
0.0
  0
LINE
  5
108
330
1F
100
AcDbEntity
  8
외형선
  6
Continuous
 62
     1
370
    15
100
AcDbLine
 10
12.65368762576253
 20
-3.100855761040195
 30
0.0
 11
12.63923910633949
 21
-3.110750013656703
 31
0.0
  0
SPLINE
  5
109
330
1F
100
AcDbEntity
  8
외형선
  6
Continuous
 62
     1
370
    15
100
AcDbSpline
210
0.0
220
0.0
230
1.0
 70
     8
 71
     3
 72
     8
 73
     4
 74
     0
 42
0.000000001
 43
0.00000001
 40
0.000000298923855
 40
0.000000298923855
 40
0.000000298923855
 40
0.000000298923855
 40
0.0000177306358404
 40
0.0000177306358404
 40
0.0000177306358404
 40
0.0000177306358404
 10
17.93749999999998
 20
2.019606629395932
 30
0.0
 10
17.93361232419293
 20
2.022959009518261
 30
0.0
 10
17.92972363474653
 20
2.026309638481292
 30
0.0
 10
17.92583394665245
 20
2.029658538152361
 30
0.0
  0
LINE
  5
10A
330
1F
100
AcDbEntity
  8
외형선
  6
Continuous
 62
     1
370
    15
100
AcDbLine
 10
17.93749999999998
 20
0.6124588087644217
 30
0.0
 11
17.93749999999998
 21
2.019606629395931
 31
0.0
  0
LINE
  5
10B
330
1F
100
AcDbEntity
  8
외형선
  6
Continuous
 62
     1
370
    15
100
AcDbLine
 10
17.93749999999998
 20
2.074999999999999
 30
0.0
 11
17.93749999999998
 21
2.019606629395931
 31
0.0
  0
LINE
  5
10C
330
1F
100
AcDbEntity
  8
외형선
  6
Continuous
 62
     1
370
    15
100
AcDbLine
 10
17.93749999999998
 20
-1.42224791325031
 30
0.0
 11
17.93749999999998
 21
-1.856130954124576
 31
0.0
  0
SPLINE
  5
10D
330
1F
100
AcDbEntity
  8
외형선
  6
Continuous
 62
     1
370
    15
100
AcDbSpline
210
0.0
220
0.0
230
1.0
 70
     8
 71
     3
 72
    10
 73
     6
 74
     0
 42
0.000000001
 43
0.00000001
 40
0.0
 40
0.0
 40
0.0
 40
0.0
 40
0.1880482557635137
 40
0.5969236727479403
 40
1.0
 40
1.0
 40
1.0
 40
1.0
 10
12.47474496974444
 20
-3.154135777869461
 30
0.0
 10
12.46346521220159
 20
-3.158492215283106
 30
0.0
 10
12.4276597521996
 20
-3.172320903087154
 30
0.0
 10
12.36622726636714
 20
-3.024814646071806
 30
0.0
 10
12.3187998415545
 20
-2.795470202046767
 30
0.0
 10
12.29525549628989
 20
-2.68161698745677
 30
0.0
  0
SPLINE
  5
10E
330
1F
100
AcDbEntity
  8
외형선
  6
Continuous
 62
     1
370
    15
100
AcDbSpline
210
0.0
220
0.0
230
1.0
 70
     8
 71
     3
 72
    11
 73
     7
 74
     0
 42
0.000000001
 43
0.00000001
 40
0.0
 40
0.0
 40
0.0
 40
0.0
 40
0.0849648121092457
 40
0.3922742960752363
 40
0.6981664513682775
 40
1.0
 40
1.0
 40
1.0
 40
1.0
 10
12.63923910633949
 20
-3.110750013656703
 30
0.0
 10
12.6341580330649
 20
-3.115082132495718
 30
0.0
 10
12.61069921061101
 20
-3.135083104967758
 30
0.0
 10
12.56739802349101
 20
-3.074700975673783
 30
0.0
 10
12.51171734004301
 20
-2.935227767386792
 30
0.0
 10
12.47599691434572
 20
-2.765600828455295
 30
0.0
 10
12.4582559782997
 20
-2.681353773261512
 30
0.0
  0
SPLINE
  5
10F
330
1F
100
AcDbEntity
  8
외형선
  6
Continuous
 62
     1
370
    15
100
AcDbSpline
210
0.0
220
0.0
230
1.0
 70
     8
 71
     3
 72
     9
 73
     5
 74
     0
 42
0.000000001
 43
0.00000001
 40
0.0
 40
0.0
 40
0.0
 40
0.0
 40
0.4060691217714237
 40
1.0
 40
1.0
 40
1.0
 40
1.0
 10
13.21893257061102
 20
-3.096622551120434
 30
0.0
 10
13.2043495415768
 20
-3.085082049657353
 30
0.0
 10
13.16843686500932
 20
-3.056662007737549
 30
0.0
 10
13.13337882323303
 20
-2.928152682891326
 30
0.0
 10
13.11255676969187
 20
-2.851827026724847
 30
0.0
  0
SPLINE
  5
110
330
1F
100
AcDbEntity
  8
외형선
  6
Continuous
 62
     1
370
    15
100
AcDbSpline
210
0.0
220
0.0
230
1.0
 70
     8
 71
     3
 72
    10
 73
     6
 74
     0
 42
0.000000001
 43
0.00000001
 40
0.0
 40
0.0
 40
0.0
 40
0.0
 40
0.028759775608285
 40
0.515765474502898
 40
1.0
 40
1.0
 40
1.0
 40
1.0
 10
13.40097151351628
 20
-3.171922716015904
 30
0.0
 10
13.39980449622688
 20
-3.17293186020325
 30
0.0
 10
13.3788757089436
 20
-3.191029419020019
 30
0.0
 10
13.33643406417798
 20
-3.128353272518711
 30
0.0
 10
13.29673822080654
 20
-3.003038623045706
 30
0.0
 10
13.27694692984016
 20
-2.94056007417444
 30
0.0
  0
SPLINE
  5
111
330
1F
100
AcDbEntity
  8
외형선
  6
Continuous
 62
     1
370
    15
100
AcDbSpline
210
0.0
220
0.0
230
1.0
 70
     8
 71
     3
 72
     9
 73
     5
 74
     0
 42
0.000000001
 43
0.00000001
 40
0.0
 40
0.0
 40
0.0
 40
0.0
 40
0.007129988193638
 40
1.0
 40
1.0
 40
1.0
 40
1.0
 10
14.47505136031898
 20
-3.174646739414889
 30
0.0
 10
14.47491717406789
 20
-3.174764474688166
 30
0.0
 10
14.45609719184034
 20
-3.191277163079736
 30
0.0
 10
14.43658124978342
 20
-3.157584310819831
 30
0.0
 10
14.41720445616295
 20
-3.124131688198749
 30
0.0
  0
SPLINE
  5
112
330
1F
100
AcDbEntity
  8
외형선
  6
Continuous
 62
     1
370
    15
100
AcDbSpline
210
0.0
220
0.0
230
1.0
 70
     8
 71
     3
 72
     9
 73
     5
 74
     0
 42
0.000000001
 43
0.00000001
 40
0.0
 40
0.0
 40
0.0
 40
0.0
 40
0.250244511779547
 40
1.0
 40
1.0
 40
1.0
 40
1.0
 10
14.65058745542385
 20
-3.105482512960018
 30
0.0
 10
14.64485697580561
 20
-3.111961048763459
 30
0.0
 10
14.62195745414382
 20
-3.137849871488762
 30
0.0
 10
14.59819594510238
 20
-3.108046330030063
 30
0.0
 10
14.58038062329015
 20
-3.085700961252998
 30
0.0
  0
LINE
  5
113
330
1F
100
AcDbEntity
  8
중심선
100
AcDbLine
 10
-39.03750000000002
 20
-0.0000000000000048
 30
0.0
 11
20.93749999999999
 21
0.0000000000000026
 31
0.0
  0
LINE
  5
114
330
1F
100
AcDbEntity
  8
참조1
100
AcDbLine
 10
-9.050000000000013
 20
-0.3168705809327335
 30
0.0
 11
-9.050000000000008
 21
-40.31687058093274
 31
0.0
  0
LINE
  5
115
330
1F
100
AcDbEntity
  8
참조1
100
AcDbLine
 10
-19.72860765519648
 20
-3.174999999999992
 30
0.0
 11
48.41397268839599
 21
-3.174999999999992
 31
0.0
  0
LINE
  5
116
330
1F
100
AcDbEntity
  8
참조1
100
AcDbLine
 10
48.41397268839599
 20
-3.174999999999992
 30
0.0
 11
48.41397268839599
 21
-6.927248606176843
 31
0.0
  0
LINE
  5
117
330
1F
100
AcDbEntity
  8
참조1
100
AcDbLine
 10
-9.050000000000008
 20
-40.31687058093274
 30
0.0
 11
-24.19604980726571
 21
-40.31687058093273
 31
0.0
  0
CIRCLE
  5
118
330
1F
100
AcDbEntity
  8
해칭선
100
AcDbCircle
 10
0.0
 20
0.0
 30
0.0
 40
3.000000000000005
  0
INSERT
  5
119
330
1F
100
AcDbEntity
  8
0
  6
Continuous
 62
     7
100
AcDbBlockReference
 66
     1
  2
블럭10
 10
-22.99027293212522
 20
-52.36404488257666
 30
0.0
  0
ATTRIB
  5
11A
330
119
100
AcDbEntity
  8
FORMAT
 62
     2
100
AcDbText
 10
-32.51258688272315
 20
-50.28867796974447
 30
0.0
 40
4.233333333333333
  1
EH094016 [ 3 FLUTE ]
 41
0.75
  7
SLDTEXTSTYLE0
 11
-32.51258688272315
 21
-52.40534463641114
 31
0.0
100
AcDbAttribute
  2
AUTOATTR0
 70
     0
 74
     1
  0
SEQEND
  5
11B
330
119
100
AcDbEntity
  8
0
  6
Continuous
 62
     7
  0
HATCH
  5
11C
330
1F
100
AcDbEntity
  8
중심선
100
AcDbHatch
 10
0.0
 20
0.0
 30
0.0
210
0.0
220
0.0
230
1.0
  2
SOLID
 70
     1
 71
     0
 91
        1
 92
        0
 93
        4
 72
     1
 10
-17.27536362774439
 20
-36.11687058093273
 11
-20.72163887158167
 21
-36.11687058093273
 72
     1
 10
-20.72163887158167
 20
-36.11687058093273
 11
-22.84986873078569
 21
-38.65319616150532
 72
     1
 10
-22.84986873078569
 20
-38.65319616150532
 11
-19.40356040183526
 21
-38.65315673220283
 72
     1
 10
-19.40356040183526
 20
-38.65315673220283
 11
-17.27536362774439
 21
-36.11687058093273
 97
        0
 75
     0
 76
     1
 98
        1
 10
-0.0000000000000142
 20
-0.31687058093273
  0
HATCH
  5
11D
330
1F
100
AcDbEntity
  8
중심선
100
AcDbHatch
 10
0.0
 20
0.0
 30
0.0
210
0.0
220
0.0
230
1.0
  2
SOLID
 70
     1
 71
     0
 91
        1
 92
        0
 93
        4
 72
     1
 10
-12.26259963670841
 20
-36.11687058093275
 11
-15.70887488054569
 21
-36.1168705809327
 72
     1
 10
-15.70887488054569
 20
-36.1168705809327
 11
-20.24001288890311
 21
-41.51687058093275
 72
     1
 10
-20.24001288890311
 20
-41.51687058093275
 11
-16.79373764506582
 21
-41.51687058093275
 72
     1
 10
-16.79373764506582
 20
-41.51687058093275
 11
-12.26259963670841
 21
-36.11687058093275
 97
        0
 75
     0
 76
     1
 98
        1
 10
-0.0000000000000142
 20
-0.31687058093273
  0
HATCH
  5
11E
330
1F
100
AcDbEntity
  8
중심선
100
AcDbHatch
 10
0.0
 20
0.0
 30
0.0
210
0.0
220
0.0
230
1.0
  2
SOLID
 70
     1
 71
     0
 91
        1
 92
        0
 93
        4
 72
     1
 10
-7.249835645672539
 20
-36.11687058093273
 11
-10.69611088950966
 21
-36.11687058093273
 72
     1
 10
-10.69611088950966
 20
-36.11687058093273
 11
-17.7445477913989
 21
-44.51687058093275
 72
     1
 10
-17.7445477913989
 20
-44.51687058093275
 11
-14.29827254756162
 21
-44.51687058093275
 72
     1
 10
-14.29827254756162
 20
-44.51687058093275
 11
-7.249835645672539
 21
-36.11687058093273
 97
        0
 75
     0
 76
     1
 98
        1
 10
-0.0000000000000142
 20
-0.31687058093273
  0
HATCH
  5
11F
330
1F
100
AcDbEntity
  8
중심선
100
AcDbHatch
 10
0.0
 20
0.0
 30
0.0
210
0.0
220
0.0
230
1.0
  2
SOLID
 70
     1
 71
     0
 91
        1
 92
        0
 93
        6
 72
     3
 10
-2.449945214660341
 20
-40.316870580984
 11
3.960054785062284
 21
1.540882976769353E-10
 40
0.3939339440162627
 50
17.09539180608437
 51
320.0019657685082
 73
     0
 72
     1
 10
-0.7669455589597727
 20
-38.90476458557106
 11
1.538356314741293
 21
-36.97043787552313
 72
     3
 10
-2.449945214713187
 20
-40.31687058093288
 11
6.600054785286829
 21
-1.278976924368180E-13
 40
0.636358354079598
 50
39.99873849337393
 51
368.4976242363725
 73
     1
 72
     1
 10
3.975387277187422
 20
-39.35687058086275
 11
-3.769877907877265
 21
-39.35687058086272
 72
     1
 10
-3.769877907877265
 20
-39.35687058086272
 11
-3.769902952323198
 21
-41.27687058086264
 72
     1
 10
-3.769902952323198
 20
-41.27687058086264
 11
0.6714768171488386
 21
-41.27687058086261
 97
        0
 75
     0
 76
     1
 98
        1
 10
-0.0000000000000142
 20
-0.31687058093273
  0
POINT
  5
120
330
1F
100
AcDbEntity
  8
치수문자_일반주서
100
AcDbPoint
 10
-0.0000000000000038
 20
-0.3168705809327335
 30
0.0
  0
DIMENSION
  5
121
330
1F
100
AcDbEntity
  8
치수문자_일반주서
100
AcDbDimension
  2
_D
 10
32.16853428502822
 20
-3.17499999999993
 30
0.0
 11
32.16853428502814
 21
22.46650000000011
 31
0.0
 70
   160
  1
%%c<>
 71
     2
 42
6.350000000000038
 52
-270.0
  3
SLDDIMSTYLE0
100
AcDbAlignedDimension
 13
9.643103968339103
 23
3.175000000000024
 33
0.0
 14
13.93805359426361
 24
-3.174999999999999
 34
0.0
 50
90.0000000000002
100
AcDbRotatedDimension
1001
ACAD
1000
DSTYLE
1002
{
1070
   171
1070
     6
1070
   273
1070
     7
1002
}
  0
DIMENSION
  5
135
330
1F
100
AcDbEntity
  8
치수문자_일반주서
100
AcDbDimension
  2
_D_1
 10
-46.03750000000007
 20
-3.17500000000005
 30
0.0
 11
-46.03750000000008
 21
-0.5086721738103246
 31
0.0
 70
   160
  1
%%c<>
 71
     2
 42
6.349999999999994
 52
-270.0
  3
SLDDIMSTYLE0
100
AcDbAlignedDimension
 13
-35.22750000000005
 23
3.174999999999984
 33
0.0
 14
-35.22750000000005
 24
-3.17500000000001
 34
0.0
 50
90.0000000000002
100
AcDbRotatedDimension
1001
ACAD
1000
DSTYLE
1002
{
1070
   171
1070
     6
1070
   273
1070
     7
1002
}
  0
DIMENSION
  5
149
330
1F
100
AcDbEntity
  8
치수문자_일반주서
100
AcDbDimension
  2
_D_2
 10
9.99999999999998
 20
19.34732179202409
 30
0.0
 11
-9.291500000000019
 21
19.34732179202409
 31
0.0
 70
   160
  1
<>
 71
     2
 42
7.937500000000002
  3
SLDDIMSTYLE1
100
AcDbAlignedDimension
 13
17.93749999999998
 23
2.019606629395931
 33
0.0
 14
9.99999999999998
 24
3.168343209417247
 34
0.0
100
AcDbRotatedDimension
1001
ACAD
1000
DSTYLE
1002
{
1070
   171
1070
     6
1070
   273
1070
     7
1002
}
  0
DIMENSION
  5
15E
330
1F
100
AcDbEntity
  8
치수문자_일반주서
100
AcDbDimension
  2
_D_3
 10
-36.03750000000003
 20
36.01698679301992
 30
0.0
 11
-6.69015628315714
 21
36.01698679301992
 31
0.0
 70
   160
  1
<>
 71
     2
 42
53.97500000000001
  3
SLDDIMSTYLE1
100
AcDbAlignedDimension
 13
17.93749999999998
 23
2.019606629395931
 33
0.0
 14
-36.03750000000003
 24
2.364999999999995
 34
0.0
100
AcDbRotatedDimension
1001
ACAD
1000
DSTYLE
1002
{
1070
   171
1070
     6
1070
   273
1070
     7
1002
}
  0
LINE
  5
171
330
1F
100
AcDbEntity
  8
참조1
100
AcDbLine
 10
73.77629082238856
 20
7.123129419067272
 30
0.0
 11
73.77629082238856
 21
-7.756870580932732
 31
0.0
  0
LINE
  5
172
330
1F
100
AcDbEntity
  8
참조1
100
AcDbLine
 10
86.47629082238856
 20
5.123129419067272
 30
0.0
 11
73.77629082238856
 21
5.123129419067272
 31
0.0
  0
SOLID
  5
173
330
1F
100
AcDbEntity
  8
참조1
100
AcDbTrace
 10
73.77629082238856
 20
5.123129419067272
 30
0.0
 11
80.12629082238855
 21
4.107129419067272
 31
0.0
 12
80.12629082238855
 22
6.139129419067272
 32
0.0
 13
80.12629082238855
 23
6.139129419067272
 33
0.0
  0
LINE
  5
174
330
1F
100
AcDbEntity
  8
참조1
100
AcDbLine
 10
86.47629082238856
 20
-5.756870580932732
 30
0.0
 11
73.77629082238856
 21
-5.756870580932732
 31
0.0
  0
SOLID
  5
175
330
1F
100
AcDbEntity
  8
참조1
100
AcDbTrace
 10
73.77629082238856
 20
-5.756870580932732
 30
0.0
 11
80.12629082238855
 21
-6.772870580932732
 31
0.0
 12
80.12629082238855
 22
-4.740870580932732
 32
0.0
 13
80.12629082238855
 23
-4.740870580932732
 33
0.0
  0
MTEXT
  5
176
330
1F
100
AcDbEntity
  8
참조1
100
AcDbMText
 10
83.37640563295112
 20
10.74884698508335
 30
0.0
 40
3.5
 41
0.0
 71
     1
 72
     1
  1
A
  7
SLDTEXTSTYLE0
 73
     1
 44
1.0
  0
MTEXT
  5
177
330
1F
100
AcDbEntity
  8
참조1
100
AcDbMText
 10
83.37640563295112
 20
-0.1311530149166564
 30
0.0
 40
3.5
 41
0.0
 71
     1
 72
     1
  1
A
  7
SLDTEXTSTYLE0
 73
     1
 44
1.0
  0
INSERT
  5
17E
330
1F
100
AcDbEntity
  8
해칭선
100
AcDbBlockReference
  2
SW_DOWELSYMBOL_0
 10
0.0
 20
0.0
 30
0.0
  0
ENDSEC
  0
SECTION
  2
OBJECTS
  0
DICTIONARY
  5
C
330
0
100
AcDbDictionary
281
     1
  3
ACAD_GROUP
350
D
  3
ACAD_IMAGE_VARS
350
1A2
  3
ACAD_LAYOUT
350
1A
  3
ACAD_MLINESTYLE
350
17
  3
ACAD_PLOTSETTINGS
350
19
  3
ACAD_PLOTSTYLENAME
350
E
  3
ACAD_SCALELIST
350
47
  3
APPDATA
350
1A0
  3
DWGPROPS
350
1A6
  0
DICTIONARY
  5
D
102
{ACAD_REACTORS
330
C
102
}
330
C
100
AcDbDictionary
281
     1
  0
RASTERVARIABLES
  5
1A2
102
{ACAD_REACTORS
330
C
102
}
330
C
100
AcDbRasterVariables
 90
        0
 70
     1
 71
     1
 72
     1
  0
DICTIONARY
  5
1A
102
{ACAD_REACTORS
330
C
102
}
330
C
100
AcDbDictionary
281
     1
  3
Layout1
350
1E
  3
Layout2
350
26
  3
Model
350
22
  0
DICTIONARY
  5
17
102
{ACAD_REACTORS
330
C
102
}
330
C
100
AcDbDictionary
281
     1
  3
Standard
350
18
  0
DICTIONARY
  5
19
102
{ACAD_REACTORS
330
C
102
}
330
C
100
AcDbDictionary
281
     1
  0
ACDBDICTIONARYWDFLT
  5
E
102
{ACAD_REACTORS
330
C
102
}
330
C
100
AcDbDictionary
281
     1
  3
Normal
350
F
100
AcDbDictionaryWithDefault
340
F
  0
DICTIONARY
  5
47
102
{ACAD_REACTORS
330
C
102
}
330
C
100
AcDbDictionary
281
     1
  3
A0
350
48
  3
A1
350
49
  3
A2
350
4A
  3
A3
350
4B
  3
A4
350
4C
  3
A5
350
4D
  3
A6
350
4E
  3
A7
350
4F
  3
A8
350
50
  3
A9
350
51
  3
B0
350
52
  3
B1
350
53
  3
B2
350
54
  3
B3
350
55
  3
B4
350
56
  3
B5
350
57
  3
B6
350
58
  3
B7
350
59
  3
B8
350
5A
  3
B9
350
5B
  3
C0
350
5C
  3
C1
350
5D
  3
C2
350
5E
  3
C3
350
5F
  3
C4
350
60
  3
C5
350
61
  3
C6
350
62
  3
C7
350
63
  3
C8
350
64
  3
C9
350
65
  3
D0
350
66
  3
D1
350
67
  3
D2
350
68
  0
DICTIONARY
  5
1A0
102
{ACAD_REACTORS
330
C
102
}
330
C
100
AcDbDictionary
281
     1
  0
XRECORD
  5
1A6
102
{ACAD_REACTORS
330
C
102
}
330
C
100
AcDbXrecord
280
     1
  1
DWGPROPS COOKIE
  2

  3

  4

  6

  7

  8
12016016
  9

300
=
301
=
302
=
303
=
304
=
305
=
306
=
307
=
308
=
309
=
 40
0.0
 41
2458298.968457083
 42
2458302.202237581
  1

 90
        0
  0
LAYOUT
  5
1E
102
{ACAD_REACTORS
330
1A
102
}
330
1A
100
AcDbPlotSettings
  1

  2
none_device
  4

  6

 40
0.0
 41
0.0
 42
0.0
 43
0.0
 44
0.0
 45
0.0
 46
0.0
 47
0.0
 48
0.0
 49
0.0
140
0.0
141
0.0
142
1.0
143
1.0
 70
   688
 72
     1
 73
     0
 74
     5
  7

 75
    16
147
1.0
148
0.0
149
0.0
100
AcDbLayout
  1
Layout1
 70
     1
 71
     1
 10
0.0
 20
0.0
 11
420.0
 21
297.0
 12
0.0
 22
0.0
 32
0.0
 14
1.000000000000000E+20
 24
1.000000000000000E+20
 34
1.000000000000000E+20
 15
-1.000000000000000E+20
 25
-1.000000000000000E+20
 35
-1.000000000000000E+20
146
0.0
 13
0.0
 23
0.0
 33
0.0
 16
1.0
 26
0.0
 36
0.0
 17
0.0
 27
1.0
 37
0.0
 76
     0
330
1B
  0
LAYOUT
  5
26
102
{ACAD_REACTORS
330
1A
102
}
330
1A
100
AcDbPlotSettings
  1

  2
none_device
  4

  6

 40
0.0
 41
0.0
 42
0.0
 43
0.0
 44
0.0
 45
0.0
 46
0.0
 47
0.0
 48
0.0
 49
0.0
140
0.0
141
0.0
142
1.0
143
1.0
 70
   688
 72
     1
 73
     0
 74
     5
  7

 75
    16
147
1.0
148
0.0
149
0.0
100
AcDbLayout
  1
Layout2
 70
     1
 71
     2
 10
0.0
 20
0.0
 11
0.0
 21
0.0
 12
0.0
 22
0.0
 32
0.0
 14
0.0
 24
0.0
 34
0.0
 15
0.0
 25
0.0
 35
0.0
146
0.0
 13
0.0
 23
0.0
 33
0.0
 16
1.0
 26
0.0
 36
0.0
 17
0.0
 27
1.0
 37
0.0
 76
     0
330
23
  0
LAYOUT
  5
22
102
{ACAD_REACTORS
330
1A
102
}
330
1A
100
AcDbPlotSettings
  1

  2
none_device
  4
ANSI_A_(11.00_x_8.50_Inches)
  6

 40
6.35
 41
19.05
 42
6.35000508
 43
19.05000254
 44
279.4
 45
215.9
 46
104.7392001083598
 47
92.36371863629591
 48
0.0
 49
0.0
140
0.0
141
0.0
142
0.0759908789109562
143
1.0
 70
  1696
 72
     0
 73
     0
 74
     0
  7

 75
     0
147
0.0235690232323232
148
0.0
149
0.0
100
AcDbLayout
  1
Model
 70
     1
 71
     0
 10
0.0
 20
0.0
 11
420.0
 21
297.0
 12
0.0
 22
0.0
 32
0.0
 14
-50.41250000000012
 24
-50.28867796974448
 34
0.0
 15
86.47629082238856
 25
40.39198679301992
 35
0.0
146
0.0
 13
0.0
 23
0.0
 33
0.0
 16
1.0
 26
0.0
 36
0.0
 17
0.0
 27
1.0
 37
0.0
 76
     0
330
1F
331
29
  0
MLINESTYLE
  5
18
102
{ACAD_REACTORS
330
17
102
}
330
17
100
AcDbMlineStyle
  2
Standard
 70
     0
  3

 62
   256
 51
90.0
 52
90.0
 71
     2
 49
0.5
 62
   256
  6
BYLAYER
 49
-0.5
 62
   256
  6
BYLAYER
  0
ACDBPLACEHOLDER
  5
F
102
{ACAD_REACTORS
330
E
102
}
330
E
  0
SCALE
  5
48
102
{ACAD_REACTORS
330
47
102
}
330
47
100
AcDbScale
 70
     0
300
1:1
140
1.0
141
1.0
290
     1
  0
SCALE
  5
49
102
{ACAD_REACTORS
330
47
102
}
330
47
100
AcDbScale
 70
     0
300
1:2
140
1.0
141
2.0
290
     0
  0
SCALE
  5
4A
102
{ACAD_REACTORS
330
47
102
}
330
47
100
AcDbScale
 70
     0
300
1:4
140
1.0
141
4.0
290
     0
  0
SCALE
  5
4B
102
{ACAD_REACTORS
330
47
102
}
330
47
100
AcDbScale
 70
     0
300
1:5
140
1.0
141
5.0
290
     0
  0
SCALE
  5
4C
102
{ACAD_REACTORS
330
47
102
}
330
47
100
AcDbScale
 70
     0
300
1:8
140
1.0
141
8.0
290
     0
  0
SCALE
  5
4D
102
{ACAD_REACTORS
330
47
102
}
330
47
100
AcDbScale
 70
     0
300
1:10
140
1.0
141
10.0
290
     0
  0
SCALE
  5
4E
102
{ACAD_REACTORS
330
47
102
}
330
47
100
AcDbScale
 70
     0
300
1:16
140
1.0
141
16.0
290
     0
  0
SCALE
  5
4F
102
{ACAD_REACTORS
330
47
102
}
330
47
100
AcDbScale
 70
     0
300
1:20
140
1.0
141
20.0
290
     0
  0
SCALE
  5
50
102
{ACAD_REACTORS
330
47
102
}
330
47
100
AcDbScale
 70
     0
300
1:30
140
1.0
141
30.0
290
     0
  0
SCALE
  5
51
102
{ACAD_REACTORS
330
47
102
}
330
47
100
AcDbScale
 70
     0
300
1:40
140
1.0
141
40.0
290
     0
  0
SCALE
  5
52
102
{ACAD_REACTORS
330
47
102
}
330
47
100
AcDbScale
 70
     0
300
1:50
140
1.0
141
50.0
290
     0
  0
SCALE
  5
53
102
{ACAD_REACTORS
330
47
102
}
330
47
100
AcDbScale
 70
     0
300
1:100
140
1.0
141
100.0
290
     0
  0
SCALE
  5
54
102
{ACAD_REACTORS
330
47
102
}
330
47
100
AcDbScale
 70
     0
300
2:1
140
2.0
141
1.0
290
     0
  0
SCALE
  5
55
102
{ACAD_REACTORS
330
47
102
}
330
47
100
AcDbScale
 70
     0
300
4:1
140
4.0
141
1.0
290
     0
  0
SCALE
  5
56
102
{ACAD_REACTORS
330
47
102
}
330
47
100
AcDbScale
 70
     0
300
8:1
140
8.0
141
1.0
290
     0
  0
SCALE
  5
57
102
{ACAD_REACTORS
330
47
102
}
330
47
100
AcDbScale
 70
     0
300
10:1
140
10.0
141
1.0
290
     0
  0
SCALE
  5
58
102
{ACAD_REACTORS
330
47
102
}
330
47
100
AcDbScale
 70
     0
300
100:1
140
100.0
141
1.0
290
     0
  0
SCALE
  5
59
102
{ACAD_REACTORS
330
47
102
}
330
47
100
AcDbScale
 70
     0
300
1/128" = 1'-0"
140
0.0078125
141
12.0
290
     0
  0
SCALE
  5
5A
102
{ACAD_REACTORS
330
47
102
}
330
47
100
AcDbScale
 70
     0
300
1/64" = 1'-0"
140
0.015625
141
12.0
290
     0
  0
SCALE
  5
5B
102
{ACAD_REACTORS
330
47
102
}
330
47
100
AcDbScale
 70
     0
300
1/32" = 1'-0"
140
0.03125
141
12.0
290
     0
  0
SCALE
  5
5C
102
{ACAD_REACTORS
330
47
102
}
330
47
100
AcDbScale
 70
     0
300
1/16" = 1'-0"
140
0.0625
141
12.0
290
     0
  0
SCALE
  5
5D
102
{ACAD_REACTORS
330
47
102
}
330
47
100
AcDbScale
 70
     0
300
3/32" = 1'-0"
140
0.09375
141
12.0
290
     0
  0
SCALE
  5
5E
102
{ACAD_REACTORS
330
47
102
}
330
47
100
AcDbScale
 70
     0
300
1/8" = 1'-0"
140
0.125
141
12.0
290
     0
  0
SCALE
  5
5F
102
{ACAD_REACTORS
330
47
102
}
330
47
100
AcDbScale
 70
     0
300
3/16" = 1'-0"
140
0.1875
141
12.0
290
     0
  0
SCALE
  5
60
102
{ACAD_REACTORS
330
47
102
}
330
47
100
AcDbScale
 70
     0
300
1/4" = 1'-0"
140
0.25
141
12.0
290
     0
  0
SCALE
  5
61
102
{ACAD_REACTORS
330
47
102
}
330
47
100
AcDbScale
 70
     0
300
3/8" = 1'-0"
140
0.375
141
12.0
290
     0
  0
SCALE
  5
62
102
{ACAD_REACTORS
330
47
102
}
330
47
100
AcDbScale
 70
     0
300
1/2" = 1'-0"
140
0.5
141
12.0
290
     0
  0
SCALE
  5
63
102
{ACAD_REACTORS
330
47
102
}
330
47
100
AcDbScale
 70
     0
300
3/4" = 1'-0"
140
0.75
141
12.0
290
     0
  0
SCALE
  5
64
102
{ACAD_REACTORS
330
47
102
}
330
47
100
AcDbScale
 70
     0
300
1" = 1'-0"
140
1.0
141
12.0
290
     0
  0
SCALE
  5
65
102
{ACAD_REACTORS
330
47
102
}
330
47
100
AcDbScale
 70
     0
300
1-1/2" = 1'-0"
140
1.5
141
12.0
290
     0
  0
SCALE
  5
66
102
{ACAD_REACTORS
330
47
102
}
330
47
100
AcDbScale
 70
     0
300
3" = 1'-0"
140
3.0
141
12.0
290
     0
  0
SCALE
  5
67
102
{ACAD_REACTORS
330
47
102
}
330
47
100
AcDbScale
 70
     0
300
6" = 1'-0"
140
6.0
141
12.0
290
     0
  0
SCALE
  5
68
102
{ACAD_REACTORS
330
47
102
}
330
47
100
AcDbScale
 70
     0
300
1'-0" = 1'-0"
140
12.0
141
12.0
290
     0
  0
ENDSEC
  0
EOF
