  0
SECTION
  2
HEADER
  9
$ACADVER
  1
AC1015
  9
$ACADMAINTVER
 70
     6
  9
$DWGCODEPAGE
  3
ANSI_949
  9
$INSBASE
 10
0.0
 20
0.0
 30
0.0
  9
$EXTMIN
 10
-59.58011358127634
 20
-49.75070660587843
 30
0.0
  9
$EXTMAX
 10
103.5961028037803
 20
54.80537598880301
 30
0.0
  9
$LIMMIN
 10
0.0
 20
0.0
  9
$LIMMAX
 10
420.0
 20
297.0
  9
$ORTHOMODE
 70
     1
  9
$REGENMODE
 70
     1
  9
$FILLMODE
 70
     1
  9
$QTEXTMODE
 70
     0
  9
$MIRRTEXT
 70
     1
  9
$LTSCALE
 40
1.0
  9
$ATTMODE
 70
     1
  9
$TEXTSIZE
 40
3.5
  9
$TRACEWID
 40
1.0
  9
$TEXTSTYLE
  7
Standard
  9
$CLAYER
  8
0
  9
$CELTYPE
  6
ByLayer
  9
$CECOLOR
 62
   256
  9
$CELTSCALE
 40
1.0
  9
$DISPSILH
 70
     0
  9
$DIMSCALE
 40
1.0
  9
$DIMASZ
 40
3.302
  9
$DIMEXO
 40
1.0
  9
$DIMDLI
 40
3.75
  9
$DIMRND
 40
0.0
  9
$DIMDLE
 40
0.0
  9
$DIMEXE
 40
1.0
  9
$DIMTP
 40
0.0
  9
$DIMTM
 40
0.0
  9
$DIMTXT
 40
3.5
  9
$DIMCEN
 40
2.5
  9
$DIMTSZ
 40
0.0
  9
$DIMTOL
 70
     0
  9
$DIMLIM
 70
     0
  9
$DIMTIH
 70
     1
  9
$DIMTOH
 70
     1
  9
$DIMSE1
 70
     0
  9
$DIMSE2
 70
     0
  9
$DIMTAD
 70
     1
  9
$DIMZIN
 70
     0
  9
$DIMBLK
  1

  9
$DIMASO
 70
     1
  9
$DIMSHO
 70
     1
  9
$DIMPOST
  1

  9
$DIMAPOST
  1

  9
$DIMALT
 70
     0
  9
$DIMALTD
 70
     3
  9
$DIMALTF
 40
0.0393700787401575
  9
$DIMLFAC
 40
1.0
  9
$DIMTOFL
 70
     1
  9
$DIMTVP
 40
0.0
  9
$DIMTIX
 70
     0
  9
$DIMSOXD
 70
     0
  9
$DIMSAH
 70
     0
  9
$DIMBLK1
  1

  9
$DIMBLK2
  1

  9
$DIMSTYLE
  2
ISO-25
  9
$DIMCLRD
 70
     0
  9
$DIMCLRE
 70
     0
  9
$DIMCLRT
 70
     0
  9
$DIMTFAC
 40
1.0
  9
$DIMGAP
 40
1.524
  9
$DIMJUST
 70
     0
  9
$DIMSD1
 70
     0
  9
$DIMSD2
 70
     0
  9
$DIMTOLJ
 70
     0
  9
$DIMTZIN
 70
     0
  9
$DIMALTZ
 70
     0
  9
$DIMALTTZ
 70
     0
  9
$DIMUPT
 70
     0
  9
$DIMDEC
 70
     2
  9
$DIMTDEC
 70
     2
  9
$DIMALTU
 70
     2
  9
$DIMALTTD
 70
     3
  9
$DIMTXSTY
  7
Standard
  9
$DIMAUNIT
 70
     0
  9
$DIMADEC
 70
     2
  9
$DIMALTRND
 40
0.0
  9
$DIMAZIN
 70
     0
  9
$DIMDSEP
 70
    44
  9
$DIMATFIT
 70
     3
  9
$DIMFRAC
 70
     0
  9
$DIMLDRBLK
  1

  9
$DIMLUNIT
 70
     2
  9
$DIMLWD
 70
    -2
  9
$DIMLWE
 70
    -2
  9
$DIMTMOVE
 70
     0
  9
$LUNITS
 70
     2
  9
$LUPREC
 70
     2
  9
$SKETCHINC
 40
1.0
  9
$FILLETRAD
 40
0.889
  9
$AUNITS
 70
     0
  9
$AUPREC
 70
     2
  9
$MENU
  1
.
  9
$ELEVATION
 40
0.0
  9
$PELEVATION
 40
0.0
  9
$THICKNESS
 40
0.0
  9
$LIMCHECK
 70
     0
  9
$CHAMFERA
 40
0.0
  9
$CHAMFERB
 40
0.0
  9
$CHAMFERC
 40
0.0
  9
$CHAMFERD
 40
0.0
  9
$SKPOLY
 70
     0
  9
$TDCREATE
 40
2458290.678506181
  9
$TDUCREATE
 40
2458290.303506181
  9
$TDUPDATE
 40
2458299.766864815
  9
$TDUUPDATE
 40
2458299.391864815
  9
$TDINDWG
 40
0.0045273495
  9
$TDUSRTIMER
 40
0.0000250463
  9
$USRTIMER
 70
     1
  9
$ANGBASE
 50
0.0
  9
$ANGDIR
 70
     0
  9
$PDMODE
 70
     0
  9
$PDSIZE
 40
-1.0
  9
$PLINEWID
 40
0.0
  9
$SPLFRAME
 70
     0
  9
$SPLINETYPE
 70
     6
  9
$SPLINESEGS
 70
     8
  9
$HANDSEED
  5
216
  9
$SURFTAB1
 70
     6
  9
$SURFTAB2
 70
     6
  9
$SURFTYPE
 70
     6
  9
$SURFU
 70
     6
  9
$SURFV
 70
     6
  9
$UCSBASE
  2

  9
$UCSNAME
  2

  9
$UCSORG
 10
0.0
 20
0.0
 30
0.0
  9
$UCSXDIR
 10
1.0
 20
0.0
 30
0.0
  9
$UCSYDIR
 10
0.0
 20
1.0
 30
0.0
  9
$UCSORTHOREF
  2

  9
$UCSORTHOVIEW
 70
     0
  9
$UCSORGTOP
 10
0.0
 20
0.0
 30
0.0
  9
$UCSORGBOTTOM
 10
0.0
 20
0.0
 30
0.0
  9
$UCSORGLEFT
 10
0.0
 20
0.0
 30
0.0
  9
$UCSORGRIGHT
 10
0.0
 20
0.0
 30
0.0
  9
$UCSORGFRONT
 10
0.0
 20
0.0
 30
0.0
  9
$UCSORGBACK
 10
0.0
 20
0.0
 30
0.0
  9
$PUCSBASE
  2

  9
$PUCSNAME
  2

  9
$PUCSORG
 10
0.0
 20
0.0
 30
0.0
  9
$PUCSXDIR
 10
1.0
 20
0.0
 30
0.0
  9
$PUCSYDIR
 10
0.0
 20
1.0
 30
0.0
  9
$PUCSORTHOREF
  2

  9
$PUCSORTHOVIEW
 70
     0
  9
$PUCSORGTOP
 10
0.0
 20
0.0
 30
0.0
  9
$PUCSORGBOTTOM
 10
0.0
 20
0.0
 30
0.0
  9
$PUCSORGLEFT
 10
0.0
 20
0.0
 30
0.0
  9
$PUCSORGRIGHT
 10
0.0
 20
0.0
 30
0.0
  9
$PUCSORGFRONT
 10
0.0
 20
0.0
 30
0.0
  9
$PUCSORGBACK
 10
0.0
 20
0.0
 30
0.0
  9
$USERI1
 70
     0
  9
$USERI2
 70
     0
  9
$USERI3
 70
     0
  9
$USERI4
 70
     0
  9
$USERI5
 70
     0
  9
$USERR1
 40
0.0
  9
$USERR2
 40
0.0
  9
$USERR3
 40
0.0
  9
$USERR4
 40
0.0
  9
$USERR5
 40
0.0
  9
$WORLDVIEW
 70
     1
  9
$SHADEDGE
 70
     3
  9
$SHADEDIF
 70
    70
  9
$TILEMODE
 70
     1
  9
$MAXACTVP
 70
    64
  9
$PINSBASE
 10
0.0
 20
0.0
 30
0.0
  9
$PLIMCHECK
 70
     0
  9
$PEXTMIN
 10
1.000000000000000E+20
 20
1.000000000000000E+20
 30
1.000000000000000E+20
  9
$PEXTMAX
 10
-1.000000000000000E+20
 20
-1.000000000000000E+20
 30
-1.000000000000000E+20
  9
$PLIMMIN
 10
0.0
 20
0.0
  9
$PLIMMAX
 10
0.0
 20
0.0
  9
$UNITMODE
 70
     0
  9
$VISRETAIN
 70
     1
  9
$PLINEGEN
 70
     0
  9
$PSLTSCALE
 70
     1
  9
$TREEDEPTH
 70
  3020
  9
$CMLSTYLE
  2
Standard
  9
$CMLJUST
 70
     0
  9
$CMLSCALE
 40
20.0
  9
$PROXYGRAPHICS
 70
     1
  9
$MEASUREMENT
 70
     1
  9
$CELWEIGHT
370
    -1
  9
$ENDCAPS
280
     0
  9
$JOINSTYLE
280
     0
  9
$LWDISPLAY
290
     1
  9
$INSUNITS
 70
     4
  9
$HYPERLINKBASE
  1

  9
$STYLESHEET
  1

  9
$XEDIT
290
     1
  9
$CEPSNTYPE
380
     0
  9
$PSTYLEMODE
290
     1
  9
$FINGERPRINTGUID
  2
{EF648C27-C170-4975-9C7E-01D37A39A2B2}
  9
$VERSIONGUID
  2
{FAEB1C32-E019-11D5-929B-00C0DF256EC4}
  9
$EXTNAMES
290
     1
  9
$PSVPSCALE
 40
0.0
  9
$OLESTARTUP
290
     0
  0
ENDSEC
  0
SECTION
  2
CLASSES
  0
CLASS
  1
ACDBDICTIONARYWDFLT
  2
AcDbDictionaryWithDefault
  3
ObjectDBX Classes
 90
        0
280
     0
281
     0
  0
CLASS
  1
VISUALSTYLE
  2
AcDbVisualStyle
  3
ObjectDBX Classes
 90
     4095
280
     0
281
     0
  0
CLASS
  1
MATERIAL
  2
AcDbMaterial
  3
ObjectDBX Classes
 90
     1153
280
     0
281
     0
  0
CLASS
  1
SCALE
  2
AcDbScale
  3
ObjectDBX Classes
 90
     1153
280
     0
281
     0
  0
CLASS
  1
SUN
  2
AcDbSun
  3
SCENEOE
 90
     1153
280
     0
281
     0
  0
CLASS
  1
ACDBPLACEHOLDER
  2
AcDbPlaceHolder
  3
ObjectDBX Classes
 90
        0
280
     0
281
     0
  0
CLASS
  1
LAYOUT
  2
AcDbLayout
  3
ObjectDBX Classes
 90
        0
280
     0
281
     0
  0
CLASS
  1
TABLESTYLE
  2
AcDbTableStyle
  3
ObjectDBX Classes
 90
     4095
280
     0
281
     0
  0
CLASS
  1
MLEADERSTYLE
  2
AcDbMLeaderStyle
  3
ACDB_MLEADERSTYLE_CLASS
 90
     4095
280
     0
281
     0
  0
CLASS
  1
DICTIONARYVAR
  2
AcDbDictionaryVar
  3
ObjectDBX Classes
 90
        0
280
     0
281
     0
  0
ENDSEC
  0
SECTION
  2
TABLES
  0
TABLE
  2
VPORT
  5
8
330
0
100
AcDbSymbolTable
 70
     1
  0
VPORT
  5
29
330
8
100
AcDbSymbolTableRecord
100
AcDbViewportTableRecord
  2
*Active
 70
     0
 10
0.0
 20
0.0
 11
1.0
 21
1.0
 12
22.00799461125197
 22
2.527334691462293
 13
0.0
 23
0.0
 14
10.0
 24
10.0
 15
10.0
 25
10.0
 16
0.0
 26
0.0
 36
1.0
 17
0.0
 27
0.0
 37
0.0
 40
106.6472042465751
 41
2.148876404494382
 42
50.0
 43
0.0
 44
0.0
 50
0.0
 51
0.0
 71
    16
 72
  2000
 73
     1
 74
     3
 75
     0
 76
     0
 77
     0
 78
     0
281
     0
 65
     1
110
0.0
120
0.0
130
0.0
111
1.0
121
0.0
131
0.0
112
0.0
122
1.0
132
0.0
 79
     0
146
0.0
  0
ENDTAB
  0
TABLE
  2
LTYPE
  5
5
330
0
100
AcDbSymbolTable
 70
     6
  0
LTYPE
  5
14
330
5
100
AcDbSymbolTableRecord
100
AcDbLinetypeTableRecord
  2
ByBlock
 70
     0
  3

 72
    65
 73
     0
 40
0.0
  0
LTYPE
  5
15
330
5
100
AcDbSymbolTableRecord
100
AcDbLinetypeTableRecord
  2
ByLayer
 70
     0
  3

 72
    65
 73
     0
 40
0.0
  0
LTYPE
  5
16
330
5
100
AcDbSymbolTableRecord
100
AcDbLinetypeTableRecord
  2
Continuous
 70
     0
  3
Solid line
 72
    65
 73
     0
 40
0.0
  0
LTYPE
  5
6A
330
5
100
AcDbSymbolTableRecord
100
AcDbLinetypeTableRecord
  2
HIDDEN
 70
     0
  3
Hidden __ __ __ __ __ __ __ __ __ __ __ __ __ __
 72
    65
 73
     2
 40
1.905
 49
1.27
 74
     0
 49
-0.635
 74
     0
  0
LTYPE
  5
6B
330
5
100
AcDbSymbolTableRecord
100
AcDbLinetypeTableRecord
  2
PHANTOM
 70
     0
  3
Phantom ______  __  __  ______  __  __  ______
 72
    65
 73
     6
 40
12.7
 49
6.35
 74
     0
 49
-1.27
 74
     0
 49
1.27
 74
     0
 49
-1.27
 74
     0
 49
1.27
 74
     0
 49
-1.27
 74
     0
  0
LTYPE
  5
6C
330
5
100
AcDbSymbolTableRecord
100
AcDbLinetypeTableRecord
  2
CENTER
 70
     0
  3
Center ____ _ ____ _ ____ _ ____ _ ____ _ ____
 72
    65
 73
     4
 40
10.16
 49
6.35
 74
     0
 49
-1.27
 74
     0
 49
1.27
 74
     0
 49
-1.27
 74
     0
  0
LTYPE
  5
6D
330
5
100
AcDbSymbolTableRecord
100
AcDbLinetypeTableRecord
  2
CENTERX2
 70
     0
  3
Center (2x) ________  __  ________  __  _____
 72
    65
 73
     4
 40
20.32
 49
12.7
 74
     0
 49
-2.54
 74
     0
 49
2.54
 74
     0
 49
-2.54
 74
     0
  0
LTYPE
  5
6E
330
5
100
AcDbSymbolTableRecord
100
AcDbLinetypeTableRecord
  2
DOT2
 70
     0
  3
Dot (.5x) ........................................
 72
    65
 73
     2
 40
0.635
 49
0.0
 74
     0
 49
-0.635
 74
     0
  0
ENDTAB
  0
TABLE
  2
LAYER
  5
2
102
{ACAD_XDICTIONARY
360
1DB
102
}
330
0
100
AcDbSymbolTable
 70
    18
  0
LAYER
  5
10
330
2
100
AcDbSymbolTableRecord
100
AcDbLayerTableRecord
  2
0
 70
     0
 62
     7
  6
Continuous
370
    -3
390
F
  0
LAYER
  5
6F
330
2
100
AcDbSymbolTableRecord
100
AcDbLayerTableRecord
  2
FORMAT
 70
     0
 62
     2
  6
Continuous
370
    -3
390
F
  0
LAYER
  5
70
330
2
100
AcDbSymbolTableRecord
100
AcDbLayerTableRecord
  2
외형선
 70
     0
 62
     4
  6
Continuous
370
    30
390
F
  0
LAYER
  5
71
330
2
100
AcDbSymbolTableRecord
100
AcDbLayerTableRecord
  2
숨은선
 70
     0
 62
     2
  6
HIDDEN
370
    15
390
F
  0
LAYER
  5
72
330
2
100
AcDbSymbolTableRecord
100
AcDbLayerTableRecord
  2
중심선
 70
     0
 62
     1
  6
CENTERX2
370
    -3
390
F
  0
LAYER
  5
73
330
2
100
AcDbSymbolTableRecord
100
AcDbLayerTableRecord
  2
파단선
 70
     0
 62
     4
  6
Continuous
370
    -3
390
F
  0
LAYER
  5
74
330
2
100
AcDbSymbolTableRecord
100
AcDbLayerTableRecord
  2
해칭선
 70
     0
 62
   100
  6
Continuous
370
    -3
390
F
  0
LAYER
  5
75
330
2
100
AcDbSymbolTableRecord
100
AcDbLayerTableRecord
  2
가는실선
 70
     0
 62
     4
  6
Continuous
370
    -3
390
F
  0
LAYER
  5
76
330
2
100
AcDbSymbolTableRecord
100
AcDbLayerTableRecord
  2
치수_보조선
 70
     0
 62
     4
  6
Continuous
370
    -3
390
F
  0
LAYER
  5
77
330
2
100
AcDbSymbolTableRecord
100
AcDbLayerTableRecord
  2
치수문자_일반주서
 70
     0
 62
     7
  6
Continuous
370
    15
390
F
  0
LAYER
  5
78
330
2
100
AcDbSymbolTableRecord
100
AcDbLayerTableRecord
  2
개별주서
 70
     0
 62
   100
  6
Continuous
370
    30
390
F
  0
LAYER
  5
79
330
2
100
AcDbSymbolTableRecord
100
AcDbLayerTableRecord
  2
중간선
 70
     0
 62
     2
  6
Continuous
370
    15
390
F
  0
LAYER
  5
7A
330
2
100
AcDbSymbolTableRecord
100
AcDbLayerTableRecord
  2
윤곽선
 70
     0
 62
     3
  6
Continuous
370
    40
390
F
  0
LAYER
  5
7B
330
2
100
AcDbSymbolTableRecord
100
AcDbLayerTableRecord
  2
중심마크
 70
     0
 62
   100
  6
Continuous
370
    30
390
F
  0
LAYER
  5
7C
330
2
100
AcDbSymbolTableRecord
100
AcDbLayerTableRecord
  2
가상선
 70
     0
 62
     4
  6
PHANTOM
370
    -3
390
F
  0
LAYER
  5
7D
330
2
100
AcDbSymbolTableRecord
100
AcDbLayerTableRecord
  2
특수지정선
 70
     0
 62
     5
  6
CENTERX2
370
    60
390
F
  0
LAYER
  5
7E
330
2
100
AcDbSymbolTableRecord
100
AcDbLayerTableRecord
  2
참조1
 70
     0
 62
    -4
  6
Continuous
370
    -3
390
F
  0
LAYER
  5
153
330
2
100
AcDbSymbolTableRecord
100
AcDbLayerTableRecord
  2
Defpoints
 70
     0
 62
     7
  6
Continuous
290
     0
370
    -3
390
F
  0
ENDTAB
  0
TABLE
  2
STYLE
  5
3
330
0
100
AcDbSymbolTable
 70
     2
  0
STYLE
  5
11
330
3
100
AcDbSymbolTableRecord
100
AcDbTextStyleTableRecord
  2
Standard
 70
     0
 40
0.0
 41
1.0
 50
0.0
 71
     0
 42
3.5
  3
txt
  4

  0
STYLE
  5
94
330
3
100
AcDbSymbolTableRecord
100
AcDbTextStyleTableRecord
  2
SLDTEXTSTYLE0
 70
     0
 40
0.0
 41
0.75
 50
0.0
 71
     0
 42
3.5
  3
TXT
  4

  0
ENDTAB
  0
TABLE
  2
VIEW
  5
6
330
0
100
AcDbSymbolTable
 70
     0
  0
ENDTAB
  0
TABLE
  2
UCS
  5
7
330
0
100
AcDbSymbolTable
 70
     0
  0
ENDTAB
  0
TABLE
  2
APPID
  5
9
330
0
100
AcDbSymbolTable
 70
     2
  0
APPID
  5
12
330
9
100
AcDbSymbolTableRecord
100
AcDbRegAppTableRecord
  2
ACAD
 70
     0
  0
APPID
  5
15D
330
9
100
AcDbSymbolTableRecord
100
AcDbRegAppTableRecord
  2
PE_URL
 70
     0
  0
ENDTAB
  0
TABLE
  2
DIMSTYLE
  5
A
330
0
100
AcDbSymbolTable
 70
     4
100
AcDbDimStyleTable
  0
DIMSTYLE
105
27
102
{ACAD_REACTORS
330
189
102
}
330
A
100
AcDbSymbolTableRecord
100
AcDbDimStyleTableRecord
  2
ISO-25
 70
     0
 41
2.5
 42
0.625
 43
3.75
 44
1.25
 73
     0
 74
     0
 77
     1
 78
     8
140
2.5
141
2.5
143
0.03937007874016
147
0.625
171
     3
172
     1
178
     0
271
     2
272
     2
274
     3
278
    44
283
     0
284
     8
340
11
  0
DIMSTYLE
105
D3
102
{ACAD_REACTORS
330
D2
330
FB
102
}
330
A
100
AcDbSymbolTableRecord
100
AcDbDimStyleTableRecord
  2
SLDDIMSTYLE0
 70
     0
 41
3.302
 44
0.0
 45
0.000000001
 73
     0
 74
     0
 77
     1
 78
     4
 79
     1
140
3.5
143
0.0393700787401575
147
0.875
148
0.000000001
170
     1
173
     1
178
     0
271
     2
272
     2
276
     2
284
    12
340
94
  0
DIMSTYLE
105
E7
102
{ACAD_REACTORS
330
E6
102
}
330
A
100
AcDbSymbolTableRecord
100
AcDbDimStyleTableRecord
  2
SLDDIMSTYLE1
 70
     0
 41
3.302
 44
0.0
 45
0.000000001
 73
     0
 74
     0
 77
     1
 78
     4
 79
     1
140
3.5
143
0.0393700787401575
147
0.875
148
0.000000001
170
     1
172
     1
173
     1
178
     0
271
     2
272
     2
276
     2
284
    12
289
     0
340
94
  0
DIMSTYLE
105
10F
102
{ACAD_REACTORS
330
10E
102
}
330
A
100
AcDbSymbolTableRecord
100
AcDbDimStyleTableRecord
  2
SLDDIMSTYLE2
 70
     0
 41
3.302
 44
0.0
 45
0.000000001
 73
     0
 74
     0
 77
     1
 78
    12
 79
     3
140
3.5
143
0.0393700787401575
147
0.875
148
0.000000001
170
     1
172
     1
173
     1
178
     0
271
     2
272
     2
276
     2
284
    12
289
     0
340
94
  0
ENDTAB
  0
TABLE
  2
BLOCK_RECORD
  5
1
330
0
100
AcDbSymbolTable
 70
     7
  0
BLOCK_RECORD
  5
1F
330
1
100
AcDbSymbolTableRecord
100
AcDbBlockTableRecord
  2
*Model_Space
340
22
  0
BLOCK_RECORD
  5
1B
330
1
100
AcDbSymbolTableRecord
100
AcDbBlockTableRecord
  2
*Paper_Space
340
1E
  0
BLOCK_RECORD
  5
23
330
1
100
AcDbSymbolTableRecord
100
AcDbBlockTableRecord
  2
*Paper_Space0
340
26
  0
BLOCK_RECORD
  5
7F
330
1
100
AcDbSymbolTableRecord
100
AcDbBlockTableRecord
  2
블럭10
340
0
102
{BLKREFS
331
CB
102
}
  0
BLOCK_RECORD
  5
D4
330
1
100
AcDbSymbolTableRecord
100
AcDbBlockTableRecord
  2
_D
340
0
  0
BLOCK_RECORD
  5
E8
330
1
100
AcDbSymbolTableRecord
100
AcDbBlockTableRecord
  2
_D_1
340
0
  0
BLOCK_RECORD
  5
FC
330
1
100
AcDbSymbolTableRecord
100
AcDbBlockTableRecord
  2
_D_2
340
0
  0
BLOCK_RECORD
  5
110
330
1
100
AcDbSymbolTableRecord
100
AcDbBlockTableRecord
  2
_D_3
340
0
  0
BLOCK_RECORD
  5
12A
330
1
100
AcDbSymbolTableRecord
100
AcDbBlockTableRecord
  2
SW_DOWELSYMBOL_0
340
0
102
{BLKREFS
331
130
102
}
  0
ENDTAB
  0
ENDSEC
  0
SECTION
  2
BLOCKS
  0
BLOCK
  5
20
330
1F
100
AcDbEntity
  8
0
100
AcDbBlockBegin
  2
*Model_Space
 70
     0
 10
0.0
 20
0.0
 30
0.0
  3
*Model_Space
  1

  0
ENDBLK
  5
21
330
1F
100
AcDbEntity
  8
0
100
AcDbBlockEnd
  0
BLOCK
  5
1C
330
1B
100
AcDbEntity
 67
     1
  8
0
100
AcDbBlockBegin
  2
*Paper_Space
 70
     0
 10
0.0
 20
0.0
 30
0.0
  3
*Paper_Space
  1

  0
ENDBLK
  5
1D
330
1B
100
AcDbEntity
 67
     1
  8
0
100
AcDbBlockEnd
  0
BLOCK
  5
24
330
23
100
AcDbEntity
  8
0
100
AcDbBlockBegin
  2
*Paper_Space0
 70
     0
 10
0.0
 20
0.0
 30
0.0
  3
*Paper_Space0
  1

  0
ENDBLK
  5
25
330
23
100
AcDbEntity
  8
0
100
AcDbBlockEnd
  0
BLOCK
  5
80
330
7F
100
AcDbEntity
  8
0
100
AcDbBlockBegin
  2
블럭10
 70
     2
 10
0.0
 20
0.0
 30
0.0
  3
블럭10
  1

  0
ELLIPSE
  5
82
330
7F
100
AcDbEntity
  8
중심선
100
AcDbEllipse
 10
20.54032771741204
 20
12.0471743016438
 30
0.0
 11
6.600054785286829
 21
-1.261213355974178E-13
 31
0.0
210
0.0
220
0.0
230
1.0
 40
0.636358354079598
 41
0.9219305317359503
 42
6.513795318482858
  0
ELLIPSE
  5
83
330
7F
100
AcDbEntity
  8
중심선
100
AcDbEllipse
 10
20.54032771746488
 20
12.04717430159265
 30
0.0
 11
3.960054785062283
 21
1.540847449632565E-10
 31
0.0
210
0.0
220
0.0
230
1.0
 40
0.3939339440162632
 41
1.131841032648279
 42
5.62031148352944
  0
LINE
  5
84
330
7F
100
AcDbEntity
  8
중심선
100
AcDbLine
 10
2.268634060543552
 20
16.24717430164393
 30
0.0
 11
5.714909304380834
 21
16.24717430164393
 31
0.0
  0
LINE
  5
85
330
7F
100
AcDbEntity
  8
중심선
100
AcDbLine
 10
5.245725140726316
 20
7.84717430164391
 30
0.0
 11
8.692000384563599
 21
7.84717430164391
 31
0.0
  0
LINE
  5
86
330
7F
100
AcDbEntity
  8
중심선
100
AcDbLine
 10
15.74043728645272
 20
16.24717430164393
 30
0.0
 11
8.692000384563599
 21
7.84717430164391
 31
0.0
  0
LINE
  5
87
330
7F
100
AcDbEntity
  8
중심선
100
AcDbLine
 10
0.1404042013395286
 20
13.71084872107135
 30
0.0
 11
3.58671253028996
 21
13.71088815037384
 31
0.0
  0
LINE
  5
88
330
7F
100
AcDbEntity
  8
중심선
100
AcDbLine
 10
2.750260043222114
 20
10.84717430164391
 30
0.0
 11
6.196535287059397
 21
10.84717430164391
 31
0.0
  0
LINE
  5
89
330
7F
100
AcDbEntity
  8
중심선
100
AcDbLine
 10
12.29416204261559
 20
16.24717430164393
 30
0.0
 11
5.245725140726316
 21
7.84717430164391
 31
0.0
  0
LINE
  5
8A
330
7F
100
AcDbEntity
  8
중심선
100
AcDbLine
 10
10.72767329541681
 20
16.24717430164393
 30
0.0
 11
6.196535287059397
 21
10.84717430164391
 31
0.0
  0
LINE
  5
8B
330
7F
100
AcDbEntity
  8
중심선
100
AcDbLine
 10
7.28139805157953
 20
16.24717430164393
 30
0.0
 11
2.750260043222114
 21
10.84717430164391
 31
0.0
  0
LINE
  5
8C
330
7F
100
AcDbEntity
  8
중심선
100
AcDbLine
 10
5.714909304380834
 20
16.24717430164393
 30
0.0
 11
3.58671253028996
 21
13.71088815037384
 31
0.0
  0
LINE
  5
8D
330
7F
100
AcDbEntity
  8
중심선
100
AcDbLine
 10
2.268634060543552
 20
16.24717430164393
 30
0.0
 11
0.1404042013395286
 21
13.71084872107135
 31
0.0
  0
LINE
  5
8E
330
7F
100
AcDbEntity
  8
중심선
100
AcDbLine
 10
7.28139805157953
 20
16.24717430164393
 30
0.0
 11
10.72767329541681
 21
16.24717430164393
 31
0.0
  0
LINE
  5
8F
330
7F
100
AcDbEntity
  8
중심선
100
AcDbLine
 10
12.29416204261559
 20
16.24717430164393
 30
0.0
 11
15.74043728645272
 21
16.24717430164393
 31
0.0
  0
LINE
  5
90
330
7F
100
AcDbEntity
  8
중심선
100
AcDbLine
 10
19.22036997980202
 20
11.08717430171403
 30
0.0
 11
23.66174974927406
 21
11.08717430171406
 31
0.0
  0
LINE
  5
91
330
7F
100
AcDbEntity
  8
중심선
100
AcDbLine
 10
19.22039502424796
 20
13.00717430171391
 30
0.0
 11
19.22036997980202
 21
11.08717430171403
 31
0.0
  0
LINE
  5
92
330
7F
100
AcDbEntity
  8
중심선
100
AcDbLine
 10
19.22039502424796
 20
13.00717430171391
 30
0.0
 11
26.96566020931264
 21
13.00717430171391
 31
0.0
  0
LINE
  5
93
330
7F
100
AcDbEntity
  8
중심선
100
AcDbLine
 10
22.22332737316547
 20
13.45928029700563
 30
0.0
 11
24.52862924686651
 21
15.39360700705356
 31
0.0
  0
ATTDEF
  5
95
330
7F
100
AcDbEntity
  8
FORMAT
 62
     2
100
AcDbText
 10
4.408487351596664
 20
2.075366912832191
 30
0.0
 40
4.233333333333333
  1
E5104064
 41
0.75
  7
SLDTEXTSTYLE0
 11
4.408487351596664
 21
-0.0412997538344756
 31
0.0
100
AcDbAttributeDefinition
  3

  2
AUTOATTR0
 70
     0
 74
     1
  0
ENDBLK
  5
81
330
7F
100
AcDbEntity
  8
0
100
AcDbBlockEnd
  0
BLOCK
  5
D5
330
D4
100
AcDbEntity
  8
0
100
AcDbBlockBegin
  2
_D
 70
     0
 10
0.0
 20
0.0
 30
0.0
  3
_D
  1

  0
LINE
  5
D7
330
D4
100
AcDbEntity
  8
치수문자_일반주서
 62
     0
370
    -2
100
AcDbLine
 10
-38.79999999999996
 20
12.76249999999997
 30
0.0
 11
-38.79999999999995
 21
50.43037598880301
 31
0.0
  0
LINE
  5
D8
330
D4
100
AcDbEntity
  8
치수문자_일반주서
 62
     0
370
    -2
100
AcDbLine
 10
62.80000000000001
 20
12.76250000000019
 30
0.0
 11
62.80000000000002
 21
50.43037598880301
 31
0.0
  0
LINE
  5
D9
330
D4
100
AcDbEntity
  8
치수문자_일반주서
 62
     0
370
    -2
100
AcDbLine
 10
-35.49799999999995
 20
50.43037598880301
 30
0.0
 11
59.49800000000002
 21
50.43037598880301
 31
0.0
  0
SOLID
  5
DA
330
D4
100
AcDbEntity
  8
치수문자_일반주서
 62
     0
100
AcDbTrace
 10
-35.49799999999995
 20
50.98070932213635
 30
0.0
 11
-35.49799999999995
 21
49.88004265546968
 31
0.0
 12
-38.79999999999995
 22
50.43037598880301
 32
0.0
 13
-38.79999999999995
 23
50.43037598880301
 33
0.0
  0
SOLID
  5
DB
330
D4
100
AcDbEntity
  8
치수문자_일반주서
 62
     0
100
AcDbTrace
 10
59.49800000000002
 20
49.88004265546968
 30
0.0
 11
59.49800000000002
 21
50.98070932213635
 31
0.0
 12
62.80000000000002
 22
50.43037598880301
 32
0.0
 13
62.80000000000002
 23
50.43037598880301
 33
0.0
  0
MTEXT
  5
DC
330
D4
100
AcDbEntity
  8
치수문자_일반주서
 62
     0
100
AcDbMText
 10
12.00000000000003
 20
54.80537598880301
 30
0.0
 40
3.5
 41
0.0
 71
     2
 72
     1
  1
\A1;101.60 [4]
  7
SLDTEXTSTYLE0
 73
     1
 44
1.0
  0
POINT
  5
DD
330
D4
100
AcDbEntity
  8
Defpoints
 62
     0
100
AcDbPoint
 10
-38.79999999999996
 20
12.69999999999997
 30
0.0
  0
POINT
  5
DE
330
D4
100
AcDbEntity
  8
Defpoints
 62
     0
100
AcDbPoint
 10
62.80000000000001
 20
12.70000000000019
 30
0.0
  0
POINT
  5
DF
330
D4
100
AcDbEntity
  8
Defpoints
 62
     0
100
AcDbPoint
 10
62.80000000000001
 20
50.43037598880301
 30
0.0
  0
ENDBLK
  5
D6
330
D4
100
AcDbEntity
  8
0
100
AcDbBlockEnd
  0
BLOCK
  5
E9
330
E8
100
AcDbEntity
  8
0
100
AcDbBlockBegin
  2
_D_1
 70
     0
 10
0.0
 20
0.0
 30
0.0
  3
_D_1
  1

  0
LINE
  5
EB
330
E8
100
AcDbEntity
  8
치수문자_일반주서
 62
     0
370
    -2
100
AcDbLine
 10
-38.86249999999996
 20
12.69999999999997
 30
0.0
 11
-55.20511358127624
 21
12.69999999999991
 31
0.0
  0
LINE
  5
EC
330
E8
100
AcDbEntity
  8
치수문자_일반주서
 62
     0
370
    -2
100
AcDbLine
 10
-38.85834258206286
 20
-12.7
 30
0.0
 11
-55.20511358127615
 21
-12.70000000000006
 31
0.0
  0
LINE
  5
ED
330
E8
100
AcDbEntity
  8
치수문자_일반주서
 62
     0
370
    -2
100
AcDbLine
 10
-55.20511358127624
 20
12.69999999999991
 30
0.0
 11
-55.20511358127633
 21
41.61649999999992
 31
0.0
  0
LINE
  5
EE
330
E8
100
AcDbEntity
  8
치수문자_일반주서
 62
     0
370
    -2
100
AcDbLine
 10
-55.20511358127624
 20
12.69999999999991
 30
0.0
 11
-55.20511358127615
 21
-12.70000000000006
 31
0.0
  0
LINE
  5
EF
330
E8
100
AcDbEntity
  8
치수문자_일반주서
 62
     0
370
    -2
100
AcDbLine
 10
-55.20511358127625
 20
16.00199999999991
 30
0.0
 11
-55.20511358127627
 21
19.30399999999991
 31
0.0
  0
LINE
  5
F0
330
E8
100
AcDbEntity
  8
치수문자_일반주서
 62
     0
370
    -2
100
AcDbLine
 10
-55.20511358127614
 20
-16.00200000000006
 30
0.0
 11
-55.20511358127612
 21
-19.30400000000006
 31
0.0
  0
SOLID
  5
F1
330
E8
100
AcDbEntity
  8
치수문자_일반주서
 62
     0
100
AcDbTrace
 10
-55.75544691460959
 20
16.00199999999991
 30
0.0
 11
-54.65478024794292
 21
16.00199999999991
 31
0.0
 12
-55.20511358127624
 22
12.69999999999991
 32
0.0
 13
-55.20511358127624
 23
12.69999999999991
 33
0.0
  0
SOLID
  5
F2
330
E8
100
AcDbEntity
  8
치수문자_일반주서
 62
     0
100
AcDbTrace
 10
-54.6547802479428
 20
-16.00200000000006
 30
0.0
 11
-55.75544691460947
 21
-16.00200000000007
 31
0.0
 12
-55.20511358127615
 22
-12.70000000000006
 32
0.0
 13
-55.20511358127615
 23
-12.70000000000006
 33
0.0
  0
MTEXT
  5
F3
330
E8
100
AcDbEntity
  8
치수문자_일반주서
 62
     0
100
AcDbMText
 10
-59.58011358127629
 20
30.46024999999991
 30
0.0
 40
3.5
 41
0.0
 71
     2
 72
     1
  1
\A1;%%c25.40 [1]
  7
SLDTEXTSTYLE0
 11
-3.356894814614650E-15
 21
1.0
 31
0.0
 73
     1
 44
1.0
  0
POINT
  5
157
330
E8
100
AcDbEntity
  8
Defpoints
 62
     0
100
AcDbPoint
 10
-38.79999999999996
 20
12.69999999999997
 30
0.0
  0
POINT
  5
158
330
E8
100
AcDbEntity
  8
Defpoints
 62
     0
100
AcDbPoint
 10
-38.79584258206286
 20
-12.7
 30
0.0
  0
POINT
  5
159
330
E8
100
AcDbEntity
  8
Defpoints
 62
     0
100
AcDbPoint
 10
-55.20511358127615
 20
-12.70000000000006
 30
0.0
  0
ENDBLK
  5
EA
330
E8
100
AcDbEntity
  8
0
100
AcDbBlockEnd
  0
BLOCK
  5
FD
330
FC
100
AcDbEntity
  8
0
100
AcDbBlockBegin
  2
_D_2
 70
     0
 10
0.0
 20
0.0
 30
0.0
  3
_D_2
  1

  0
LINE
  5
FF
330
FC
100
AcDbEntity
  8
치수문자_일반주서
 62
     0
370
    -2
100
AcDbLine
 10
62.80000000000002
 20
12.7625000000002
 30
0.0
 11
62.80000000000002
 21
31.31380895371567
 31
0.0
  0
LINE
  5
100
330
FC
100
AcDbEntity
  8
치수문자_일반주서
 62
     0
370
    -2
100
AcDbLine
 10
12.00000000000002
 20
12.76250000000002
 30
0.0
 11
12.00000000000001
 21
31.31380895371567
 31
0.0
  0
LINE
  5
101
330
FC
100
AcDbEntity
  8
치수문자_일반주서
 62
     0
370
    -2
100
AcDbLine
 10
59.49800000000002
 20
31.31380895371567
 30
0.0
 11
15.30200000000001
 21
31.31380895371567
 31
0.0
  0
SOLID
  5
102
330
FC
100
AcDbEntity
  8
치수문자_일반주서
 62
     0
100
AcDbTrace
 10
59.49800000000002
 20
30.76347562038234
 30
0.0
 11
59.49800000000002
 21
31.86414228704901
 31
0.0
 12
62.80000000000002
 22
31.31380895371567
 32
0.0
 13
62.80000000000002
 23
31.31380895371567
 33
0.0
  0
SOLID
  5
103
330
FC
100
AcDbEntity
  8
치수문자_일반주서
 62
     0
100
AcDbTrace
 10
15.30200000000001
 20
31.86414228704901
 30
0.0
 11
15.30200000000001
 21
30.76347562038234
 31
0.0
 12
12.00000000000001
 22
31.31380895371567
 32
0.0
 13
12.00000000000001
 23
31.31380895371567
 33
0.0
  0
MTEXT
  5
104
330
FC
100
AcDbEntity
  8
치수문자_일반주서
 62
     0
100
AcDbMText
 10
39.02406971937052
 20
35.68880895371567
 30
0.0
 40
3.5
 41
0.0
 71
     2
 72
     1
  1
\A1;50.80 [2]
  7
SLDTEXTSTYLE0
 73
     1
 44
1.0
  0
POINT
  5
105
330
FC
100
AcDbEntity
  8
Defpoints
 62
     0
100
AcDbPoint
 10
62.80000000000002
 20
12.7000000000002
 30
0.0
  0
POINT
  5
106
330
FC
100
AcDbEntity
  8
Defpoints
 62
     0
100
AcDbPoint
 10
12.00000000000002
 20
12.70000000000002
 30
0.0
  0
POINT
  5
107
330
FC
100
AcDbEntity
  8
Defpoints
 62
     0
100
AcDbPoint
 10
12.00000000000002
 20
31.31380895371567
 30
0.0
  0
ENDBLK
  5
FE
330
FC
100
AcDbEntity
  8
0
100
AcDbBlockEnd
  0
BLOCK
  5
111
330
110
100
AcDbEntity
  8
0
100
AcDbBlockBegin
  2
_D_3
 70
     0
 10
0.0
 20
0.0
 30
0.0
  3
_D_3
  1

  0
LINE
  5
113
330
110
100
AcDbEntity
  8
치수문자_일반주서
 62
     0
370
    -2
100
AcDbLine
 10
62.86250000000001
 20
12.70000000000019
 30
0.0
 11
77.79999999999998
 21
12.70000000000025
 31
0.0
  0
LINE
  5
114
330
110
100
AcDbEntity
  8
치수문자_일반주서
 62
     0
370
    -2
100
AcDbLine
 10
62.90407565677284
 20
-12.69999999999981
 30
0.0
 11
77.80000000000007
 21
-12.69999999999975
 31
0.0
  0
LINE
  5
115
330
110
100
AcDbEntity
  8
치수문자_일반주서
 62
     0
370
    -2
100
AcDbLine
 10
77.79999999999998
 20
12.70000000000025
 30
0.0
 11
77.7999999999999
 21
39.42900000000025
 31
0.0
  0
LINE
  5
116
330
110
100
AcDbEntity
  8
치수문자_일반주서
 62
     0
370
    -2
100
AcDbLine
 10
77.79999999999998
 20
12.70000000000025
 30
0.0
 11
77.80000000000007
 21
-12.69999999999975
 31
0.0
  0
LINE
  5
117
330
110
100
AcDbEntity
  8
치수문자_일반주서
 62
     0
370
    -2
100
AcDbLine
 10
77.79999999999997
 20
16.00200000000025
 30
0.0
 11
77.79999999999995
 21
19.30400000000025
 31
0.0
  0
LINE
  5
118
330
110
100
AcDbEntity
  8
치수문자_일반주서
 62
     0
370
    -2
100
AcDbLine
 10
77.80000000000008
 20
-16.00199999999975
 30
0.0
 11
77.8000000000001
 21
-19.30399999999975
 31
0.0
  0
SOLID
  5
119
330
110
100
AcDbEntity
  8
치수문자_일반주서
 62
     0
100
AcDbTrace
 10
77.24966666666664
 20
16.00200000000025
 30
0.0
 11
78.3503333333333
 21
16.00200000000025
 31
0.0
 12
77.79999999999998
 22
12.70000000000025
 32
0.0
 13
77.79999999999998
 23
12.70000000000025
 33
0.0
  0
SOLID
  5
11A
330
110
100
AcDbEntity
  8
치수문자_일반주서
 62
     0
100
AcDbTrace
 10
78.35033333333341
 20
-16.00199999999975
 30
0.0
 11
77.24966666666676
 21
-16.00199999999976
 31
0.0
 12
77.80000000000007
 22
-12.69999999999975
 32
0.0
 13
77.80000000000007
 23
-12.69999999999975
 33
0.0
  0
MTEXT
  5
11B
330
110
100
AcDbEntity
  8
치수문자_일반주서
 62
     0
100
AcDbMText
 10
73.42499999999993
 20
29.36650000000024
 30
0.0
 40
3.5
 41
0.0
 71
     2
 72
     1
  1
\A1;%%c25.4 [1]
  7
SLDTEXTSTYLE0
 11
-3.356894814614646E-15
 21
1.0
 31
0.0
 73
     1
 44
1.0
  0
POINT
  5
11C
330
110
100
AcDbEntity
  8
Defpoints
 62
     0
100
AcDbPoint
 10
62.80000000000001
 20
12.70000000000019
 30
0.0
  0
POINT
  5
11D
330
110
100
AcDbEntity
  8
Defpoints
 62
     0
100
AcDbPoint
 10
62.84157565677284
 20
-12.69999999999981
 30
0.0
  0
POINT
  5
11E
330
110
100
AcDbEntity
  8
Defpoints
 62
     0
100
AcDbPoint
 10
77.80000000000007
 20
-12.69999999999975
 30
0.0
  0
ENDBLK
  5
112
330
110
100
AcDbEntity
  8
0
100
AcDbBlockEnd
  0
BLOCK
  5
12B
330
12A
100
AcDbEntity
  8
0
100
AcDbBlockBegin
  2
SW_DOWELSYMBOL_0
 70
     0
 10
0.0
 20
0.0
 30
0.0
  3
SW_DOWELSYMBOL_0
  1

  0
CIRCLE
  5
12D
330
12A
100
AcDbEntity
  8
해칭선
 62
     0
100
AcDbCircle
 10
0.0
 20
0.0
 30
0.0
 40
3.000000000000002
  0
HATCH
  5
12E
330
12A
100
AcDbEntity
  8
0
  6
Continuous
 62
     0
370
     0
100
AcDbHatch
 10
0.0
 20
0.0
 30
0.0
210
0.0
220
0.0
230
1.0
  2
SOLID
 70
     1
 71
     0
 91
        1
 92
        0
 93
        3
 72
     2
 10
0.0000000000000069
 20
0.0
 40
3.000000000000002
 50
0.0
 51
90.0
 73
     1
 72
     1
 10
0.0000000000000069
 20
3.000000000000002
 11
0.0000000000000069
 21
0.0
 72
     1
 10
0.0000000000000069
 20
0.0
 11
3.000000000000009
 21
0.0
 97
        0
 75
     0
 76
     1
 98
        1
 10
0.0
 20
0.0
  0
HATCH
  5
12F
330
12A
100
AcDbEntity
  8
0
  6
Continuous
 62
     0
370
     0
100
AcDbHatch
 10
0.0
 20
0.0
 30
0.0
210
0.0
220
0.0
230
1.0
  2
SOLID
 70
     1
 71
     0
 91
        1
 92
        0
 93
        3
 72
     2
 10
0.0000000000000069
 20
0.0
 40
3.000000000000002
 50
180.0
 51
270.0000000000007
 73
     1
 72
     1
 10
0.0000000000000069
 20
-3.000000000000002
 11
0.0000000000000069
 21
0.0
 72
     1
 10
0.0000000000000069
 20
0.0
 11
-2.999999999999995
 21
0.0
 97
        0
 75
     0
 76
     1
 98
        1
 10
0.0
 20
0.0
  0
ENDBLK
  5
12C
330
12A
100
AcDbEntity
  8
0
100
AcDbBlockEnd
  0
ENDSEC
  0
SECTION
  2
ENTITIES
  0
LINE
  5
97
330
1F
100
AcDbEntity
  8
외형선
  6
Continuous
370
    15
100
AcDbLine
 10
-38.29999999999996
 20
-12.70000000000001
 30
0.0
 11
8.949782972142074
 21
-12.70000000000001
 31
0.0
  0
LINE
  5
99
330
1F
100
AcDbEntity
  8
외형선
  6
Continuous
370
    15
100
AcDbLine
 10
-38.79999999999996
 20
-12.2
 30
0.0
 11
-38.29999999999996
 21
-12.7
 31
0.0
  0
LINE
  5
9A
330
1F
100
AcDbEntity
  8
외형선
  6
Continuous
 62
     1
370
    15
100
AcDbLine
 10
17.83103193996413
 20
12.69999999999999
 30
0.0
 11
15.3514093874962
 21
12.69999999999999
 31
0.0
  0
LINE
  5
9B
330
1F
100
AcDbEntity
  8
외형선
  6
Continuous
 62
     1
370
    15
100
AcDbLine
 10
38.38701467136226
 20
-12.70000000000001
 30
0.0
 11
40.86528523403047
 21
-12.70000000000001
 31
0.0
1001
PE_URL
1000

  0
SPLINE
  5
9E
330
1F
100
AcDbEntity
  8
외형선
  6
Continuous
370
    15
100
AcDbSpline
210
0.0
220
0.0
230
1.0
 70
     8
 71
     3
 72
     8
 73
     4
 74
     0
 42
0.000000001
 43
0.00000001
 40
0.0
 40
0.0
 40
0.0
 40
0.0
 40
1.0
 40
1.0
 40
1.0
 40
1.0
 10
12.00000000000034
 20
12.55293503376612
 30
0.0
 10
10.98634034994804
 20
12.46396594282837
 30
0.0
 10
9.966041594820558
 20
12.33451333084789
 30
0.0
 10
8.949782972142078
 20
12.16616584659629
 30
0.0
  0
LINE
  5
9F
330
1F
100
AcDbEntity
  8
외형선
  6
Continuous
370
    15
100
AcDbLine
 10
8.949782972142076
 20
12.69999999999999
 30
0.0
 11
8.949782972142074
 21
5.135557037721425
 31
0.0
  0
SPLINE
  5
A0
330
1F
100
AcDbEntity
  8
외형선
  6
Continuous
370
    15
100
AcDbSpline
210
0.0
220
0.0
230
1.0
 70
     8
 71
     3
 72
     8
 73
     4
 74
     0
 42
0.000000001
 43
0.00000001
 40
0.0
 40
0.0
 40
0.0
 40
0.0
 40
1.0
 40
1.0
 40
1.0
 40
1.0
 10
12.00000000000035
 20
3.481129841703606
 30
0.0
 10
10.98634034994804
 20
4.044990610447172
 30
0.0
 10
9.966041594820561
 20
4.598902542227977
 30
0.0
 10
8.94978297214208
 20
5.135600734966646
 30
0.0
  0
SPLINE
  5
A1
330
1F
100
AcDbEntity
  8
외형선
  6
Continuous
370
    15
100
AcDbSpline
210
0.0
220
0.0
230
1.0
 70
     8
 71
     3
 72
     8
 73
     4
 74
     0
 42
0.000000001
 43
0.00000001
 40
0.0
 40
0.0
 40
0.0
 40
0.0
 40
1.0
 40
1.0
 40
1.0
 40
1.0
 10
12.00000000000034
 20
-4.607525777775617
 30
0.0
 10
10.98634034994804
 20
-4.061155879278155
 30
0.0
 10
9.966041594820558
 20
-3.498811162832955
 30
0.0
 10
8.949782972142078
 20
-2.927800615035589
 30
0.0
  0
SPLINE
  5
A2
330
1F
100
AcDbEntity
  8
외형선
  6
Continuous
370
    15
100
AcDbSpline
210
0.0
220
0.0
230
1.0
 70
     8
 71
     3
 72
     8
 73
     4
 74
     0
 42
0.000000001
 43
0.00000001
 40
0.0
 40
0.0
 40
0.0
 40
0.0
 40
1.0
 40
1.0
 40
1.0
 40
1.0
 10
12.00000000000035
 20
-12.31784251335642
 30
0.0
 10
10.98634034994804
 20
-12.46059205477458
 30
0.0
 10
9.966041594820561
 20
-12.56411577061244
 30
0.0
 10
8.94978297214208
 20
-12.62696056196564
 30
0.0
  0
LINE
  5
A3
330
1F
100
AcDbEntity
  8
외형선
  6
Continuous
370
    15
100
AcDbLine
 10
-38.29999999999996
 20
10.79499999999999
 30
0.0
 11
-38.29999999999996
 21
-12.7
 31
0.0
  0
LINE
  5
A4
330
1F
100
AcDbEntity
  8
외형선
  6
Continuous
370
    15
100
AcDbLine
 10
12.00000000000002
 20
3.481129841703791
 30
0.0
 11
12.00000000000002
 21
-4.60752577777544
 31
0.0
  0
LINE
  5
A5
330
1F
100
AcDbEntity
  8
외형선
  6
Continuous
370
    15
100
AcDbLine
 10
8.949782972142076
 20
-2.927745714685381
 30
0.0
 11
8.949782972142074
 21
-12.70000000000001
 31
0.0
  0
LINE
  5
A6
330
1F
100
AcDbEntity
  8
외형선
  6
Continuous
370
    15
100
AcDbLine
 10
-38.79999999999996
 20
10.79499999999999
 30
0.0
 11
-38.79999999999996
 21
-12.20000000000001
 31
0.0
  0
SPLINE
  5
A7
330
1F
100
AcDbEntity
  8
외형선
  6
Continuous
370
    15
100
AcDbSpline
210
0.0
220
0.0
230
1.0
 70
    24
 71
     3
 72
    19
 73
    15
 74
     0
 42
0.000000001
 43
0.00000001
 40
0.0
 40
0.0
 40
0.0
 40
0.0
 40
0.0706215268783156
 40
0.1623026750665204
 40
0.251395484383153
 40
0.3404882936997856
 40
0.4321694418879903
 40
0.523850590076195
 40
0.6129433993928277
 40
0.7020362087094603
 40
0.7937173568976654
 40
0.8853985050858705
 40
0.9426173346291588
 40
1.0
 40
1.0
 40
1.0
 40
1.0
 10
12.00000000000002
 20
-4.681353089096458
 30
0.0
 10
12.00000000000002
 20
-4.75679912706613
 30
0.0
 10
12.00000000000002
 20
-4.930189512787284
 30
0.0
 10
12.00000000000002
 20
-5.301889985754582
 30
0.0
 10
12.00000000000002
 20
-5.773038964026824
 30
0.0
 10
12.00000000000002
 20
-6.324328723002066
 30
0.0
 10
12.00000000000002
 20
-6.956337240454933
 30
0.0
 10
12.00000000000002
 20
-7.660399261808932
 30
0.0
 10
12.00000000000002
 20
-8.423540500961161
 30
0.0
 10
12.00000000000002
 20
-9.245720793421837
 30
0.0
 10
12.00000000000002
 20
-10.1308475324666
 30
0.0
 10
12.00000000000002
 20
-10.95620318016421
 30
0.0
 10
12.00000000000002
 20
-11.68868212587408
 30
0.0
 10
12.00000000000002
 20
-12.10792260027817
 30
0.0
 10
12.00000000000002
 20
-12.31784251337064
 30
0.0
  0
SPLINE
  5
A8
330
1F
100
AcDbEntity
  8
외형선
  6
Continuous
370
    15
100
AcDbSpline
210
0.0
220
0.0
230
1.0
 70
    24
 71
     3
 72
    21
 73
    17
 74
     0
 42
0.000000001
 43
0.00000001
 40
0.0
 40
0.0
 40
0.0
 40
0.0
 40
0.0691965804813854
 40
0.1383931609627709
 40
0.2094694558843784
 40
0.2805457508059858
 40
0.3519903789364667
 40
0.4234350070669476
 40
0.4969552562219931
 40
0.5704755053770386
 40
0.6419201335075192
 40
0.7133647616379998
 40
0.7868850107930452
 40
0.8604052599480905
 40
0.9318498880785713
 40
1.0
 40
1.0
 40
1.0
 40
1.0
 10
12.00000000000002
 20
12.55293503376609
 30
0.0
 10
12.00000000000002
 20
12.2273230733873
 30
0.0
 10
12.00000000000002
 20
11.57609915262972
 30
0.0
 10
12.00000000000002
 20
10.62555074032638
 30
0.0
 10
12.00000000000002
 20
9.701078973171871
 30
0.0
 10
12.00000000000002
 20
8.81038513688979
 30
0.0
 10
12.00000000000002
 20
7.967951686530532
 30
0.0
 10
12.00000000000002
 20
7.171899392241468
 30
0.0
 10
12.00000000000002
 20
6.431766568335829
 30
0.0
 10
12.00000000000002
 20
5.760850238772809
 30
0.0
 10
12.00000000000002
 20
5.169400684917064
 30
0.0
 10
12.00000000000002
 20
4.653462081412362
 30
0.0
 10
12.00000000000002
 20
4.213735020644968
 30
0.0
 10
12.00000000000002
 20
3.861143409228841
 30
0.0
 10
12.00000000000002
 20
3.595531967047896
 30
0.0
 10
12.00000000000002
 20
3.492603475348273
 30
0.0
 10
12.00000000000002
 20
3.44235381532079
 30
0.0
  0
SPLINE
  5
A9
330
1F
100
AcDbEntity
  8
외형선
  6
Continuous
 62
     1
370
    15
100
AcDbSpline
210
0.0
220
0.0
230
1.0
 70
     8
 71
     3
 72
    56
 73
    52
 74
     0
 42
0.000000001
 43
0.00000001
 40
0.0
 40
0.0
 40
0.0
 40
0.0
 40
0.03125
 40
0.03125
 40
0.0624999999999999
 40
0.0624999999999999
 40
0.1249999999999998
 40
0.1249999999999998
 40
0.1874999999999998
 40
0.1874999999999998
 40
0.2187499999999997
 40
0.2187499999999997
 40
0.2499999999999997
 40
0.2499999999999997
 40
0.2812499999999996
 40
0.2812499999999996
 40
0.3124999999999996
 40
0.3124999999999996
 40
0.3749999999999998
 40
0.3749999999999998
 40
0.4062499999999999
 40
0.4062499999999999
 40
0.4375000000000001
 40
0.4375000000000001
 40
0.4687500000000002
 40
0.4687500000000002
 40
0.5000000000000003
 40
0.5000000000000003
 40
0.5625000000000003
 40
0.5625000000000003
 40
0.6250000000000003
 40
0.6250000000000003
 40
0.6562500000000004
 40
0.6562500000000004
 40
0.6875000000000004
 40
0.6875000000000004
 40
0.7187500000000003
 40
0.7187500000000003
 40
0.7500000000000003
 40
0.7500000000000003
 40
0.8125000000000002
 40
0.8125000000000002
 40
0.8437500000000002
 40
0.8437500000000002
 40
0.8750000000000001
 40
0.8750000000000001
 40
0.9062500000000001
 40
0.9062500000000001
 40
0.9375000000000001
 40
0.9375000000000001
 40
1.0
 40
1.0
 40
1.0
 40
1.0
 10
61.91100000000004
 20
-6.592732444675102
 30
0.0
 10
61.3909165119011
 20
-6.336153230816342
 30
0.0
 10
60.86966378773767
 20
-6.073849723708872
 30
0.0
 10
59.82874861683793
 20
-5.539763760973882
 30
0.0
 10
59.31048610742484
 20
-5.268231892424415
 30
0.0
 10
57.7532090449072
 20
-4.44067153486229
 30
0.0
 10
56.70775092838272
 20
-3.870888055640378
 30
0.0
 10
54.6336601526402
 20
-2.712296895983688
 30
0.0
 10
53.59002968989196
 20
-2.12072603260057
 30
0.0
 10
52.0309234842682
 20
-1.226871482674148
 30
0.0
 10
51.5133971963624
 20
-0.9280601047775774
 30
0.0
 10
50.47321152998884
 20
-0.3283996111627798
 30
0.0
 10
49.951957330223
 20
-0.0278193295283346
 30
0.0
 10
48.91105498405659
 20
0.5725758863634475
 30
0.0
 10
48.39281691406275
 20
0.8721193407360606
 30
0.0
 10
47.35460311758094
 20
1.469580055901517
 30
0.0
 10
46.83368561267601
 20
1.767676144081274
 30
0.0
 10
45.27138181018032
 20
2.656680445235358
 30
0.0
 10
44.23573191941688
 20
3.24131224731691
 30
0.0
 10
42.67377749757316
 20
4.100637257690193
 30
0.0
 10
42.15262501192464
 20
4.383967346541398
 30
0.0
 10
41.1132442558665
 20
4.942282294645095
 30
0.0
 10
40.59571072949295
 20
5.217154029661766
 30
0.0
 10
39.55550649898683
 20
5.758604617440087
 30
0.0
 10
39.03425088711027
 20
6.024924494293696
 30
0.0
 10
37.99336149201031
 20
6.546739530311692
 30
0.0
 10
37.47514748338146
 20
6.80200818947198
 30
0.0
 10
35.91778334432326
 20
7.550557471213636
 30
0.0
 10
34.87233013224347
 20
8.02700679842375
 30
0.0
 10
32.79837459132557
 20
8.920503855596493
 30
0.0
 10
31.7546011053996
 20
9.33975774039741
 30
0.0
 10
30.19556523142549
 20
9.918748723919933
 30
0.0
 10
29.67802408824548
 20
10.10334747820037
 30
0.0
 10
28.63780141965741
 20
10.45592196924821
 30
0.0
 10
28.11654445916234
 20
10.62371199281428
 30
0.0
 10
27.07566814145678
 20
10.94102179099978
 30
0.0
 10
26.55747781612898
 20
11.09041583313787
 30
0.0
 10
25.51920621912463
 20
11.37058963719684
 30
0.0
 10
24.99827545537395
 20
11.50142522272241
 30
0.0
 10
23.43597929845403
 20
11.86460974704908
 30
0.0
 10
22.40034283682446
 20
12.06730949742941
 30
0.0
 10
20.83836464224506
 20
12.31030908437645
 30
0.0
 10
20.31722002856284
 20
12.38106420173898
 30
0.0
 10
19.27788641169699
 20
12.50159116594933
 30
0.0
 10
18.76033727337496
 20
12.5513679393368
 30
0.0
 10
17.72009629276302
 20
12.62997911388072
 30
0.0
 10
17.19883804714229
 20
12.65874735372078
 30
0.0
 10
16.15797493315369
 20
12.69497964271247
 30
0.0
 10
15.63980791305343
 20
12.70245062939378
 30
0.0
 10
14.08235744900314
 20
12.69299706575607
 30
0.0
 10
13.03690965405435
 20
12.64394478176292
 30
0.0
 10
11.99999999999941
 20
12.55293503376604
 30
0.0
  0
SPLINE
  5
AA
330
1F
100
AcDbEntity
  8
외형선
  6
Continuous
 62
     1
370
    15
100
AcDbSpline
210
0.0
220
0.0
230
1.0
 70
     8
 71
     3
 72
    12
 73
     8
 74
     0
 42
0.000000001
 43
0.00000001
 40
0.0
 40
0.0
 40
0.0
 40
0.0
 40
0.25
 40
0.25
 40
0.5
 40
0.5
 40
1.0
 40
1.0
 40
1.0
 40
1.0
 10
61.91100000000002
 20
-6.592732444675095
 30
0.0
 10
62.02405466777302
 20
-6.648507100944788
 30
0.0
 10
62.1323186722344
 20
-6.693068363473211
 30
0.0
 10
62.34010537799701
 20
-6.759819161135979
 30
0.0
 10
62.43704796074952
 20
-6.780797720940605
 30
0.0
 10
62.68809263997425
 20
-6.800689545829306
 30
0.0
 10
62.79999999999999
 20
-6.753822022965934
 30
0.0
 10
62.79999999999999
 20
-6.654225248446061
 30
0.0
  0
SPLINE
  5
AB
330
1F
100
AcDbEntity
  8
외형선
  6
Continuous
 62
     1
370
    15
100
AcDbSpline
210
0.0
220
0.0
230
1.0
 70
     8
 71
     3
 72
    12
 73
     8
 74
     0
 42
0.000000001
 43
0.00000001
 40
0.0
 40
0.0
 40
0.0
 40
0.0
 40
0.111999519863512
 40
0.3071365307657645
 40
0.503807091020565
 40
0.9063552009169891
 40
1.0
 40
1.0
 40
1.0
 40
1.0
 10
59.95620311064273
 20
-5.589719059260377
 30
0.0
 10
59.82945470642384
 20
-5.607034559235996
 30
0.0
 10
59.48187227750519
 20
-5.654518893074817
 30
0.0
 10
58.87291572046043
 20
-5.80018830302678
 30
0.0
 10
57.90181452756189
 20
-6.066357664459471
 30
0.0
 10
57.0311380155703
 20
-6.367116024270329
 30
0.0
 10
56.40795968878467
 20
-6.614332394553323
 30
0.0
 10
56.29034936395204
 20
-6.660988698797567
 30
0.0
  0
SPLINE
  5
AC
330
1F
100
AcDbEntity
  8
외형선
  6
Continuous
 62
     1
370
    15
100
AcDbSpline
210
0.0
220
0.0
230
1.0
 70
     8
 71
     3
 72
    10
 73
     6
 74
     0
 42
0.000000001
 43
0.00000001
 40
0.0
 40
0.0
 40
0.0
 40
0.0
 40
0.5
 40
0.5
 40
1.0
 40
1.0
 40
1.0
 40
1.0
 10
62.80000000000002
 20
-7.42452381649831
 30
0.0
 10
61.69172058803093
 20
-7.413874660495865
 30
0.0
 10
60.59440239465683
 20
-7.348457690201688
 30
0.0
 10
58.42320855150062
 20
-7.100492897523758
 30
0.0
 10
57.34976790265468
 20
-6.915771589566354
 30
0.0
 10
56.29034936395201
 20
-6.660988698797543
 30
0.0
  0
LINE
  5
AD
330
1F
100
AcDbEntity
  8
외형선
  6
Continuous
 62
     1
370
    15
100
AcDbLine
 10
62.80000000000002
 20
-10.64179070571272
 30
0.0
 11
62.80000000000002
 21
-7.42452381649832
 31
0.0
  0
SPLINE
  5
AE
330
1F
100
AcDbEntity
  8
외형선
  6
Continuous
 62
     1
370
    15
100
AcDbSpline
210
0.0
220
0.0
230
1.0
 70
     8
 71
     3
 72
     8
 73
     4
 74
     0
 42
0.000000001
 43
0.00000001
 40
0.0
 40
0.0
 40
0.0
 40
0.0
 40
1.0
 40
1.0
 40
1.0
 40
1.0
 10
62.80000000000002
 20
-10.64179070571272
 30
0.0
 10
62.80000000000002
 20
-10.67045749582897
 30
0.0
 10
62.79788985817991
 20
-10.69957368168932
 30
0.0
 10
62.79367221891804
 20
-10.72915305516315
 30
0.0
  0
SPLINE
  5
AF
330
1F
100
AcDbEntity
  8
외형선
  6
Continuous
 62
     1
370
    15
100
AcDbSpline
210
0.0
220
0.0
230
1.0
 70
     8
 71
     3
 72
    56
 73
    52
 74
     0
 42
0.000000001
 43
0.00000001
 40
0.0
 40
0.0
 40
0.0
 40
0.0
 40
0.0624999999999998
 40
0.0624999999999998
 40
0.0937499999999997
 40
0.0937499999999997
 40
0.1249999999999996
 40
0.1249999999999996
 40
0.1562499999999994
 40
0.1562499999999994
 40
0.1874999999999994
 40
0.1874999999999994
 40
0.2187499999999993
 40
0.2187499999999993
 40
0.2499999999999992
 40
0.2499999999999992
 40
0.3124999999999992
 40
0.3124999999999992
 40
0.3437499999999991
 40
0.3437499999999991
 40
0.374999999999999
 40
0.374999999999999
 40
0.4062499999999989
 40
0.4062499999999989
 40
0.4374999999999989
 40
0.4374999999999989
 40
0.4999999999999987
 40
0.4999999999999987
 40
0.5624999999999984
 40
0.5624999999999984
 40
0.5937499999999984
 40
0.5937499999999984
 40
0.6249999999999984
 40
0.6249999999999984
 40
0.6562499999999987
 40
0.6562499999999987
 40
0.6874999999999988
 40
0.6874999999999988
 40
0.749999999999999
 40
0.749999999999999
 40
0.8124999999999992
 40
0.8124999999999992
 40
0.8437499999999993
 40
0.8437499999999993
 40
0.8749999999999994
 40
0.8749999999999994
 40
0.9062499999999996
 40
0.9062499999999996
 40
0.9374999999999998
 40
0.9374999999999998
 40
1.0
 40
1.0
 40
1.0
 40
1.0
 10
11.99999999999978
 20
3.385285984464279
 30
0.0
 10
13.05527182716076
 20
2.836134234979537
 30
0.0
 10
14.11938657247562
 20
2.273668497274266
 30
0.0
 10
15.7040237439397
 20
1.423093167211068
 30
0.0
 10
16.23162662255579
 20
1.138198228597232
 30
0.0
 10
17.29108941574306
 20
0.5661619401570427
 30
0.0
 10
17.82156882014788
 20
0.2792685014042035
 30
0.0
 10
18.87988311815361
 20
-0.2940286699724553
 30
0.0
 10
19.40650497615633
 20
-0.5802132513089759
 30
0.0
 10
20.46474466915015
 20
-1.151980985123696
 30
0.0
 10
20.99521561406206
 20
-1.437355246925967
 30
0.0
 10
22.05471939374415
 20
-2.004854274923726
 30
0.0
 10
22.58242100825572
 20
-2.286743263287321
 30
0.0
 10
23.63873773044947
 20
-2.846234968169747
 30
0.0
 10
24.16884729436602
 20
-3.124097477964997
 30
0.0
 10
25.7588331904844
 20
-3.948756798086335
 30
0.0
 10
26.81288500785302
 20
-4.485697697396425
 30
0.0
 10
28.40254551938513
 20
-5.266440970614837
 30
0.0
 10
28.93291954449656
 20
-5.522413547236898
 30
0.0
 10
29.99050417758771
 20
-6.023829932945413
 30
0.0
 10
30.51729660216904
 20
-6.269221905312392
 30
0.0
 10
31.57615009258735
 20
-6.749517057975698
 30
0.0
 10
32.10666799390383
 20
-6.984170606773122
 30
0.0
 10
33.16574458359213
 20
-7.440655295208387
 30
0.0
 10
33.69272757487896
 20
-7.662275996251478
 30
0.0
 10
35.27857569492939
 20
-8.307332333216493
 30
0.0
 10
36.34191226087854
 20
-8.710730240052868
 30
0.0
 10
38.45173830630992
 20
-9.452343961845788
 30
0.0
 10
39.51582294361192
 20
-9.79259476587164
 30
0.0
 10
41.10091030908632
 20
-10.24912205869588
 30
0.0
 10
41.62825698018688
 20
-10.3924547902323
 30
0.0
 10
42.68759368834859
 20
-10.66124698400557
 30
0.0
 10
43.21809280690092
 20
-10.78655919448439
 30
0.0
 10
44.27661153508517
 20
-11.01805197420877
 30
0.0
 10
44.80325950482622
 20
-11.12416043531068
 30
0.0
 10
45.86127702969192
 20
-11.31722347695127
 30
0.0
 10
46.39171931659722
 20
-11.40409286543954
 30
0.0
 10
47.98113740538633
 20
-11.6346530654993
 30
0.0
 10
49.03537167917925
 20
-11.74823421502882
 30
0.0
 10
51.15537665276501
 20
-11.89354886276276
 30
0.0
 10
52.20951698669014
 20
-11.92501847076286
 30
0.0
 10
53.7990507076378
 20
-11.91013795887906
 30
0.0
 10
54.32946531202494
 20
-11.89481257588486
 30
0.0
 10
55.38729573677018
 20
-11.84358721700749
 30
0.0
 10
55.91399242423444
 20
-11.80772880511928
 30
0.0
 10
56.97266515813008
 20
-11.71547120607022
 30
0.0
 10
57.50317527228345
 20
-11.6590849551405
 30
0.0
 10
58.56240167187291
 20
-11.52622713639449
 30
0.0
 10
59.08957128894866
 20
-11.44984501629957
 30
0.0
 10
60.67500452908573
 20
-11.19095762701291
 30
0.0
 10
61.73905546240417
 20
-10.97836309395935
 30
0.0
 10
62.79367221894445
 20
-10.72915305515682
 30
0.0
  0
SPLINE
  5
B0
330
1F
100
AcDbEntity
  8
외형선
  6
Continuous
370
    15
100
AcDbSpline
210
0.0
220
0.0
230
1.0
 70
    24
 71
     3
 72
    22
 73
    18
 74
     0
 42
0.000000001
 43
0.00000001
 40
0.0
 40
0.0
 40
0.0
 40
0.0
 40
0.0652583018055579
 40
0.1309415009401944
 40
0.1979605168808695
 40
0.2654400472537676
 40
0.332803965545262
 40
0.4006356032204329
 40
0.4699424019604296
 40
0.5397589326111014
 40
0.6071228509025962
 40
0.6749544885777671
 40
0.7442612873177652
 40
0.8140778179684354
 40
0.8814417362599299
 40
0.9492733739351006
 40
1.0
 40
1.0
 40
1.0
 40
1.0
 10
12.00000000000002
 20
12.55293503378235
 30
0.0
 10
12.00000000000002
 20
12.22836056152314
 30
0.0
 10
12.00000000000002
 20
11.57709830999958
 30
0.0
 10
12.00000000000002
 20
10.62766421071212
 30
0.0
 10
12.00000000000002
 20
9.702052117614851
 30
0.0
 10
12.00000000000002
 20
8.812414716725542
 30
0.0
 10
12.00000000000002
 20
7.968803269623689
 30
0.0
 10
12.00000000000002
 20
7.173780927241577
 30
0.0
 10
12.00000000000002
 20
6.432518066660705
 30
0.0
 10
12.00000000000002
 20
5.762399786877201
 30
0.0
 10
12.00000000000002
 20
5.169939710436072
 30
0.0
 10
12.00000000000002
 20
4.654549671793869
 30
0.0
 10
12.00000000000002
 20
4.214541674402509
 30
0.0
 10
12.00000000000002
 20
3.860212762780012
 30
0.0
 10
12.00000000000002
 20
3.597796264237416
 30
0.0
 10
12.00000000000002
 20
3.428092639269557
 30
0.0
 10
12.00000000000002
 20
3.386375640292624
 30
0.0
 10
12.00000000000002
 20
3.368526504003886
 30
0.0
  0
SPLINE
  5
B1
330
1F
100
AcDbEntity
  8
외형선
  6
Continuous
 62
     1
370
    15
100
AcDbSpline
210
0.0
220
0.0
230
1.0
 70
     8
 71
     3
 72
    22
 73
    18
 74
     0
 42
0.000000001
 43
0.00000001
 40
0.0
 40
0.0
 40
0.0
 40
0.0
 40
0.2499999999999999
 40
0.2499999999999999
 40
0.4999999999999998
 40
0.4999999999999998
 40
0.6249999999999989
 40
0.6249999999999989
 40
0.7499999999999979
 40
0.7499999999999979
 40
0.8124999999999984
 40
0.8124999999999984
 40
0.874999999999999
 40
0.874999999999999
 40
0.9374999999999994
 40
0.9374999999999994
 40
1.0
 40
1.0
 40
1.0
 40
1.0
 10
62.80000000000002
 20
-2.073095095862776
 30
0.0
 10
62.80000000000002
 20
-2.384196099611249
 30
0.0
 10
62.79900187395283
 20
-2.695266666928394
 30
0.0
 10
62.78454153783387
 20
-3.31718979277856
 30
0.0
 10
62.77156740771376
 20
-3.628361160025197
 30
0.0
 10
62.72561893070792
 20
-4.093778921014354
 30
0.0
 10
62.70584926256023
 20
-4.248403724818846
 30
0.0
 10
62.65012226462544
 20
-4.555810461477231
 30
0.0
 10
62.6148960759641
 20
-4.707600551168235
 30
0.0
 10
62.53734161241341
 20
-4.928477668816377
 30
0.0
 10
62.50709204599486
 20
-5.00133217406456
 30
0.0
 10
62.43299995409672
 20
-5.139350965427417
 30
0.0
 10
62.38919231241668
 20
-5.205053291568646
 30
0.0
 10
62.27844775911107
 20
-5.314850638818691
 30
0.0
 10
62.20901936774351
 20
-5.358081379879021
 30
0.0
 10
62.05845531985293
 20
-5.384186790005374
 30
0.0
 10
61.9795194829877
 20
-5.36623818800418
 30
0.0
 10
61.91100000000002
 20
-5.330340389530869
 30
0.0
  0
SPLINE
  5
B2
330
1F
100
AcDbEntity
  8
외형선
  6
Continuous
 62
     1
370
    15
100
AcDbSpline
210
0.0
220
0.0
230
1.0
 70
     8
 71
     3
 72
    22
 73
    18
 74
     0
 42
0.000000001
 43
0.00000001
 40
0.0
 40
0.0
 40
0.0
 40
0.0
 40
0.0710191804596176
 40
0.1420583294963919
 40
0.2130876338903691
 40
0.2840990449046647
 40
0.3551001785885249
 40
0.4248294869743575
 40
0.4945660141075733
 40
0.5643202051945135
 40
0.6340953923172712
 40
0.7052744294253598
 40
0.7764379124202152
 40
0.8475931607351704
 40
0.9187475139195141
 40
0.9899083137104177
 40
0.9999999999999999
 40
0.9999999999999999
 40
0.9999999999999999
 40
0.9999999999999999
 10
61.91100000000001
 20
-5.330340389530858
 30
0.0
 10
60.86749363847185
 20
-4.773092477739238
 30
0.0
 10
58.78018751105409
 20
-3.658439971864675
 30
0.0
 10
55.64892221006527
 20
-1.884105178713632
 30
0.0
 10
52.5179321382925
 20
-0.0792132592679333
 30
0.0
 10
49.38768047480005
 20
1.72933743412183
 30
0.0
 10
46.27659498452841
 20
3.491683991904847
 30
0.0
 10
43.18434072769116
 20
5.174317756887542
 30
0.0
 10
40.11032065379515
 20
6.745910076692191
 30
0.0
 10
37.03549164005361
 20
8.18609567801346
 30
0.0
 10
33.93915655689155
 20
9.47492174093315
 30
0.0
 10
30.82237819612069
 20
10.58418945096827
 30
0.0
 10
27.68543935077307
 20
11.48405556996443
 30
0.0
 10
24.54894457633748
 20
12.15738631344077
 30
0.0
 10
21.41248175723203
 20
12.55899984356692
 30
0.0
 10
19.17320637126531
 20
12.72995105231583
 30
0.0
 10
17.97931510850295
 20
12.6893431783424
 30
0.0
 10
17.83103193996413
 20
12.68429961666454
 30
0.0
  0
SPLINE
  5
B3
330
1F
100
AcDbEntity
  8
외형선
  6
Continuous
 62
     1
370
    15
100
AcDbSpline
210
0.0
220
0.0
230
1.0
 70
     8
 71
     3
 72
    21
 73
    17
 74
     0
 42
0.000000001
 43
0.00000001
 40
0.0
 40
0.0
 40
0.0
 40
0.0
 40
0.0232802189420186
 40
0.0939971618729751
 40
0.1646588459158835
 40
0.2373480171925882
 40
0.3100972535574422
 40
0.3827862689195162
 40
0.453758475324593
 40
0.5247865512019947
 40
0.5957585638530398
 40
0.6687882077441026
 40
0.7418789322910272
 40
0.8149087226882988
 40
0.9072080808987233
 40
1.0
 40
1.0
 40
1.0
 40
1.0
 10
26.32946489474227
 20
11.7459835660753
 30
0.0
 10
26.61245614714185
 20
11.7752895489204
 30
0.0
 10
27.75507317435667
 20
11.8936165809899
 30
0.0
 10
29.755984889933
 20
11.93618058580455
 30
0.0
 10
32.35811216201162
 20
11.86999783765622
 30
0.0
 10
34.98515854989704
 20
11.62112430001856
 30
0.0
 10
37.63624817379608
 20
11.20558730104678
 30
0.0
 10
40.26643261600734
 20
10.63202637819774
 30
0.0
 10
42.87604228802913
 20
9.911674305677344
 30
0.0
 10
45.46498587898053
 20
9.061173679800069
 30
0.0
 10
48.07800065112659
 20
8.075361073903325
 30
0.0
 10
50.7161321707972
 20
6.962917581430922
 30
0.0
 10
53.3802552613644
 20
5.740217471157671
 30
0.0
 10
56.27793930833082
 20
4.317625276785558
 30
0.0
 10
59.41575185478843
 20
2.691972976219523
 30
0.0
 10
61.66570292390475
 20
1.480492995142924
 30
0.0
 10
62.79367221894441
 20
0.8731410224858662
 30
0.0
  0
SPLINE
  5
B4
330
1F
100
AcDbEntity
  8
외형선
  6
Continuous
 62
     1
370
    15
100
AcDbSpline
210
0.0
220
0.0
230
1.0
 70
     8
 71
     3
 72
     8
 73
     4
 74
     0
 42
0.000000001
 43
0.00000001
 40
0.0
 40
0.0
 40
0.0
 40
0.0
 40
1.0
 40
1.0
 40
1.0
 40
1.0
 10
62.79367221891832
 20
0.8731410224855651
 30
0.0
 10
62.79906589416007
 20
0.5896027441693391
 30
0.0
 10
62.8
 20
0.3060488367040559
 30
0.0
 10
62.8
 20
0.0224817329460593
 30
0.0
  0
LINE
  5
B5
330
1F
100
AcDbEntity
  8
외형선
  6
Continuous
 62
     1
370
    15
100
AcDbLine
 10
62.80000000000002
 20
-2.073095095862776
 30
0.0
 11
62.80000000000002
 21
0.0224817329460585
 31
0.0
  0
SPLINE
  5
B6
330
1F
100
AcDbEntity
  8
외형선
  6
Continuous
 62
     1
370
    15
100
AcDbSpline
210
0.0
220
0.0
230
1.0
 70
     8
 71
     3
 72
    19
 73
    15
 74
     0
 42
0.000000001
 43
0.00000001
 40
0.0
 40
0.0
 40
0.0
 40
0.0
 40
0.0830819808019562
 40
0.1653490518297577
 40
0.2476246395805479
 40
0.329921067373629
 40
0.4122422664201455
 40
0.4962197363967643
 40
0.5801788555340052
 40
0.6641282593447654
 40
0.7480766070748717
 40
0.8320325605514283
 40
0.916004763017876
 40
1.0
 40
1.0
 40
1.0
 40
1.0
 10
49.36192599114376
 20
-11.76313037533904
 30
0.0
 10
48.32725251643577
 20
-11.96607733736324
 30
0.0
 10
46.26805416385699
 20
-12.36998065573046
 30
0.0
 10
43.18434151255572
 20
-12.66784747681349
 30
0.0
 10
40.11032044652466
 20
-12.73466298615983
 30
0.0
 10
37.03549168404299
 20
-12.54853514564422
 30
0.0
 10
33.93915658822516
 20
-12.1160625728646
 30
0.0
 10
30.82237802177017
 20
-11.43818570007087
 30
0.0
 10
27.68544001528678
 20
-10.52366020388408
 30
0.0
 10
24.54894209289703
 20
-9.39538858946729
 30
0.0
 10
21.41249102683023
 20
-8.076709100468973
 30
0.0
 10
18.2756962762032
 20
-6.592724278212927
 30
0.0
 10
15.13820802432774
 20
-4.97946903969627
 30
0.0
 10
13.04616497346629
 20
-3.824896539809282
 30
0.0
 10
12.00000000000002
 20
-3.247531122681854
 30
0.0
1001
PE_URL
1000

  0
SPLINE
  5
B7
330
1F
100
AcDbEntity
  8
외형선
  6
Continuous
 62
     1
370
    15
100
AcDbSpline
210
0.0
220
0.0
230
1.0
 70
     8
 71
     3
 72
    16
 73
    12
 74
     0
 42
0.000000001
 43
0.00000001
 40
0.0
 40
0.0
 40
0.0
 40
0.0
 40
0.1186729205756374
 40
0.2373124266755014
 40
0.3559286347979461
 40
0.474534294117008
 40
0.5931421802858579
 40
0.7096479872431698
 40
0.8261897025334347
 40
0.9427462888963862
 40
1.0
 40
1.0
 40
1.0
 40
1.0
 10
11.99999999999943
 20
-4.607525777775122
 30
0.0
 10
13.04388714522449
 20
-5.159971844777083
 30
0.0
 10
15.13136751064476
 20
-6.264708427745168
 30
0.0
 10
18.26199929995592
 20
-7.770388250046494
 30
0.0
 10
21.39193012684339
 20
-9.125459589531166
 30
0.0
 10
24.5215195140957
 20
-10.29448365453971
 30
0.0
 10
27.63257588118581
 20
-11.24920172289836
 30
0.0
 10
30.72549868663944
 20
-11.97888113214148
 30
0.0
 10
33.80061376853682
 20
-12.457359551268
 30
0.0
 10
36.35469810823773
 20
-12.69380536548569
 30
0.0
 10
37.88344137106231
 20
-12.67515437011014
 30
0.0
 10
38.38701467136225
 20
-12.66901066794409
 30
0.0
1001
PE_URL
1000

  0
LINE
  5
B8
330
1F
100
AcDbEntity
  8
외형선
  6
Continuous
370
    15
100
AcDbLine
 10
12.00000000000002
 20
-4.607525777779555
 30
0.0
 11
12.00000000000002
 21
-3.247531122681851
 31
0.0
  0
SPLINE
  5
B9
330
1F
100
AcDbEntity
  8
외형선
  6
Continuous
 62
     1
370
    15
100
AcDbSpline
210
0.0
220
0.0
230
1.0
 70
     8
 71
     3
 72
    13
 73
     9
 74
     0
 42
0.000000001
 43
0.00000001
 40
0.0
 40
0.0
 40
0.0
 40
0.0
 40
0.0804093557426198
 40
0.2642795692383807
 40
0.4481766638315043
 40
0.6321195287896748
 40
0.8160851256605799
 40
1.0
 40
1.0
 40
1.0
 40
1.0
 10
44.85202002586011
 20
9.241108879938452
 30
0.0
 10
45.309228079349
 20
9.427008885636296
 30
0.0
 10
46.81192321118324
 20
10.03800213354262
 30
0.0
 10
49.36027354830767
 20
10.86820696627295
 30
0.0
 10
52.4974066585586
 20
11.71159328205011
 30
0.0
 10
55.63525791120274
 20
12.30124492155455
 30
0.0
 10
58.7733564684624
 20
12.66251788053734
 30
0.0
 10
60.86521496306804
 20
12.68541814436609
 30
0.0
 10
61.91100000000002
 20
12.7000000000002
 30
0.0
  0
LINE
  5
BB
330
1F
100
AcDbEntity
  8
외형선
  6
Continuous
 62
     1
370
    15
100
AcDbLine
 10
62.80000000000002
 20
8.223300350377984
 30
0.0
 11
62.80000000000002
 21
11.8110000000002
 31
0.0
  0
SPLINE
  5
BC
330
1F
100
AcDbEntity
  8
외형선
  6
Continuous
 62
     1
370
    15
100
AcDbSpline
210
0.0
220
0.0
230
1.0
 70
     8
 71
     3
 72
    20
 73
    16
 74
     0
 42
0.000000001
 43
0.00000001
 40
0.0
 40
0.0
 40
0.0
 40
0.0
 40
0.2500000000000013
 40
0.2500000000000013
 40
0.3750000000000011
 40
0.3750000000000011
 40
0.5000000000000009
 40
0.5000000000000009
 40
0.6250000000000007
 40
0.6250000000000007
 40
0.7500000000000004
 40
0.7500000000000004
 40
0.8750000000000002
 40
0.8750000000000002
 40
1.0
 40
1.0
 40
1.0
 40
1.0
 10
62.80000000000002
 20
8.223300350377983
 30
0.0
 10
62.46321647824393
 20
7.628240945461787
 30
0.0
 10
62.05194999870217
 20
7.107194277196694
 30
0.0
 10
61.32631406087058
 20
6.433674026647449
 30
0.0
 10
61.06751103740578
 20
6.229004086779038
 30
0.0
 10
60.5320873848727
 20
5.866021097052508
 30
0.0
 10
60.25361467250445
 20
5.705923357816039
 30
0.0
 10
59.6770779355526
 20
5.424677436283159
 30
0.0
 10
59.37788958174994
 20
5.303413580670963
 30
0.0
 10
58.77622376096502
 20
5.101814312771315
 30
0.0
 10
58.47202840991711
 20
5.020477714053013
 30
0.0
 10
57.85774615079861
 20
4.891907001581957
 30
0.0
 10
57.5476551119467
 20
4.844696798301307
 30
0.0
 10
56.92206442101151
 20
4.781583421562012
 30
0.0
 10
56.60509908569006
 20
4.765746180744341
 30
0.0
 10
56.29034936395204
 20
4.764780480657184
 30
0.0
  0
SPLINE
  5
BD
330
1F
100
AcDbEntity
  8
외형선
  6
Continuous
 62
     1
370
    15
100
AcDbSpline
210
0.0
220
0.0
230
1.0
 70
     8
 71
     3
 72
    10
 73
     6
 74
     0
 42
0.000000001
 43
0.00000001
 40
0.0
 40
0.0
 40
0.0
 40
0.0
 40
0.5
 40
0.5
 40
1.0
 40
1.0
 40
1.0
 40
1.0
 10
62.80000000000002
 20
2.449835235057672
 30
0.0
 10
61.69172058803092
 20
2.894588343199949
 30
0.0
 10
60.59440239465683
 20
3.311663735003443
 30
0.0
 10
58.42320855150065
 20
4.086620728597459
 30
0.0
 10
57.34976790265471
 20
4.443403927649975
 30
0.0
 10
56.29034936395205
 20
4.7647804806572
 30
0.0
  0
LINE
  5
BE
330
1F
100
AcDbEntity
  8
외형선
  6
Continuous
 62
     1
370
    15
100
AcDbLine
 10
62.80000000000002
 20
0.8836655096034234
 30
0.0
 11
62.80000000000002
 21
2.449835235057674
 31
0.0
  0
SPLINE
  5
BF
330
1F
100
AcDbEntity
  8
외형선
  6
Continuous
 62
     1
370
    15
100
AcDbSpline
210
0.0
220
0.0
230
1.0
 70
     8
 71
     3
 72
     8
 73
     4
 74
     0
 42
0.000000001
 43
0.00000001
 40
0.0
 40
0.0
 40
0.0
 40
0.0
 40
1.0
 40
1.0
 40
1.0
 40
1.0
 10
62.80000000000002
 20
0.8836655096034238
 30
0.0
 10
62.80000000000002
 20
0.8788398347940027
 30
0.0
 10
62.79788985817991
 20
0.8753233749357108
 30
0.0
 10
62.79367221891804
 20
0.8731410225003076
 30
0.0
  0
LINE
  5
C0
330
1F
100
AcDbEntity
  8
외형선
  6
Continuous
 62
     1
370
    15
100
AcDbLine
 10
62.80000000000002
 20
0.0224817329460585
 30
0.0
 11
62.80000000000002
 21
0.8836655096034234
 31
0.0
  0
SPLINE
  5
C1
330
1F
100
AcDbEntity
  8
외형선
  6
Continuous
 62
     1
370
    15
100
AcDbSpline
210
0.0
220
0.0
230
1.0
 70
     8
 71
     3
 72
    11
 73
     7
 74
     0
 42
0.000000001
 43
0.00000001
 40
0.0
 40
0.0
 40
0.0
 40
0.0
 40
0.3176967524902424
 40
0.6368452996869518
 40
0.960423623200806
 40
1.0
 40
1.0
 40
1.0
 40
1.0
 10
11.99999999999943
 20
-11.58778907299749
 30
0.0
 10
13.03815862152124
 20
-11.43514781808326
 30
0.0
 10
15.11921998983334
 20
-11.12916777589371
 30
0.0
 10
18.25742531561773
 20
-10.36281684197022
 30
0.0
 10
20.4868317750137
 20
-9.729589742992003
 30
0.0
 10
21.67341476990644
 20
-9.294812019543617
 30
0.0
 10
21.80272785787944
 20
-9.247430209553944
 30
0.0
  0
SPLINE
  5
C2
330
1F
100
AcDbEntity
  8
외형선
  6
Continuous
370
    15
100
AcDbSpline
210
0.0
220
0.0
230
1.0
 70
    24
 71
     3
 72
    18
 73
    14
 74
     0
 42
0.000000001
 43
0.00000001
 40
0.0
 40
0.0
 40
0.0
 40
0.0
 40
0.0756881370938695
 40
0.1739508912677341
 40
0.2694394949070328
 40
0.3649280985463316
 40
0.463190852720196
 40
0.5614536068940604
 40
0.6569422105333589
 40
0.7524308141726573
 40
0.8506935683465217
 40
0.948956322520386
 40
0.9999999999999999
 40
0.9999999999999999
 40
0.9999999999999999
 40
0.9999999999999999
 10
12.00000000000002
 20
-4.681363089096457
 30
0.0
 10
12.00000000000002
 20
-4.75680606483325
 30
0.0
 10
12.00000000000002
 20
-4.930193511970826
 30
0.0
 10
12.00000000000002
 20
-5.301890054511881
 30
0.0
 10
12.00000000000002
 20
-5.773039079275191
 30
0.0
 10
12.00000000000002
 20
-6.324328186554895
 30
0.0
 10
12.00000000000002
 20
-6.956339335960128
 30
0.0
 10
12.00000000000002
 20
-7.660391534555829
 30
0.0
 10
12.00000000000002
 20
-8.423568434622078
 30
0.0
 10
12.00000000000002
 20
-9.24561516296474
 30
0.0
 10
12.00000000000002
 20
-10.13125455056087
 30
0.0
 10
12.00000000000002
 20
-10.92207985462213
 30
0.0
 10
12.00000000000002
 20
-11.41818473993772
 30
0.0
 10
12.00000000000002
 20
-11.58778907299741
 30
0.0
  0
LINE
  5
C3
330
1F
100
AcDbEntity
  8
외형선
  6
Continuous
 62
     1
370
    15
100
AcDbLine
 10
62.80000000000002
 20
-6.654225248446061
 30
0.0
 11
62.80000000000002
 21
-2.073095095862776
 31
0.0
  0
LINE
  5
C4
330
1F
100
AcDbEntity
  8
외형선
  6
Continuous
 62
     1
370
    15
100
AcDbLine
 10
62.80000000000002
 20
2.449835235057672
 30
0.0
 11
62.80000000000002
 21
8.223300350377984
 31
0.0
  0
LINE
  5
C5
330
1F
100
AcDbEntity
  8
외형선
  6
Continuous
 62
     1
370
    15
100
AcDbLine
 10
62.80000000000002
 20
-6.654225248446061
 30
0.0
 11
62.80000000000002
 21
-7.424523816498311
 31
0.0
  0
LINE
  5
C7
330
1F
100
AcDbEntity
  8
중심선
 62
     1
100
AcDbLine
 10
-41.79999999999998
 20
-0.0000000000000041
 30
0.0
 11
69.80000000000001
 21
0.0000000000000067
 31
0.0
  0
LINE
  5
C8
330
1F
100
AcDbEntity
  8
참조1
100
AcDbLine
 10
12.00000000000002
 20
0.2211007829333173
 30
0.0
 11
12.00000000000002
 21
-39.77889921706669
 31
0.0
  0
LINE
  5
C9
330
1F
100
AcDbEntity
  8
참조1
100
AcDbLine
 10
12.00000000000002
 20
-39.77889921706669
 30
0.0
 11
-9.499337839485703
 21
-39.77889921706668
 31
0.0
  0
CIRCLE
  5
CA
330
1F
100
AcDbEntity
  8
해칭선
100
AcDbCircle
 10
0.0
 20
0.0
 30
0.0
 40
3.000000000000001
  0
INSERT
  5
CB
330
1F
100
AcDbEntity
  8
0
  6
Continuous
 62
     7
100
AcDbBlockReference
 66
     1
  2
블럭10
 10
-1.940272932125189
 20
-51.82607351871061
 30
0.0
  0
ATTRIB
  5
CC
330
CB
100
AcDbEntity
  8
FORMAT
 62
     2
100
AcDbText
 10
-11.12156822086647
 20
-49.75070660587842
 30
0.0
 40
4.233333333333333
  1
E5104064 [ 3 FLUTE ]
 41
0.75
  7
SLDTEXTSTYLE0
 11
-11.12156822086647
 21
-51.86737327254509
 31
0.0
100
AcDbAttribute
  2
AUTOATTR0
 70
     0
 74
     1
  0
SEQEND
  5
CD
330
CB
100
AcDbEntity
  8
0
  6
Continuous
 62
     7
  0
HATCH
  5
CE
330
1F
100
AcDbEntity
  8
중심선
100
AcDbHatch
 10
0.0
 20
0.0
 30
0.0
210
0.0
220
0.0
230
1.0
  2
SOLID
 70
     1
 71
     0
 91
        1
 92
        0
 93
        4
 72
     1
 10
3.774636372255667
 20
-35.57889921706668
 11
0.3283611284183845
 21
-35.57889921706668
 72
     1
 10
0.3283611284183845
 20
-35.57889921706668
 11
-1.799868730785638
 21
-38.11522479763928
 72
     1
 10
-1.799868730785638
 20
-38.11522479763928
 11
1.646439598164793
 21
-38.11518536833679
 72
     1
 10
1.646439598164793
 20
-38.11518536833679
 11
3.774636372255667
 21
-35.57889921706668
 97
        0
 75
     0
 76
     1
 98
        1
 10
2.0
 20
0.2200258542094281
  0
HATCH
  5
CF
330
1F
100
AcDbEntity
  8
중심선
100
AcDbHatch
 10
0.0
 20
0.0
 30
0.0
210
0.0
220
0.0
230
1.0
  2
SOLID
 70
     1
 71
     0
 91
        1
 92
        0
 93
        4
 72
     1
 10
8.787400363291646
 20
-35.57889921706668
 11
5.341125119454336
 21
-35.57889921706668
 72
     1
 10
5.341125119454336
 20
-35.57889921706668
 11
0.8099871110969481
 21
-40.9788992170667
 72
     1
 10
0.8099871110969474
 20
-40.9788992170667
 11
4.25626235493423
 21
-40.9788992170667
 72
     1
 10
4.25626235493423
 20
-40.9788992170667
 11
8.787400363291646
 21
-35.57889921706668
 97
        0
 75
     0
 76
     1
 98
        1
 10
2.0
 20
0.2200258542094281
  0
HATCH
  5
D0
330
1F
100
AcDbEntity
  8
중심선
100
AcDbHatch
 10
0.0
 20
0.0
 30
0.0
210
0.0
220
0.0
230
1.0
  2
SOLID
 70
     1
 71
     0
 91
        1
 92
        0
 93
        4
 72
     1
 10
13.80016435432749
 20
-35.57889921706668
 11
10.35388911049043
 21
-35.57889921706666
 72
     1
 10
10.35388911049043
 20
-35.57889921706666
 11
3.30545220860115
 21
-43.9788992170667
 72
     1
 10
3.305452208601149
 20
-43.9788992170667
 11
6.751727452438431
 21
-43.9788992170667
 72
     1
 10
6.751727452438431
 20
-43.9788992170667
 11
13.80016435432749
 21
-35.57889921706668
 97
        0
 75
     0
 76
     1
 98
        1
 10
2.0
 20
0.2200258542094281
  0
HATCH
  5
D1
330
1F
100
AcDbEntity
  8
중심선
100
AcDbHatch
 10
0.0
 20
0.0
 30
0.0
210
0.0
220
0.0
230
1.0
  2
SOLID
 70
     1
 71
     0
 91
        1
 92
        0
 93
        6
 72
     3
 10
18.60005478533971
 20
-39.77889921711795
 11
3.960054785062283
 21
1.540882976769353E-10
 40
0.3939339440162628
 50
17.09539180608439
 51
320.0019657685078
 73
     0
 72
     1
 10
20.28305444104028
 20
-38.36679322170498
 11
22.58835631474138
 21
-36.43246651165706
 72
     3
 10
18.60005478528686
 20
-39.77889921706683
 11
6.600054785286829
 21
-1.278976924368180E-13
 40
0.636358354079598
 50
39.99873849337385
 51
368.4976242363724
 73
     1
 72
     1
 10
25.02538727718748
 20
-38.81889921699671
 11
17.28012209212279
 21
-38.81889921699671
 72
     1
 10
17.28012209212279
 20
-38.81889921699671
 11
17.28009704767685
 21
-40.73889921699659
 72
     1
 10
17.28009704767685
 20
-40.73889921699659
 11
21.72147681714889
 21
-40.73889921699656
 97
        0
 75
     0
 76
     1
 98
        1
 10
2.0
 20
0.2200258542094281
  0
DIMENSION
  5
D2
330
1F
100
AcDbEntity
  8
치수문자_일반주서
100
AcDbDimension
  2
_D
 10
62.80000000000002
 20
50.43037598880301
 30
0.0
 11
12.00000000000003
 21
50.43037598880301
 31
0.0
 70
   160
  1
<>
 71
     2
 42
101.6
  3
SLDDIMSTYLE0
100
AcDbAlignedDimension
 13
-38.79999999999996
 23
12.69999999999997
 33
0.0
 14
62.80000000000001
 24
12.70000000000019
 34
0.0
100
AcDbRotatedDimension
1001
ACAD
1000
DSTYLE
1002
{
1070
   273
1070
     7
1002
}
  0
DIMENSION
  5
E6
330
1F
100
AcDbEntity
  8
치수문자_일반주서
100
AcDbDimension
  2
_D_1
 10
-55.20511358127615
 20
-12.70000000000006
 30
0.0
 11
-55.20511358127629
 21
30.46024999999992
 31
0.0
 70
   160
  1
%%c<>
 71
     2
 42
25.39999999999997
 52
-270.0
  3
SLDDIMSTYLE1
100
AcDbAlignedDimension
 13
-38.79999999999996
 23
12.69999999999997
 33
0.0
 14
-38.79584258206286
 24
-12.7
 34
0.0
 50
90.0000000000002
100
AcDbRotatedDimension
1001
ACAD
1000
DSTYLE
1002
{
1070
   273
1070
     7
1002
}
  0
DIMENSION
  5
FB
330
1F
100
AcDbEntity
  8
치수문자_일반주서
100
AcDbDimension
  2
_D_2
 10
12.00000000000001
 20
31.31380895371567
 30
0.0
 11
39.02406971937052
 21
31.31380895371567
 31
0.0
 70
   160
  1
<>
 71
     2
 42
50.8
  3
SLDDIMSTYLE0
100
AcDbAlignedDimension
 13
62.80000000000002
 23
12.7000000000002
 33
0.0
 14
12.00000000000002
 24
12.70000000000002
 34
0.0
 50
0.00000000000002
100
AcDbRotatedDimension
1001
ACAD
1000
DSTYLE
1002
{
1070
   273
1070
     7
1002
}
  0
DIMENSION
  5
10E
330
1F
100
AcDbEntity
  8
치수문자_일반주서
100
AcDbDimension
  2
_D_3
 10
77.80000000000007
 20
-12.69999999999975
 30
0.0
 11
77.79999999999993
 21
29.36650000000025
 31
0.0
 70
   160
  1
%%c<>
 71
     2
 42
25.4
 52
-270.0
  3
SLDDIMSTYLE2
100
AcDbAlignedDimension
 13
62.80000000000001
 23
12.70000000000019
 33
0.0
 14
62.84157565677284
 24
-12.69999999999981
 34
0.0
 50
90.0000000000002
100
AcDbRotatedDimension
1001
ACAD
1000
DSTYLE
1002
{
1070
   273
1070
     7
1002
}
  0
LINE
  5
123
330
1F
100
AcDbEntity
  8
참조1
100
AcDbLine
 10
88.47300279016856
 20
7.661100782933324
 30
0.0
 11
88.47300279016856
 21
-7.218899217066681
 31
0.0
  0
LINE
  5
124
330
1F
100
AcDbEntity
  8
참조1
100
AcDbLine
 10
101.1730027901686
 20
5.661100782933324
 30
0.0
 11
88.47300279016856
 21
5.661100782933324
 31
0.0
  0
SOLID
  5
125
330
1F
100
AcDbEntity
  8
참조1
100
AcDbTrace
 10
88.47300279016856
 20
5.661100782933324
 30
0.0
 11
94.82300279016856
 21
4.645100782933324
 31
0.0
 12
94.82300279016856
 22
6.677100782933324
 32
0.0
 13
94.82300279016856
 23
6.677100782933324
 33
0.0
  0
LINE
  5
126
330
1F
100
AcDbEntity
  8
참조1
100
AcDbLine
 10
101.1730027901686
 20
-5.218899217066681
 30
0.0
 11
88.47300279016856
 21
-5.218899217066681
 31
0.0
  0
SOLID
  5
127
330
1F
100
AcDbEntity
  8
참조1
100
AcDbTrace
 10
88.47300279016856
 20
-5.218899217066681
 30
0.0
 11
94.82300279016856
 21
-6.234899217066681
 31
0.0
 12
94.82300279016856
 22
-4.202899217066681
 32
0.0
 13
94.82300279016856
 23
-4.202899217066681
 33
0.0
  0
MTEXT
  5
128
330
1F
100
AcDbEntity
  8
참조1
100
AcDbMText
 10
97.87049288263884
 20
11.20931742758326
 30
0.0
 40
3.5
 41
0.0
 71
     1
 72
     1
  1
A
  7
SLDTEXTSTYLE0
 73
     1
 44
1.0
  0
MTEXT
  5
129
330
1F
100
AcDbEntity
  8
참조1
100
AcDbMText
 10
97.87049288263884
 20
0.329317427583254
 30
0.0
 40
3.5
 41
0.0
 71
     1
 72
     1
  1
A
  7
SLDTEXTSTYLE0
 73
     1
 44
1.0
  0
INSERT
  5
130
330
1F
100
AcDbEntity
  8
해칭선
100
AcDbBlockReference
  2
SW_DOWELSYMBOL_0
 10
0.0
 20
0.0
 30
0.0
  0
ARC
  5
15C
330
1F
100
AcDbEntity
  8
0
 62
     1
100
AcDbCircle
 10
61.91100000000002
 20
11.8110000000002
 30
0.0
 40
0.8890000000000001
100
AcDbArc
 50
0.0
 51
90.0
  0
MTEXT
  5
188
102
{ACAD_REACTORS
330
189
102
}
330
1F
100
AcDbEntity
  8
0
100
AcDbMText
 10
72.09610280378027
 20
-28.9514132666126
 30
0.0
 40
3.5
 41
0.0
 71
     7
 72
     1
  1
{R0.89[.035"]}
 73
     1
 44
1.0
1001
ACAD
1000
ACAD_MTEXT_DEFINED_HEIGHT_BEGIN
1070
    46
1040
3.5
1000
ACAD_MTEXT_DEFINED_HEIGHT_END
  0
LEADER
  5
189
102
{ACAD_XDICTIONARY
360
18A
102
}
330
1F
100
AcDbEntity
  8
0
100
AcDbLeader
  3
ISO-25
 73
     0
 74
     0
 75
     1
 40
3.5
 41
31.5
 76
     3
 10
61.56841944671535
 20
-11.00133078977345
 30
0.0
 10
67.27010280378026
 20
-27.2014132666126
 30
0.0
 10
70.57210280378027
 20
-27.2014132666126
 30
0.0
340
188
213
0.0
223
1.75
233
0.0
1001
ACAD
1000
DSTYLE
1002
{
1070
    77
1070
     0
1070
   179
1070
     2
1070
   143
1040
0.0393700787401575
1070
    41
1040
3.302
1070
    44
1040
1.0
1070
    42
1040
1.0
1070
   147
1040
1.524
1070
    73
1070
     1
1070
    74
1070
     1
1070
   140
1040
3.5
1070
   284
1070
     0
1070
    78
1070
     0
1002
}
  0
LINE
  5
1E3
330
1F
100
AcDbEntity
  8
외형선
  6
Continuous
370
    15
100
AcDbLine
 10
-24.19499999999998
 20
12.69999999999999
 30
0.0
 11
-18.28632499999985
 21
12.69999999999999
 31
0.0
1001
PE_URL
1000

  0
LINE
  5
1E5
330
1F
100
AcDbEntity
  8
외형선
  6
Continuous
370
    15
100
AcDbLine
 10
-16.38132499999988
 20
10.79499999999999
 30
0.0
 11
-3.274924999999982
 21
10.79499999999999
 31
0.0
1001
PE_URL
1000

  0
LINE
  5
1E6
330
1F
100
AcDbEntity
  8
외형선
  6
Continuous
370
    15
100
AcDbLine
 10
-16.38132499999988
 20
10.795
 30
0.0
 11
-18.28632499999985
 21
12.69999999999999
 31
0.0
1001
PE_URL
1000

  0
LINE
  5
1E7
330
1F
100
AcDbEntity
  8
외형선
  6
Continuous
370
    15
100
AcDbLine
 10
-3.274924999999982
 20
10.795
 30
0.0
 11
-1.369924999999938
 21
12.69999999999999
 31
0.0
1001
PE_URL
1000

  0
LINE
  5
1E9
330
1F
100
AcDbEntity
  8
외형선
  6
Continuous
370
    15
100
AcDbLine
 10
-38.79999999999997
 20
10.79499999999999
 30
0.0
 11
-26.09999999999995
 21
10.79499999999999
 31
0.0
1001
PE_URL
1000

  0
LINE
  5
1EA
330
1F
100
AcDbEntity
  8
외형선
  6
Continuous
370
    15
100
AcDbLine
 10
-26.09999999999995
 20
10.795
 30
0.0
 11
-24.19499999999998
 21
12.69999999999998
 31
0.0
1001
PE_URL
1000

  0
LINE
  5
1F2
330
1F
100
AcDbEntity
  8
외형선
  6
Continuous
370
    15
100
AcDbLine
 10
-1.369924999999938
 20
12.69999999999999
 30
0.0
 11
8.949782972142076
 21
12.69999999999999
 31
0.0
1001
PE_URL
1000

  0
ENDSEC
  0
SECTION
  2
OBJECTS
  0
DICTIONARY
  5
C
330
0
100
AcDbDictionary
281
     1
  3
ACAD_DETAILVIEWSTYLE
350
1F0
  3
ACAD_GROUP
350
D
  3
ACAD_LAYOUT
350
1A
  3
ACAD_MLINESTYLE
350
17
  3
ACAD_PLOTSETTINGS
350
19
  3
ACAD_PLOTSTYLENAME
350
E
  3
ACAD_SCALELIST
350
47
  3
ACAD_SECTIONVIEWSTYLE
350
1F1
  3
AcDbVariableDictionary
350
1EB
  3
APPDATA
350
152
  3
DWGPROPS
350
215
  0
DICTIONARY
  5
1DB
330
2
100
AcDbDictionary
280
     1
281
     1
  3
ACAD_LAYERSTATES
360
1DC
  0
DICTIONARY
  5
18A
330
189
100
AcDbDictionary
280
     1
281
     1
  3
*A1
360
18B
  0
DICTIONARY
  5
1F0
102
{ACAD_REACTORS
330
C
102
}
330
C
100
AcDbDictionary
281
     1
  0
DICTIONARY
  5
D
102
{ACAD_REACTORS
330
C
102
}
330
C
100
AcDbDictionary
281
     1
  0
DICTIONARY
  5
1A
102
{ACAD_REACTORS
330
C
102
}
330
C
100
AcDbDictionary
281
     1
  3
Layout1
350
1E
  3
Layout2
350
26
  3
Model
350
22
  0
DICTIONARY
  5
17
102
{ACAD_REACTORS
330
C
102
}
330
C
100
AcDbDictionary
281
     1
  3
Standard
350
18
  0
DICTIONARY
  5
19
102
{ACAD_REACTORS
330
C
102
}
330
C
100
AcDbDictionary
281
     1
  0
ACDBDICTIONARYWDFLT
  5
E
102
{ACAD_REACTORS
330
C
102
}
330
C
100
AcDbDictionary
281
     1
  3
Normal
350
F
100
AcDbDictionaryWithDefault
340
F
  0
DICTIONARY
  5
47
102
{ACAD_REACTORS
330
C
102
}
330
C
100
AcDbDictionary
281
     1
  3
A0
350
48
  3
A1
350
49
  3
A2
350
4A
  3
A3
350
4B
  3
A4
350
4C
  3
A5
350
4D
  3
A6
350
4E
  3
A7
350
4F
  3
A8
350
50
  3
A9
350
51
  3
B0
350
52
  3
B1
350
53
  3
B2
350
54
  3
B3
350
55
  3
B4
350
56
  3
B5
350
57
  3
B6
350
58
  3
B7
350
59
  3
B8
350
5A
  3
B9
350
5B
  3
C0
350
5C
  3
C1
350
5D
  3
C2
350
5E
  3
C3
350
5F
  3
C4
350
60
  3
C5
350
61
  3
C6
350
62
  3
C7
350
63
  3
C8
350
64
  3
C9
350
65
  3
D0
350
66
  3
D1
350
67
  3
D2
350
68
  0
DICTIONARY
  5
1F1
102
{ACAD_REACTORS
330
C
102
}
330
C
100
AcDbDictionary
281
     1
  0
DICTIONARY
  5
1EB
102
{ACAD_REACTORS
330
C
102
}
330
C
100
AcDbDictionary
281
     1
  0
DICTIONARY
  5
152
102
{ACAD_REACTORS
330
C
102
}
330
C
100
AcDbDictionary
281
     1
  0
XRECORD
  5
215
102
{ACAD_REACTORS
330
C
102
}
330
C
100
AcDbXrecord
280
     1
  1
DWGPROPS COOKIE
  2

  3

  4

  6

  7

  8
12017103
  9

300
=
301
=
302
=
303
=
304
=
305
=
306
=
307
=
308
=
309
=
 40
0.0
 41
2458290.303506181
 42
2458299.391864815
  1

 90
        0
  0
DICTIONARY
  5
1DC
102
{ACAD_REACTORS
330
1DB
102
}
330
1DB
100
AcDbDictionary
281
     1
  0
SPLINE
  5
18B
102
{ACAD_REACTORS
330
18A
102
}
330
18A
100
AcDbEntity
  8
외형선
  6
Continuous
 62
     1
370
    15
100
AcDbSpline
210
0.0
220
0.0
230
1.0
 70
     8
 71
     3
 72
    29
 73
    25
 74
     0
 42
0.000000001
 43
0.00000001
 40
0.0
 40
0.0
 40
0.0
 40
0.0
 40
0.0422644495549575
 40
0.0894133481135558
 40
0.1360887908804358
 40
0.183088732683559
 40
0.2297638819666308
 40
0.2767625414519669
 40
0.323437633749297
 40
0.3704354120323877
 40
0.4171106810586105
 40
0.464107897037571
 40
0.5107833946634068
 40
0.5577805359514474
 40
0.6044561394422602
 40
0.651453806121575
 40
0.6980998941979074
 40
0.7450685450090514
 40
0.7915976398774139
 40
0.8384484734548767
 40
0.8795785645527328
 40
0.920930788652952
 40
0.9603675209920361
 40
1.0
 40
1.0
 40
1.0
 40
1.0
 10
12.38189177007194
 20
1.248479460924195
 30
0.0
 10
12.52654344348548
 20
1.258273475674198
 30
0.0
 10
12.8325640013379
 20
1.278993387077104
 30
0.0
 10
13.29773257188337
 20
1.254108412177238
 30
0.0
 10
13.78025596066385
 20
1.187861475668798
 30
0.0
 10
14.25966703328228
 20
1.076843206459327
 30
0.0
 10
14.7418375996466
 20
0.9278143507748849
 30
0.0
 10
15.22126826210304
 20
0.7422259995311946
 30
0.0
 10
15.70321466955698
 20
0.5287568400491983
 30
0.0
 10
16.18301476867187
 20
0.291415106865743
 30
0.0
 10
16.66438564818222
 20
0.0386509998105593
 30
0.0
 10
17.14481199956303
 20
-0.2211140264741509
 30
0.0
 10
17.62559449395425
 20
-0.4827611477767423
 30
0.0
 10
18.10652182376923
 20
-0.7336501666871716
 30
0.0
 10
18.58700798445997
 20
-0.9720014204249832
 30
0.0
 10
19.06797035806053
 20
-1.184275237010919
 30
0.0
 10
19.54830862416817
 20
-1.369853183592872
 30
0.0
 10
20.02843114246354
 20
-1.518172522965445
 30
0.0
 10
20.50823986679071
 20
-1.62831800107122
 30
0.0
 10
20.96857053986777
 20
-1.692379933129987
 30
0.0
 10
21.41107311362818
 20
-1.715381820442324
 30
0.0
 10
21.82821005632637
 20
-1.70162911792889
 30
0.0
 10
22.2401103516564
 20
-1.656726206160658
 30
0.0
 10
22.51072264209905
 20
-1.601263250205901
 30
0.0
 10
22.64636375622617
 20
-1.573463119154277
 30
0.0
  0
LAYOUT
  5
1E
102
{ACAD_REACTORS
330
1A
102
}
330
1A
100
AcDbPlotSettings
  1

  2
none_device
  4

  6

 40
0.0
 41
0.0
 42
0.0
 43
0.0
 44
0.0
 45
0.0
 46
0.0
 47
0.0
 48
0.0
 49
0.0
140
0.0
141
0.0
142
1.0
143
1.0
 70
   688
 72
     1
 73
     0
 74
     5
  7

 75
    16
147
1.0
148
0.0
149
0.0
100
AcDbLayout
  1
Layout1
 70
     1
 71
     1
 10
0.0
 20
0.0
 11
420.0
 21
297.0
 12
0.0
 22
0.0
 32
0.0
 14
1.000000000000000E+20
 24
1.000000000000000E+20
 34
1.000000000000000E+20
 15
-1.000000000000000E+20
 25
-1.000000000000000E+20
 35
-1.000000000000000E+20
146
0.0
 13
0.0
 23
0.0
 33
0.0
 16
1.0
 26
0.0
 36
0.0
 17
0.0
 27
1.0
 37
0.0
 76
     0
330
1B
  0
LAYOUT
  5
26
102
{ACAD_REACTORS
330
1A
102
}
330
1A
100
AcDbPlotSettings
  1

  2
none_device
  4

  6

 40
0.0
 41
0.0
 42
0.0
 43
0.0
 44
0.0
 45
0.0
 46
0.0
 47
0.0
 48
0.0
 49
0.0
140
0.0
141
0.0
142
1.0
143
1.0
 70
   688
 72
     1
 73
     0
 74
     5
  7

 75
    16
147
1.0
148
0.0
149
0.0
100
AcDbLayout
  1
Layout2
 70
     1
 71
     2
 10
0.0
 20
0.0
 11
0.0
 21
0.0
 12
0.0
 22
0.0
 32
0.0
 14
0.0
 24
0.0
 34
0.0
 15
0.0
 25
0.0
 35
0.0
146
0.0
 13
0.0
 23
0.0
 33
0.0
 16
1.0
 26
0.0
 36
0.0
 17
0.0
 27
1.0
 37
0.0
 76
     0
330
23
  0
LAYOUT
  5
22
102
{ACAD_REACTORS
330
1A
102
}
330
1A
100
AcDbPlotSettings
  1

  2
none_device
  4
ANSI_A_(11.00_x_8.50_Inches)
  6

 40
6.35
 41
19.05
 42
6.35000508
 43
19.05000254
 44
279.4
 45
215.9
 46
112.8725316974372
 47
73.6187591823641
 48
0.0
 49
0.0
140
0.0
141
0.0
142
0.0630332778437428
143
1.0
 70
  1696
 72
     0
 73
     0
 74
     0
  7

 75
     0
147
0.0235690232323232
148
0.0
149
0.0
100
AcDbLayout
  1
Model
 70
     1
 71
     0
 10
0.0
 20
0.0
 11
420.0
 21
297.0
 12
0.0
 22
0.0
 32
0.0
 14
-59.58011358127634
 24
-49.75070660587843
 34
0.0
 15
103.5961028037803
 25
54.80537598880301
 35
0.0
146
0.0
 13
0.0
 23
0.0
 33
0.0
 16
1.0
 26
0.0
 36
0.0
 17
0.0
 27
1.0
 37
0.0
 76
     0
330
1F
331
29
  0
MLINESTYLE
  5
18
102
{ACAD_REACTORS
330
17
102
}
330
17
100
AcDbMlineStyle
  2
Standard
 70
     0
  3

 62
   256
 51
90.0
 52
90.0
 71
     2
 49
0.5
 62
   256
  6
BYLAYER
 49
-0.5
 62
   256
  6
BYLAYER
  0
ACDBPLACEHOLDER
  5
F
102
{ACAD_REACTORS
330
E
102
}
330
E
  0
SCALE
  5
48
102
{ACAD_REACTORS
330
47
102
}
330
47
100
AcDbScale
 70
     0
300
1:1
140
1.0
141
1.0
290
     1
  0
SCALE
  5
49
102
{ACAD_REACTORS
330
47
102
}
330
47
100
AcDbScale
 70
     0
300
1:2
140
1.0
141
2.0
290
     0
  0
SCALE
  5
4A
102
{ACAD_REACTORS
330
47
102
}
330
47
100
AcDbScale
 70
     0
300
1:4
140
1.0
141
4.0
290
     0
  0
SCALE
  5
4B
102
{ACAD_REACTORS
330
47
102
}
330
47
100
AcDbScale
 70
     0
300
1:5
140
1.0
141
5.0
290
     0
  0
SCALE
  5
4C
102
{ACAD_REACTORS
330
47
102
}
330
47
100
AcDbScale
 70
     0
300
1:8
140
1.0
141
8.0
290
     0
  0
SCALE
  5
4D
102
{ACAD_REACTORS
330
47
102
}
330
47
100
AcDbScale
 70
     0
300
1:10
140
1.0
141
10.0
290
     0
  0
SCALE
  5
4E
102
{ACAD_REACTORS
330
47
102
}
330
47
100
AcDbScale
 70
     0
300
1:16
140
1.0
141
16.0
290
     0
  0
SCALE
  5
4F
102
{ACAD_REACTORS
330
47
102
}
330
47
100
AcDbScale
 70
     0
300
1:20
140
1.0
141
20.0
290
     0
  0
SCALE
  5
50
102
{ACAD_REACTORS
330
47
102
}
330
47
100
AcDbScale
 70
     0
300
1:30
140
1.0
141
30.0
290
     0
  0
SCALE
  5
51
102
{ACAD_REACTORS
330
47
102
}
330
47
100
AcDbScale
 70
     0
300
1:40
140
1.0
141
40.0
290
     0
  0
SCALE
  5
52
102
{ACAD_REACTORS
330
47
102
}
330
47
100
AcDbScale
 70
     0
300
1:50
140
1.0
141
50.0
290
     0
  0
SCALE
  5
53
102
{ACAD_REACTORS
330
47
102
}
330
47
100
AcDbScale
 70
     0
300
1:100
140
1.0
141
100.0
290
     0
  0
SCALE
  5
54
102
{ACAD_REACTORS
330
47
102
}
330
47
100
AcDbScale
 70
     0
300
2:1
140
2.0
141
1.0
290
     0
  0
SCALE
  5
55
102
{ACAD_REACTORS
330
47
102
}
330
47
100
AcDbScale
 70
     0
300
4:1
140
4.0
141
1.0
290
     0
  0
SCALE
  5
56
102
{ACAD_REACTORS
330
47
102
}
330
47
100
AcDbScale
 70
     0
300
8:1
140
8.0
141
1.0
290
     0
  0
SCALE
  5
57
102
{ACAD_REACTORS
330
47
102
}
330
47
100
AcDbScale
 70
     0
300
10:1
140
10.0
141
1.0
290
     0
  0
SCALE
  5
58
102
{ACAD_REACTORS
330
47
102
}
330
47
100
AcDbScale
 70
     0
300
100:1
140
100.0
141
1.0
290
     0
  0
SCALE
  5
59
102
{ACAD_REACTORS
330
47
102
}
330
47
100
AcDbScale
 70
     0
300
1/128" = 1'-0"
140
0.0078125
141
12.0
290
     0
  0
SCALE
  5
5A
102
{ACAD_REACTORS
330
47
102
}
330
47
100
AcDbScale
 70
     0
300
1/64" = 1'-0"
140
0.015625
141
12.0
290
     0
  0
SCALE
  5
5B
102
{ACAD_REACTORS
330
47
102
}
330
47
100
AcDbScale
 70
     0
300
1/32" = 1'-0"
140
0.03125
141
12.0
290
     0
  0
SCALE
  5
5C
102
{ACAD_REACTORS
330
47
102
}
330
47
100
AcDbScale
 70
     0
300
1/16" = 1'-0"
140
0.0625
141
12.0
290
     0
  0
SCALE
  5
5D
102
{ACAD_REACTORS
330
47
102
}
330
47
100
AcDbScale
 70
     0
300
3/32" = 1'-0"
140
0.09375
141
12.0
290
     0
  0
SCALE
  5
5E
102
{ACAD_REACTORS
330
47
102
}
330
47
100
AcDbScale
 70
     0
300
1/8" = 1'-0"
140
0.125
141
12.0
290
     0
  0
SCALE
  5
5F
102
{ACAD_REACTORS
330
47
102
}
330
47
100
AcDbScale
 70
     0
300
3/16" = 1'-0"
140
0.1875
141
12.0
290
     0
  0
SCALE
  5
60
102
{ACAD_REACTORS
330
47
102
}
330
47
100
AcDbScale
 70
     0
300
1/4" = 1'-0"
140
0.25
141
12.0
290
     0
  0
SCALE
  5
61
102
{ACAD_REACTORS
330
47
102
}
330
47
100
AcDbScale
 70
     0
300
3/8" = 1'-0"
140
0.375
141
12.0
290
     0
  0
SCALE
  5
62
102
{ACAD_REACTORS
330
47
102
}
330
47
100
AcDbScale
 70
     0
300
1/2" = 1'-0"
140
0.5
141
12.0
290
     0
  0
SCALE
  5
63
102
{ACAD_REACTORS
330
47
102
}
330
47
100
AcDbScale
 70
     0
300
3/4" = 1'-0"
140
0.75
141
12.0
290
     0
  0
SCALE
  5
64
102
{ACAD_REACTORS
330
47
102
}
330
47
100
AcDbScale
 70
     0
300
1" = 1'-0"
140
1.0
141
12.0
290
     0
  0
SCALE
  5
65
102
{ACAD_REACTORS
330
47
102
}
330
47
100
AcDbScale
 70
     0
300
1-1/2" = 1'-0"
140
1.5
141
12.0
290
     0
  0
SCALE
  5
66
102
{ACAD_REACTORS
330
47
102
}
330
47
100
AcDbScale
 70
     0
300
3" = 1'-0"
140
3.0
141
12.0
290
     0
  0
SCALE
  5
67
102
{ACAD_REACTORS
330
47
102
}
330
47
100
AcDbScale
 70
     0
300
6" = 1'-0"
140
6.0
141
12.0
290
     0
  0
SCALE
  5
68
102
{ACAD_REACTORS
330
47
102
}
330
47
100
AcDbScale
 70
     0
300
1'-0" = 1'-0"
140
12.0
141
12.0
290
     0
  0
ENDSEC
  0
EOF
