  0
SECTION
  2
HEADER
  9
$ACADVER
  1
AC1015
  9
$ACADMAINTVER
 70
     6
  9
$DWGCODEPAGE
  3
ANSI_949
  9
$INSBASE
 10
0.0
 20
0.0
 30
0.0
  9
$EXTMIN
 10
-66.15244100233336
 20
-49.75070660587842
 30
0.0
  9
$EXTMAX
 10
101.1730027901686
 20
55.52659118867697
 30
0.0
  9
$LIMMIN
 10
0.0
 20
0.0
  9
$LIMMAX
 10
420.0
 20
297.0
  9
$ORTHOMODE
 70
     1
  9
$REGENMODE
 70
     1
  9
$FILLMODE
 70
     1
  9
$QTEXTMODE
 70
     0
  9
$MIRRTEXT
 70
     1
  9
$LTSCALE
 40
1.0
  9
$ATTMODE
 70
     1
  9
$TEXTSIZE
 40
3.5
  9
$TRACEWID
 40
1.0
  9
$TEXTSTYLE
  7
Standard
  9
$CLAYER
  8
0
  9
$CELTYPE
  6
ByLayer
  9
$CECOLOR
 62
   256
  9
$CELTSCALE
 40
1.0
  9
$DISPSILH
 70
     0
  9
$DIMSCALE
 40
1.0
  9
$DIMASZ
 40
3.302
  9
$DIMEXO
 40
1.0
  9
$DIMDLI
 40
3.75
  9
$DIMRND
 40
0.0
  9
$DIMDLE
 40
0.0
  9
$DIMEXE
 40
1.0
  9
$DIMTP
 40
0.0
  9
$DIMTM
 40
0.0
  9
$DIMTXT
 40
3.5
  9
$DIMCEN
 40
2.5
  9
$DIMTSZ
 40
0.0
  9
$DIMTOL
 70
     0
  9
$DIMLIM
 70
     0
  9
$DIMTIH
 70
     1
  9
$DIMTOH
 70
     1
  9
$DIMSE1
 70
     0
  9
$DIMSE2
 70
     0
  9
$DIMTAD
 70
     1
  9
$DIMZIN
 70
     0
  9
$DIMBLK
  1

  9
$DIMASO
 70
     1
  9
$DIMSHO
 70
     1
  9
$DIMPOST
  1

  9
$DIMAPOST
  1

  9
$DIMALT
 70
     0
  9
$DIMALTD
 70
     3
  9
$DIMALTF
 40
0.0393700787401575
  9
$DIMLFAC
 40
1.0
  9
$DIMTOFL
 70
     1
  9
$DIMTVP
 40
0.0
  9
$DIMTIX
 70
     0
  9
$DIMSOXD
 70
     0
  9
$DIMSAH
 70
     0
  9
$DIMBLK1
  1

  9
$DIMBLK2
  1

  9
$DIMSTYLE
  2
ISO-25
  9
$DIMCLRD
 70
     0
  9
$DIMCLRE
 70
     0
  9
$DIMCLRT
 70
     0
  9
$DIMTFAC
 40
1.0
  9
$DIMGAP
 40
1.524
  9
$DIMJUST
 70
     0
  9
$DIMSD1
 70
     0
  9
$DIMSD2
 70
     0
  9
$DIMTOLJ
 70
     0
  9
$DIMTZIN
 70
     0
  9
$DIMALTZ
 70
     0
  9
$DIMALTTZ
 70
     0
  9
$DIMUPT
 70
     0
  9
$DIMDEC
 70
     2
  9
$DIMTDEC
 70
     2
  9
$DIMALTU
 70
     2
  9
$DIMALTTD
 70
     3
  9
$DIMTXSTY
  7
Standard
  9
$DIMAUNIT
 70
     0
  9
$DIMADEC
 70
     2
  9
$DIMALTRND
 40
0.0
  9
$DIMAZIN
 70
     0
  9
$DIMDSEP
 70
    44
  9
$DIMATFIT
 70
     3
  9
$DIMFRAC
 70
     0
  9
$DIMLDRBLK
  1

  9
$DIMLUNIT
 70
     2
  9
$DIMLWD
 70
    -2
  9
$DIMLWE
 70
    -2
  9
$DIMTMOVE
 70
     0
  9
$LUNITS
 70
     2
  9
$LUPREC
 70
     2
  9
$SKETCHINC
 40
1.0
  9
$FILLETRAD
 40
0.889
  9
$AUNITS
 70
     0
  9
$AUPREC
 70
     2
  9
$MENU
  1
.
  9
$ELEVATION
 40
0.0
  9
$PELEVATION
 40
0.0
  9
$THICKNESS
 40
0.0
  9
$LIMCHECK
 70
     0
  9
$CHAMFERA
 40
0.0
  9
$CHAMFERB
 40
0.0
  9
$CHAMFERC
 40
0.0
  9
$CHAMFERD
 40
0.0
  9
$SKPOLY
 70
     0
  9
$TDCREATE
 40
2458290.67831713
  9
$TDUCREATE
 40
2458290.30331713
  9
$TDUPDATE
 40
2458299.766837894
  9
$TDUUPDATE
 40
2458299.391837894
  9
$TDINDWG
 40
0.002686875
  9
$TDUSRTIMER
 40
0.0000259606
  9
$USRTIMER
 70
     1
  9
$ANGBASE
 50
0.0
  9
$ANGDIR
 70
     0
  9
$PDMODE
 70
     0
  9
$PDSIZE
 40
-1.0
  9
$PLINEWID
 40
0.0
  9
$SPLFRAME
 70
     0
  9
$SPLINETYPE
 70
     6
  9
$SPLINESEGS
 70
     8
  9
$HANDSEED
  5
218
  9
$SURFTAB1
 70
     6
  9
$SURFTAB2
 70
     6
  9
$SURFTYPE
 70
     6
  9
$SURFU
 70
     6
  9
$SURFV
 70
     6
  9
$UCSBASE
  2

  9
$UCSNAME
  2

  9
$UCSORG
 10
0.0
 20
0.0
 30
0.0
  9
$UCSXDIR
 10
1.0
 20
0.0
 30
0.0
  9
$UCSYDIR
 10
0.0
 20
1.0
 30
0.0
  9
$UCSORTHOREF
  2

  9
$UCSORTHOVIEW
 70
     0
  9
$UCSORGTOP
 10
0.0
 20
0.0
 30
0.0
  9
$UCSORGBOTTOM
 10
0.0
 20
0.0
 30
0.0
  9
$UCSORGLEFT
 10
0.0
 20
0.0
 30
0.0
  9
$UCSORGRIGHT
 10
0.0
 20
0.0
 30
0.0
  9
$UCSORGFRONT
 10
0.0
 20
0.0
 30
0.0
  9
$UCSORGBACK
 10
0.0
 20
0.0
 30
0.0
  9
$PUCSBASE
  2

  9
$PUCSNAME
  2

  9
$PUCSORG
 10
0.0
 20
0.0
 30
0.0
  9
$PUCSXDIR
 10
1.0
 20
0.0
 30
0.0
  9
$PUCSYDIR
 10
0.0
 20
1.0
 30
0.0
  9
$PUCSORTHOREF
  2

  9
$PUCSORTHOVIEW
 70
     0
  9
$PUCSORGTOP
 10
0.0
 20
0.0
 30
0.0
  9
$PUCSORGBOTTOM
 10
0.0
 20
0.0
 30
0.0
  9
$PUCSORGLEFT
 10
0.0
 20
0.0
 30
0.0
  9
$PUCSORGRIGHT
 10
0.0
 20
0.0
 30
0.0
  9
$PUCSORGFRONT
 10
0.0
 20
0.0
 30
0.0
  9
$PUCSORGBACK
 10
0.0
 20
0.0
 30
0.0
  9
$USERI1
 70
     0
  9
$USERI2
 70
     0
  9
$USERI3
 70
     0
  9
$USERI4
 70
     0
  9
$USERI5
 70
     0
  9
$USERR1
 40
0.0
  9
$USERR2
 40
0.0
  9
$USERR3
 40
0.0
  9
$USERR4
 40
0.0
  9
$USERR5
 40
0.0
  9
$WORLDVIEW
 70
     1
  9
$SHADEDGE
 70
     3
  9
$SHADEDIF
 70
    70
  9
$TILEMODE
 70
     1
  9
$MAXACTVP
 70
    64
  9
$PINSBASE
 10
0.0
 20
0.0
 30
0.0
  9
$PLIMCHECK
 70
     0
  9
$PEXTMIN
 10
1.000000000000000E+20
 20
1.000000000000000E+20
 30
1.000000000000000E+20
  9
$PEXTMAX
 10
-1.000000000000000E+20
 20
-1.000000000000000E+20
 30
-1.000000000000000E+20
  9
$PLIMMIN
 10
0.0
 20
0.0
  9
$PLIMMAX
 10
0.0
 20
0.0
  9
$UNITMODE
 70
     0
  9
$VISRETAIN
 70
     1
  9
$PLINEGEN
 70
     0
  9
$PSLTSCALE
 70
     1
  9
$TREEDEPTH
 70
  3020
  9
$CMLSTYLE
  2
Standard
  9
$CMLJUST
 70
     0
  9
$CMLSCALE
 40
20.0
  9
$PROXYGRAPHICS
 70
     1
  9
$MEASUREMENT
 70
     1
  9
$CELWEIGHT
370
    -1
  9
$ENDCAPS
280
     0
  9
$JOINSTYLE
280
     0
  9
$LWDISPLAY
290
     1
  9
$INSUNITS
 70
     4
  9
$HYPERLINKBASE
  1

  9
$STYLESHEET
  1

  9
$XEDIT
290
     1
  9
$CEPSNTYPE
380
     0
  9
$PSTYLEMODE
290
     1
  9
$FINGERPRINTGUID
  2
{A44739BA-DEDF-410E-87A2-CCE5B581F808}
  9
$VERSIONGUID
  2
{FAEB1C32-E019-11D5-929B-00C0DF256EC4}
  9
$EXTNAMES
290
     1
  9
$PSVPSCALE
 40
0.0
  9
$OLESTARTUP
290
     0
  0
ENDSEC
  0
SECTION
  2
CLASSES
  0
CLASS
  1
ACDBDICTIONARYWDFLT
  2
AcDbDictionaryWithDefault
  3
ObjectDBX Classes
 90
        0
280
     0
281
     0
  0
CLASS
  1
VISUALSTYLE
  2
AcDbVisualStyle
  3
ObjectDBX Classes
 90
     4095
280
     0
281
     0
  0
CLASS
  1
MATERIAL
  2
AcDbMaterial
  3
ObjectDBX Classes
 90
     1153
280
     0
281
     0
  0
CLASS
  1
SCALE
  2
AcDbScale
  3
ObjectDBX Classes
 90
     1153
280
     0
281
     0
  0
CLASS
  1
SUN
  2
AcDbSun
  3
SCENEOE
 90
     1153
280
     0
281
     0
  0
CLASS
  1
ACDBPLACEHOLDER
  2
AcDbPlaceHolder
  3
ObjectDBX Classes
 90
        0
280
     0
281
     0
  0
CLASS
  1
LAYOUT
  2
AcDbLayout
  3
ObjectDBX Classes
 90
        0
280
     0
281
     0
  0
CLASS
  1
TABLESTYLE
  2
AcDbTableStyle
  3
ObjectDBX Classes
 90
     4095
280
     0
281
     0
  0
CLASS
  1
MLEADERSTYLE
  2
AcDbMLeaderStyle
  3
ACDB_MLEADERSTYLE_CLASS
 90
     4095
280
     0
281
     0
  0
CLASS
  1
DICTIONARYVAR
  2
AcDbDictionaryVar
  3
ObjectDBX Classes
 90
        0
280
     0
281
     0
  0
ENDSEC
  0
SECTION
  2
TABLES
  0
TABLE
  2
VPORT
  5
8
330
0
100
AcDbSymbolTable
 70
     1
  0
VPORT
  5
29
330
8
100
AcDbSymbolTableRecord
100
AcDbViewportTableRecord
  2
*Active
 70
     0
 10
0.0
 20
0.0
 11
1.0
 21
1.0
 12
17.51028089391762
 22
2.88794229139927
 13
0.0
 23
0.0
 14
10.0
 24
10.0
 15
10.0
 25
10.0
 16
0.0
 26
0.0
 36
1.0
 17
0.0
 27
0.0
 37
0.0
 40
107.3828437504465
 41
2.148876404494382
 42
50.0
 43
0.0
 44
0.0
 50
0.0
 51
0.0
 71
    16
 72
  2000
 73
     1
 74
     3
 75
     0
 76
     0
 77
     0
 78
     0
281
     0
 65
     1
110
0.0
120
0.0
130
0.0
111
1.0
121
0.0
131
0.0
112
0.0
122
1.0
132
0.0
 79
     0
146
0.0
  0
ENDTAB
  0
TABLE
  2
LTYPE
  5
5
330
0
100
AcDbSymbolTable
 70
     6
  0
LTYPE
  5
14
330
5
100
AcDbSymbolTableRecord
100
AcDbLinetypeTableRecord
  2
ByBlock
 70
     0
  3

 72
    65
 73
     0
 40
0.0
  0
LTYPE
  5
15
330
5
100
AcDbSymbolTableRecord
100
AcDbLinetypeTableRecord
  2
ByLayer
 70
     0
  3

 72
    65
 73
     0
 40
0.0
  0
LTYPE
  5
16
330
5
100
AcDbSymbolTableRecord
100
AcDbLinetypeTableRecord
  2
Continuous
 70
     0
  3
Solid line
 72
    65
 73
     0
 40
0.0
  0
LTYPE
  5
6A
330
5
100
AcDbSymbolTableRecord
100
AcDbLinetypeTableRecord
  2
HIDDEN
 70
     0
  3
Hidden __ __ __ __ __ __ __ __ __ __ __ __ __ __
 72
    65
 73
     2
 40
1.905
 49
1.27
 74
     0
 49
-0.635
 74
     0
  0
LTYPE
  5
6B
330
5
100
AcDbSymbolTableRecord
100
AcDbLinetypeTableRecord
  2
PHANTOM
 70
     0
  3
Phantom ______  __  __  ______  __  __  ______
 72
    65
 73
     6
 40
12.7
 49
6.35
 74
     0
 49
-1.27
 74
     0
 49
1.27
 74
     0
 49
-1.27
 74
     0
 49
1.27
 74
     0
 49
-1.27
 74
     0
  0
LTYPE
  5
6C
330
5
100
AcDbSymbolTableRecord
100
AcDbLinetypeTableRecord
  2
CENTER
 70
     0
  3
Center ____ _ ____ _ ____ _ ____ _ ____ _ ____
 72
    65
 73
     4
 40
10.16
 49
6.35
 74
     0
 49
-1.27
 74
     0
 49
1.27
 74
     0
 49
-1.27
 74
     0
  0
LTYPE
  5
6D
330
5
100
AcDbSymbolTableRecord
100
AcDbLinetypeTableRecord
  2
CENTERX2
 70
     0
  3
Center (2x) ________  __  ________  __  _____
 72
    65
 73
     4
 40
20.32
 49
12.7
 74
     0
 49
-2.54
 74
     0
 49
2.54
 74
     0
 49
-2.54
 74
     0
  0
LTYPE
  5
6E
330
5
100
AcDbSymbolTableRecord
100
AcDbLinetypeTableRecord
  2
DOT2
 70
     0
  3
Dot (.5x) ........................................
 72
    65
 73
     2
 40
0.635
 49
0.0
 74
     0
 49
-0.635
 74
     0
  0
ENDTAB
  0
TABLE
  2
LAYER
  5
2
102
{ACAD_XDICTIONARY
360
1E5
102
}
330
0
100
AcDbSymbolTable
 70
    18
  0
LAYER
  5
10
330
2
100
AcDbSymbolTableRecord
100
AcDbLayerTableRecord
  2
0
 70
     0
 62
     7
  6
Continuous
370
    -3
390
F
  0
LAYER
  5
6F
330
2
100
AcDbSymbolTableRecord
100
AcDbLayerTableRecord
  2
FORMAT
 70
     0
 62
     2
  6
Continuous
370
    -3
390
F
  0
LAYER
  5
70
330
2
100
AcDbSymbolTableRecord
100
AcDbLayerTableRecord
  2
외형선
 70
     0
 62
     4
  6
Continuous
370
    30
390
F
  0
LAYER
  5
71
330
2
100
AcDbSymbolTableRecord
100
AcDbLayerTableRecord
  2
숨은선
 70
     0
 62
     2
  6
HIDDEN
370
    15
390
F
  0
LAYER
  5
72
330
2
100
AcDbSymbolTableRecord
100
AcDbLayerTableRecord
  2
중심선
 70
     0
 62
     1
  6
CENTERX2
370
    -3
390
F
  0
LAYER
  5
73
330
2
100
AcDbSymbolTableRecord
100
AcDbLayerTableRecord
  2
파단선
 70
     0
 62
     4
  6
Continuous
370
    -3
390
F
  0
LAYER
  5
74
330
2
100
AcDbSymbolTableRecord
100
AcDbLayerTableRecord
  2
해칭선
 70
     0
 62
   100
  6
Continuous
370
    -3
390
F
  0
LAYER
  5
75
330
2
100
AcDbSymbolTableRecord
100
AcDbLayerTableRecord
  2
가는실선
 70
     0
 62
     4
  6
Continuous
370
    -3
390
F
  0
LAYER
  5
76
330
2
100
AcDbSymbolTableRecord
100
AcDbLayerTableRecord
  2
치수_보조선
 70
     0
 62
     4
  6
Continuous
370
    -3
390
F
  0
LAYER
  5
77
330
2
100
AcDbSymbolTableRecord
100
AcDbLayerTableRecord
  2
치수문자_일반주서
 70
     0
 62
     7
  6
Continuous
370
    15
390
F
  0
LAYER
  5
78
330
2
100
AcDbSymbolTableRecord
100
AcDbLayerTableRecord
  2
개별주서
 70
     0
 62
   100
  6
Continuous
370
    30
390
F
  0
LAYER
  5
79
330
2
100
AcDbSymbolTableRecord
100
AcDbLayerTableRecord
  2
중간선
 70
     0
 62
     2
  6
Continuous
370
    15
390
F
  0
LAYER
  5
7A
330
2
100
AcDbSymbolTableRecord
100
AcDbLayerTableRecord
  2
윤곽선
 70
     0
 62
     3
  6
Continuous
370
    40
390
F
  0
LAYER
  5
7B
330
2
100
AcDbSymbolTableRecord
100
AcDbLayerTableRecord
  2
중심마크
 70
     0
 62
   100
  6
Continuous
370
    30
390
F
  0
LAYER
  5
7C
330
2
100
AcDbSymbolTableRecord
100
AcDbLayerTableRecord
  2
가상선
 70
     0
 62
     4
  6
PHANTOM
370
    -3
390
F
  0
LAYER
  5
7D
330
2
100
AcDbSymbolTableRecord
100
AcDbLayerTableRecord
  2
특수지정선
 70
     0
 62
     5
  6
CENTERX2
370
    60
390
F
  0
LAYER
  5
7E
330
2
100
AcDbSymbolTableRecord
100
AcDbLayerTableRecord
  2
참조1
 70
     0
 62
    -4
  6
Continuous
370
    -3
390
F
  0
LAYER
  5
158
330
2
100
AcDbSymbolTableRecord
100
AcDbLayerTableRecord
  2
Defpoints
 70
     0
 62
     7
  6
Continuous
290
     0
370
    -3
390
F
  0
ENDTAB
  0
TABLE
  2
STYLE
  5
3
330
0
100
AcDbSymbolTable
 70
     2
  0
STYLE
  5
11
330
3
100
AcDbSymbolTableRecord
100
AcDbTextStyleTableRecord
  2
Standard
 70
     0
 40
0.0
 41
1.0
 50
0.0
 71
     0
 42
3.5
  3
txt
  4

  0
STYLE
  5
94
330
3
100
AcDbSymbolTableRecord
100
AcDbTextStyleTableRecord
  2
SLDTEXTSTYLE0
 70
     0
 40
0.0
 41
0.75
 50
0.0
 71
     0
 42
3.5
  3
TXT
  4

  0
ENDTAB
  0
TABLE
  2
VIEW
  5
6
330
0
100
AcDbSymbolTable
 70
     0
  0
ENDTAB
  0
TABLE
  2
UCS
  5
7
330
0
100
AcDbSymbolTable
 70
     0
  0
ENDTAB
  0
TABLE
  2
APPID
  5
9
330
0
100
AcDbSymbolTable
 70
     4
  0
APPID
  5
12
330
9
100
AcDbSymbolTableRecord
100
AcDbRegAppTableRecord
  2
ACAD
 70
     0
  0
APPID
  5
197
330
9
100
AcDbSymbolTableRecord
100
AcDbRegAppTableRecord
  2
ACAD_DSTYLE_DIMFLIPARROW_SYMBOL
 70
     0
  0
APPID
  5
198
330
9
100
AcDbSymbolTableRecord
100
AcDbRegAppTableRecord
  2
ACAD_DSTYLE_DIMFLIPARROW_WHICH_SYMBOL
 70
     0
  0
APPID
  5
1F4
330
9
100
AcDbSymbolTableRecord
100
AcDbRegAppTableRecord
  2
PE_URL
 70
     0
  0
ENDTAB
  0
TABLE
  2
DIMSTYLE
  5
A
330
0
100
AcDbSymbolTable
 70
     4
100
AcDbDimStyleTable
  0
DIMSTYLE
105
27
102
{ACAD_REACTORS
330
193
102
}
330
A
100
AcDbSymbolTableRecord
100
AcDbDimStyleTableRecord
  2
ISO-25
 70
     0
 41
2.5
 42
0.625
 43
3.75
 44
1.25
 73
     0
 74
     0
 77
     1
 78
     8
140
2.5
141
2.5
143
0.03937007874016
147
0.625
171
     3
172
     1
178
     0
271
     2
272
     2
274
     3
278
    44
283
     0
284
     8
340
11
  0
DIMSTYLE
105
D1
102
{ACAD_REACTORS
330
D0
102
}
330
A
100
AcDbSymbolTableRecord
100
AcDbDimStyleTableRecord
  2
SLDDIMSTYLE0
 70
     0
 41
3.302
 44
0.0
 45
0.000000001
 73
     0
 74
     0
 77
     1
 78
     4
 79
     1
140
3.5
143
0.0393700787401575
147
0.875
148
0.000000001
170
     1
173
     1
178
     0
271
     2
272
     2
276
     2
284
    12
340
94
  0
DIMSTYLE
105
E5
102
{ACAD_REACTORS
330
E4
330
10D
102
}
330
A
100
AcDbSymbolTableRecord
100
AcDbDimStyleTableRecord
  2
SLDDIMSTYLE1
 70
     0
 41
3.302
 44
0.0
 45
0.000000001
 73
     0
 74
     0
 77
     1
 78
    12
 79
     3
140
3.5
143
0.0393700787401575
147
0.875
148
0.000000001
170
     1
172
     1
173
     1
178
     0
271
     2
272
     2
276
     2
284
    12
289
     0
340
94
  0
DIMSTYLE
105
FA
102
{ACAD_REACTORS
330
F9
102
}
330
A
100
AcDbSymbolTableRecord
100
AcDbDimStyleTableRecord
  2
SLDDIMSTYLE2
 70
     0
 41
3.302
 44
0.0
 45
0.000000001
 73
     0
 74
     0
 77
     1
 78
    12
 79
     3
140
3.5
143
0.0393700787401575
147
0.875
148
0.000000001
170
     1
173
     1
178
     0
271
     2
272
     2
276
     2
284
    12
340
94
  0
ENDTAB
  0
TABLE
  2
BLOCK_RECORD
  5
1
330
0
100
AcDbSymbolTable
 70
     7
  0
BLOCK_RECORD
  5
1F
330
1
100
AcDbSymbolTableRecord
100
AcDbBlockTableRecord
  2
*Model_Space
340
22
  0
BLOCK_RECORD
  5
1B
330
1
100
AcDbSymbolTableRecord
100
AcDbBlockTableRecord
  2
*Paper_Space
340
1E
  0
BLOCK_RECORD
  5
23
330
1
100
AcDbSymbolTableRecord
100
AcDbBlockTableRecord
  2
*Paper_Space0
340
26
  0
BLOCK_RECORD
  5
7F
330
1
100
AcDbSymbolTableRecord
100
AcDbBlockTableRecord
  2
블럭10
340
0
102
{BLKREFS
331
C9
102
}
  0
BLOCK_RECORD
  5
D2
330
1
100
AcDbSymbolTableRecord
100
AcDbBlockTableRecord
  2
_D
340
0
  0
BLOCK_RECORD
  5
E6
330
1
100
AcDbSymbolTableRecord
100
AcDbBlockTableRecord
  2
_D_1
340
0
  0
BLOCK_RECORD
  5
FB
330
1
100
AcDbSymbolTableRecord
100
AcDbBlockTableRecord
  2
_D_2
340
0
  0
BLOCK_RECORD
  5
10E
330
1
100
AcDbSymbolTableRecord
100
AcDbBlockTableRecord
  2
_D_3
340
0
  0
BLOCK_RECORD
  5
128
330
1
100
AcDbSymbolTableRecord
100
AcDbBlockTableRecord
  2
SW_DOWELSYMBOL_0
340
0
102
{BLKREFS
331
12E
102
}
  0
ENDTAB
  0
ENDSEC
  0
SECTION
  2
BLOCKS
  0
BLOCK
  5
20
330
1F
100
AcDbEntity
  8
0
100
AcDbBlockBegin
  2
*Model_Space
 70
     0
 10
0.0
 20
0.0
 30
0.0
  3
*Model_Space
  1

  0
ENDBLK
  5
21
330
1F
100
AcDbEntity
  8
0
100
AcDbBlockEnd
  0
BLOCK
  5
1C
330
1B
100
AcDbEntity
 67
     1
  8
0
100
AcDbBlockBegin
  2
*Paper_Space
 70
     0
 10
0.0
 20
0.0
 30
0.0
  3
*Paper_Space
  1

  0
ENDBLK
  5
1D
330
1B
100
AcDbEntity
 67
     1
  8
0
100
AcDbBlockEnd
  0
BLOCK
  5
24
330
23
100
AcDbEntity
  8
0
100
AcDbBlockBegin
  2
*Paper_Space0
 70
     0
 10
0.0
 20
0.0
 30
0.0
  3
*Paper_Space0
  1

  0
ENDBLK
  5
25
330
23
100
AcDbEntity
  8
0
100
AcDbBlockEnd
  0
BLOCK
  5
80
330
7F
100
AcDbEntity
  8
0
100
AcDbBlockBegin
  2
블럭10
 70
     2
 10
0.0
 20
0.0
 30
0.0
  3
블럭10
  1

  0
ELLIPSE
  5
82
330
7F
100
AcDbEntity
  8
중심선
100
AcDbEllipse
 10
20.54032771741204
 20
12.0471743016438
 30
0.0
 11
6.600054785286829
 21
-1.261213355974178E-13
 31
0.0
210
0.0
220
0.0
230
1.0
 40
0.636358354079598
 41
0.9219305317359503
 42
6.513795318482858
  0
ELLIPSE
  5
83
330
7F
100
AcDbEntity
  8
중심선
100
AcDbEllipse
 10
20.54032771746488
 20
12.04717430159265
 30
0.0
 11
3.960054785062283
 21
1.540847449632565E-10
 31
0.0
210
0.0
220
0.0
230
1.0
 40
0.3939339440162632
 41
1.131841032648279
 42
5.62031148352944
  0
LINE
  5
84
330
7F
100
AcDbEntity
  8
중심선
100
AcDbLine
 10
2.268634060543552
 20
16.24717430164393
 30
0.0
 11
5.714909304380834
 21
16.24717430164393
 31
0.0
  0
LINE
  5
85
330
7F
100
AcDbEntity
  8
중심선
100
AcDbLine
 10
5.245725140726316
 20
7.84717430164391
 30
0.0
 11
8.692000384563599
 21
7.84717430164391
 31
0.0
  0
LINE
  5
86
330
7F
100
AcDbEntity
  8
중심선
100
AcDbLine
 10
15.74043728645272
 20
16.24717430164393
 30
0.0
 11
8.692000384563599
 21
7.84717430164391
 31
0.0
  0
LINE
  5
87
330
7F
100
AcDbEntity
  8
중심선
100
AcDbLine
 10
0.1404042013395286
 20
13.71084872107135
 30
0.0
 11
3.58671253028996
 21
13.71088815037384
 31
0.0
  0
LINE
  5
88
330
7F
100
AcDbEntity
  8
중심선
100
AcDbLine
 10
2.750260043222114
 20
10.84717430164391
 30
0.0
 11
6.196535287059397
 21
10.84717430164391
 31
0.0
  0
LINE
  5
89
330
7F
100
AcDbEntity
  8
중심선
100
AcDbLine
 10
12.29416204261559
 20
16.24717430164393
 30
0.0
 11
5.245725140726316
 21
7.84717430164391
 31
0.0
  0
LINE
  5
8A
330
7F
100
AcDbEntity
  8
중심선
100
AcDbLine
 10
10.72767329541681
 20
16.24717430164393
 30
0.0
 11
6.196535287059397
 21
10.84717430164391
 31
0.0
  0
LINE
  5
8B
330
7F
100
AcDbEntity
  8
중심선
100
AcDbLine
 10
7.28139805157953
 20
16.24717430164393
 30
0.0
 11
2.750260043222114
 21
10.84717430164391
 31
0.0
  0
LINE
  5
8C
330
7F
100
AcDbEntity
  8
중심선
100
AcDbLine
 10
5.714909304380834
 20
16.24717430164393
 30
0.0
 11
3.58671253028996
 21
13.71088815037384
 31
0.0
  0
LINE
  5
8D
330
7F
100
AcDbEntity
  8
중심선
100
AcDbLine
 10
2.268634060543552
 20
16.24717430164393
 30
0.0
 11
0.1404042013395286
 21
13.71084872107135
 31
0.0
  0
LINE
  5
8E
330
7F
100
AcDbEntity
  8
중심선
100
AcDbLine
 10
7.28139805157953
 20
16.24717430164393
 30
0.0
 11
10.72767329541681
 21
16.24717430164393
 31
0.0
  0
LINE
  5
8F
330
7F
100
AcDbEntity
  8
중심선
100
AcDbLine
 10
12.29416204261559
 20
16.24717430164393
 30
0.0
 11
15.74043728645272
 21
16.24717430164393
 31
0.0
  0
LINE
  5
90
330
7F
100
AcDbEntity
  8
중심선
100
AcDbLine
 10
19.22036997980202
 20
11.08717430171403
 30
0.0
 11
23.66174974927406
 21
11.08717430171406
 31
0.0
  0
LINE
  5
91
330
7F
100
AcDbEntity
  8
중심선
100
AcDbLine
 10
19.22039502424796
 20
13.00717430171391
 30
0.0
 11
19.22036997980202
 21
11.08717430171403
 31
0.0
  0
LINE
  5
92
330
7F
100
AcDbEntity
  8
중심선
100
AcDbLine
 10
19.22039502424796
 20
13.00717430171391
 30
0.0
 11
26.96566020931264
 21
13.00717430171391
 31
0.0
  0
LINE
  5
93
330
7F
100
AcDbEntity
  8
중심선
100
AcDbLine
 10
22.22332737316547
 20
13.45928029700563
 30
0.0
 11
24.52862924686651
 21
15.39360700705356
 31
0.0
  0
ATTDEF
  5
95
330
7F
100
AcDbEntity
  8
FORMAT
 62
     2
100
AcDbText
 10
4.408487351596664
 20
2.075366912832191
 30
0.0
 40
4.233333333333333
  1
E5104048
 41
0.75
  7
SLDTEXTSTYLE0
 11
4.408487351596664
 21
-0.0412997538344756
 31
0.0
100
AcDbAttributeDefinition
  3

  2
AUTOATTR0
 70
     0
 74
     1
  0
ENDBLK
  5
81
330
7F
100
AcDbEntity
  8
0
100
AcDbBlockEnd
  0
BLOCK
  5
D3
330
D2
100
AcDbEntity
  8
0
100
AcDbBlockBegin
  2
_D
 70
     0
 10
0.0
 20
0.0
 30
0.0
  3
_D
  1

  0
LINE
  5
D5
330
D2
100
AcDbEntity
  8
치수문자_일반주서
 62
     0
370
    -2
100
AcDbLine
 10
-48.32499999999998
 20
9.58749999999999
 30
0.0
 11
-48.32499999999998
 21
51.15159118867697
 31
0.0
  0
LINE
  5
D6
330
D2
100
AcDbEntity
  8
치수문자_일반주서
 62
     0
370
    -2
100
AcDbLine
 10
53.27500000000001
 20
9.587500000000189
 30
0.0
 11
53.27500000000001
 21
51.15159118867697
 31
0.0
  0
LINE
  5
D7
330
D2
100
AcDbEntity
  8
치수문자_일반주서
 62
     0
370
    -2
100
AcDbLine
 10
-45.02299999999998
 20
51.15159118867697
 30
0.0
 11
49.97300000000001
 21
51.15159118867697
 31
0.0
  0
SOLID
  5
D8
330
D2
100
AcDbEntity
  8
치수문자_일반주서
 62
     0
100
AcDbTrace
 10
-45.02299999999998
 20
51.70192452201031
 30
0.0
 11
-45.02299999999998
 21
50.60125785534364
 31
0.0
 12
-48.32499999999998
 22
51.15159118867697
 32
0.0
 13
-48.32499999999998
 23
51.15159118867697
 33
0.0
  0
SOLID
  5
D9
330
D2
100
AcDbEntity
  8
치수문자_일반주서
 62
     0
100
AcDbTrace
 10
49.97300000000001
 20
50.60125785534364
 30
0.0
 11
49.97300000000001
 21
51.70192452201031
 31
0.0
 12
53.27500000000001
 22
51.15159118867697
 32
0.0
 13
53.27500000000001
 23
51.15159118867697
 33
0.0
  0
MTEXT
  5
DA
330
D2
100
AcDbEntity
  8
치수문자_일반주서
 62
     0
100
AcDbMText
 10
2.475000000000009
 20
55.52659118867697
 30
0.0
 40
3.5
 41
0.0
 71
     2
 72
     1
  1
\A1;101.60 [4]
  7
SLDTEXTSTYLE0
 73
     1
 44
1.0
  0
POINT
  5
DB
330
D2
100
AcDbEntity
  8
Defpoints
 62
     0
100
AcDbPoint
 10
-48.32499999999998
 20
9.52499999999999
 30
0.0
  0
POINT
  5
DC
330
D2
100
AcDbEntity
  8
Defpoints
 62
     0
100
AcDbPoint
 10
53.27500000000001
 20
9.525000000000189
 30
0.0
  0
POINT
  5
DD
330
D2
100
AcDbEntity
  8
Defpoints
 62
     0
100
AcDbPoint
 10
53.27500000000001
 20
51.15159118867697
 30
0.0
  0
ENDBLK
  5
D4
330
D2
100
AcDbEntity
  8
0
100
AcDbBlockEnd
  0
BLOCK
  5
E7
330
E6
100
AcDbEntity
  8
0
100
AcDbBlockBegin
  2
_D_1
 70
     0
 10
0.0
 20
0.0
 30
0.0
  3
_D_1
  1

  0
LINE
  5
E9
330
E6
100
AcDbEntity
  8
치수문자_일반주서
 62
     0
370
    -2
100
AcDbLine
 10
-48.38749999999998
 20
9.524999999999997
 30
0.0
 11
-61.77744100233325
 21
9.524999999999945
 31
0.0
  0
LINE
  5
EA
330
E6
100
AcDbEntity
  8
치수문자_일반주서
 62
     0
370
    -2
100
AcDbLine
 10
-48.37847789444523
 20
-9.525000000000013
 30
0.0
 11
-61.77744100233318
 21
-9.525000000000059
 31
0.0
  0
LINE
  5
EB
330
E6
100
AcDbEntity
  8
치수문자_일반주서
 62
     0
370
    -2
100
AcDbLine
 10
-61.77744100233325
 20
9.524999999999945
 30
0.0
 11
-61.77744100233337
 21
43.69149999999998
 31
0.0
  0
LINE
  5
EC
330
E6
100
AcDbEntity
  8
치수문자_일반주서
 62
     0
370
    -2
100
AcDbLine
 10
-61.77744100233325
 20
9.524999999999945
 30
0.0
 11
-61.77744100233318
 21
-9.525000000000059
 31
0.0
  0
LINE
  5
ED
330
E6
100
AcDbEntity
  8
치수문자_일반주서
 62
     0
370
    -2
100
AcDbLine
 10
-61.77744100233326
 20
12.82699999999994
 30
0.0
 11
-61.77744100233328
 21
16.12899999999994
 31
0.0
  0
LINE
  5
EE
330
E6
100
AcDbEntity
  8
치수문자_일반주서
 62
     0
370
    -2
100
AcDbLine
 10
-61.77744100233317
 20
-12.82700000000006
 30
0.0
 11
-61.77744100233316
 21
-16.12900000000006
 31
0.0
  0
SOLID
  5
EF
330
E6
100
AcDbEntity
  8
치수문자_일반주서
 62
     0
100
AcDbTrace
 10
-62.3277743356666
 20
12.82699999999994
 30
0.0
 11
-61.22710766899993
 21
12.82699999999995
 31
0.0
 12
-61.77744100233325
 22
9.524999999999945
 32
0.0
 13
-61.77744100233325
 23
9.524999999999945
 33
0.0
  0
SOLID
  5
F0
330
E6
100
AcDbEntity
  8
치수문자_일반주서
 62
     0
100
AcDbTrace
 10
-61.22710766899984
 20
-12.82700000000006
 30
0.0
 11
-62.3277743356665
 21
-12.82700000000006
 31
0.0
 12
-61.77744100233318
 22
-9.525000000000059
 32
0.0
 13
-61.77744100233318
 23
-9.525000000000059
 33
0.0
  0
MTEXT
  5
F1
330
E6
100
AcDbEntity
  8
치수문자_일반주서
 62
     0
100
AcDbMText
 10
-66.15244100233332
 20
29.91024999999996
 30
0.0
 40
3.5
 41
0.0
 71
     2
 72
     1
  1
\A1;%%c19.05 [3/4]
  7
SLDTEXTSTYLE0
 11
-3.356894814614645E-15
 21
1.0
 31
0.0
 73
     1
 44
1.0
  0
POINT
  5
15F
330
E6
100
AcDbEntity
  8
Defpoints
 62
     0
100
AcDbPoint
 10
-48.32499999999998
 20
9.524999999999997
 30
0.0
  0
POINT
  5
160
330
E6
100
AcDbEntity
  8
Defpoints
 62
     0
100
AcDbPoint
 10
-48.31597789444523
 20
-9.525000000000013
 30
0.0
  0
POINT
  5
161
330
E6
100
AcDbEntity
  8
Defpoints
 62
     0
100
AcDbPoint
 10
-61.77744100233318
 20
-9.525000000000063
 30
0.0
  0
ENDBLK
  5
E8
330
E6
100
AcDbEntity
  8
0
100
AcDbBlockEnd
  0
BLOCK
  5
FC
330
FB
100
AcDbEntity
  8
0
100
AcDbBlockBegin
  2
_D_2
 70
     0
 10
0.0
 20
0.0
 30
0.0
  3
_D_2
  1

  0
LINE
  5
FE
330
FB
100
AcDbEntity
  8
치수문자_일반주서
 62
     0
370
    -2
100
AcDbLine
 10
53.27500000000001
 20
9.587500000000189
 30
0.0
 11
53.27500000000001
 21
29.2579838661212
 31
0.0
  0
LINE
  5
FF
330
FB
100
AcDbEntity
  8
치수문자_일반주서
 62
     0
370
    -2
100
AcDbLine
 10
12.00000000000002
 20
9.587500000000043
 30
0.0
 11
12.00000000000002
 21
29.2579838661212
 31
0.0
  0
LINE
  5
100
330
FB
100
AcDbEntity
  8
치수문자_일반주서
 62
     0
370
    -2
100
AcDbLine
 10
12.00000000000002
 20
29.2579838661212
 30
0.0
 11
-26.36180694885081
 21
29.2579838661212
 31
0.0
  0
LINE
  5
101
330
FB
100
AcDbEntity
  8
치수문자_일반주서
 62
     0
370
    -2
100
AcDbLine
 10
53.27500000000001
 20
29.2579838661212
 30
0.0
 11
12.00000000000002
 21
29.2579838661212
 31
0.0
  0
LINE
  5
102
330
FB
100
AcDbEntity
  8
치수문자_일반주서
 62
     0
370
    -2
100
AcDbLine
 10
56.57700000000001
 20
29.2579838661212
 30
0.0
 11
59.879
 21
29.2579838661212
 31
0.0
  0
LINE
  5
103
330
FB
100
AcDbEntity
  8
치수문자_일반주서
 62
     0
370
    -2
100
AcDbLine
 10
8.69800000000002
 20
29.2579838661212
 30
0.0
 11
5.39600000000002
 21
29.2579838661212
 31
0.0
  0
SOLID
  5
104
330
FB
100
AcDbEntity
  8
치수문자_일반주서
 62
     0
100
AcDbTrace
 10
56.57700000000001
 20
29.80831719945454
 30
0.0
 11
56.57700000000001
 21
28.70765053278787
 31
0.0
 12
53.27500000000001
 22
29.2579838661212
 32
0.0
 13
53.27500000000001
 23
29.2579838661212
 33
0.0
  0
SOLID
  5
105
330
FB
100
AcDbEntity
  8
치수문자_일반주서
 62
     0
100
AcDbTrace
 10
8.69800000000002
 20
28.70765053278787
 30
0.0
 11
8.69800000000002
 21
29.80831719945454
 31
0.0
 12
12.00000000000002
 22
29.2579838661212
 32
0.0
 13
12.00000000000002
 23
29.2579838661212
 33
0.0
  0
MTEXT
  5
106
330
FB
100
AcDbEntity
  8
치수문자_일반주서
 62
     0
100
AcDbMText
 10
-11.48680694885081
 20
33.6329838661212
 30
0.0
 40
3.5
 41
0.0
 71
     2
 72
     1
  1
\A1;41.28 [1 5/8]
  7
SLDTEXTSTYLE0
 73
     1
 44
1.0
  0
POINT
  5
162
330
FB
100
AcDbEntity
  8
Defpoints
 62
     0
100
AcDbPoint
 10
53.27500000000001
 20
9.525000000000189
 30
0.0
  0
POINT
  5
163
330
FB
100
AcDbEntity
  8
Defpoints
 62
     0
100
AcDbPoint
 10
12.00000000000002
 20
9.525000000000043
 30
0.0
  0
POINT
  5
164
330
FB
100
AcDbEntity
  8
Defpoints
 62
     0
100
AcDbPoint
 10
12.00000000000002
 20
29.2579838661212
 30
0.0
  0
ENDBLK
  5
FD
330
FB
100
AcDbEntity
  8
0
100
AcDbBlockEnd
  0
BLOCK
  5
10F
330
10E
100
AcDbEntity
  8
0
100
AcDbBlockBegin
  2
_D_3
 70
     0
 10
0.0
 20
0.0
 30
0.0
  3
_D_3
  1

  0
LINE
  5
111
330
10E
100
AcDbEntity
  8
치수문자_일반주서
 62
     0
370
    -2
100
AcDbLine
 10
53.33750000000001
 20
9.525000000000189
 30
0.0
 11
68.275
 21
9.52500000000024
 31
0.0
  0
LINE
  5
112
330
10E
100
AcDbEntity
  8
치수문자_일반주서
 62
     0
370
    -2
100
AcDbLine
 10
53.34527854451976
 20
-9.524999999999832
 30
0.0
 11
68.27500000000008
 21
-9.524999999999775
 31
0.0
  0
LINE
  5
113
330
10E
100
AcDbEntity
  8
치수문자_일반주서
 62
     0
370
    -2
100
AcDbLine
 10
68.275
 20
9.52500000000024
 30
0.0
 11
68.27499999999988
 21
43.69150000000025
 31
0.0
  0
LINE
  5
114
330
10E
100
AcDbEntity
  8
치수문자_일반주서
 62
     0
370
    -2
100
AcDbLine
 10
68.275
 20
9.52500000000024
 30
0.0
 11
68.27500000000008
 21
-9.524999999999775
 31
0.0
  0
LINE
  5
115
330
10E
100
AcDbEntity
  8
치수문자_일반주서
 62
     0
370
    -2
100
AcDbLine
 10
68.27499999999999
 20
12.82700000000024
 30
0.0
 11
68.27499999999998
 21
16.12900000000024
 31
0.0
  0
LINE
  5
116
330
10E
100
AcDbEntity
  8
치수문자_일반주서
 62
     0
370
    -2
100
AcDbLine
 10
68.27500000000009
 20
-12.82699999999977
 30
0.0
 11
68.2750000000001
 21
-16.12899999999977
 31
0.0
  0
SOLID
  5
117
330
10E
100
AcDbEntity
  8
치수문자_일반주서
 62
     0
100
AcDbTrace
 10
67.72466666666666
 20
12.82700000000024
 30
0.0
 11
68.82533333333332
 21
12.82700000000024
 31
0.0
 12
68.275
 22
9.52500000000024
 32
0.0
 13
68.275
 23
9.52500000000024
 33
0.0
  0
SOLID
  5
118
330
10E
100
AcDbEntity
  8
치수문자_일반주서
 62
     0
100
AcDbTrace
 10
68.82533333333342
 20
-12.82699999999977
 30
0.0
 11
67.72466666666676
 21
-12.82699999999978
 31
0.0
 12
68.27500000000008
 22
-9.524999999999775
 32
0.0
 13
68.27500000000008
 23
-9.524999999999775
 33
0.0
  0
MTEXT
  5
119
330
10E
100
AcDbEntity
  8
치수문자_일반주서
 62
     0
100
AcDbMText
 10
63.89999999999993
 20
29.91025000000023
 30
0.0
 40
3.5
 41
0.0
 71
     2
 72
     1
  1
\A1;%%c19.05 [3/4]
  7
SLDTEXTSTYLE0
 11
-3.729883127349603E-15
 21
1.0
 31
0.0
 73
     1
 44
1.0
  0
POINT
  5
15C
330
10E
100
AcDbEntity
  8
Defpoints
 62
     0
100
AcDbPoint
 10
53.27500000000001
 20
9.525000000000189
 30
0.0
  0
POINT
  5
15D
330
10E
100
AcDbEntity
  8
Defpoints
 62
     0
100
AcDbPoint
 10
53.28277854451976
 20
-9.524999999999832
 30
0.0
  0
POINT
  5
15E
330
10E
100
AcDbEntity
  8
Defpoints
 62
     0
100
AcDbPoint
 10
68.27500000000008
 20
-9.524999999999775
 30
0.0
  0
ENDBLK
  5
110
330
10E
100
AcDbEntity
  8
0
100
AcDbBlockEnd
  0
BLOCK
  5
129
330
128
100
AcDbEntity
  8
0
100
AcDbBlockBegin
  2
SW_DOWELSYMBOL_0
 70
     0
 10
0.0
 20
0.0
 30
0.0
  3
SW_DOWELSYMBOL_0
  1

  0
CIRCLE
  5
12B
330
128
100
AcDbEntity
  8
해칭선
 62
     0
100
AcDbCircle
 10
0.0
 20
0.0
 30
0.0
 40
3.000000000000002
  0
HATCH
  5
12C
330
128
100
AcDbEntity
  8
0
  6
Continuous
 62
     0
370
     0
100
AcDbHatch
 10
0.0
 20
0.0
 30
0.0
210
0.0
220
0.0
230
1.0
  2
SOLID
 70
     1
 71
     0
 91
        1
 92
        0
 93
        3
 72
     2
 10
0.0000000000000069
 20
0.0
 40
3.000000000000002
 50
0.0
 51
90.0
 73
     1
 72
     1
 10
0.0000000000000069
 20
3.000000000000002
 11
0.0000000000000069
 21
0.0
 72
     1
 10
0.0000000000000069
 20
0.0
 11
3.000000000000009
 21
0.0
 97
        0
 75
     0
 76
     1
 98
        1
 10
0.0
 20
0.0
  0
HATCH
  5
12D
330
128
100
AcDbEntity
  8
0
  6
Continuous
 62
     0
370
     0
100
AcDbHatch
 10
0.0
 20
0.0
 30
0.0
210
0.0
220
0.0
230
1.0
  2
SOLID
 70
     1
 71
     0
 91
        1
 92
        0
 93
        3
 72
     2
 10
0.0000000000000069
 20
0.0
 40
3.000000000000002
 50
180.0
 51
270.0000000000007
 73
     1
 72
     1
 10
0.0000000000000069
 20
-3.000000000000002
 11
0.0000000000000069
 21
0.0
 72
     1
 10
0.0000000000000069
 20
0.0
 11
-2.999999999999995
 21
0.0
 97
        0
 75
     0
 76
     1
 98
        1
 10
0.0
 20
0.0
  0
ENDBLK
  5
12A
330
128
100
AcDbEntity
  8
0
100
AcDbBlockEnd
  0
ENDSEC
  0
SECTION
  2
ENTITIES
  0
LINE
  5
96
330
1F
100
AcDbEntity
  8
외형선
  6
Continuous
370
    15
100
AcDbLine
 10
-30.2243250000001
 20
9.525000000000016
 30
0.0
 11
-47.82499999999998
 21
9.524999999999997
 31
0.0
1001
PE_URL
1000

  0
LINE
  5
97
330
1F
100
AcDbEntity
  8
외형선
  6
Continuous
370
    15
100
AcDbLine
 10
-47.82499999999998
 20
-9.525000000000006
 30
0.0
 11
11.11794544706146
 21
-9.525000000000006
 31
0.0
  0
LINE
  5
98
330
1F
100
AcDbEntity
  8
외형선
  6
Continuous
370
    15
100
AcDbLine
 10
-47.82499999999998
 20
9.524999999999993
 30
0.0
 11
-48.32499999999998
 21
9.024999999999991
 31
0.0
  0
LINE
  5
99
330
1F
100
AcDbEntity
  8
외형선
  6
Continuous
370
    15
100
AcDbLine
 10
-48.32499999999998
 20
-9.025
 30
0.0
 11
-47.82499999999998
 21
-9.525000000000002
 31
0.0
  0
LINE
  5
9A
330
1F
100
AcDbEntity
  8
외형선
  6
Continuous
 62
     1
370
    15
100
AcDbLine
 10
19.54776487324617
 20
9.524999999999995
 30
0.0
 11
17.68738755257526
 21
9.524999999999995
 31
0.0
  0
LINE
  5
9B
330
1F
100
AcDbEntity
  8
외형선
  6
Continuous
 62
     1
370
    15
100
AcDbLine
 10
34.96502002213163
 20
-9.525000000000004
 30
0.0
 11
36.82422226670975
 21
-9.525000000000004
 31
0.0
  0
SPLINE
  5
9E
330
1F
100
AcDbEntity
  8
외형선
  6
Continuous
370
    15
100
AcDbSpline
210
0.0
220
0.0
230
1.0
 70
     8
 71
     3
 72
    10
 73
     6
 74
     0
 42
0.000000001
 43
0.00000001
 40
0.0
 40
0.0
 40
0.0
 40
0.0
 40
0.5
 40
0.5
 40
1.0
 40
1.0
 40
1.0
 40
1.0
 10
12.00000000000002
 20
-9.511377502199993
 30
0.0
 10
11.49059194423222
 20
-9.527079443568388
 30
0.0
 10
10.98231834512051
 20
-9.529192759820232
 30
0.0
 10
9.969017842411784
 20
-9.506369605555651
 30
0.0
 10
9.459362199319223
 20
-9.481382036480229
 30
0.0
 10
8.949954557147482
 20
-9.442905100795146
 30
0.0
  0
SPLINE
  5
9F
330
1F
100
AcDbEntity
  8
외형선
  6
Continuous
370
    15
100
AcDbSpline
210
0.0
220
0.0
230
1.0
 70
     8
 71
     3
 72
    10
 73
     6
 74
     0
 42
0.000000001
 43
0.00000001
 40
0.0
 40
0.0
 40
0.0
 40
0.0
 40
0.5
 40
0.5
 40
1.0
 40
1.0
 40
1.0
 40
1.0
 10
12.00000000000002
 20
-1.694165781106429
 30
0.0
 10
11.49059194423222
 20
-1.405152951791841
 30
0.0
 10
10.98231834512051
 20
-1.113937941755755
 30
0.0
 10
9.969017842411784
 20
-0.5297942396655648
 30
0.0
 10
9.459362199319223
 20
-0.2359753662505174
 30
0.0
 10
8.949954557147482
 20
0.057715011531537
 30
0.0
  0
SPLINE
  5
A0
330
1F
100
AcDbEntity
  8
외형선
  6
Continuous
370
    15
100
AcDbSpline
210
0.0
220
0.0
230
1.0
 70
    24
 71
     3
 72
    24
 73
    20
 74
     0
 42
0.000000001
 43
0.00000001
 40
0.0
 40
0.0
 40
0.0
 40
0.0
 40
0.0477706237714223
 40
0.1021202293434533
 40
0.1658891288240996
 40
0.2301007868484776
 40
0.2957088808291722
 40
0.3617995037927162
 40
0.4255684032733622
 40
0.4897800612977399
 40
0.5553881552784381
 40
0.621478778241978
 40
0.6852476777226241
 40
0.7494593357470022
 40
0.8150674297276969
 40
0.8811580526912405
 40
0.940396275111193
 40
0.9701758048690114
 40
1.0
 40
1.0
 40
1.0
 40
1.0
 10
12.00000000000002
 20
-1.723968482026607
 30
0.0
 10
12.00000000000002
 20
-1.744782014270948
 30
0.0
 10
12.00000000000002
 20
-1.789275523428581
 30
0.0
 10
12.00000000000002
 20
-1.922198279384528
 30
0.0
 10
12.00000000000002
 20
-2.119608322864659
 30
0.0
 10
12.00000000000002
 20
-2.394021857998607
 30
0.0
 10
12.00000000000002
 20
-2.734337205785689
 30
0.0
 10
12.00000000000002
 20
-3.135318383357379
 30
0.0
 10
12.00000000000002
 20
-3.590533128652954
 30
0.0
 10
12.00000000000002
 20
-4.097677932352807
 30
0.0
 10
12.00000000000002
 20
-4.661760782838765
 30
0.0
 10
12.00000000000002
 20
-5.27194871657689
 30
0.0
 10
12.00000000000002
 20
-5.919742891771975
 30
0.0
 10
12.00000000000002
 20
-6.602758614829312
 30
0.0
 10
12.00000000000002
 20
-7.326935675810168
 30
0.0
 10
12.00000000000002
 20
-8.060123474678587
 30
0.0
 10
12.00000000000002
 20
-8.672895007239477
 30
0.0
 10
12.00000000000002
 20
-9.14919780609705
 30
0.0
 10
12.00000000000002
 20
-9.390590639141287
 30
0.0
 10
12.00000000000002
 20
-9.5113775022
 30
0.0
  0
SPLINE
  5
A1
330
1F
100
AcDbEntity
  8
외형선
  6
Continuous
370
    15
100
AcDbSpline
210
0.0
220
0.0
230
1.0
 70
     8
 71
     3
 72
    10
 73
     6
 74
     0
 42
0.000000001
 43
0.00000001
 40
0.0
 40
0.0
 40
0.0
 40
0.0
 40
0.5
 40
0.5
 40
1.0
 40
1.0
 40
1.0
 40
1.0
 10
12.00000000000002
 20
8.964445176394335
 30
0.0
 10
11.49059194423222
 20
8.8651784247412
 30
0.0
 10
10.98231834512051
 20
8.753189735926235
 30
0.0
 10
9.969017842411784
 20
8.504931505724937
 30
0.0
 10
9.459362199319223
 20
8.368269397928422
 30
0.0
 10
8.949954557147482
 20
8.219883033436721
 30
0.0
  0
LINE
  5
A2
330
1F
100
AcDbEntity
  8
외형선
  6
Continuous
370
    15
100
AcDbLine
 10
8.949954557147482
 20
9.524999999999997
 30
0.0
 11
8.949954557147482
 21
5.802136212694642
 31
0.0
  0
SPLINE
  5
A3
330
1F
100
AcDbEntity
  8
외형선
  6
Continuous
370
    15
100
AcDbSpline
210
0.0
220
0.0
230
1.0
 70
     8
 71
     3
 72
    10
 73
     6
 74
     0
 42
0.000000001
 43
0.00000001
 40
0.0
 40
0.0
 40
0.0
 40
0.0
 40
0.5
 40
0.5
 40
1.0
 40
1.0
 40
1.0
 40
1.0
 10
12.00000000000002
 20
4.31467598713189
 30
0.0
 10
11.49059194423222
 20
4.576511259531753
 30
0.0
 10
10.98231834512051
 20
4.831991799745128
 30
0.0
 10
9.969017842411784
 20
5.327972437385817
 30
0.0
 10
9.459362199319223
 20
5.56921842421781
 30
0.0
 10
8.949954557147482
 20
5.802135757000142
 30
0.0
  0
LINE
  5
A4
330
1F
100
AcDbEntity
  8
외형선
  6
Continuous
370
    15
100
AcDbLine
 10
12.00000000000002
 20
4.314675987131888
 30
0.0
 11
12.00000000000002
 21
-1.694165781106429
 31
0.0
  0
LINE
  5
A5
330
1F
100
AcDbEntity
  8
외형선
  6
Continuous
370
    15
100
AcDbLine
 10
-47.82499999999998
 20
9.524999999999993
 30
0.0
 11
-47.82499999999998
 21
-9.525000000000006
 31
0.0
  0
LINE
  5
A6
330
1F
100
AcDbEntity
  8
외형선
  6
Continuous
370
    15
100
AcDbLine
 10
8.949954557147482
 20
0.0577152804773601
 30
0.0
 11
8.949954557147482
 21
-9.442905025516373
 31
0.0
  0
LINE
  5
A7
330
1F
100
AcDbEntity
  8
외형선
  6
Continuous
370
    15
100
AcDbLine
 10
-48.32499999999998
 20
9.024999999999991
 30
0.0
 11
-48.32499999999998
 21
-9.024999999999986
 31
0.0
  0
SPLINE
  5
A8
330
1F
100
AcDbEntity
  8
외형선
  6
Continuous
370
    15
100
AcDbSpline
210
0.0
220
0.0
230
1.0
 70
    24
 71
     3
 72
    12
 73
     8
 74
     0
 42
0.000000001
 43
0.00000001
 40
0.0
 40
0.0
 40
0.0
 40
0.0
 40
0.1865088343352096
 40
0.3766942587030639
 40
0.6011162997992805
 40
0.832046595290716
 40
1.0
 40
1.0
 40
1.0
 40
1.0
 10
12.00000000000002
 20
8.964445176394332
 30
0.0
 10
12.00000000000002
 20
8.58149493591774
 30
0.0
 10
12.00000000000002
 20
7.808045477232999
 30
0.0
 10
12.00000000000002
 20
6.708648739130694
 30
0.0
 10
12.00000000000002
 20
5.687429059382437
 30
0.0
 10
12.00000000000002
 20
4.871118533046794
 30
0.0
 10
12.00000000000002
 20
4.530658249981921
 30
0.0
 10
12.00000000000002
 20
4.387304526377125
 30
0.0
  0
SPLINE
  5
A9
330
1F
100
AcDbEntity
  8
외형선
  6
Continuous
 62
     1
370
    15
100
AcDbSpline
210
0.0
220
0.0
230
1.0
 70
     8
 71
     3
 72
    26
 73
    22
 74
     0
 42
0.000000001
 43
0.00000001
 40
0.0
 40
0.0
 40
0.0
 40
0.0
 40
0.2500000000000001
 40
0.2500000000000001
 40
0.5000000000000002
 40
0.5000000000000002
 40
0.6250000000000002
 40
0.6250000000000002
 40
0.7500000000000003
 40
0.7500000000000003
 40
0.8125000000000003
 40
0.8125000000000003
 40
0.8750000000000004
 40
0.8750000000000004
 40
0.9062500000000003
 40
0.9062500000000003
 40
0.9375000000000002
 40
0.9375000000000002
 40
0.9687500000000001
 40
0.9687500000000001
 40
1.0
 40
1.0
 40
1.0
 40
1.0
 10
53.22225466261018
 20
0.680858097891033
 30
0.0
 10
53.24572893817032
 20
0.2619184831107316
 30
0.0
 10
53.25280784299351
 20
-0.1573488796339711
 30
0.0
 10
53.25657558357502
 20
-0.9962555559035023
 30
0.0
 10
53.25360323377702
 20
-1.415704509837967
 30
0.0
 10
53.23006257318044
 20
-2.044723459521153
 30
0.0
 10
53.21878484879716
 20
-2.25428540307168
 30
0.0
 10
53.18150325590136
 20
-2.672459853607463
 30
0.0
 10
53.15599995883764
 20
-2.881293335081091
 30
0.0
 10
53.09243523995826
 20
-3.190434733891594
 30
0.0
 10
53.06699077608108
 20
-3.292528286523089
 30
0.0
 10
53.00147515820741
 20
-3.491608072545086
 30
0.0
 10
52.96136273220205
 20
-3.590109672697144
 30
0.0
 10
52.87910258664733
 20
-3.725280256497582
 30
0.0
 10
52.84766583566027
 20
-3.768379774198842
 30
0.0
 10
52.7750094097407
 20
-3.843516215493441
 30
0.0
 10
52.73259438110052
 20
-3.876407070126613
 30
0.0
 10
52.6380712294533
 20
-3.919653649378412
 30
0.0
 10
52.58591894506487
 20
-3.929499039961057
 30
0.0
 10
52.48190570011705
 20
-3.921796524906319
 30
0.0
 10
52.43217547286001
 20
-3.90517413347633
 30
0.0
 10
52.38599999999922
 20
-3.88084449947442
 30
0.0
  0
SPLINE
  5
AA
330
1F
100
AcDbEntity
  8
외형선
  6
Continuous
 62
     1
370
    15
100
AcDbSpline
210
0.0
220
0.0
230
1.0
 70
     8
 71
     3
 72
    62
 73
    58
 74
     0
 42
0.000000001
 43
0.00000001
 40
0.0
 40
0.0
 40
0.0
 40
0.0
 40
0.051295774163364
 40
0.0962995945692205
 40
0.1537604814092791
 40
0.2041757028955202
 40
0.2554133164121168
 40
0.307480078353122
 40
0.3257149076493538
 40
0.3422834412824899
 40
0.3569293641087656
 40
0.374733757044086
 40
0.3935499074029369
 40
0.4314300066569232
 40
0.4363875803443774
 40
0.4413444121501288
 40
0.4463005021112779
 40
0.4512558502649404
 40
0.4562104566482496
 40
0.461164321298356
 40
0.4631981952113774
 40
0.469155382895822
 40
0.4787406113483577
 40
0.4881805816365728
 40
0.4950839067317332
 40
0.4996536288815348
 40
0.5051359354667908
 40
0.5133611399147572
 40
0.5294843813491289
 40
0.5436638647066201
 40
0.5559926688812292
 40
0.5714869278383965
 40
0.5793813859239305
 40
0.5868876713540163
 40
0.5937626854110669
 40
0.6000064275548177
 40
0.6056188973508522
 40
0.6106000944931002
 40
0.6149500188426599
 40
0.6335078809733113
 40
0.646703207636077
 40
0.6562308999056843
 40
0.6700241601664577
 40
0.6838191563058323
 40
0.6976069989870104
 40
0.7113691038427694
 40
0.723967127536117
 40
0.7322169543243313
 40
0.7413371683755915
 40
0.7572653667046457
 40
0.7757257547137162
 40
0.7895107913449239
 40
0.8311090904929376
 40
0.8772909936528841
 40
0.9223537969057546
 40
0.9630999799059239
 40
1.0
 40
1.0
 40
1.0
 40
1.0
 10
52.38600000000002
 20
-3.880844499474838
 30
0.0
 10
51.82422290123299
 20
-3.581333874715973
 30
0.0
 10
50.76957643703801
 20
-3.01905068075158
 30
0.0
 10
49.08751228802784
 20
-2.078576013699113
 30
0.0
 10
47.41315869489092
 20
-1.126683951912562
 30
0.0
 10
45.67172338749481
 20
-0.1211885658304906
 30
0.0
 10
43.98914257218253
 20
0.8510463048139535
 30
0.0
 10
42.65846624110374
 20
1.612403269598167
 30
0.0
 10
41.70740984030518
 20
2.148947542551702
 30
0.0
 10
41.16633281109275
 20
2.45243827670121
 30
0.0
 10
40.63010908061639
 20
2.751013490756641
 30
0.0
 10
40.06889569009471
 20
3.059624230493008
 30
0.0
 10
39.25316688304498
 20
3.502286982114977
 30
0.0
 10
38.57822193503745
 20
3.86119398462164
 30
0.0
 10
38.05517746971802
 20
4.134072834855848
 30
0.0
 10
37.89244762445817
 20
4.218585742653612
 30
0.0
 10
37.72974983291504
 20
4.30268609845204
 30
0.0
 10
37.5670873370125
 20
4.386371603796651
 30
0.0
 10
37.40444654669454
 20
4.469613143241057
 30
0.0
 10
37.27381164559255
 20
4.536202965139952
 30
0.0
 10
37.13212225561316
 20
4.607977270749552
 30
0.0
 10
36.93968313359155
 20
4.704919977953218
 30
0.0
 10
36.66615179252688
 20
4.84150753126274
 30
0.0
 10
36.38224878603825
 20
4.981675257554236
 30
0.0
 10
36.15327484876625
 20
5.093621418863824
 30
0.0
 10
35.96762965309051
 20
5.183722767423972
 30
0.0
 10
35.76757983136101
 20
5.280321458024321
 30
0.0
 10
35.44113912819942
 20
5.436654591050655
 30
0.0
 10
35.01955438252941
 20
5.63527439763204
 30
0.0
 10
34.55312545734685
 20
5.850297313288071
 30
0.0
 10
34.09335107939081
 20
6.057522321737846
 30
0.0
 10
33.70230516801693
 20
6.229694289556623
 30
0.0
 10
33.36402264595752
 20
6.375581932063334
 30
0.0
 10
33.1201294310258
 20
6.479346132055738
 30
0.0
 10
32.89432629415251
 20
6.574174341448026
 30
0.0
 10
32.68927408748924
 20
6.659251306734521
 30
0.0
 10
32.50497403468529
 20
6.734874049691586
 30
0.0
 10
32.34142225318818
 20
6.801309880395281
 30
0.0
 10
32.03625797189075
 20
6.92421057080815
 30
0.0
 10
31.64123507828765
 20
7.079596580600757
 30
0.0
 10
31.18952519521105
 20
7.251052680100588
 30
0.0
 10
30.78979393838438
 20
7.398559252122785
 30
0.0
 10
30.38341614974135
 20
7.544190462423416
 30
0.0
 10
29.93040790759255
 20
7.700873506777213
 30
0.0
 10
29.47768181383207
 20
7.851594447103162
 30
0.0
 10
29.03828780434726
 20
7.992445835885972
 30
0.0
 10
28.65965259774434
 20
8.10918377113117
 30
0.0
 10
28.33198160238777
 20
8.207055827699463
 30
0.0
 10
27.96737544134579
 20
8.312204700157732
 30
0.0
 10
27.49105050194491
 20
8.443722120887395
 30
0.0
 10
26.96355565182043
 20
8.580047459750075
 30
0.0
 10
26.15517625865644
 20
8.775688722170598
 30
0.0
 10
25.04417519254341
 20
9.012926654142401
 30
0.0
 10
23.58914339085047
 20
9.253438947972514
 30
0.0
 10
22.1452122120213
 20
9.417581065912199
 30
0.0
 10
20.80107496978335
 20
9.510783710529024
 30
0.0
 10
19.95150727922928
 20
9.517385309719039
 30
0.0
 10
19.54776487324618
 20
9.520522605981535
 30
0.0
  0
SPLINE
  5
AB
330
1F
100
AcDbEntity
  8
외형선
  6
Continuous
 62
     1
370
    15
100
AcDbSpline
210
0.0
220
0.0
230
1.0
 70
     8
 71
     3
 72
    18
 73
    14
 74
     0
 42
0.000000001
 43
0.00000001
 40
0.0
 40
0.0
 40
0.0
 40
0.0
 40
0.0076973176830908
 40
0.1134967520655476
 40
0.2200368394622005
 40
0.3253066490211311
 40
0.4313068462197513
 40
0.5365764515763274
 40
0.6425756379740009
 40
0.7310561434240898
 40
0.8195367583426425
 40
0.9097686070594031
 40
1.0
 40
1.0
 40
1.0
 40
1.0
 10
25.92122630426751
 20
8.815940706319223
 30
0.0
 10
25.99126924500956
 20
8.824339042023285
 30
0.0
 10
27.02405061205724
 20
8.94817228685109
 30
0.0
 10
29.0266981824292
 20
8.96550200866775
 30
0.0
 10
31.91715953487031
 20
8.80266262460046
 30
0.0
 10
34.80950603990122
 20
8.346570960400877
 30
0.0
 10
37.69026261075449
 20
7.644398654678811
 30
0.0
 10
40.57753947596127
 20
6.70563278778185
 30
0.0
 10
43.30566606732891
 20
5.626023498855242
 30
0.0
 10
45.88002629301145
 20
4.466336653460182
 30
0.0
 10
48.31125646197327
 20
3.275730821900499
 30
0.0
 10
50.75971268612327
 20
2.008311945617137
 30
0.0
 10
52.40140871919812
 20
1.123341968776193
 30
0.0
 10
53.22225466260999
 20
0.6808580978913961
 30
0.0
  0
SPLINE
  5
AC
330
1F
100
AcDbEntity
  8
외형선
  6
Continuous
 62
     1
370
    15
100
AcDbSpline
210
0.0
220
0.0
230
1.0
 70
     8
 71
     3
 72
    72
 73
    68
 74
     0
 42
0.000000001
 43
0.00000001
 40
0.0
 40
0.0
 40
0.0
 40
0.0
 40
0.0291074830339061
 40
0.0483016496480184
 40
0.0657418566565384
 40
0.0811583041460393
 40
0.0998993891128878
 40
0.1197054601449778
 40
0.1595784377387836
 40
0.1647968302046756
 40
0.1700144417583124
 40
0.175231272438746
 40
0.1804473222850455
 40
0.1856625913362978
 40
0.1908770796316075
 40
0.1930179560177934
 40
0.1992885523475138
 40
0.2093780612394147
 40
0.2193146695667052
 40
0.2265811797160074
 40
0.2313913161059014
 40
0.2371620476211278
 40
0.2458199814022808
 40
0.262791469344931
 40
0.2777169376205255
 40
0.2906943621529932
 40
0.3070037768126818
 40
0.3153135637847598
 40
0.3232147562317099
 40
0.3304514659752283
 40
0.3370236924466269
 40
0.3429314351886346
 40
0.3481746938790787
 40
0.3527534683717499
 40
0.372287663083224
 40
0.3861771980403161
 40
0.3962061434723563
 40
0.4107250694561981
 40
0.4252458226430076
 40
0.4397590460265839
 40
0.4542451775137821
 40
0.4675059853349257
 40
0.4761898367350764
 40
0.485789866646371
 40
0.5025560502601741
 40
0.5219876426605743
 40
0.5364979124996816
 40
0.5802847046052831
 40
0.6288962456181483
 40
0.6763298104668757
 40
0.7192196568272754
 40
0.7648218586606568
 40
0.8159653229365021
 40
0.8575908487065832
 40
0.8689668865704331
 40
0.8803448113263115
 40
0.891741083841132
 40
0.9031487496769081
 40
0.9145678126228061
 40
0.9236348099098924
 40
0.9364408103377916
 40
0.9477814845011262
 40
0.9581971106987418
 40
0.9641674613152074
 40
0.9726967665623852
 40
0.984640956268376
 40
1.0
 40
1.0
 40
1.0
 40
1.0
 10
43.19634241086628
 20
-8.815629954239606
 30
0.0
 10
42.89358309194755
 20
-8.882297794377738
 30
0.0
 10
42.39117707721071
 20
-8.992927993951893
 30
0.0
 10
41.7074104482507
 20
-9.111976563119667
 30
0.0
 10
41.1663326756284
 20
-9.198472040549312
 30
0.0
 10
40.63010912010777
 20
-9.274335388648703
 30
0.0
 10
40.06889567391965
 20
-9.343482743290563
 30
0.0
 10
39.25316688946447
 20
-9.42704470839788
 30
0.0
 10
38.5782219346998
 20
-9.474601074850824
 30
0.0
 10
38.05517746970455
 20
-9.498625077294808
 30
0.0
 10
37.89244762442193
 20
-9.505175515971526
 30
0.0
 10
37.72974983289176
 20
-9.510799474167714
 30
0.0
 10
37.56708733699429
 20
-9.51549667056522
 30
0.0
 10
37.40444654668521
 20
-9.519266057429707
 30
0.0
 10
37.27381164530495
 20
-9.521550852028808
 30
0.0
 10
37.13212225496513
 20
-9.52345372924604
 30
0.0
 10
36.939683132871
 20
-9.525153272036412
 30
0.0
 10
36.66615179588933
 20
-9.525131779227685
 30
0.0
 10
36.38224879387974
 20
-9.522013846847008
 30
0.0
 10
36.15327485668026
 20
-9.517354139498869
 30
0.0
 10
35.96762965859681
 20
-9.512356714321491
 30
0.0
 10
35.76757983460802
 20
-9.505810984049395
 30
0.0
 10
35.44113913239355
 20
-9.492551495075077
 30
0.0
 10
35.01955438696464
 20
-9.46953122928749
 30
0.0
 10
34.55312546245219
 20
-9.435952244299214
 30
0.0
 10
34.09335108446656
 20
-9.395980488302683
 30
0.0
 10
33.70230517102779
 20
-9.355848369704272
 30
0.0
 10
33.36402264509137
 20
-9.31669811281053
 30
0.0
 10
33.1201294273658
 20
-9.286359405753199
 30
0.0
 10
32.89432628892376
 20
-9.256447024913394
 30
0.0
 10
32.68927408188179
 20
-9.227774242583475
 30
0.0
 10
32.50497402988928
 20
-9.200776248133213
 30
0.0
 10
32.34142225039366
 20
-9.175844797869443
 30
0.0
 10
32.03625796709187
 20
-9.12770553865459
 30
0.0
 10
31.64123507125373
 20
-9.060362026579165
 30
0.0
 10
31.18952518817889
 20
-8.975535624457306
 30
0.0
 10
30.7897939350794
 20
-8.8956770323014
 30
0.0
 10
30.38341614972583
 20
-8.809473812190022
 30
0.0
 10
29.93040790758153
 20
-8.70673999100904
 30
0.0
 10
29.4776818138437
 20
-8.597584833915404
 30
0.0
 10
29.03828780434924
 20
-8.485150596882132
 30
0.0
 10
28.65965259937166
 20
-8.38299135163225
 30
0.0
 10
28.33198160670776
 20
-8.29091310606015
 30
0.0
 10
27.96737544797019
 20
-8.185873590239579
 30
0.0
 10
27.49105050088473
 20
-8.042656326513548
 30
0.0
 10
26.96355566498552
 20
-7.875375597726269
 30
0.0
 10
26.15517617927458
 20
-7.606470121082458
 30
0.0
 10
25.04417623991937
 20
-7.2068519173209
 30
0.0
 10
23.58913919396261
 20
-6.630759879494661
 30
0.0
 10
22.14522676298185
 20
-6.003456311221556
 30
0.0
 10
20.73066900067992
 20
-5.348658726784658
 30
0.0
 10
19.2796010340641
 20
-4.633515729764069
 30
0.0
 10
17.83981575576713
 20
-3.890314468921399
 30
0.0
 10
16.75698342325153
 20
-3.307677676199571
 30
0.0
 10
16.08773317328329
 20
-2.941029685623714
 30
0.0
 10
15.73274424163179
 20
-2.745142294281248
 30
0.0
 10
15.37734084023904
 20
-2.547941804376781
 30
0.0
 10
15.02138523689305
 20
-2.349527221453964
 30
0.0
 10
14.68953794072491
 20
-2.16379901769016
 30
0.0
 10
14.34307570647853
 20
-1.969172801104143
 30
0.0
 10
13.99785505396597
 20
-1.773416703325077
 30
0.0
 10
13.63858972459088
 20
-1.56888158150382
 30
0.0
 10
13.35045995155516
 20
-1.404096139446132
 30
0.0
 10
13.09148102947995
 20
-1.255796643800299
 30
0.0
 10
12.81645934073766
 20
-1.098367393354199
 30
0.0
 10
12.4437741585265
 20
-0.8846126183399096
 30
0.0
 10
12.15976518742156
 20
-0.721310148195206
 30
0.0
 10
12.00000000000002
 20
-0.6294466776591743
 30
0.0
  0
LINE
  5
AD
330
1F
100
AcDbEntity
  8
외형선
  6
Continuous
370
    15
100
AcDbLine
 10
12.00000000000002
 20
4.131131331093187
 30
0.0
 11
12.00000000000002
 21
-0.6294466776591695
 31
0.0
  0
SPLINE
  5
AE
330
1F
100
AcDbEntity
  8
외형선
  6
Continuous
 62
     1
370
    15
100
AcDbSpline
210
0.0
220
0.0
230
1.0
 70
     8
 71
     3
 72
    58
 73
    54
 74
     0
 42
0.000000001
 43
0.00000001
 40
0.0
 40
0.0
 40
0.0
 40
0.0
 40
0.0312499999999999
 40
0.0312499999999999
 40
0.0624999999999999
 40
0.0624999999999999
 40
0.0937499999999998
 40
0.0937499999999998
 40
0.1249999999999998
 40
0.1249999999999998
 40
0.1874999999999998
 40
0.1874999999999998
 40
0.2499999999999998
 40
0.2499999999999998
 40
0.2812499999999998
 40
0.2812499999999998
 40
0.3124999999999998
 40
0.3124999999999998
 40
0.3437499999999999
 40
0.3437499999999999
 40
0.3749999999999999
 40
0.3749999999999999
 40
0.4375
 40
0.4375
 40
0.4687500000000001
 40
0.4687500000000001
 40
0.5000000000000001
 40
0.5000000000000001
 40
0.5312500000000002
 40
0.5312500000000002
 40
0.5625000000000002
 40
0.5625000000000002
 40
0.6250000000000004
 40
0.6250000000000004
 40
0.6562500000000002
 40
0.6562500000000002
 40
0.6875000000000002
 40
0.6875000000000002
 40
0.7187500000000002
 40
0.7187500000000002
 40
0.7500000000000001
 40
0.7500000000000001
 40
0.8125000000000004
 40
0.8125000000000004
 40
0.8437500000000003
 40
0.8437500000000003
 40
0.8750000000000002
 40
0.8750000000000002
 40
0.9062500000000002
 40
0.9062500000000002
 40
0.9375000000000001
 40
0.9375000000000001
 40
1.0
 40
1.0
 40
1.0
 40
1.0
 10
12.00000000000001
 20
4.131131331093187
 30
0.0
 10
12.43029547155695
 20
3.924703946337305
 30
0.0
 10
12.8607670965183
 20
3.714038918622786
 30
0.0
 10
13.71813483939003
 20
3.286186814946144
 30
0.0
 10
14.1456384422306
 20
3.068908548122541
 30
0.0
 10
15.00543910177574
 20
2.627745962767797
 30
0.0
 10
15.43623910365442
 20
2.404110220952364
 30
0.0
 10
16.29570067197968
 20
1.952776045891442
 30
0.0
 10
16.72282604689948
 20
1.725354450183372
 30
0.0
 10
18.0097571238624
 20
1.037552332483729
 30
0.0
 10
18.87418262089141
 20
0.5717648913458451
 30
0.0
 10
20.58456022126858
 20
-0.3573629154510237
 30
0.0
 10
21.448835668327
 20
-0.8239977711053575
 30
0.0
 10
22.73590194472241
 20
-1.514427454264005
 30
0.0
 10
23.16298248510665
 20
-1.742922254307268
 30
0.0
 10
24.02238322520291
 20
-2.196836830786101
 30
0.0
 10
24.45318044220131
 20
-2.42198118202128
 30
0.0
 10
25.3130308750103
 20
-2.866583589387472
 30
0.0
 10
25.74061301004974
 20
-3.085794665370993
 30
0.0
 10
26.59787964944844
 20
-3.517874790722348
 30
0.0
 10
27.02832812539132
 20
-3.730863228218392
 30
0.0
 10
28.31922835445058
 20
-4.357712942119359
 30
0.0
 10
29.17373945603713
 20
-4.758606301045425
 30
0.0
 10
30.46417486060918
 20
-5.329887980672021
 30
0.0
 10
30.89489181125927
 20
-5.515162718222244
 30
0.0
 10
31.75353408586039
 20
-5.873735092385161
 30
0.0
 10
32.18043194323607
 20
-6.046910522661209
 30
0.0
 10
33.03935399814836
 20
-6.381322511260747
 30
0.0
 10
33.47010871151873
 20
-6.542371463879554
 30
0.0
 10
34.3302691054346
 20
-6.850664443790058
 30
0.0
 10
34.75854822699177
 20
-6.997786262489975
 30
0.0
 10
36.04329989762904
 20
-7.417430377332264
 30
0.0
 10
36.90784747196552
 20
-7.66892504268711
 30
0.0
 10
38.19316536848694
 20
-7.996887461433885
 30
0.0
 10
38.62107969607682
 20
-8.098167751609699
 30
0.0
 10
39.48110104286996
 20
-8.284382768377297
 30
0.0
 10
39.91188113111465
 20
-8.369201506435477
 30
0.0
 10
40.77104296226953
 20
-8.521503069577012
 30
0.0
 10
41.19799857183463
 20
-8.58893180294333
 30
0.0
 10
42.05636332224685
 20
-8.70645877892785
 30
0.0
 10
42.48703582632261
 20
-8.756492432566109
 30
0.0
 10
43.7776228614054
 20
-8.8796554104153
 30
0.0
 10
44.63205353930902
 20
-8.92581095972875
 30
0.0
 10
45.92289674316014
 20
-8.940585028044007
 30
0.0
 10
46.35342128849541
 20
-8.936404455920416
 30
0.0
 10
47.21102791463835
 20
-8.909933350890404
 30
0.0
 10
47.63836063543773
 20
-8.887668081264813
 30
0.0
 10
48.49803410359613
 20
-8.825032837729303
 30
0.0
 10
48.92883761595951
 20
-8.784672613721112
 30
0.0
 10
49.78844031102239
 20
-8.686237357065481
 30
0.0
 10
50.21569409034987
 20
-8.628249617025006
 30
0.0
 10
51.50228758575588
 20
-8.428001649206005
 30
0.0
 10
52.36675652307525
 20
-8.259175718551584
 30
0.0
 10
53.22225466260078
 20
-8.058178553825817
 30
0.0
  0
SPLINE
  5
AF
330
1F
100
AcDbEntity
  8
외형선
  6
Continuous
 62
     1
370
    15
100
AcDbSpline
210
0.0
220
0.0
230
1.0
 70
     8
 71
     3
 72
    56
 73
    52
 74
     0
 42
0.000000001
 43
0.00000001
 40
0.0
 40
0.0
 40
0.0
 40
0.0
 40
0.03125
 40
0.03125
 40
0.0625
 40
0.0625
 40
0.1249999999999999
 40
0.1249999999999999
 40
0.1874999999999998
 40
0.1874999999999998
 40
0.2187499999999998
 40
0.2187499999999998
 40
0.2499999999999998
 40
0.2499999999999998
 40
0.3124999999999997
 40
0.3124999999999997
 40
0.3437499999999997
 40
0.3437499999999997
 40
0.3749999999999997
 40
0.3749999999999997
 40
0.4062499999999996
 40
0.4062499999999996
 40
0.4374999999999996
 40
0.4374999999999996
 40
0.4999999999999998
 40
0.4999999999999998
 40
0.5312499999999999
 40
0.5312499999999999
 40
0.5625
 40
0.5625
 40
0.59375
 40
0.59375
 40
0.6250000000000001
 40
0.6250000000000001
 40
0.6875000000000002
 40
0.6875000000000002
 40
0.7187500000000002
 40
0.7187500000000002
 40
0.7500000000000001
 40
0.7500000000000001
 40
0.8125000000000001
 40
0.8125000000000001
 40
0.8750000000000001
 40
0.8750000000000001
 40
0.9062500000000001
 40
0.9062500000000001
 40
0.9375
 40
0.9375
 40
0.96875
 40
0.96875
 40
1.0
 40
1.0
 40
1.0
 40
1.0
 10
52.38600000000002
 20
-4.834351750019414
 30
0.0
 10
51.96489528420821
 20
-4.625012046081718
 30
0.0
 10
51.54286005553551
 20
-4.410793499238206
 30
0.0
 10
50.70063149588943
 20
-3.974478066529882
 30
0.0
 10
50.2818967594415
 20
-3.752645680344874
 30
0.0
 10
49.02185795687398
 20
-3.076170057043215
 30
0.0
 10
48.17504513835308
 20
-2.610158024941201
 30
0.0
 10
46.49740114948413
 20
-1.664374344391705
 30
0.0
 10
45.65301512337901
 20
-1.182087858510906
 30
0.0
 10
44.3907593324096
 20
-0.4553717720256283
 30
0.0
 10
43.97251489447962
 20
-0.2129350990319014
 30
0.0
 10
43.13145145038859
 20
0.272759817165578
 30
0.0
 10
42.70953239236594
 20
0.5158447971813782
 30
0.0
 10
41.44516251710106
 20
1.242611418254735
 30
0.0
 10
40.6081635032974
 20
1.723031113507316
 30
0.0
 10
39.34359894389239
 20
2.432505536605183
 30
0.0
 10
38.92177137866717
 20
2.666905937530243
 30
0.0
 10
38.08120102955282
 20
3.129483561092182
 30
0.0
 10
37.66279301585632
 20
3.357608996036304
 30
0.0
 10
36.82090044365132
 20
3.807786583895753
 30
0.0
 10
36.39887757492176
 20
4.029566163874326
 30
0.0
 10
35.55638123540182
 20
4.46455559300431
 30
0.0
 10
35.13719138632374
 20
4.677553342997369
 30
0.0
 10
33.87798988892976
 20
5.302553456052265
 30
0.0
 10
33.03115205211782
 20
5.701285398525503
 30
0.0
 10
31.77200885468302
 20
6.262044445794569
 30
0.0
 10
31.35278352623683
 20
6.442981068852467
 30
0.0
 10
30.51027096073424
 20
6.792507588755901
 30
0.0
 10
30.08824974231151
 20
6.960906737239415
 30
0.0
 10
29.24637994921434
 20
7.283509555447161
 30
0.0
 10
28.82798696495707
 20
7.437550097874217
 30
0.0
 10
27.98738424592293
 20
7.731317427176457
 30
0.0
 10
27.56555018503563
 20
7.870976010486977
 30
0.0
 10
26.30099549037956
 20
8.266373470540724
 30
0.0
 10
25.46400052126296
 20
8.498117663300125
 30
0.0
 10
24.19961615691511
 20
8.795540937853202
 30
0.0
 10
23.77770204843638
 20
8.886212862036183
 30
0.0
 10
22.93666791768698
 20
9.049861676072304
 30
0.0
 10
22.51841804683625
 20
9.122812793854289
 30
0.0
 10
21.2561234862589
 20
9.315220711206715
 30
0.0
 10
20.41182634582839
 20
9.407638695330496
 30
0.0
 10
18.73409855112249
 20
9.518246839230958
 30
0.0
 10
17.88728260296239
 20
9.536665033540558
 30
0.0
 10
16.6272975353364
 20
9.508407261109571
 30
0.0
 10
16.20853690810172
 20
9.489737717649332
 30
0.0
 10
15.36628904698872
 20
9.43385108328598
 30
0.0
 10
14.94425392060831
 20
9.3966396323196
 30
0.0
 10
14.10206419667907
 20
9.304008220935193
 30
0.0
 10
13.68337885292081
 20
9.248669373427196
 30
0.0
 10
12.84328262960392
 20
9.119982954263708
 30
0.0
 10
12.42155673068972
 20
9.046592615602
 30
0.0
 10
12.00000000000001
 20
8.96444517639433
 30
0.0
  0
SPLINE
  5
B0
330
1F
100
AcDbEntity
  8
외형선
  6
Continuous
 62
     1
370
    15
100
AcDbSpline
210
0.0
220
0.0
230
1.0
 70
     8
 71
     3
 72
    12
 73
     8
 74
     0
 42
0.000000001
 43
0.00000001
 40
0.0
 40
0.0
 40
0.0
 40
0.0
 40
0.2500000000000001
 40
0.2500000000000001
 40
0.5000000000000001
 40
0.5000000000000001
 40
1.0
 40
1.0
 40
1.0
 40
1.0
 10
52.38600000000002
 20
-4.834351750019412
 30
0.0
 10
52.49932113113544
 20
-4.890685985073435
 30
0.0
 10
52.60777941094454
 20
-4.935881589250667
 30
0.0
 10
52.81598040513423
 20
-5.003777494058249
 30
0.0
 10
52.91306349613151
 20
-5.025217567977327
 30
0.0
 10
53.16418126407257
 20
-5.046498757045529
 30
0.0
 10
53.27500000000003
 20
-5.000497672944349
 30
0.0
 10
53.27500000000003
 20
-4.906561186963898
 30
0.0
  0
SPLINE
  5
B1
330
1F
100
AcDbEntity
  8
외형선
  6
Continuous
 62
     1
370
    15
100
AcDbSpline
210
0.0
220
0.0
230
1.0
 70
     8
 71
     3
 72
    11
 73
     7
 74
     0
 42
0.000000001
 43
0.00000001
 40
0.0
 40
0.0
 40
0.0
 40
0.0
 40
0.1128566486007235
 40
0.5037902666805454
 40
0.9058223504138145
 40
1.0
 40
1.0
 40
1.0
 40
1.0
 10
51.14549142843629
 20
-4.191778764107796
 30
0.0
 10
51.0494594488855
 20
-4.205134597748948
 30
0.0
 10
50.62077423461057
 20
-4.264754824605249
 30
0.0
 10
49.7817904854249
 20
-4.492272601095764
 30
0.0
 10
48.94956322570521
 20
-4.77471600282361
 30
0.0
 10
48.48155125230691
 20
-4.960507602296218
 30
0.0
 10
48.39272536947307
 20
-4.995769740412971
 30
0.0
  0
SPLINE
  5
B2
330
1F
100
AcDbEntity
  8
외형선
  6
Continuous
 62
     1
370
    15
100
AcDbSpline
210
0.0
220
0.0
230
1.0
 70
     8
 71
     3
 72
    10
 73
     6
 74
     0
 42
0.000000001
 43
0.00000001
 40
0.0
 40
0.0
 40
0.0
 40
0.0
 40
0.5
 40
0.5
 40
1.0
 40
1.0
 40
1.0
 40
1.0
 10
53.27500000000001
 20
-5.568392862373734
 30
0.0
 10
52.44378814664939
 20
-5.560537375095197
 30
0.0
 10
51.62082012554764
 20
-5.511422860390403
 30
0.0
 10
49.99248554649191
 20
-5.325101396681057
 30
0.0
 10
49.18728380134431
 20
-5.187069586629812
 30
0.0
 10
48.39272536947305
 20
-4.995769740412944
 30
0.0
  0
LINE
  5
B3
330
1F
100
AcDbEntity
  8
외형선
  6
Continuous
 62
     1
370
    15
100
AcDbLine
 10
53.27500000000001
 20
-7.80259070041985
 30
0.0
 11
53.27500000000001
 21
-5.568392862373742
 31
0.0
  0
SPLINE
  5
B4
330
1F
100
AcDbEntity
  8
외형선
  6
Continuous
 62
     1
370
    15
100
AcDbSpline
210
0.0
220
0.0
230
1.0
 70
     8
 71
     3
 72
     8
 73
     4
 74
     0
 42
0.000000001
 43
0.00000001
 40
0.0
 40
0.0
 40
0.0
 40
0.0
 40
1.0
 40
1.0
 40
1.0
 40
1.0
 10
53.27500000000001
 20
-7.80259070041985
 30
0.0
 10
53.27500000000001
 20
-7.88374362248141
 30
0.0
 10
53.25735389644998
 20
-7.970658766684612
 30
0.0
 10
53.22225466260999
 20
-8.058178553823703
 30
0.0
  0
SPLINE
  5
B5
330
1F
100
AcDbEntity
  8
외형선
  6
Continuous
370
    15
100
AcDbSpline
210
0.0
220
0.0
230
1.0
 70
    24
 71
     3
 72
    12
 73
     8
 74
     0
 42
0.000000001
 43
0.00000001
 40
0.0
 40
0.0
 40
0.0
 40
0.0
 40
0.1865088343352095
 40
0.3766942587030648
 40
0.6011162997992803
 40
0.8320465952907145
 40
1.0
 40
1.0
 40
1.0
 40
1.0
 10
12.00000000000002
 20
8.964445176394333
 30
0.0
 10
12.00000000000002
 20
8.581494935917743
 30
0.0
 10
12.00000000000002
 20
7.808045477232997
 30
0.0
 10
12.00000000000002
 20
6.708648739130692
 30
0.0
 10
12.00000000000002
 20
5.687429059382436
 30
0.0
 10
12.00000000000002
 20
4.8711185330468
 30
0.0
 10
12.00000000000002
 20
4.530658249981921
 30
0.0
 10
12.00000000000002
 20
4.387304526377124
 30
0.0
  0
SPLINE
  5
B6
330
1F
100
AcDbEntity
  8
외형선
  6
Continuous
 62
     1
370
    15
100
AcDbSpline
210
0.0
220
0.0
230
1.0
 70
     8
 71
     3
 72
    17
 73
    13
 74
     0
 42
0.000000001
 43
0.00000001
 40
0.0
 40
0.0
 40
0.0
 40
0.0
 40
0.1102638880982547
 40
0.2205614768746339
 40
0.3309142088681949
 40
0.4412364770974603
 40
0.5515124482049627
 40
0.6597975913695651
 40
0.7680958541190046
 40
0.8764425879936868
 40
0.984832037347724
 40
1.0
 40
1.0
 40
1.0
 40
1.0
 10
12.00000000000002
 20
-1.694165781106429
 30
0.0
 10
12.84401039214908
 20
-2.169961408704854
 30
0.0
 10
14.53228913690053
 20
-3.121698084452124
 30
0.0
 10
17.06538766199687
 20
-4.465246626045501
 30
0.0
 10
19.59934492332401
 20
-5.706250682062052
 30
0.0
 10
22.13287777252866
 20
-6.812427048956425
 30
0.0
 10
24.65036960034632
 20
-7.753280862612774
 30
0.0
 10
27.15221241198242
 20
-8.508127024261649
 30
0.0
 10
29.63936740241954
 20
-9.071116859557696
 30
0.0
 10
32.1275206786211
 20
-9.406839679896143
 30
0.0
 10
33.90308365207912
 20
-9.550960056960937
 30
0.0
 10
34.84890996483539
 20
-9.515964167119428
 30
0.0
 10
34.96502002213163
 20
-9.51166805617408
 30
0.0
  0
LINE
  5
B7
330
1F
100
AcDbEntity
  8
외형선
  6
Continuous
370
    15
100
AcDbLine
 10
12.00000000000002
 20
-1.694165781106429
 30
0.0
 11
12.00000000000002
 21
-0.6294466776591745
 31
0.0
  0
SPLINE
  5
B8
330
1F
100
AcDbEntity
  8
외형선
  6
Continuous
 62
     1
370
    15
100
AcDbSpline
210
0.0
220
0.0
230
1.0
 70
     8
 71
     3
 72
    12
 73
     8
 74
     0
 42
0.000000001
 43
0.00000001
 40
0.0
 40
0.0
 40
0.0
 40
0.0
 40
0.2220541796225239
 40
0.4451203686977116
 40
0.6712708579938361
 40
0.8984943651887777
 40
1.0
 40
1.0
 40
1.0
 40
1.0
 10
12.00000000000002
 20
-8.929358252454191
 30
0.0
 10
12.7784018907628
 20
-8.8937971392992
 30
0.0
 10
14.33875323024363
 20
-8.822512843611726
 30
0.0
 10
16.69239706891413
 20
-8.490624620134813
 30
0.0
 10
19.06414118271071
 20
-7.986985935923316
 30
0.0
 10
21.00930896337269
 20
-7.45923060574258
 30
0.0
 10
22.16166797770042
 20
-7.054100253447944
 30
0.0
 10
22.51749567391841
 20
-6.929003301775218
 30
0.0
  0
SPLINE
  5
B9
330
1F
100
AcDbEntity
  8
외형선
  6
Continuous
370
    15
100
AcDbSpline
210
0.0
220
0.0
230
1.0
 70
    24
 71
     3
 72
    15
 73
    11
 74
     0
 42
0.000000001
 43
0.00000001
 40
0.0
 40
0.0
 40
0.0
 40
0.0
 40
0.1087792534003792
 40
0.2429975187489628
 40
0.3811081228852461
 40
0.5153263882338297
 40
0.6534369923701137
 40
0.7876552577186978
 40
0.9257658618549816
 40
0.9999999999999999
 40
0.9999999999999999
 40
0.9999999999999999
 40
0.9999999999999999
 10
12.00000000000002
 20
-1.72367679559321
 30
0.0
 10
12.00000000000002
 20
-1.777666785397322
 30
0.0
 10
12.00000000000002
 20
-1.898272812278136
 30
0.0
 10
12.00000000000002
 20
-2.369503572768935
 30
0.0
 10
12.00000000000002
 20
-3.102669747511437
 30
0.0
 10
12.00000000000002
 20
-4.078939073626508
 30
0.0
 10
12.00000000000002
 20
-5.24620325244109
 30
0.0
 10
12.00000000000002
 20
-6.595112707680792
 30
0.0
 10
12.00000000000002
 20
-7.84335879363888
 30
0.0
 10
12.00000000000002
 20
-8.64804570865759
 30
0.0
 10
12.00000000000002
 20
-8.929358252454191
 30
0.0
  0
LINE
  5
BA
330
1F
100
AcDbEntity
  8
외형선
  6
Continuous
 62
     1
370
    15
100
AcDbLine
 10
53.27500000000001
 20
-4.906561186963899
 30
0.0
 11
53.27500000000001
 21
0.6958225658470417
 31
0.0
  0
SPLINE
  5
BB
330
1F
100
AcDbEntity
  8
외형선
  6
Continuous
 62
     1
370
    15
100
AcDbSpline
210
0.0
220
0.0
230
1.0
 70
     8
 71
     3
 72
     8
 73
     4
 74
     0
 42
0.000000001
 43
0.00000001
 40
0.0
 40
0.0
 40
0.0
 40
0.0
 40
1.0
 40
1.0
 40
1.0
 40
1.0
 10
53.27500000000001
 20
0.6958225658470423
 30
0.0
 10
53.27500000000001
 20
0.6794272662905989
 30
0.0
 10
53.25735389644999
 20
0.673922214537562
 30
0.0
 10
53.22225466261001
 20
0.6808580978915211
 30
0.0
  0
SPLINE
  5
BC
330
1F
100
AcDbEntity
  8
외형선
  6
Continuous
 62
     1
370
    15
100
AcDbSpline
210
0.0
220
0.0
230
1.0
 70
     8
 71
     3
 72
    12
 73
     8
 74
     0
 42
0.000000001
 43
0.00000001
 40
0.0
 40
0.0
 40
0.0
 40
0.0
 40
0.1945693532773779
 40
0.3958628353303252
 40
0.5972402000908634
 40
0.7986696358791215
 40
0.9999999999999999
 40
0.9999999999999999
 40
0.9999999999999999
 40
0.9999999999999999
 10
39.77718592758641
 20
6.930734572172869
 30
0.0
 10
40.59487967145716
 20
7.240803039482881
 30
0.0
 10
42.25852586459164
 20
7.871655640616243
 30
0.0
 10
44.76855148975131
 20
8.59720438497149
 30
0.0
 10
47.30764445538234
 20
9.136207054026706
 30
0.0
 10
49.84713896501911
 20
9.472026544735515
 30
0.0
 10
51.5398517806431
 20
9.507102939192004
 30
0.0
 10
52.38600000000001
 20
9.525000000000192
 30
0.0
  0
LINE
  5
BE
330
1F
100
AcDbEntity
  8
외형선
  6
Continuous
 62
     1
370
    15
100
AcDbLine
 10
53.27500000000001
 20
6.167475262783497
 30
0.0
 11
53.27500000000001
 21
8.636000000000193
 31
0.0
  0
SPLINE
  5
BF
330
1F
100
AcDbEntity
  8
외형선
  6
Continuous
 62
     1
370
    15
100
AcDbSpline
210
0.0
220
0.0
230
1.0
 70
     8
 71
     3
 72
    20
 73
    16
 74
     0
 42
0.000000001
 43
0.00000001
 40
0.0
 40
0.0
 40
0.0
 40
0.0
 40
0.2500000000000018
 40
0.2500000000000018
 40
0.3750000000000014
 40
0.3750000000000014
 40
0.5000000000000011
 40
0.5000000000000011
 40
0.6250000000000008
 40
0.6250000000000008
 40
0.7500000000000006
 40
0.7500000000000006
 40
0.8750000000000003
 40
0.8750000000000003
 40
1.0
 40
1.0
 40
1.0
 40
1.0
 10
53.27500000000001
 20
6.167475262783497
 30
0.0
 10
53.02245288686637
 20
5.721145962161557
 30
0.0
 10
52.71401473921623
 20
5.330345497307185
 30
0.0
 10
52.16976394470891
 20
4.825209610433658
 30
0.0
 10
51.97565617025608
 20
4.671720018228197
 30
0.0
 10
51.5740715194315
 20
4.399504370575515
 30
0.0
 10
51.36520690512004
 20
4.279441487055511
 30
0.0
 10
50.93278696761527
 20
4.068515808120744
 30
0.0
 10
50.70839723826896
 20
3.977569714428903
 30
0.0
 10
50.25715790687908
 20
3.826345286868023
 30
0.0
 10
50.02901116997622
 20
3.76534708378569
 30
0.0
 10
49.56828977914989
 20
3.668957247989507
 30
0.0
 10
49.3357134236685
 20
3.633575455356523
 30
0.0
 10
48.86650588723393
 20
3.58626085824681
 30
0.0
 10
48.6287813447927
 20
3.574377888086567
 30
0.0
 10
48.39272536947306
 20
3.573612189250372
 30
0.0
  0
SPLINE
  5
C0
330
1F
100
AcDbEntity
  8
외형선
  6
Continuous
 62
     1
370
    15
100
AcDbSpline
210
0.0
220
0.0
230
1.0
 70
     8
 71
     3
 72
    10
 73
     6
 74
     0
 42
0.000000001
 43
0.00000001
 40
0.0
 40
0.0
 40
0.0
 40
0.0
 40
0.5
 40
0.5
 40
1.0
 40
1.0
 40
1.0
 40
1.0
 10
53.27500000000001
 20
1.837376426293259
 30
0.0
 10
52.4437881466494
 20
2.170997923046935
 30
0.0
 10
51.62082012554765
 20
2.483774136709413
 30
0.0
 10
49.99248554649193
 20
3.064819656195742
 30
0.0
 10
49.18728380134435
 20
3.332672217779582
 30
0.0
 10
48.39272536947308
 20
3.573612189250388
 30
0.0
  0
LINE
  5
C1
330
1F
100
AcDbEntity
  8
외형선
  6
Continuous
 62
     1
370
    15
100
AcDbLine
 10
53.27500000000001
 20
0.6958225658470417
 30
0.0
 11
53.27500000000001
 21
1.83737642629326
 31
0.0
  0
LINE
  5
C2
330
1F
100
AcDbEntity
  8
외형선
  6
Continuous
 62
     1
370
    15
100
AcDbLine
 10
53.27500000000001
 20
1.837376426293259
 30
0.0
 11
53.27500000000001
 21
6.167475262783497
 31
0.0
  0
LINE
  5
C3
330
1F
100
AcDbEntity
  8
외형선
  6
Continuous
 62
     1
370
    15
100
AcDbLine
 10
53.27500000000001
 20
-4.906561186963901
 30
0.0
 11
53.27500000000001
 21
-5.568392862373735
 31
0.0
  0
LINE
  5
C5
330
1F
100
AcDbEntity
  8
중심선
 62
     1
100
AcDbLine
 10
-53.325
 20
-0.0000000000000046
 30
0.0
 11
60.27500000000001
 21
0.0000000000000052
 31
0.0
  0
LINE
  5
C6
330
1F
100
AcDbEntity
  8
참조1
100
AcDbLine
 10
2.475000000000003
 20
0.2211007829333217
 30
0.0
 11
2.475000000000008
 21
-39.77889921706668
 31
0.0
  0
LINE
  5
C7
330
1F
100
AcDbEntity
  8
참조1
100
AcDbLine
 10
2.475000000000008
 20
-39.77889921706668
 30
0.0
 11
-9.499337839485703
 21
-39.77889921706667
 31
0.0
  0
CIRCLE
  5
C8
330
1F
100
AcDbEntity
  8
해칭선
100
AcDbCircle
 10
0.0
 20
0.0
 30
0.0
 40
3.000000000000001
  0
INSERT
  5
C9
330
1F
100
AcDbEntity
  8
0
  6
Continuous
 62
     7
100
AcDbBlockReference
 66
     1
  2
블럭10
 10
-11.4652729321252
 20
-51.82607351871061
 30
0.0
  0
ATTRIB
  5
CA
330
C9
100
AcDbEntity
  8
FORMAT
 62
     2
100
AcDbText
 10
-20.64656822086648
 20
-49.75070660587842
 30
0.0
 40
4.233333333333333
  1
E5104048 [ 3 FLUTE ]
 41
0.75
  7
SLDTEXTSTYLE0
 11
-20.64656822086648
 21
-51.86737327254509
 31
0.0
100
AcDbAttribute
  2
AUTOATTR0
 70
     0
 74
     1
  0
SEQEND
  5
CB
330
C9
100
AcDbEntity
  8
0
  6
Continuous
 62
     7
  0
HATCH
  5
CC
330
1F
100
AcDbEntity
  8
중심선
100
AcDbHatch
 10
0.0
 20
0.0
 30
0.0
210
0.0
220
0.0
230
1.0
  2
SOLID
 70
     1
 71
     0
 91
        1
 92
        0
 93
        4
 72
     1
 10
-5.750363627744367
 20
-35.57889921706667
 11
-9.19663887158165
 21
-35.57889921706667
 72
     1
 10
-9.19663887158165
 20
-35.57889921706667
 11
-11.32486873078567
 21
-38.11522479763927
 72
     1
 10
-11.32486873078567
 20
-38.11522479763927
 11
-7.878560401835241
 21
-38.11518536833677
 72
     1
 10
-7.878560401835241
 20
-38.11518536833677
 11
-5.750363627744367
 21
-35.57889921706667
 97
        0
 75
     0
 76
     1
 98
        1
 10
2.0
 20
0.2200258542094325
  0
HATCH
  5
CD
330
1F
100
AcDbEntity
  8
중심선
100
AcDbHatch
 10
0.0
 20
0.0
 30
0.0
210
0.0
220
0.0
230
1.0
  2
SOLID
 70
     1
 71
     0
 91
        1
 92
        0
 93
        4
 72
     1
 10
-0.7375996367083877
 20
-35.57889921706667
 11
-4.18387488054567
 21
-35.57889921706667
 72
     1
 10
-4.18387488054567
 20
-35.57889921706667
 11
-8.715012888903086
 21
-40.97889921706669
 72
     1
 10
-8.715012888903086
 20
-40.97889921706669
 11
-5.268737645065803
 21
-40.97889921706669
 72
     1
 10
-5.268737645065803
 20
-40.97889921706669
 11
-0.7375996367083877
 21
-35.57889921706667
 97
        0
 75
     0
 76
     1
 98
        1
 10
2.0
 20
0.2200258542094325
  0
HATCH
  5
CE
330
1F
100
AcDbEntity
  8
중심선
100
AcDbHatch
 10
0.0
 20
0.0
 30
0.0
210
0.0
220
0.0
230
1.0
  2
SOLID
 70
     1
 71
     0
 91
        1
 92
        0
 93
        4
 72
     1
 10
4.275164354327508
 20
-35.57889921706667
 11
0.8288891104903646
 21
-35.5788992170667
 72
     1
 10
0.8288891104903644
 20
-35.5788992170667
 11
-6.219547791398885
 21
-43.97889921706669
 72
     1
 10
-6.219547791398885
 20
-43.97889921706669
 11
-2.773272547561602
 21
-43.97889921706669
 72
     1
 10
-2.773272547561602
 20
-43.97889921706669
 11
4.275164354327508
 21
-35.57889921706667
 97
        0
 75
     0
 76
     1
 98
        1
 10
2.0
 20
0.2200258542094325
  0
HATCH
  5
CF
330
1F
100
AcDbEntity
  8
중심선
100
AcDbHatch
 10
0.0
 20
0.0
 30
0.0
210
0.0
220
0.0
230
1.0
  2
SOLID
 70
     1
 71
     0
 91
        1
 92
        0
 93
        6
 72
     3
 10
9.07505478533968
 20
-39.77889921711795
 11
3.960054785062283
 21
1.540882976769353E-10
 40
0.3939339440162628
 50
17.09539180608439
 51
320.0019657685083
 73
     0
 72
     1
 10
10.75805444104025
 20
-38.366793221705
 11
13.06335631474131
 21
-36.43246651165706
 72
     3
 10
9.075054785286833
 20
-39.77889921706682
 11
6.600054785286829
 21
-1.278976924368180E-13
 40
0.636358354079598
 50
39.99873849337411
 51
368.4976242363724
 73
     1
 72
     1
 10
15.50038727718744
 20
-38.8188992169967
 11
7.755122092122756
 21
-38.8188992169967
 72
     1
 10
7.755122092122756
 20
-38.8188992169967
 11
7.755097047676822
 21
-40.73889921699659
 72
     1
 10
7.755097047676822
 20
-40.73889921699659
 11
12.19647681714886
 21
-40.73889921699656
 97
        0
 75
     0
 76
     1
 98
        1
 10
2.0
 20
0.2200258542094325
  0
DIMENSION
  5
D0
330
1F
100
AcDbEntity
  8
치수문자_일반주서
100
AcDbDimension
  2
_D
 10
53.27500000000001
 20
51.15159118867697
 30
0.0
 11
2.475000000000009
 21
51.15159118867697
 31
0.0
 70
   160
  1
<>
 71
     2
 42
101.6
  3
SLDDIMSTYLE0
100
AcDbAlignedDimension
 13
-48.32499999999998
 23
9.52499999999999
 33
0.0
 14
53.27500000000001
 24
9.525000000000189
 34
0.0
100
AcDbRotatedDimension
1001
ACAD
1000
DSTYLE
1002
{
1070
   273
1070
     7
1002
}
  0
DIMENSION
  5
E4
330
1F
100
AcDbEntity
  8
치수문자_일반주서
100
AcDbDimension
  2
_D_1
 10
-61.77744100233318
 20
-9.525000000000059
 30
0.0
 11
-61.77744100233332
 21
29.91024999999997
 31
0.0
 70
   160
  1
%%c<>
 71
     2
 42
19.05000000000001
 52
-270.0
  3
SLDDIMSTYLE1
100
AcDbAlignedDimension
 13
-48.32499999999998
 23
9.524999999999997
 33
0.0
 14
-48.31597789444523
 24
-9.525000000000013
 34
0.0
 50
90.0000000000002
100
AcDbRotatedDimension
1001
ACAD
1000
DSTYLE
1002
{
1070
   273
1070
     7
1002
}
  0
DIMENSION
  5
F9
330
1F
100
AcDbEntity
  8
치수문자_일반주서
100
AcDbDimension
  2
_D_2
 10
12.00000000000002
 20
29.2579838661212
 30
0.0
 11
-11.48680694885081
 21
29.2579838661212
 31
0.0
 70
   160
  1
<>
 71
     2
 42
41.27499999999999
  3
SLDDIMSTYLE2
100
AcDbAlignedDimension
 13
53.27500000000001
 23
9.525000000000189
 33
0.0
 14
12.00000000000002
 24
9.525000000000043
 34
0.0
 50
0.0000000000000049
100
AcDbRotatedDimension
1001
ACAD
1000
DSTYLE
1002
{
1070
   171
1070
     3
1070
   273
1070
     7
1002
}
1001
ACAD_DSTYLE_DIMFLIPARROW_SYMBOL
1070
   385
1070
     0
1001
ACAD_DSTYLE_DIMFLIPARROW_WHICH_SYMBOL
1070
   386
1070
     3
  0
DIMENSION
  5
10D
330
1F
100
AcDbEntity
  8
치수문자_일반주서
100
AcDbDimension
  2
_D_3
 10
68.27500000000008
 20
-9.524999999999775
 30
0.0
 11
68.27499999999993
 21
29.91025000000024
 31
0.0
 70
   160
  1
%%c<>
 71
     2
 42
19.05000000000002
 52
-270.0
  3
SLDDIMSTYLE1
100
AcDbAlignedDimension
 13
53.27500000000001
 23
9.525000000000189
 33
0.0
 14
53.28277854451976
 24
-9.524999999999832
 34
0.0
 50
90.0000000000002
100
AcDbRotatedDimension
1001
ACAD
1000
DSTYLE
1002
{
1070
   273
1070
     7
1002
}
  0
LINE
  5
121
330
1F
100
AcDbEntity
  8
참조1
100
AcDbLine
 10
88.47300279016856
 20
7.661100782933329
 30
0.0
 11
88.47300279016856
 21
-7.218899217066676
 31
0.0
  0
LINE
  5
122
330
1F
100
AcDbEntity
  8
참조1
100
AcDbLine
 10
101.1730027901686
 20
5.661100782933329
 30
0.0
 11
88.47300279016856
 21
5.661100782933329
 31
0.0
  0
SOLID
  5
123
330
1F
100
AcDbEntity
  8
참조1
100
AcDbTrace
 10
88.47300279016856
 20
5.661100782933329
 30
0.0
 11
94.82300279016856
 21
4.645100782933329
 31
0.0
 12
94.82300279016856
 22
6.677100782933329
 32
0.0
 13
94.82300279016856
 23
6.677100782933329
 33
0.0
  0
LINE
  5
124
330
1F
100
AcDbEntity
  8
참조1
100
AcDbLine
 10
101.1730027901686
 20
-5.218899217066676
 30
0.0
 11
88.47300279016856
 21
-5.218899217066676
 31
0.0
  0
SOLID
  5
125
330
1F
100
AcDbEntity
  8
참조1
100
AcDbTrace
 10
88.47300279016856
 20
-5.218899217066676
 30
0.0
 11
94.82300279016856
 21
-6.234899217066676
 31
0.0
 12
94.82300279016856
 22
-4.202899217066676
 32
0.0
 13
94.82300279016856
 23
-4.202899217066676
 33
0.0
  0
MTEXT
  5
126
330
1F
100
AcDbEntity
  8
참조1
100
AcDbMText
 10
97.87049288263884
 20
11.20931742758326
 30
0.0
 40
3.5
 41
0.0
 71
     1
 72
     1
  1
A
  7
SLDTEXTSTYLE0
 73
     1
 44
1.0
  0
MTEXT
  5
127
330
1F
100
AcDbEntity
  8
참조1
100
AcDbMText
 10
97.87049288263884
 20
0.3293174275832584
 30
0.0
 40
3.5
 41
0.0
 71
     1
 72
     1
  1
A
  7
SLDTEXTSTYLE0
 73
     1
 44
1.0
  0
INSERT
  5
12E
330
1F
100
AcDbEntity
  8
해칭선
100
AcDbBlockReference
  2
SW_DOWELSYMBOL_0
 10
0.0
 20
0.0
 30
0.0
  0
ARC
  5
167
330
1F
100
AcDbEntity
  8
0
 62
     1
100
AcDbCircle
 10
52.38600000000001
 20
8.636000000000193
 30
0.0
 40
0.8889999999999997
100
AcDbArc
 50
0.0
 51
90.0
  0
MTEXT
  5
192
102
{ACAD_REACTORS
330
193
102
}
330
1F
100
AcDbEntity
  8
0
100
AcDbMText
 10
62.77079523746184
 20
-26.4412978936851
 30
0.0
 40
3.5
 41
0.0
 71
     7
 72
     1
  1
{R0.89[.035"]}
 73
     1
 44
1.0
1001
ACAD
1000
ACAD_MTEXT_DEFINED_HEIGHT_BEGIN
1070
    46
1040
3.5
1000
ACAD_MTEXT_DEFINED_HEIGHT_END
  0
LEADER
  5
193
102
{ACAD_XDICTIONARY
360
194
102
}
330
1F
100
AcDbEntity
  8
0
100
AcDbLeader
  3
ISO-25
 73
     0
 74
     0
 75
     1
 40
3.5
 41
31.5
 76
     3
 10
52.20479445177345
 20
-8.281201618066579
 30
0.0
 10
57.94479523746184
 20
-24.6912978936851
 30
0.0
 10
61.24679523746184
 20
-24.6912978936851
 30
0.0
340
192
213
0.0
223
1.75
233
0.0
1001
ACAD
1000
DSTYLE
1002
{
1070
    77
1070
     0
1070
   179
1070
     2
1070
   143
1040
0.0393700787401575
1070
    41
1040
3.302
1070
    44
1040
1.0
1070
    42
1040
1.0
1070
   147
1040
1.524
1070
    73
1070
     1
1070
    74
1070
     1
1070
   140
1040
3.5
1070
   284
1070
     0
1070
    78
1070
     0
1002
}
  0
LINE
  5
1EE
330
1F
100
AcDbEntity
  8
외형선
  6
Continuous
370
    15
100
AcDbLine
 10
-28.31932499999996
 20
7.620000000000001
 30
0.0
 11
-16.73692499999996
 21
7.620000000000001
 31
0.0
1001
PE_URL
1000

  0
LINE
  5
1EF
330
1F
100
AcDbEntity
  8
외형선
  6
Continuous
370
    15
100
AcDbLine
 10
-28.31932499999996
 20
7.619999999999987
 30
0.0
 11
-30.22432500000011
 21
9.525000000000016
 31
0.0
1001
PE_URL
1000

  0
LINE
  5
1F0
330
1F
100
AcDbEntity
  8
외형선
  6
Continuous
370
    15
100
AcDbLine
 10
-16.73692499999996
 20
7.619999999999987
 30
0.0
 11
-14.83192499999998
 21
9.525000000000016
 31
0.0
1001
PE_URL
1000

  0
LINE
  5
1F3
330
1F
100
AcDbEntity
  8
외형선
  6
Continuous
370
    15
100
AcDbLine
 10
-14.83192499999998
 20
9.525000000000016
 30
0.0
 11
8.949954557147482
 21
9.524999999999997
 31
0.0
1001
PE_URL
1000

  0
ENDSEC
  0
SECTION
  2
OBJECTS
  0
DICTIONARY
  5
C
330
0
100
AcDbDictionary
281
     1
  3
ACAD_DETAILVIEWSTYLE
350
156
  3
ACAD_GROUP
350
D
  3
ACAD_LAYOUT
350
1A
  3
ACAD_MLINESTYLE
350
17
  3
ACAD_PLOTSETTINGS
350
19
  3
ACAD_PLOTSTYLENAME
350
E
  3
ACAD_SCALELIST
350
47
  3
ACAD_SECTIONVIEWSTYLE
350
157
  3
AcDbVariableDictionary
350
151
  3
APPDATA
350
150
  3
DWGPROPS
350
217
  0
DICTIONARY
  5
1E5
330
2
100
AcDbDictionary
280
     1
281
     1
  3
ACAD_LAYERSTATES
360
1E6
  0
DICTIONARY
  5
194
330
193
100
AcDbDictionary
280
     1
281
     1
  3
*A1
360
195
  0
DICTIONARY
  5
156
102
{ACAD_REACTORS
330
C
102
}
330
C
100
AcDbDictionary
281
     1
  0
DICTIONARY
  5
D
102
{ACAD_REACTORS
330
C
102
}
330
C
100
AcDbDictionary
281
     1
  0
DICTIONARY
  5
1A
102
{ACAD_REACTORS
330
C
102
}
330
C
100
AcDbDictionary
281
     1
  3
Layout1
350
1E
  3
Layout2
350
26
  3
Model
350
22
  0
DICTIONARY
  5
17
102
{ACAD_REACTORS
330
C
102
}
330
C
100
AcDbDictionary
281
     1
  3
Standard
350
18
  0
DICTIONARY
  5
19
102
{ACAD_REACTORS
330
C
102
}
330
C
100
AcDbDictionary
281
     1
  0
ACDBDICTIONARYWDFLT
  5
E
102
{ACAD_REACTORS
330
C
102
}
330
C
100
AcDbDictionary
281
     1
  3
Normal
350
F
100
AcDbDictionaryWithDefault
340
F
  0
DICTIONARY
  5
47
102
{ACAD_REACTORS
330
C
102
}
330
C
100
AcDbDictionary
281
     1
  3
A0
350
48
  3
A1
350
49
  3
A2
350
4A
  3
A3
350
4B
  3
A4
350
4C
  3
A5
350
4D
  3
A6
350
4E
  3
A7
350
4F
  3
A8
350
50
  3
A9
350
51
  3
B0
350
52
  3
B1
350
53
  3
B2
350
54
  3
B3
350
55
  3
B4
350
56
  3
B5
350
57
  3
B6
350
58
  3
B7
350
59
  3
B8
350
5A
  3
B9
350
5B
  3
C0
350
5C
  3
C1
350
5D
  3
C2
350
5E
  3
C3
350
5F
  3
C4
350
60
  3
C5
350
61
  3
C6
350
62
  3
C7
350
63
  3
C8
350
64
  3
C9
350
65
  3
D0
350
66
  3
D1
350
67
  3
D2
350
68
  0
DICTIONARY
  5
157
102
{ACAD_REACTORS
330
C
102
}
330
C
100
AcDbDictionary
281
     1
  0
DICTIONARY
  5
151
102
{ACAD_REACTORS
330
C
102
}
330
C
100
AcDbDictionary
281
     1
  0
DICTIONARY
  5
150
102
{ACAD_REACTORS
330
C
102
}
330
C
100
AcDbDictionary
281
     1
  0
XRECORD
  5
217
102
{ACAD_REACTORS
330
C
102
}
330
C
100
AcDbXrecord
280
     1
  1
DWGPROPS COOKIE
  2

  3

  4

  6

  7

  8
12017103
  9

300
=
301
=
302
=
303
=
304
=
305
=
306
=
307
=
308
=
309
=
 40
0.0
 41
2458290.30331713
 42
2458299.391837894
  1

 90
        0
  0
DICTIONARY
  5
1E6
102
{ACAD_REACTORS
330
1E5
102
}
330
1E5
100
AcDbDictionary
281
     1
  0
SPLINE
  5
195
102
{ACAD_REACTORS
330
194
102
}
330
194
100
AcDbEntity
  8
외형선
  6
Continuous
 62
     1
370
    15
100
AcDbSpline
210
0.0
220
0.0
230
1.0
 70
     8
 71
     3
 72
    29
 73
    25
 74
     0
 42
0.000000001
 43
0.00000001
 40
0.0
 40
0.0
 40
0.0
 40
0.0
 40
0.0422644495549575
 40
0.0894133481135558
 40
0.1360887908804358
 40
0.183088732683559
 40
0.2297638819666308
 40
0.2767625414519669
 40
0.323437633749297
 40
0.3704354120323877
 40
0.4171106810586105
 40
0.464107897037571
 40
0.5107833946634068
 40
0.5577805359514474
 40
0.6044561394422602
 40
0.651453806121575
 40
0.6980998941979074
 40
0.7450685450090514
 40
0.7915976398774139
 40
0.8384484734548767
 40
0.8795785645527328
 40
0.920930788652952
 40
0.9603675209920361
 40
1.0
 40
1.0
 40
1.0
 40
1.0
 10
12.38189177007194
 20
1.248479460924195
 30
0.0
 10
12.52654344348548
 20
1.258273475674198
 30
0.0
 10
12.8325640013379
 20
1.278993387077104
 30
0.0
 10
13.29773257188337
 20
1.254108412177238
 30
0.0
 10
13.78025596066385
 20
1.187861475668798
 30
0.0
 10
14.25966703328228
 20
1.076843206459327
 30
0.0
 10
14.7418375996466
 20
0.9278143507748849
 30
0.0
 10
15.22126826210304
 20
0.7422259995311946
 30
0.0
 10
15.70321466955698
 20
0.5287568400491983
 30
0.0
 10
16.18301476867187
 20
0.291415106865743
 30
0.0
 10
16.66438564818222
 20
0.0386509998105593
 30
0.0
 10
17.14481199956303
 20
-0.2211140264741509
 30
0.0
 10
17.62559449395425
 20
-0.4827611477767423
 30
0.0
 10
18.10652182376923
 20
-0.7336501666871716
 30
0.0
 10
18.58700798445997
 20
-0.9720014204249832
 30
0.0
 10
19.06797035806053
 20
-1.184275237010919
 30
0.0
 10
19.54830862416817
 20
-1.369853183592872
 30
0.0
 10
20.02843114246354
 20
-1.518172522965445
 30
0.0
 10
20.50823986679071
 20
-1.62831800107122
 30
0.0
 10
20.96857053986777
 20
-1.692379933129987
 30
0.0
 10
21.41107311362818
 20
-1.715381820442324
 30
0.0
 10
21.82821005632637
 20
-1.70162911792889
 30
0.0
 10
22.2401103516564
 20
-1.656726206160658
 30
0.0
 10
22.51072264209905
 20
-1.601263250205901
 30
0.0
 10
22.64636375622617
 20
-1.573463119154277
 30
0.0
  0
LAYOUT
  5
1E
102
{ACAD_REACTORS
330
1A
102
}
330
1A
100
AcDbPlotSettings
  1

  2
none_device
  4

  6

 40
0.0
 41
0.0
 42
0.0
 43
0.0
 44
0.0
 45
0.0
 46
0.0
 47
0.0
 48
0.0
 49
0.0
140
0.0
141
0.0
142
1.0
143
1.0
 70
   688
 72
     1
 73
     0
 74
     5
  7

 75
    16
147
1.0
148
0.0
149
0.0
100
AcDbLayout
  1
Layout1
 70
     1
 71
     1
 10
0.0
 20
0.0
 11
420.0
 21
297.0
 12
0.0
 22
0.0
 32
0.0
 14
1.000000000000000E+20
 24
1.000000000000000E+20
 34
1.000000000000000E+20
 15
-1.000000000000000E+20
 25
-1.000000000000000E+20
 35
-1.000000000000000E+20
146
0.0
 13
0.0
 23
0.0
 33
0.0
 16
1.0
 26
0.0
 36
0.0
 17
0.0
 27
1.0
 37
0.0
 76
     0
330
1B
  0
LAYOUT
  5
26
102
{ACAD_REACTORS
330
1A
102
}
330
1A
100
AcDbPlotSettings
  1

  2
none_device
  4

  6

 40
0.0
 41
0.0
 42
0.0
 43
0.0
 44
0.0
 45
0.0
 46
0.0
 47
0.0
 48
0.0
 49
0.0
140
0.0
141
0.0
142
1.0
143
1.0
 70
   688
 72
     1
 73
     0
 74
     5
  7

 75
    16
147
1.0
148
0.0
149
0.0
100
AcDbLayout
  1
Layout2
 70
     1
 71
     2
 10
0.0
 20
0.0
 11
0.0
 21
0.0
 12
0.0
 22
0.0
 32
0.0
 14
0.0
 24
0.0
 34
0.0
 15
0.0
 25
0.0
 35
0.0
146
0.0
 13
0.0
 23
0.0
 33
0.0
 16
1.0
 26
0.0
 36
0.0
 17
0.0
 27
1.0
 37
0.0
 76
     0
330
23
  0
LAYOUT
  5
22
102
{ACAD_REACTORS
330
1A
102
}
330
1A
100
AcDbPlotSettings
  1

  2
none_device
  4
ANSI_A_(11.00_x_8.50_Inches)
  6

 40
6.35
 41
19.05
 42
6.35000508
 43
19.05000254
 44
279.4
 45
215.9
 46
121.1690734608126
 47
76.82608264933266
 48
0.0
 49
0.0
140
0.0
141
0.0
142
0.0597396848970193
143
1.0
 70
  1696
 72
     0
 73
     0
 74
     0
  7

 75
     0
147
0.0235690232323232
148
0.0
149
0.0
100
AcDbLayout
  1
Model
 70
     1
 71
     0
 10
0.0
 20
0.0
 11
420.0
 21
297.0
 12
0.0
 22
0.0
 32
0.0
 14
-66.15244100233336
 24
-49.75070660587842
 34
0.0
 15
101.1730027901686
 25
55.52659118867697
 35
0.0
146
0.0
 13
0.0
 23
0.0
 33
0.0
 16
1.0
 26
0.0
 36
0.0
 17
0.0
 27
1.0
 37
0.0
 76
     0
330
1F
331
29
  0
MLINESTYLE
  5
18
102
{ACAD_REACTORS
330
17
102
}
330
17
100
AcDbMlineStyle
  2
Standard
 70
     0
  3

 62
   256
 51
90.0
 52
90.0
 71
     2
 49
0.5
 62
   256
  6
BYLAYER
 49
-0.5
 62
   256
  6
BYLAYER
  0
ACDBPLACEHOLDER
  5
F
102
{ACAD_REACTORS
330
E
102
}
330
E
  0
SCALE
  5
48
102
{ACAD_REACTORS
330
47
102
}
330
47
100
AcDbScale
 70
     0
300
1:1
140
1.0
141
1.0
290
     1
  0
SCALE
  5
49
102
{ACAD_REACTORS
330
47
102
}
330
47
100
AcDbScale
 70
     0
300
1:2
140
1.0
141
2.0
290
     0
  0
SCALE
  5
4A
102
{ACAD_REACTORS
330
47
102
}
330
47
100
AcDbScale
 70
     0
300
1:4
140
1.0
141
4.0
290
     0
  0
SCALE
  5
4B
102
{ACAD_REACTORS
330
47
102
}
330
47
100
AcDbScale
 70
     0
300
1:5
140
1.0
141
5.0
290
     0
  0
SCALE
  5
4C
102
{ACAD_REACTORS
330
47
102
}
330
47
100
AcDbScale
 70
     0
300
1:8
140
1.0
141
8.0
290
     0
  0
SCALE
  5
4D
102
{ACAD_REACTORS
330
47
102
}
330
47
100
AcDbScale
 70
     0
300
1:10
140
1.0
141
10.0
290
     0
  0
SCALE
  5
4E
102
{ACAD_REACTORS
330
47
102
}
330
47
100
AcDbScale
 70
     0
300
1:16
140
1.0
141
16.0
290
     0
  0
SCALE
  5
4F
102
{ACAD_REACTORS
330
47
102
}
330
47
100
AcDbScale
 70
     0
300
1:20
140
1.0
141
20.0
290
     0
  0
SCALE
  5
50
102
{ACAD_REACTORS
330
47
102
}
330
47
100
AcDbScale
 70
     0
300
1:30
140
1.0
141
30.0
290
     0
  0
SCALE
  5
51
102
{ACAD_REACTORS
330
47
102
}
330
47
100
AcDbScale
 70
     0
300
1:40
140
1.0
141
40.0
290
     0
  0
SCALE
  5
52
102
{ACAD_REACTORS
330
47
102
}
330
47
100
AcDbScale
 70
     0
300
1:50
140
1.0
141
50.0
290
     0
  0
SCALE
  5
53
102
{ACAD_REACTORS
330
47
102
}
330
47
100
AcDbScale
 70
     0
300
1:100
140
1.0
141
100.0
290
     0
  0
SCALE
  5
54
102
{ACAD_REACTORS
330
47
102
}
330
47
100
AcDbScale
 70
     0
300
2:1
140
2.0
141
1.0
290
     0
  0
SCALE
  5
55
102
{ACAD_REACTORS
330
47
102
}
330
47
100
AcDbScale
 70
     0
300
4:1
140
4.0
141
1.0
290
     0
  0
SCALE
  5
56
102
{ACAD_REACTORS
330
47
102
}
330
47
100
AcDbScale
 70
     0
300
8:1
140
8.0
141
1.0
290
     0
  0
SCALE
  5
57
102
{ACAD_REACTORS
330
47
102
}
330
47
100
AcDbScale
 70
     0
300
10:1
140
10.0
141
1.0
290
     0
  0
SCALE
  5
58
102
{ACAD_REACTORS
330
47
102
}
330
47
100
AcDbScale
 70
     0
300
100:1
140
100.0
141
1.0
290
     0
  0
SCALE
  5
59
102
{ACAD_REACTORS
330
47
102
}
330
47
100
AcDbScale
 70
     0
300
1/128" = 1'-0"
140
0.0078125
141
12.0
290
     0
  0
SCALE
  5
5A
102
{ACAD_REACTORS
330
47
102
}
330
47
100
AcDbScale
 70
     0
300
1/64" = 1'-0"
140
0.015625
141
12.0
290
     0
  0
SCALE
  5
5B
102
{ACAD_REACTORS
330
47
102
}
330
47
100
AcDbScale
 70
     0
300
1/32" = 1'-0"
140
0.03125
141
12.0
290
     0
  0
SCALE
  5
5C
102
{ACAD_REACTORS
330
47
102
}
330
47
100
AcDbScale
 70
     0
300
1/16" = 1'-0"
140
0.0625
141
12.0
290
     0
  0
SCALE
  5
5D
102
{ACAD_REACTORS
330
47
102
}
330
47
100
AcDbScale
 70
     0
300
3/32" = 1'-0"
140
0.09375
141
12.0
290
     0
  0
SCALE
  5
5E
102
{ACAD_REACTORS
330
47
102
}
330
47
100
AcDbScale
 70
     0
300
1/8" = 1'-0"
140
0.125
141
12.0
290
     0
  0
SCALE
  5
5F
102
{ACAD_REACTORS
330
47
102
}
330
47
100
AcDbScale
 70
     0
300
3/16" = 1'-0"
140
0.1875
141
12.0
290
     0
  0
SCALE
  5
60
102
{ACAD_REACTORS
330
47
102
}
330
47
100
AcDbScale
 70
     0
300
1/4" = 1'-0"
140
0.25
141
12.0
290
     0
  0
SCALE
  5
61
102
{ACAD_REACTORS
330
47
102
}
330
47
100
AcDbScale
 70
     0
300
3/8" = 1'-0"
140
0.375
141
12.0
290
     0
  0
SCALE
  5
62
102
{ACAD_REACTORS
330
47
102
}
330
47
100
AcDbScale
 70
     0
300
1/2" = 1'-0"
140
0.5
141
12.0
290
     0
  0
SCALE
  5
63
102
{ACAD_REACTORS
330
47
102
}
330
47
100
AcDbScale
 70
     0
300
3/4" = 1'-0"
140
0.75
141
12.0
290
     0
  0
SCALE
  5
64
102
{ACAD_REACTORS
330
47
102
}
330
47
100
AcDbScale
 70
     0
300
1" = 1'-0"
140
1.0
141
12.0
290
     0
  0
SCALE
  5
65
102
{ACAD_REACTORS
330
47
102
}
330
47
100
AcDbScale
 70
     0
300
1-1/2" = 1'-0"
140
1.5
141
12.0
290
     0
  0
SCALE
  5
66
102
{ACAD_REACTORS
330
47
102
}
330
47
100
AcDbScale
 70
     0
300
3" = 1'-0"
140
3.0
141
12.0
290
     0
  0
SCALE
  5
67
102
{ACAD_REACTORS
330
47
102
}
330
47
100
AcDbScale
 70
     0
300
6" = 1'-0"
140
6.0
141
12.0
290
     0
  0
SCALE
  5
68
102
{ACAD_REACTORS
330
47
102
}
330
47
100
AcDbScale
 70
     0
300
1'-0" = 1'-0"
140
12.0
141
12.0
290
     0
  0
ENDSEC
  0
EOF
