  0
SECTION
  2
HEADER
  9
$ACADVER
  1
AC1015
  9
$ACADMAINTVER
 70
     6
  9
$DWGCODEPAGE
  3
ANSI_949
  9
$INSBASE
 10
0.0
 20
0.0
 30
0.0
  9
$EXTMIN
 10
-57.54585040270766
 20
-49.97073246008785
 30
0.0
  9
$EXTMAX
 10
99.17300279016857
 20
53.33003065978271
 30
0.0
  9
$LIMMIN
 10
0.0
 20
0.0
  9
$LIMMAX
 10
420.0
 20
297.0
  9
$ORTHOMODE
 70
     1
  9
$REGENMODE
 70
     1
  9
$FILLMODE
 70
     1
  9
$QTEXTMODE
 70
     0
  9
$MIRRTEXT
 70
     1
  9
$LTSCALE
 40
1.0
  9
$ATTMODE
 70
     1
  9
$TEXTSIZE
 40
3.5
  9
$TRACEWID
 40
1.0
  9
$TEXTSTYLE
  7
Standard
  9
$CLAYER
  8
0
  9
$CELTYPE
  6
ByLayer
  9
$CECOLOR
 62
   256
  9
$CELTSCALE
 40
1.0
  9
$DISPSILH
 70
     0
  9
$DIMSCALE
 40
1.0
  9
$DIMASZ
 40
3.302
  9
$DIMEXO
 40
1.0
  9
$DIMDLI
 40
3.75
  9
$DIMRND
 40
0.0
  9
$DIMDLE
 40
0.0
  9
$DIMEXE
 40
1.0
  9
$DIMTP
 40
0.0
  9
$DIMTM
 40
0.0
  9
$DIMTXT
 40
3.5
  9
$DIMCEN
 40
2.5
  9
$DIMTSZ
 40
0.0
  9
$DIMTOL
 70
     0
  9
$DIMLIM
 70
     0
  9
$DIMTIH
 70
     1
  9
$DIMTOH
 70
     1
  9
$DIMSE1
 70
     0
  9
$DIMSE2
 70
     0
  9
$DIMTAD
 70
     1
  9
$DIMZIN
 70
     0
  9
$DIMBLK
  1

  9
$DIMASO
 70
     1
  9
$DIMSHO
 70
     1
  9
$DIMPOST
  1

  9
$DIMAPOST
  1

  9
$DIMALT
 70
     0
  9
$DIMALTD
 70
     3
  9
$DIMALTF
 40
0.0393700787401575
  9
$DIMLFAC
 40
1.0
  9
$DIMTOFL
 70
     1
  9
$DIMTVP
 40
0.0
  9
$DIMTIX
 70
     0
  9
$DIMSOXD
 70
     0
  9
$DIMSAH
 70
     0
  9
$DIMBLK1
  1

  9
$DIMBLK2
  1

  9
$DIMSTYLE
  2
ISO-25
  9
$DIMCLRD
 70
     0
  9
$DIMCLRE
 70
     0
  9
$DIMCLRT
 70
     0
  9
$DIMTFAC
 40
1.0
  9
$DIMGAP
 40
1.524
  9
$DIMJUST
 70
     0
  9
$DIMSD1
 70
     0
  9
$DIMSD2
 70
     0
  9
$DIMTOLJ
 70
     0
  9
$DIMTZIN
 70
     0
  9
$DIMALTZ
 70
     0
  9
$DIMALTTZ
 70
     0
  9
$DIMUPT
 70
     0
  9
$DIMDEC
 70
     2
  9
$DIMTDEC
 70
     2
  9
$DIMALTU
 70
     2
  9
$DIMALTTD
 70
     3
  9
$DIMTXSTY
  7
Standard
  9
$DIMAUNIT
 70
     0
  9
$DIMADEC
 70
     2
  9
$DIMALTRND
 40
0.0
  9
$DIMAZIN
 70
     0
  9
$DIMDSEP
 70
    44
  9
$DIMATFIT
 70
     3
  9
$DIMFRAC
 70
     0
  9
$DIMLDRBLK
  1

  9
$DIMLUNIT
 70
     2
  9
$DIMLWD
 70
    -2
  9
$DIMLWE
 70
    -2
  9
$DIMTMOVE
 70
     0
  9
$LUNITS
 70
     2
  9
$LUPREC
 70
     2
  9
$SKETCHINC
 40
1.0
  9
$FILLETRAD
 40
0.889
  9
$AUNITS
 70
     0
  9
$AUPREC
 70
     2
  9
$MENU
  1
.
  9
$ELEVATION
 40
0.0
  9
$PELEVATION
 40
0.0
  9
$THICKNESS
 40
0.0
  9
$LIMCHECK
 70
     0
  9
$CHAMFERA
 40
0.0
  9
$CHAMFERB
 40
0.0
  9
$CHAMFERC
 40
0.0
  9
$CHAMFERD
 40
0.0
  9
$SKPOLY
 70
     0
  9
$TDCREATE
 40
2458290.678128276
  9
$TDUCREATE
 40
2458290.303128276
  9
$TDUPDATE
 40
2458299.766810197
  9
$TDUUPDATE
 40
2458299.391810197
  9
$TDINDWG
 40
0.0035667708
  9
$TDUSRTIMER
 40
0.0000323958
  9
$USRTIMER
 70
     1
  9
$ANGBASE
 50
0.0
  9
$ANGDIR
 70
     0
  9
$PDMODE
 70
     0
  9
$PDSIZE
 40
-1.0
  9
$PLINEWID
 40
0.0
  9
$SPLFRAME
 70
     0
  9
$SPLINETYPE
 70
     6
  9
$SPLINESEGS
 70
     8
  9
$HANDSEED
  5
241
  9
$SURFTAB1
 70
     6
  9
$SURFTAB2
 70
     6
  9
$SURFTYPE
 70
     6
  9
$SURFU
 70
     6
  9
$SURFV
 70
     6
  9
$UCSBASE
  2

  9
$UCSNAME
  2

  9
$UCSORG
 10
0.0
 20
0.0
 30
0.0
  9
$UCSXDIR
 10
1.0
 20
0.0
 30
0.0
  9
$UCSYDIR
 10
0.0
 20
1.0
 30
0.0
  9
$UCSORTHOREF
  2

  9
$UCSORTHOVIEW
 70
     0
  9
$UCSORGTOP
 10
0.0
 20
0.0
 30
0.0
  9
$UCSORGBOTTOM
 10
0.0
 20
0.0
 30
0.0
  9
$UCSORGLEFT
 10
0.0
 20
0.0
 30
0.0
  9
$UCSORGRIGHT
 10
0.0
 20
0.0
 30
0.0
  9
$UCSORGFRONT
 10
0.0
 20
0.0
 30
0.0
  9
$UCSORGBACK
 10
0.0
 20
0.0
 30
0.0
  9
$PUCSBASE
  2

  9
$PUCSNAME
  2

  9
$PUCSORG
 10
0.0
 20
0.0
 30
0.0
  9
$PUCSXDIR
 10
1.0
 20
0.0
 30
0.0
  9
$PUCSYDIR
 10
0.0
 20
1.0
 30
0.0
  9
$PUCSORTHOREF
  2

  9
$PUCSORTHOVIEW
 70
     0
  9
$PUCSORGTOP
 10
0.0
 20
0.0
 30
0.0
  9
$PUCSORGBOTTOM
 10
0.0
 20
0.0
 30
0.0
  9
$PUCSORGLEFT
 10
0.0
 20
0.0
 30
0.0
  9
$PUCSORGRIGHT
 10
0.0
 20
0.0
 30
0.0
  9
$PUCSORGFRONT
 10
0.0
 20
0.0
 30
0.0
  9
$PUCSORGBACK
 10
0.0
 20
0.0
 30
0.0
  9
$USERI1
 70
     0
  9
$USERI2
 70
     0
  9
$USERI3
 70
     0
  9
$USERI4
 70
     0
  9
$USERI5
 70
     0
  9
$USERR1
 40
0.0
  9
$USERR2
 40
0.0
  9
$USERR3
 40
0.0
  9
$USERR4
 40
0.0
  9
$USERR5
 40
0.0
  9
$WORLDVIEW
 70
     1
  9
$SHADEDGE
 70
     3
  9
$SHADEDIF
 70
    70
  9
$TILEMODE
 70
     1
  9
$MAXACTVP
 70
    64
  9
$PINSBASE
 10
0.0
 20
0.0
 30
0.0
  9
$PLIMCHECK
 70
     0
  9
$PEXTMIN
 10
1.000000000000000E+20
 20
1.000000000000000E+20
 30
1.000000000000000E+20
  9
$PEXTMAX
 10
-1.000000000000000E+20
 20
-1.000000000000000E+20
 30
-1.000000000000000E+20
  9
$PLIMMIN
 10
0.0
 20
0.0
  9
$PLIMMAX
 10
0.0
 20
0.0
  9
$UNITMODE
 70
     0
  9
$VISRETAIN
 70
     1
  9
$PLINEGEN
 70
     0
  9
$PSLTSCALE
 70
     1
  9
$TREEDEPTH
 70
  3020
  9
$CMLSTYLE
  2
Standard
  9
$CMLJUST
 70
     0
  9
$CMLSCALE
 40
20.0
  9
$PROXYGRAPHICS
 70
     1
  9
$MEASUREMENT
 70
     1
  9
$CELWEIGHT
370
    -1
  9
$ENDCAPS
280
     0
  9
$JOINSTYLE
280
     0
  9
$LWDISPLAY
290
     1
  9
$INSUNITS
 70
     4
  9
$HYPERLINKBASE
  1

  9
$STYLESHEET
  1

  9
$XEDIT
290
     1
  9
$CEPSNTYPE
380
     0
  9
$PSTYLEMODE
290
     1
  9
$FINGERPRINTGUID
  2
{A70508BE-F599-4897-9E1B-7282EF21BD57}
  9
$VERSIONGUID
  2
{FAEB1C32-E019-11D5-929B-00C0DF256EC4}
  9
$EXTNAMES
290
     1
  9
$PSVPSCALE
 40
0.0
  9
$OLESTARTUP
290
     0
  0
ENDSEC
  0
SECTION
  2
CLASSES
  0
CLASS
  1
ACDBDICTIONARYWDFLT
  2
AcDbDictionaryWithDefault
  3
ObjectDBX Classes
 90
        0
280
     0
281
     0
  0
CLASS
  1
VISUALSTYLE
  2
AcDbVisualStyle
  3
ObjectDBX Classes
 90
     4095
280
     0
281
     0
  0
CLASS
  1
MATERIAL
  2
AcDbMaterial
  3
ObjectDBX Classes
 90
     1153
280
     0
281
     0
  0
CLASS
  1
SCALE
  2
AcDbScale
  3
ObjectDBX Classes
 90
     1153
280
     0
281
     0
  0
CLASS
  1
SUN
  2
AcDbSun
  3
SCENEOE
 90
     1153
280
     0
281
     0
  0
CLASS
  1
ACDBPLACEHOLDER
  2
AcDbPlaceHolder
  3
ObjectDBX Classes
 90
        0
280
     0
281
     0
  0
CLASS
  1
LAYOUT
  2
AcDbLayout
  3
ObjectDBX Classes
 90
        0
280
     0
281
     0
  0
CLASS
  1
TABLESTYLE
  2
AcDbTableStyle
  3
ObjectDBX Classes
 90
     4095
280
     0
281
     0
  0
CLASS
  1
MLEADERSTYLE
  2
AcDbMLeaderStyle
  3
ACDB_MLEADERSTYLE_CLASS
 90
     4095
280
     0
281
     0
  0
CLASS
  1
DICTIONARYVAR
  2
AcDbDictionaryVar
  3
ObjectDBX Classes
 90
        0
280
     0
281
     0
  0
ENDSEC
  0
SECTION
  2
TABLES
  0
TABLE
  2
VPORT
  5
8
330
0
100
AcDbSymbolTable
 70
     1
  0
VPORT
  5
29
330
8
100
AcDbSymbolTableRecord
100
AcDbViewportTableRecord
  2
*Active
 70
     0
 10
0.0
 20
0.0
 11
1.0
 21
1.0
 12
20.81357619373046
 22
1.679649099847431
 13
0.0
 23
0.0
 14
10.0
 24
10.0
 15
10.0
 25
10.0
 16
0.0
 26
0.0
 36
1.0
 17
0.0
 27
0.0
 37
0.0
 40
105.366778382268
 41
2.148876404494382
 42
50.0
 43
0.0
 44
0.0
 50
0.0
 51
0.0
 71
    16
 72
  2000
 73
     1
 74
     3
 75
     0
 76
     0
 77
     0
 78
     0
281
     0
 65
     1
110
0.0
120
0.0
130
0.0
111
1.0
121
0.0
131
0.0
112
0.0
122
1.0
132
0.0
 79
     0
146
0.0
  0
ENDTAB
  0
TABLE
  2
LTYPE
  5
5
330
0
100
AcDbSymbolTable
 70
     6
  0
LTYPE
  5
14
330
5
100
AcDbSymbolTableRecord
100
AcDbLinetypeTableRecord
  2
ByBlock
 70
     0
  3

 72
    65
 73
     0
 40
0.0
  0
LTYPE
  5
15
330
5
100
AcDbSymbolTableRecord
100
AcDbLinetypeTableRecord
  2
ByLayer
 70
     0
  3

 72
    65
 73
     0
 40
0.0
  0
LTYPE
  5
16
330
5
100
AcDbSymbolTableRecord
100
AcDbLinetypeTableRecord
  2
Continuous
 70
     0
  3
Solid line
 72
    65
 73
     0
 40
0.0
  0
LTYPE
  5
6A
330
5
100
AcDbSymbolTableRecord
100
AcDbLinetypeTableRecord
  2
HIDDEN
 70
     0
  3
Hidden __ __ __ __ __ __ __ __ __ __ __ __ __ __
 72
    65
 73
     2
 40
1.905
 49
1.27
 74
     0
 49
-0.635
 74
     0
  0
LTYPE
  5
6B
330
5
100
AcDbSymbolTableRecord
100
AcDbLinetypeTableRecord
  2
PHANTOM
 70
     0
  3
Phantom ______  __  __  ______  __  __  ______
 72
    65
 73
     6
 40
12.7
 49
6.35
 74
     0
 49
-1.27
 74
     0
 49
1.27
 74
     0
 49
-1.27
 74
     0
 49
1.27
 74
     0
 49
-1.27
 74
     0
  0
LTYPE
  5
6C
330
5
100
AcDbSymbolTableRecord
100
AcDbLinetypeTableRecord
  2
CENTER
 70
     0
  3
Center ____ _ ____ _ ____ _ ____ _ ____ _ ____
 72
    65
 73
     4
 40
10.16
 49
6.35
 74
     0
 49
-1.27
 74
     0
 49
1.27
 74
     0
 49
-1.27
 74
     0
  0
LTYPE
  5
6D
330
5
100
AcDbSymbolTableRecord
100
AcDbLinetypeTableRecord
  2
CENTERX2
 70
     0
  3
Center (2x) ________  __  ________  __  _____
 72
    65
 73
     4
 40
20.32
 49
12.7
 74
     0
 49
-2.54
 74
     0
 49
2.54
 74
     0
 49
-2.54
 74
     0
  0
LTYPE
  5
6E
330
5
100
AcDbSymbolTableRecord
100
AcDbLinetypeTableRecord
  2
DOT2
 70
     0
  3
Dot (.5x) ........................................
 72
    65
 73
     2
 40
0.635
 49
0.0
 74
     0
 49
-0.635
 74
     0
  0
ENDTAB
  0
TABLE
  2
LAYER
  5
2
102
{ACAD_XDICTIONARY
360
20E
102
}
330
0
100
AcDbSymbolTable
 70
    18
  0
LAYER
  5
10
330
2
100
AcDbSymbolTableRecord
100
AcDbLayerTableRecord
  2
0
 70
     0
 62
     7
  6
Continuous
370
    -3
390
F
  0
LAYER
  5
6F
330
2
100
AcDbSymbolTableRecord
100
AcDbLayerTableRecord
  2
FORMAT
 70
     0
 62
     2
  6
Continuous
370
    -3
390
F
  0
LAYER
  5
70
330
2
100
AcDbSymbolTableRecord
100
AcDbLayerTableRecord
  2
외형선
 70
     0
 62
     4
  6
Continuous
370
    30
390
F
  0
LAYER
  5
71
330
2
100
AcDbSymbolTableRecord
100
AcDbLayerTableRecord
  2
숨은선
 70
     0
 62
     2
  6
HIDDEN
370
    15
390
F
  0
LAYER
  5
72
330
2
100
AcDbSymbolTableRecord
100
AcDbLayerTableRecord
  2
중심선
 70
     0
 62
     1
  6
CENTERX2
370
    -3
390
F
  0
LAYER
  5
73
330
2
100
AcDbSymbolTableRecord
100
AcDbLayerTableRecord
  2
파단선
 70
     0
 62
     4
  6
Continuous
370
    -3
390
F
  0
LAYER
  5
74
330
2
100
AcDbSymbolTableRecord
100
AcDbLayerTableRecord
  2
해칭선
 70
     0
 62
   100
  6
Continuous
370
    -3
390
F
  0
LAYER
  5
75
330
2
100
AcDbSymbolTableRecord
100
AcDbLayerTableRecord
  2
가는실선
 70
     0
 62
     4
  6
Continuous
370
    -3
390
F
  0
LAYER
  5
76
330
2
100
AcDbSymbolTableRecord
100
AcDbLayerTableRecord
  2
치수_보조선
 70
     0
 62
     4
  6
Continuous
370
    -3
390
F
  0
LAYER
  5
77
330
2
100
AcDbSymbolTableRecord
100
AcDbLayerTableRecord
  2
치수문자_일반주서
 70
     0
 62
     7
  6
Continuous
370
    15
390
F
  0
LAYER
  5
78
330
2
100
AcDbSymbolTableRecord
100
AcDbLayerTableRecord
  2
개별주서
 70
     0
 62
   100
  6
Continuous
370
    30
390
F
  0
LAYER
  5
79
330
2
100
AcDbSymbolTableRecord
100
AcDbLayerTableRecord
  2
중간선
 70
     0
 62
     2
  6
Continuous
370
    15
390
F
  0
LAYER
  5
7A
330
2
100
AcDbSymbolTableRecord
100
AcDbLayerTableRecord
  2
윤곽선
 70
     0
 62
     3
  6
Continuous
370
    40
390
F
  0
LAYER
  5
7B
330
2
100
AcDbSymbolTableRecord
100
AcDbLayerTableRecord
  2
중심마크
 70
     0
 62
   100
  6
Continuous
370
    30
390
F
  0
LAYER
  5
7C
330
2
100
AcDbSymbolTableRecord
100
AcDbLayerTableRecord
  2
가상선
 70
     0
 62
     4
  6
PHANTOM
370
    -3
390
F
  0
LAYER
  5
7D
330
2
100
AcDbSymbolTableRecord
100
AcDbLayerTableRecord
  2
특수지정선
 70
     0
 62
     5
  6
CENTERX2
370
    60
390
F
  0
LAYER
  5
7E
330
2
100
AcDbSymbolTableRecord
100
AcDbLayerTableRecord
  2
참조1
 70
     0
 62
    -4
  6
Continuous
370
    -3
390
F
  0
LAYER
  5
153
330
2
100
AcDbSymbolTableRecord
100
AcDbLayerTableRecord
  2
Defpoints
 70
     0
 62
     7
  6
Continuous
290
     0
370
    -3
390
F
  0
ENDTAB
  0
TABLE
  2
STYLE
  5
3
330
0
100
AcDbSymbolTable
 70
     2
  0
STYLE
  5
11
330
3
100
AcDbSymbolTableRecord
100
AcDbTextStyleTableRecord
  2
Standard
 70
     0
 40
0.0
 41
1.0
 50
0.0
 71
     0
 42
3.5
  3
txt
  4

  0
STYLE
  5
94
330
3
100
AcDbSymbolTableRecord
100
AcDbTextStyleTableRecord
  2
SLDTEXTSTYLE0
 70
     0
 40
0.0
 41
0.75
 50
0.0
 71
     0
 42
3.5
  3
TXT
  4

  0
ENDTAB
  0
TABLE
  2
VIEW
  5
6
330
0
100
AcDbSymbolTable
 70
     0
  0
ENDTAB
  0
TABLE
  2
UCS
  5
7
330
0
100
AcDbSymbolTable
 70
     0
  0
ENDTAB
  0
TABLE
  2
APPID
  5
9
330
0
100
AcDbSymbolTable
 70
     4
  0
APPID
  5
12
330
9
100
AcDbSymbolTableRecord
100
AcDbRegAppTableRecord
  2
ACAD
 70
     0
  0
APPID
  5
1C0
330
9
100
AcDbSymbolTableRecord
100
AcDbRegAppTableRecord
  2
ACAD_DSTYLE_DIMFLIPARROW_SYMBOL
 70
     0
  0
APPID
  5
1C1
330
9
100
AcDbSymbolTableRecord
100
AcDbRegAppTableRecord
  2
ACAD_DSTYLE_DIMFLIPARROW_WHICH_SYMBOL
 70
     0
  0
APPID
  5
21D
330
9
100
AcDbSymbolTableRecord
100
AcDbRegAppTableRecord
  2
PE_URL
 70
     0
  0
ENDTAB
  0
TABLE
  2
DIMSTYLE
  5
A
330
0
100
AcDbSymbolTable
 70
     4
100
AcDbDimStyleTable
  0
DIMSTYLE
105
27
102
{ACAD_REACTORS
330
1BC
102
}
330
A
100
AcDbSymbolTableRecord
100
AcDbDimStyleTableRecord
  2
ISO-25
 70
     0
 41
2.5
 42
0.625
 43
3.75
 44
1.25
 73
     0
 74
     0
 77
     1
 78
     8
140
2.5
141
2.5
143
0.03937007874016
147
0.625
171
     3
172
     1
178
     0
271
     2
272
     2
274
     3
278
    44
283
     0
284
     8
340
11
  0
DIMSTYLE
105
D3
102
{ACAD_REACTORS
330
D2
102
}
330
A
100
AcDbSymbolTableRecord
100
AcDbDimStyleTableRecord
  2
SLDDIMSTYLE0
 70
     0
 41
3.302
 44
0.0
 45
0.000000001
 73
     0
 74
     0
 77
     1
 78
     4
 79
     1
140
3.5
143
0.0393700787401575
147
0.875
148
0.000000001
170
     1
173
     1
178
     0
271
     2
272
     2
276
     2
284
    12
340
94
  0
DIMSTYLE
105
E7
102
{ACAD_REACTORS
330
E6
330
10F
102
}
330
A
100
AcDbSymbolTableRecord
100
AcDbDimStyleTableRecord
  2
SLDDIMSTYLE1
 70
     0
 41
3.302
 44
0.0
 45
0.000000001
 73
     0
 74
     0
 77
     1
 78
    12
 79
     3
140
3.5
143
0.0393700787401575
147
0.875
148
0.000000001
170
     1
172
     1
173
     1
178
     0
271
     2
272
     2
276
     2
284
    12
289
     0
340
94
  0
DIMSTYLE
105
FC
102
{ACAD_REACTORS
330
FB
102
}
330
A
100
AcDbSymbolTableRecord
100
AcDbDimStyleTableRecord
  2
SLDDIMSTYLE2
 70
     0
 41
3.302
 44
0.0
 45
0.000000001
 73
     0
 74
     0
 77
     1
 78
    12
 79
     3
140
3.5
143
0.0393700787401575
147
0.875
148
0.000000001
170
     1
173
     1
178
     0
271
     2
272
     2
276
     2
284
    12
340
94
  0
ENDTAB
  0
TABLE
  2
BLOCK_RECORD
  5
1
330
0
100
AcDbSymbolTable
 70
     7
  0
BLOCK_RECORD
  5
1F
330
1
100
AcDbSymbolTableRecord
100
AcDbBlockTableRecord
  2
*Model_Space
340
22
  0
BLOCK_RECORD
  5
1B
330
1
100
AcDbSymbolTableRecord
100
AcDbBlockTableRecord
  2
*Paper_Space
340
1E
  0
BLOCK_RECORD
  5
23
330
1
100
AcDbSymbolTableRecord
100
AcDbBlockTableRecord
  2
*Paper_Space0
340
26
  0
BLOCK_RECORD
  5
7F
330
1
100
AcDbSymbolTableRecord
100
AcDbBlockTableRecord
  2
블럭10
340
0
102
{BLKREFS
331
CB
102
}
  0
BLOCK_RECORD
  5
D4
330
1
100
AcDbSymbolTableRecord
100
AcDbBlockTableRecord
  2
_D
340
0
  0
BLOCK_RECORD
  5
E8
330
1
100
AcDbSymbolTableRecord
100
AcDbBlockTableRecord
  2
_D_1
340
0
  0
BLOCK_RECORD
  5
FD
330
1
100
AcDbSymbolTableRecord
100
AcDbBlockTableRecord
  2
_D_2
340
0
  0
BLOCK_RECORD
  5
110
330
1
100
AcDbSymbolTableRecord
100
AcDbBlockTableRecord
  2
_D_3
340
0
  0
BLOCK_RECORD
  5
12A
330
1
100
AcDbSymbolTableRecord
100
AcDbBlockTableRecord
  2
SW_DOWELSYMBOL_0
340
0
102
{BLKREFS
331
130
102
}
  0
ENDTAB
  0
ENDSEC
  0
SECTION
  2
BLOCKS
  0
BLOCK
  5
20
330
1F
100
AcDbEntity
  8
0
100
AcDbBlockBegin
  2
*Model_Space
 70
     0
 10
0.0
 20
0.0
 30
0.0
  3
*Model_Space
  1

  0
ENDBLK
  5
21
330
1F
100
AcDbEntity
  8
0
100
AcDbBlockEnd
  0
BLOCK
  5
1C
330
1B
100
AcDbEntity
 67
     1
  8
0
100
AcDbBlockBegin
  2
*Paper_Space
 70
     0
 10
0.0
 20
0.0
 30
0.0
  3
*Paper_Space
  1

  0
ENDBLK
  5
1D
330
1B
100
AcDbEntity
 67
     1
  8
0
100
AcDbBlockEnd
  0
BLOCK
  5
24
330
23
100
AcDbEntity
  8
0
100
AcDbBlockBegin
  2
*Paper_Space0
 70
     0
 10
0.0
 20
0.0
 30
0.0
  3
*Paper_Space0
  1

  0
ENDBLK
  5
25
330
23
100
AcDbEntity
  8
0
100
AcDbBlockEnd
  0
BLOCK
  5
80
330
7F
100
AcDbEntity
  8
0
100
AcDbBlockBegin
  2
블럭10
 70
     2
 10
0.0
 20
0.0
 30
0.0
  3
블럭10
  1

  0
ELLIPSE
  5
82
330
7F
100
AcDbEntity
  8
중심선
100
AcDbEllipse
 10
20.54032771741204
 20
12.0471743016438
 30
0.0
 11
6.600054785286829
 21
-1.261213355974178E-13
 31
0.0
210
0.0
220
0.0
230
1.0
 40
0.636358354079598
 41
0.9219305317359503
 42
6.513795318482858
  0
ELLIPSE
  5
83
330
7F
100
AcDbEntity
  8
중심선
100
AcDbEllipse
 10
20.54032771746488
 20
12.04717430159265
 30
0.0
 11
3.960054785062283
 21
1.540847449632565E-10
 31
0.0
210
0.0
220
0.0
230
1.0
 40
0.3939339440162632
 41
1.131841032648279
 42
5.62031148352944
  0
LINE
  5
84
330
7F
100
AcDbEntity
  8
중심선
100
AcDbLine
 10
2.268634060543552
 20
16.24717430164393
 30
0.0
 11
5.714909304380834
 21
16.24717430164393
 31
0.0
  0
LINE
  5
85
330
7F
100
AcDbEntity
  8
중심선
100
AcDbLine
 10
5.245725140726316
 20
7.84717430164391
 30
0.0
 11
8.692000384563599
 21
7.84717430164391
 31
0.0
  0
LINE
  5
86
330
7F
100
AcDbEntity
  8
중심선
100
AcDbLine
 10
15.74043728645272
 20
16.24717430164393
 30
0.0
 11
8.692000384563599
 21
7.84717430164391
 31
0.0
  0
LINE
  5
87
330
7F
100
AcDbEntity
  8
중심선
100
AcDbLine
 10
0.1404042013395286
 20
13.71084872107135
 30
0.0
 11
3.58671253028996
 21
13.71088815037384
 31
0.0
  0
LINE
  5
88
330
7F
100
AcDbEntity
  8
중심선
100
AcDbLine
 10
2.750260043222114
 20
10.84717430164391
 30
0.0
 11
6.196535287059397
 21
10.84717430164391
 31
0.0
  0
LINE
  5
89
330
7F
100
AcDbEntity
  8
중심선
100
AcDbLine
 10
12.29416204261559
 20
16.24717430164393
 30
0.0
 11
5.245725140726316
 21
7.84717430164391
 31
0.0
  0
LINE
  5
8A
330
7F
100
AcDbEntity
  8
중심선
100
AcDbLine
 10
10.72767329541681
 20
16.24717430164393
 30
0.0
 11
6.196535287059397
 21
10.84717430164391
 31
0.0
  0
LINE
  5
8B
330
7F
100
AcDbEntity
  8
중심선
100
AcDbLine
 10
7.28139805157953
 20
16.24717430164393
 30
0.0
 11
2.750260043222114
 21
10.84717430164391
 31
0.0
  0
LINE
  5
8C
330
7F
100
AcDbEntity
  8
중심선
100
AcDbLine
 10
5.714909304380834
 20
16.24717430164393
 30
0.0
 11
3.58671253028996
 21
13.71088815037384
 31
0.0
  0
LINE
  5
8D
330
7F
100
AcDbEntity
  8
중심선
100
AcDbLine
 10
2.268634060543552
 20
16.24717430164393
 30
0.0
 11
0.1404042013395286
 21
13.71084872107135
 31
0.0
  0
LINE
  5
8E
330
7F
100
AcDbEntity
  8
중심선
100
AcDbLine
 10
7.28139805157953
 20
16.24717430164393
 30
0.0
 11
10.72767329541681
 21
16.24717430164393
 31
0.0
  0
LINE
  5
8F
330
7F
100
AcDbEntity
  8
중심선
100
AcDbLine
 10
12.29416204261559
 20
16.24717430164393
 30
0.0
 11
15.74043728645272
 21
16.24717430164393
 31
0.0
  0
LINE
  5
90
330
7F
100
AcDbEntity
  8
중심선
100
AcDbLine
 10
19.22036997980202
 20
11.08717430171403
 30
0.0
 11
23.66174974927406
 21
11.08717430171406
 31
0.0
  0
LINE
  5
91
330
7F
100
AcDbEntity
  8
중심선
100
AcDbLine
 10
19.22039502424796
 20
13.00717430171391
 30
0.0
 11
19.22036997980202
 21
11.08717430171403
 31
0.0
  0
LINE
  5
92
330
7F
100
AcDbEntity
  8
중심선
100
AcDbLine
 10
19.22039502424796
 20
13.00717430171391
 30
0.0
 11
26.96566020931264
 21
13.00717430171391
 31
0.0
  0
LINE
  5
93
330
7F
100
AcDbEntity
  8
중심선
100
AcDbLine
 10
22.22332737316547
 20
13.45928029700563
 30
0.0
 11
24.52862924686651
 21
15.39360700705356
 31
0.0
  0
ATTDEF
  5
95
330
7F
100
AcDbEntity
  8
FORMAT
 62
     2
100
AcDbText
 10
4.408487351596664
 20
2.075366912832191
 30
0.0
 40
4.233333333333333
  1
E5104040
 41
0.75
  7
SLDTEXTSTYLE0
 11
4.408487351596664
 21
-0.0412997538344756
 31
0.0
100
AcDbAttributeDefinition
  3

  2
AUTOATTR0
 70
     0
 74
     1
  0
ENDBLK
  5
81
330
7F
100
AcDbEntity
  8
0
100
AcDbBlockEnd
  0
BLOCK
  5
D5
330
D4
100
AcDbEntity
  8
0
100
AcDbBlockBegin
  2
_D
 70
     0
 10
0.0
 20
0.0
 30
0.0
  3
_D
  1

  0
LINE
  5
D7
330
D4
100
AcDbEntity
  8
치수문자_일반주서
 62
     0
370
    -2
100
AcDbLine
 10
-37.62499999999999
 20
7.779974145790548
 30
0.0
 11
-37.62499999999999
 21
48.95503065978271
 31
0.0
  0
LINE
  5
D8
330
D4
100
AcDbEntity
  8
치수문자_일반주서
 62
     0
370
    -2
100
AcDbLine
 10
51.275
 20
7.779974145790727
 30
0.0
 11
51.275
 21
48.95503065978271
 31
0.0
  0
LINE
  5
D9
330
D4
100
AcDbEntity
  8
치수문자_일반주서
 62
     0
370
    -2
100
AcDbLine
 10
-34.32299999999999
 20
48.95503065978271
 30
0.0
 11
47.973
 21
48.95503065978271
 31
0.0
  0
SOLID
  5
DA
330
D4
100
AcDbEntity
  8
치수문자_일반주서
 62
     0
100
AcDbTrace
 10
-34.32299999999999
 20
49.50536399311604
 30
0.0
 11
-34.32299999999999
 21
48.40469732644937
 31
0.0
 12
-37.62499999999999
 22
48.95503065978271
 32
0.0
 13
-37.62499999999999
 23
48.95503065978271
 33
0.0
  0
SOLID
  5
DB
330
D4
100
AcDbEntity
  8
치수문자_일반주서
 62
     0
100
AcDbTrace
 10
47.973
 20
48.40469732644937
 30
0.0
 11
47.973
 21
49.50536399311604
 31
0.0
 12
51.275
 22
48.95503065978271
 32
0.0
 13
51.275
 23
48.95503065978271
 33
0.0
  0
MTEXT
  5
DC
330
D4
100
AcDbEntity
  8
치수문자_일반주서
 62
     0
100
AcDbMText
 10
6.82500000000001
 20
53.33003065978271
 30
0.0
 40
3.5
 41
0.0
 71
     2
 72
     1
  1
\A1;88.90 [3 1/2]
  7
SLDTEXTSTYLE0
 73
     1
 44
1.0
  0
POINT
  5
DD
330
D4
100
AcDbEntity
  8
Defpoints
 62
     0
100
AcDbPoint
 10
-37.62499999999999
 20
7.717474145790548
 30
0.0
  0
POINT
  5
DE
330
D4
100
AcDbEntity
  8
Defpoints
 62
     0
100
AcDbPoint
 10
51.275
 20
7.717474145790727
 30
0.0
  0
POINT
  5
DF
330
D4
100
AcDbEntity
  8
Defpoints
 62
     0
100
AcDbPoint
 10
51.275
 20
48.95503065978271
 30
0.0
  0
ENDBLK
  5
D6
330
D4
100
AcDbEntity
  8
0
100
AcDbBlockEnd
  0
BLOCK
  5
E9
330
E8
100
AcDbEntity
  8
0
100
AcDbBlockBegin
  2
_D_1
 70
     0
 10
0.0
 20
0.0
 30
0.0
  3
_D_1
  1

  0
LINE
  5
EB
330
E8
100
AcDbEntity
  8
치수문자_일반주서
 62
     0
370
    -2
100
AcDbLine
 10
-37.68749999999999
 20
7.717474145790548
 30
0.0
 11
-53.17085040270753
 21
7.717474145790494
 31
0.0
  0
LINE
  5
EC
330
E8
100
AcDbEntity
  8
치수문자_일반주서
 62
     0
370
    -2
100
AcDbLine
 10
-37.68534322409197
 20
-8.157525854209425
 30
0.0
 11
-53.17085040270747
 21
-8.157525854209478
 31
0.0
  0
LINE
  5
ED
330
E8
100
AcDbEntity
  8
치수문자_일반주서
 62
     0
370
    -2
100
AcDbLine
 10
-53.17085040270753
 20
7.717474145790494
 30
0.0
 11
-53.17085040270765
 21
42.32147414579049
 31
0.0
  0
LINE
  5
EE
330
E8
100
AcDbEntity
  8
치수문자_일반주서
 62
     0
370
    -2
100
AcDbLine
 10
-53.17085040270753
 20
7.717474145790494
 30
0.0
 11
-53.17085040270747
 21
-8.157525854209478
 31
0.0
  0
LINE
  5
EF
330
E8
100
AcDbEntity
  8
치수문자_일반주서
 62
     0
370
    -2
100
AcDbLine
 10
-53.17085040270754
 20
11.01947414579049
 30
0.0
 11
-53.17085040270756
 21
14.32147414579049
 31
0.0
  0
LINE
  5
F0
330
E8
100
AcDbEntity
  8
치수문자_일반주서
 62
     0
370
    -2
100
AcDbLine
 10
-53.17085040270746
 20
-11.45952585420948
 30
0.0
 11
-53.17085040270744
 21
-14.76152585420948
 31
0.0
  0
SOLID
  5
F1
330
E8
100
AcDbEntity
  8
치수문자_일반주서
 62
     0
100
AcDbTrace
 10
-53.72118373604088
 20
11.01947414579049
 30
0.0
 11
-52.62051706937421
 21
11.0194741457905
 31
0.0
 12
-53.17085040270753
 22
7.717474145790494
 32
0.0
 13
-53.17085040270753
 23
7.717474145790494
 33
0.0
  0
SOLID
  5
F2
330
E8
100
AcDbEntity
  8
치수문자_일반주서
 62
     0
100
AcDbTrace
 10
-52.62051706937412
 20
-11.45952585420948
 30
0.0
 11
-53.72118373604079
 21
-11.45952585420948
 31
0.0
 12
-53.17085040270747
 22
-8.157525854209478
 32
0.0
 13
-53.17085040270747
 23
-8.157525854209478
 33
0.0
  0
MTEXT
  5
F3
330
E8
100
AcDbEntity
  8
치수문자_일반주서
 62
     0
100
AcDbMText
 10
-57.5458504027076
 20
28.32147414579048
 30
0.0
 40
3.5
 41
0.0
 71
     2
 72
     1
  1
\A1;%%c15.88 [5/8]
  7
SLDTEXTSTYLE0
 11
-3.580687802255629E-15
 21
1.0
 31
0.0
 73
     1
 44
1.0
  0
POINT
  5
15B
330
E8
100
AcDbEntity
  8
Defpoints
 62
     0
100
AcDbPoint
 10
-37.62499999999999
 20
7.717474145790548
 30
0.0
  0
POINT
  5
15C
330
E8
100
AcDbEntity
  8
Defpoints
 62
     0
100
AcDbPoint
 10
-37.62284322409197
 20
-8.157525854209425
 30
0.0
  0
POINT
  5
15D
330
E8
100
AcDbEntity
  8
Defpoints
 62
     0
100
AcDbPoint
 10
-53.17085040270747
 20
-8.15752585420948
 30
0.0
  0
ENDBLK
  5
EA
330
E8
100
AcDbEntity
  8
0
100
AcDbBlockEnd
  0
BLOCK
  5
FE
330
FD
100
AcDbEntity
  8
0
100
AcDbBlockBegin
  2
_D_2
 70
     0
 10
0.0
 20
0.0
 30
0.0
  3
_D_2
  1

  0
LINE
  5
100
330
FD
100
AcDbEntity
  8
치수문자_일반주서
 62
     0
370
    -2
100
AcDbLine
 10
51.27499999999999
 20
7.779974145790727
 30
0.0
 11
51.27499999999999
 21
28.01004546811452
 31
0.0
  0
LINE
  5
101
330
FD
100
AcDbEntity
  8
치수문자_일반주서
 62
     0
370
    -2
100
AcDbLine
 10
10.00000000000002
 20
7.779974145790582
 30
0.0
 11
10.00000000000002
 21
28.01004546811452
 31
0.0
  0
LINE
  5
102
330
FD
100
AcDbEntity
  8
치수문자_일반주서
 62
     0
370
    -2
100
AcDbLine
 10
10.00000000000002
 20
28.01004546811452
 30
0.0
 11
-23.05199999999998
 21
28.01004546811452
 31
0.0
  0
LINE
  5
103
330
FD
100
AcDbEntity
  8
치수문자_일반주서
 62
     0
370
    -2
100
AcDbLine
 10
51.27499999999999
 20
28.01004546811452
 30
0.0
 11
10.00000000000002
 21
28.01004546811452
 31
0.0
  0
LINE
  5
104
330
FD
100
AcDbEntity
  8
치수문자_일반주서
 62
     0
370
    -2
100
AcDbLine
 10
54.57699999999999
 20
28.01004546811452
 30
0.0
 11
57.87899999999999
 21
28.01004546811452
 31
0.0
  0
LINE
  5
105
330
FD
100
AcDbEntity
  8
치수문자_일반주서
 62
     0
370
    -2
100
AcDbLine
 10
6.69800000000002
 20
28.01004546811452
 30
0.0
 11
3.39600000000002
 21
28.01004546811452
 31
0.0
  0
SOLID
  5
106
330
FD
100
AcDbEntity
  8
치수문자_일반주서
 62
     0
100
AcDbTrace
 10
54.57699999999999
 20
28.56037880144785
 30
0.0
 11
54.57699999999999
 21
27.45971213478118
 31
0.0
 12
51.27499999999999
 22
28.01004546811452
 32
0.0
 13
51.27499999999999
 23
28.01004546811452
 33
0.0
  0
SOLID
  5
107
330
FD
100
AcDbEntity
  8
치수문자_일반주서
 62
     0
100
AcDbTrace
 10
6.69800000000002
 20
27.45971213478118
 30
0.0
 11
6.69800000000002
 21
28.56037880144785
 31
0.0
 12
10.00000000000002
 22
28.01004546811452
 32
0.0
 13
10.00000000000002
 23
28.01004546811452
 33
0.0
  0
MTEXT
  5
108
330
FD
100
AcDbEntity
  8
치수문자_일반주서
 62
     0
100
AcDbMText
 10
-8.17699999999998
 20
32.38504546811451
 30
0.0
 40
3.5
 41
0.0
 71
     2
 72
     1
  1
\A1;41.28 [1 5/8]
  7
SLDTEXTSTYLE0
 73
     1
 44
1.0
  0
POINT
  5
15E
330
FD
100
AcDbEntity
  8
Defpoints
 62
     0
100
AcDbPoint
 10
51.27499999999999
 20
7.717474145790727
 30
0.0
  0
POINT
  5
15F
330
FD
100
AcDbEntity
  8
Defpoints
 62
     0
100
AcDbPoint
 10
10.00000000000002
 20
7.717474145790582
 30
0.0
  0
POINT
  5
160
330
FD
100
AcDbEntity
  8
Defpoints
 62
     0
100
AcDbPoint
 10
10.00000000000002
 20
28.01004546811452
 30
0.0
  0
ENDBLK
  5
FF
330
FD
100
AcDbEntity
  8
0
100
AcDbBlockEnd
  0
BLOCK
  5
111
330
110
100
AcDbEntity
  8
0
100
AcDbBlockBegin
  2
_D_3
 70
     0
 10
0.0
 20
0.0
 30
0.0
  3
_D_3
  1

  0
LINE
  5
113
330
110
100
AcDbEntity
  8
치수문자_일반주서
 62
     0
370
    -2
100
AcDbLine
 10
51.33749999999999
 20
7.717474145790564
 30
0.0
 11
66.27499999999999
 21
7.717474145790618
 31
0.0
  0
LINE
  5
114
330
110
100
AcDbEntity
  8
치수문자_일반주서
 62
     0
370
    -2
100
AcDbLine
 10
51.36733975788091
 20
-8.15752585420926
 30
0.0
 11
66.27500000000005
 21
-8.157525854209208
 31
0.0
  0
LINE
  5
115
330
110
100
AcDbEntity
  8
치수문자_일반주서
 62
     0
370
    -2
100
AcDbLine
 10
66.27499999999999
 20
7.717474145790618
 30
0.0
 11
66.27499999999986
 21
42.32147414579062
 31
0.0
  0
LINE
  5
116
330
110
100
AcDbEntity
  8
치수문자_일반주서
 62
     0
370
    -2
100
AcDbLine
 10
66.27499999999999
 20
7.717474145790618
 30
0.0
 11
66.27500000000005
 21
-8.157525854209208
 31
0.0
  0
LINE
  5
117
330
110
100
AcDbEntity
  8
치수문자_일반주서
 62
     0
370
    -2
100
AcDbLine
 10
66.27499999999998
 20
11.01947414579062
 30
0.0
 11
66.27499999999996
 21
14.32147414579062
 31
0.0
  0
LINE
  5
118
330
110
100
AcDbEntity
  8
치수문자_일반주서
 62
     0
370
    -2
100
AcDbLine
 10
66.27500000000006
 20
-11.45952585420921
 30
0.0
 11
66.27500000000008
 21
-14.76152585420921
 31
0.0
  0
SOLID
  5
119
330
110
100
AcDbEntity
  8
치수문자_일반주서
 62
     0
100
AcDbTrace
 10
65.72466666666665
 20
11.01947414579062
 30
0.0
 11
66.8253333333333
 21
11.01947414579062
 31
0.0
 12
66.27499999999999
 22
7.717474145790618
 32
0.0
 13
66.27499999999999
 23
7.717474145790618
 33
0.0
  0
SOLID
  5
11A
330
110
100
AcDbEntity
  8
치수문자_일반주서
 62
     0
100
AcDbTrace
 10
66.82533333333339
 20
-11.45952585420921
 30
0.0
 11
65.72466666666674
 21
-11.45952585420921
 31
0.0
 12
66.27500000000005
 22
-8.157525854209208
 32
0.0
 13
66.27500000000005
 23
-8.157525854209208
 33
0.0
  0
MTEXT
  5
11B
330
110
100
AcDbEntity
  8
치수문자_일반주서
 62
     0
100
AcDbMText
 10
61.89999999999992
 20
28.3214741457906
 30
0.0
 40
3.5
 41
0.0
 71
     2
 72
     1
  1
\A1;%%c15.88 [5/8]
  7
SLDTEXTSTYLE0
 11
-3.580687802255662E-15
 21
1.0
 31
0.0
 73
     1
 44
1.0
  0
POINT
  5
11C
330
110
100
AcDbEntity
  8
Defpoints
 62
     0
100
AcDbPoint
 10
51.27499999999999
 20
7.717474145790564
 30
0.0
  0
POINT
  5
11D
330
110
100
AcDbEntity
  8
Defpoints
 62
     0
100
AcDbPoint
 10
51.30483975788091
 20
-8.15752585420926
 30
0.0
  0
POINT
  5
11E
330
110
100
AcDbEntity
  8
Defpoints
 62
     0
100
AcDbPoint
 10
66.27500000000005
 20
-8.157525854209208
 30
0.0
  0
ENDBLK
  5
112
330
110
100
AcDbEntity
  8
0
100
AcDbBlockEnd
  0
BLOCK
  5
12B
330
12A
100
AcDbEntity
  8
0
100
AcDbBlockBegin
  2
SW_DOWELSYMBOL_0
 70
     0
 10
0.0
 20
0.0
 30
0.0
  3
SW_DOWELSYMBOL_0
  1

  0
CIRCLE
  5
12D
330
12A
100
AcDbEntity
  8
해칭선
 62
     0
100
AcDbCircle
 10
0.0
 20
0.0
 30
0.0
 40
3.000000000000002
  0
HATCH
  5
12E
330
12A
100
AcDbEntity
  8
0
  6
Continuous
 62
     0
370
     0
100
AcDbHatch
 10
0.0
 20
0.0
 30
0.0
210
0.0
220
0.0
230
1.0
  2
SOLID
 70
     1
 71
     0
 91
        1
 92
        0
 93
        3
 72
     2
 10
0.0000000000000069
 20
0.0
 40
3.000000000000002
 50
0.0
 51
90.0
 73
     1
 72
     1
 10
0.0000000000000069
 20
3.000000000000002
 11
0.0000000000000069
 21
0.0
 72
     1
 10
0.0000000000000069
 20
0.0
 11
3.000000000000009
 21
0.0
 97
        0
 75
     0
 76
     1
 98
        1
 10
0.0
 20
0.0
  0
HATCH
  5
12F
330
12A
100
AcDbEntity
  8
0
  6
Continuous
 62
     0
370
     0
100
AcDbHatch
 10
0.0
 20
0.0
 30
0.0
210
0.0
220
0.0
230
1.0
  2
SOLID
 70
     1
 71
     0
 91
        1
 92
        0
 93
        3
 72
     2
 10
0.0000000000000069
 20
0.0
 40
3.000000000000002
 50
180.0
 51
270.0000000000007
 73
     1
 72
     1
 10
0.0000000000000069
 20
-3.000000000000002
 11
0.0000000000000069
 21
0.0
 72
     1
 10
0.0000000000000069
 20
0.0
 11
-2.999999999999995
 21
0.0
 97
        0
 75
     0
 76
     1
 98
        1
 10
0.0
 20
0.0
  0
ENDBLK
  5
12C
330
12A
100
AcDbEntity
  8
0
100
AcDbBlockEnd
  0
ENDSEC
  0
SECTION
  2
ENTITIES
  0
LINE
  5
96
330
1F
100
AcDbEntity
  8
외형선
  6
Continuous
370
    15
100
AcDbLine
 10
-20.15932499999997
 20
7.717474145790536
 30
0.0
 11
-37.12499999999999
 21
7.717474145790564
 31
0.0
1001
PE_URL
1000

  0
LINE
  5
97
330
1F
100
AcDbEntity
  8
외형선
  6
Continuous
370
    15
100
AcDbLine
 10
7.222339749829876
 20
-8.157525854209437
 30
0.0
 11
10.00000000000002
 21
-8.157525854209437
 31
0.0
  0
LINE
  5
98
330
1F
100
AcDbEntity
  8
외형선
  6
Continuous
370
    15
100
AcDbLine
 10
-37.12499999999999
 20
-8.157525854209437
 30
0.0
 11
6.95009225629367
 21
-8.157525854209437
 31
0.0
  0
LINE
  5
99
330
1F
100
AcDbEntity
  8
외형선
  6
Continuous
370
    15
100
AcDbLine
 10
-37.12499999999999
 20
7.71747414579056
 30
0.0
 11
-37.62499999999999
 21
7.21747414579056
 31
0.0
  0
LINE
  5
9A
330
1F
100
AcDbEntity
  8
외형선
  6
Continuous
370
    15
100
AcDbLine
 10
-37.62499999999999
 20
-7.657525854209433
 30
0.0
 11
-37.12499999999999
 21
-8.157525854209434
 31
0.0
  0
LINE
  5
9B
330
1F
100
AcDbEntity
  8
외형선
  6
Continuous
 62
     1
370
    15
100
AcDbLine
 10
36.01722256316214
 20
-8.157525854209437
 30
0.0
 11
37.566111739908
 21
-8.157525854209437
 31
0.0
  0
LINE
  5
9C
330
1F
100
AcDbEntity
  8
외형선
  6
Continuous
 62
     1
370
    15
100
AcDbLine
 10
23.16891918900147
 20
7.717474145790564
 30
0.0
 11
21.61946581171228
 21
7.717474145790564
 31
0.0
  0
LINE
  5
9F
330
1F
100
AcDbEntity
  8
외형선
  6
Continuous
370
    15
100
AcDbLine
 10
6.95009225629367
 20
-8.15596517258131
 30
0.0
 11
7.222339749829872
 21
-8.149325748659676
 31
0.0
  0
LINE
  5
A0
330
1F
100
AcDbEntity
  8
외형선
  6
Continuous
370
    15
100
AcDbLine
 10
6.95009225629367
 20
-8.155964385258224
 30
0.0
 11
6.95009225629367
 21
-8.157525854209437
 31
0.0
  0
LINE
  5
A1
330
1F
100
AcDbEntity
  8
외형선
  6
Continuous
370
    15
100
AcDbLine
 10
6.95009225629367
 20
7.717474145790564
 30
0.0
 11
6.95009225629367
 21
7.15582539304332
 31
0.0
  0
SPLINE
  5
A2
330
1F
100
AcDbEntity
  8
외형선
  6
Continuous
370
    15
100
AcDbSpline
210
0.0
220
0.0
230
1.0
 70
     8
 71
     3
 72
    10
 73
     6
 74
     0
 42
0.000000001
 43
0.00000001
 40
0.0
 40
0.0
 40
0.0
 40
0.0
 40
0.5
 40
0.5
 40
1.0
 40
1.0
 40
1.0
 40
1.0
 10
10.00000000000002
 20
6.32994786488608
 30
0.0
 10
9.491204930569548
 20
6.495748145514794
 30
0.0
 10
8.980668106579499
 20
6.648259044467329
 30
0.0
 10
7.965504738299559
 20
6.923961534564949
 30
0.0
 10
7.459439849577877
 20
7.047342725436057
 30
0.0
 10
6.95009225629367
 20
7.155832839537763
 30
0.0
  0
LINE
  5
A3
330
1F
100
AcDbEntity
  8
외형선
  6
Continuous
370
    15
100
AcDbLine
 10
10.00000000000002
 20
6.329947864886082
 30
0.0
 11
10.00000000000002
 21
2.289034958348157
 31
0.0
  0
SPLINE
  5
A4
330
1F
100
AcDbEntity
  8
외형선
  6
Continuous
370
    15
100
AcDbSpline
210
0.0
220
0.0
230
1.0
 70
     8
 71
     3
 72
    10
 73
     6
 74
     0
 42
0.000000001
 43
0.00000001
 40
0.0
 40
0.0
 40
0.0
 40
0.0
 40
0.5000000000000001
 40
0.5000000000000001
 40
1.0
 40
1.0
 40
1.0
 40
1.0
 10
10.00000000000002
 20
2.289034958348159
 30
0.0
 10
9.491204930569548
 20
2.567513976266168
 30
0.0
 10
8.980668106579499
 20
2.841145829483052
 30
0.0
 10
7.96550473829956
 20
3.373707900303735
 30
0.0
 10
7.459439849577877
 20
3.632917577167998
 30
0.0
 10
6.95009225629367
 20
3.884252421136661
 30
0.0
  0
SPLINE
  5
A5
330
1F
100
AcDbEntity
  8
외형선
  6
Continuous
370
    15
100
AcDbSpline
210
0.0
220
0.0
230
1.0
 70
     8
 71
     3
 72
    10
 73
     6
 74
     0
 42
0.000000001
 43
0.00000001
 40
0.0
 40
0.0
 40
0.0
 40
0.0
 40
0.5
 40
0.5
 40
1.0
 40
1.0
 40
1.0
 40
1.0
 10
10.00000000000002
 20
-7.377835513843324
 30
0.0
 10
9.491204930569547
 20
-7.250968005081732
 30
0.0
 10
8.980668106579499
 20
-7.10922888832627
 30
0.0
 10
7.965504738299559
 20
-6.798683792124246
 30
0.0
 10
7.459439849577877
 20
-6.629788613011004
 30
0.0
 10
6.95009225629367
 20
-6.447730995302981
 30
0.0
  0
LINE
  5
A6
330
1F
100
AcDbEntity
  8
외형선
  6
Continuous
370
    15
100
AcDbLine
 10
10.00000000000002
 20
-7.377835513843324
 30
0.0
 11
10.00000000000002
 21
-8.157525854209437
 31
0.0
  0
LINE
  5
A7
330
1F
100
AcDbEntity
  8
외형선
  6
Continuous
370
    15
100
AcDbLine
 10
-37.12499999999999
 20
7.71747414579056
 30
0.0
 11
-37.12499999999999
 21
-8.15752585420942
 31
0.0
  0
LINE
  5
A8
330
1F
100
AcDbEntity
  8
외형선
  6
Continuous
370
    15
100
AcDbLine
 10
6.95009225629367
 20
3.884286401825541
 30
0.0
 11
6.95009225629367
 21
-6.447743491229847
 31
0.0
  0
LINE
  5
A9
330
1F
100
AcDbEntity
  8
외형선
  6
Continuous
370
    15
100
AcDbLine
 10
-37.62499999999999
 20
7.21747414579056
 30
0.0
 11
-37.62499999999999
 21
-7.657525854209433
 31
0.0
  0
SPLINE
  5
AA
330
1F
100
AcDbEntity
  8
외형선
  6
Continuous
370
    15
100
AcDbSpline
210
0.0
220
0.0
230
1.0
 70
    24
 71
     3
 72
    20
 73
    16
 74
     0
 42
0.000000001
 43
0.00000001
 40
0.0
 40
0.0
 40
0.0
 40
0.0
 40
0.2500000000000001
 40
0.2500000000000001
 40
0.3750000000000002
 40
0.3750000000000002
 40
0.5000000000000002
 40
0.5000000000000002
 40
0.6250000000000002
 40
0.6250000000000002
 40
0.7500000000000001
 40
0.7500000000000001
 40
0.875
 40
0.875
 40
1.0
 40
1.0
 40
1.0
 40
1.0
 10
10.00000000000002
 20
2.289034958348158
 30
0.0
 10
10.00000000000002
 20
2.013226446456223
 30
0.0
 10
10.00000000000002
 20
1.636691847582858
 30
0.0
 10
10.00000000000002
 20
0.8510259023502712
 30
0.0
 10
10.00000000000002
 20
0.552293922960513
 30
0.0
 10
10.00000000000002
 20
-0.1268768266230913
 30
0.0
 10
10.00000000000002
 20
-0.5074657900722996
 30
0.0
 10
10.00000000000002
 20
-1.351412534547045
 30
0.0
 10
10.00000000000002
 20
-1.814910853909312
 30
0.0
 10
10.00000000000002
 20
-2.813966993210135
 30
0.0
 10
10.00000000000002
 20
-3.349568704305828
 30
0.0
 10
10.00000000000002
 20
-4.467217321586086
 30
0.0
 10
10.00000000000002
 20
-5.049124450212279
 30
0.0
 10
10.00000000000002
 20
-6.220009928508341
 30
0.0
 10
10.00000000000002
 20
-6.808662706965415
 30
0.0
 10
10.00000000000002
 20
-7.37783551383874
 30
0.0
  0
SPLINE
  5
AB
330
1F
100
AcDbEntity
  8
외형선
  6
Continuous
 62
     1
370
    15
100
AcDbSpline
210
0.0
220
0.0
230
1.0
 70
     8
 71
     3
 72
    24
 73
    20
 74
     0
 42
0.000000001
 43
0.00000001
 40
0.0
 40
0.0
 40
0.0
 40
0.0
 40
0.2500000000000009
 40
0.2500000000000009
 40
0.5000000000000018
 40
0.5000000000000018
 40
0.6250000000000023
 40
0.6250000000000023
 40
0.7500000000000029
 40
0.7500000000000029
 40
0.8125000000000033
 40
0.8125000000000033
 40
0.8750000000000038
 40
0.8750000000000038
 40
0.9375000000000042
 40
0.9375000000000042
 40
0.9687500000000021
 40
0.9687500000000021
 40
1.0
 40
1.0
 40
1.0
 40
1.0
 10
51.18015387301872
 20
0.3749261640301436
 30
0.0
 10
51.20721598533913
 20
0.0243946972905492
 30
0.0
 10
51.21809739975677
 20
-0.3265967082799243
 30
0.0
 10
51.22349817173559
 20
-1.029284514869705
 30
0.0
 10
51.21839982490427
 20
-1.381024349552688
 30
0.0
 10
51.18854404558619
 20
-1.907707154792623
 30
0.0
 10
51.17468411355613
 20
-2.083236431173598
 30
0.0
 10
51.13201108926159
 20
-2.432561141351653
 30
0.0
 10
51.10359553145516
 20
-2.607001697934868
 30
0.0
 10
51.03658440774769
 20
-2.861911463636774
 30
0.0
 10
51.01008663513719
 20
-2.946010616679139
 30
0.0
 10
50.94206852335834
 20
-3.109668392731433
 30
0.0
 10
50.90076636323823
 20
-3.189223820156027
 30
0.0
 10
50.79228315333545
 20
-3.327157670195182
 30
0.0
 10
50.72071284344104
 20
-3.387405072519328
 30
0.0
 10
50.59597748476283
 20
-3.422267985103121
 30
0.0
 10
50.55151099730272
 20
-3.424540986946343
 30
0.0
 10
50.46616036349614
 20
-3.411324968026667
 30
0.0
 10
50.4246714963774
 20
-3.396203645165436
 30
0.0
 10
50.38600000000003
 20
-3.375738456165604
 30
0.0
  0
SPLINE
  5
AC
330
1F
100
AcDbEntity
  8
외형선
  6
Continuous
 62
     1
370
    15
100
AcDbSpline
210
0.0
220
0.0
230
1.0
 70
     8
 71
     3
 72
    60
 73
    56
 74
     0
 42
0.000000001
 43
0.00000001
 40
0.0
 40
0.0
 40
0.0
 40
0.0
 40
0.0692617250063457
 40
0.138523454548612
 40
0.207724912794737
 40
0.2534395082865021
 40
0.2991061935975934
 40
0.3091715643335222
 40
0.319248534827405
 40
0.3293371095158862
 40
0.3343408120416488
 40
0.3381145388598029
 40
0.3428191431690054
 40
0.3484546242250762
 40
0.3550209809729412
 40
0.3625182121019208
 40
0.370946316070491
 40
0.3833306013218645
 40
0.4004589898275228
 40
0.4216740250257904
 40
0.440413700920695
 40
0.4560553143726629
 40
0.4689107268028695
 40
0.4838323164354685
 40
0.5043689610459928
 40
0.5275462021993411
 40
0.5459157481082809
 40
0.5610693283315593
 40
0.5806818625067295
 40
0.59785155673939
 40
0.6203117471237583
 40
0.6393087880507012
 40
0.6542375269221871
 40
0.6810208103287014
 40
0.6891696767467341
 40
0.6940225107294998
 40
0.6970354089079963
 40
0.7060260355717279
 40
0.7150166994264154
 40
0.7240074004721097
 40
0.7329981387088621
 40
0.7419889141367237
 40
0.7448170867092812
 40
0.7634262362244185
 40
0.7798381281956401
 40
0.7968031649039217
 40
0.8131870996401553
 40
0.829576240887219
 40
0.8446325181566285
 40
0.8627503967693544
 40
0.8922340910252715
 40
0.9222758089237155
 40
0.9522758571951258
 40
0.9825976408958209
 40
1.0
 40
1.0
 40
1.0
 40
1.0
 10
50.38600000000003
 20
-3.375738456165602
 30
0.0
 10
49.75747885848358
 20
-3.037206631209738
 30
0.0
 10
48.50043653428914
 20
-2.360142959127707
 30
0.0
 10
46.61553306130931
 20
-1.288697787340494
 30
0.0
 10
44.94474129888033
 20
-0.323735321780736
 30
0.0
 10
43.48735210747375
 20
0.5164576289354252
 30
0.0
 10
42.56754051913998
 20
1.044386457660614
 30
0.0
 10
41.97047120956021
 20
1.382544192836714
 30
0.0
 10
41.69609758906277
 20
1.537093960623485
 30
0.0
 10
41.4675103518468
 20
1.664927315003383
 30
0.0
 10
41.29626371109919
 20
1.76055149252952
 30
0.0
 10
41.17396883859073
 20
1.828869805181179
 30
0.0
 10
41.04595297927894
 20
1.900246207903126
 30
0.0
 10
40.89262686580587
 20
1.985536495944033
 30
0.0
 10
40.71398770011007
 20
2.084591572898634
 30
0.0
 10
40.51003137539751
 20
2.197225646722285
 30
0.0
 10
40.25335285212335
 20
2.338340123735531
 30
0.0
 10
39.90921844306071
 20
2.525937400415323
 30
0.0
 10
39.44893510019379
 20
2.773829813264419
 30
0.0
 10
38.93086188935177
 20
3.048350011280366
 30
0.0
 10
38.42638469249154
 20
3.311125085228262
 30
0.0
 10
37.99789599345799
 20
3.53083613393964
 30
0.0
 10
37.60433139457162
 20
3.730174180153965
 30
0.0
 10
37.16610460366297
 20
3.948083882501322
 30
0.0
 10
36.63404719008093
 20
4.206630063033637
 30
0.0
 10
36.07059437925644
 20
4.4724224907912
 30
0.0
 10
35.55611268791358
 20
4.708086382487894
 30
0.0
 10
35.07428665439972
 20
4.923595721530451
 30
0.0
 10
34.60331694701506
 20
5.128155869025102
 30
0.0
 10
34.06587712348482
 20
5.353577370933187
 30
0.0
 10
33.533786949454
 20
5.567969181524978
 30
0.0
 10
33.02210796278363
 20
5.765413794942591
 30
0.0
 10
32.47144687008194
 20
5.970198523985601
 30
0.0
 10
32.01925176481576
 20
6.130131698208665
 30
0.0
 10
31.65841418603442
 20
6.251865973686263
 30
0.0
 10
31.51318301677468
 20
6.300001881917501
 30
0.0
 10
31.36025122073137
 20
6.350035710992935
 30
0.0
 10
31.16972529926991
 20
6.41122444746038
 30
0.0
 10
30.92497777574629
 20
6.487765524247702
 30
0.0
 10
30.68021732165836
 20
6.562175028934157
 30
0.0
 10
30.4354735059885
 20
6.634455157534481
 30
0.0
 10
30.24660116660683
 20
6.688509686343701
 30
0.0
 10
29.97059591771108
 20
6.766062811527706
 30
0.0
 10
29.62748820447531
 20
6.859026742330719
 30
0.0
 10
29.15605667829923
 20
6.978110735264519
 30
0.0
 10
28.7045320692238
 20
7.084094556887063
 30
0.0
 10
28.2532019131681
 20
7.182120271127234
 30
0.0
 10
27.81912327502178
 20
7.268777478792242
 30
0.0
 10
27.36931947792343
 20
7.350980115243965
 30
0.0
 10
26.80138522360253
 20
7.445004325066487
 30
0.0
 10
26.0970678370187
 20
7.542587399888402
 30
0.0
 10
25.28454851402667
 20
7.628624133783005
 30
0.0
 10
24.4643624604972
 20
7.685347776047905
 30
0.0
 10
23.76006236126563
 20
7.717858461492884
 30
0.0
 10
23.32687770764094
 20
7.711829453376883
 30
0.0
 10
23.16891918900148
 20
7.709631007095603
 30
0.0
  0
SPLINE
  5
AD
330
1F
100
AcDbEntity
  8
외형선
  6
Continuous
 62
     1
370
    15
100
AcDbSpline
210
0.0
220
0.0
230
1.0
 70
     8
 71
     3
 72
    17
 73
    13
 74
     0
 42
0.000000001
 43
0.00000001
 40
0.0
 40
0.0
 40
0.0
 40
0.0
 40
0.0714710653170366
 40
0.1787653296241091
 40
0.2883704732301609
 40
0.398795961836945
 40
0.5052979552549436
 40
0.6125523040236062
 40
0.7221217949285917
 40
0.8325095285110328
 40
0.9160739998377078
 40
1.0
 40
1.0
 40
1.0
 40
1.0
 10
28.4816635567604
 20
7.107580984509839
 30
0.0
 10
29.02242187707201
 20
7.15435493976768
 30
0.0
 10
30.37498097142262
 20
7.271347200795282
 30
0.0
 10
32.55692459291222
 20
7.192819565605061
 30
0.0
 10
35.03370912583387
 20
6.898908453944244
 30
0.0
 10
37.50447015024447
 20
6.364863238865875
 30
0.0
 10
39.95732461272679
 20
5.627566937641496
 30
0.0
 10
42.40365200275245
 20
4.708275750747351
 30
0.0
 10
44.87929985868757
 20
3.619397568661099
 30
0.0
 10
47.17606543858277
 20
2.493001646860865
 30
0.0
 10
49.27770968853411
 20
1.398075537043351
 30
0.0
 10
50.54509392691752
 20
0.7164663737132303
 30
0.0
 10
51.18015387301876
 20
0.3749261640301276
 30
0.0
  0
SPLINE
  5
AE
330
1F
100
AcDbEntity
  8
외형선
  6
Continuous
 62
     1
370
    15
100
AcDbSpline
210
0.0
220
0.0
230
1.0
 70
     8
 71
     3
 72
    20
 73
    16
 74
     0
 42
0.000000001
 43
0.00000001
 40
0.0
 40
0.0
 40
0.0
 40
0.0
 40
0.0810943294039457
 40
0.1621907209917893
 40
0.2433410886763228
 40
0.3245309098198251
 40
0.4056481944043933
 40
0.4867370696711438
 40
0.5632190525624147
 40
0.6397872121463621
 40
0.716273596656606
 40
0.7927208988962717
 40
0.8692200030429728
 40
0.9546481476462574
 40
1.0
 40
1.0
 40
1.0
 40
1.0
 10
10.00000000000001
 20
2.289034958348163
 30
0.0
 10
10.70322663452794
 20
1.89801067439434
 30
0.0
 10
12.10969778624776
 20
1.115952162955649
 30
0.0
 10
14.21981209026297
 20
-0.1047666891060656
 30
0.0
 10
16.33109687228276
 20
-1.32384305846682
 30
0.0
 10
18.44294833361105
 20
-2.517553586199313
 30
0.0
 10
20.55361189623099
 20
-3.657673746777635
 30
0.0
 10
22.62342173194918
 20
-4.696596149679342
 30
0.0
 10
24.6536740901234
 20
-5.616696372986887
 30
0.0
 10
26.64492020896319
 20
-6.404934526783798
 30
0.0
 10
28.63504655696034
 20
-7.064009516387063
 30
0.0
 10
30.62439777182925
 20
-7.582128402302029
 30
0.0
 10
32.6915947504994
 20
-7.951123903702414
 30
0.0
 10
34.48968983696826
 20
-8.148669107047215
 30
0.0
 10
35.62390108873861
 20
-8.136097891157693
 30
0.0
 10
36.01722256316214
 20
-8.131738448275032
 30
0.0
  0
SPLINE
  5
AF
330
1F
100
AcDbEntity
  8
외형선
  6
Continuous
 62
     1
370
    15
100
AcDbSpline
210
0.0
220
0.0
230
1.0
 70
     8
 71
     3
 72
    15
 73
    11
 74
     0
 42
0.000000001
 43
0.00000001
 40
0.0
 40
0.0
 40
0.0
 40
0.0
 40
0.1243326955856663
 40
0.2492328272265751
 40
0.375860722673012
 40
0.5030879836301806
 40
0.6570353131397686
 40
0.8120612316781755
 40
0.9704031644373041
 40
1.0
 40
1.0
 40
1.0
 40
1.0
 10
9.999999999999755
 20
-6.902679038715155
 30
0.0
 10
10.64858305554354
 20
-7.044995315662564
 30
0.0
 10
11.94870920388279
 20
-7.330277380021285
 30
0.0
 10
13.90936614142657
 20
-7.580541741491696
 30
0.0
 10
15.88601968136849
 20
-7.691398277510596
 30
0.0
 10
18.0133326465777
 20
-7.64049681600237
 30
0.0
 10
20.28930955914643
 20
-7.394259012034216
 30
0.0
 10
22.72746540741861
 20
-6.890822856102848
 30
0.0
 10
24.51693270034703
 20
-6.410981094722556
 30
0.0
 10
25.49754041461013
 20
-6.048662473510015
 30
0.0
 10
25.65196776097252
 20
-5.991604077580938
 30
0.0
  0
SPLINE
  5
B0
330
1F
100
AcDbEntity
  8
외형선
  6
Continuous
370
    15
100
AcDbSpline
210
0.0
220
0.0
230
1.0
 70
    24
 71
     3
 72
    20
 73
    16
 74
     0
 42
0.000000001
 43
0.00000001
 40
0.0
 40
0.0
 40
0.0
 40
0.0
 40
0.2500000000000001
 40
0.2500000000000001
 40
0.3750000000000001
 40
0.3750000000000001
 40
0.5000000000000001
 40
0.5000000000000001
 40
0.6250000000000002
 40
0.6250000000000002
 40
0.7500000000000001
 40
0.7500000000000001
 40
0.875
 40
0.875
 40
1.0
 40
1.0
 40
1.0
 40
1.0
 10
10.00000000000002
 20
2.289034958348207
 30
0.0
 10
10.00000000000002
 20
2.022739927749981
 30
0.0
 10
10.00000000000002
 20
1.662586375481894
 30
0.0
 10
10.00000000000002
 20
0.9185963635085415
 30
0.0
 10
10.00000000000002
 20
0.6366082778367894
 30
0.0
 10
10.00000000000002
 20
-0.0029552981536846
 30
0.0
 10
10.00000000000002
 20
-0.3606549144424107
 30
0.0
 10
10.00000000000002
 20
-1.153589548646829
 30
0.0
 10
10.00000000000002
 20
-1.588947535037186
 30
0.0
 10
10.00000000000002
 20
-2.529438130681731
 30
0.0
 10
10.00000000000002
 20
-3.034627828762657
 30
0.0
 10
10.00000000000002
 20
-4.09433310059467
 30
0.0
 10
10.00000000000002
 20
-4.648766992633243
 30
0.0
 10
10.00000000000002
 20
-5.773930850503098
 30
0.0
 10
10.00000000000002
 20
-6.344418970412582
 30
0.0
 10
10.00000000000002
 20
-6.902679038715217
 30
0.0
  0
SPLINE
  5
B1
330
1F
100
AcDbEntity
  8
외형선
  6
Continuous
 62
     1
370
    15
100
AcDbSpline
210
0.0
220
0.0
230
1.0
 70
     8
 71
     3
 72
    64
 73
    60
 74
     0
 42
0.000000001
 43
0.00000001
 40
0.0
 40
0.0
 40
0.0
 40
0.0
 40
0.0031687636226222
 40
0.011265783135544
 40
0.0206545338833322
 40
0.0332109620987432
 40
0.0437552969384014
 40
0.051020167579097
 40
0.0592697493296876
 40
0.0685040401382137
 40
0.0787230373597346
 40
0.0889749881601799
 40
0.1031542000455749
 40
0.1207164176462102
 40
0.1362294845658001
 40
0.1491779151272168
 40
0.1598198743015101
 40
0.1721722551571832
 40
0.1891728875775775
 40
0.2083594571046827
 40
0.2235661230848788
 40
0.2361105501198793
 40
0.2523461857868921
 40
0.2665595913624744
 40
0.2851525721318111
 40
0.3008786906400254
 40
0.3132369898914573
 40
0.335408710765996
 40
0.3421545002545753
 40
0.3461717702396571
 40
0.3486659057211428
 40
0.3561085206484272
 40
0.3635511663631013
 40
0.3709938428652076
 40
0.3784365501547884
 40
0.385879288231886
 40
0.3882205041994478
 40
0.4036255187427681
 40
0.417211600819294
 40
0.4312555869308673
 40
0.4448185255106012
 40
0.4583857741414018
 40
0.470849652090165
 40
0.4858479830308067
 40
0.5102551563536538
 40
0.5351242724270339
 40
0.5599588935761589
 40
0.5850598534384902
 40
0.623494749823742
 40
0.6577807059182541
 40
0.6929533088427721
 40
0.7313249161415709
 40
0.7697135274334079
 40
0.8072207630839812
 40
0.8464739794196157
 40
0.884877623616519
 40
0.9232357779117898
 40
0.9616741105735467
 40
1.0
 40
1.0
 40
1.0
 40
1.0
 10
42.87730593333372
 20
-7.572145414414391
 30
0.0
 10
42.84261767972558
 20
-7.579832997347687
 30
0.0
 10
42.71929186908129
 20
-7.607164364554984
 30
0.0
 10
42.49282817811424
 20
-7.653729758994272
 30
0.0
 10
42.16354952141552
 20
-7.718755194254382
 30
0.0
 10
41.80738459528355
 20
-7.783661645967185
 30
0.0
 10
41.47448450735648
 20
-7.839354493134796
 30
0.0
 10
41.18889841808544
 20
-7.883809346470623
 30
0.0
 10
40.91772674654179
 20
-7.923254099840508
 30
0.0
 10
40.61422606405933
 20
-7.963863369768591
 30
0.0
 10
40.28886935360107
 20
-8.003163829725464
 30
0.0
 10
39.90922082504706
 20
-8.043686612576321
 30
0.0
 10
39.44893419407033
 20
-8.085099293715814
 30
0.0
 10
38.9308621246601
 20
-8.120459922982375
 30
0.0
 10
38.42638463848146
 20
-8.14347736943526
 30
0.0
 10
37.99789600008516
 20
-8.154650174914972
 30
0.0
 10
37.60433139403228
 20
-8.158501148793357
 30
0.0
 10
37.16610460968567
 20
-8.155801239868072
 30
0.0
 10
36.63404719100784
 20
-8.141763363255823
 30
0.0
 10
36.07059437574274
 20
-8.112900031326737
 30
0.0
 10
35.55611268375323
 20
-8.07440928377009
 30
0.0
 10
35.07428665371506
 20
-8.029117949560653
 30
0.0
 10
34.60331694914705
 20
-7.975610899339443
 30
0.0
 10
34.06587712523497
 20
-7.903611267464939
 30
0.0
 10
33.53378694998912
 20
-7.820804090425311
 30
0.0
 10
33.02210796278611
 20
-7.729565016724488
 30
0.0
 10
32.47144687009591
 20
-7.62110998158307
 30
0.0
 10
32.01925176484031
 20
-7.521871240512278
 30
0.0
 10
31.65841418606277
 20
-7.436117666252177
 30
0.0
 10
31.51318301679153
 20
-7.400604887910984
 30
0.0
 10
31.3602512207376
 20
-7.362653307398072
 30
0.0
 10
31.16972529926993
 20
-7.31424848108081
 30
0.0
 10
30.92497777574635
 20
-7.249797200379268
 30
0.0
 10
30.68021732165818
 20
-7.183132132476566
 30
0.0
 10
30.43547350598925
 20
-7.114249837833854
 30
0.0
 10
30.24660116746087
 20
-7.059464514423566
 30
0.0
 10
29.97059591876529
 20
-6.977612538842029
 30
0.0
 10
29.62748820614731
 20
-6.871983113520818
 30
0.0
 10
29.1560566793412
 20
-6.719136939767893
 30
0.0
 10
28.70453206925774
 20
-6.566048947859502
 30
0.0
 10
28.25320191554673
 20
-6.406184932593593
 30
0.0
 10
27.81912326717053
 20
-6.246207391962737
 30
0.0
 10
27.36931951031167
 20
-6.07431194637515
 30
0.0
 10
26.80138504123536
 20
-5.848200108157069
 30
0.0
 10
26.09706901387566
 20
-5.554896942297868
 30
0.0
 10
25.28454410604703
 20
-5.198722112264901
 30
0.0
 10
24.46437893200911
 20
-4.821687305873368
 30
0.0
 10
23.49695963200901
 20
-4.3547953478066
 30
0.0
 10
22.42377668496395
 20
-3.816239106159197
 30
0.0
 10
21.24226937701085
 20
-3.192366028384614
 30
0.0
 10
20.05985918838531
 20
-2.550088434467294
 30
0.0
 10
18.83345171944476
 20
-1.863311066389837
 30
0.0
 10
17.58102910539673
 20
-1.14919389679062
 30
0.0
 10
16.31896445591691
 20
-0.4218723552437351
 30
0.0
 10
15.05711201355127
 20
0.30799759437755
 30
0.0
 10
13.78503057479173
 20
1.037249629002112
 30
0.0
 10
12.52327132795337
 20
1.752600876260218
 30
0.0
 10
11.26069570930559
 20
2.450100812501233
 30
0.0
 10
10.41982133580686
 20
2.896852139412245
 30
0.0
 10
9.999999999986928
 20
3.119900605097699
 30
0.0
  0
LINE
  5
B2
330
1F
100
AcDbEntity
  8
외형선
  6
Continuous
370
    15
100
AcDbLine
 10
10.00000000000002
 20
2.289034958348172
 30
0.0
 11
10.00000000000002
 21
3.119900605132085
 31
0.0
  0
SPLINE
  5
B3
330
1F
100
AcDbEntity
  8
외형선
  6
Continuous
 62
     1
370
    15
100
AcDbSpline
210
0.0
220
0.0
230
1.0
 70
     8
 71
     3
 72
    64
 73
    60
 74
     0
 42
0.000000001
 43
0.00000001
 40
0.0
 40
0.0
 40
0.0
 40
0.0
 40
0.0312499999999999
 40
0.0312499999999999
 40
0.0625
 40
0.0625
 40
0.09375
 40
0.09375
 40
0.1250000000000001
 40
0.1250000000000001
 40
0.1562500000000001
 40
0.1562500000000001
 40
0.1875000000000002
 40
0.1875000000000002
 40
0.2187500000000002
 40
0.2187500000000002
 40
0.2500000000000003
 40
0.2500000000000003
 40
0.3125000000000004
 40
0.3125000000000004
 40
0.3437500000000007
 40
0.3437500000000007
 40
0.3750000000000008
 40
0.3750000000000008
 40
0.406250000000001
 40
0.406250000000001
 40
0.4375000000000011
 40
0.4375000000000011
 40
0.4687500000000013
 40
0.4687500000000013
 40
0.5000000000000014
 40
0.5000000000000014
 40
0.5312500000000016
 40
0.5312500000000016
 40
0.5625000000000017
 40
0.5625000000000017
 40
0.5937500000000018
 40
0.5937500000000018
 40
0.6250000000000019
 40
0.6250000000000019
 40
0.656250000000002
 40
0.656250000000002
 40
0.687500000000002
 40
0.687500000000002
 40
0.7187500000000022
 40
0.7187500000000022
 40
0.7500000000000022
 40
0.7500000000000022
 40
0.781250000000002
 40
0.781250000000002
 40
0.8125000000000018
 40
0.8125000000000018
 40
0.8437500000000014
 40
0.8437500000000014
 40
0.8750000000000011
 40
0.8750000000000011
 40
0.9375000000000006
 40
0.9375000000000006
 40
1.0
 40
1.0
 40
1.0
 40
1.0
 10
9.999999999999773
 20
5.969405780704696
 30
0.0
 10
10.42945699888858
 20
5.840087675056154
 30
0.0
 10
10.85576204285249
 20
5.702060308770431
 30
0.0
 10
11.71331745162024
 20
5.40861639061745
 30
0.0
 10
12.14395538464837
 20
5.253232743955503
 30
0.0
 10
13.00330041759456
 20
4.927147921391482
 30
0.0
 10
13.43006689796724
 20
4.756722944464847
 30
0.0
 10
14.28684350635571
 20
4.401444840502979
 30
0.0
 10
14.71736633858211
 20
4.21649391911268
 30
0.0
 10
15.57703477852147
 20
3.834350903389034
 30
0.0
 10
16.00454688877213
 20
3.637420612704249
 30
0.0
 10
16.86043813979057
 20
3.232773991711792
 30
0.0
 10
17.29079170243765
 20
3.024730887911549
 30
0.0
 10
18.15067578603713
 20
2.599888689566584
 30
0.0
 10
18.57921740929544
 20
2.383262072165366
 30
0.0
 10
19.43411711429065
 20
1.943435411678704
 30
0.0
 10
19.8642473097388
 20
1.719583170239507
 30
0.0
 10
21.1542351203946
 20
1.040558783823746
 30
0.0
 10
22.0077530986828
 20
0.5789960710773552
 30
0.0
 10
23.29774074674896
 20
-0.1180355795497847
 30
0.0
 10
23.7278714451216
 20
-0.3508924176315695
 30
0.0
 10
24.58277324834549
 20
-0.8145793556432698
 30
0.0
 10
25.011312518959
 20
-1.046091245492866
 30
0.0
 10
25.8711962774245
 20
-1.506527023821823
 30
0.0
 10
26.30155023439898
 20
-1.735268971339158
 30
0.0
 10
27.15744337070864
 20
-2.186819463982842
 30
0.0
 10
27.5849536982535
 20
-2.409982234904708
 30
0.0
 10
28.44462159645397
 20
-2.850059546215025
 30
0.0
 10
28.87514471424495
 20
-3.066682888839197
 30
0.0
 10
29.73192299420336
 20
-3.490283166028338
 30
0.0
 10
30.15868826255103
 20
-3.697361475085081
 30
0.0
 10
31.01803253737985
 20
-4.101690161313356
 30
0.0
 10
31.4486706470897
 20
-4.298614175493005
 30
0.0
 10
32.30622751301021
 20
-4.679420872363277
 30
0.0
 10
32.73253191613451
 20
-4.863239962050771
 30
0.0
 10
33.59144493973308
 20
-5.217686848696609
 30
0.0
 10
34.02214382410389
 20
-5.388020279081647
 30
0.0
 10
34.88037239399696
 20
-5.712682817929686
 30
0.0
 10
35.30650031775097
 20
-5.866870655785851
 30
0.0
 10
36.16487464239162
 20
-6.159055840087234
 30
0.0
 10
36.59558005860008
 20
-6.296839138160613
 30
0.0
 10
37.45437317040304
 20
-6.553969790213451
 30
0.0
 10
37.88060907412893
 20
-6.67317223065917
 30
0.0
 10
38.73833747693983
 20
-6.892903495216882
 30
0.0
 10
39.16899517941467
 20
-6.993318269554092
 30
0.0
 10
40.02824543546661
 20
-7.173893281815868
 30
0.0
 10
40.45487373354101
 20
-7.253955201295273
 30
0.0
 10
41.3118492610342
 20
-7.393585245427065
 30
0.0
 10
41.74240502427615
 20
-7.453123532431445
 30
0.0
 10
42.60200483599893
 20
-7.550801135776396
 30
0.0
 10
43.02930977941767
 20
-7.588907593340164
 30
0.0
 10
43.88542579178148
 20
-7.64360150755182
 30
0.0
 10
44.31582543316533
 20
-7.660188891727067
 30
0.0
 10
45.17566706591209
 20
-7.671532940627494
 30
0.0
 10
45.6039326240176
 20
-7.666305705250478
 30
0.0
 10
46.88665794669351
 20
-7.618161084881169
 30
0.0
 10
47.75171833358242
 20
-7.542273562034801
 30
0.0
 10
49.45987540789147
 20
-7.30687966318175
 30
0.0
 10
50.32550876542471
 20
-7.146333038617132
 30
0.0
 10
51.18015387301875
 20
-6.947091009947798
 30
0.0
  0
LINE
  5
B4
330
1F
100
AcDbEntity
  8
외형선
  6
Continuous
370
    15
100
AcDbLine
 10
10.00000000000002
 20
5.969405780704623
 30
0.0
 11
10.00000000000002
 21
3.119900605090847
 31
0.0
  0
SPLINE
  5
B5
330
1F
100
AcDbEntity
  8
외형선
  6
Continuous
 62
     1
370
    15
100
AcDbSpline
210
0.0
220
0.0
230
1.0
 70
     8
 71
     3
 72
    26
 73
    22
 74
     0
 42
0.000000001
 43
0.00000001
 40
0.0
 40
0.0
 40
0.0
 40
0.0
 40
0.0217750006361202
 40
0.0756985375939827
 40
0.1296579649532268
 40
0.1836436261560634
 40
0.2375810555234273
 40
0.2914995946434043
 40
0.3423548663798876
 40
0.3932674397050294
 40
0.4441256382161659
 40
0.4949578496985253
 40
0.5458245058953018
 40
0.6026283614375916
 40
0.6594021548240082
 40
0.7161515730480601
 40
0.7728951229128951
 40
0.8296513446172182
 40
0.8864387062743582
 40
0.9432369736735634
 40
1.0
 40
1.0
 40
1.0
 40
1.0
 10
11.2577361340959
 20
5.551445605241769
 30
0.0
 10
11.54171445841113
 20
5.66769395873137
 30
0.0
 10
12.52893573193862
 20
6.071819336448882
 30
0.0
 10
14.21981063380455
 20
6.617187963028841
 30
0.0
 10
16.33109726309689
 20
7.167956787390602
 30
0.0
 10
18.44294822813692
 20
7.536431029415116
 30
0.0
 10
20.55361192759168
 20
7.724866380922159
 30
0.0
 10
22.62342171287828
 20
7.725692387148204
 30
0.0
 10
24.65367413404711
 20
7.551871324283166
 30
0.0
 10
26.64492005098762
 20
7.219233185493862
 30
0.0
 10
28.63504714405851
 20
6.730652641472751
 30
0.0
 10
30.62439558173156
 20
6.0965441972658
 30
0.0
 10
32.69160333381388
 20
5.300847860760446
 30
0.0
 10
34.83691338188657
 20
4.34339181077267
 30
0.0
 10
37.05848770074802
 20
3.232278215195203
 30
0.0
 10
39.2791226784175
 20
2.031323027252354
 30
0.0
 10
41.49947611821873
 20
0.7719255631307993
 30
0.0
 10
43.72041084905383
 20
-0.5139803873065422
 30
0.0
 10
45.9423615013183
 20
-1.790132923474984
 30
0.0
 10
48.16456680080976
 20
-3.032575419749019
 30
0.0
 10
49.64567547600074
 20
-3.794068690778755
 30
0.0
 10
50.38600000000003
 20
-4.174697170543116
 30
0.0
  0
SPLINE
  5
B6
330
1F
100
AcDbEntity
  8
외형선
  6
Continuous
 62
     1
370
    15
100
AcDbSpline
210
0.0
220
0.0
230
1.0
 70
     8
 71
     3
 72
    14
 73
    10
 74
     0
 42
0.000000001
 43
0.00000001
 40
0.0
 40
0.0
 40
0.0
 40
0.0
 40
0.25
 40
0.25
 40
0.5
 40
0.5
 40
0.75
 40
0.75
 40
1.0
 40
1.0
 40
1.0
 40
1.0
 10
50.38600000000002
 20
-4.174697170543103
 30
0.0
 10
50.49955046698305
 20
-4.231479904503274
 30
0.0
 10
50.60817941398739
 20
-4.277183372753605
 30
0.0
 10
50.81674090411166
 20
-4.345990662374239
 30
0.0
 10
50.91394532318107
 20
-4.367792973830048
 30
0.0
 10
51.08140189373314
 20
-4.382704932882167
 30
0.0
 10
51.15085512122733
 20
-4.375745346688539
 30
0.0
 10
51.24812875394178
 20
-4.334134837112397
 30
0.0
 10
51.275
 20
-4.300136838035229
 30
0.0
 10
51.275
 20
-4.255469187161697
 30
0.0
  0
SPLINE
  5
B7
330
1F
100
AcDbEntity
  8
외형선
  6
Continuous
 62
     1
370
    15
100
AcDbSpline
210
0.0
220
0.0
230
1.0
 70
     8
 71
     3
 72
    11
 73
     7
 74
     0
 42
0.000000001
 43
0.00000001
 40
0.0
 40
0.0
 40
0.0
 40
0.0
 40
0.1128879309843856
 40
0.50356818745876
 40
0.9053411740196685
 40
0.9999999999999999
 40
0.9999999999999999
 40
0.9999999999999999
 40
0.9999999999999999
 10
49.5010367507594
 20
-3.713073233018302
 30
0.0
 10
49.42096563888563
 20
-3.724204933555176
 30
0.0
 10
49.06378605093074
 20
-3.773860996996206
 30
0.0
 10
48.36482183297136
 20
-3.963321659848908
 30
0.0
 10
47.67110335560111
 20
-4.198742718550247
 30
0.0
 10
47.28079483799558
 20
-4.353675974957436
 30
0.0
 10
47.20637143257855
 20
-4.38321840109999
 30
0.0
  0
SPLINE
  5
B8
330
1F
100
AcDbEntity
  8
외형선
  6
Continuous
 62
     1
370
    15
100
AcDbSpline
210
0.0
220
0.0
230
1.0
 70
     8
 71
     3
 72
    10
 73
     6
 74
     0
 42
0.000000001
 43
0.00000001
 40
0.0
 40
0.0
 40
0.0
 40
0.0
 40
0.5
 40
0.5
 40
1.0
 40
1.0
 40
1.0
 40
1.0
 10
51.27500000000001
 20
-4.860353239520879
 30
0.0
 10
50.58231061884982
 20
-4.853877732968165
 30
0.0
 10
49.89650455721145
 20
-4.812927168930302
 30
0.0
 10
48.53957417601619
 20
-4.65749263863909
 30
0.0
 10
47.86851228516989
 20
-4.542695998626871
 30
0.0
 10
47.20637143257856
 20
-4.383218401099981
 30
0.0
  0
LINE
  5
B9
330
1F
100
AcDbEntity
  8
외형선
  6
Continuous
 62
     1
370
    15
100
AcDbLine
 10
51.27500000000001
 20
-6.604309679531401
 30
0.0
 11
51.27500000000001
 21
-4.860353239520887
 31
0.0
  0
SPLINE
  5
BA
330
1F
100
AcDbEntity
  8
외형선
  6
Continuous
 62
     1
370
    15
100
AcDbSpline
210
0.0
220
0.0
230
1.0
 70
     8
 71
     3
 72
     8
 73
     4
 74
     0
 42
0.000000001
 43
0.00000001
 40
0.0
 40
0.0
 40
0.0
 40
0.0
 40
1.0
 40
1.0
 40
1.0
 40
1.0
 10
51.27500000000001
 20
-6.604309679531399
 30
0.0
 10
51.27500000000001
 20
-6.711961546231878
 30
0.0
 10
51.24252766807091
 20
-6.831262739157806
 30
0.0
 10
51.18015387301873
 20
-6.947091009947842
 30
0.0
  0
LINE
  5
BB
330
1F
100
AcDbEntity
  8
외형선
  6
Continuous
 62
     1
370
    15
100
AcDbLine
 10
51.27500000000001
 20
-4.255469187161699
 30
0.0
 11
51.27500000000001
 21
0.3852832042069705
 31
0.0
  0
SPLINE
  5
BC
330
1F
100
AcDbEntity
  8
외형선
  6
Continuous
 62
     1
370
    15
100
AcDbSpline
210
0.0
220
0.0
230
1.0
 70
     8
 71
     3
 72
     8
 73
     4
 74
     0
 42
0.000000001
 43
0.00000001
 40
0.0
 40
0.0
 40
0.0
 40
0.0
 40
1.0
 40
1.0
 40
1.0
 40
1.0
 10
51.27500000000001
 20
0.3852832042069722
 30
0.0
 10
51.27500000000001
 20
0.3605098687094322
 30
0.0
 10
51.24252766807091
 20
0.356072621599459
 30
0.0
 10
51.18015387301872
 20
0.3749261640302413
 30
0.0
  0
SPLINE
  5
BD
330
1F
100
AcDbEntity
  8
외형선
  6
Continuous
 62
     1
370
    15
100
AcDbSpline
210
0.0
220
0.0
230
1.0
 70
     8
 71
     3
 72
    12
 73
     8
 74
     0
 42
0.000000001
 43
0.00000001
 40
0.0
 40
0.0
 40
0.0
 40
0.0
 40
0.1388524981068001
 40
0.3540635458150729
 40
0.569392671536118
 40
0.7847631501891488
 40
0.9999999999999999
 40
0.9999999999999999
 40
0.9999999999999999
 40
0.9999999999999999
 10
40.06659164532287
 20
5.556118622677149
 30
0.0
 10
40.54416744789288
 20
5.745471059201442
 30
0.0
 10
41.76195023436718
 20
6.228305693065561
 30
0.0
 10
43.72041098105345
 20
6.822975935188913
 30
0.0
 10
45.94236146610195
 20
7.3327898099799
 30
0.0
 10
48.16456680960819
 20
7.654588204879314
 30
0.0
 10
49.64567547893295
 20
7.696505416250228
 30
0.0
 10
50.38600000000004
 20
7.717457517926055
 30
0.0
  0
LINE
  5
BF
330
1F
100
AcDbEntity
  8
외형선
  6
Continuous
 62
     1
370
    15
100
AcDbLine
 10
51.27500000000001
 20
4.91953686477682
 30
0.0
 11
51.27500000000002
 21
6.828474145790575
 31
0.0
  0
SPLINE
  5
C0
330
1F
100
AcDbEntity
  8
외형선
  6
Continuous
 62
     1
370
    15
100
AcDbSpline
210
0.0
220
0.0
230
1.0
 70
     8
 71
     3
 72
    20
 73
    16
 74
     0
 42
0.000000001
 43
0.00000001
 40
0.0
 40
0.0
 40
0.0
 40
0.0
 40
0.2500000000000019
 40
0.2500000000000019
 40
0.3750000000000017
 40
0.3750000000000017
 40
0.5000000000000014
 40
0.5000000000000014
 40
0.6250000000000011
 40
0.6250000000000011
 40
0.7500000000000007
 40
0.7500000000000007
 40
0.8750000000000003
 40
0.8750000000000003
 40
1.0
 40
1.0
 40
1.0
 40
1.0
 10
51.27500000000001
 20
4.919536864776816
 30
0.0
 10
51.06456419046404
 20
4.547573993450452
 30
0.0
 10
50.80753687174926
 20
4.221895359939892
 30
0.0
 10
50.35397771285955
 20
3.800947010064059
 30
0.0
 10
50.1922170805254
 20
3.673045050256241
 30
0.0
 10
49.85755110206874
 20
3.446209183614564
 30
0.0
 10
49.68349008245814
 20
3.346162232189784
 30
0.0
 10
49.32312650619601
 20
3.170396603865403
 30
0.0
 10
49.13613362844496
 20
3.094610570740971
 30
0.0
 10
48.76010155352284
 20
2.968581534183648
 30
0.0
 10
48.56997938058327
 20
2.917738828599618
 30
0.0
 10
48.18603538936742
 20
2.837434468430114
 30
0.0
 10
47.99221447561295
 20
2.807967586417135
 30
0.0
 10
47.60119276733892
 20
2.768566884733825
 30
0.0
 10
47.40308417814546
 20
2.758674995280009
 30
0.0
 10
47.20637143257855
 20
2.758032887336694
 30
0.0
  0
SPLINE
  5
C1
330
1F
100
AcDbEntity
  8
외형선
  6
Continuous
 62
     1
370
    15
100
AcDbSpline
210
0.0
220
0.0
230
1.0
 70
     8
 71
     3
 72
    10
 73
     6
 74
     0
 42
0.000000001
 43
0.00000001
 40
0.0
 40
0.0
 40
0.0
 40
0.0
 40
0.5
 40
0.5
 40
1.0
 40
1.0
 40
1.0
 40
1.0
 10
51.27500000000001
 20
1.311121167701616
 30
0.0
 10
50.58231061884982
 20
1.589174292539464
 30
0.0
 10
49.89650455721145
 20
1.8498116358379
 30
0.0
 10
48.53957417601619
 20
2.33393941791152
 30
0.0
 10
47.86851228516989
 20
2.557271903132039
 30
0.0
 10
47.20637143257856
 20
2.7580328873367
 30
0.0
  0
LINE
  5
C2
330
1F
100
AcDbEntity
  8
외형선
  6
Continuous
 62
     1
370
    15
100
AcDbLine
 10
51.27500000000001
 20
0.3852832042069705
 30
0.0
 11
51.27500000000001
 21
1.311121167701617
 31
0.0
  0
LINE
  5
C3
330
1F
100
AcDbEntity
  8
외형선
  6
Continuous
 62
     1
370
    15
100
AcDbLine
 10
51.27500000000001
 20
1.311121167701616
 30
0.0
 11
51.27500000000001
 21
4.91953686477682
 31
0.0
  0
SPLINE
  5
C4
330
1F
100
AcDbEntity
  8
외형선
  6
Continuous
 62
     1
370
    15
100
AcDbSpline
210
0.0
220
0.0
230
1.0
 70
     8
 71
     3
 72
     9
 73
     5
 74
     0
 42
0.000000001
 43
0.00000001
 40
0.0
 40
0.0
 40
0.0
 40
0.0
 40
0.4556314536964818
 40
1.0
 40
1.0
 40
1.0
 40
1.0
 10
14.07940377821994
 20
-7.55997526021345
 30
0.0
 10
13.45987981448274
 20
-7.689090641203046
 30
0.0
 10
12.10017569679929
 20
-7.972467436071133
 30
0.0
 10
10.74028287722777
 20
-8.071817827624795
 30
0.0
 10
9.999999999909026
 20
-8.12590105584955
 30
0.0
  0
LINE
  5
C5
330
1F
100
AcDbEntity
  8
외형선
  6
Continuous
 62
     1
370
    15
100
AcDbLine
 10
51.27500000000001
 20
-4.255469187161699
 30
0.0
 11
51.27500000000001
 21
-4.860353239520879
 31
0.0
  0
LINE
  5
C7
330
1F
100
AcDbEntity
  8
중심선
 62
     1
100
AcDbLine
 10
-40.62500000000001
 20
-0.2200258542094295
 30
0.0
 11
58.27047412724347
 21
-0.2200258542094176
 31
0.0
  0
LINE
  5
C8
330
1F
100
AcDbEntity
  8
참조1
100
AcDbLine
 10
6.824999999999998
 20
0.0010749287238892
 30
0.0
 11
6.825000000000003
 21
-39.99892507127611
 31
0.0
  0
LINE
  5
C9
330
1F
100
AcDbEntity
  8
참조1
100
AcDbLine
 10
6.825000000000003
 20
-39.99892507127611
 30
0.0
 11
-11.4993378394857
 21
-39.9989250712761
 31
0.0
  0
CIRCLE
  5
CA
330
1F
100
AcDbEntity
  8
해칭선
100
AcDbCircle
 10
0.000000000000014
 20
-0.2200258542094246
 30
0.0
 40
3.000000000000001
  0
INSERT
  5
CB
330
1F
100
AcDbEntity
  8
0
  6
Continuous
 62
     7
100
AcDbBlockReference
 66
     1
  2
블럭10
 10
-7.115272932125207
 20
-52.04609937292004
 30
0.0
  0
ATTRIB
  5
CC
330
CB
100
AcDbEntity
  8
FORMAT
 62
     2
100
AcDbText
 10
-16.29656822086649
 20
-49.97073246008785
 30
0.0
 40
4.233333333333333
  1
E5104040 [ 3 FLUTE ]
 41
0.75
  7
SLDTEXTSTYLE0
 11
-16.29656822086649
 21
-52.08739912675452
 31
0.0
100
AcDbAttribute
  2
AUTOATTR0
 70
     0
 74
     1
  0
SEQEND
  5
CD
330
CB
100
AcDbEntity
  8
0
  6
Continuous
 62
     7
  0
HATCH
  5
CE
330
1F
100
AcDbEntity
  8
중심선
100
AcDbHatch
 10
0.0
 20
0.0
 30
0.0
210
0.0
220
0.0
230
1.0
  2
SOLID
 70
     1
 71
     0
 91
        1
 92
        0
 93
        4
 72
     1
 10
-1.400363627744372
 20
-35.7989250712761
 11
-4.846638871581654
 21
-35.7989250712761
 72
     1
 10
-4.846638871581654
 20
-35.7989250712761
 11
-6.974868730785677
 21
-38.3352506518487
 72
     1
 10
-6.974868730785677
 20
-38.3352506518487
 11
-3.528560401835218
 21
-38.33521122254621
 72
     1
 10
-3.528560401835218
 20
-38.33521122254621
 11
-1.400363627744372
 21
-35.7989250712761
 97
        0
 75
     0
 76
     1
 98
        1
 10
0.0
 20
0.0
  0
HATCH
  5
CF
330
1F
100
AcDbEntity
  8
중심선
100
AcDbHatch
 10
0.0
 20
0.0
 30
0.0
210
0.0
220
0.0
230
1.0
  2
SOLID
 70
     1
 71
     0
 91
        1
 92
        0
 93
        4
 72
     1
 10
3.612400363291607
 20
-35.7989250712761
 11
0.1661251194543247
 21
-35.7989250712761
 72
     1
 10
0.1661251194543245
 20
-35.7989250712761
 11
-4.365012888903092
 21
-41.19892507127612
 72
     1
 10
-4.365012888903092
 20
-41.19892507127612
 11
-0.9187376450658089
 21
-41.19892507127612
 72
     1
 10
-0.9187376450658091
 20
-41.19892507127612
 11
3.612400363291608
 21
-35.7989250712761
 97
        0
 75
     0
 76
     1
 98
        1
 10
0.0
 20
0.0
  0
HATCH
  5
D0
330
1F
100
AcDbEntity
  8
중심선
100
AcDbHatch
 10
0.0
 20
0.0
 30
0.0
210
0.0
220
0.0
230
1.0
  2
SOLID
 70
     1
 71
     0
 91
        1
 92
        0
 93
        4
 72
     1
 10
8.625164354327447
 20
-35.7989250712761
 11
5.178889110490359
 21
-35.7989250712761
 72
     1
 10
5.178889110490359
 20
-35.7989250712761
 11
-1.86954779139889
 21
-44.19892507127612
 72
     1
 10
-1.86954779139889
 20
-44.19892507127612
 11
1.576727452438392
 21
-44.19892507127612
 72
     1
 10
1.576727452438392
 20
-44.19892507127612
 11
8.625164354327447
 21
-35.7989250712761
 97
        0
 75
     0
 76
     1
 98
        1
 10
0.0
 20
0.0
  0
HATCH
  5
D1
330
1F
100
AcDbEntity
  8
중심선
100
AcDbHatch
 10
0.0
 20
0.0
 30
0.0
210
0.0
220
0.0
230
1.0
  2
SOLID
 70
     1
 71
     0
 91
        1
 92
        0
 93
        6
 72
     3
 10
13.42505478533967
 20
-39.99892507132738
 11
3.960054785062284
 21
1.540850780301639E-10
 40
0.3939339440162633
 50
17.09539180608433
 51
320.0019657685086
 73
     0
 72
     1
 10
15.10805444104027
 20
-38.58681907591443
 11
17.41335631474131
 21
-36.65249236586649
 72
     3
 10
13.42505478528683
 20
-39.99892507127625
 11
6.600054785286829
 21
-1.249000902703301E-13
 40
0.6363583540795982
 50
39.99873849337408
 51
368.4976242363724
 73
     1
 72
     1
 10
19.85038727718744
 20
-39.03892507120613
 11
12.10512209212275
 21
-39.03892507120613
 72
     1
 10
12.10512209212275
 20
-39.03892507120613
 11
12.10509704767682
 21
-40.95892507120602
 72
     1
 10
12.10509704767682
 20
-40.95892507120602
 11
16.54647681714885
 21
-40.95892507120599
 97
        0
 75
     0
 76
     1
 98
        1
 10
0.0
 20
0.0
  0
DIMENSION
  5
D2
330
1F
100
AcDbEntity
  8
치수문자_일반주서
100
AcDbDimension
  2
_D
 10
51.275
 20
48.95503065978271
 30
0.0
 11
6.82500000000001
 21
48.95503065978271
 31
0.0
 70
   160
  1
<>
 71
     2
 42
88.89999999999999
  3
SLDDIMSTYLE0
100
AcDbAlignedDimension
 13
-37.62499999999999
 23
7.717474145790548
 33
0.0
 14
51.275
 24
7.717474145790727
 34
0.0
100
AcDbRotatedDimension
1001
ACAD
1000
DSTYLE
1002
{
1070
   171
1070
     3
1070
   273
1070
     7
1002
}
  0
DIMENSION
  5
E6
330
1F
100
AcDbEntity
  8
치수문자_일반주서
100
AcDbDimension
  2
_D_1
 10
-53.17085040270747
 20
-8.157525854209478
 30
0.0
 11
-53.1708504027076
 21
28.32147414579049
 31
0.0
 70
   160
  1
%%c<>
 71
     2
 42
15.87499999999997
  3
SLDDIMSTYLE1
100
AcDbAlignedDimension
 13
-37.62499999999999
 23
7.717474145790548
 33
0.0
 14
-37.62284322409197
 24
-8.157525854209425
 34
0.0
 50
90.0000000000002
100
AcDbRotatedDimension
1001
ACAD
1000
DSTYLE
1002
{
1070
   171
1070
     3
1070
   273
1070
     7
1002
}
  0
DIMENSION
  5
FB
330
1F
100
AcDbEntity
  8
치수문자_일반주서
100
AcDbDimension
  2
_D_2
 10
10.00000000000002
 20
28.01004546811452
 30
0.0
 11
-8.17699999999998
 21
28.01004546811452
 31
0.0
 70
   160
  1
<>
 71
     2
 42
41.27499999999997
  3
SLDDIMSTYLE2
100
AcDbAlignedDimension
 13
51.27499999999999
 23
7.717474145790727
 33
0.0
 14
10.00000000000002
 24
7.717474145790582
 34
0.0
 50
0.0000000000000049
100
AcDbRotatedDimension
1001
ACAD
1000
DSTYLE
1002
{
1070
   171
1070
     3
1070
   273
1070
     7
1002
}
1001
ACAD_DSTYLE_DIMFLIPARROW_SYMBOL
1070
   385
1070
     0
1001
ACAD_DSTYLE_DIMFLIPARROW_WHICH_SYMBOL
1070
   386
1070
     3
  0
DIMENSION
  5
10F
330
1F
100
AcDbEntity
  8
치수문자_일반주서
100
AcDbDimension
  2
_D_3
 10
66.27500000000005
 20
-8.157525854209208
 30
0.0
 11
66.27499999999992
 21
28.32147414579062
 31
0.0
 70
   160
  1
%%c<>
 71
     2
 42
15.87499999999982
  3
SLDDIMSTYLE1
100
AcDbAlignedDimension
 13
51.27499999999999
 23
7.717474145790564
 33
0.0
 14
51.30483975788091
 24
-8.15752585420926
 34
0.0
 50
90.0000000000002
100
AcDbRotatedDimension
1001
ACAD
1000
DSTYLE
1002
{
1070
   171
1070
     3
1070
   273
1070
     7
1002
}
  0
LINE
  5
123
330
1F
100
AcDbEntity
  8
참조1
100
AcDbLine
 10
86.47300279016856
 20
7.441074928723896
 30
0.0
 11
86.47300279016856
 21
-7.438925071276109
 31
0.0
  0
LINE
  5
124
330
1F
100
AcDbEntity
  8
참조1
100
AcDbLine
 10
99.17300279016857
 20
5.441074928723896
 30
0.0
 11
86.47300279016856
 21
5.441074928723896
 31
0.0
  0
SOLID
  5
125
330
1F
100
AcDbEntity
  8
참조1
100
AcDbTrace
 10
86.47300279016856
 20
5.441074928723896
 30
0.0
 11
92.82300279016856
 21
4.425074928723896
 31
0.0
 12
92.82300279016856
 22
6.457074928723896
 32
0.0
 13
92.82300279016856
 23
6.457074928723896
 33
0.0
  0
LINE
  5
126
330
1F
100
AcDbEntity
  8
참조1
100
AcDbLine
 10
99.17300279016857
 20
-5.438925071276109
 30
0.0
 11
86.47300279016856
 21
-5.438925071276109
 31
0.0
  0
SOLID
  5
127
330
1F
100
AcDbEntity
  8
참조1
100
AcDbTrace
 10
86.47300279016856
 20
-5.438925071276109
 30
0.0
 11
92.82300279016856
 21
-6.454925071276109
 31
0.0
 12
92.82300279016856
 22
-4.422925071276109
 32
0.0
 13
92.82300279016856
 23
-4.422925071276109
 33
0.0
  0
MTEXT
  5
128
330
1F
100
AcDbEntity
  8
참조1
100
AcDbMText
 10
95.87049288263884
 20
10.98929157337383
 30
0.0
 40
3.5
 41
0.0
 71
     1
 72
     1
  1
A
  7
SLDTEXTSTYLE0
 73
     1
 44
1.0
  0
MTEXT
  5
129
330
1F
100
AcDbEntity
  8
참조1
100
AcDbMText
 10
95.87049288263884
 20
0.1092915733738259
 30
0.0
 40
3.5
 41
0.0
 71
     1
 72
     1
  1
A
  7
SLDTEXTSTYLE0
 73
     1
 44
1.0
  0
INSERT
  5
130
330
1F
100
AcDbEntity
  8
해칭선
100
AcDbBlockReference
  2
SW_DOWELSYMBOL_0
 10
0.000000000000014
 20
-0.2200258542094246
 30
0.0
  0
ARC
  5
190
330
1F
100
AcDbEntity
  8
0
 62
     1
100
AcDbCircle
 10
50.38600000000002
 20
6.828474145790568
 30
0.0
 40
0.8889999999999995
100
AcDbArc
 50
0.0000000000004651
 51
90.00000000000001
  0
MTEXT
  5
1BB
102
{ACAD_REACTORS
330
1BC
102
}
330
1F
100
AcDbEntity
  8
0
100
AcDbMText
 10
60.73740562840614
 20
-25.03822844220698
 30
0.0
 40
3.5
 41
0.0
 71
     7
 72
     1
  1
{R0.89[.035"]}
 73
     1
 44
1.0
1001
ACAD
1000
ACAD_MTEXT_DEFINED_HEIGHT_BEGIN
1070
    46
1040
3.5
1000
ACAD_MTEXT_DEFINED_HEIGHT_END
  0
LEADER
  5
1BC
102
{ACAD_XDICTIONARY
360
1BD
102
}
330
1F
100
AcDbEntity
  8
0
100
AcDbLeader
  3
ISO-25
 73
     0
 74
     0
 75
     1
 40
3.5
 41
31.5
 76
     3
 10
50.23217310183773
 20
-7.151346412008934
 30
0.0
 10
55.91140562840614
 20
-23.28822844220698
 30
0.0
 10
59.21340562840614
 20
-23.28822844220698
 30
0.0
340
1BB
213
0.0
223
1.75
233
0.0
1001
ACAD
1000
DSTYLE
1002
{
1070
    77
1070
     0
1070
   179
1070
     2
1070
   143
1040
0.0393700787401575
1070
    41
1040
3.302
1070
    44
1040
1.0
1070
    42
1040
1.0
1070
   147
1040
1.524
1070
    73
1070
     1
1070
    74
1070
     1
1070
   140
1040
3.5
1070
   284
1070
     0
1070
    78
1070
     0
1002
}
  0
LINE
  5
218
330
1F
100
AcDbEntity
  8
외형선
  6
Continuous
370
    15
100
AcDbLine
 10
-18.50832500000001
 20
6.066474145790526
 30
0.0
 11
-8.322924999999998
 21
6.066474145790526
 31
0.0
1001
PE_URL
1000

  0
LINE
  5
219
330
1F
100
AcDbEntity
  8
외형선
  6
Continuous
370
    15
100
AcDbLine
 10
-18.50832500000001
 20
6.066474145790625
 30
0.0
 11
-20.15932499999997
 21
7.717474145790536
 31
0.0
1001
PE_URL
1000

  0
LINE
  5
21A
330
1F
100
AcDbEntity
  8
외형선
  6
Continuous
370
    15
100
AcDbLine
 10
-8.322925000000112
 20
6.066474145790625
 30
0.0
 11
-6.671925000000101
 21
7.717474145790536
 31
0.0
1001
PE_URL
1000

  0
LINE
  5
21C
330
1F
100
AcDbEntity
  8
외형선
  6
Continuous
370
    15
100
AcDbLine
 10
-6.671925000000101
 20
7.717474145790536
 30
0.0
 11
6.95009225629367
 21
7.717474145790564
 31
0.0
1001
PE_URL
1000

  0
ENDSEC
  0
SECTION
  2
OBJECTS
  0
DICTIONARY
  5
C
330
0
100
AcDbDictionary
281
     1
  3
ACAD_DETAILVIEWSTYLE
350
159
  3
ACAD_GROUP
350
D
  3
ACAD_LAYOUT
350
1A
  3
ACAD_MLINESTYLE
350
17
  3
ACAD_PLOTSETTINGS
350
19
  3
ACAD_PLOTSTYLENAME
350
E
  3
ACAD_SCALELIST
350
47
  3
ACAD_SECTIONVIEWSTYLE
350
15A
  3
AcDbVariableDictionary
350
154
  3
APPDATA
350
152
  3
DWGPROPS
350
240
  0
DICTIONARY
  5
20E
330
2
100
AcDbDictionary
280
     1
281
     1
  3
ACAD_LAYERSTATES
360
20F
  0
DICTIONARY
  5
1BD
330
1BC
100
AcDbDictionary
280
     1
281
     1
  3
*A1
360
1BE
  0
DICTIONARY
  5
159
102
{ACAD_REACTORS
330
C
102
}
330
C
100
AcDbDictionary
281
     1
  0
DICTIONARY
  5
D
102
{ACAD_REACTORS
330
C
102
}
330
C
100
AcDbDictionary
281
     1
  0
DICTIONARY
  5
1A
102
{ACAD_REACTORS
330
C
102
}
330
C
100
AcDbDictionary
281
     1
  3
Layout1
350
1E
  3
Layout2
350
26
  3
Model
350
22
  0
DICTIONARY
  5
17
102
{ACAD_REACTORS
330
C
102
}
330
C
100
AcDbDictionary
281
     1
  3
Standard
350
18
  0
DICTIONARY
  5
19
102
{ACAD_REACTORS
330
C
102
}
330
C
100
AcDbDictionary
281
     1
  0
ACDBDICTIONARYWDFLT
  5
E
102
{ACAD_REACTORS
330
C
102
}
330
C
100
AcDbDictionary
281
     1
  3
Normal
350
F
100
AcDbDictionaryWithDefault
340
F
  0
DICTIONARY
  5
47
102
{ACAD_REACTORS
330
C
102
}
330
C
100
AcDbDictionary
281
     1
  3
A0
350
48
  3
A1
350
49
  3
A2
350
4A
  3
A3
350
4B
  3
A4
350
4C
  3
A5
350
4D
  3
A6
350
4E
  3
A7
350
4F
  3
A8
350
50
  3
A9
350
51
  3
B0
350
52
  3
B1
350
53
  3
B2
350
54
  3
B3
350
55
  3
B4
350
56
  3
B5
350
57
  3
B6
350
58
  3
B7
350
59
  3
B8
350
5A
  3
B9
350
5B
  3
C0
350
5C
  3
C1
350
5D
  3
C2
350
5E
  3
C3
350
5F
  3
C4
350
60
  3
C5
350
61
  3
C6
350
62
  3
C7
350
63
  3
C8
350
64
  3
C9
350
65
  3
D0
350
66
  3
D1
350
67
  3
D2
350
68
  0
DICTIONARY
  5
15A
102
{ACAD_REACTORS
330
C
102
}
330
C
100
AcDbDictionary
281
     1
  0
DICTIONARY
  5
154
102
{ACAD_REACTORS
330
C
102
}
330
C
100
AcDbDictionary
281
     1
  0
DICTIONARY
  5
152
102
{ACAD_REACTORS
330
C
102
}
330
C
100
AcDbDictionary
281
     1
  0
XRECORD
  5
240
102
{ACAD_REACTORS
330
C
102
}
330
C
100
AcDbXrecord
280
     1
  1
DWGPROPS COOKIE
  2

  3

  4

  6

  7

  8
12017103
  9

300
=
301
=
302
=
303
=
304
=
305
=
306
=
307
=
308
=
309
=
 40
0.0
 41
2458290.303128276
 42
2458299.391810197
  1

 90
        0
  0
DICTIONARY
  5
20F
102
{ACAD_REACTORS
330
20E
102
}
330
20E
100
AcDbDictionary
281
     1
  0
SPLINE
  5
1BE
102
{ACAD_REACTORS
330
1BD
102
}
330
1BD
100
AcDbEntity
  8
외형선
  6
Continuous
 62
     1
370
    15
100
AcDbSpline
210
0.0
220
0.0
230
1.0
 70
     8
 71
     3
 72
    29
 73
    25
 74
     0
 42
0.000000001
 43
0.00000001
 40
0.0
 40
0.0
 40
0.0
 40
0.0
 40
0.0422644495549575
 40
0.0894133481135558
 40
0.1360887908804358
 40
0.183088732683559
 40
0.2297638819666308
 40
0.2767625414519669
 40
0.323437633749297
 40
0.3704354120323877
 40
0.4171106810586105
 40
0.464107897037571
 40
0.5107833946634068
 40
0.5577805359514474
 40
0.6044561394422602
 40
0.651453806121575
 40
0.6980998941979074
 40
0.7450685450090514
 40
0.7915976398774139
 40
0.8384484734548767
 40
0.8795785645527328
 40
0.920930788652952
 40
0.9603675209920361
 40
1.0
 40
1.0
 40
1.0
 40
1.0
 10
12.38189177007194
 20
1.248479460924195
 30
0.0
 10
12.52654344348548
 20
1.258273475674198
 30
0.0
 10
12.8325640013379
 20
1.278993387077104
 30
0.0
 10
13.29773257188337
 20
1.254108412177238
 30
0.0
 10
13.78025596066385
 20
1.187861475668798
 30
0.0
 10
14.25966703328228
 20
1.076843206459327
 30
0.0
 10
14.7418375996466
 20
0.9278143507748849
 30
0.0
 10
15.22126826210304
 20
0.7422259995311946
 30
0.0
 10
15.70321466955698
 20
0.5287568400491983
 30
0.0
 10
16.18301476867187
 20
0.291415106865743
 30
0.0
 10
16.66438564818222
 20
0.0386509998105593
 30
0.0
 10
17.14481199956303
 20
-0.2211140264741509
 30
0.0
 10
17.62559449395425
 20
-0.4827611477767423
 30
0.0
 10
18.10652182376923
 20
-0.7336501666871716
 30
0.0
 10
18.58700798445997
 20
-0.9720014204249832
 30
0.0
 10
19.06797035806053
 20
-1.184275237010919
 30
0.0
 10
19.54830862416817
 20
-1.369853183592872
 30
0.0
 10
20.02843114246354
 20
-1.518172522965445
 30
0.0
 10
20.50823986679071
 20
-1.62831800107122
 30
0.0
 10
20.96857053986777
 20
-1.692379933129987
 30
0.0
 10
21.41107311362818
 20
-1.715381820442324
 30
0.0
 10
21.82821005632637
 20
-1.70162911792889
 30
0.0
 10
22.2401103516564
 20
-1.656726206160658
 30
0.0
 10
22.51072264209905
 20
-1.601263250205901
 30
0.0
 10
22.64636375622617
 20
-1.573463119154277
 30
0.0
  0
LAYOUT
  5
1E
102
{ACAD_REACTORS
330
1A
102
}
330
1A
100
AcDbPlotSettings
  1

  2
none_device
  4

  6

 40
0.0
 41
0.0
 42
0.0
 43
0.0
 44
0.0
 45
0.0
 46
0.0
 47
0.0
 48
0.0
 49
0.0
140
0.0
141
0.0
142
1.0
143
1.0
 70
   688
 72
     1
 73
     0
 74
     5
  7

 75
    16
147
1.0
148
0.0
149
0.0
100
AcDbLayout
  1
Layout1
 70
     1
 71
     1
 10
0.0
 20
0.0
 11
420.0
 21
297.0
 12
0.0
 22
0.0
 32
0.0
 14
1.000000000000000E+20
 24
1.000000000000000E+20
 34
1.000000000000000E+20
 15
-1.000000000000000E+20
 25
-1.000000000000000E+20
 35
-1.000000000000000E+20
146
0.0
 13
0.0
 23
0.0
 33
0.0
 16
1.0
 26
0.0
 36
0.0
 17
0.0
 27
1.0
 37
0.0
 76
     0
330
1B
  0
LAYOUT
  5
26
102
{ACAD_REACTORS
330
1A
102
}
330
1A
100
AcDbPlotSettings
  1

  2
none_device
  4

  6

 40
0.0
 41
0.0
 42
0.0
 43
0.0
 44
0.0
 45
0.0
 46
0.0
 47
0.0
 48
0.0
 49
0.0
140
0.0
141
0.0
142
1.0
143
1.0
 70
   688
 72
     1
 73
     0
 74
     5
  7

 75
    16
147
1.0
148
0.0
149
0.0
100
AcDbLayout
  1
Layout2
 70
     1
 71
     2
 10
0.0
 20
0.0
 11
0.0
 21
0.0
 12
0.0
 22
0.0
 32
0.0
 14
0.0
 24
0.0
 34
0.0
 15
0.0
 25
0.0
 35
0.0
146
0.0
 13
0.0
 23
0.0
 33
0.0
 16
1.0
 26
0.0
 36
0.0
 17
0.0
 27
1.0
 37
0.0
 76
     0
330
23
  0
LAYOUT
  5
22
102
{ACAD_REACTORS
330
1A
102
}
330
1A
100
AcDbPlotSettings
  1

  2
none_device
  4
ANSI_A_(11.00_x_8.50_Inches)
  6

 40
6.35
 41
19.05
 42
6.35000508
 43
19.05000254
 44
279.4
 45
215.9
 46
109.8999192232233
 47
77.21653570032257
 48
0.0
 49
0.0
140
0.0
141
0.0
142
0.0642133569366527
143
1.0
 70
  1696
 72
     0
 73
     0
 74
     0
  7

 75
     0
147
0.0235690232323232
148
0.0
149
0.0
100
AcDbLayout
  1
Model
 70
     1
 71
     0
 10
0.0
 20
0.0
 11
420.0
 21
297.0
 12
0.0
 22
0.0
 32
0.0
 14
-57.54585040270766
 24
-49.97073246008785
 34
0.0
 15
99.17300279016857
 25
53.33003065978271
 35
0.0
146
0.0
 13
0.0
 23
0.0
 33
0.0
 16
1.0
 26
0.0
 36
0.0
 17
0.0
 27
1.0
 37
0.0
 76
     0
330
1F
331
29
  0
MLINESTYLE
  5
18
102
{ACAD_REACTORS
330
17
102
}
330
17
100
AcDbMlineStyle
  2
Standard
 70
     0
  3

 62
   256
 51
90.0
 52
90.0
 71
     2
 49
0.5
 62
   256
  6
BYLAYER
 49
-0.5
 62
   256
  6
BYLAYER
  0
ACDBPLACEHOLDER
  5
F
102
{ACAD_REACTORS
330
E
102
}
330
E
  0
SCALE
  5
48
102
{ACAD_REACTORS
330
47
102
}
330
47
100
AcDbScale
 70
     0
300
1:1
140
1.0
141
1.0
290
     1
  0
SCALE
  5
49
102
{ACAD_REACTORS
330
47
102
}
330
47
100
AcDbScale
 70
     0
300
1:2
140
1.0
141
2.0
290
     0
  0
SCALE
  5
4A
102
{ACAD_REACTORS
330
47
102
}
330
47
100
AcDbScale
 70
     0
300
1:4
140
1.0
141
4.0
290
     0
  0
SCALE
  5
4B
102
{ACAD_REACTORS
330
47
102
}
330
47
100
AcDbScale
 70
     0
300
1:5
140
1.0
141
5.0
290
     0
  0
SCALE
  5
4C
102
{ACAD_REACTORS
330
47
102
}
330
47
100
AcDbScale
 70
     0
300
1:8
140
1.0
141
8.0
290
     0
  0
SCALE
  5
4D
102
{ACAD_REACTORS
330
47
102
}
330
47
100
AcDbScale
 70
     0
300
1:10
140
1.0
141
10.0
290
     0
  0
SCALE
  5
4E
102
{ACAD_REACTORS
330
47
102
}
330
47
100
AcDbScale
 70
     0
300
1:16
140
1.0
141
16.0
290
     0
  0
SCALE
  5
4F
102
{ACAD_REACTORS
330
47
102
}
330
47
100
AcDbScale
 70
     0
300
1:20
140
1.0
141
20.0
290
     0
  0
SCALE
  5
50
102
{ACAD_REACTORS
330
47
102
}
330
47
100
AcDbScale
 70
     0
300
1:30
140
1.0
141
30.0
290
     0
  0
SCALE
  5
51
102
{ACAD_REACTORS
330
47
102
}
330
47
100
AcDbScale
 70
     0
300
1:40
140
1.0
141
40.0
290
     0
  0
SCALE
  5
52
102
{ACAD_REACTORS
330
47
102
}
330
47
100
AcDbScale
 70
     0
300
1:50
140
1.0
141
50.0
290
     0
  0
SCALE
  5
53
102
{ACAD_REACTORS
330
47
102
}
330
47
100
AcDbScale
 70
     0
300
1:100
140
1.0
141
100.0
290
     0
  0
SCALE
  5
54
102
{ACAD_REACTORS
330
47
102
}
330
47
100
AcDbScale
 70
     0
300
2:1
140
2.0
141
1.0
290
     0
  0
SCALE
  5
55
102
{ACAD_REACTORS
330
47
102
}
330
47
100
AcDbScale
 70
     0
300
4:1
140
4.0
141
1.0
290
     0
  0
SCALE
  5
56
102
{ACAD_REACTORS
330
47
102
}
330
47
100
AcDbScale
 70
     0
300
8:1
140
8.0
141
1.0
290
     0
  0
SCALE
  5
57
102
{ACAD_REACTORS
330
47
102
}
330
47
100
AcDbScale
 70
     0
300
10:1
140
10.0
141
1.0
290
     0
  0
SCALE
  5
58
102
{ACAD_REACTORS
330
47
102
}
330
47
100
AcDbScale
 70
     0
300
100:1
140
100.0
141
1.0
290
     0
  0
SCALE
  5
59
102
{ACAD_REACTORS
330
47
102
}
330
47
100
AcDbScale
 70
     0
300
1/128" = 1'-0"
140
0.0078125
141
12.0
290
     0
  0
SCALE
  5
5A
102
{ACAD_REACTORS
330
47
102
}
330
47
100
AcDbScale
 70
     0
300
1/64" = 1'-0"
140
0.015625
141
12.0
290
     0
  0
SCALE
  5
5B
102
{ACAD_REACTORS
330
47
102
}
330
47
100
AcDbScale
 70
     0
300
1/32" = 1'-0"
140
0.03125
141
12.0
290
     0
  0
SCALE
  5
5C
102
{ACAD_REACTORS
330
47
102
}
330
47
100
AcDbScale
 70
     0
300
1/16" = 1'-0"
140
0.0625
141
12.0
290
     0
  0
SCALE
  5
5D
102
{ACAD_REACTORS
330
47
102
}
330
47
100
AcDbScale
 70
     0
300
3/32" = 1'-0"
140
0.09375
141
12.0
290
     0
  0
SCALE
  5
5E
102
{ACAD_REACTORS
330
47
102
}
330
47
100
AcDbScale
 70
     0
300
1/8" = 1'-0"
140
0.125
141
12.0
290
     0
  0
SCALE
  5
5F
102
{ACAD_REACTORS
330
47
102
}
330
47
100
AcDbScale
 70
     0
300
3/16" = 1'-0"
140
0.1875
141
12.0
290
     0
  0
SCALE
  5
60
102
{ACAD_REACTORS
330
47
102
}
330
47
100
AcDbScale
 70
     0
300
1/4" = 1'-0"
140
0.25
141
12.0
290
     0
  0
SCALE
  5
61
102
{ACAD_REACTORS
330
47
102
}
330
47
100
AcDbScale
 70
     0
300
3/8" = 1'-0"
140
0.375
141
12.0
290
     0
  0
SCALE
  5
62
102
{ACAD_REACTORS
330
47
102
}
330
47
100
AcDbScale
 70
     0
300
1/2" = 1'-0"
140
0.5
141
12.0
290
     0
  0
SCALE
  5
63
102
{ACAD_REACTORS
330
47
102
}
330
47
100
AcDbScale
 70
     0
300
3/4" = 1'-0"
140
0.75
141
12.0
290
     0
  0
SCALE
  5
64
102
{ACAD_REACTORS
330
47
102
}
330
47
100
AcDbScale
 70
     0
300
1" = 1'-0"
140
1.0
141
12.0
290
     0
  0
SCALE
  5
65
102
{ACAD_REACTORS
330
47
102
}
330
47
100
AcDbScale
 70
     0
300
1-1/2" = 1'-0"
140
1.5
141
12.0
290
     0
  0
SCALE
  5
66
102
{ACAD_REACTORS
330
47
102
}
330
47
100
AcDbScale
 70
     0
300
3" = 1'-0"
140
3.0
141
12.0
290
     0
  0
SCALE
  5
67
102
{ACAD_REACTORS
330
47
102
}
330
47
100
AcDbScale
 70
     0
300
6" = 1'-0"
140
6.0
141
12.0
290
     0
  0
SCALE
  5
68
102
{ACAD_REACTORS
330
47
102
}
330
47
100
AcDbScale
 70
     0
300
1'-0" = 1'-0"
140
12.0
141
12.0
290
     0
  0
ENDSEC
  0
EOF
