  0
SECTION
  2
HEADER
  9
$ACADVER
  1
AC1015
  9
$ACADMAINTVER
 70
     6
  9
$DWGCODEPAGE
  3
ANSI_949
  9
$INSBASE
 10
0.0
 20
0.0
 30
0.0
  9
$EXTMIN
 10
-47.64921111308421
 20
-49.75070660587842
 30
0.0
  9
$EXTMAX
 10
99.17300279016857
 20
45.40242310188823
 30
0.0
  9
$LIMMIN
 10
0.0
 20
0.0
  9
$LIMMAX
 10
420.0
 20
297.0
  9
$ORTHOMODE
 70
     1
  9
$REGENMODE
 70
     1
  9
$FILLMODE
 70
     1
  9
$QTEXTMODE
 70
     0
  9
$MIRRTEXT
 70
     1
  9
$LTSCALE
 40
1.0
  9
$ATTMODE
 70
     1
  9
$TEXTSIZE
 40
3.5
  9
$TRACEWID
 40
1.0
  9
$TEXTSTYLE
  7
Standard
  9
$CLAYER
  8
0
  9
$CELTYPE
  6
ByLayer
  9
$CECOLOR
 62
   256
  9
$CELTSCALE
 40
1.0
  9
$DISPSILH
 70
     0
  9
$DIMSCALE
 40
1.0
  9
$DIMASZ
 40
3.302
  9
$DIMEXO
 40
1.0
  9
$DIMDLI
 40
3.75
  9
$DIMRND
 40
0.0
  9
$DIMDLE
 40
0.0
  9
$DIMEXE
 40
1.0
  9
$DIMTP
 40
0.0
  9
$DIMTM
 40
0.0
  9
$DIMTXT
 40
3.5
  9
$DIMCEN
 40
2.5
  9
$DIMTSZ
 40
0.0
  9
$DIMTOL
 70
     0
  9
$DIMLIM
 70
     0
  9
$DIMTIH
 70
     1
  9
$DIMTOH
 70
     1
  9
$DIMSE1
 70
     0
  9
$DIMSE2
 70
     0
  9
$DIMTAD
 70
     1
  9
$DIMZIN
 70
     0
  9
$DIMBLK
  1

  9
$DIMASO
 70
     1
  9
$DIMSHO
 70
     1
  9
$DIMPOST
  1

  9
$DIMAPOST
  1

  9
$DIMALT
 70
     0
  9
$DIMALTD
 70
     3
  9
$DIMALTF
 40
0.0393700787401575
  9
$DIMLFAC
 40
1.0
  9
$DIMTOFL
 70
     1
  9
$DIMTVP
 40
0.0
  9
$DIMTIX
 70
     0
  9
$DIMSOXD
 70
     0
  9
$DIMSAH
 70
     0
  9
$DIMBLK1
  1

  9
$DIMBLK2
  1

  9
$DIMSTYLE
  2
ISO-25
  9
$DIMCLRD
 70
     0
  9
$DIMCLRE
 70
     0
  9
$DIMCLRT
 70
     0
  9
$DIMTFAC
 40
1.0
  9
$DIMGAP
 40
1.524
  9
$DIMJUST
 70
     0
  9
$DIMSD1
 70
     0
  9
$DIMSD2
 70
     0
  9
$DIMTOLJ
 70
     0
  9
$DIMTZIN
 70
     0
  9
$DIMALTZ
 70
     0
  9
$DIMALTTZ
 70
     0
  9
$DIMUPT
 70
     0
  9
$DIMDEC
 70
     2
  9
$DIMTDEC
 70
     2
  9
$DIMALTU
 70
     2
  9
$DIMALTTD
 70
     3
  9
$DIMTXSTY
  7
Standard
  9
$DIMAUNIT
 70
     0
  9
$DIMADEC
 70
     2
  9
$DIMALTRND
 40
0.0
  9
$DIMAZIN
 70
     0
  9
$DIMDSEP
 70
    44
  9
$DIMATFIT
 70
     3
  9
$DIMFRAC
 70
     0
  9
$DIMLDRBLK
  1

  9
$DIMLUNIT
 70
     2
  9
$DIMLWD
 70
    -2
  9
$DIMLWE
 70
    -2
  9
$DIMTMOVE
 70
     0
  9
$LUNITS
 70
     2
  9
$LUPREC
 70
     2
  9
$SKETCHINC
 40
1.0
  9
$FILLETRAD
 40
0.508
  9
$AUNITS
 70
     0
  9
$AUPREC
 70
     2
  9
$MENU
  1
.
  9
$ELEVATION
 40
0.0
  9
$PELEVATION
 40
0.0
  9
$THICKNESS
 40
0.0
  9
$LIMCHECK
 70
     0
  9
$CHAMFERA
 40
0.0
  9
$CHAMFERB
 40
0.0
  9
$CHAMFERC
 40
0.0
  9
$CHAMFERD
 40
0.0
  9
$SKPOLY
 70
     0
  9
$TDCREATE
 40
2458290.677750197
  9
$TDUCREATE
 40
2458290.302750197
  9
$TDUPDATE
 40
2458299.766747419
  9
$TDUUPDATE
 40
2458299.391747419
  9
$TDINDWG
 40
0.0017359375
  9
$TDUSRTIMER
 40
0.0000286343
  9
$USRTIMER
 70
     1
  9
$ANGBASE
 50
0.0
  9
$ANGDIR
 70
     0
  9
$PDMODE
 70
     0
  9
$PDSIZE
 40
-1.0
  9
$PLINEWID
 40
0.0
  9
$SPLFRAME
 70
     0
  9
$SPLINETYPE
 70
     6
  9
$SPLINESEGS
 70
     8
  9
$HANDSEED
  5
230
  9
$SURFTAB1
 70
     6
  9
$SURFTAB2
 70
     6
  9
$SURFTYPE
 70
     6
  9
$SURFU
 70
     6
  9
$SURFV
 70
     6
  9
$UCSBASE
  2

  9
$UCSNAME
  2

  9
$UCSORG
 10
0.0
 20
0.0
 30
0.0
  9
$UCSXDIR
 10
1.0
 20
0.0
 30
0.0
  9
$UCSYDIR
 10
0.0
 20
1.0
 30
0.0
  9
$UCSORTHOREF
  2

  9
$UCSORTHOVIEW
 70
     0
  9
$UCSORGTOP
 10
0.0
 20
0.0
 30
0.0
  9
$UCSORGBOTTOM
 10
0.0
 20
0.0
 30
0.0
  9
$UCSORGLEFT
 10
0.0
 20
0.0
 30
0.0
  9
$UCSORGRIGHT
 10
0.0
 20
0.0
 30
0.0
  9
$UCSORGFRONT
 10
0.0
 20
0.0
 30
0.0
  9
$UCSORGBACK
 10
0.0
 20
0.0
 30
0.0
  9
$PUCSBASE
  2

  9
$PUCSNAME
  2

  9
$PUCSORG
 10
0.0
 20
0.0
 30
0.0
  9
$PUCSXDIR
 10
1.0
 20
0.0
 30
0.0
  9
$PUCSYDIR
 10
0.0
 20
1.0
 30
0.0
  9
$PUCSORTHOREF
  2

  9
$PUCSORTHOVIEW
 70
     0
  9
$PUCSORGTOP
 10
0.0
 20
0.0
 30
0.0
  9
$PUCSORGBOTTOM
 10
0.0
 20
0.0
 30
0.0
  9
$PUCSORGLEFT
 10
0.0
 20
0.0
 30
0.0
  9
$PUCSORGRIGHT
 10
0.0
 20
0.0
 30
0.0
  9
$PUCSORGFRONT
 10
0.0
 20
0.0
 30
0.0
  9
$PUCSORGBACK
 10
0.0
 20
0.0
 30
0.0
  9
$USERI1
 70
     0
  9
$USERI2
 70
     0
  9
$USERI3
 70
     0
  9
$USERI4
 70
     0
  9
$USERI5
 70
     0
  9
$USERR1
 40
0.0
  9
$USERR2
 40
0.0
  9
$USERR3
 40
0.0
  9
$USERR4
 40
0.0
  9
$USERR5
 40
0.0
  9
$WORLDVIEW
 70
     1
  9
$SHADEDGE
 70
     3
  9
$SHADEDIF
 70
    70
  9
$TILEMODE
 70
     1
  9
$MAXACTVP
 70
    64
  9
$PINSBASE
 10
0.0
 20
0.0
 30
0.0
  9
$PLIMCHECK
 70
     0
  9
$PEXTMIN
 10
1.000000000000000E+20
 20
1.000000000000000E+20
 30
1.000000000000000E+20
  9
$PEXTMAX
 10
-1.000000000000000E+20
 20
-1.000000000000000E+20
 30
-1.000000000000000E+20
  9
$PLIMMIN
 10
0.0
 20
0.0
  9
$PLIMMAX
 10
0.0
 20
0.0
  9
$UNITMODE
 70
     0
  9
$VISRETAIN
 70
     1
  9
$PLINEGEN
 70
     0
  9
$PSLTSCALE
 70
     1
  9
$TREEDEPTH
 70
  3020
  9
$CMLSTYLE
  2
Standard
  9
$CMLJUST
 70
     0
  9
$CMLSCALE
 40
20.0
  9
$PROXYGRAPHICS
 70
     1
  9
$MEASUREMENT
 70
     1
  9
$CELWEIGHT
370
    -1
  9
$ENDCAPS
280
     0
  9
$JOINSTYLE
280
     0
  9
$LWDISPLAY
290
     1
  9
$INSUNITS
 70
     4
  9
$HYPERLINKBASE
  1

  9
$STYLESHEET
  1

  9
$XEDIT
290
     1
  9
$CEPSNTYPE
380
     0
  9
$PSTYLEMODE
290
     1
  9
$FINGERPRINTGUID
  2
{38BA8B7C-F5BF-4DF0-AAFF-309BB8806BC4}
  9
$VERSIONGUID
  2
{FAEB1C32-E019-11D5-929B-00C0DF256EC4}
  9
$EXTNAMES
290
     1
  9
$PSVPSCALE
 40
0.0
  9
$OLESTARTUP
290
     0
  0
ENDSEC
  0
SECTION
  2
CLASSES
  0
CLASS
  1
ACDBDICTIONARYWDFLT
  2
AcDbDictionaryWithDefault
  3
ObjectDBX Classes
 90
        0
280
     0
281
     0
  0
CLASS
  1
VISUALSTYLE
  2
AcDbVisualStyle
  3
ObjectDBX Classes
 90
     4095
280
     0
281
     0
  0
CLASS
  1
MATERIAL
  2
AcDbMaterial
  3
ObjectDBX Classes
 90
     1153
280
     0
281
     0
  0
CLASS
  1
SCALE
  2
AcDbScale
  3
ObjectDBX Classes
 90
     1153
280
     0
281
     0
  0
CLASS
  1
SUN
  2
AcDbSun
  3
SCENEOE
 90
     1153
280
     0
281
     0
  0
CLASS
  1
ACDBPLACEHOLDER
  2
AcDbPlaceHolder
  3
ObjectDBX Classes
 90
        0
280
     0
281
     0
  0
CLASS
  1
LAYOUT
  2
AcDbLayout
  3
ObjectDBX Classes
 90
        0
280
     0
281
     0
  0
CLASS
  1
TABLESTYLE
  2
AcDbTableStyle
  3
ObjectDBX Classes
 90
     4095
280
     0
281
     0
  0
CLASS
  1
MLEADERSTYLE
  2
AcDbMLeaderStyle
  3
ACDB_MLEADERSTYLE_CLASS
 90
     4095
280
     0
281
     0
  0
CLASS
  1
DICTIONARYVAR
  2
AcDbDictionaryVar
  3
ObjectDBX Classes
 90
        0
280
     0
281
     0
  0
ENDSEC
  0
SECTION
  2
TABLES
  0
TABLE
  2
VPORT
  5
8
330
0
100
AcDbSymbolTable
 70
     1
  0
VPORT
  5
29
330
8
100
AcDbSymbolTableRecord
100
AcDbViewportTableRecord
  2
*Active
 70
     0
 10
0.0
 20
0.0
 11
1.0
 21
1.0
 12
25.76189583854217
 22
-2.174141751995094
 13
0.0
 23
0.0
 14
10.0
 24
10.0
 15
10.0
 25
10.0
 16
0.0
 26
0.0
 36
1.0
 17
0.0
 27
0.0
 37
0.0
 40
97.05619230192198
 41
2.148876404494382
 42
50.0
 43
0.0
 44
0.0
 50
0.0
 51
0.0
 71
    16
 72
  2000
 73
     1
 74
     3
 75
     0
 76
     0
 77
     0
 78
     0
281
     0
 65
     1
110
0.0
120
0.0
130
0.0
111
1.0
121
0.0
131
0.0
112
0.0
122
1.0
132
0.0
 79
     0
146
0.0
  0
ENDTAB
  0
TABLE
  2
LTYPE
  5
5
330
0
100
AcDbSymbolTable
 70
     6
  0
LTYPE
  5
14
330
5
100
AcDbSymbolTableRecord
100
AcDbLinetypeTableRecord
  2
ByBlock
 70
     0
  3

 72
    65
 73
     0
 40
0.0
  0
LTYPE
  5
15
330
5
100
AcDbSymbolTableRecord
100
AcDbLinetypeTableRecord
  2
ByLayer
 70
     0
  3

 72
    65
 73
     0
 40
0.0
  0
LTYPE
  5
16
330
5
100
AcDbSymbolTableRecord
100
AcDbLinetypeTableRecord
  2
Continuous
 70
     0
  3
Solid line
 72
    65
 73
     0
 40
0.0
  0
LTYPE
  5
6A
330
5
100
AcDbSymbolTableRecord
100
AcDbLinetypeTableRecord
  2
HIDDEN
 70
     0
  3
Hidden __ __ __ __ __ __ __ __ __ __ __ __ __ __
 72
    65
 73
     2
 40
1.905
 49
1.27
 74
     0
 49
-0.635
 74
     0
  0
LTYPE
  5
6B
330
5
100
AcDbSymbolTableRecord
100
AcDbLinetypeTableRecord
  2
PHANTOM
 70
     0
  3
Phantom ______  __  __  ______  __  __  ______
 72
    65
 73
     6
 40
12.7
 49
6.35
 74
     0
 49
-1.27
 74
     0
 49
1.27
 74
     0
 49
-1.27
 74
     0
 49
1.27
 74
     0
 49
-1.27
 74
     0
  0
LTYPE
  5
6C
330
5
100
AcDbSymbolTableRecord
100
AcDbLinetypeTableRecord
  2
CENTER
 70
     0
  3
Center ____ _ ____ _ ____ _ ____ _ ____ _ ____
 72
    65
 73
     4
 40
10.16
 49
6.35
 74
     0
 49
-1.27
 74
     0
 49
1.27
 74
     0
 49
-1.27
 74
     0
  0
LTYPE
  5
6D
330
5
100
AcDbSymbolTableRecord
100
AcDbLinetypeTableRecord
  2
CENTERX2
 70
     0
  3
Center (2x) ________  __  ________  __  _____
 72
    65
 73
     4
 40
20.32
 49
12.7
 74
     0
 49
-2.54
 74
     0
 49
2.54
 74
     0
 49
-2.54
 74
     0
  0
LTYPE
  5
6E
330
5
100
AcDbSymbolTableRecord
100
AcDbLinetypeTableRecord
  2
DOT2
 70
     0
  3
Dot (.5x) ........................................
 72
    65
 73
     2
 40
0.635
 49
0.0
 74
     0
 49
-0.635
 74
     0
  0
ENDTAB
  0
TABLE
  2
LAYER
  5
2
102
{ACAD_XDICTIONARY
360
1FC
102
}
330
0
100
AcDbSymbolTable
 70
    18
  0
LAYER
  5
10
330
2
100
AcDbSymbolTableRecord
100
AcDbLayerTableRecord
  2
0
 70
     0
 62
     7
  6
Continuous
370
    -3
390
F
  0
LAYER
  5
6F
330
2
100
AcDbSymbolTableRecord
100
AcDbLayerTableRecord
  2
FORMAT
 70
     0
 62
     2
  6
Continuous
370
    -3
390
F
  0
LAYER
  5
70
330
2
100
AcDbSymbolTableRecord
100
AcDbLayerTableRecord
  2
외형선
 70
     0
 62
     4
  6
Continuous
370
    30
390
F
  0
LAYER
  5
71
330
2
100
AcDbSymbolTableRecord
100
AcDbLayerTableRecord
  2
숨은선
 70
     0
 62
     2
  6
HIDDEN
370
    15
390
F
  0
LAYER
  5
72
330
2
100
AcDbSymbolTableRecord
100
AcDbLayerTableRecord
  2
중심선
 70
     0
 62
     1
  6
CENTERX2
370
    -3
390
F
  0
LAYER
  5
73
330
2
100
AcDbSymbolTableRecord
100
AcDbLayerTableRecord
  2
파단선
 70
     0
 62
     4
  6
Continuous
370
    -3
390
F
  0
LAYER
  5
74
330
2
100
AcDbSymbolTableRecord
100
AcDbLayerTableRecord
  2
해칭선
 70
     0
 62
   100
  6
Continuous
370
    -3
390
F
  0
LAYER
  5
75
330
2
100
AcDbSymbolTableRecord
100
AcDbLayerTableRecord
  2
가는실선
 70
     0
 62
     4
  6
Continuous
370
    -3
390
F
  0
LAYER
  5
76
330
2
100
AcDbSymbolTableRecord
100
AcDbLayerTableRecord
  2
치수_보조선
 70
     0
 62
     4
  6
Continuous
370
    -3
390
F
  0
LAYER
  5
77
330
2
100
AcDbSymbolTableRecord
100
AcDbLayerTableRecord
  2
치수문자_일반주서
 70
     0
 62
     7
  6
Continuous
370
    15
390
F
  0
LAYER
  5
78
330
2
100
AcDbSymbolTableRecord
100
AcDbLayerTableRecord
  2
개별주서
 70
     0
 62
   100
  6
Continuous
370
    30
390
F
  0
LAYER
  5
79
330
2
100
AcDbSymbolTableRecord
100
AcDbLayerTableRecord
  2
중간선
 70
     0
 62
     2
  6
Continuous
370
    15
390
F
  0
LAYER
  5
7A
330
2
100
AcDbSymbolTableRecord
100
AcDbLayerTableRecord
  2
윤곽선
 70
     0
 62
     3
  6
Continuous
370
    40
390
F
  0
LAYER
  5
7B
330
2
100
AcDbSymbolTableRecord
100
AcDbLayerTableRecord
  2
중심마크
 70
     0
 62
   100
  6
Continuous
370
    30
390
F
  0
LAYER
  5
7C
330
2
100
AcDbSymbolTableRecord
100
AcDbLayerTableRecord
  2
가상선
 70
     0
 62
     4
  6
PHANTOM
370
    -3
390
F
  0
LAYER
  5
7D
330
2
100
AcDbSymbolTableRecord
100
AcDbLayerTableRecord
  2
특수지정선
 70
     0
 62
     5
  6
CENTERX2
370
    60
390
F
  0
LAYER
  5
7E
330
2
100
AcDbSymbolTableRecord
100
AcDbLayerTableRecord
  2
참조1
 70
     0
 62
    -4
  6
Continuous
370
    -3
390
F
  0
LAYER
  5
152
330
2
100
AcDbSymbolTableRecord
100
AcDbLayerTableRecord
  2
Defpoints
 70
     0
 62
     7
  6
Continuous
290
     0
370
    -3
390
F
  0
ENDTAB
  0
TABLE
  2
STYLE
  5
3
330
0
100
AcDbSymbolTable
 70
     2
  0
STYLE
  5
11
330
3
100
AcDbSymbolTableRecord
100
AcDbTextStyleTableRecord
  2
Standard
 70
     0
 40
0.0
 41
1.0
 50
0.0
 71
     0
 42
3.5
  3
txt
  4

  0
STYLE
  5
94
330
3
100
AcDbSymbolTableRecord
100
AcDbTextStyleTableRecord
  2
SLDTEXTSTYLE0
 70
     0
 40
0.0
 41
0.75
 50
0.0
 71
     0
 42
3.5
  3
TXT
  4

  0
ENDTAB
  0
TABLE
  2
VIEW
  5
6
330
0
100
AcDbSymbolTable
 70
     0
  0
ENDTAB
  0
TABLE
  2
UCS
  5
7
330
0
100
AcDbSymbolTable
 70
     0
  0
ENDTAB
  0
TABLE
  2
APPID
  5
9
330
0
100
AcDbSymbolTable
 70
     2
  0
APPID
  5
12
330
9
100
AcDbSymbolTableRecord
100
AcDbRegAppTableRecord
  2
ACAD
 70
     0
  0
APPID
  5
20C
330
9
100
AcDbSymbolTableRecord
100
AcDbRegAppTableRecord
  2
PE_URL
 70
     0
  0
ENDTAB
  0
TABLE
  2
DIMSTYLE
  5
A
330
0
100
AcDbSymbolTable
 70
     4
100
AcDbDimStyleTable
  0
DIMSTYLE
105
27
102
{ACAD_REACTORS
330
189
102
}
330
A
100
AcDbSymbolTableRecord
100
AcDbDimStyleTableRecord
  2
ISO-25
 70
     0
 41
2.5
 42
0.625
 43
3.75
 44
1.25
 73
     0
 74
     0
 77
     1
 78
     8
140
2.5
141
2.5
143
0.03937007874016
147
0.625
171
     3
172
     1
178
     0
271
     2
272
     2
274
     3
278
    44
283
     0
284
     8
340
11
  0
DIMSTYLE
105
D0
102
{ACAD_REACTORS
330
CF
102
}
330
A
100
AcDbSymbolTableRecord
100
AcDbDimStyleTableRecord
  2
SLDDIMSTYLE0
 70
     0
 41
3.302
 44
0.0
 45
0.000000001
 73
     0
 74
     0
 77
     1
 78
    12
 79
     3
140
3.5
143
0.0393700787401575
147
0.875
148
0.000000001
170
     1
173
     1
178
     0
271
     2
272
     2
276
     2
284
    12
340
94
  0
DIMSTYLE
105
E4
102
{ACAD_REACTORS
330
E3
330
10E
102
}
330
A
100
AcDbSymbolTableRecord
100
AcDbDimStyleTableRecord
  2
SLDDIMSTYLE1
 70
     0
 41
3.302
 44
0.0
 45
0.000000001
 73
     0
 74
     0
 77
     1
 78
    12
 79
     3
140
3.5
143
0.0393700787401575
147
0.875
148
0.000000001
170
     1
172
     1
173
     1
178
     0
271
     2
272
     2
276
     2
284
    12
289
     0
340
94
  0
DIMSTYLE
105
F9
102
{ACAD_REACTORS
330
F8
102
}
330
A
100
AcDbSymbolTableRecord
100
AcDbDimStyleTableRecord
  2
SLDDIMSTYLE2
 70
     0
 41
3.302
 44
0.0
 45
0.000000001
 73
     0
 74
     0
 77
     1
 78
     4
 79
     1
140
3.5
143
0.0393700787401575
147
0.875
148
0.000000001
170
     1
172
     1
173
     1
178
     0
271
     2
272
     2
276
     2
284
    12
289
     0
340
94
  0
ENDTAB
  0
TABLE
  2
BLOCK_RECORD
  5
1
330
0
100
AcDbSymbolTable
 70
     7
  0
BLOCK_RECORD
  5
1F
330
1
100
AcDbSymbolTableRecord
100
AcDbBlockTableRecord
  2
*Model_Space
340
22
  0
BLOCK_RECORD
  5
1B
330
1
100
AcDbSymbolTableRecord
100
AcDbBlockTableRecord
  2
*Paper_Space
340
1E
  0
BLOCK_RECORD
  5
23
330
1
100
AcDbSymbolTableRecord
100
AcDbBlockTableRecord
  2
*Paper_Space0
340
26
  0
BLOCK_RECORD
  5
7F
330
1
100
AcDbSymbolTableRecord
100
AcDbBlockTableRecord
  2
블럭10
340
0
102
{BLKREFS
331
C8
102
}
  0
BLOCK_RECORD
  5
D1
330
1
100
AcDbSymbolTableRecord
100
AcDbBlockTableRecord
  2
_D
340
0
  0
BLOCK_RECORD
  5
E5
330
1
100
AcDbSymbolTableRecord
100
AcDbBlockTableRecord
  2
_D_1
340
0
  0
BLOCK_RECORD
  5
FA
330
1
100
AcDbSymbolTableRecord
100
AcDbBlockTableRecord
  2
_D_2
340
0
  0
BLOCK_RECORD
  5
10F
330
1
100
AcDbSymbolTableRecord
100
AcDbBlockTableRecord
  2
_D_3
340
0
  0
BLOCK_RECORD
  5
129
330
1
100
AcDbSymbolTableRecord
100
AcDbBlockTableRecord
  2
SW_DOWELSYMBOL_0
340
0
102
{BLKREFS
331
12F
102
}
  0
ENDTAB
  0
ENDSEC
  0
SECTION
  2
BLOCKS
  0
BLOCK
  5
20
330
1F
100
AcDbEntity
  8
0
100
AcDbBlockBegin
  2
*Model_Space
 70
     0
 10
0.0
 20
0.0
 30
0.0
  3
*Model_Space
  1

  0
ENDBLK
  5
21
330
1F
100
AcDbEntity
  8
0
100
AcDbBlockEnd
  0
BLOCK
  5
1C
330
1B
100
AcDbEntity
 67
     1
  8
0
100
AcDbBlockBegin
  2
*Paper_Space
 70
     0
 10
0.0
 20
0.0
 30
0.0
  3
*Paper_Space
  1

  0
ENDBLK
  5
1D
330
1B
100
AcDbEntity
 67
     1
  8
0
100
AcDbBlockEnd
  0
BLOCK
  5
24
330
23
100
AcDbEntity
  8
0
100
AcDbBlockBegin
  2
*Paper_Space0
 70
     0
 10
0.0
 20
0.0
 30
0.0
  3
*Paper_Space0
  1

  0
ENDBLK
  5
25
330
23
100
AcDbEntity
  8
0
100
AcDbBlockEnd
  0
BLOCK
  5
80
330
7F
100
AcDbEntity
  8
0
100
AcDbBlockBegin
  2
블럭10
 70
     2
 10
0.0
 20
0.0
 30
0.0
  3
블럭10
  1

  0
ELLIPSE
  5
82
330
7F
100
AcDbEntity
  8
중심선
100
AcDbEllipse
 10
20.54032771741204
 20
12.0471743016438
 30
0.0
 11
6.600054785286829
 21
-1.261213355974178E-13
 31
0.0
210
0.0
220
0.0
230
1.0
 40
0.636358354079598
 41
0.9219305317359503
 42
6.513795318482858
  0
ELLIPSE
  5
83
330
7F
100
AcDbEntity
  8
중심선
100
AcDbEllipse
 10
20.54032771746488
 20
12.04717430159265
 30
0.0
 11
3.960054785062283
 21
1.540847449632565E-10
 31
0.0
210
0.0
220
0.0
230
1.0
 40
0.3939339440162632
 41
1.131841032648279
 42
5.62031148352944
  0
LINE
  5
84
330
7F
100
AcDbEntity
  8
중심선
100
AcDbLine
 10
2.268634060543552
 20
16.24717430164393
 30
0.0
 11
5.714909304380834
 21
16.24717430164393
 31
0.0
  0
LINE
  5
85
330
7F
100
AcDbEntity
  8
중심선
100
AcDbLine
 10
5.245725140726316
 20
7.84717430164391
 30
0.0
 11
8.692000384563599
 21
7.84717430164391
 31
0.0
  0
LINE
  5
86
330
7F
100
AcDbEntity
  8
중심선
100
AcDbLine
 10
15.74043728645272
 20
16.24717430164393
 30
0.0
 11
8.692000384563599
 21
7.84717430164391
 31
0.0
  0
LINE
  5
87
330
7F
100
AcDbEntity
  8
중심선
100
AcDbLine
 10
0.1404042013395286
 20
13.71084872107135
 30
0.0
 11
3.58671253028996
 21
13.71088815037384
 31
0.0
  0
LINE
  5
88
330
7F
100
AcDbEntity
  8
중심선
100
AcDbLine
 10
2.750260043222114
 20
10.84717430164391
 30
0.0
 11
6.196535287059397
 21
10.84717430164391
 31
0.0
  0
LINE
  5
89
330
7F
100
AcDbEntity
  8
중심선
100
AcDbLine
 10
12.29416204261559
 20
16.24717430164393
 30
0.0
 11
5.245725140726316
 21
7.84717430164391
 31
0.0
  0
LINE
  5
8A
330
7F
100
AcDbEntity
  8
중심선
100
AcDbLine
 10
10.72767329541681
 20
16.24717430164393
 30
0.0
 11
6.196535287059397
 21
10.84717430164391
 31
0.0
  0
LINE
  5
8B
330
7F
100
AcDbEntity
  8
중심선
100
AcDbLine
 10
7.28139805157953
 20
16.24717430164393
 30
0.0
 11
2.750260043222114
 21
10.84717430164391
 31
0.0
  0
LINE
  5
8C
330
7F
100
AcDbEntity
  8
중심선
100
AcDbLine
 10
5.714909304380834
 20
16.24717430164393
 30
0.0
 11
3.58671253028996
 21
13.71088815037384
 31
0.0
  0
LINE
  5
8D
330
7F
100
AcDbEntity
  8
중심선
100
AcDbLine
 10
2.268634060543552
 20
16.24717430164393
 30
0.0
 11
0.1404042013395286
 21
13.71084872107135
 31
0.0
  0
LINE
  5
8E
330
7F
100
AcDbEntity
  8
중심선
100
AcDbLine
 10
7.28139805157953
 20
16.24717430164393
 30
0.0
 11
10.72767329541681
 21
16.24717430164393
 31
0.0
  0
LINE
  5
8F
330
7F
100
AcDbEntity
  8
중심선
100
AcDbLine
 10
12.29416204261559
 20
16.24717430164393
 30
0.0
 11
15.74043728645272
 21
16.24717430164393
 31
0.0
  0
LINE
  5
90
330
7F
100
AcDbEntity
  8
중심선
100
AcDbLine
 10
19.22036997980202
 20
11.08717430171403
 30
0.0
 11
23.66174974927406
 21
11.08717430171406
 31
0.0
  0
LINE
  5
91
330
7F
100
AcDbEntity
  8
중심선
100
AcDbLine
 10
19.22039502424796
 20
13.00717430171391
 30
0.0
 11
19.22036997980202
 21
11.08717430171403
 31
0.0
  0
LINE
  5
92
330
7F
100
AcDbEntity
  8
중심선
100
AcDbLine
 10
19.22039502424796
 20
13.00717430171391
 30
0.0
 11
26.96566020931264
 21
13.00717430171391
 31
0.0
  0
LINE
  5
93
330
7F
100
AcDbEntity
  8
중심선
100
AcDbLine
 10
22.22332737316547
 20
13.45928029700563
 30
0.0
 11
24.52862924686651
 21
15.39360700705356
 31
0.0
  0
ATTDEF
  5
95
330
7F
100
AcDbEntity
  8
FORMAT
 62
     2
100
AcDbText
 10
4.408487351596664
 20
2.075366912832191
 30
0.0
 40
4.233333333333333
  1
E5104028
 41
0.75
  7
SLDTEXTSTYLE0
 11
4.408487351596664
 21
-0.0412997538344756
 31
0.0
100
AcDbAttributeDefinition
  3

  2
AUTOATTR0
 70
     0
 74
     1
  0
ENDBLK
  5
81
330
7F
100
AcDbEntity
  8
0
100
AcDbBlockEnd
  0
BLOCK
  5
D2
330
D1
100
AcDbEntity
  8
0
100
AcDbBlockBegin
  2
_D
 70
     0
 10
0.0
 20
0.0
 30
0.0
  3
_D
  1

  0
LINE
  5
D4
330
D1
100
AcDbEntity
  8
치수문자_일반주서
 62
     0
370
    -2
100
AcDbLine
 10
-34.44999999999997
 20
5.618750000000008
 30
0.0
 11
-34.44999999999997
 21
41.02742310188823
 31
0.0
  0
LINE
  5
D5
330
D1
100
AcDbEntity
  8
치수문자_일반주서
 62
     0
370
    -2
100
AcDbLine
 10
35.40000000000001
 20
5.618750000000097
 30
0.0
 11
35.40000000000001
 21
41.02742310188823
 31
0.0
  0
LINE
  5
D6
330
D1
100
AcDbEntity
  8
치수문자_일반주서
 62
     0
370
    -2
100
AcDbLine
 10
-31.14799999999997
 20
41.02742310188823
 30
0.0
 11
32.09800000000001
 21
41.02742310188823
 31
0.0
  0
SOLID
  5
D7
330
D1
100
AcDbEntity
  8
치수문자_일반주서
 62
     0
100
AcDbTrace
 10
-31.14799999999997
 20
41.57775643522157
 30
0.0
 11
-31.14799999999997
 21
40.4770897685549
 31
0.0
 12
-34.44999999999997
 22
41.02742310188823
 32
0.0
 13
-34.44999999999997
 23
41.02742310188823
 33
0.0
  0
SOLID
  5
D8
330
D1
100
AcDbEntity
  8
치수문자_일반주서
 62
     0
100
AcDbTrace
 10
32.09800000000001
 20
40.4770897685549
 30
0.0
 11
32.09800000000001
 21
41.57775643522157
 31
0.0
 12
35.40000000000001
 22
41.02742310188823
 32
0.0
 13
35.40000000000001
 23
41.02742310188823
 33
0.0
  0
MTEXT
  5
D9
330
D1
100
AcDbEntity
  8
치수문자_일반주서
 62
     0
100
AcDbMText
 10
0.4750000000000227
 20
45.40242310188823
 30
0.0
 40
3.5
 41
0.0
 71
     2
 72
     1
  1
\A1;69.85 [2 3/4]
  7
SLDTEXTSTYLE0
 73
     1
 44
1.0
  0
POINT
  5
DA
330
D1
100
AcDbEntity
  8
Defpoints
 62
     0
100
AcDbPoint
 10
-34.44999999999997
 20
5.556250000000008
 30
0.0
  0
POINT
  5
DB
330
D1
100
AcDbEntity
  8
Defpoints
 62
     0
100
AcDbPoint
 10
35.40000000000001
 20
5.556250000000097
 30
0.0
  0
POINT
  5
DC
330
D1
100
AcDbEntity
  8
Defpoints
 62
     0
100
AcDbPoint
 10
35.40000000000001
 20
41.02742310188823
 30
0.0
  0
ENDBLK
  5
D3
330
D1
100
AcDbEntity
  8
0
100
AcDbBlockEnd
  0
BLOCK
  5
E6
330
E5
100
AcDbEntity
  8
0
100
AcDbBlockBegin
  2
_D_1
 70
     0
 10
0.0
 20
0.0
 30
0.0
  3
_D_1
  1

  0
LINE
  5
E8
330
E5
100
AcDbEntity
  8
치수문자_일반주서
 62
     0
370
    -2
100
AcDbLine
 10
-34.51249999999997
 20
5.556250000000008
 30
0.0
 11
-43.27421111308419
 21
5.556249999999975
 31
0.0
  0
LINE
  5
E9
330
E5
100
AcDbEntity
  8
치수문자_일반주서
 62
     0
370
    -2
100
AcDbLine
 10
-34.50957381593248
 20
-5.556250000000016
 30
0.0
 11
-43.27421111308416
 21
-5.55625000000005
 31
0.0
  0
LINE
  5
EA
330
E5
100
AcDbEntity
  8
치수문자_일반주서
 62
     0
370
    -2
100
AcDbLine
 10
-43.27421111308418
 20
2.254249999999975
 30
0.0
 11
-43.27421111308416
 21
-2.25425000000005
 31
0.0
  0
SOLID
  5
EB
330
E5
100
AcDbEntity
  8
치수문자_일반주서
 62
     0
100
AcDbTrace
 10
-42.72387777975085
 20
2.254249999999977
 30
0.0
 11
-43.82454444641752
 21
2.254249999999973
 31
0.0
 12
-43.27421111308419
 22
5.556249999999975
 32
0.0
 13
-43.27421111308419
 23
5.556249999999975
 33
0.0
  0
SOLID
  5
EC
330
E5
100
AcDbEntity
  8
치수문자_일반주서
 62
     0
100
AcDbTrace
 10
-43.8245444464175
 20
-2.254250000000052
 30
0.0
 11
-42.72387777975083
 21
-2.254250000000049
 31
0.0
 12
-43.27421111308416
 22
-5.55625000000005
 32
0.0
 13
-43.27421111308416
 23
-5.55625000000005
 33
0.0
  0
MTEXT
  5
ED
330
E5
100
AcDbEntity
  8
치수문자_일반주서
 62
     0
100
AcDbMText
 10
-47.64921111308418
 20
0.0000000000000445
 30
0.0
 40
3.5
 41
0.0
 71
     2
 72
     1
  1
\A1;%%c11.11 [7/16]
  7
SLDTEXTSTYLE0
 11
-3.197042680585371E-15
 21
1.0
 31
0.0
 73
     1
 44
1.0
  0
POINT
  5
EE
330
E5
100
AcDbEntity
  8
Defpoints
 62
     0
100
AcDbPoint
 10
-34.44999999999997
 20
5.556250000000008
 30
0.0
  0
POINT
  5
EF
330
E5
100
AcDbEntity
  8
Defpoints
 62
     0
100
AcDbPoint
 10
-34.44707381593248
 20
-5.556250000000016
 30
0.0
  0
POINT
  5
F0
330
E5
100
AcDbEntity
  8
Defpoints
 62
     0
100
AcDbPoint
 10
-43.27421111308416
 20
-5.556250000000049
 30
0.0
  0
ENDBLK
  5
E7
330
E5
100
AcDbEntity
  8
0
100
AcDbBlockEnd
  0
BLOCK
  5
FB
330
FA
100
AcDbEntity
  8
0
100
AcDbBlockBegin
  2
_D_2
 70
     0
 10
0.0
 20
0.0
 30
0.0
  3
_D_2
  1

  0
LINE
  5
FD
330
FA
100
AcDbEntity
  8
치수문자_일반주서
 62
     0
370
    -2
100
AcDbLine
 10
35.40000000000001
 20
5.618750000000097
 30
0.0
 11
35.40000000000001
 21
23.45923899787629
 31
0.0
  0
LINE
  5
FE
330
FA
100
AcDbEntity
  8
치수문자_일반주서
 62
     0
370
    -2
100
AcDbLine
 10
10.00000000000001
 20
5.573794182437739
 30
0.0
 11
10.00000000000001
 21
23.45923899787629
 31
0.0
  0
LINE
  5
FF
330
FA
100
AcDbEntity
  8
치수문자_일반주서
 62
     0
370
    -2
100
AcDbLine
 10
32.09800000000001
 20
23.45923899787629
 30
0.0
 11
13.30200000000001
 21
23.45923899787629
 31
0.0
  0
SOLID
  5
100
330
FA
100
AcDbEntity
  8
치수문자_일반주서
 62
     0
100
AcDbTrace
 10
32.09800000000001
 20
22.90890566454295
 30
0.0
 11
32.09800000000001
 21
24.00957233120962
 31
0.0
 12
35.40000000000001
 22
23.45923899787629
 32
0.0
 13
35.40000000000001
 23
23.45923899787629
 33
0.0
  0
SOLID
  5
101
330
FA
100
AcDbEntity
  8
치수문자_일반주서
 62
     0
100
AcDbTrace
 10
13.30200000000001
 20
24.00957233120962
 30
0.0
 11
13.30200000000001
 21
22.90890566454295
 31
0.0
 12
10.00000000000001
 22
23.45923899787629
 32
0.0
 13
10.00000000000001
 23
23.45923899787629
 33
0.0
  0
MTEXT
  5
102
330
FA
100
AcDbEntity
  8
치수문자_일반주서
 62
     0
100
AcDbMText
 10
23.51203485968526
 20
27.83423899787629
 30
0.0
 40
3.5
 41
0.0
 71
     2
 72
     1
  1
\A1;25.40 [1]
  7
SLDTEXTSTYLE0
 73
     1
 44
1.0
  0
POINT
  5
103
330
FA
100
AcDbEntity
  8
Defpoints
 62
     0
100
AcDbPoint
 10
35.40000000000001
 20
5.556250000000097
 30
0.0
  0
POINT
  5
104
330
FA
100
AcDbEntity
  8
Defpoints
 62
     0
100
AcDbPoint
 10
10.00000000000001
 20
5.511294182437739
 30
0.0
  0
POINT
  5
105
330
FA
100
AcDbEntity
  8
Defpoints
 62
     0
100
AcDbPoint
 10
10.00000000000001
 20
23.45923899787629
 30
0.0
  0
ENDBLK
  5
FC
330
FA
100
AcDbEntity
  8
0
100
AcDbBlockEnd
  0
BLOCK
  5
110
330
10F
100
AcDbEntity
  8
0
100
AcDbBlockBegin
  2
_D_3
 70
     0
 10
0.0
 20
0.0
 30
0.0
  3
_D_3
  1

  0
LINE
  5
112
330
10F
100
AcDbEntity
  8
치수문자_일반주서
 62
     0
370
    -2
100
AcDbLine
 10
35.46250000000001
 20
5.556250000000097
 30
0.0
 11
45.39999999999998
 21
5.556250000000137
 31
0.0
  0
LINE
  5
113
330
10F
100
AcDbEntity
  8
치수문자_일반주서
 62
     0
370
    -2
100
AcDbLine
 10
35.50396895098789
 20
-5.556249999999904
 30
0.0
 11
45.40000000000001
 21
-5.556249999999867
 31
0.0
  0
LINE
  5
114
330
10F
100
AcDbEntity
  8
치수문자_일반주서
 62
     0
370
    -2
100
AcDbLine
 10
45.39999999999998
 20
5.556250000000137
 30
0.0
 11
45.39999999999987
 21
39.28525000000013
 31
0.0
  0
LINE
  5
115
330
10F
100
AcDbEntity
  8
치수문자_일반주서
 62
     0
370
    -2
100
AcDbLine
 10
45.39999999999998
 20
5.556250000000137
 30
0.0
 11
45.40000000000001
 21
-5.556249999999867
 31
0.0
  0
LINE
  5
116
330
10F
100
AcDbEntity
  8
치수문자_일반주서
 62
     0
370
    -2
100
AcDbLine
 10
45.39999999999997
 20
8.858250000000137
 30
0.0
 11
45.39999999999996
 21
12.16025000000014
 31
0.0
  0
LINE
  5
117
330
10F
100
AcDbEntity
  8
치수문자_일반주서
 62
     0
370
    -2
100
AcDbLine
 10
45.40000000000002
 20
-8.858249999999867
 30
0.0
 11
45.40000000000003
 21
-12.16024999999987
 31
0.0
  0
SOLID
  5
118
330
10F
100
AcDbEntity
  8
치수문자_일반주서
 62
     0
100
AcDbTrace
 10
44.84966666666664
 20
8.858250000000135
 30
0.0
 11
45.9503333333333
 21
8.858250000000139
 31
0.0
 12
45.39999999999998
 22
5.556250000000137
 32
0.0
 13
45.39999999999998
 23
5.556250000000137
 33
0.0
  0
SOLID
  5
119
330
10F
100
AcDbEntity
  8
치수문자_일반주서
 62
     0
100
AcDbTrace
 10
45.95033333333335
 20
-8.858249999999865
 30
0.0
 11
44.84966666666669
 21
-8.858249999999869
 31
0.0
 12
45.40000000000001
 22
-5.556249999999867
 32
0.0
 13
45.40000000000001
 23
-5.556249999999867
 33
0.0
  0
MTEXT
  5
11A
330
10F
100
AcDbEntity
  8
치수문자_일반주서
 62
     0
100
AcDbMText
 10
41.02499999999991
 20
25.72275000000012
 30
0.0
 40
3.5
 41
0.0
 71
     2
 72
     1
  1
\A1;%%c11.11 [7/16]
  7
SLDTEXTSTYLE0
 11
-3.197042680585377E-15
 21
1.0
 31
0.0
 73
     1
 44
1.0
  0
POINT
  5
11B
330
10F
100
AcDbEntity
  8
Defpoints
 62
     0
100
AcDbPoint
 10
35.40000000000001
 20
5.556250000000097
 30
0.0
  0
POINT
  5
11C
330
10F
100
AcDbEntity
  8
Defpoints
 62
     0
100
AcDbPoint
 10
35.44146895098789
 20
-5.556249999999904
 30
0.0
  0
POINT
  5
11D
330
10F
100
AcDbEntity
  8
Defpoints
 62
     0
100
AcDbPoint
 10
45.40000000000001
 20
-5.556249999999867
 30
0.0
  0
ENDBLK
  5
111
330
10F
100
AcDbEntity
  8
0
100
AcDbBlockEnd
  0
BLOCK
  5
12A
330
129
100
AcDbEntity
  8
0
100
AcDbBlockBegin
  2
SW_DOWELSYMBOL_0
 70
     0
 10
0.0
 20
0.0
 30
0.0
  3
SW_DOWELSYMBOL_0
  1

  0
CIRCLE
  5
12C
330
129
100
AcDbEntity
  8
해칭선
 62
     0
100
AcDbCircle
 10
0.0
 20
0.0
 30
0.0
 40
3.000000000000002
  0
HATCH
  5
12D
330
129
100
AcDbEntity
  8
0
  6
Continuous
 62
     0
370
     0
100
AcDbHatch
 10
0.0
 20
0.0
 30
0.0
210
0.0
220
0.0
230
1.0
  2
SOLID
 70
     1
 71
     0
 91
        1
 92
        0
 93
        3
 72
     2
 10
0.0000000000000069
 20
0.0
 40
3.000000000000002
 50
0.0
 51
90.0
 73
     1
 72
     1
 10
0.0000000000000069
 20
3.000000000000002
 11
0.0000000000000069
 21
0.0
 72
     1
 10
0.0000000000000069
 20
0.0
 11
3.000000000000009
 21
0.0
 97
        0
 75
     0
 76
     1
 98
        1
 10
0.0
 20
0.0
  0
HATCH
  5
12E
330
129
100
AcDbEntity
  8
0
  6
Continuous
 62
     0
370
     0
100
AcDbHatch
 10
0.0
 20
0.0
 30
0.0
210
0.0
220
0.0
230
1.0
  2
SOLID
 70
     1
 71
     0
 91
        1
 92
        0
 93
        3
 72
     2
 10
0.0000000000000069
 20
0.0
 40
3.000000000000002
 50
180.0
 51
270.0000000000007
 73
     1
 72
     1
 10
0.0000000000000069
 20
-3.000000000000002
 11
0.0000000000000069
 21
0.0
 72
     1
 10
0.0000000000000069
 20
0.0
 11
-2.999999999999995
 21
0.0
 97
        0
 75
     0
 76
     1
 98
        1
 10
0.0
 20
0.0
  0
ENDBLK
  5
12B
330
129
100
AcDbEntity
  8
0
100
AcDbBlockEnd
  0
ENDSEC
  0
SECTION
  2
ENTITIES
  0
LINE
  5
96
330
1F
100
AcDbEntity
  8
외형선
  6
Continuous
370
    15
100
AcDbLine
 10
-18.79090000000001
 20
5.556250000000002
 30
0.0
 11
-33.94999999999997
 21
5.556249999999998
 31
0.0
  0
LINE
  5
97
330
1F
100
AcDbEntity
  8
외형선
  6
Continuous
370
    15
100
AcDbLine
 10
-33.94999999999997
 20
-5.556250000000003
 30
0.0
 11
10.00000000000001
 21
-5.556250000000003
 31
0.0
  0
LINE
  5
98
330
1F
100
AcDbEntity
  8
외형선
  6
Continuous
370
    15
100
AcDbLine
 10
-33.94999999999997
 20
5.556249999999994
 30
0.0
 11
-34.44999999999997
 21
5.056249999999996
 31
0.0
  0
LINE
  5
99
330
1F
100
AcDbEntity
  8
외형선
  6
Continuous
370
    15
100
AcDbLine
 10
-34.44999999999997
 20
-5.056250000000001
 30
0.0
 11
-33.94999999999997
 21
-5.556250000000001
 31
0.0
  0
LINE
  5
9A
330
1F
100
AcDbEntity
  8
외형선
  6
Continuous
 62
     1
370
    15
100
AcDbLine
 10
15.72564605315878
 20
5.556249999999998
 30
0.0
 11
14.64080782099165
 21
5.556249999999998
 31
0.0
  0
LINE
  5
9B
330
1F
100
AcDbEntity
  8
외형선
  6
Continuous
 62
     1
370
    15
100
AcDbLine
 10
24.71920769374364
 20
-5.556250000000003
 30
0.0
 11
25.80366264119012
 21
-5.556250000000003
 31
0.0
  0
SPLINE
  5
9E
330
1F
100
AcDbEntity
  8
외형선
  6
Continuous
370
    15
100
AcDbSpline
210
0.0
220
0.0
230
1.0
 70
     8
 71
     3
 72
    10
 73
     6
 74
     0
 42
0.000000001
 43
0.00000001
 40
0.0
 40
0.0
 40
0.0
 40
0.0
 40
0.5000000000000001
 40
0.5000000000000001
 40
1.0
 40
1.0
 40
1.0
 40
1.0
 10
10.00000000000101
 20
-5.536707519632021
 30
0.0
 10
9.66141502561503
 20
-5.520332790619404
 30
0.0
 10
9.325948468449775
 20
-5.493768246134641
 30
0.0
 10
8.648883655637555
 20
-5.42023419433911
 30
0.0
 10
8.308730389196553
 20
-5.373257183956188
 30
0.0
 10
7.969790863445851
 20
-5.316449692548107
 30
0.0
  0
SPLINE
  5
9F
330
1F
100
AcDbEntity
  8
외형선
  6
Continuous
370
    15
100
AcDbSpline
210
0.0
220
0.0
230
1.0
 70
     8
 71
     3
 72
    10
 73
     6
 74
     0
 42
0.000000001
 43
0.00000001
 40
0.0
 40
0.0
 40
0.0
 40
0.0
 40
0.5
 40
0.5
 40
1.0
 40
1.0
 40
1.0
 40
1.0
 10
10.00000000000001
 20
-0.2301396808451231
 30
0.0
 10
9.661415025614199
 20
-0.0348993557784905
 30
0.0
 10
9.325948468449113
 20
0.160167635611468
 30
0.0
 10
8.64888365563722
 20
0.5501642450437196
 30
0.0
 10
8.308730389196388
 20
0.7448120019516441
 30
0.0
 10
7.969790863445851
 20
0.9374856200366806
 30
0.0
  0
SPLINE
  5
A0
330
1F
100
AcDbEntity
  8
외형선
  6
Continuous
370
    15
100
AcDbSpline
210
0.0
220
0.0
230
1.0
 70
    24
 71
     3
 72
    18
 73
    14
 74
     0
 42
0.000000001
 43
0.00000001
 40
0.0
 40
0.0
 40
0.0
 40
0.0
 40
0.2499999999999998
 40
0.2499999999999998
 40
0.4999999999999998
 40
0.4999999999999998
 40
0.6249999999999998
 40
0.6249999999999998
 40
0.7499999999999998
 40
0.7499999999999998
 40
0.8749999999999999
 40
0.8749999999999999
 40
1.0
 40
1.0
 40
1.0
 40
1.0
 10
10.00000000000001
 20
-0.2301396808451224
 30
0.0
 10
10.00000000000001
 20
-0.2675713412489939
 30
0.0
 10
10.00000000000001
 20
-0.3620847341127373
 30
0.0
 10
10.00000000000001
 20
-0.7490293419374853
 30
0.0
 10
10.00000000000001
 20
-1.043711092482417
 30
0.0
 10
10.00000000000001
 20
-1.692194906488447
 30
0.0
 10
10.00000000000001
 20
-1.942475573142058
 30
0.0
 10
10.00000000000001
 20
-2.511818392595475
 30
0.0
 10
10.00000000000001
 20
-2.830974382035332
 30
0.0
 10
10.00000000000001
 20
-3.528468168531
 30
0.0
 10
10.00000000000001
 20
-3.906786443225512
 30
0.0
 10
10.00000000000001
 20
-4.701195180287871
 30
0.0
 10
10.00000000000001
 20
-5.117113873027773
 30
0.0
 10
10.00000000000001
 20
-5.53670751963197
 30
0.0
  0
SPLINE
  5
A1
330
1F
100
AcDbEntity
  8
외형선
  6
Continuous
370
    15
100
AcDbSpline
210
0.0
220
0.0
230
1.0
 70
     8
 71
     3
 72
    10
 73
     6
 74
     0
 42
0.000000001
 43
0.00000001
 40
0.0
 40
0.0
 40
0.0
 40
0.0
 40
0.5
 40
0.5
 40
1.0
 40
1.0
 40
1.0
 40
1.0
 10
10.00000000000001
 20
4.922794077767112
 30
0.0
 10
9.661415025614199
 20
4.832183345873022
 30
0.0
 10
9.325948468449113
 20
4.732745968425757
 30
0.0
 10
8.64888365563722
 20
4.516113999791095
 30
0.0
 10
8.308730389196388
 20
4.399023036381534
 30
0.0
 10
7.969790863445851
 20
4.274122998861682
 30
0.0
  0
LINE
  5
A2
330
1F
100
AcDbEntity
  8
외형선
  6
Continuous
370
    15
100
AcDbLine
 10
7.969790863445851
 20
5.556249999999998
 30
0.0
 11
7.969790863445851
 21
4.056576658846279
 31
0.0
  0
SPLINE
  5
A3
330
1F
100
AcDbEntity
  8
외형선
  6
Continuous
370
    15
100
AcDbSpline
210
0.0
220
0.0
230
1.0
 70
     8
 71
     3
 72
    10
 73
     6
 74
     0
 42
0.000000001
 43
0.00000001
 40
0.0
 40
0.0
 40
0.0
 40
0.0
 40
0.5
 40
0.5
 40
1.0
 40
1.0
 40
1.0
 40
1.0
 10
10.00000000000101
 20
3.171575694255022
 30
0.0
 10
9.66141502561503
 20
3.332021427639758
 30
0.0
 10
9.325948468449775
 20
3.486109155234384
 30
0.0
 10
8.648883655637555
 20
3.781735855753108
 30
0.0
 10
8.308730389196553
 20
3.923024229920517
 30
0.0
 10
7.969790863445851
 20
4.056601600524831
 30
0.0
  0
LINE
  5
A4
330
1F
100
AcDbEntity
  8
외형선
  6
Continuous
370
    15
100
AcDbLine
 10
10.00000000000001
 20
3.171575694255494
 30
0.0
 11
10.00000000000001
 21
-0.2301396808451221
 31
0.0
  0
LINE
  5
A5
330
1F
100
AcDbEntity
  8
외형선
  6
Continuous
370
    15
100
AcDbLine
 10
-33.94999999999997
 20
5.556249999999994
 30
0.0
 11
-33.94999999999997
 21
-5.556250000000001
 31
0.0
  0
LINE
  5
A6
330
1F
100
AcDbEntity
  8
외형선
  6
Continuous
370
    15
100
AcDbLine
 10
7.969790863445851
 20
0.9374951153746506
 30
0.0
 11
7.969790863445851
 21
-5.316460299538562
 31
0.0
  0
LINE
  5
A7
330
1F
100
AcDbEntity
  8
외형선
  6
Continuous
370
    15
100
AcDbLine
 10
-34.44999999999997
 20
5.056249999999996
 30
0.0
 11
-34.44999999999997
 21
-5.056250000000001
 31
0.0
  0
SPLINE
  5
A8
330
1F
100
AcDbEntity
  8
외형선
  6
Continuous
370
    15
100
AcDbSpline
210
0.0
220
0.0
230
1.0
 70
    24
 71
     3
 72
    12
 73
     8
 74
     0
 42
0.000000001
 43
0.00000001
 40
0.0
 40
0.0
 40
0.0
 40
0.0
 40
0.0931621839267697
 40
0.1865010783197623
 40
0.5423424324166388
 40
0.90850320988873
 40
1.0
 40
1.0
 40
1.0
 40
1.0
 10
10.00000000000001
 20
4.922794077767112
 30
0.0
 10
10.00000000000001
 20
4.857263504733451
 30
0.0
 10
10.00000000000001
 20
4.726078059968691
 30
0.0
 10
10.00000000000001
 20
4.359445718313831
 30
0.0
 10
10.00000000000001
 20
3.861690247721583
 30
0.0
 10
10.00000000000001
 20
3.423847380035451
 30
0.0
 10
10.00000000000001
 20
3.254886918062625
 30
0.0
 10
10.00000000000001
 20
3.221107645040083
 30
0.0
  0
SPLINE
  5
A9
330
1F
100
AcDbEntity
  8
외형선
  6
Continuous
 62
     1
370
    15
100
AcDbSpline
210
0.0
220
0.0
230
1.0
 70
     8
 71
     3
 72
    44
 73
    40
 74
     0
 42
0.000000001
 43
0.00000001
 40
0.0
 40
0.0
 40
0.0
 40
0.0
 40
0.0121623178915849
 40
0.0436117848783906
 40
0.0664090358889152
 40
0.0977484017265547
 40
0.1213378201398005
 40
0.1456726541787822
 40
0.1660252671728368
 40
0.1923916458698162
 40
0.2222087074457196
 40
0.2661534293306944
 40
0.2747745574132527
 40
0.2828341726464792
 40
0.287924100019304
 40
0.2992506814795133
 40
0.3140464486823603
 40
0.3220898056172418
 40
0.3329377720864917
 40
0.3437828390143128
 40
0.3536191660885917
 40
0.3624467554127868
 40
0.3854240449598772
 40
0.4171145212420478
 40
0.4413135210029336
 40
0.4584195094255876
 40
0.4883313749160919
 40
0.5141016510316783
 40
0.5460082905521045
 40
0.5643969924914491
 40
0.5877210398806824
 40
0.6058835844312276
 40
0.6304062441035947
 40
0.6607957423284754
 40
0.6812807550178345
 40
0.7609397323215673
 40
0.8405440285350951
 40
0.9202642789051185
 40
1.0
 40
1.0
 40
1.0
 40
1.0
 10
29.52034658431442
 20
-5.146478870270484
 30
0.0
 10
29.44124597554888
 20
-5.163526316709833
 30
0.0
 10
29.15760606710517
 20
-5.224655253929368
 30
0.0
 10
28.72575366055717
 20
-5.304737581748243
 30
0.0
 10
28.16890768967087
 20
-5.392145532246435
 30
0.0
 10
27.66287010961204
 20
-5.455634014432629
 30
0.0
 10
27.14701690104426
 20
-5.504274086627255
 30
0.0
 10
26.70294735830033
 20
-5.533886418730275
 30
0.0
 10
26.2411404282764
 20
-5.552636304103459
 30
0.0
 10
25.74279220301245
 20
-5.559133100633441
 30
0.0
 10
25.09106552428656
 20
-5.546315860646621
 30
0.0
 10
24.55512329746303
 20
-5.512618744675661
 30
0.0
 10
24.16090537679914
 20
-5.475756135898007
 30
0.0
 10
24.0194374848018
 20
-5.461117885899145
 30
0.0
 10
23.86012539720117
 20
-5.443538082276372
 30
0.0
 10
23.65696341811477
 20
-5.419214244612053
 30
0.0
 10
23.43455903998739
 20
-5.389286441663079
 30
0.0
 10
23.2152784170287
 20
-5.356946143791766
 30
0.0
 10
23.02175078457523
 20
-5.326322512656078
 30
0.0
 10
22.81661530275383
 20
-5.29132732679588
 30
0.0
 10
22.62468038097822
 20
-5.256330716903818
 30
0.0
 10
22.35401113281394
 20
-5.204036324005967
 30
0.0
 10
21.94110044367854
 20
-5.117130977338546
 30
0.0
 10
21.42773019286727
 20
-4.994342999564048
 30
0.0
 10
20.95248365299348
 20
-4.866917633343464
 30
0.0
 10
20.48929821003438
 20
-4.732428926709352
 30
0.0
 10
20.01608141799974
 20
-4.583558564051093
 30
0.0
 10
19.44609672889361
 20
-4.389658761149333
 30
0.0
 10
18.950881248215
 20
-4.208264565754857
 30
0.0
 10
18.47179086989496
 20
-4.021955710461364
 30
0.0
 10
18.08237550291303
 20
-3.863226435271779
 30
0.0
 10
17.65338949904763
 20
-3.680579610885411
 30
0.0
 10
17.17762435274439
 20
-3.471563609352115
 30
0.0
 10
16.68678915794884
 20
-3.245952871222826
 30
0.0
 10
15.8376204418143
 20
-2.840024759743912
 30
0.0
 10
14.6675982866554
 20
-2.243631975156437
 30
0.0
 10
13.11296191143243
 20
-1.391473432175951
 30
0.0
 10
11.55672856100981
 20
-0.5036618895994902
 30
0.0
 10
10.51894308298391
 20
0.0958028624911455
 30
0.0
 10
10.00000000000001
 20
0.3955643191477334
 30
0.0
  0
SPLINE
  5
AA
330
1F
100
AcDbEntity
  8
외형선
  6
Continuous
 62
     1
370
    15
100
AcDbSpline
210
0.0
220
0.0
230
1.0
 70
     8
 71
     3
 72
    50
 73
    46
 74
     0
 42
0.000000001
 43
0.00000001
 40
0.0
 40
0.0
 40
0.0
 40
0.0
 40
0.0625000000000003
 40
0.0625000000000003
 40
0.1250000000000007
 40
0.1250000000000007
 40
0.187500000000001
 40
0.187500000000001
 40
0.2187500000000012
 40
0.2187500000000012
 40
0.2500000000000013
 40
0.2500000000000013
 40
0.3125000000000016
 40
0.3125000000000016
 40
0.3437500000000014
 40
0.3437500000000014
 40
0.3750000000000014
 40
0.3750000000000014
 40
0.4375000000000012
 40
0.4375000000000012
 40
0.4687500000000011
 40
0.4687500000000011
 40
0.5000000000000011
 40
0.5000000000000011
 40
0.562500000000001
 40
0.562500000000001
 40
0.5937500000000008
 40
0.5937500000000008
 40
0.6250000000000006
 40
0.6250000000000006
 40
0.6875000000000004
 40
0.6875000000000004
 40
0.7500000000000004
 40
0.7500000000000004
 40
0.8125000000000002
 40
0.8125000000000002
 40
0.8437500000000002
 40
0.8437500000000002
 40
0.8750000000000002
 40
0.8750000000000002
 40
0.9062500000000001
 40
0.9062500000000001
 40
0.9375000000000001
 40
0.9375000000000001
 40
1.0
 40
1.0
 40
1.0
 40
1.0
 10
10.00000000000102
 20
3.020292437205909
 30
0.0
 10
10.5288607412315
 20
2.78684395752693
 30
0.0
 10
11.06155197156181
 20
2.539077660816716
 30
0.0
 10
12.11306160383648
 20
2.025071353464361
 30
0.0
 10
12.64445532342763
 20
1.75680874450586
 30
0.0
 10
13.7031831777481
 20
1.207465458136022
 30
0.0
 10
14.22777913734318
 20
0.9269181501552195
 30
0.0
 10
15.02301680435503
 20
0.500242240622782
 30
0.0
 10
15.28830982171645
 20
0.3572497116975951
 30
0.0
 10
15.81662637708436
 20
0.0711884393972379
 30
0.0
 10
16.07866774568934
 20
-0.0717019233646881
 30
0.0
 10
16.87085415358939
 20
-0.5007401322106579
 30
0.0
 10
17.40373690852831
 20
-0.78663648972515
 30
0.0
 10
18.19402933728343
 20
-1.206621853626693
 30
0.0
 10
18.45669528050191
 20
-1.345280330453341
 30
0.0
 10
18.98592824008907
 20
-1.619921768756722
 30
0.0
 10
19.25136392772556
 20
-1.755702549179177
 30
0.0
 10
20.04607577891537
 20
-2.156345517998457
 30
0.0
 10
20.57033638473678
 20
-2.413967942110567
 30
0.0
 10
21.36523395703718
 20
-2.783676958859048
 30
0.0
 10
21.63064590866861
 20
-2.903962349662667
 30
0.0
 10
22.15966091240799
 20
-3.13741798195431
 30
0.0
 10
22.4220539556062
 20
-3.250423230302986
 30
0.0
 10
23.21290025170913
 20
-3.578587333976629
 30
0.0
 10
23.74581285311877
 20
-3.782861972737122
 30
0.0
 10
24.53753196005778
 20
-4.061295229116287
 30
0.0
 10
24.79963717777747
 20
-4.149423188708289
 30
0.0
 10
25.32822987080645
 20
-4.316590702076151
 30
0.0
 10
25.59357607501764
 20
-4.395488310538783
 30
0.0
 10
26.38871596144836
 20
-4.616876497128184
 30
0.0
 10
26.9131311098822
 20
-4.743725688449613
 30
0.0
 10
27.9722235990385
 20
-4.95426773545632
 30
0.0
 10
28.50267736704578
 20
-5.037530576656241
 30
0.0
 10
29.55504017810805
 20
-5.157536634941452
 30
0.0
 10
30.08782091747659
 20
-5.194636296117628
 30
0.0
 10
30.88073175947867
 20
-5.214645221808686
 30
0.0
 10
31.14284271582735
 20
-5.215421247555229
 30
0.0
 10
31.67063773746497
 20
-5.205206711215101
 30
0.0
 10
31.93581470865505
 20
-5.194193018307596
 30
0.0
 10
32.4660344212067
 20
-5.1604109775631
 30
0.0
 10
32.73107410728477
 20
-5.137642838066316
 30
0.0
 10
33.25832462185647
 20
-5.080649015038254
 30
0.0
 10
33.5207049200831
 20
-5.046440016328859
 30
0.0
 10
34.31420854817916
 20
-4.926531505974234
 30
0.0
 10
34.84683557092005
 20
-4.823594334691299
 30
0.0
 10
35.37232455597093
 20
-4.699885934743127
 30
0.0
  0
SPLINE
  5
AB
330
1F
100
AcDbEntity
  8
외형선
  6
Continuous
 62
     1
370
    15
100
AcDbSpline
210
0.0
220
0.0
230
1.0
 70
     8
 71
     3
 72
    22
 73
    18
 74
     0
 42
0.000000001
 43
0.00000001
 40
0.0
 40
0.0
 40
0.0
 40
0.0
 40
0.2500000000000009
 40
0.2500000000000009
 40
0.5000000000000018
 40
0.5000000000000018
 40
0.7500000000000027
 40
0.7500000000000027
 40
0.8125000000000028
 40
0.8125000000000028
 40
0.8750000000000029
 40
0.8750000000000029
 40
0.937500000000003
 40
0.937500000000003
 40
0.9687500000000016
 40
0.9687500000000016
 40
1.0
 40
1.0
 40
1.0
 40
1.0
 10
35.37232455597739
 20
0.3955122353541121
 30
0.0
 10
35.38540763905256
 20
0.1512293918016077
 30
0.0
 10
35.38912824916037
 20
-0.0932295006220635
 30
0.0
 10
35.39114362671175
 20
-0.5823371662628815
 30
0.0
 10
35.38962794096679
 20
-0.8268764469475934
 30
0.0
 10
35.37239605323411
 20
-1.31588063249034
 30
0.0
 10
35.35928518407486
 20
-1.561195331621281
 30
0.0
 10
35.29926078245646
 20
-1.861920108532012
 30
0.0
 10
35.28481704434814
 20
-1.921531832849737
 30
0.0
 10
35.24753233322573
 20
-2.037910278366435
 30
0.0
 10
35.22468340945868
 20
-2.09553006971587
 30
0.0
 10
35.16202019106679
 20
-2.201385254618314
 30
0.0
 10
35.12099645122466
 20
-2.251307893010803
 30
0.0
 10
35.03897902006459
 20
-2.290613399841197
 30
0.0
 10
35.00864845072931
 20
-2.29685637185864
 30
0.0
 10
34.94794860480238
 20
-2.292955701675376
 30
0.0
 10
34.91891797097869
 20
-2.283360192164384
 30
0.0
 10
34.89199999999911
 20
-2.269179037348161
 30
0.0
  0
SPLINE
  5
AC
330
1F
100
AcDbEntity
  8
외형선
  6
Continuous
 62
     1
370
    15
100
AcDbSpline
210
0.0
220
0.0
230
1.0
 70
     8
 71
     3
 72
    85
 73
    81
 74
     0
 42
0.000000001
 43
0.00000001
 40
0.0
 40
0.0
 40
0.0
 40
0.0
 40
0.0182074133916304
 40
0.0364289537526643
 40
0.0516739640060375
 40
0.0677848891436727
 40
0.0901517060834034
 40
0.0941081368168864
 40
0.0967983588446849
 40
0.1004853205705484
 40
0.1051690212824152
 40
0.1108494599228346
 40
0.1175266351494663
 40
0.1219281485770618
 40
0.1266757871685087
 40
0.1317695507870133
 40
0.1372094392848892
 40
0.14299545250372
 40
0.1491275902744726
 40
0.1556058524175832
 40
0.1624302387430198
 40
0.1636443683273699
 40
0.1726315949914217
 40
0.1830771092540055
 40
0.1970858024051353
 40
0.2054263991105553
 40
0.209930760004284
 40
0.2110916484334013
 40
0.21123773816971
 40
0.2112468759993614
 40
0.211251445232766
 40
0.2203230708671493
 40
0.2350185546354602
 40
0.2416760836683146
 40
0.2490604792898553
 40
0.2571717405666582
 40
0.2660098664643413
 40
0.2696014901990816
 40
0.2723530149110011
 40
0.2759462478195288
 40
0.2906279871533642
 40
0.3120144609054031
 40
0.3311804085703851
 40
0.346694763937535
 40
0.3661827899310157
 40
0.3861069040806661
 40
0.4009811947992825
 40
0.4071210266188163
 40
0.4155041470334123
 40
0.4238835746300437
 40
0.4322593099531177
 40
0.4406313535477614
 40
0.447060109685281
 40
0.450703871432049
 40
0.4568233906084586
 40
0.4654186585871046
 40
0.4764896626005679
 40
0.4886831005191407
 40
0.5087828225208555
 40
0.5288623887599572
 40
0.548921805980376
 40
0.5683166576804123
 40
0.5894615792851797
 40
0.6093058105585241
 40
0.6312260482744957
 40
0.6493688386827122
 40
0.6727686025463603
 40
0.7050417578792777
 40
0.7296856951091083
 40
0.7471062046402289
 40
0.7775680476671764
 40
0.8038121514189831
 40
0.8363054457198711
 40
0.8550322529840042
 40
0.8787851501868419
 40
0.8972816422286803
 40
0.9222551900830656
 40
0.9532034473794955
 40
0.9740651099158905
 40
1.0
 40
1.0
 40
1.0
 40
1.0
 10
34.89200000000001
 20
-2.269179037348631
 30
0.0
 10
34.77565905025049
 20
-2.207620908927088
 30
0.0
 10
34.5428868828478
 20
-2.08445688968206
 30
0.0
 10
34.21260999160722
 20
-1.906548607207876
 30
0.0
 10
33.89560989714908
 20
-1.734187124875937
 30
0.0
 10
33.55249408120694
 20
-1.544794450548244
 30
0.0
 10
33.281531235397
 20
-1.393402342083496
 30
0.0
 10
33.09631736119247
 20
-1.289146674716979
 30
0.0
 10
33.03030615505763
 20
-1.252030068769217
 30
0.0
 10
32.95964194034627
 20
-1.212254888968462
 30
0.0
 10
32.86986454809322
 20
-1.161648617342966
 30
0.0
 10
32.76097543120178
 20
-1.100147389591997
 30
0.0
 10
32.65388443418068
 20
-1.039521765581468
 30
0.0
 10
32.5527517245038
 20
-0.9821555776158822
 30
0.0
 10
32.46173566473241
 20
-0.93044685255348
 30
0.0
 10
32.36408272355359
 20
-0.8748782137639722
 30
0.0
 10
32.2597927482163
 20
-0.8154366883758432
 30
0.0
 10
32.14886628129036
 20
-0.7521094196177599
 30
0.0
 10
32.03130112727462
 20
-0.6848898990018322
 30
0.0
 10
31.90710618975169
 20
-0.6137548098467289
 30
0.0
 10
31.81431758285165
 20
-0.5605787898942859
 30
0.0
 10
31.70554495246975
 20
-0.4980732621226333
 30
0.0
 10
31.57369643940538
 20
-0.4220977545400479
 30
0.0
 10
31.36012767951545
 20
-0.2988856513833538
 30
0.0
 10
31.15070058133413
 20
-0.1778648592728634
 30
0.0
 10
30.979215394544
 20
-0.0787069199141675
 30
0.0
 10
30.88977598948674
 20
-0.0269810274555308
 30
0.0
 10
30.85266567605802
 20
-0.0055183993300869
 30
0.0
 10
30.84426116682478
 20
-0.0006576667549916
 30
0.0
 10
30.84324072966902
 20
-0.0000674987695032
 30
0.0
 10
30.78522323588556
 20
0.0334868318236174
 30
0.0
 10
30.63334429745194
 20
0.1211495650322656
 30
0.0
 10
30.43892296537866
 20
0.2332410459729141
 30
0.0
 10
30.25526978839033
 20
0.3389798969812063
 30
0.0
 10
30.11368919275459
 20
0.4204148012844962
 30
0.0
 10
29.95816724526151
 20
0.5097524137762607
 30
0.0
 10
29.82688330304561
 20
0.5850458079494476
 30
0.0
 10
29.72985139505035
 20
0.6406104048963419
 30
0.0
 10
29.66637232387303
 20
0.6770029661796622
 30
0.0
 10
29.53205656697294
 20
0.753976459921286
 30
0.0
 10
29.27874608438559
 20
0.8989077187063605
 30
0.0
 10
28.92598472750552
 20
1.099617691329144
 30
0.0
 10
28.56796348772902
 20
1.301775922426511
 30
0.0
 10
28.22184175500528
 20
1.495072176041823
 30
0.0
 10
27.87076534510432
 20
1.689020135443923
 30
0.0
 10
27.52377776614287
 20
1.878325271339591
 30
0.0
 10
27.26216357787606
 20
2.019387477110475
 30
0.0
 10
27.0743750236161
 20
2.11995983063293
 30
0.0
 10
26.92810552346707
 20
2.197896632804794
 30
0.0
 10
26.76757444461633
 20
2.28285747748706
 30
0.0
 10
26.60714441305169
 20
2.367191294007411
 30
0.0
 10
26.45917110053798
 20
2.444372436948035
 30
0.0
 10
26.34147593631111
 20
2.505452877467161
 30
0.0
 10
26.23801826288183
 20
2.558591923341737
 30
0.0
 10
26.12069923351655
 20
2.618511069896395
 30
0.0
 10
25.95589717024145
 20
2.701988141377801
 30
0.0
 10
25.75226579037403
 20
2.804002210481869
 30
0.0
 10
25.47508207578944
 20
2.940957476796199
 30
0.0
 10
25.14037384607686
 20
3.103212234361992
 30
0.0
 10
24.75555105429401
 20
3.285093648749312
 30
0.0
 10
24.37529438535126
 20
3.459748834562197
 30
0.0
 10
23.98859119928229
 20
3.632508431282779
 30
0.0
 10
23.60249971068631
 20
3.797783142794209
 30
0.0
 10
23.20040679206994
 20
3.963704906729365
 30
0.0
 10
22.81756363652002
 20
4.115260909755856
 30
0.0
 10
22.41242675373792
 20
4.26935858466487
 30
0.0
 10
21.94111364922251
 20
4.439831776289391
 30
0.0
 10
21.42772718711324
 20
4.611683415550463
 30
0.0
 10
20.95248413415039
 20
4.757773197966756
 30
0.0
 10
20.48929801228726
 20
4.891107549243416
 30
0.0
 10
20.01608147403459
 20
5.016094981331792
 30
0.0
 10
19.44609671511592
 20
5.149239095524958
 30
0.0
 10
18.95088122714392
 20
5.249341799440252
 30
0.0
 10
18.47179091695862
 20
5.33297963289731
 30
0.0
 10
18.08237527900264
 20
5.392024217861369
 30
0.0
 10
17.65339021526486
 20
5.446994028051788
 30
0.0
 10
17.17762018161727
 20
5.496158101933863
 30
0.0
 10
16.68680595704076
 20
5.53023533550584
 30
0.0
 10
16.1901174481095
 20
5.553762797078234
 30
0.0
 10
15.89126925719975
 20
5.550779466171385
 30
0.0
 10
15.72564605315879
 20
5.549126088842909
 30
0.0
  0
SPLINE
  5
AD
330
1F
100
AcDbEntity
  8
외형선
  6
Continuous
 62
     1
370
    15
100
AcDbSpline
210
0.0
220
0.0
230
1.0
 70
     8
 71
     3
 72
    17
 73
    13
 74
     0
 42
0.000000001
 43
0.00000001
 40
0.0
 40
0.0
 40
0.0
 40
0.0
 40
0.0742198972521766
 40
0.1838881935941988
 40
0.2900347724251908
 40
0.3969310287854058
 40
0.5022787491425638
 40
0.6083562816014936
 40
0.7166738560038061
 40
0.8257865438581935
 40
0.9126887499984725
 40
0.9999999999999999
 40
0.9999999999999999
 40
0.9999999999999999
 40
0.9999999999999999
 10
19.44497861912235
 20
5.128811214671688
 30
0.0
 10
19.83899813820948
 20
5.162537715082578
 30
0.0
 10
20.81522608096188
 20
5.246098936081587
 30
0.0
 10
22.35543728278798
 20
5.184584968197981
 30
0.0
 10
24.06888974482575
 20
4.975347453537387
 30
0.0
 10
25.75907582800916
 20
4.608891386642338
 30
0.0
 10
27.44881182843407
 20
4.102234030600959
 30
0.0
 10
29.14635047584263
 20
3.466729806895423
 30
0.0
 10
30.8643077005151
 20
2.714994658068945
 30
0.0
 10
32.48026583542322
 20
1.925381385790962
 30
0.0
 10
33.98366348933194
 20
1.142516966664669
 30
0.0
 10
34.90871354443942
 20
0.644903269224778
 30
0.0
 10
35.37232455597732
 20
0.3955122353542739
 30
0.0
  0
SPLINE
  5
AE
330
1F
100
AcDbEntity
  8
외형선
  6
Continuous
 62
     1
370
    15
100
AcDbSpline
210
0.0
220
0.0
230
1.0
 70
     8
 71
     3
 72
    46
 73
    42
 74
     0
 42
0.000000001
 43
0.00000001
 40
0.0
 40
0.0
 40
0.0
 40
0.0
 40
0.0624999999999999
 40
0.0624999999999999
 40
0.1249999999999998
 40
0.1249999999999998
 40
0.1874999999999998
 40
0.1874999999999998
 40
0.2187499999999997
 40
0.2187499999999997
 40
0.2499999999999997
 40
0.2499999999999997
 40
0.3124999999999999
 40
0.3124999999999999
 40
0.3437499999999999
 40
0.3437499999999999
 40
0.3749999999999998
 40
0.3749999999999998
 40
0.4375000000000001
 40
0.4375000000000001
 40
0.5000000000000003
 40
0.5000000000000003
 40
0.5625000000000006
 40
0.5625000000000006
 40
0.6250000000000007
 40
0.6250000000000007
 40
0.6562500000000007
 40
0.6562500000000007
 40
0.6875000000000007
 40
0.6875000000000007
 40
0.7500000000000004
 40
0.7500000000000004
 40
0.7812500000000004
 40
0.7812500000000004
 40
0.8125000000000003
 40
0.8125000000000003
 40
0.8750000000000002
 40
0.8750000000000002
 40
0.9375000000000002
 40
0.9375000000000002
 40
1.0
 40
1.0
 40
1.0
 40
1.0
 10
34.892
 20
-2.825088716471681
 30
0.0
 10
34.37320699367071
 20
-2.5672577113737
 30
0.0
 10
33.85068265400349
 20
-2.29643159581786
 30
0.0
 10
32.81851010038353
 20
-1.739445347146646
 30
0.0
 10
32.29802778115054
 20
-1.451366292708236
 30
0.0
 10
31.2589238507863
 20
-0.865392010817717
 30
0.0
 10
30.74456738620857
 20
-0.5683420413525329
 30
0.0
 10
29.96463455791798
 20
-0.1193983262991464
 30
0.0
 10
29.70429171754726
 20
0.0306131863631185
 30
0.0
 10
29.18542521899027
 20
0.3298936626543582
 30
0.0
 10
28.92807197742931
 20
0.4789378703056044
 30
0.0
 10
28.15213980502353
 20
0.9247683983272533
 30
0.0
 10
27.62944143762815
 20
1.220269495098909
 30
0.0
 10
26.85254929745709
 20
1.652300304825707
 30
0.0
 10
26.5954578051859
 20
1.794327870109238
 30
0.0
 10
26.07708933390842
 20
2.074938489372548
 30
0.0
 10
25.81683578388622
 20
2.213327345888598
 30
0.0
 10
25.03668730066294
 20
2.620688389134829
 30
0.0
 10
24.52199596667449
 20
2.881090500241787
 30
0.0
 10
23.48360256655419
 20
3.376109108797933
 30
0.0
 10
22.96127636134833
 20
3.610381456943931
 30
0.0
 10
21.93067839967978
 20
4.043559429710937
 30
0.0
 10
21.40842925921972
 20
4.244413040619285
 30
0.0
 10
20.36998250422279
 20
4.606605818703401
 30
0.0
 10
19.85532201133687
 20
4.767924306364313
 30
0.0
 10
19.07518432656247
 20
4.978578410459555
 30
0.0
 10
18.81492342669766
 20
5.043452573988683
 30
0.0
 10
18.29651859608377
 20
5.161913227206441
 30
0.0
 10
18.0394186687515
 20
5.215445012651193
 30
0.0
 10
17.26258792930387
 20
5.359253966567771
 30
0.0
 10
16.73988695438377
 20
5.432369610396798
 30
0.0
 10
15.96388580888257
 20
5.505808716453561
 30
0.0
 10
15.70655968059598
 20
5.524302377512535
 30
0.0
 10
15.18772446009135
 20
5.549325714974931
 30
0.0
 10
14.92738639645155
 20
5.555812193157175
 30
0.0
 10
14.14743507838518
 20
5.557061251715922
 30
0.0
 10
13.63306397609318
 20
5.533709596848762
 30
0.0
 10
12.59400318839239
 20
5.438965228324958
 30
0.0
 10
12.07339955864747
 20
5.367530826737076
 30
0.0
 10
11.04133709616683
 20
5.17922446830906
 30
0.0
 10
10.51882477786065
 20
5.0616398518066
 30
0.0
 10
10.0000000000004
 20
4.922794077767215
 30
0.0
  0
SPLINE
  5
AF
330
1F
100
AcDbEntity
  8
외형선
  6
Continuous
 62
     1
370
    15
100
AcDbSpline
210
0.0
220
0.0
230
1.0
 70
     8
 71
     3
 72
    12
 73
     8
 74
     0
 42
0.000000001
 43
0.00000001
 40
0.0
 40
0.0
 40
0.0
 40
0.0
 40
0.2499999999999976
 40
0.2499999999999976
 40
0.4999999999999951
 40
0.4999999999999951
 40
1.0
 40
1.0
 40
1.0
 40
1.0
 10
34.89200000000001
 20
-2.825088716471686
 30
0.0
 10
34.95674503712577
 20
-2.857265861871843
 30
0.0
 10
35.01871147940757
 20
-2.883079160701981
 30
0.0
 10
35.13765952099628
 20
-2.921865974995785
 30
0.0
 10
35.19312417756201
 20
-2.934121284187771
 30
0.0
 10
35.3366114272697
 20
-2.946294909869886
 30
0.0
 10
35.40000000000001
 20
-2.920018272812871
 30
0.0
 10
35.40000000000001
 20
-2.866067248401877
 30
0.0
  0
SPLINE
  5
B0
330
1F
100
AcDbEntity
  8
외형선
  6
Continuous
 62
     1
370
    15
100
AcDbSpline
210
0.0
220
0.0
230
1.0
 70
     8
 71
     3
 72
    11
 73
     7
 74
     0
 42
0.000000001
 43
0.00000001
 40
0.0
 40
0.0
 40
0.0
 40
0.0
 40
0.1126223876577616
 40
0.502701299974884
 40
0.9038602603230275
 40
1.0
 40
1.0
 40
1.0
 40
1.0
 10
34.15883301681217
 20
-2.445023817978653
 30
0.0
 10
34.10289244677537
 20
-2.45279451453945
 30
0.0
 10
33.85319611318057
 20
-2.487479796427574
 30
0.0
 10
33.36455980983557
 20
-2.619759164947106
 30
0.0
 10
32.87857346515971
 20
-2.784637298125371
 30
0.0
 10
32.60474514673278
 20
-2.89333772596847
 30
0.0
 10
32.5518075797365
 20
-2.914352120003854
 30
0.0
  0
SPLINE
  5
B1
330
1F
100
AcDbEntity
  8
외형선
  6
Continuous
 62
     1
370
    15
100
AcDbSpline
210
0.0
220
0.0
230
1.0
 70
     8
 71
     3
 72
    10
 73
     6
 74
     0
 42
0.000000001
 43
0.00000001
 40
0.0
 40
0.0
 40
0.0
 40
0.0
 40
0.5
 40
0.5
 40
1.0
 40
1.0
 40
1.0
 40
1.0
 10
35.40000000000001
 20
-3.248229169718011
 30
0.0
 10
34.91507762345894
 20
-3.243829137069641
 30
0.0
 10
34.4350017881471
 20
-3.215135746514194
 30
0.0
 10
33.48516135499543
 20
-3.106063738655925
 30
0.0
 10
33.01533722999525
 20
-3.025983502104228
 30
0.0
 10
32.55180757973649
 20
-2.91435212000384
 30
0.0
  0
LINE
  5
B2
330
1F
100
AcDbEntity
  8
외형선
  6
Continuous
 62
     1
370
    15
100
AcDbLine
 10
35.40000000000001
 20
-4.559975793702302
 30
0.0
 11
35.40000000000001
 21
-3.248229169718015
 31
0.0
  0
SPLINE
  5
B3
330
1F
100
AcDbEntity
  8
외형선
  6
Continuous
 62
     1
370
    15
100
AcDbSpline
210
0.0
220
0.0
230
1.0
 70
     8
 71
     3
 72
     8
 73
     4
 74
     0
 42
0.000000001
 43
0.00000001
 40
0.0
 40
0.0
 40
0.0
 40
0.0
 40
1.0
 40
1.0
 40
1.0
 40
1.0
 10
35.40000000000001
 20
-4.559975793702302
 30
0.0
 10
35.40000000000001
 20
-4.604469327114798
 30
0.0
 10
35.39079083575938
 20
-4.651854682992598
 30
0.0
 10
35.37232455597735
 20
-4.699885934741649
 30
0.0
  0
SPLINE
  5
B4
330
1F
100
AcDbEntity
  8
외형선
  6
Continuous
370
    15
100
AcDbSpline
210
0.0
220
0.0
230
1.0
 70
    24
 71
     3
 72
    11
 73
     7
 74
     0
 42
0.000000001
 43
0.00000001
 40
0.0
 40
0.0
 40
0.0
 40
0.0
 40
0.1864651510657143
 40
0.542322220491018
 40
0.9084991690371244
 40
1.0
 40
1.0
 40
1.0
 40
1.0
 10
10.00000000000001
 20
4.922794077776376
 30
0.0
 10
10.00000000000001
 20
4.79264752644997
 30
0.0
 10
10.00000000000001
 20
4.414124428159556
 30
0.0
 10
10.00000000000001
 20
3.862469204808162
 30
0.0
 10
10.00000000000001
 20
3.423807934307235
 30
0.0
 10
10.00000000000001
 20
3.254880345853074
 30
0.0
 10
10.00000000000001
 20
3.221107645040084
 30
0.0
  0
SPLINE
  5
B5
330
1F
100
AcDbEntity
  8
외형선
  6
Continuous
 62
     1
370
    15
100
AcDbSpline
210
0.0
220
0.0
230
1.0
 70
     8
 71
     3
 72
    17
 73
    13
 74
     0
 42
0.000000001
 43
0.00000001
 40
0.0
 40
0.0
 40
0.0
 40
0.0
 40
0.1061570067012297
 40
0.2122500761643475
 40
0.318211892314983
 40
0.424239522719371
 40
0.5304299092139233
 40
0.6345506011095479
 40
0.7386220424709294
 40
0.8428686598058402
 40
0.9470844747637476
 40
1.0
 40
1.0
 40
1.0
 40
1.0
 10
10.0000000000004
 20
-0.2301396808453497
 30
0.0
 10
10.52094643593076
 20
-0.5298227428113238
 30
0.0
 10
11.56252554728379
 20
-1.129008370816659
 30
0.0
 10
13.12396179297593
 20
-1.996301338803157
 30
0.0
 10
14.68416299429522
 20
-2.812247621471294
 30
0.0
 10
16.24505470623337
 20
-3.554018543198136
 30
0.0
 10
17.79782170933816
 20
-4.19781379298226
 30
0.0
 10
19.34001381251889
 20
-4.730235304478439
 30
0.0
 10
20.87247682399849
 20
-5.141569350739823
 30
0.0
 10
22.40626926019761
 20
-5.414713900813152
 30
0.0
 10
23.68887205143319
 20
-5.55206171933242
 30
0.0
 10
24.45964299340513
 20
-5.541481636700933
 30
0.0
 10
24.71920769374365
 20
-5.537918689749702
 30
0.0
  0
LINE
  5
B6
330
1F
100
AcDbEntity
  8
외형선
  6
Continuous
370
    15
100
AcDbLine
 10
10.00000000000001
 20
-0.2301396808437154
 30
0.0
 11
10.00000000000001
 21
0.3955643191477365
 31
0.0
  0
SPLINE
  5
B7
330
1F
100
AcDbEntity
  8
외형선
  6
Continuous
 62
     1
370
    15
100
AcDbSpline
210
0.0
220
0.0
230
1.0
 70
     8
 71
     3
 72
    13
 73
     9
 74
     0
 42
0.000000001
 43
0.00000001
 40
0.0
 40
0.0
 40
0.0
 40
0.0
 40
0.1824375736809412
 40
0.3657064681597185
 40
0.5515094475669685
 40
0.7381886730604975
 40
0.964025336585468
 40
1.0
 40
1.0
 40
1.0
 40
1.0
 10
10.00000000000001
 20
-5.190481873302748
 30
0.0
 10
10.45406223382395
 20
-5.203646186769059
 30
0.0
 10
11.36425574553371
 20
-5.23003480007046
 30
0.0
 10
12.73609568266377
 20
-5.135804107771468
 30
0.0
 10
14.11841978324336
 20
-4.944851300834292
 30
0.0
 10
15.60775405416096
 20
-4.6185974156396
 30
0.0
 10
16.72344601292943
 20
-4.316077565301013
 30
0.0
 10
17.37481290829172
 20
-4.074960113344245
 30
0.0
 10
17.46431516586761
 20
-4.041828929606275
 30
0.0
  0
SPLINE
  5
B8
330
1F
100
AcDbEntity
  8
외형선
  6
Continuous
370
    15
100
AcDbSpline
210
0.0
220
0.0
230
1.0
 70
    24
 71
     3
 72
    18
 73
    14
 74
     0
 42
0.000000001
 43
0.00000001
 40
0.0
 40
0.0
 40
0.0
 40
0.0
 40
0.25
 40
0.25
 40
0.4999999999999999
 40
0.4999999999999999
 40
0.625
 40
0.625
 40
0.75
 40
0.75
 40
0.875
 40
0.875
 40
1.0
 40
1.0
 40
1.0
 40
1.0
 10
10.00000000000001
 20
-0.2301396808441786
 30
0.0
 10
10.00000000000001
 20
-0.2662802085022072
 30
0.0
 10
10.00000000000001
 20
-0.3556694651547548
 30
0.0
 10
10.00000000000001
 20
-0.7161107358874144
 30
0.0
 10
10.00000000000001
 20
-0.988977956894633
 30
0.0
 10
10.00000000000001
 20
-1.588235746635582
 30
0.0
 10
10.00000000000001
 20
-1.819429673912028
 30
0.0
 10
10.00000000000001
 20
-2.346377519186716
 30
0.0
 10
10.00000000000001
 20
-2.642220241336665
 30
0.0
 10
10.00000000000001
 20
-3.291778738757888
 30
0.0
 10
10.00000000000001
 20
-3.645502639518651
 30
0.0
 10
10.00000000000001
 20
-4.393862037443221
 30
0.0
 10
10.00000000000001
 20
-4.788383234439096
 30
0.0
 10
10.00000000000001
 20
-5.190481873302744
 30
0.0
  0
LINE
  5
B9
330
1F
100
AcDbEntity
  8
외형선
  6
Continuous
 62
     1
370
    15
100
AcDbLine
 10
35.40000000000001
 20
-2.866067248401878
 30
0.0
 11
35.40000000000001
 21
0.4041982984388562
 31
0.0
  0
SPLINE
  5
BA
330
1F
100
AcDbEntity
  8
외형선
  6
Continuous
 62
     1
370
    15
100
AcDbSpline
210
0.0
220
0.0
230
1.0
 70
     8
 71
     3
 72
     8
 73
     4
 74
     0
 42
0.000000001
 43
0.00000001
 40
0.0
 40
0.0
 40
0.0
 40
0.0
 40
1.0
 40
1.0
 40
1.0
 40
1.0
 10
35.40000000000001
 20
0.4041982984388572
 30
0.0
 10
35.40000000000001
 20
0.395334209033662
 30
0.0
 10
35.39079083575938
 20
0.3921695816153888
 30
0.0
 10
35.37232455597735
 20
0.395512235354343
 30
0.0
  0
SPLINE
  5
BB
330
1F
100
AcDbEntity
  8
외형선
  6
Continuous
 62
     1
370
    15
100
AcDbSpline
210
0.0
220
0.0
230
1.0
 70
     8
 71
     3
 72
    12
 73
     8
 74
     0
 42
0.000000001
 43
0.00000001
 40
0.0
 40
0.0
 40
0.0
 40
0.0
 40
0.1474387139327005
 40
0.3605119341978098
 40
0.5734570202379948
 40
0.7866624237330918
 40
0.9999999999999999
 40
0.9999999999999999
 40
0.9999999999999999
 40
0.9999999999999999
 10
27.55143958745539
 20
4.042975877804035
 30
0.0
 10
27.91229671435543
 20
4.184921895561164
 30
0.0
 10
28.79465181172275
 20
4.532003283131171
 30
0.0
 10
30.19759620319451
 20
4.953309426562917
 30
0.0
 10
31.76120095625561
 20
5.304525535021503
 30
0.0
 10
33.32604976324937
 20
5.522160756560687
 30
0.0
 10
34.36990876763589
 20
5.544707159359869
 30
0.0
 10
34.892
 20
5.556250000000097
 30
0.0
  0
LINE
  5
BD
330
1F
100
AcDbEntity
  8
외형선
  6
Continuous
 62
     1
370
    15
100
AcDbLine
 10
35.40000000000001
 20
3.597693903290375
 30
0.0
 11
35.40000000000001
 21
5.048250000000097
 31
0.0
  0
SPLINE
  5
BE
330
1F
100
AcDbEntity
  8
외형선
  6
Continuous
 62
     1
370
    15
100
AcDbSpline
210
0.0
220
0.0
230
1.0
 70
     8
 71
     3
 72
    18
 73
    14
 74
     0
 42
0.000000001
 43
0.00000001
 40
0.0
 40
0.0
 40
0.0
 40
0.0
 40
0.2499999999999985
 40
0.2499999999999985
 40
0.3749999999999987
 40
0.3749999999999987
 40
0.499999999999999
 40
0.499999999999999
 40
0.6249999999999992
 40
0.6249999999999992
 40
0.7499999999999994
 40
0.7499999999999994
 40
1.0
 40
1.0
 40
1.0
 40
1.0
 10
35.40000000000001
 20
3.59769390329037
 30
0.0
 10
35.25273191631682
 20
3.337277505633603
 30
0.0
 10
35.0728213472641
 20
3.109277810191401
 30
0.0
 10
34.75529795630064
 20
2.814606164404521
 30
0.0
 10
34.64205769563021
 20
2.72508489241079
 30
0.0
 10
34.40776801014882
 20
2.566318068693792
 30
0.0
 10
34.28591112189009
 20
2.496295266176156
 30
0.0
 10
34.03362842636676
 20
2.373272056824599
 30
0.0
 10
33.90272896323856
 20
2.320228481361738
 30
0.0
 10
33.63950333081223
 20
2.231999798191428
 30
0.0
 10
33.50641773593211
 20
2.196380685349648
 30
0.0
 10
33.10325714596262
 20
2.112041135805253
 30
0.0
 10
32.82720534458193
 20
2.085607143105365
 30
0.0
 10
32.5518075797365
 20
2.084752686123605
 30
0.0
  0
SPLINE
  5
BF
330
1F
100
AcDbEntity
  8
외형선
  6
Continuous
 62
     1
370
    15
100
AcDbSpline
210
0.0
220
0.0
230
1.0
 70
     8
 71
     3
 72
    10
 73
     6
 74
     0
 42
0.000000001
 43
0.00000001
 40
0.0
 40
0.0
 40
0.0
 40
0.0
 40
0.5
 40
0.5
 40
1.0
 40
1.0
 40
1.0
 40
1.0
 10
35.40000000000001
 20
1.071802915337734
 30
0.0
 10
34.91507762345895
 20
1.26651258806558
 30
0.0
 10
34.43500178814713
 20
1.448951550869188
 30
0.0
 10
33.48516135499547
 20
1.787722981556617
 30
0.0
 10
33.01533722999526
 20
1.944206163214065
 30
0.0
 10
32.5518075797365
 20
2.084752686123615
 30
0.0
  0
LINE
  5
C0
330
1F
100
AcDbEntity
  8
외형선
  6
Continuous
 62
     1
370
    15
100
AcDbLine
 10
35.40000000000001
 20
0.4041982984388562
 30
0.0
 11
35.40000000000001
 21
1.071802915337734
 31
0.0
  0
LINE
  5
C1
330
1F
100
AcDbEntity
  8
외형선
  6
Continuous
 62
     1
370
    15
100
AcDbLine
 10
35.40000000000001
 20
1.071802915337734
 30
0.0
 11
35.40000000000001
 21
3.597693903290375
 31
0.0
  0
LINE
  5
C2
330
1F
100
AcDbEntity
  8
외형선
  6
Continuous
 62
     1
370
    15
100
AcDbLine
 10
35.40000000000001
 20
-2.866067248401878
 30
0.0
 11
35.40000000000001
 21
-3.248229169718012
 31
0.0
  0
LINE
  5
C4
330
1F
100
AcDbEntity
  8
중심선
 62
     1
100
AcDbLine
 10
-37.44999999999999
 20
-0.0000000000000038
 30
0.0
 11
38.4
 21
0.0000000000000039
 31
0.0
  0
LINE
  5
C5
330
1F
100
AcDbEntity
  8
참조1
100
AcDbLine
 10
0.4750000000000101
 20
0.2211007829333229
 30
0.0
 11
0.4750000000000149
 21
-39.77889921706668
 31
0.0
  0
LINE
  5
C6
330
1F
100
AcDbEntity
  8
참조1
100
AcDbLine
 10
0.4750000000000149
 20
-39.77889921706668
 30
0.0
 11
-11.49933783948571
 21
-39.77889921706667
 31
0.0
  0
CIRCLE
  5
C7
330
1F
100
AcDbEntity
  8
해칭선
100
AcDbCircle
 10
0.0
 20
0.0
 30
0.0
 40
3.000000000000001
  0
INSERT
  5
C8
330
1F
100
AcDbEntity
  8
0
  6
Continuous
 62
     7
100
AcDbBlockReference
 66
     1
  2
블럭10
 10
-13.4652729321252
 20
-51.82607351871061
 30
0.0
  0
ATTRIB
  5
C9
330
C8
100
AcDbEntity
  8
FORMAT
 62
     2
100
AcDbText
 10
-22.64656822086648
 20
-49.75070660587842
 30
0.0
 40
4.233333333333333
  1
E5104028 [ 3 FLUTE ]
 41
0.75
  7
SLDTEXTSTYLE0
 11
-22.64656822086648
 21
-51.86737327254509
 31
0.0
100
AcDbAttribute
  2
AUTOATTR0
 70
     0
 74
     1
  0
SEQEND
  5
CA
330
C8
100
AcDbEntity
  8
0
  6
Continuous
 62
     7
  0
HATCH
  5
CB
330
1F
100
AcDbEntity
  8
중심선
100
AcDbHatch
 10
0.0
 20
0.0
 30
0.0
210
0.0
220
0.0
230
1.0
  2
SOLID
 70
     1
 71
     0
 91
        1
 92
        0
 93
        4
 72
     1
 10
-7.750363627744346
 20
-35.57889921706667
 11
-11.19663887158163
 21
-35.57889921706667
 72
     1
 10
-11.19663887158163
 20
-35.57889921706667
 11
-13.32486873078565
 21
-38.11522479763927
 72
     1
 10
-13.32486873078565
 20
-38.11522479763927
 11
-9.87856040183522
 21
-38.11518536833678
 72
     1
 10
-9.87856040183522
 20
-38.11518536833678
 11
-7.750363627744346
 21
-35.57889921706667
 97
        0
 75
     0
 76
     1
 98
        1
 10
-0.0000000000000069
 20
0.2200258542094337
  0
HATCH
  5
CC
330
1F
100
AcDbEntity
  8
중심선
100
AcDbHatch
 10
0.0
 20
0.0
 30
0.0
210
0.0
220
0.0
230
1.0
  2
SOLID
 70
     1
 71
     0
 91
        1
 92
        0
 93
        4
 72
     1
 10
-2.737599636708367
 20
-35.57889921706667
 11
-6.183874880545649
 21
-35.57889921706667
 72
     1
 10
-6.183874880545649
 20
-35.57889921706667
 11
-10.71501288890306
 21
-40.97889921706669
 72
     1
 10
-10.71501288890306
 20
-40.97889921706669
 11
-7.268737645065783
 21
-40.97889921706669
 72
     1
 10
-7.268737645065783
 20
-40.97889921706669
 11
-2.737599636708366
 21
-35.57889921706667
 97
        0
 75
     0
 76
     1
 98
        1
 10
-0.0000000000000069
 20
0.2200258542094337
  0
HATCH
  5
CD
330
1F
100
AcDbEntity
  8
중심선
100
AcDbHatch
 10
0.0
 20
0.0
 30
0.0
210
0.0
220
0.0
230
1.0
  2
SOLID
 70
     1
 71
     0
 91
        1
 92
        0
 93
        4
 72
     1
 10
2.275164354327501
 20
-35.57889921706667
 11
-1.171110889509615
 21
-35.57889921706665
 72
     1
 10
-1.171110889509615
 20
-35.57889921706665
 11
-8.219547791398863
 21
-43.97889921706669
 72
     1
 10
-8.219547791398863
 20
-43.97889921706669
 11
-4.773272547561581
 21
-43.97889921706669
 72
     1
 10
-4.773272547561581
 20
-43.97889921706669
 11
2.275164354327501
 21
-35.57889921706667
 97
        0
 75
     0
 76
     1
 98
        1
 10
-0.0000000000000069
 20
0.2200258542094337
  0
HATCH
  5
CE
330
1F
100
AcDbEntity
  8
중심선
100
AcDbHatch
 10
0.0
 20
0.0
 30
0.0
210
0.0
220
0.0
230
1.0
  2
SOLID
 70
     1
 71
     0
 91
        1
 92
        0
 93
        6
 72
     3
 10
7.075054785339701
 20
-39.77889921711795
 11
3.960054785062283
 21
1.540882976769353E-10
 40
0.3939339440162628
 50
17.09539180608436
 51
320.0019657685078
 73
     0
 72
     1
 10
8.758054441040295
 20
-38.36679322170497
 11
11.06335631474133
 21
-36.43246651165705
 72
     3
 10
7.075054785286854
 20
-39.77889921706682
 11
6.600054785286829
 21
-1.278976924368180E-13
 40
0.636358354079598
 50
39.99873849337411
 51
368.4976242363724
 73
     1
 72
     1
 10
13.50038727718746
 20
-38.8188992169967
 11
5.755122092122776
 21
-38.8188992169967
 72
     1
 10
5.755122092122776
 20
-38.8188992169967
 11
5.755097047676842
 21
-40.73889921699659
 72
     1
 10
5.755097047676842
 20
-40.73889921699659
 11
10.19647681714888
 21
-40.73889921699656
 97
        0
 75
     0
 76
     1
 98
        1
 10
-0.0000000000000069
 20
0.2200258542094337
  0
DIMENSION
  5
CF
330
1F
100
AcDbEntity
  8
치수문자_일반주서
100
AcDbDimension
  2
_D
 10
35.40000000000001
 20
41.02742310188823
 30
0.0
 11
0.4750000000000227
 21
41.02742310188823
 31
0.0
 70
   160
  1
<>
 71
     2
 42
69.84999999999998
  3
SLDDIMSTYLE0
100
AcDbAlignedDimension
 13
-34.44999999999997
 23
5.556250000000008
 33
0.0
 14
35.40000000000001
 24
5.556250000000097
 34
0.0
100
AcDbRotatedDimension
1001
ACAD
1000
DSTYLE
1002
{
1070
   171
1070
     4
1070
   273
1070
     7
1002
}
  0
DIMENSION
  5
E3
330
1F
100
AcDbEntity
  8
치수문자_일반주서
100
AcDbDimension
  2
_D_1
 10
-43.27421111308416
 20
-5.55625000000005
 30
0.0
 11
-43.27421111308418
 21
0.0000000000000586
 31
0.0
 70
   160
  1
%%c<>
 71
     2
 42
11.11250000000003
 52
-270.0
  3
SLDDIMSTYLE1
100
AcDbAlignedDimension
 13
-34.44999999999997
 23
5.556250000000008
 33
0.0
 14
-34.44707381593248
 24
-5.556250000000016
 34
0.0
 50
90.0000000000002
100
AcDbRotatedDimension
1001
ACAD
1000
DSTYLE
1002
{
1070
   171
1070
     4
1070
   273
1070
     7
1002
}
  0
DIMENSION
  5
F8
330
1F
100
AcDbEntity
  8
치수문자_일반주서
100
AcDbDimension
  2
_D_2
 10
10.00000000000001
 20
23.45923899787629
 30
0.0
 11
23.51203485968526
 21
23.45923899787629
 31
0.0
 70
   160
  1
<>
 71
     2
 42
25.4
  3
SLDDIMSTYLE2
100
AcDbAlignedDimension
 13
35.40000000000001
 23
5.556250000000097
 33
0.0
 14
10.00000000000001
 24
5.511294182437739
 34
0.0
100
AcDbRotatedDimension
1001
ACAD
1000
DSTYLE
1002
{
1070
   171
1070
     4
1070
   273
1070
     7
1002
}
  0
DIMENSION
  5
10E
330
1F
100
AcDbEntity
  8
치수문자_일반주서
100
AcDbDimension
  2
_D_3
 10
45.40000000000001
 20
-5.556249999999867
 30
0.0
 11
45.39999999999991
 21
25.72275000000014
 31
0.0
 70
   160
  1
%%c<>
 71
     2
 42
11.1125
 52
-270.0
  3
SLDDIMSTYLE1
100
AcDbAlignedDimension
 13
35.40000000000001
 23
5.556250000000097
 33
0.0
 14
35.44146895098789
 24
-5.556249999999904
 34
0.0
 50
90.0000000000002
100
AcDbRotatedDimension
1001
ACAD
1000
DSTYLE
1002
{
1070
   171
1070
     4
1070
   273
1070
     7
1002
}
  0
LINE
  5
122
330
1F
100
AcDbEntity
  8
참조1
100
AcDbLine
 10
86.47300279016856
 20
7.661100782933329
 30
0.0
 11
86.47300279016856
 21
-7.218899217066675
 31
0.0
  0
LINE
  5
123
330
1F
100
AcDbEntity
  8
참조1
100
AcDbLine
 10
99.17300279016857
 20
5.661100782933329
 30
0.0
 11
86.47300279016856
 21
5.661100782933329
 31
0.0
  0
SOLID
  5
124
330
1F
100
AcDbEntity
  8
참조1
100
AcDbTrace
 10
86.47300279016856
 20
5.661100782933329
 30
0.0
 11
92.82300279016856
 21
4.645100782933329
 31
0.0
 12
92.82300279016856
 22
6.677100782933329
 32
0.0
 13
92.82300279016856
 23
6.677100782933329
 33
0.0
  0
LINE
  5
125
330
1F
100
AcDbEntity
  8
참조1
100
AcDbLine
 10
99.17300279016857
 20
-5.218899217066675
 30
0.0
 11
86.47300279016856
 21
-5.218899217066675
 31
0.0
  0
SOLID
  5
126
330
1F
100
AcDbEntity
  8
참조1
100
AcDbTrace
 10
86.47300279016856
 20
-5.218899217066675
 30
0.0
 11
92.82300279016856
 21
-6.234899217066675
 31
0.0
 12
92.82300279016856
 22
-4.202899217066675
 32
0.0
 13
92.82300279016856
 23
-4.202899217066675
 33
0.0
  0
MTEXT
  5
127
330
1F
100
AcDbEntity
  8
참조1
100
AcDbMText
 10
95.87049288263884
 20
11.20931742758326
 30
0.0
 40
3.5
 41
0.0
 71
     1
 72
     1
  1
A
  7
SLDTEXTSTYLE0
 73
     1
 44
1.0
  0
MTEXT
  5
128
330
1F
100
AcDbEntity
  8
참조1
100
AcDbMText
 10
95.87049288263884
 20
0.3293174275832595
 30
0.0
 40
3.5
 41
0.0
 71
     1
 72
     1
  1
A
  7
SLDTEXTSTYLE0
 73
     1
 44
1.0
  0
INSERT
  5
12F
330
1F
100
AcDbEntity
  8
해칭선
100
AcDbBlockReference
  2
SW_DOWELSYMBOL_0
 10
0.0
 20
0.0
 30
0.0
  0
ARC
  5
155
330
1F
100
AcDbEntity
  8
0
 62
     1
100
AcDbCircle
 10
34.892
 20
5.048250000000097
 30
0.0
 40
0.508
100
AcDbArc
 50
0.0
 51
90.00000000000001
  0
MTEXT
  5
188
102
{ACAD_REACTORS
330
189
102
}
330
1F
100
AcDbEntity
  8
0
100
AcDbMText
 10
45.07227129184812
 20
-21.58147760773252
 30
0.0
 40
3.5
 41
0.0
 71
     7
 72
     1
  1
{R0.51[.020"]}
 73
     1
 44
1.0
1001
ACAD
1000
ACAD_MTEXT_DEFINED_HEIGHT_BEGIN
1070
    46
1040
3.5
1000
ACAD_MTEXT_DEFINED_HEIGHT_END
  0
LEADER
  5
189
102
{ACAD_XDICTIONARY
360
18A
102
}
330
1F
100
AcDbEntity
  8
0
100
AcDbLeader
  3
ISO-25
 73
     0
 74
     0
 75
     1
 40
3.5
 41
29.75
 76
     3
 10
34.78552401832687
 20
-4.828787551427352
 30
0.0
 10
40.24627129184812
 20
-19.83147760773252
 30
0.0
 10
43.54827129184812
 20
-19.83147760773252
 30
0.0
340
188
213
0.0
223
1.75
233
0.0
1001
ACAD
1000
DSTYLE
1002
{
1070
    77
1070
     0
1070
   179
1070
     2
1070
   143
1040
0.0393700787401575
1070
    41
1040
3.302
1070
    44
1040
1.0
1070
    42
1040
1.0
1070
   147
1040
1.524
1070
    73
1070
     1
1070
    74
1070
     1
1070
   140
1040
3.5
1070
   284
1070
     0
1070
    78
1070
     0
1002
}
  0
LINE
  5
207
330
1F
100
AcDbEntity
  8
외형선
  6
Continuous
370
    15
100
AcDbLine
 10
-17.17799999999998
 20
3.943349999999977
 30
0.0
 11
-9.278599999999969
 21
3.943349999999977
 31
0.0
1001
PE_URL
1000

  0
LINE
  5
208
330
1F
100
AcDbEntity
  8
외형선
  6
Continuous
370
    15
100
AcDbLine
 10
-17.17799999999998
 20
3.943349999999977
 30
0.0
 11
-18.79090000000001
 21
5.556250000000002
 31
0.0
1001
PE_URL
1000

  0
LINE
  5
20A
330
1F
100
AcDbEntity
  8
외형선
  6
Continuous
370
    15
100
AcDbLine
 10
-9.278599999999969
 20
3.943349999999977
 30
0.0
 11
-7.665700000000001
 21
5.556250000000002
 31
0.0
1001
PE_URL
1000

  0
LINE
  5
20B
330
1F
100
AcDbEntity
  8
외형선
  6
Continuous
370
    15
100
AcDbLine
 10
-7.665700000000001
 20
5.556250000000002
 30
0.0
 11
7.969790863445851
 21
5.556249999999998
 31
0.0
1001
PE_URL
1000

  0
ENDSEC
  0
SECTION
  2
OBJECTS
  0
DICTIONARY
  5
C
330
0
100
AcDbDictionary
281
     1
  3
ACAD_DETAILVIEWSTYLE
350
15C
  3
ACAD_GROUP
350
D
  3
ACAD_LAYOUT
350
1A
  3
ACAD_MLINESTYLE
350
17
  3
ACAD_PLOTSETTINGS
350
19
  3
ACAD_PLOTSTYLENAME
350
E
  3
ACAD_SCALELIST
350
47
  3
ACAD_SECTIONVIEWSTYLE
350
15D
  3
AcDbVariableDictionary
350
157
  3
APPDATA
350
151
  3
DWGPROPS
350
22F
  0
DICTIONARY
  5
1FC
330
2
100
AcDbDictionary
280
     1
281
     1
  3
ACAD_LAYERSTATES
360
1FD
  0
DICTIONARY
  5
18A
330
189
100
AcDbDictionary
280
     1
281
     1
  3
*A1
360
18B
  0
DICTIONARY
  5
15C
102
{ACAD_REACTORS
330
C
102
}
330
C
100
AcDbDictionary
281
     1
  0
DICTIONARY
  5
D
102
{ACAD_REACTORS
330
C
102
}
330
C
100
AcDbDictionary
281
     1
  0
DICTIONARY
  5
1A
102
{ACAD_REACTORS
330
C
102
}
330
C
100
AcDbDictionary
281
     1
  3
Layout1
350
1E
  3
Layout2
350
26
  3
Model
350
22
  0
DICTIONARY
  5
17
102
{ACAD_REACTORS
330
C
102
}
330
C
100
AcDbDictionary
281
     1
  3
Standard
350
18
  0
DICTIONARY
  5
19
102
{ACAD_REACTORS
330
C
102
}
330
C
100
AcDbDictionary
281
     1
  0
ACDBDICTIONARYWDFLT
  5
E
102
{ACAD_REACTORS
330
C
102
}
330
C
100
AcDbDictionary
281
     1
  3
Normal
350
F
100
AcDbDictionaryWithDefault
340
F
  0
DICTIONARY
  5
47
102
{ACAD_REACTORS
330
C
102
}
330
C
100
AcDbDictionary
281
     1
  3
A0
350
48
  3
A1
350
49
  3
A2
350
4A
  3
A3
350
4B
  3
A4
350
4C
  3
A5
350
4D
  3
A6
350
4E
  3
A7
350
4F
  3
A8
350
50
  3
A9
350
51
  3
B0
350
52
  3
B1
350
53
  3
B2
350
54
  3
B3
350
55
  3
B4
350
56
  3
B5
350
57
  3
B6
350
58
  3
B7
350
59
  3
B8
350
5A
  3
B9
350
5B
  3
C0
350
5C
  3
C1
350
5D
  3
C2
350
5E
  3
C3
350
5F
  3
C4
350
60
  3
C5
350
61
  3
C6
350
62
  3
C7
350
63
  3
C8
350
64
  3
C9
350
65
  3
D0
350
66
  3
D1
350
67
  3
D2
350
68
  0
DICTIONARY
  5
15D
102
{ACAD_REACTORS
330
C
102
}
330
C
100
AcDbDictionary
281
     1
  0
DICTIONARY
  5
157
102
{ACAD_REACTORS
330
C
102
}
330
C
100
AcDbDictionary
281
     1
  0
DICTIONARY
  5
151
102
{ACAD_REACTORS
330
C
102
}
330
C
100
AcDbDictionary
281
     1
  0
XRECORD
  5
22F
102
{ACAD_REACTORS
330
C
102
}
330
C
100
AcDbXrecord
280
     1
  1
DWGPROPS COOKIE
  2

  3

  4

  6

  7

  8
12017103
  9

300
=
301
=
302
=
303
=
304
=
305
=
306
=
307
=
308
=
309
=
 40
0.0
 41
2458290.302750197
 42
2458299.391747419
  1

 90
        0
  0
DICTIONARY
  5
1FD
102
{ACAD_REACTORS
330
1FC
102
}
330
1FC
100
AcDbDictionary
281
     1
  0
SPLINE
  5
18B
102
{ACAD_REACTORS
330
18A
102
}
330
18A
100
AcDbEntity
  8
외형선
  6
Continuous
 62
     1
370
    15
100
AcDbSpline
210
0.0
220
0.0
230
1.0
 70
     8
 71
     3
 72
    29
 73
    25
 74
     0
 42
0.000000001
 43
0.00000001
 40
0.0
 40
0.0
 40
0.0
 40
0.0
 40
0.0422644495549575
 40
0.0894133481135558
 40
0.1360887908804358
 40
0.183088732683559
 40
0.2297638819666308
 40
0.2767625414519669
 40
0.323437633749297
 40
0.3704354120323877
 40
0.4171106810586105
 40
0.464107897037571
 40
0.5107833946634068
 40
0.5577805359514474
 40
0.6044561394422602
 40
0.651453806121575
 40
0.6980998941979074
 40
0.7450685450090514
 40
0.7915976398774139
 40
0.8384484734548767
 40
0.8795785645527328
 40
0.920930788652952
 40
0.9603675209920361
 40
1.0
 40
1.0
 40
1.0
 40
1.0
 10
12.38189177007194
 20
1.248479460924195
 30
0.0
 10
12.52654344348548
 20
1.258273475674198
 30
0.0
 10
12.8325640013379
 20
1.278993387077104
 30
0.0
 10
13.29773257188337
 20
1.254108412177238
 30
0.0
 10
13.78025596066385
 20
1.187861475668798
 30
0.0
 10
14.25966703328228
 20
1.076843206459327
 30
0.0
 10
14.7418375996466
 20
0.9278143507748849
 30
0.0
 10
15.22126826210304
 20
0.7422259995311946
 30
0.0
 10
15.70321466955698
 20
0.5287568400491983
 30
0.0
 10
16.18301476867187
 20
0.291415106865743
 30
0.0
 10
16.66438564818222
 20
0.0386509998105593
 30
0.0
 10
17.14481199956303
 20
-0.2211140264741509
 30
0.0
 10
17.62559449395425
 20
-0.4827611477767423
 30
0.0
 10
18.10652182376923
 20
-0.7336501666871716
 30
0.0
 10
18.58700798445997
 20
-0.9720014204249832
 30
0.0
 10
19.06797035806053
 20
-1.184275237010919
 30
0.0
 10
19.54830862416817
 20
-1.369853183592872
 30
0.0
 10
20.02843114246354
 20
-1.518172522965445
 30
0.0
 10
20.50823986679071
 20
-1.62831800107122
 30
0.0
 10
20.96857053986777
 20
-1.692379933129987
 30
0.0
 10
21.41107311362818
 20
-1.715381820442324
 30
0.0
 10
21.82821005632637
 20
-1.70162911792889
 30
0.0
 10
22.2401103516564
 20
-1.656726206160658
 30
0.0
 10
22.51072264209905
 20
-1.601263250205901
 30
0.0
 10
22.64636375622617
 20
-1.573463119154277
 30
0.0
  0
LAYOUT
  5
1E
102
{ACAD_REACTORS
330
1A
102
}
330
1A
100
AcDbPlotSettings
  1

  2
none_device
  4

  6

 40
0.0
 41
0.0
 42
0.0
 43
0.0
 44
0.0
 45
0.0
 46
0.0
 47
0.0
 48
0.0
 49
0.0
140
0.0
141
0.0
142
1.0
143
1.0
 70
   688
 72
     1
 73
     0
 74
     5
  7

 75
    16
147
1.0
148
0.0
149
0.0
100
AcDbLayout
  1
Layout1
 70
     1
 71
     1
 10
0.0
 20
0.0
 11
420.0
 21
297.0
 12
0.0
 22
0.0
 32
0.0
 14
1.000000000000000E+20
 24
1.000000000000000E+20
 34
1.000000000000000E+20
 15
-1.000000000000000E+20
 25
-1.000000000000000E+20
 35
-1.000000000000000E+20
146
0.0
 13
0.0
 23
0.0
 33
0.0
 16
1.0
 26
0.0
 36
0.0
 17
0.0
 27
1.0
 37
0.0
 76
     0
330
1B
  0
LAYOUT
  5
26
102
{ACAD_REACTORS
330
1A
102
}
330
1A
100
AcDbPlotSettings
  1

  2
none_device
  4

  6

 40
0.0
 41
0.0
 42
0.0
 43
0.0
 44
0.0
 45
0.0
 46
0.0
 47
0.0
 48
0.0
 49
0.0
140
0.0
141
0.0
142
1.0
143
1.0
 70
   688
 72
     1
 73
     0
 74
     5
  7

 75
    16
147
1.0
148
0.0
149
0.0
100
AcDbLayout
  1
Layout2
 70
     1
 71
     2
 10
0.0
 20
0.0
 11
0.0
 21
0.0
 12
0.0
 22
0.0
 32
0.0
 14
0.0
 24
0.0
 34
0.0
 15
0.0
 25
0.0
 35
0.0
146
0.0
 13
0.0
 23
0.0
 33
0.0
 16
1.0
 26
0.0
 36
0.0
 17
0.0
 27
1.0
 37
0.0
 76
     0
330
23
  0
LAYOUT
  5
22
102
{ACAD_REACTORS
330
1A
102
}
330
1A
100
AcDbPlotSettings
  1

  2
none_device
  4
ANSI_A_(11.00_x_8.50_Inches)
  6

 40
6.35
 41
19.05
 42
6.35000508
 43
19.05000254
 44
279.4
 45
215.9
 46
106.8138795406196
 47
78.97261219805539
 48
0.0
 49
0.0
140
0.0
141
0.0
142
0.0654384647974727
143
1.0
 70
  1696
 72
     0
 73
     0
 74
     0
  7

 75
     0
147
0.0235690232323232
148
0.0
149
0.0
100
AcDbLayout
  1
Model
 70
     1
 71
     0
 10
0.0
 20
0.0
 11
420.0
 21
297.0
 12
0.0
 22
0.0
 32
0.0
 14
-47.64921111308421
 24
-49.75070660587842
 34
0.0
 15
99.17300279016857
 25
45.40242310188823
 35
0.0
146
0.0
 13
0.0
 23
0.0
 33
0.0
 16
1.0
 26
0.0
 36
0.0
 17
0.0
 27
1.0
 37
0.0
 76
     0
330
1F
331
29
  0
MLINESTYLE
  5
18
102
{ACAD_REACTORS
330
17
102
}
330
17
100
AcDbMlineStyle
  2
Standard
 70
     0
  3

 62
   256
 51
90.0
 52
90.0
 71
     2
 49
0.5
 62
   256
  6
BYLAYER
 49
-0.5
 62
   256
  6
BYLAYER
  0
ACDBPLACEHOLDER
  5
F
102
{ACAD_REACTORS
330
E
102
}
330
E
  0
SCALE
  5
48
102
{ACAD_REACTORS
330
47
102
}
330
47
100
AcDbScale
 70
     0
300
1:1
140
1.0
141
1.0
290
     1
  0
SCALE
  5
49
102
{ACAD_REACTORS
330
47
102
}
330
47
100
AcDbScale
 70
     0
300
1:2
140
1.0
141
2.0
290
     0
  0
SCALE
  5
4A
102
{ACAD_REACTORS
330
47
102
}
330
47
100
AcDbScale
 70
     0
300
1:4
140
1.0
141
4.0
290
     0
  0
SCALE
  5
4B
102
{ACAD_REACTORS
330
47
102
}
330
47
100
AcDbScale
 70
     0
300
1:5
140
1.0
141
5.0
290
     0
  0
SCALE
  5
4C
102
{ACAD_REACTORS
330
47
102
}
330
47
100
AcDbScale
 70
     0
300
1:8
140
1.0
141
8.0
290
     0
  0
SCALE
  5
4D
102
{ACAD_REACTORS
330
47
102
}
330
47
100
AcDbScale
 70
     0
300
1:10
140
1.0
141
10.0
290
     0
  0
SCALE
  5
4E
102
{ACAD_REACTORS
330
47
102
}
330
47
100
AcDbScale
 70
     0
300
1:16
140
1.0
141
16.0
290
     0
  0
SCALE
  5
4F
102
{ACAD_REACTORS
330
47
102
}
330
47
100
AcDbScale
 70
     0
300
1:20
140
1.0
141
20.0
290
     0
  0
SCALE
  5
50
102
{ACAD_REACTORS
330
47
102
}
330
47
100
AcDbScale
 70
     0
300
1:30
140
1.0
141
30.0
290
     0
  0
SCALE
  5
51
102
{ACAD_REACTORS
330
47
102
}
330
47
100
AcDbScale
 70
     0
300
1:40
140
1.0
141
40.0
290
     0
  0
SCALE
  5
52
102
{ACAD_REACTORS
330
47
102
}
330
47
100
AcDbScale
 70
     0
300
1:50
140
1.0
141
50.0
290
     0
  0
SCALE
  5
53
102
{ACAD_REACTORS
330
47
102
}
330
47
100
AcDbScale
 70
     0
300
1:100
140
1.0
141
100.0
290
     0
  0
SCALE
  5
54
102
{ACAD_REACTORS
330
47
102
}
330
47
100
AcDbScale
 70
     0
300
2:1
140
2.0
141
1.0
290
     0
  0
SCALE
  5
55
102
{ACAD_REACTORS
330
47
102
}
330
47
100
AcDbScale
 70
     0
300
4:1
140
4.0
141
1.0
290
     0
  0
SCALE
  5
56
102
{ACAD_REACTORS
330
47
102
}
330
47
100
AcDbScale
 70
     0
300
8:1
140
8.0
141
1.0
290
     0
  0
SCALE
  5
57
102
{ACAD_REACTORS
330
47
102
}
330
47
100
AcDbScale
 70
     0
300
10:1
140
10.0
141
1.0
290
     0
  0
SCALE
  5
58
102
{ACAD_REACTORS
330
47
102
}
330
47
100
AcDbScale
 70
     0
300
100:1
140
100.0
141
1.0
290
     0
  0
SCALE
  5
59
102
{ACAD_REACTORS
330
47
102
}
330
47
100
AcDbScale
 70
     0
300
1/128" = 1'-0"
140
0.0078125
141
12.0
290
     0
  0
SCALE
  5
5A
102
{ACAD_REACTORS
330
47
102
}
330
47
100
AcDbScale
 70
     0
300
1/64" = 1'-0"
140
0.015625
141
12.0
290
     0
  0
SCALE
  5
5B
102
{ACAD_REACTORS
330
47
102
}
330
47
100
AcDbScale
 70
     0
300
1/32" = 1'-0"
140
0.03125
141
12.0
290
     0
  0
SCALE
  5
5C
102
{ACAD_REACTORS
330
47
102
}
330
47
100
AcDbScale
 70
     0
300
1/16" = 1'-0"
140
0.0625
141
12.0
290
     0
  0
SCALE
  5
5D
102
{ACAD_REACTORS
330
47
102
}
330
47
100
AcDbScale
 70
     0
300
3/32" = 1'-0"
140
0.09375
141
12.0
290
     0
  0
SCALE
  5
5E
102
{ACAD_REACTORS
330
47
102
}
330
47
100
AcDbScale
 70
     0
300
1/8" = 1'-0"
140
0.125
141
12.0
290
     0
  0
SCALE
  5
5F
102
{ACAD_REACTORS
330
47
102
}
330
47
100
AcDbScale
 70
     0
300
3/16" = 1'-0"
140
0.1875
141
12.0
290
     0
  0
SCALE
  5
60
102
{ACAD_REACTORS
330
47
102
}
330
47
100
AcDbScale
 70
     0
300
1/4" = 1'-0"
140
0.25
141
12.0
290
     0
  0
SCALE
  5
61
102
{ACAD_REACTORS
330
47
102
}
330
47
100
AcDbScale
 70
     0
300
3/8" = 1'-0"
140
0.375
141
12.0
290
     0
  0
SCALE
  5
62
102
{ACAD_REACTORS
330
47
102
}
330
47
100
AcDbScale
 70
     0
300
1/2" = 1'-0"
140
0.5
141
12.0
290
     0
  0
SCALE
  5
63
102
{ACAD_REACTORS
330
47
102
}
330
47
100
AcDbScale
 70
     0
300
3/4" = 1'-0"
140
0.75
141
12.0
290
     0
  0
SCALE
  5
64
102
{ACAD_REACTORS
330
47
102
}
330
47
100
AcDbScale
 70
     0
300
1" = 1'-0"
140
1.0
141
12.0
290
     0
  0
SCALE
  5
65
102
{ACAD_REACTORS
330
47
102
}
330
47
100
AcDbScale
 70
     0
300
1-1/2" = 1'-0"
140
1.5
141
12.0
290
     0
  0
SCALE
  5
66
102
{ACAD_REACTORS
330
47
102
}
330
47
100
AcDbScale
 70
     0
300
3" = 1'-0"
140
3.0
141
12.0
290
     0
  0
SCALE
  5
67
102
{ACAD_REACTORS
330
47
102
}
330
47
100
AcDbScale
 70
     0
300
6" = 1'-0"
140
6.0
141
12.0
290
     0
  0
SCALE
  5
68
102
{ACAD_REACTORS
330
47
102
}
330
47
100
AcDbScale
 70
     0
300
1'-0" = 1'-0"
140
12.0
141
12.0
290
     0
  0
ENDSEC
  0
EOF
