  0
SECTION
  2
HEADER
  9
$ACADVER
  1
AC1015
  9
$ACADMAINTVER
 70
     6
  9
$DWGCODEPAGE
  3
ANSI_949
  9
$INSBASE
 10
0.0
 20
0.0
 30
0.0
  9
$EXTMIN
 10
-41.48350881577631
 20
-49.75070660587842
 30
0.0
  9
$EXTMAX
 10
99.17300279016857
 20
43.42934797962325
 30
0.0
  9
$LIMMIN
 10
0.0
 20
0.0
  9
$LIMMAX
 10
420.0
 20
297.0
  9
$ORTHOMODE
 70
     0
  9
$REGENMODE
 70
     1
  9
$FILLMODE
 70
     1
  9
$QTEXTMODE
 70
     0
  9
$MIRRTEXT
 70
     1
  9
$LTSCALE
 40
1.0
  9
$ATTMODE
 70
     1
  9
$TEXTSIZE
 40
3.5
  9
$TRACEWID
 40
1.0
  9
$TEXTSTYLE
  7
Standard
  9
$CLAYER
  8
0
  9
$CELTYPE
  6
ByLayer
  9
$CECOLOR
 62
   256
  9
$CELTSCALE
 40
1.0
  9
$DISPSILH
 70
     0
  9
$DIMSCALE
 40
1.0
  9
$DIMASZ
 40
3.302
  9
$DIMEXO
 40
1.0
  9
$DIMDLI
 40
3.75
  9
$DIMRND
 40
0.0
  9
$DIMDLE
 40
0.0
  9
$DIMEXE
 40
1.0
  9
$DIMTP
 40
0.0
  9
$DIMTM
 40
0.0
  9
$DIMTXT
 40
3.5
  9
$DIMCEN
 40
2.5
  9
$DIMTSZ
 40
0.0
  9
$DIMTOL
 70
     0
  9
$DIMLIM
 70
     0
  9
$DIMTIH
 70
     1
  9
$DIMTOH
 70
     1
  9
$DIMSE1
 70
     0
  9
$DIMSE2
 70
     0
  9
$DIMTAD
 70
     1
  9
$DIMZIN
 70
     0
  9
$DIMBLK
  1

  9
$DIMASO
 70
     1
  9
$DIMSHO
 70
     1
  9
$DIMPOST
  1

  9
$DIMAPOST
  1

  9
$DIMALT
 70
     0
  9
$DIMALTD
 70
     3
  9
$DIMALTF
 40
0.0393700787401575
  9
$DIMLFAC
 40
1.0
  9
$DIMTOFL
 70
     1
  9
$DIMTVP
 40
0.0
  9
$DIMTIX
 70
     0
  9
$DIMSOXD
 70
     0
  9
$DIMSAH
 70
     0
  9
$DIMBLK1
  1

  9
$DIMBLK2
  1

  9
$DIMSTYLE
  2
ISO-25
  9
$DIMCLRD
 70
     0
  9
$DIMCLRE
 70
     0
  9
$DIMCLRT
 70
     0
  9
$DIMTFAC
 40
1.0
  9
$DIMGAP
 40
1.524
  9
$DIMJUST
 70
     0
  9
$DIMSD1
 70
     0
  9
$DIMSD2
 70
     0
  9
$DIMTOLJ
 70
     0
  9
$DIMTZIN
 70
     0
  9
$DIMALTZ
 70
     0
  9
$DIMALTTZ
 70
     0
  9
$DIMUPT
 70
     0
  9
$DIMDEC
 70
     2
  9
$DIMTDEC
 70
     2
  9
$DIMALTU
 70
     2
  9
$DIMALTTD
 70
     3
  9
$DIMTXSTY
  7
Standard
  9
$DIMAUNIT
 70
     0
  9
$DIMADEC
 70
     2
  9
$DIMALTRND
 40
0.0
  9
$DIMAZIN
 70
     0
  9
$DIMDSEP
 70
    44
  9
$DIMATFIT
 70
     3
  9
$DIMFRAC
 70
     0
  9
$DIMLDRBLK
  1

  9
$DIMLUNIT
 70
     2
  9
$DIMLWD
 70
    -2
  9
$DIMLWE
 70
    -2
  9
$DIMTMOVE
 70
     0
  9
$LUNITS
 70
     2
  9
$LUPREC
 70
     2
  9
$SKETCHINC
 40
1.0
  9
$FILLETRAD
 40
0.508
  9
$AUNITS
 70
     0
  9
$AUPREC
 70
     2
  9
$MENU
  1
.
  9
$ELEVATION
 40
0.0
  9
$PELEVATION
 40
0.0
  9
$THICKNESS
 40
0.0
  9
$LIMCHECK
 70
     0
  9
$CHAMFERA
 40
0.0
  9
$CHAMFERB
 40
0.0
  9
$CHAMFERC
 40
0.0
  9
$CHAMFERD
 40
0.0
  9
$SKPOLY
 70
     0
  9
$TDCREATE
 40
2458290.677560961
  9
$TDUCREATE
 40
2458290.302560961
  9
$TDUPDATE
 40
2458299.766717245
  9
$TDUUPDATE
 40
2458299.391717245
  9
$TDINDWG
 40
0.0006597569
  9
$TDUSRTIMER
 40
0.0000446065
  9
$USRTIMER
 70
     1
  9
$ANGBASE
 50
0.0
  9
$ANGDIR
 70
     0
  9
$PDMODE
 70
     0
  9
$PDSIZE
 40
-1.0
  9
$PLINEWID
 40
0.0
  9
$SPLFRAME
 70
     0
  9
$SPLINETYPE
 70
     6
  9
$SPLINESEGS
 70
     8
  9
$HANDSEED
  5
24B
  9
$SURFTAB1
 70
     6
  9
$SURFTAB2
 70
     6
  9
$SURFTYPE
 70
     6
  9
$SURFU
 70
     6
  9
$SURFV
 70
     6
  9
$UCSBASE
  2

  9
$UCSNAME
  2

  9
$UCSORG
 10
0.0
 20
0.0
 30
0.0
  9
$UCSXDIR
 10
1.0
 20
0.0
 30
0.0
  9
$UCSYDIR
 10
0.0
 20
1.0
 30
0.0
  9
$UCSORTHOREF
  2

  9
$UCSORTHOVIEW
 70
     0
  9
$UCSORGTOP
 10
0.0
 20
0.0
 30
0.0
  9
$UCSORGBOTTOM
 10
0.0
 20
0.0
 30
0.0
  9
$UCSORGLEFT
 10
0.0
 20
0.0
 30
0.0
  9
$UCSORGRIGHT
 10
0.0
 20
0.0
 30
0.0
  9
$UCSORGFRONT
 10
0.0
 20
0.0
 30
0.0
  9
$UCSORGBACK
 10
0.0
 20
0.0
 30
0.0
  9
$PUCSBASE
  2

  9
$PUCSNAME
  2

  9
$PUCSORG
 10
0.0
 20
0.0
 30
0.0
  9
$PUCSXDIR
 10
1.0
 20
0.0
 30
0.0
  9
$PUCSYDIR
 10
0.0
 20
1.0
 30
0.0
  9
$PUCSORTHOREF
  2

  9
$PUCSORTHOVIEW
 70
     0
  9
$PUCSORGTOP
 10
0.0
 20
0.0
 30
0.0
  9
$PUCSORGBOTTOM
 10
0.0
 20
0.0
 30
0.0
  9
$PUCSORGLEFT
 10
0.0
 20
0.0
 30
0.0
  9
$PUCSORGRIGHT
 10
0.0
 20
0.0
 30
0.0
  9
$PUCSORGFRONT
 10
0.0
 20
0.0
 30
0.0
  9
$PUCSORGBACK
 10
0.0
 20
0.0
 30
0.0
  9
$USERI1
 70
     0
  9
$USERI2
 70
     0
  9
$USERI3
 70
     0
  9
$USERI4
 70
     0
  9
$USERI5
 70
     0
  9
$USERR1
 40
0.0
  9
$USERR2
 40
0.0
  9
$USERR3
 40
0.0
  9
$USERR4
 40
0.0
  9
$USERR5
 40
0.0
  9
$WORLDVIEW
 70
     1
  9
$SHADEDGE
 70
     3
  9
$SHADEDIF
 70
    70
  9
$TILEMODE
 70
     1
  9
$MAXACTVP
 70
    64
  9
$PINSBASE
 10
0.0
 20
0.0
 30
0.0
  9
$PLIMCHECK
 70
     0
  9
$PEXTMIN
 10
1.000000000000000E+20
 20
1.000000000000000E+20
 30
1.000000000000000E+20
  9
$PEXTMAX
 10
-1.000000000000000E+20
 20
-1.000000000000000E+20
 30
-1.000000000000000E+20
  9
$PLIMMIN
 10
0.0
 20
0.0
  9
$PLIMMAX
 10
0.0
 20
0.0
  9
$UNITMODE
 70
     0
  9
$VISRETAIN
 70
     1
  9
$PLINEGEN
 70
     0
  9
$PSLTSCALE
 70
     1
  9
$TREEDEPTH
 70
  3020
  9
$CMLSTYLE
  2
Standard
  9
$CMLJUST
 70
     0
  9
$CMLSCALE
 40
20.0
  9
$PROXYGRAPHICS
 70
     1
  9
$MEASUREMENT
 70
     1
  9
$CELWEIGHT
370
    -1
  9
$ENDCAPS
280
     0
  9
$JOINSTYLE
280
     0
  9
$LWDISPLAY
290
     1
  9
$INSUNITS
 70
     4
  9
$HYPERLINKBASE
  1

  9
$STYLESHEET
  1

  9
$XEDIT
290
     1
  9
$CEPSNTYPE
380
     0
  9
$PSTYLEMODE
290
     1
  9
$FINGERPRINTGUID
  2
{424D6AFA-925F-4EA7-AFFE-EC7F6681D385}
  9
$VERSIONGUID
  2
{FAEB1C32-E019-11D5-929B-00C0DF256EC4}
  9
$EXTNAMES
290
     1
  9
$PSVPSCALE
 40
0.0
  9
$OLESTARTUP
290
     0
  0
ENDSEC
  0
SECTION
  2
CLASSES
  0
CLASS
  1
ACDBDICTIONARYWDFLT
  2
AcDbDictionaryWithDefault
  3
ObjectDBX Classes
 90
        0
280
     0
281
     0
  0
CLASS
  1
VISUALSTYLE
  2
AcDbVisualStyle
  3
ObjectDBX Classes
 90
     4095
280
     0
281
     0
  0
CLASS
  1
MATERIAL
  2
AcDbMaterial
  3
ObjectDBX Classes
 90
     1153
280
     0
281
     0
  0
CLASS
  1
SCALE
  2
AcDbScale
  3
ObjectDBX Classes
 90
     1153
280
     0
281
     0
  0
CLASS
  1
SUN
  2
AcDbSun
  3
SCENEOE
 90
     1153
280
     0
281
     0
  0
CLASS
  1
ACDBPLACEHOLDER
  2
AcDbPlaceHolder
  3
ObjectDBX Classes
 90
        0
280
     0
281
     0
  0
CLASS
  1
LAYOUT
  2
AcDbLayout
  3
ObjectDBX Classes
 90
        0
280
     0
281
     0
  0
CLASS
  1
TABLESTYLE
  2
AcDbTableStyle
  3
ObjectDBX Classes
 90
     4095
280
     0
281
     0
  0
CLASS
  1
MLEADERSTYLE
  2
AcDbMLeaderStyle
  3
ACDB_MLEADERSTYLE_CLASS
 90
     4095
280
     0
281
     0
  0
CLASS
  1
DICTIONARYVAR
  2
AcDbDictionaryVar
  3
ObjectDBX Classes
 90
        0
280
     0
281
     0
  0
ENDSEC
  0
SECTION
  2
TABLES
  0
TABLE
  2
VPORT
  5
8
330
0
100
AcDbSymbolTable
 70
     1
  0
VPORT
  5
29
330
8
100
AcDbSymbolTableRecord
100
AcDbViewportTableRecord
  2
*Active
 70
     0
 10
0.0
 20
0.0
 11
1.0
 21
1.0
 12
28.84474698719612
 22
-3.160679313127588
 13
0.0
 23
0.0
 14
10.0
 24
10.0
 15
10.0
 25
10.0
 16
0.0
 26
0.0
 36
1.0
 17
0.0
 27
0.0
 37
0.0
 40
95.04365567721172
 41
2.148876404494382
 42
50.0
 43
0.0
 44
0.0
 50
0.0
 51
0.0
 71
    16
 72
  2000
 73
     1
 74
     3
 75
     0
 76
     0
 77
     0
 78
     0
281
     0
 65
     1
110
0.0
120
0.0
130
0.0
111
1.0
121
0.0
131
0.0
112
0.0
122
1.0
132
0.0
 79
     0
146
0.0
  0
ENDTAB
  0
TABLE
  2
LTYPE
  5
5
330
0
100
AcDbSymbolTable
 70
     6
  0
LTYPE
  5
14
330
5
100
AcDbSymbolTableRecord
100
AcDbLinetypeTableRecord
  2
ByBlock
 70
     0
  3

 72
    65
 73
     0
 40
0.0
  0
LTYPE
  5
15
330
5
100
AcDbSymbolTableRecord
100
AcDbLinetypeTableRecord
  2
ByLayer
 70
     0
  3

 72
    65
 73
     0
 40
0.0
  0
LTYPE
  5
16
330
5
100
AcDbSymbolTableRecord
100
AcDbLinetypeTableRecord
  2
Continuous
 70
     0
  3
Solid line
 72
    65
 73
     0
 40
0.0
  0
LTYPE
  5
6A
330
5
100
AcDbSymbolTableRecord
100
AcDbLinetypeTableRecord
  2
HIDDEN
 70
     0
  3
Hidden __ __ __ __ __ __ __ __ __ __ __ __ __ __
 72
    65
 73
     2
 40
1.905
 49
1.27
 74
     0
 49
-0.635
 74
     0
  0
LTYPE
  5
6B
330
5
100
AcDbSymbolTableRecord
100
AcDbLinetypeTableRecord
  2
PHANTOM
 70
     0
  3
Phantom ______  __  __  ______  __  __  ______
 72
    65
 73
     6
 40
12.7
 49
6.35
 74
     0
 49
-1.27
 74
     0
 49
1.27
 74
     0
 49
-1.27
 74
     0
 49
1.27
 74
     0
 49
-1.27
 74
     0
  0
LTYPE
  5
6C
330
5
100
AcDbSymbolTableRecord
100
AcDbLinetypeTableRecord
  2
CENTER
 70
     0
  3
Center ____ _ ____ _ ____ _ ____ _ ____ _ ____
 72
    65
 73
     4
 40
10.16
 49
6.35
 74
     0
 49
-1.27
 74
     0
 49
1.27
 74
     0
 49
-1.27
 74
     0
  0
LTYPE
  5
6D
330
5
100
AcDbSymbolTableRecord
100
AcDbLinetypeTableRecord
  2
CENTERX2
 70
     0
  3
Center (2x) ________  __  ________  __  _____
 72
    65
 73
     4
 40
20.32
 49
12.7
 74
     0
 49
-2.54
 74
     0
 49
2.54
 74
     0
 49
-2.54
 74
     0
  0
LTYPE
  5
6E
330
5
100
AcDbSymbolTableRecord
100
AcDbLinetypeTableRecord
  2
DOT2
 70
     0
  3
Dot (.5x) ........................................
 72
    65
 73
     2
 40
0.635
 49
0.0
 74
     0
 49
-0.635
 74
     0
  0
ENDTAB
  0
TABLE
  2
LAYER
  5
2
102
{ACAD_XDICTIONARY
360
218
102
}
330
0
100
AcDbSymbolTable
 70
    18
  0
LAYER
  5
10
330
2
100
AcDbSymbolTableRecord
100
AcDbLayerTableRecord
  2
0
 70
     0
 62
     7
  6
Continuous
370
    -3
390
F
  0
LAYER
  5
6F
330
2
100
AcDbSymbolTableRecord
100
AcDbLayerTableRecord
  2
FORMAT
 70
     0
 62
     2
  6
Continuous
370
    -3
390
F
  0
LAYER
  5
70
330
2
100
AcDbSymbolTableRecord
100
AcDbLayerTableRecord
  2
외형선
 70
     0
 62
     4
  6
Continuous
370
    30
390
F
  0
LAYER
  5
71
330
2
100
AcDbSymbolTableRecord
100
AcDbLayerTableRecord
  2
숨은선
 70
     0
 62
     2
  6
HIDDEN
370
    15
390
F
  0
LAYER
  5
72
330
2
100
AcDbSymbolTableRecord
100
AcDbLayerTableRecord
  2
중심선
 70
     0
 62
     1
  6
CENTERX2
370
    -3
390
F
  0
LAYER
  5
73
330
2
100
AcDbSymbolTableRecord
100
AcDbLayerTableRecord
  2
파단선
 70
     0
 62
     4
  6
Continuous
370
    -3
390
F
  0
LAYER
  5
74
330
2
100
AcDbSymbolTableRecord
100
AcDbLayerTableRecord
  2
해칭선
 70
     0
 62
   100
  6
Continuous
370
    -3
390
F
  0
LAYER
  5
75
330
2
100
AcDbSymbolTableRecord
100
AcDbLayerTableRecord
  2
가는실선
 70
     0
 62
     4
  6
Continuous
370
    -3
390
F
  0
LAYER
  5
76
330
2
100
AcDbSymbolTableRecord
100
AcDbLayerTableRecord
  2
치수_보조선
 70
     0
 62
     4
  6
Continuous
370
    -3
390
F
  0
LAYER
  5
77
330
2
100
AcDbSymbolTableRecord
100
AcDbLayerTableRecord
  2
치수문자_일반주서
 70
     0
 62
     7
  6
Continuous
370
    15
390
F
  0
LAYER
  5
78
330
2
100
AcDbSymbolTableRecord
100
AcDbLayerTableRecord
  2
개별주서
 70
     0
 62
   100
  6
Continuous
370
    30
390
F
  0
LAYER
  5
79
330
2
100
AcDbSymbolTableRecord
100
AcDbLayerTableRecord
  2
중간선
 70
     0
 62
     2
  6
Continuous
370
    15
390
F
  0
LAYER
  5
7A
330
2
100
AcDbSymbolTableRecord
100
AcDbLayerTableRecord
  2
윤곽선
 70
     0
 62
     3
  6
Continuous
370
    40
390
F
  0
LAYER
  5
7B
330
2
100
AcDbSymbolTableRecord
100
AcDbLayerTableRecord
  2
중심마크
 70
     0
 62
   100
  6
Continuous
370
    30
390
F
  0
LAYER
  5
7C
330
2
100
AcDbSymbolTableRecord
100
AcDbLayerTableRecord
  2
가상선
 70
     0
 62
     4
  6
PHANTOM
370
    -3
390
F
  0
LAYER
  5
7D
330
2
100
AcDbSymbolTableRecord
100
AcDbLayerTableRecord
  2
특수지정선
 70
     0
 62
     5
  6
CENTERX2
370
    60
390
F
  0
LAYER
  5
7E
330
2
100
AcDbSymbolTableRecord
100
AcDbLayerTableRecord
  2
참조1
 70
     0
 62
    -4
  6
Continuous
370
    -3
390
F
  0
LAYER
  5
18A
330
2
100
AcDbSymbolTableRecord
100
AcDbLayerTableRecord
  2
Defpoints
 70
     0
 62
     7
  6
Continuous
290
     0
370
    -3
390
F
  0
ENDTAB
  0
TABLE
  2
STYLE
  5
3
330
0
100
AcDbSymbolTable
 70
     2
  0
STYLE
  5
11
330
3
100
AcDbSymbolTableRecord
100
AcDbTextStyleTableRecord
  2
Standard
 70
     0
 40
0.0
 41
1.0
 50
0.0
 71
     0
 42
3.5
  3
txt
  4

  0
STYLE
  5
94
330
3
100
AcDbSymbolTableRecord
100
AcDbTextStyleTableRecord
  2
SLDTEXTSTYLE0
 70
     0
 40
0.0
 41
0.75
 50
0.0
 71
     0
 42
3.5
  3
TXT
  4

  0
ENDTAB
  0
TABLE
  2
VIEW
  5
6
330
0
100
AcDbSymbolTable
 70
     0
  0
ENDTAB
  0
TABLE
  2
UCS
  5
7
330
0
100
AcDbSymbolTable
 70
     0
  0
ENDTAB
  0
TABLE
  2
APPID
  5
9
330
0
100
AcDbSymbolTable
 70
     2
  0
APPID
  5
12
330
9
100
AcDbSymbolTableRecord
100
AcDbRegAppTableRecord
  2
ACAD
 70
     0
  0
APPID
  5
1C2
330
9
100
AcDbSymbolTableRecord
100
AcDbRegAppTableRecord
  2
PE_URL
 70
     0
  0
ENDTAB
  0
TABLE
  2
DIMSTYLE
  5
A
330
0
100
AcDbSymbolTable
 70
     4
100
AcDbDimStyleTable
  0
DIMSTYLE
105
27
102
{ACAD_REACTORS
330
1B6
102
}
330
A
100
AcDbSymbolTableRecord
100
AcDbDimStyleTableRecord
  2
ISO-25
 70
     0
 41
2.5
 42
0.625
 43
3.75
 44
1.25
 73
     0
 74
     0
 77
     1
 78
     8
140
2.5
141
2.5
143
0.03937007874016
147
0.625
171
     3
172
     1
178
     0
271
     2
272
     2
274
     3
278
    44
283
     0
284
     8
340
11
  0
DIMSTYLE
105
D3
102
{ACAD_REACTORS
330
D2
102
}
330
A
100
AcDbSymbolTableRecord
100
AcDbDimStyleTableRecord
  2
SLDDIMSTYLE0
 70
     0
 41
3.302
 44
0.0
 45
0.000000001
 73
     0
 74
     0
 77
     1
 78
     4
 79
     1
140
3.5
143
0.0393700787401575
147
0.875
148
0.000000001
170
     1
173
     1
178
     0
271
     2
272
     2
276
     2
284
    12
340
94
  0
DIMSTYLE
105
E7
102
{ACAD_REACTORS
330
E6
330
111
102
}
330
A
100
AcDbSymbolTableRecord
100
AcDbDimStyleTableRecord
  2
SLDDIMSTYLE1
 70
     0
 41
3.302
 44
0.0
 45
0.000000001
 73
     0
 74
     0
 77
     1
 78
    12
 79
     3
140
3.5
143
0.0393700787401575
147
0.875
148
0.000000001
170
     1
172
     1
173
     1
178
     0
271
     2
272
     2
276
     2
284
    12
289
     0
340
94
  0
DIMSTYLE
105
FC
102
{ACAD_REACTORS
330
FB
102
}
330
A
100
AcDbSymbolTableRecord
100
AcDbDimStyleTableRecord
  2
SLDDIMSTYLE2
 70
     0
 41
3.302
 44
0.0
 45
0.000000001
 73
     0
 74
     0
 77
     1
 78
     4
 79
     1
140
3.5
143
0.0393700787401575
147
0.875
148
0.000000001
170
     1
172
     1
173
     1
178
     0
271
     2
272
     2
276
     2
284
    12
289
     0
340
94
  0
ENDTAB
  0
TABLE
  2
BLOCK_RECORD
  5
1
330
0
100
AcDbSymbolTable
 70
     7
  0
BLOCK_RECORD
  5
1F
330
1
100
AcDbSymbolTableRecord
100
AcDbBlockTableRecord
  2
*Model_Space
340
22
  0
BLOCK_RECORD
  5
1B
330
1
100
AcDbSymbolTableRecord
100
AcDbBlockTableRecord
  2
*Paper_Space
340
1E
  0
BLOCK_RECORD
  5
23
330
1
100
AcDbSymbolTableRecord
100
AcDbBlockTableRecord
  2
*Paper_Space0
340
26
  0
BLOCK_RECORD
  5
7F
330
1
100
AcDbSymbolTableRecord
100
AcDbBlockTableRecord
  2
블럭10
340
0
102
{BLKREFS
331
CB
102
}
  0
BLOCK_RECORD
  5
D4
330
1
100
AcDbSymbolTableRecord
100
AcDbBlockTableRecord
  2
_D
340
0
  0
BLOCK_RECORD
  5
E8
330
1
100
AcDbSymbolTableRecord
100
AcDbBlockTableRecord
  2
_D_1
340
0
  0
BLOCK_RECORD
  5
FD
330
1
100
AcDbSymbolTableRecord
100
AcDbBlockTableRecord
  2
_D_2
340
0
  0
BLOCK_RECORD
  5
112
330
1
100
AcDbSymbolTableRecord
100
AcDbBlockTableRecord
  2
_D_3
340
0
  0
BLOCK_RECORD
  5
12C
330
1
100
AcDbSymbolTableRecord
100
AcDbBlockTableRecord
  2
SW_DOWELSYMBOL_0
340
0
102
{BLKREFS
331
132
102
}
  0
ENDTAB
  0
ENDSEC
  0
SECTION
  2
BLOCKS
  0
BLOCK
  5
20
330
1F
100
AcDbEntity
  8
0
100
AcDbBlockBegin
  2
*Model_Space
 70
     0
 10
0.0
 20
0.0
 30
0.0
  3
*Model_Space
  1

  0
ENDBLK
  5
21
330
1F
100
AcDbEntity
  8
0
100
AcDbBlockEnd
  0
BLOCK
  5
1C
330
1B
100
AcDbEntity
 67
     1
  8
0
100
AcDbBlockBegin
  2
*Paper_Space
 70
     0
 10
0.0
 20
0.0
 30
0.0
  3
*Paper_Space
  1

  0
ENDBLK
  5
1D
330
1B
100
AcDbEntity
 67
     1
  8
0
100
AcDbBlockEnd
  0
BLOCK
  5
24
330
23
100
AcDbEntity
  8
0
100
AcDbBlockBegin
  2
*Paper_Space0
 70
     0
 10
0.0
 20
0.0
 30
0.0
  3
*Paper_Space0
  1

  0
ENDBLK
  5
25
330
23
100
AcDbEntity
  8
0
100
AcDbBlockEnd
  0
BLOCK
  5
80
330
7F
100
AcDbEntity
  8
0
100
AcDbBlockBegin
  2
블럭10
 70
     2
 10
0.0
 20
0.0
 30
0.0
  3
블럭10
  1

  0
ELLIPSE
  5
82
330
7F
100
AcDbEntity
  8
중심선
100
AcDbEllipse
 10
20.54032771741204
 20
12.0471743016438
 30
0.0
 11
6.600054785286829
 21
-1.261213355974178E-13
 31
0.0
210
0.0
220
0.0
230
1.0
 40
0.636358354079598
 41
0.9219305317359503
 42
6.513795318482858
  0
ELLIPSE
  5
83
330
7F
100
AcDbEntity
  8
중심선
100
AcDbEllipse
 10
20.54032771746488
 20
12.04717430159265
 30
0.0
 11
3.960054785062283
 21
1.540847449632565E-10
 31
0.0
210
0.0
220
0.0
230
1.0
 40
0.3939339440162632
 41
1.131841032648279
 42
5.62031148352944
  0
LINE
  5
84
330
7F
100
AcDbEntity
  8
중심선
100
AcDbLine
 10
2.268634060543552
 20
16.24717430164393
 30
0.0
 11
5.714909304380834
 21
16.24717430164393
 31
0.0
  0
LINE
  5
85
330
7F
100
AcDbEntity
  8
중심선
100
AcDbLine
 10
5.245725140726316
 20
7.84717430164391
 30
0.0
 11
8.692000384563599
 21
7.84717430164391
 31
0.0
  0
LINE
  5
86
330
7F
100
AcDbEntity
  8
중심선
100
AcDbLine
 10
15.74043728645272
 20
16.24717430164393
 30
0.0
 11
8.692000384563599
 21
7.84717430164391
 31
0.0
  0
LINE
  5
87
330
7F
100
AcDbEntity
  8
중심선
100
AcDbLine
 10
0.1404042013395286
 20
13.71084872107135
 30
0.0
 11
3.58671253028996
 21
13.71088815037384
 31
0.0
  0
LINE
  5
88
330
7F
100
AcDbEntity
  8
중심선
100
AcDbLine
 10
2.750260043222114
 20
10.84717430164391
 30
0.0
 11
6.196535287059397
 21
10.84717430164391
 31
0.0
  0
LINE
  5
89
330
7F
100
AcDbEntity
  8
중심선
100
AcDbLine
 10
12.29416204261559
 20
16.24717430164393
 30
0.0
 11
5.245725140726316
 21
7.84717430164391
 31
0.0
  0
LINE
  5
8A
330
7F
100
AcDbEntity
  8
중심선
100
AcDbLine
 10
10.72767329541681
 20
16.24717430164393
 30
0.0
 11
6.196535287059397
 21
10.84717430164391
 31
0.0
  0
LINE
  5
8B
330
7F
100
AcDbEntity
  8
중심선
100
AcDbLine
 10
7.28139805157953
 20
16.24717430164393
 30
0.0
 11
2.750260043222114
 21
10.84717430164391
 31
0.0
  0
LINE
  5
8C
330
7F
100
AcDbEntity
  8
중심선
100
AcDbLine
 10
5.714909304380834
 20
16.24717430164393
 30
0.0
 11
3.58671253028996
 21
13.71088815037384
 31
0.0
  0
LINE
  5
8D
330
7F
100
AcDbEntity
  8
중심선
100
AcDbLine
 10
2.268634060543552
 20
16.24717430164393
 30
0.0
 11
0.1404042013395286
 21
13.71084872107135
 31
0.0
  0
LINE
  5
8E
330
7F
100
AcDbEntity
  8
중심선
100
AcDbLine
 10
7.28139805157953
 20
16.24717430164393
 30
0.0
 11
10.72767329541681
 21
16.24717430164393
 31
0.0
  0
LINE
  5
8F
330
7F
100
AcDbEntity
  8
중심선
100
AcDbLine
 10
12.29416204261559
 20
16.24717430164393
 30
0.0
 11
15.74043728645272
 21
16.24717430164393
 31
0.0
  0
LINE
  5
90
330
7F
100
AcDbEntity
  8
중심선
100
AcDbLine
 10
19.22036997980202
 20
11.08717430171403
 30
0.0
 11
23.66174974927406
 21
11.08717430171406
 31
0.0
  0
LINE
  5
91
330
7F
100
AcDbEntity
  8
중심선
100
AcDbLine
 10
19.22039502424796
 20
13.00717430171391
 30
0.0
 11
19.22036997980202
 21
11.08717430171403
 31
0.0
  0
LINE
  5
92
330
7F
100
AcDbEntity
  8
중심선
100
AcDbLine
 10
19.22039502424796
 20
13.00717430171391
 30
0.0
 11
26.96566020931264
 21
13.00717430171391
 31
0.0
  0
LINE
  5
93
330
7F
100
AcDbEntity
  8
중심선
100
AcDbLine
 10
22.22332737316547
 20
13.45928029700563
 30
0.0
 11
24.52862924686651
 21
15.39360700705356
 31
0.0
  0
ATTDEF
  5
95
330
7F
100
AcDbEntity
  8
FORMAT
 62
     2
100
AcDbText
 10
4.408487351596664
 20
2.075366912832191
 30
0.0
 40
4.233333333333333
  1
E5104024
 41
0.75
  7
SLDTEXTSTYLE0
 11
4.408487351596664
 21
-0.0412997538344756
 31
0.0
100
AcDbAttributeDefinition
  3

  2
AUTOATTR0
 70
     0
 74
     1
  0
ENDBLK
  5
81
330
7F
100
AcDbEntity
  8
0
100
AcDbBlockEnd
  0
BLOCK
  5
D5
330
D4
100
AcDbEntity
  8
0
100
AcDbBlockBegin
  2
_D
 70
     0
 10
0.0
 20
0.0
 30
0.0
  3
_D
  1

  0
LINE
  5
D7
330
D4
100
AcDbEntity
  8
치수문자_일반주서
 62
     0
370
    -2
100
AcDbLine
 10
-28.1
 20
4.824999999999996
 30
0.0
 11
-28.1
 21
39.05434797962325
 31
0.0
  0
LINE
  5
D8
330
D4
100
AcDbEntity
  8
치수문자_일반주서
 62
     0
370
    -2
100
AcDbLine
 10
35.40000000000001
 20
4.825000000000055
 30
0.0
 11
35.40000000000001
 21
39.05434797962325
 31
0.0
  0
LINE
  5
D9
330
D4
100
AcDbEntity
  8
치수문자_일반주서
 62
     0
370
    -2
100
AcDbLine
 10
-24.798
 20
39.05434797962325
 30
0.0
 11
32.09800000000001
 21
39.05434797962325
 31
0.0
  0
SOLID
  5
DA
330
D4
100
AcDbEntity
  8
치수문자_일반주서
 62
     0
100
AcDbTrace
 10
-24.798
 20
39.60468131295659
 30
0.0
 11
-24.798
 21
38.50401464628992
 31
0.0
 12
-28.1
 22
39.05434797962325
 32
0.0
 13
-28.1
 23
39.05434797962325
 33
0.0
  0
SOLID
  5
DB
330
D4
100
AcDbEntity
  8
치수문자_일반주서
 62
     0
100
AcDbTrace
 10
32.09800000000001
 20
38.50401464628992
 30
0.0
 11
32.09800000000001
 21
39.60468131295659
 31
0.0
 12
35.40000000000001
 22
39.05434797962325
 32
0.0
 13
35.40000000000001
 23
39.05434797962325
 33
0.0
  0
MTEXT
  5
DC
330
D4
100
AcDbEntity
  8
치수문자_일반주서
 62
     0
100
AcDbMText
 10
3.650000000000002
 20
43.42934797962325
 30
0.0
 40
3.5
 41
0.0
 71
     2
 72
     1
  1
\A1;63.50 [2 1/2]
  7
SLDTEXTSTYLE0
 73
     1
 44
1.0
  0
POINT
  5
DD
330
D4
100
AcDbEntity
  8
Defpoints
 62
     0
100
AcDbPoint
 10
-28.1
 20
4.762499999999996
 30
0.0
  0
POINT
  5
DE
330
D4
100
AcDbEntity
  8
Defpoints
 62
     0
100
AcDbPoint
 10
35.40000000000001
 20
4.762500000000055
 30
0.0
  0
POINT
  5
DF
330
D4
100
AcDbEntity
  8
Defpoints
 62
     0
100
AcDbPoint
 10
35.40000000000001
 20
39.05434797962325
 30
0.0
  0
ENDBLK
  5
D6
330
D4
100
AcDbEntity
  8
0
100
AcDbBlockEnd
  0
BLOCK
  5
E9
330
E8
100
AcDbEntity
  8
0
100
AcDbBlockBegin
  2
_D_1
 70
     0
 10
0.0
 20
0.0
 30
0.0
  3
_D_1
  1

  0
LINE
  5
EB
330
E8
100
AcDbEntity
  8
치수문자_일반주서
 62
     0
370
    -2
100
AcDbLine
 10
-28.1625
 20
4.762499999999996
 30
0.0
 11
-37.10850881577618
 21
4.76249999999996
 31
0.0
  0
LINE
  5
EC
330
E8
100
AcDbEntity
  8
치수문자_일반주서
 62
     0
370
    -2
100
AcDbLine
 10
-28.16140341532074
 20
-4.762500000000009
 30
0.0
 11
-37.10850881577615
 21
-4.762500000000045
 31
0.0
  0
LINE
  5
ED
330
E8
100
AcDbEntity
  8
치수문자_일반주서
 62
     0
370
    -2
100
AcDbLine
 10
-37.10850881577618
 20
4.76249999999996
 30
0.0
 11
-37.10850881577631
 21
37.98095078202542
 31
0.0
  0
LINE
  5
EE
330
E8
100
AcDbEntity
  8
치수문자_일반주서
 62
     0
370
    -2
100
AcDbLine
 10
-37.10850881577618
 20
4.76249999999996
 30
0.0
 11
-37.10850881577615
 21
-4.762500000000045
 31
0.0
  0
LINE
  5
EF
330
E8
100
AcDbEntity
  8
치수문자_일반주서
 62
     0
370
    -2
100
AcDbLine
 10
-37.1085088157762
 20
8.06449999999996
 30
0.0
 11
-37.10850881577621
 21
11.36649999999996
 31
0.0
  0
LINE
  5
F0
330
E8
100
AcDbEntity
  8
치수문자_일반주서
 62
     0
370
    -2
100
AcDbLine
 10
-37.10850881577613
 20
-8.064500000000045
 30
0.0
 11
-37.10850881577612
 21
-11.36650000000004
 31
0.0
  0
SOLID
  5
F1
330
E8
100
AcDbEntity
  8
치수문자_일반주서
 62
     0
100
AcDbTrace
 10
-37.65884214910953
 20
8.064499999999958
 30
0.0
 11
-36.55817548244286
 21
8.064499999999962
 31
0.0
 12
-37.10850881577618
 22
4.76249999999996
 32
0.0
 13
-37.10850881577618
 23
4.76249999999996
 33
0.0
  0
SOLID
  5
F2
330
E8
100
AcDbEntity
  8
치수문자_일반주서
 62
     0
100
AcDbTrace
 10
-36.5581754824428
 20
-8.064500000000043
 30
0.0
 11
-37.65884214910947
 21
-8.064500000000047
 31
0.0
 12
-37.10850881577615
 22
-4.762500000000045
 32
0.0
 13
-37.10850881577615
 23
-4.762500000000045
 33
0.0
  0
MTEXT
  5
F3
330
E8
100
AcDbEntity
  8
치수문자_일반주서
 62
     0
100
AcDbMText
 10
-41.48350881577626
 20
24.8559507820254
 30
0.0
 40
3.5
 41
0.0
 71
     2
 72
     1
  1
\A1;%%c9.53 [3/8]
  7
SLDTEXTSTYLE0
 11
-3.729883127349606E-15
 21
1.0
 31
0.0
 73
     1
 44
1.0
  0
POINT
  5
1C7
330
E8
100
AcDbEntity
  8
Defpoints
 62
     0
100
AcDbPoint
 10
-28.1
 20
4.762499999999996
 30
0.0
  0
POINT
  5
1C8
330
E8
100
AcDbEntity
  8
Defpoints
 62
     0
100
AcDbPoint
 10
-28.09890341532074
 20
-4.762500000000009
 30
0.0
  0
POINT
  5
1C9
330
E8
100
AcDbEntity
  8
Defpoints
 62
     0
100
AcDbPoint
 10
-37.10850881577615
 20
-4.762500000000043
 30
0.0
  0
ENDBLK
  5
EA
330
E8
100
AcDbEntity
  8
0
100
AcDbBlockEnd
  0
BLOCK
  5
FE
330
FD
100
AcDbEntity
  8
0
100
AcDbBlockBegin
  2
_D_2
 70
     0
 10
0.0
 20
0.0
 30
0.0
  3
_D_2
  1

  0
LINE
  5
100
330
FD
100
AcDbEntity
  8
치수문자_일반주서
 62
     0
370
    -2
100
AcDbLine
 10
35.40000000000001
 20
4.825000000000055
 30
0.0
 11
35.40000000000001
 21
23.76607640292793
 31
0.0
  0
LINE
  5
101
330
FD
100
AcDbEntity
  8
치수문자_일반주서
 62
     0
370
    -2
100
AcDbLine
 10
10.00000000000001
 20
4.819612121208206
 30
0.0
 11
10.00000000000001
 21
23.76607640292793
 31
0.0
  0
LINE
  5
102
330
FD
100
AcDbEntity
  8
치수문자_일반주서
 62
     0
370
    -2
100
AcDbLine
 10
10.00000000000001
 20
23.76607640292793
 30
0.0
 11
-16.29149999999999
 21
23.76607640292793
 31
0.0
  0
LINE
  5
103
330
FD
100
AcDbEntity
  8
치수문자_일반주서
 62
     0
370
    -2
100
AcDbLine
 10
35.40000000000001
 20
23.76607640292793
 30
0.0
 11
10.00000000000001
 21
23.76607640292793
 31
0.0
  0
LINE
  5
104
330
FD
100
AcDbEntity
  8
치수문자_일반주서
 62
     0
370
    -2
100
AcDbLine
 10
38.70200000000001
 20
23.76607640292793
 30
0.0
 11
42.004
 21
23.76607640292793
 31
0.0
  0
LINE
  5
105
330
FD
100
AcDbEntity
  8
치수문자_일반주서
 62
     0
370
    -2
100
AcDbLine
 10
6.698000000000006
 20
23.76607640292793
 30
0.0
 11
3.396000000000006
 21
23.76607640292793
 31
0.0
  0
SOLID
  5
106
330
FD
100
AcDbEntity
  8
치수문자_일반주서
 62
     0
100
AcDbTrace
 10
38.70200000000001
 20
24.31640973626126
 30
0.0
 11
38.70200000000001
 21
23.21574306959459
 31
0.0
 12
35.40000000000001
 22
23.76607640292793
 32
0.0
 13
35.40000000000001
 23
23.76607640292793
 33
0.0
  0
SOLID
  5
107
330
FD
100
AcDbEntity
  8
치수문자_일반주서
 62
     0
100
AcDbTrace
 10
6.698000000000006
 20
23.21574306959459
 30
0.0
 11
6.698000000000006
 21
24.31640973626126
 31
0.0
 12
10.00000000000001
 22
23.76607640292793
 32
0.0
 13
10.00000000000001
 23
23.76607640292793
 33
0.0
  0
MTEXT
  5
108
330
FD
100
AcDbEntity
  8
치수문자_일반주서
 62
     0
100
AcDbMText
 10
-6.447749999999994
 20
28.14107640292793
 30
0.0
 40
3.5
 41
0.0
 71
     2
 72
     1
  1
\A1;25.40 [1]
  7
SLDTEXTSTYLE0
 73
     1
 44
1.0
  0
POINT
  5
1C4
330
FD
100
AcDbEntity
  8
Defpoints
 62
     0
100
AcDbPoint
 10
35.40000000000001
 20
4.762500000000055
 30
0.0
  0
POINT
  5
1C5
330
FD
100
AcDbEntity
  8
Defpoints
 62
     0
100
AcDbPoint
 10
10.00000000000001
 20
4.757112121208206
 30
0.0
  0
POINT
  5
1C6
330
FD
100
AcDbEntity
  8
Defpoints
 62
     0
100
AcDbPoint
 10
10.00000000000001
 20
23.76607640292793
 30
0.0
  0
ENDBLK
  5
FF
330
FD
100
AcDbEntity
  8
0
100
AcDbBlockEnd
  0
BLOCK
  5
113
330
112
100
AcDbEntity
  8
0
100
AcDbBlockBegin
  2
_D_3
 70
     0
 10
0.0
 20
0.0
 30
0.0
  3
_D_3
  1

  0
LINE
  5
115
330
112
100
AcDbEntity
  8
치수문자_일반주서
 62
     0
370
    -2
100
AcDbLine
 10
35.46250000000001
 20
4.762500000000055
 30
0.0
 11
45.40000000000001
 21
4.762500000000092
 31
0.0
  0
LINE
  5
116
330
112
100
AcDbEntity
  8
치수문자_일반주서
 62
     0
370
    -2
100
AcDbLine
 10
35.4760927351016
 20
-4.75868803056015
 30
0.0
 11
45.40000000000005
 21
-4.758688030560116
 31
0.0
  0
LINE
  5
117
330
112
100
AcDbEntity
  8
치수문자_일반주서
 62
     0
370
    -2
100
AcDbLine
 10
45.40000000000001
 20
4.762500000000092
 30
0.0
 11
45.39999999999989
 21
37.61650000000009
 31
0.0
  0
LINE
  5
118
330
112
100
AcDbEntity
  8
치수문자_일반주서
 62
     0
370
    -2
100
AcDbLine
 10
45.40000000000001
 20
4.762500000000092
 30
0.0
 11
45.40000000000005
 21
-4.758688030560116
 31
0.0
  0
LINE
  5
119
330
112
100
AcDbEntity
  8
치수문자_일반주서
 62
     0
370
    -2
100
AcDbLine
 10
45.4
 20
8.064500000000091
 30
0.0
 11
45.39999999999998
 21
11.36650000000009
 31
0.0
  0
LINE
  5
11A
330
112
100
AcDbEntity
  8
치수문자_일반주서
 62
     0
370
    -2
100
AcDbLine
 10
45.40000000000006
 20
-8.060688030560115
 30
0.0
 11
45.40000000000008
 21
-11.36268803056011
 31
0.0
  0
SOLID
  5
11B
330
112
100
AcDbEntity
  8
치수문자_일반주서
 62
     0
100
AcDbTrace
 10
44.84966666666666
 20
8.06450000000009
 30
0.0
 11
45.95033333333333
 21
8.064500000000093
 31
0.0
 12
45.40000000000001
 22
4.762500000000092
 32
0.0
 13
45.40000000000001
 23
4.762500000000092
 33
0.0
  0
SOLID
  5
11C
330
112
100
AcDbEntity
  8
치수문자_일반주서
 62
     0
100
AcDbTrace
 10
45.9503333333334
 20
-8.060688030560113
 30
0.0
 11
44.84966666666673
 21
-8.060688030560117
 31
0.0
 12
45.40000000000005
 22
-4.758688030560116
 32
0.0
 13
45.40000000000005
 23
-4.758688030560116
 33
0.0
  0
MTEXT
  5
11D
330
112
100
AcDbEntity
  8
치수문자_일반주서
 62
     0
100
AcDbMText
 10
41.02499999999994
 20
24.49150000000007
 30
0.0
 40
3.5
 41
0.0
 71
     2
 72
     1
  1
\A1;%%c9.52 [3/8]
  7
SLDTEXTSTYLE0
 11
-3.731376449448680E-15
 21
1.0
 31
0.0
 73
     1
 44
1.0
  0
POINT
  5
11E
330
112
100
AcDbEntity
  8
Defpoints
 62
     0
100
AcDbPoint
 10
35.40000000000001
 20
4.762500000000055
 30
0.0
  0
POINT
  5
11F
330
112
100
AcDbEntity
  8
Defpoints
 62
     0
100
AcDbPoint
 10
35.4135927351016
 20
-4.75868803056015
 30
0.0
  0
POINT
  5
120
330
112
100
AcDbEntity
  8
Defpoints
 62
     0
100
AcDbPoint
 10
45.40000000000005
 20
-4.758688030560113
 30
0.0
  0
ENDBLK
  5
114
330
112
100
AcDbEntity
  8
0
100
AcDbBlockEnd
  0
BLOCK
  5
12D
330
12C
100
AcDbEntity
  8
0
100
AcDbBlockBegin
  2
SW_DOWELSYMBOL_0
 70
     0
 10
0.0
 20
0.0
 30
0.0
  3
SW_DOWELSYMBOL_0
  1

  0
CIRCLE
  5
12F
330
12C
100
AcDbEntity
  8
해칭선
 62
     0
100
AcDbCircle
 10
0.0
 20
0.0
 30
0.0
 40
3.000000000000002
  0
HATCH
  5
130
330
12C
100
AcDbEntity
  8
0
  6
Continuous
 62
     0
370
     0
100
AcDbHatch
 10
0.0
 20
0.0
 30
0.0
210
0.0
220
0.0
230
1.0
  2
SOLID
 70
     1
 71
     0
 91
        1
 92
        0
 93
        3
 72
     2
 10
0.0000000000000069
 20
0.0
 40
3.000000000000002
 50
0.0
 51
90.0
 73
     1
 72
     1
 10
0.0000000000000069
 20
3.000000000000002
 11
0.0000000000000069
 21
0.0
 72
     1
 10
0.0000000000000069
 20
0.0
 11
3.000000000000009
 21
0.0
 97
        0
 75
     0
 76
     1
 98
        1
 10
0.0
 20
0.0
  0
HATCH
  5
131
330
12C
100
AcDbEntity
  8
0
  6
Continuous
 62
     0
370
     0
100
AcDbHatch
 10
0.0
 20
0.0
 30
0.0
210
0.0
220
0.0
230
1.0
  2
SOLID
 70
     1
 71
     0
 91
        1
 92
        0
 93
        3
 72
     2
 10
0.0000000000000069
 20
0.0
 40
3.000000000000002
 50
180.0
 51
270.0000000000007
 73
     1
 72
     1
 10
0.0000000000000069
 20
-3.000000000000002
 11
0.0000000000000069
 21
0.0
 72
     1
 10
0.0000000000000069
 20
0.0
 11
-2.999999999999995
 21
0.0
 97
        0
 75
     0
 76
     1
 98
        1
 10
0.0
 20
0.0
  0
ENDBLK
  5
12E
330
12C
100
AcDbEntity
  8
0
100
AcDbBlockEnd
  0
ENDSEC
  0
SECTION
  2
ENTITIES
  0
LINE
  5
96
330
1F
100
AcDbEntity
  8
외형선
  6
Continuous
370
    15
100
AcDbLine
 10
-13.0949500000001
 20
4.762499999999982
 30
0.0
 11
-27.6
 21
4.762499999999994
 31
0.0
  0
LINE
  5
97
330
1F
100
AcDbEntity
  8
외형선
  6
Continuous
370
    15
100
AcDbLine
 10
8.968672235608286
 20
-4.762500000000006
 30
0.0
 11
10.00000000000001
 21
-4.762500000000006
 31
0.0
  0
LINE
  5
98
330
1F
100
AcDbEntity
  8
외형선
  6
Continuous
370
    15
100
AcDbLine
 10
-27.6
 20
-4.762500000000006
 30
0.0
 11
8.47995462741052
 21
-4.762500000000006
 31
0.0
  0
LINE
  5
99
330
1F
100
AcDbEntity
  8
외형선
  6
Continuous
370
    15
100
AcDbLine
 10
-27.6
 20
4.762499999999992
 30
0.0
 11
-28.1
 21
4.262499999999992
 31
0.0
  0
LINE
  5
9A
330
1F
100
AcDbEntity
  8
외형선
  6
Continuous
370
    15
100
AcDbLine
 10
-28.1
 20
-4.262500000000003
 30
0.0
 11
-27.6
 21
-4.762500000000003
 31
0.0
  0
LINE
  5
9B
330
1F
100
AcDbEntity
  8
외형선
  6
Continuous
 62
     1
370
    15
100
AcDbLine
 10
18.53675529134854
 20
4.762499999999994
 30
0.0
 11
17.60709323763502
 21
4.762499999999994
 31
0.0
  0
LINE
  5
9C
330
1F
100
AcDbEntity
  8
외형선
  6
Continuous
 62
     1
370
    15
100
AcDbLine
 10
26.24509417203938
 20
-4.762500000000005
 30
0.0
 11
27.17460171428855
 21
-4.762500000000005
 31
0.0
  0
LINE
  5
9F
330
1F
100
AcDbEntity
  8
외형선
  6
Continuous
370
    15
100
AcDbLine
 10
8.47995462741052
 20
-4.754157748704054
 30
0.0
 11
8.968672235608292
 21
-4.756286662552296
 31
0.0
  0
LINE
  5
A0
330
1F
100
AcDbEntity
  8
외형선
  6
Continuous
370
    15
100
AcDbLine
 10
8.47995462741052
 20
-4.754157923212212
 30
0.0
 11
8.47995462741052
 21
-4.762500000000006
 31
0.0
  0
LINE
  5
A1
330
1F
100
AcDbEntity
  8
외형선
  6
Continuous
370
    15
100
AcDbLine
 10
8.47995462741052
 20
4.762499999999994
 30
0.0
 11
8.47995462741052
 21
4.491322349390016
 31
0.0
  0
SPLINE
  5
A2
330
1F
100
AcDbEntity
  8
외형선
  6
Continuous
370
    15
100
AcDbSpline
210
0.0
220
0.0
230
1.0
 70
     8
 71
     3
 72
    10
 73
     6
 74
     0
 42
0.000000001
 43
0.00000001
 40
0.0
 40
0.0
 40
0.0
 40
0.0
 40
0.4999999999999999
 40
0.4999999999999999
 40
1.0
 40
1.0
 40
1.0
 40
1.0
 10
10.00000000000001
 20
4.124895366032161
 30
0.0
 10
9.746199394628382
 20
4.198074211998621
 30
0.0
 10
9.4945786006179
 20
4.265210103028374
 30
0.0
 10
8.988631016063339
 20
4.38748944022891
 30
0.0
 10
8.734208661987104
 20
4.442613130013602
 30
0.0
 10
8.47995462741052
 20
4.491338576818863
 30
0.0
  0
LINE
  5
A3
330
1F
100
AcDbEntity
  8
외형선
  6
Continuous
370
    15
100
AcDbLine
 10
10.00000000000001
 20
4.124895366032161
 30
0.0
 11
10.00000000000001
 21
1.84784601303402
 31
0.0
  0
SPLINE
  5
A4
330
1F
100
AcDbEntity
  8
외형선
  6
Continuous
370
    15
100
AcDbSpline
210
0.0
220
0.0
230
1.0
 70
     8
 71
     3
 72
    10
 73
     6
 74
     0
 42
0.000000001
 43
0.00000001
 40
0.0
 40
0.0
 40
0.0
 40
0.0
 40
0.5
 40
0.5
 40
1.0
 40
1.0
 40
1.0
 40
1.0
 10
10.00000000000006
 20
1.847846013033991
 30
0.0
 10
9.746199394628423
 20
1.982782118859141
 30
0.0
 10
9.494578600617931
 20
2.114718400472556
 30
0.0
 10
8.988631016063353
 20
2.372717200533998
 30
0.0
 10
8.734208661987111
 20
2.498782040809357
 30
0.0
 10
8.47995462741052
 20
2.621092732212434
 30
0.0
  0
SPLINE
  5
A5
330
1F
100
AcDbEntity
  8
외형선
  6
Continuous
370
    15
100
AcDbSpline
210
0.0
220
0.0
230
1.0
 70
     8
 71
     3
 72
    10
 73
     6
 74
     0
 42
0.000000001
 43
0.00000001
 40
0.0
 40
0.0
 40
0.0
 40
0.0
 40
0.5
 40
0.5
 40
1.0
 40
1.0
 40
1.0
 40
1.0
 10
10.00000000000001
 20
-4.12399645807934
 30
0.0
 10
9.746199394628382
 20
-4.050769749277364
 30
0.0
 10
9.4945786006179
 20
-3.971920903874206
 30
0.0
 10
8.988631016063339
 20
-3.802951987959148
 30
0.0
 10
8.734208661987104
 20
-3.71279615530105
 30
0.0
 10
8.47995462741052
 20
-3.617515864664972
 30
0.0
  0
LINE
  5
A6
330
1F
100
AcDbEntity
  8
외형선
  6
Continuous
370
    15
100
AcDbLine
 10
10.00000000000001
 20
-4.123996458079345
 30
0.0
 11
10.00000000000001
 21
-4.762500000000006
 31
0.0
  0
LINE
  5
A7
330
1F
100
AcDbEntity
  8
외형선
  6
Continuous
370
    15
100
AcDbLine
 10
-27.6
 20
4.762499999999992
 30
0.0
 11
-27.6
 21
-4.762499999999996
 31
0.0
  0
LINE
  5
A8
330
1F
100
AcDbEntity
  8
외형선
  6
Continuous
370
    15
100
AcDbLine
 10
8.47995462741052
 20
2.621090269477153
 30
0.0
 11
8.47995462741052
 21
-3.617547595978615
 31
0.0
  0
LINE
  5
A9
330
1F
100
AcDbEntity
  8
외형선
  6
Continuous
370
    15
100
AcDbLine
 10
-28.1
 20
4.262499999999992
 30
0.0
 11
-28.1
 21
-4.262500000000003
 31
0.0
  0
SPLINE
  5
AA
330
1F
100
AcDbEntity
  8
외형선
  6
Continuous
370
    15
100
AcDbSpline
210
0.0
220
0.0
230
1.0
 70
    24
 71
     3
 72
    18
 73
    14
 74
     0
 42
0.000000001
 43
0.00000001
 40
0.0
 40
0.0
 40
0.0
 40
0.0
 40
0.25
 40
0.25
 40
0.5
 40
0.5
 40
0.625
 40
0.625
 40
0.75
 40
0.75
 40
0.875
 40
0.875
 40
1.0
 40
1.0
 40
1.0
 40
1.0
 10
10.00000000000001
 20
1.847846013034018
 30
0.0
 10
10.00000000000001
 20
1.656344364723765
 30
0.0
 10
10.00000000000001
 20
1.402949220247364
 30
0.0
 10
10.00000000000001
 20
0.7209552740427817
 30
0.0
 10
10.00000000000001
 20
0.2901763908372262
 30
0.0
 10
10.00000000000001
 20
-0.5004668906496519
 30
0.0
 10
10.00000000000001
 20
-0.7875690033696835
 30
0.0
 10
10.00000000000001
 20
-1.400874074523546
 30
0.0
 10
10.00000000000001
 20
-1.727091225082736
 30
0.0
 10
10.00000000000001
 20
-2.401976204667852
 30
0.0
 10
10.00000000000001
 20
-2.750547084514012
 30
0.0
 10
10.00000000000001
 20
-3.445777821404595
 30
0.0
 10
10.00000000000001
 20
-3.792235264501257
 30
0.0
 10
10.00000000000001
 20
-4.123996458078386
 30
0.0
  0
SPLINE
  5
AB
330
1F
100
AcDbEntity
  8
외형선
  6
Continuous
 62
     1
370
    15
100
AcDbSpline
210
0.0
220
0.0
230
1.0
 70
     8
 71
     3
 72
    20
 73
    16
 74
     0
 42
0.000000001
 43
0.00000001
 40
0.0
 40
0.0
 40
0.0
 40
0.0
 40
0.2499999999999998
 40
0.2499999999999998
 40
0.4999999999999997
 40
0.4999999999999997
 40
0.7499999999999996
 40
0.7499999999999996
 40
0.8124999999999997
 40
0.8124999999999997
 40
0.8749999999999998
 40
0.8749999999999998
 40
0.9374999999999998
 40
0.9374999999999998
 40
1.0
 40
1.0
 40
1.0
 40
1.0
 10
35.35257194313652
 20
0.3518627539538516
 30
0.0
 10
35.36762084409697
 20
0.1417916409140632
 30
0.0
 10
35.37336537285825
 20
-0.0685266666807767
 30
0.0
 10
35.3762472633081
 20
-0.4895196351503599
 30
0.0
 10
35.37359892976426
 20
-0.7001598330370462
 30
0.0
 10
35.35192192052159
 20
-1.120921668318555
 30
0.0
 10
35.33541860436517
 20
-1.332707704165374
 30
0.0
 10
35.27234461258639
 20
-1.588273836094883
 30
0.0
 10
35.25730937786646
 20
-1.639000800683682
 30
0.0
 10
35.2186961054891
 20
-1.737757204709858
 30
0.0
 10
35.1952147787557
 20
-1.785956141838388
 30
0.0
 10
35.13297590612378
 20
-1.870735137846341
 30
0.0
 10
35.09170160572315
 20
-1.908750000164099
 30
0.0
 10
34.99333111764012
 20
-1.940468321469303
 30
0.0
 10
34.93829562466743
 20
-1.931185727493416
 30
0.0
 10
34.892
 20
-1.906712702476932
 30
0.0
  0
SPLINE
  5
AC
330
1F
100
AcDbEntity
  8
외형선
  6
Continuous
 62
     1
370
    15
100
AcDbSpline
210
0.0
220
0.0
230
1.0
 70
     8
 71
     3
 72
    76
 73
    72
 74
     0
 42
0.000000001
 43
0.00000001
 40
0.0
 40
0.0
 40
0.0
 40
0.0
 40
0.0170740768273454
 40
0.0341564254240251
 40
0.0479578013613432
 40
0.0566860823684214
 40
0.0775002268791908
 40
0.0998348204676254
 40
0.1145593938528459
 40
0.1364424409162611
 40
0.1597252384318566
 40
0.1785394171610618
 40
0.1974399043748413
 40
0.2115732564376661
 40
0.2385327670477341
 40
0.2725908322227354
 40
0.2972116069470379
 40
0.3274511741759353
 40
0.355230473123714
 40
0.380549466552162
 40
0.3992486892985048
 40
0.4221309920172704
 40
0.4411663606436767
 40
0.4633570131437846
 40
0.4870473236080036
 40
0.5339196429887288
 40
0.5400520038755394
 40
0.5461829239075819
 40
0.5523124031980479
 40
0.5584404418602077
 40
0.564567040007412
 40
0.5706921977530909
 40
0.5709150037711599
 40
0.5725968973862273
 40
0.5772041959517498
 40
0.5940740242243316
 40
0.60753503424593
 40
0.6178205452821228
 40
0.6292811835852846
 40
0.6353752705487825
 40
0.6414664172381505
 40
0.647554624127863
 40
0.6536398916930816
 40
0.6597222204096566
 40
0.6658016107541286
 40
0.6706424339136868
 40
0.6801951873041003
 40
0.694459821132835
 40
0.7134362586480347
 40
0.7275019793768964
 40
0.740113313621087
 40
0.7512702588759798
 40
0.7609728151206298
 40
0.7737983623182537
 40
0.788868711460049
 40
0.8061838545618871
 40
0.8270851132738264
 40
0.8433269290955148
 40
0.854244522089552
 40
0.8675364852475165
 40
0.9143100417289894
 40
0.9204524330607099
 40
0.9266002939024567
 40
0.9327536258738721
 40
0.9389124305902826
 40
0.9450767096627116
 40
0.9512464646978945
 40
0.9517403795660357
 40
0.9552004634903843
 40
0.9644300126169467
 40
1.0
 40
1.0
 40
1.0
 40
1.0
 10
34.89200000000001
 20
-1.906712702476931
 30
0.0
 10
34.79889188785485
 20
-1.85729795910685
 30
0.0
 10
34.61263055607002
 20
-1.758444532720464
 30
0.0
 10
34.3510936634676
 20
-1.617233594187544
 30
0.0
 10
34.13492387748951
 20
-1.499678470639809
 30
0.0
 10
33.89878326456594
 20
-1.369424993852915
 30
0.0
 10
33.61603900175668
 20
-1.212294000493716
 30
0.0
 10
33.30070969061425
 20
-1.034838606747496
 30
0.0
 10
32.97933148347987
 20
-0.8530528718350582
 30
0.0
 10
32.6526892009208
 20
-0.6672339246568771
 30
0.0
 10
32.30370823881881
 20
-0.4675158765019325
 30
0.0
 10
31.97112134712026
 20
-0.2761405623553331
 30
0.0
 10
31.68866141001426
 20
-0.1126965772084505
 30
0.0
 10
31.36186474597886
 20
0.0766047401759327
 30
0.0
 10
30.95200376067281
 20
0.3128263920574455
 30
0.0
 10
30.48482345902901
 20
0.5808433007412818
 30
0.0
 10
30.00008999184146
 20
0.8575741118474567
 30
0.0
 10
29.54970751229382
 20
1.112509074364944
 30
0.0
 10
29.09538376391551
 20
1.365796311770683
 30
0.0
 10
28.70381929436771
 20
1.580331496009789
 30
0.0
 10
28.33905298424526
 20
1.777284902674645
 30
0.0
 10
28.00877192384685
 20
1.953197676082114
 30
0.0
 10
27.65948757049301
 20
2.135785607431222
 30
0.0
 10
27.30548000097192
 20
2.316459441901556
 30
0.0
 10
26.79955043134294
 20
2.56796854762125
 30
0.0
 10
26.38133020734035
 20
2.767408411112789
 30
0.0
 10
26.05903242538665
 20
2.915396284602895
 30
0.0
 10
25.95879604231324
 20
2.961004699070303
 30
0.0
 10
25.85859062728908
 20
3.006173487412517
 30
0.0
 10
25.75841947544028
 20
3.050901055635888
 30
0.0
 10
25.65826888660771
 20
3.095162679138786
 30
0.0
 10
25.59032854647246
 20
3.124935496678819
 30
0.0
 10
25.54656290338407
 20
3.143952438974315
 30
0.0
 10
25.51104477625585
 20
3.159316159710961
 30
0.0
 10
25.38474104973357
 20
3.213669836114325
 30
0.0
 10
25.19416275913182
 20
3.29407001323721
 30
0.0
 10
24.97262946351597
 20
3.384898747990362
 30
0.0
 10
24.7806291061197
 20
3.46181326558779
 30
0.0
 10
24.62884967639233
 20
3.521319067789069
 30
0.0
 10
24.49996713787562
 20
3.570931795314853
 30
0.0
 10
24.40038343234107
 20
3.608769301827804
 30
0.0
 10
24.30086306918219
 20
3.646078445837113
 30
0.0
 10
24.20140984041473
 20
3.682857860873729
 30
0.0
 10
24.10200955680782
 20
3.719087136535247
 30
0.0
 10
24.00944230668016
 20
3.752396306976126
 30
0.0
 10
23.89784021126943
 20
3.791801816725835
 30
0.0
 10
23.74155861996678
 20
3.84587845047007
 30
0.0
 10
23.50817263164106
 20
3.924052968152299
 30
0.0
 10
23.25014044246179
 20
4.006419530983989
 30
0.0
 10
23.00115186158882
 20
4.081971750900596
 30
0.0
 10
22.79487837414669
 20
4.141948153140389
 30
0.0
 10
22.61244582666514
 20
4.192892164396682
 30
0.0
 10
22.42896636336628
 20
4.242322855437111
 30
0.0
 10
22.2241527957305
 20
4.295117297037671
 30
0.0
 10
21.97769253128243
 20
4.35491258187395
 30
0.0
 10
21.68710041190158
 20
4.420397358882359
 30
0.0
 10
21.39005433898107
 20
4.481277603612837
 30
0.0
 10
21.12794888301637
 20
4.529797812526737
 30
0.0
 10
20.90737635271516
 20
4.567395358414188
 30
0.0
 10
20.52051848569688
 20
4.628326957106908
 30
0.0
 10
20.15983683313766
 20
4.673227704496147
 30
0.0
 10
19.83787197508601
 20
4.70354117501107
 30
0.0
 10
19.73729930898279
 20
4.712300692789752
 30
0.0
 10
19.63660959629131
 20
4.720361300171373
 30
0.0
 10
19.53579612180402
 20
4.727720840758392
 30
0.0
 10
19.43487918686392
 20
4.734381771966648
 30
0.0
 10
19.36481475843701
 20
4.738504122643219
 30
0.0
 10
19.30957632664736
 20
4.741559975883755
 30
0.0
 10
19.23773042307697
 20
4.74537954956168
 30
0.0
 10
18.9747086866576
 20
4.757792004230132
 30
0.0
 10
18.73058494207923
 20
4.760166842643486
 30
0.0
 10
18.53675529134854
 20
4.762052419570867
 30
0.0
  0
SPLINE
  5
AD
330
1F
100
AcDbEntity
  8
외형선
  6
Continuous
 62
     1
370
    15
100
AcDbSpline
210
0.0
220
0.0
230
1.0
 70
     8
 71
     3
 72
    17
 73
    13
 74
     0
 42
0.000000001
 43
0.00000001
 40
0.0
 40
0.0
 40
0.0
 40
0.0
 40
0.0163342252169847
 40
0.1225707308404575
 40
0.228073427334268
 40
0.3343064458420431
 40
0.4427813893085386
 40
0.5520525719368042
 40
0.6619224776309827
 40
0.7726187639752738
 40
0.8858575293570847
 40
0.9999999999999999
 40
0.9999999999999999
 40
0.9999999999999999
 40
0.9999999999999999
 10
21.72426769401113
 20
4.40290239598602
 30
0.0
 10
21.798474836488
 20
4.412087823448884
 30
0.0
 10
22.3553193495363
 20
4.481014542791204
 30
0.0
 10
23.39120415779291
 20
4.479931060038242
 30
0.0
 10
24.83546843719192
 20
4.388327476541413
 30
0.0
 10
26.29012268320592
 20
4.148460515080012
 30
0.0
 10
27.76227409860646
 20
3.778623746086868
 30
0.0
 10
29.25049613885443
 20
3.28100403119765
 30
0.0
 10
30.74872104919909
 20
2.672474968649762
 30
0.0
 10
32.26498260495426
 20
1.966961182770798
 30
0.0
 10
33.80082054707636
 20
1.185745937010208
 30
0.0
 10
34.83395278226358
 20
0.630559327232714
 30
0.0
 10
35.35257194313525
 20
0.3518627539544503
 30
0.0
  0
SPLINE
  5
AE
330
1F
100
AcDbEntity
  8
외형선
  6
Continuous
 62
     1
370
    15
100
AcDbSpline
210
0.0
220
0.0
230
1.0
 70
     8
 71
     3
 72
    73
 73
    69
 74
     0
 42
0.000000001
 43
0.00000001
 40
0.0
 40
0.0
 40
0.0
 40
0.0
 40
0.0135881149325886
 40
0.0322542127519155
 40
0.0455951148133946
 40
0.0573016888710154
 40
0.0831351373503028
 40
0.0981570895384195
 40
0.1165395039282942
 40
0.1318314978821822
 40
0.149658277512356
 40
0.1686898018701715
 40
0.2063445084600271
 40
0.2112709181821565
 40
0.2161961703988703
 40
0.2211202652011002
 40
0.2260432026798419
 40
0.2309649829261549
 40
0.2358856060311631
 40
0.236064596422719
 40
0.2374157394953122
 40
0.2411169959614263
 40
0.2546693109313629
 40
0.2654831642367273
 40
0.2737459919064308
 40
0.2829528538238574
 40
0.2878485163294914
 40
0.2927418167766319
 40
0.2976327555464456
 40
0.3025213330206518
 40
0.3074075495815237
 40
0.3122914056118877
 40
0.3161802633016242
 40
0.3238544328777124
 40
0.3353138743395029
 40
0.3505585260286747
 40
0.3618581713255418
 40
0.3719894406052956
 40
0.3809523318558547
 40
0.3887468450603929
 40
0.3990502015831661
 40
0.4111569115283963
 40
0.4250669684820635
 40
0.4418579184118087
 40
0.4549057218502551
 40
0.4636763302417088
 40
0.4743543802701926
 40
0.5119297460462808
 40
0.5168642136897946
 40
0.5218030752441519
 40
0.5267463320104865
 40
0.5316939852864646
 40
0.5366460363662965
 40
0.5416024865407467
 40
0.5419992712699178
 40
0.5447789171059448
 40
0.5521934417143689
 40
0.5818457901704719
 40
0.6020995059750724
 40
0.6297309142725596
 40
0.6514587118632101
 40
0.6744610892179748
 40
0.6943524040271889
 40
0.7555132906783669
 40
0.8193176852866342
 40
0.8759905725026912
 40
0.9388499756228259
 40
0.9999999999999999
 40
0.9999999999999999
 40
0.9999999999999999
 40
0.9999999999999999
 10
30.36033139660962
 20
-4.411457812261708
 30
0.0
 10
30.26804947911088
 20
-4.431053908607168
 30
0.0
 10
30.04899918295683
 20
-4.477569312971145
 30
0.0
 10
29.74003745136311
 20
-4.535224463696842
 30
0.0
 10
29.44344128405035
 20
-4.58433438668033
 30
0.0
 10
29.09798565891947
 20
-4.635333567285861
 30
0.0
 10
28.74109726832654
 20
-4.678833082220955
 30
0.0
 10
28.3390547998118
 20
-4.716393408430632
 30
0.0
 10
28.00877149732746
 20
-4.73953481644472
 30
0.0
 10
27.65948769511483
 20
-4.755625926429754
 30
0.0
 10
27.30547996285791
 20
-4.763540244987345
 30
0.0
 10
26.79955045378254
 20
-4.761612168352131
 30
0.0
 10
26.38133020646866
 20
-4.743155600861226
 30
0.0
 10
26.05903242544797
 20
-4.719176703112598
 30
0.0
 10
25.95879604229682
 20
-4.711018195657613
 30
0.0
 10
25.85859062729345
 20
-4.702162420017319
 30
0.0
 10
25.75841947543921
 20
-4.692609471504622
 30
0.0
 10
25.65826888660764
 20
-4.682365428832389
 30
0.0
 10
25.5903285465367
 20
-4.67493108281023
 30
0.0
 10
25.54656290364989
 20
-4.669999972290985
 30
0.0
 10
25.51104477679179
 20
-4.665971626380479
 30
0.0
 10
25.38474105021673
 20
-4.651197286064323
 30
0.0
 10
25.19416275897483
 20
-4.626634592786687
 30
0.0
 10
24.97262946303817
 20
-4.594354529592839
 30
0.0
 10
24.78062910563023
 20
-4.5638514079207
 30
0.0
 10
24.62884967634011
 20
-4.537899368176199
 30
0.0
 10
24.49996713787377
 20
-4.514608271853747
 30
0.0
 10
24.40038343233908
 20
-4.495940246360424
 30
0.0
 10
24.30086306918031
 20
-4.476615627043932
 30
0.0
 10
24.20140984041315
 20
-4.456634722571088
 30
0.0
 10
24.10200955680719
 20
-4.436009766760086
 30
0.0
 10
24.00944230611048
 20
-4.416152174255207
 30
0.0
 10
23.89784020994372
 20
-4.391682997596351
 30
0.0
 10
23.74155861807152
 20
-4.356283637178139
 30
0.0
 10
23.50817263031464
 20
-4.300529119574735
 30
0.0
 10
23.25014044243931
 20
-4.234491508705892
 30
0.0
 10
23.00115186286327
 20
-4.166579725273595
 30
0.0
 10
22.79487837596763
 20
-4.107492370860887
 30
0.0
 10
22.61244582793999
 20
-4.053033273257172
 30
0.0
 10
22.42896636376108
 20
-3.996245602112337
 30
0.0
 10
22.22415279541763
 20
-3.930642705946553
 30
0.0
 10
21.97769253094308
 20
-3.848670246852921
 30
0.0
 10
21.6871004111578
 20
-3.747814671040715
 30
0.0
 10
21.39005433773549
 20
-3.639701530236256
 30
0.0
 10
21.12794888159427
 20
-3.540010924991796
 30
0.0
 10
20.9073763518519
 20
-3.453528289355562
 30
0.0
 10
20.52051848549759
 20
-3.297657484701509
 30
0.0
 10
20.15983683315883
 20
-3.143121917785908
 30
0.0
 10
19.83787197506492
 20
-2.999397467027073
 30
0.0
 10
19.73729930901057
 20
-2.954115962618995
 30
0.0
 10
19.63660959613064
 20
-2.908393711407223
 30
0.0
 10
19.53579612235289
 20
-2.862246151836827
 30
0.0
 10
19.43487918477341
 20
-2.815651687265533
 30
0.0
 10
19.3648147630348
 20
-2.783127140248825
 30
0.0
 10
19.30957632232995
 20
-2.757258595156696
 30
0.0
 10
19.2377306591616
 20
-2.723352659169169
 30
0.0
 10
18.96739397170576
 20
-2.594704984102952
 30
0.0
 10
18.57866483666158
 20
-2.403552112385674
 30
0.0
 10
18.05241225098016
 20
-2.13638055609429
 30
0.0
 10
17.5796864853327
 20
-1.889552831177025
 30
0.0
 10
17.08854671180539
 20
-1.625884902478228
 30
0.0
 10
16.65038784656374
 20
-1.38486139645591
 30
0.0
 10
15.94420948096147
 20
-0.9916906603475241
 30
0.0
 10
14.96055547513812
 20
-0.430920281954312
 30
0.0
 10
13.72762118618051
 20
0.2832972411145595
 30
0.0
 10
12.48369508056251
 20
0.9969113858702164
 30
0.0
 10
11.25691209360539
 20
1.681477322494244
 30
0.0
 10
10.41510279051759
 20
2.115620232194436
 30
0.0
 10
9.999999999998957
 20
2.329699516706255
 30
0.0
  0
SPLINE
  5
AF
330
1F
100
AcDbEntity
  8
외형선
  6
Continuous
 62
     1
370
    15
100
AcDbSpline
210
0.0
220
0.0
230
1.0
 70
     8
 71
     3
 72
    56
 73
    52
 74
     0
 42
0.000000001
 43
0.00000001
 40
0.0
 40
0.0
 40
0.0
 40
0.0
 40
0.0312500000000001
 40
0.0312500000000001
 40
0.0625000000000002
 40
0.0625000000000002
 40
0.1250000000000004
 40
0.1250000000000004
 40
0.1875000000000007
 40
0.1875000000000007
 40
0.2187500000000008
 40
0.2187500000000008
 40
0.2500000000000009
 40
0.2500000000000009
 40
0.2812500000000009
 40
0.2812500000000009
 40
0.312500000000001
 40
0.312500000000001
 40
0.3750000000000011
 40
0.3750000000000011
 40
0.4062500000000011
 40
0.4062500000000011
 40
0.4375000000000012
 40
0.4375000000000012
 40
0.4687500000000012
 40
0.4687500000000012
 40
0.5000000000000013
 40
0.5000000000000013
 40
0.5625000000000014
 40
0.5625000000000014
 40
0.6250000000000016
 40
0.6250000000000016
 40
0.6562500000000017
 40
0.6562500000000017
 40
0.6875000000000018
 40
0.6875000000000018
 40
0.7187500000000018
 40
0.7187500000000018
 40
0.7500000000000018
 40
0.7500000000000018
 40
0.8125000000000016
 40
0.8125000000000016
 40
0.8437500000000013
 40
0.8437500000000013
 40
0.8750000000000011
 40
0.8750000000000011
 40
0.9062500000000008
 40
0.9062500000000008
 40
0.9375000000000006
 40
0.9375000000000006
 40
1.0
 40
1.0
 40
1.0
 40
1.0
 10
9.999999999998957
 20
3.893524976538935
 30
0.0
 10
10.26441748768517
 20
3.823277034554013
 30
0.0
 10
10.52978385612424
 20
3.746940845355018
 30
0.0
 10
11.05874574019045
 20
3.583144514985418
 30
0.0
 10
11.32092642141377
 20
3.495857231348796
 30
0.0
 10
12.111646607469
 20
3.217868959589256
 30
0.0
 10
12.64503634649602
 20
3.010732067484382
 30
0.0
 10
13.69506837681022
 20
2.564343077529981
 30
0.0
 10
14.22803355400957
 20
2.322811367253125
 30
0.0
 10
15.0191562513257
 20
1.942586309375755
 30
0.0
 10
15.28117854146116
 20
1.812944076914428
 30
0.0
 10
15.80997702674129
 20
1.547707421324737
 30
0.0
 10
16.07534261757494
 20
1.412336804902976
 30
0.0
 10
16.60433791695673
 20
1.137960764969659
 30
0.0
 10
16.86655841518787
 20
0.9992090069794981
 30
0.0
 10
17.39364540979804
 20
0.7186064978293547
 30
0.0
 10
17.65876859854713
 20
0.576703708125034
 30
0.0
 10
18.4533910292839
 20
0.1491157178804603
 30
0.0
 10
18.9776046566471
 20
-0.1376195133396651
 30
0.0
 10
19.77210989931245
 20
-0.5652924084780934
 30
0.0
 10
20.03731050113132
 20
-0.7072621998488072
 30
0.0
 10
20.56478172811879
 20
-0.9880727367197571
 30
0.0
 10
20.82677542902658
 20
-1.126871216107298
 30
0.0
 10
21.3555367606569
 20
-1.401415695642372
 30
0.0
 10
21.62090123805149
 20
-1.536908330494711
 30
0.0
 10
22.14992928836617
 20
-1.802458978353961
 30
0.0
 10
22.4121915970777
 20
-1.93229299937503
 30
0.0
 10
23.20273141025669
 20
-2.312932352458827
 30
0.0
 10
23.73614072502434
 20
-2.554938302025462
 30
0.0
 10
24.78648805214907
 20
-3.002280214562563
 30
0.0
 10
25.31911608167851
 20
-3.209833561548771
 30
0.0
 10
26.11040607832104
 20
-3.488724859440519
 30
0.0
 10
26.37237318442044
 20
-3.576276322233706
 30
0.0
 10
26.90109669899915
 20
-3.740650435528253
 30
0.0
 10
27.1664597271258
 20
-3.817299743106103
 30
0.0
 10
27.6955198638533
 20
-3.958455836485363
 30
0.0
 10
27.95782597634327
 20
-4.022864666095262
 30
0.0
 10
28.48479140982661
 20
-4.139352207831942
 30
0.0
 10
28.74988835879173
 20
-4.191435769308206
 30
0.0
 10
29.54453749464312
 20
-4.328025330693628
 30
0.0
 10
30.06876555097573
 20
-4.392700077578148
 30
0.0
 10
30.86322680823844
 20
-4.449026436628327
 30
0.0
 10
31.12844786759416
 20
-4.460972144494296
 30
0.0
 10
31.65602931122923
 20
-4.471092236411859
 30
0.0
 10
31.91797181705055
 20
-4.469299068042316
 30
0.0
 10
32.44665685133437
 20
-4.45197491917157
 30
0.0
 10
32.71201809437029
 20
-4.436423967577404
 30
0.0
 10
33.24110965285595
 20
-4.391748813838286
 30
0.0
 10
33.50346156223962
 20
-4.362692896908995
 30
0.0
 10
34.29381706567554
 20
-4.255492555780022
 30
0.0
 10
34.82724322487203
 20
-4.156925666466275
 30
0.0
 10
35.35257194313525
 20
-4.034036839483442
 30
0.0
  0
SPLINE
  5
B0
330
1F
100
AcDbEntity
  8
외형선
  6
Continuous
 62
     1
370
    15
100
AcDbSpline
210
0.0
220
0.0
230
1.0
 70
     8
 71
     3
 72
    23
 73
    19
 74
     0
 42
0.000000001
 43
0.00000001
 40
0.0
 40
0.0
 40
0.0
 40
0.0
 40
0.0073921497847236
 40
0.0738559503921646
 40
0.1403000542419043
 40
0.2067065819240136
 40
0.2730945492576728
 40
0.3382958654790906
 40
0.4035230341072383
 40
0.4688000909410537
 40
0.5340642329896202
 40
0.6006161378551012
 40
0.6671497080338915
 40
0.7336833994056907
 40
0.8002356671597942
 40
0.8668248607726835
 40
0.9334334871801109
 40
1.0
 40
1.0
 40
1.0
 40
1.0
 10
11.38744129966352
 20
3.466231200753966
 30
0.0
 10
11.44535717386215
 20
3.491014270755501
 30
0.0
 10
12.02400236589714
 20
3.738625215055015
 30
0.0
 10
13.12348084459429
 20
4.093022069414147
 30
0.0
 10
14.68517465658367
 20
4.495513451462434
 30
0.0
 10
16.2460920156318
 20
4.725391444737039
 30
0.0
 10
17.79720165372594
 20
4.789360885667597
 30
0.0
 10
19.33901824224057
 20
4.68464071838461
 30
0.0
 10
20.87223888212643
 20
4.419331474961672
 30
0.0
 10
22.40630804650874
 20
4.001849249630121
 30
0.0
 10
23.95063024654213
 20
3.442696474980948
 30
0.0
 10
25.50458087515312
 20
2.758082764427379
 30
0.0
 10
27.06840375431961
 20
1.970062939797056
 30
0.0
 10
28.63222823969734
 20
1.111511053035739
 30
0.0
 10
30.19657078260645
 20
0.2125479793252306
 30
0.0
 10
31.76169688668591
 20
-0.6923900730115046
 30
0.0
 10
33.32710706372099
 20
-1.578423279695459
 30
0.0
 10
34.37047900206638
 20
-2.116433606468503
 30
0.0
 10
34.89200000000001
 20
-2.385353703133396
 30
0.0
  0
SPLINE
  5
B1
330
1F
100
AcDbEntity
  8
외형선
  6
Continuous
 62
     1
370
    15
100
AcDbSpline
210
0.0
220
0.0
230
1.0
 70
     8
 71
     3
 72
    12
 73
     8
 74
     0
 42
0.000000001
 43
0.00000001
 40
0.0
 40
0.0
 40
0.0
 40
0.0
 40
0.2500000000000003
 40
0.2500000000000003
 40
0.5000000000000007
 40
0.5000000000000007
 40
1.0
 40
1.0
 40
1.0
 40
1.0
 10
34.89200000000001
 20
-2.385353703133395
 30
0.0
 10
34.95685133873367
 20
-2.417734104006315
 30
0.0
 10
35.01889689701126
 20
-2.443777865034453
 30
0.0
 10
35.13801212521197
 20
-2.482976496580239
 30
0.0
 10
35.19353362915858
 20
-2.495394237690118
 30
0.0
 10
35.33705154141812
 20
-2.508056450373443
 30
0.0
 10
35.40000000000002
 20
-2.482072870139822
 30
0.0
 10
35.40000000000001
 20
-2.430264383026922
 30
0.0
  0
SPLINE
  5
B2
330
1F
100
AcDbEntity
  8
외형선
  6
Continuous
 62
     1
370
    15
100
AcDbSpline
210
0.0
220
0.0
230
1.0
 70
     8
 71
     3
 72
    11
 73
     7
 74
     0
 42
0.000000001
 43
0.00000001
 40
0.0
 40
0.0
 40
0.0
 40
0.0
 40
0.1143318100578575
 40
0.5036592839554711
 40
0.9040454615521826
 40
1.0
 40
1.0
 40
1.0
 40
1.0
 10
34.33862407312787
 20
-2.095363589146764
 30
0.0
 10
34.28985739020005
 20
-2.102131082085254
 30
0.0
 10
34.0750283536276
 20
-2.131943525759933
 30
0.0
 10
33.65535094965995
 20
-2.245483241687463
 30
0.0
 10
33.23877658127431
 20
-2.386833158387215
 30
0.0
 10
33.00406715934357
 20
-2.48000395766887
 30
0.0
 10
32.95869221120271
 20
-2.498016102860448
 30
0.0
  0
SPLINE
  5
B3
330
1F
100
AcDbEntity
  8
외형선
  6
Continuous
 62
     1
370
    15
100
AcDbSpline
210
0.0
220
0.0
230
1.0
 70
     8
 71
     3
 72
     8
 73
     4
 74
     0
 42
0.000000001
 43
0.00000001
 40
0.0
 40
0.0
 40
0.0
 40
0.0
 40
1.0
 40
1.0
 40
1.0
 40
1.0
 10
35.40000000000001
 20
-2.78419643118687
 30
0.0
 10
34.56870449735818
 20
-2.776653518075378
 30
0.0
 10
33.75331446878914
 20
-2.689384186461105
 30
0.0
 10
32.9586922112027
 20
-2.498016102860439
 30
0.0
  0
LINE
  5
B4
330
1F
100
AcDbEntity
  8
외형선
  6
Continuous
 62
     1
370
    15
100
AcDbLine
 10
35.40000000000001
 20
-3.850708012701732
 30
0.0
 11
35.40000000000001
 21
-2.784196431186876
 31
0.0
  0
SPLINE
  5
B5
330
1F
100
AcDbEntity
  8
외형선
  6
Continuous
 62
     1
370
    15
100
AcDbSpline
210
0.0
220
0.0
230
1.0
 70
     8
 71
     3
 72
     8
 73
     4
 74
     0
 42
0.000000001
 43
0.00000001
 40
0.0
 40
0.0
 40
0.0
 40
0.0
 40
1.0
 40
1.0
 40
1.0
 40
1.0
 10
35.40000000000001
 20
-3.850708012701732
 30
0.0
 10
35.40000000000001
 20
-3.908430148197448
 30
0.0
 10
35.38380512604671
 20
-3.971943634718738
 30
0.0
 10
35.35257194313525
 20
-4.034036839483464
 30
0.0
1001
PE_URL
1000

  0
SPLINE
  5
B6
330
1F
100
AcDbEntity
  8
외형선
  6
Continuous
 62
     1
370
    15
100
AcDbSpline
210
0.0
220
0.0
230
1.0
 70
     8
 71
     3
 72
    18
 73
    14
 74
     0
 42
0.000000001
 43
0.00000001
 40
0.0
 40
0.0
 40
0.0
 40
0.0
 40
0.0961022716044685
 40
0.1922667106503455
 40
0.2884026510603027
 40
0.3844842236632935
 40
0.4805389418661316
 40
0.5748767308908463
 40
0.6692519249716737
 40
0.7636993007705069
 40
0.8581279905618067
 40
0.9544199049623056
 40
1.0
 40
1.0
 40
1.0
 40
1.0
 10
9.999999999998957
 20
1.847846013034578
 30
0.0
 10
10.52037755788025
 20
1.564524259170171
 30
0.0
 10
11.56146929983074
 20
0.9976974738950606
 30
0.0
 10
13.12346680149131
 20
0.0947018062362151
 30
0.0
 10
14.6851784163271
 20
-0.807160940892499
 30
0.0
 10
16.24609100984605
 20
-1.681485797334818
 30
0.0
 10
17.79720191158989
 20
-2.490417690774065
 30
0.0
 10
19.3390181964403
 20
-3.207575435472076
 30
0.0
 10
20.8722388091353
 20
-3.809346327468759
 30
0.0
 10
22.40630838458511
 20
-4.282134552484321
 30
0.0
 10
23.95062895697628
 20
-4.600588813531457
 30
0.0
 10
25.23013771360243
 20
-4.759587998843058
 30
0.0
 10
25.9983014675028
 20
-4.745647837818279
 30
0.0
 10
26.24509417203938
 20
-4.741169196352169
 30
0.0
  0
SPLINE
  5
B7
330
1F
100
AcDbEntity
  8
외형선
  6
Continuous
 62
     1
370
    15
100
AcDbSpline
210
0.0
220
0.0
230
1.0
 70
     8
 71
     3
 72
    15
 73
    11
 74
     0
 42
0.000000001
 43
0.00000001
 40
0.0
 40
0.0
 40
0.0
 40
0.0
 40
0.1163871228048898
 40
0.2333042941158208
 40
0.3518375446616592
 40
0.4709298672413763
 40
0.6149945518777442
 40
0.7600693101957658
 40
0.9034651474870683
 40
1.0
 40
1.0
 40
1.0
 40
1.0
 10
9.999999999998957
 20
-3.846283678158162
 30
0.0
 10
10.38917127200013
 20
-3.946075509041618
 30
0.0
 10
11.16928617402928
 20
-4.146113641282584
 30
0.0
 10
12.34528624316443
 20
-4.343818537773931
 30
0.0
 10
13.5300165756036
 20
-4.459435246615987
 30
0.0
 10
14.80657870823043
 20
-4.482492585478458
 30
0.0
 10
16.17110690186995
 20
-4.390382821107961
 30
0.0
 10
17.6169604424787
 20
-4.153283773821754
 30
0.0
 10
18.90390688343779
 20
-3.842655525948548
 30
0.0
 10
19.70618333478897
 20
-3.568698580853257
 30
0.0
 10
20.02897505005047
 20
-3.458473443288548
 30
0.0
  0
SPLINE
  5
B8
330
1F
100
AcDbEntity
  8
외형선
  6
Continuous
370
    15
100
AcDbSpline
210
0.0
220
0.0
230
1.0
 70
    24
 71
     3
 72
    16
 73
    12
 74
     0
 42
0.000000001
 43
0.00000001
 40
0.0
 40
0.0
 40
0.0
 40
0.0
 40
0.2499999999999999
 40
0.2499999999999999
 40
0.4999999999999999
 40
0.4999999999999999
 40
0.7499999999999999
 40
0.7499999999999999
 40
0.875
 40
0.875
 40
1.0
 40
1.0
 40
1.0
 40
1.0
 10
10.00000000000001
 20
1.847846013043744
 30
0.0
 10
10.00000000000001
 20
1.662949843791259
 30
0.0
 10
10.00000000000001
 20
1.420391020700682
 30
0.0
 10
10.00000000000001
 20
0.7734661127407587
 30
0.0
 10
10.00000000000001
 20
0.3673109146964783
 30
0.0
 10
10.00000000000001
 20
-0.6256373858326457
 30
0.0
 10
10.00000000000001
 20
-1.214433553233415
 30
0.0
 10
10.00000000000001
 20
-2.177550368124518
 30
0.0
 10
10.00000000000001
 20
-2.510911905754012
 30
0.0
 10
10.00000000000001
 20
-3.181779320347351
 30
0.0
 10
10.00000000000001
 20
-3.519132373383905
 30
0.0
 10
10.00000000000001
 20
-3.846283678158435
 30
0.0
  0
LINE
  5
B9
330
1F
100
AcDbEntity
  8
외형선
  6
Continuous
370
    15
100
AcDbLine
 10
10.00000000000001
 20
1.847846013036259
 30
0.0
 11
10.00000000000001
 21
2.329699516706257
 31
0.0
  0
LINE
  5
BA
330
1F
100
AcDbEntity
  8
외형선
  6
Continuous
 62
     1
370
    15
100
AcDbLine
 10
35.40000000000001
 20
-2.430264383026921
 30
0.0
 11
35.40000000000001
 21
0.3586333745259019
 31
0.0
  0
SPLINE
  5
BB
330
1F
100
AcDbEntity
  8
외형선
  6
Continuous
 62
     1
370
    15
100
AcDbSpline
210
0.0
220
0.0
230
1.0
 70
     8
 71
     3
 72
     8
 73
     4
 74
     0
 42
0.000000001
 43
0.00000001
 40
0.0
 40
0.0
 40
0.0
 40
0.0
 40
1.0
 40
1.0
 40
1.0
 40
1.0
 10
35.40000000000001
 20
0.3586333745259018
 30
0.0
 10
35.40000000000001
 20
0.3458197943803367
 30
0.0
 10
35.38380512604672
 20
0.3430872840730465
 30
0.0
 10
35.35257194313525
 20
0.3518627539545084
 30
0.0
  0
SPLINE
  5
BC
330
1F
100
AcDbEntity
  8
외형선
  6
Continuous
 62
     1
370
    15
100
AcDbSpline
210
0.0
220
0.0
230
1.0
 70
     8
 71
     3
 72
    11
 73
     7
 74
     0
 42
0.000000001
 43
0.00000001
 40
0.0
 40
0.0
 40
0.0
 40
0.0
 40
0.2482690972423084
 40
0.4988501389969719
 40
0.7495043080810901
 40
1.0
 40
1.0
 40
1.0
 40
1.0
 10
28.64566853532776
 20
3.464280038979858
 30
0.0
 10
29.16253844946555
 20
3.657635319118649
 30
0.0
 10
30.20109150087228
 20
4.046146452579994
 30
0.0
 10
31.76169791306622
 20
4.448696918262423
 30
0.0
 10
33.32710680728398
 20
4.714128039156103
 30
0.0
 10
34.37047891660541
 20
4.7463778399962
 30
0.0
 10
34.89200000000001
 20
4.762497641285815
 30
0.0
  0
LINE
  5
BE
330
1F
100
AcDbEntity
  8
외형선
  6
Continuous
 62
     1
370
    15
100
AcDbLine
 10
35.40000000000001
 20
3.083737631391745
 30
0.0
 11
35.40000000000001
 21
4.239357540085067
 31
0.0
  0
SPLINE
  5
BF
330
1F
100
AcDbEntity
  8
외형선
  6
Continuous
 62
     1
370
    15
100
AcDbSpline
210
0.0
220
0.0
230
1.0
 70
     8
 71
     3
 72
    14
 73
    10
 74
     0
 42
0.000000001
 43
0.00000001
 40
0.0
 40
0.0
 40
0.0
 40
0.0
 40
0.25
 40
0.25
 40
0.5
 40
0.5
 40
0.75
 40
0.75
 40
1.0
 40
1.0
 40
1.0
 40
1.0
 10
35.40000000000001
 20
3.083737631391745
 30
0.0
 10
35.27377021398585
 20
2.860523576257373
 30
0.0
 10
35.11956115479781
 20
2.665095265878347
 30
0.0
 10
34.75667727941099
 20
2.328327670693339
 30
0.0
 10
34.55318783113018
 20
2.192405889301436
 30
0.0
 10
34.12070321023299
 20
1.981508958984524
 30
0.0
 10
33.89211822793309
 20
1.906709030169524
 30
0.0
 10
33.43136326796798
 20
1.810320973547358
 30
0.0
 10
33.19474743821308
 20
1.787663265518882
 30
0.0
 10
32.95869221120271
 20
1.786930873820231
 30
0.0
  0
SPLINE
  5
C0
330
1F
100
AcDbEntity
  8
외형선
  6
Continuous
 62
     1
370
    15
100
AcDbSpline
210
0.0
220
0.0
230
1.0
 70
     8
 71
     3
 72
     8
 73
     4
 74
     0
 42
0.000000001
 43
0.00000001
 40
0.0
 40
0.0
 40
0.0
 40
0.0
 40
1.0
 40
1.0
 40
1.0
 40
1.0
 10
35.40000000000001
 20
0.9186882131466257
 30
0.0
 10
34.56870449735819
 20
1.25247622353722
 30
0.0
 10
33.75331446878915
 20
1.545993977403868
 30
0.0
 10
32.95869221120272
 20
1.786930873820237
 30
0.0
  0
LINE
  5
C1
330
1F
100
AcDbEntity
  8
외형선
  6
Continuous
 62
     1
370
    15
100
AcDbLine
 10
35.40000000000001
 20
0.3586333745259019
 30
0.0
 11
35.40000000000001
 21
0.9186882131466263
 31
0.0
  0
SPLINE
  5
C2
330
1F
100
AcDbEntity
  8
외형선
  6
Continuous
 62
     1
370
    15
100
AcDbSpline
210
0.0
220
0.0
230
1.0
 70
     8
 71
     3
 72
    10
 73
     6
 74
     0
 42
0.000000001
 43
0.00000001
 40
0.0
 40
0.0
 40
0.0
 40
0.0
 40
0.1807330251709756
 40
0.5960130088259651
 40
0.9999999999999999
 40
0.9999999999999999
 40
0.9999999999999999
 40
0.9999999999999999
 10
13.08248444469837
 20
-4.400064064290065
 30
0.0
 10
12.89684822540471
 20
-4.442931714543947
 30
0.0
 10
12.2846656898464
 20
-4.584298668286607
 30
0.0
 10
11.2569063554933
 20
-4.718216550740192
 30
0.0
 10
10.41510089552573
 20
-4.747627753760024
 30
0.0
 10
10.00000000000001
 20
-4.762130649372616
 30
0.0
  0
LINE
  5
C3
330
1F
100
AcDbEntity
  8
외형선
  6
Continuous
370
    15
100
AcDbLine
 10
10.00000000000001
 20
-3.846283678158452
 30
0.0
 11
10.00000000000001
 21
-4.101515709201426
 31
0.0
  0
LINE
  5
C4
330
1F
100
AcDbEntity
  8
외형선
  6
Continuous
 62
     1
370
    15
100
AcDbLine
 10
35.40000000000001
 20
0.9186882131466259
 30
0.0
 11
35.40000000000001
 21
3.083737631391745
 31
0.0
  0
LINE
  5
C5
330
1F
100
AcDbEntity
  8
외형선
  6
Continuous
 62
     1
370
    15
100
AcDbLine
 10
35.40000000000001
 20
-2.430264383026922
 30
0.0
 11
35.40000000000001
 21
-2.784196431186871
 31
0.0
  0
LINE
  5
C6
330
1F
100
AcDbEntity
  8
외형선
  6
Continuous
 62
     1
370
    15
100
AcDbLine
 10
35.40000000000001
 20
4.239357540085067
 30
0.0
 11
35.40000000000001
 21
4.254499999999994
 31
0.0
  0
LINE
  5
C7
330
1F
100
AcDbEntity
  8
중심선
 62
     1
100
AcDbLine
 10
-31.10000000000001
 20
-0.0000000000000038
 30
0.0
 11
38.4
 21
0.0000000000000047
 31
0.0
  0
LINE
  5
C8
330
1F
100
AcDbEntity
  8
참조1
100
AcDbLine
 10
3.649999999999997
 20
0.2211007829333199
 30
0.0
 11
3.650000000000002
 21
-39.77889921706668
 31
0.0
  0
LINE
  5
C9
330
1F
100
AcDbEntity
  8
참조1
100
AcDbLine
 10
3.650000000000002
 20
-39.77889921706668
 30
0.0
 11
-11.49933783948571
 21
-39.77889921706667
 31
0.0
  0
CIRCLE
  5
CA
330
1F
100
AcDbEntity
  8
해칭선
100
AcDbCircle
 10
0.0
 20
0.0
 30
0.0
 40
3.000000000000001
  0
INSERT
  5
CB
330
1F
100
AcDbEntity
  8
0
  6
Continuous
 62
     7
100
AcDbBlockReference
 66
     1
  2
블럭10
 10
-10.29027293212521
 20
-51.82607351871061
 30
0.0
  0
ATTRIB
  5
CC
330
CB
100
AcDbEntity
  8
FORMAT
 62
     2
100
AcDbText
 10
-19.47156822086649
 20
-49.75070660587842
 30
0.0
 40
4.233333333333333
  1
E5104024 [ 3 FLUTE ]
 41
0.75
  7
SLDTEXTSTYLE0
 11
-19.47156822086649
 21
-51.86737327254509
 31
0.0
100
AcDbAttribute
  2
AUTOATTR0
 70
     0
 74
     1
  0
SEQEND
  5
CD
330
CB
100
AcDbEntity
  8
0
  6
Continuous
 62
     7
  0
HATCH
  5
CE
330
1F
100
AcDbEntity
  8
중심선
100
AcDbHatch
 10
0.0
 20
0.0
 30
0.0
210
0.0
220
0.0
230
1.0
  2
SOLID
 70
     1
 71
     0
 91
        1
 92
        0
 93
        4
 72
     1
 10
-4.575363627744366
 20
-35.57889921706667
 11
-8.021638871581649
 21
-35.57889921706667
 72
     1
 10
-8.021638871581649
 20
-35.57889921706667
 11
-10.14986873078567
 21
-38.11522479763927
 72
     1
 10
-10.14986873078567
 20
-38.11522479763927
 11
-6.70356040183524
 21
-38.11518536833678
 72
     1
 10
-6.70356040183524
 20
-38.11518536833678
 11
-4.575363627744366
 21
-35.57889921706667
 97
        0
 75
     0
 76
     1
 98
        1
 10
-0.0000000000000105
 20
0.2200258542094307
  0
HATCH
  5
CF
330
1F
100
AcDbEntity
  8
중심선
100
AcDbHatch
 10
0.0
 20
0.0
 30
0.0
210
0.0
220
0.0
230
1.0
  2
SOLID
 70
     1
 71
     0
 91
        1
 92
        0
 93
        4
 72
     1
 10
0.4374003632915852
 20
-35.57889921706667
 11
-3.008874880545697
 21
-35.57889921706667
 72
     1
 10
-3.008874880545697
 20
-35.57889921706667
 11
-7.540012888903085
 21
-40.97889921706669
 72
     1
 10
-7.540012888903085
 20
-40.97889921706669
 11
-4.093737645065803
 21
-40.97889921706669
 72
     1
 10
-4.093737645065803
 20
-40.97889921706669
 11
0.4374003632915846
 21
-35.57889921706667
 97
        0
 75
     0
 76
     1
 98
        1
 10
-0.0000000000000105
 20
0.2200258542094307
  0
HATCH
  5
D0
330
1F
100
AcDbEntity
  8
중심선
100
AcDbHatch
 10
0.0
 20
0.0
 30
0.0
210
0.0
220
0.0
230
1.0
  2
SOLID
 70
     1
 71
     0
 91
        1
 92
        0
 93
        4
 72
     1
 10
5.45016435432748
 20
-35.57889921706667
 11
2.003889110490393
 21
-35.57889921706667
 72
     1
 10
2.003889110490393
 20
-35.57889921706667
 11
-5.044547791398884
 21
-43.97889921706669
 72
     1
 10
-5.044547791398884
 20
-43.97889921706669
 11
-1.598272547561602
 21
-43.97889921706669
 72
     1
 10
-1.598272547561602
 20
-43.97889921706669
 11
5.45016435432748
 21
-35.57889921706667
 97
        0
 75
     0
 76
     1
 98
        1
 10
-0.0000000000000105
 20
0.2200258542094307
  0
HATCH
  5
D1
330
1F
100
AcDbEntity
  8
중심선
100
AcDbHatch
 10
0.0
 20
0.0
 30
0.0
210
0.0
220
0.0
230
1.0
  2
SOLID
 70
     1
 71
     0
 91
        1
 92
        0
 93
        6
 72
     3
 10
10.25005478533968
 20
-39.77889921711795
 11
3.960054785062283
 21
1.540882976769353E-10
 40
0.3939339440162628
 50
17.09539180608436
 51
320.0019657685086
 73
     0
 72
     1
 10
11.93305444104027
 20
-38.366793221705
 11
14.23835631474131
 21
-36.43246651165705
 72
     3
 10
10.25005478528683
 20
-39.77889921706682
 11
6.600054785286828
 21
-1.278976924368180E-13
 40
0.6363583540795982
 50
39.99873849337411
 51
368.4976242363724
 73
     1
 72
     1
 10
16.67538727718744
 20
-38.8188992169967
 11
8.930122092122783
 21
-38.81889921699667
 72
     1
 10
8.930122092122783
 20
-38.81889921699667
 11
8.930097047676822
 21
-40.73889921699659
 72
     1
 10
8.930097047676822
 20
-40.73889921699659
 11
13.37147681714886
 21
-40.73889921699656
 97
        0
 75
     0
 76
     1
 98
        1
 10
-0.0000000000000105
 20
0.2200258542094307
  0
DIMENSION
  5
D2
330
1F
100
AcDbEntity
  8
치수문자_일반주서
100
AcDbDimension
  2
_D
 10
35.40000000000001
 20
39.05434797962325
 30
0.0
 11
3.650000000000002
 21
39.05434797962325
 31
0.0
 70
   160
  1
<>
 71
     2
 42
63.50000000000001
  3
SLDDIMSTYLE0
100
AcDbAlignedDimension
 13
-28.1
 23
4.762499999999996
 33
0.0
 14
35.40000000000001
 24
4.762500000000055
 34
0.0
100
AcDbRotatedDimension
1001
ACAD
1000
DSTYLE
1002
{
1070
   171
1070
     3
1070
   273
1070
     7
1002
}
  0
DIMENSION
  5
E6
330
1F
100
AcDbEntity
  8
치수문자_일반주서
100
AcDbDimension
  2
_D_1
 10
-37.10850881577615
 20
-4.762500000000045
 30
0.0
 11
-37.10850881577626
 21
24.85595078202542
 31
0.0
 70
   160
  1
%%c<>
 71
     2
 42
9.525000000000006
 52
-270.0
  3
SLDDIMSTYLE1
100
AcDbAlignedDimension
 13
-28.1
 23
4.762499999999996
 33
0.0
 14
-28.09890341532074
 24
-4.762500000000009
 34
0.0
 50
90.0000000000002
100
AcDbRotatedDimension
1001
ACAD
1000
DSTYLE
1002
{
1070
   171
1070
     3
1070
   273
1070
     7
1002
}
  0
DIMENSION
  5
FB
330
1F
100
AcDbEntity
  8
치수문자_일반주서
100
AcDbDimension
  2
_D_2
 10
10.00000000000001
 20
23.76607640292793
 30
0.0
 11
-6.447749999999994
 21
23.76607640292793
 31
0.0
 70
   160
  1
<>
 71
     2
 42
25.4
  3
SLDDIMSTYLE2
100
AcDbAlignedDimension
 13
35.40000000000001
 23
4.762500000000055
 33
0.0
 14
10.00000000000001
 24
4.757112121208206
 34
0.0
 50
0.0000000000000321
100
AcDbRotatedDimension
1001
ACAD
1000
DSTYLE
1002
{
1070
   171
1070
     3
1070
   273
1070
     7
1002
}
  0
DIMENSION
  5
111
330
1F
100
AcDbEntity
  8
치수문자_일반주서
100
AcDbDimension
  2
_D_3
 10
45.40000000000005
 20
-4.758688030560116
 30
0.0
 11
45.39999999999994
 21
24.49150000000009
 31
0.0
 70
   160
  1
%%c<>
 71
     2
 42
9.521188030560205
 52
-270.0
  3
SLDDIMSTYLE1
100
AcDbAlignedDimension
 13
35.40000000000001
 23
4.762500000000055
 33
0.0
 14
35.4135927351016
 24
-4.75868803056015
 34
0.0
 50
90.0000000000002
100
AcDbRotatedDimension
1001
ACAD
1000
DSTYLE
1002
{
1070
   171
1070
     3
1070
   273
1070
     7
1002
}
  0
LINE
  5
125
330
1F
100
AcDbEntity
  8
참조1
100
AcDbLine
 10
86.47300279016855
 20
7.661100782933326
 30
0.0
 11
86.47300279016855
 21
-7.218899217066678
 31
0.0
  0
LINE
  5
126
330
1F
100
AcDbEntity
  8
참조1
100
AcDbLine
 10
99.17300279016855
 20
5.661100782933326
 30
0.0
 11
86.47300279016855
 21
5.661100782933326
 31
0.0
  0
SOLID
  5
127
330
1F
100
AcDbEntity
  8
참조1
100
AcDbTrace
 10
86.47300279016855
 20
5.661100782933326
 30
0.0
 11
92.82300279016854
 21
4.645100782933326
 31
0.0
 12
92.82300279016854
 22
6.677100782933326
 32
0.0
 13
92.82300279016854
 23
6.677100782933326
 33
0.0
  0
LINE
  5
128
330
1F
100
AcDbEntity
  8
참조1
100
AcDbLine
 10
99.17300279016855
 20
-5.218899217066678
 30
0.0
 11
86.47300279016855
 21
-5.218899217066678
 31
0.0
  0
SOLID
  5
129
330
1F
100
AcDbEntity
  8
참조1
100
AcDbTrace
 10
86.47300279016855
 20
-5.218899217066678
 30
0.0
 11
92.82300279016854
 21
-6.234899217066678
 31
0.0
 12
92.82300279016854
 22
-4.202899217066678
 32
0.0
 13
92.82300279016854
 23
-4.202899217066678
 33
0.0
  0
MTEXT
  5
12A
330
1F
100
AcDbEntity
  8
참조1
100
AcDbMText
 10
95.87049288263883
 20
11.20931742758326
 30
0.0
 40
3.5
 41
0.0
 71
     1
 72
     1
  1
A
  7
SLDTEXTSTYLE0
 73
     1
 44
1.0
  0
MTEXT
  5
12B
330
1F
100
AcDbEntity
  8
참조1
100
AcDbMText
 10
95.87049288263883
 20
0.3293174275832567
 30
0.0
 40
3.5
 41
0.0
 71
     1
 72
     1
  1
A
  7
SLDTEXTSTYLE0
 73
     1
 44
1.0
  0
INSERT
  5
132
330
1F
100
AcDbEntity
  8
해칭선
100
AcDbBlockReference
  2
SW_DOWELSYMBOL_0
 10
0.0
 20
0.0
 30
0.0
  0
MTEXT
  5
1B5
102
{ACAD_REACTORS
330
1B6
102
}
330
1F
100
AcDbEntity
  8
0
100
AcDbMText
 10
45.2052866337545
 20
-20.69991428186628
 30
0.0
 40
3.5
 41
0.0
 71
     7
 72
     1
  1
{R0.51[.020"]}
 73
     1
 44
1.0
1001
ACAD
1000
ACAD_MTEXT_DEFINED_HEIGHT_BEGIN
1070
    46
1040
3.5
1000
ACAD_MTEXT_DEFINED_HEIGHT_END
  0
LEADER
  5
1B6
102
{ACAD_XDICTIONARY
360
1B7
102
}
330
1F
100
AcDbEntity
  8
0
100
AcDbLeader
  3
ISO-25
 73
     0
 74
     0
 75
     1
 40
3.5
 41
29.75
 76
     3
 10
35.00502258876581
 20
-4.111542523363293
 30
0.0
 10
40.3792866337545
 20
-18.94991428186628
 30
0.0
 10
43.6812866337545
 20
-18.94991428186628
 30
0.0
340
1B5
213
0.0
223
1.75
233
0.0
1001
ACAD
1000
DSTYLE
1002
{
1070
    77
1070
     0
1070
   179
1070
     2
1070
   143
1040
0.0393700787401575
1070
    41
1040
3.302
1070
    44
1040
1.0
1070
    42
1040
1.0
1070
   147
1040
1.524
1070
    73
1070
     1
1070
    74
1070
     1
1070
   140
1040
3.5
1070
   284
1070
     0
1070
    78
1070
     0
1002
}
  0
ARC
  5
1C1
330
1F
100
AcDbEntity
  8
0
 62
     1
100
AcDbCircle
 10
34.892
 20
4.254500000000055
 30
0.0
 40
0.508
100
AcDbArc
 50
0.0
 51
90.00000000000001
  0
LINE
  5
223
330
1F
100
AcDbEntity
  8
외형선
  6
Continuous
370
    15
100
AcDbLine
 10
-11.82495000000011
 20
3.4925
 30
0.0
 11
-4.687549999999987
 21
3.4925
 31
0.0
1001
PE_URL
1000

  0
LINE
  5
224
330
1F
100
AcDbEntity
  8
외형선
  6
Continuous
370
    15
100
AcDbLine
 10
-11.82495000000011
 20
3.4925
 30
0.0
 11
-13.0949500000001
 21
4.762499999999982
 31
0.0
1001
PE_URL
1000

  0
LINE
  5
225
330
1F
100
AcDbEntity
  8
외형선
  6
Continuous
370
    15
100
AcDbLine
 10
-4.687549999999987
 20
3.4925
 30
0.0
 11
-3.417549999999892
 21
4.762499999999982
 31
0.0
1001
PE_URL
1000

  0
LINE
  5
227
330
1F
100
AcDbEntity
  8
외형선
  6
Continuous
370
    15
100
AcDbLine
 10
-3.417549999999892
 20
4.762499999999982
 30
0.0
 11
8.47995462741052
 21
4.762499999999994
 31
0.0
1001
PE_URL
1000

  0
ENDSEC
  0
SECTION
  2
OBJECTS
  0
DICTIONARY
  5
C
330
0
100
AcDbDictionary
281
     1
  3
ACAD_DETAILVIEWSTYLE
350
15A
  3
ACAD_GROUP
350
D
  3
ACAD_LAYOUT
350
1A
  3
ACAD_MLINESTYLE
350
17
  3
ACAD_PLOTSETTINGS
350
19
  3
ACAD_PLOTSTYLENAME
350
E
  3
ACAD_SCALELIST
350
47
  3
ACAD_SECTIONVIEWSTYLE
350
15B
  3
AcDbVariableDictionary
350
155
  3
APPDATA
350
154
  3
DWGPROPS
350
24A
  0
DICTIONARY
  5
218
330
2
100
AcDbDictionary
280
     1
281
     1
  3
ACAD_LAYERSTATES
360
219
  0
DICTIONARY
  5
1B7
330
1B6
100
AcDbDictionary
280
     1
281
     1
  3
*A1
360
1B8
  0
DICTIONARY
  5
15A
102
{ACAD_REACTORS
330
C
102
}
330
C
100
AcDbDictionary
281
     1
  0
DICTIONARY
  5
D
102
{ACAD_REACTORS
330
C
102
}
330
C
100
AcDbDictionary
281
     1
  0
DICTIONARY
  5
1A
102
{ACAD_REACTORS
330
C
102
}
330
C
100
AcDbDictionary
281
     1
  3
Layout1
350
1E
  3
Layout2
350
26
  3
Model
350
22
  0
DICTIONARY
  5
17
102
{ACAD_REACTORS
330
C
102
}
330
C
100
AcDbDictionary
281
     1
  3
Standard
350
18
  0
DICTIONARY
  5
19
102
{ACAD_REACTORS
330
C
102
}
330
C
100
AcDbDictionary
281
     1
  0
ACDBDICTIONARYWDFLT
  5
E
102
{ACAD_REACTORS
330
C
102
}
330
C
100
AcDbDictionary
281
     1
  3
Normal
350
F
100
AcDbDictionaryWithDefault
340
F
  0
DICTIONARY
  5
47
102
{ACAD_REACTORS
330
C
102
}
330
C
100
AcDbDictionary
281
     1
  3
A0
350
48
  3
A1
350
49
  3
A2
350
4A
  3
A3
350
4B
  3
A4
350
4C
  3
A5
350
4D
  3
A6
350
4E
  3
A7
350
4F
  3
A8
350
50
  3
A9
350
51
  3
B0
350
52
  3
B1
350
53
  3
B2
350
54
  3
B3
350
55
  3
B4
350
56
  3
B5
350
57
  3
B6
350
58
  3
B7
350
59
  3
B8
350
5A
  3
B9
350
5B
  3
C0
350
5C
  3
C1
350
5D
  3
C2
350
5E
  3
C3
350
5F
  3
C4
350
60
  3
C5
350
61
  3
C6
350
62
  3
C7
350
63
  3
C8
350
64
  3
C9
350
65
  3
D0
350
66
  3
D1
350
67
  3
D2
350
68
  0
DICTIONARY
  5
15B
102
{ACAD_REACTORS
330
C
102
}
330
C
100
AcDbDictionary
281
     1
  0
DICTIONARY
  5
155
102
{ACAD_REACTORS
330
C
102
}
330
C
100
AcDbDictionary
281
     1
  0
DICTIONARY
  5
154
102
{ACAD_REACTORS
330
C
102
}
330
C
100
AcDbDictionary
281
     1
  0
XRECORD
  5
24A
102
{ACAD_REACTORS
330
C
102
}
330
C
100
AcDbXrecord
280
     1
  1
DWGPROPS COOKIE
  2

  3

  4

  6

  7

  8
12017103
  9

300
=
301
=
302
=
303
=
304
=
305
=
306
=
307
=
308
=
309
=
 40
0.0
 41
2458290.302560961
 42
2458299.391717245
  1

 90
        0
  0
DICTIONARY
  5
219
102
{ACAD_REACTORS
330
218
102
}
330
218
100
AcDbDictionary
281
     1
  0
SPLINE
  5
1B8
102
{ACAD_REACTORS
330
1B7
102
}
330
1B7
100
AcDbEntity
  8
외형선
  6
Continuous
 62
     1
370
    15
100
AcDbSpline
210
0.0
220
0.0
230
1.0
 70
     8
 71
     3
 72
    29
 73
    25
 74
     0
 42
0.000000001
 43
0.00000001
 40
0.0
 40
0.0
 40
0.0
 40
0.0
 40
0.0422644495549575
 40
0.0894133481135558
 40
0.1360887908804358
 40
0.183088732683559
 40
0.2297638819666308
 40
0.2767625414519669
 40
0.323437633749297
 40
0.3704354120323877
 40
0.4171106810586105
 40
0.464107897037571
 40
0.5107833946634068
 40
0.5577805359514474
 40
0.6044561394422602
 40
0.651453806121575
 40
0.6980998941979074
 40
0.7450685450090514
 40
0.7915976398774139
 40
0.8384484734548767
 40
0.8795785645527328
 40
0.920930788652952
 40
0.9603675209920361
 40
1.0
 40
1.0
 40
1.0
 40
1.0
 10
12.38189177007194
 20
1.248479460924195
 30
0.0
 10
12.52654344348548
 20
1.258273475674198
 30
0.0
 10
12.8325640013379
 20
1.278993387077104
 30
0.0
 10
13.29773257188337
 20
1.254108412177238
 30
0.0
 10
13.78025596066385
 20
1.187861475668798
 30
0.0
 10
14.25966703328228
 20
1.076843206459327
 30
0.0
 10
14.7418375996466
 20
0.9278143507748849
 30
0.0
 10
15.22126826210304
 20
0.7422259995311946
 30
0.0
 10
15.70321466955698
 20
0.5287568400491983
 30
0.0
 10
16.18301476867187
 20
0.291415106865743
 30
0.0
 10
16.66438564818222
 20
0.0386509998105593
 30
0.0
 10
17.14481199956303
 20
-0.2211140264741509
 30
0.0
 10
17.62559449395425
 20
-0.4827611477767423
 30
0.0
 10
18.10652182376923
 20
-0.7336501666871716
 30
0.0
 10
18.58700798445997
 20
-0.9720014204249832
 30
0.0
 10
19.06797035806053
 20
-1.184275237010919
 30
0.0
 10
19.54830862416817
 20
-1.369853183592872
 30
0.0
 10
20.02843114246354
 20
-1.518172522965445
 30
0.0
 10
20.50823986679071
 20
-1.62831800107122
 30
0.0
 10
20.96857053986777
 20
-1.692379933129987
 30
0.0
 10
21.41107311362818
 20
-1.715381820442324
 30
0.0
 10
21.82821005632637
 20
-1.70162911792889
 30
0.0
 10
22.2401103516564
 20
-1.656726206160658
 30
0.0
 10
22.51072264209905
 20
-1.601263250205901
 30
0.0
 10
22.64636375622617
 20
-1.573463119154277
 30
0.0
  0
LAYOUT
  5
1E
102
{ACAD_REACTORS
330
1A
102
}
330
1A
100
AcDbPlotSettings
  1

  2
none_device
  4

  6

 40
0.0
 41
0.0
 42
0.0
 43
0.0
 44
0.0
 45
0.0
 46
0.0
 47
0.0
 48
0.0
 49
0.0
140
0.0
141
0.0
142
1.0
143
1.0
 70
   688
 72
     1
 73
     0
 74
     5
  7

 75
    16
147
1.0
148
0.0
149
0.0
100
AcDbLayout
  1
Layout1
 70
     1
 71
     1
 10
0.0
 20
0.0
 11
420.0
 21
297.0
 12
0.0
 22
0.0
 32
0.0
 14
1.000000000000000E+20
 24
1.000000000000000E+20
 34
1.000000000000000E+20
 15
-1.000000000000000E+20
 25
-1.000000000000000E+20
 35
-1.000000000000000E+20
146
0.0
 13
0.0
 23
0.0
 33
0.0
 16
1.0
 26
0.0
 36
0.0
 17
0.0
 27
1.0
 37
0.0
 76
     0
330
1B
  0
LAYOUT
  5
26
102
{ACAD_REACTORS
330
1A
102
}
330
1A
100
AcDbPlotSettings
  1

  2
none_device
  4

  6

 40
0.0
 41
0.0
 42
0.0
 43
0.0
 44
0.0
 45
0.0
 46
0.0
 47
0.0
 48
0.0
 49
0.0
140
0.0
141
0.0
142
1.0
143
1.0
 70
   688
 72
     1
 73
     0
 74
     5
  7

 75
    16
147
1.0
148
0.0
149
0.0
100
AcDbLayout
  1
Layout2
 70
     1
 71
     2
 10
0.0
 20
0.0
 11
0.0
 21
0.0
 12
0.0
 22
0.0
 32
0.0
 14
0.0
 24
0.0
 34
0.0
 15
0.0
 25
0.0
 35
0.0
146
0.0
 13
0.0
 23
0.0
 33
0.0
 16
1.0
 26
0.0
 36
0.0
 17
0.0
 27
1.0
 37
0.0
 76
     0
330
23
  0
LAYOUT
  5
22
102
{ACAD_REACTORS
330
1A
102
}
330
1A
100
AcDbPlotSettings
  1

  2
none_device
  4
ANSI_A_(11.00_x_8.50_Inches)
  6

 40
6.35
 41
19.05
 42
6.35000508
 43
19.05000254
 44
279.4
 45
215.9
 46
100.2745198137351
 47
79.26461134525867
 48
0.0
 49
0.0
140
0.0
141
0.0
142
0.0680344848847376
143
1.0
 70
  1696
 72
     0
 73
     0
 74
     0
  7

 75
     0
147
0.0235690232323232
148
0.0
149
0.0
100
AcDbLayout
  1
Model
 70
     1
 71
     0
 10
0.0
 20
0.0
 11
420.0
 21
297.0
 12
0.0
 22
0.0
 32
0.0
 14
-41.48350881577631
 24
-49.75070660587842
 34
0.0
 15
99.17300279016857
 25
43.42934797962325
 35
0.0
146
0.0
 13
0.0
 23
0.0
 33
0.0
 16
1.0
 26
0.0
 36
0.0
 17
0.0
 27
1.0
 37
0.0
 76
     0
330
1F
331
29
  0
MLINESTYLE
  5
18
102
{ACAD_REACTORS
330
17
102
}
330
17
100
AcDbMlineStyle
  2
Standard
 70
     0
  3

 62
   256
 51
90.0
 52
90.0
 71
     2
 49
0.5
 62
   256
  6
BYLAYER
 49
-0.5
 62
   256
  6
BYLAYER
  0
ACDBPLACEHOLDER
  5
F
102
{ACAD_REACTORS
330
E
102
}
330
E
  0
SCALE
  5
48
102
{ACAD_REACTORS
330
47
102
}
330
47
100
AcDbScale
 70
     0
300
1:1
140
1.0
141
1.0
290
     1
  0
SCALE
  5
49
102
{ACAD_REACTORS
330
47
102
}
330
47
100
AcDbScale
 70
     0
300
1:2
140
1.0
141
2.0
290
     0
  0
SCALE
  5
4A
102
{ACAD_REACTORS
330
47
102
}
330
47
100
AcDbScale
 70
     0
300
1:4
140
1.0
141
4.0
290
     0
  0
SCALE
  5
4B
102
{ACAD_REACTORS
330
47
102
}
330
47
100
AcDbScale
 70
     0
300
1:5
140
1.0
141
5.0
290
     0
  0
SCALE
  5
4C
102
{ACAD_REACTORS
330
47
102
}
330
47
100
AcDbScale
 70
     0
300
1:8
140
1.0
141
8.0
290
     0
  0
SCALE
  5
4D
102
{ACAD_REACTORS
330
47
102
}
330
47
100
AcDbScale
 70
     0
300
1:10
140
1.0
141
10.0
290
     0
  0
SCALE
  5
4E
102
{ACAD_REACTORS
330
47
102
}
330
47
100
AcDbScale
 70
     0
300
1:16
140
1.0
141
16.0
290
     0
  0
SCALE
  5
4F
102
{ACAD_REACTORS
330
47
102
}
330
47
100
AcDbScale
 70
     0
300
1:20
140
1.0
141
20.0
290
     0
  0
SCALE
  5
50
102
{ACAD_REACTORS
330
47
102
}
330
47
100
AcDbScale
 70
     0
300
1:30
140
1.0
141
30.0
290
     0
  0
SCALE
  5
51
102
{ACAD_REACTORS
330
47
102
}
330
47
100
AcDbScale
 70
     0
300
1:40
140
1.0
141
40.0
290
     0
  0
SCALE
  5
52
102
{ACAD_REACTORS
330
47
102
}
330
47
100
AcDbScale
 70
     0
300
1:50
140
1.0
141
50.0
290
     0
  0
SCALE
  5
53
102
{ACAD_REACTORS
330
47
102
}
330
47
100
AcDbScale
 70
     0
300
1:100
140
1.0
141
100.0
290
     0
  0
SCALE
  5
54
102
{ACAD_REACTORS
330
47
102
}
330
47
100
AcDbScale
 70
     0
300
2:1
140
2.0
141
1.0
290
     0
  0
SCALE
  5
55
102
{ACAD_REACTORS
330
47
102
}
330
47
100
AcDbScale
 70
     0
300
4:1
140
4.0
141
1.0
290
     0
  0
SCALE
  5
56
102
{ACAD_REACTORS
330
47
102
}
330
47
100
AcDbScale
 70
     0
300
8:1
140
8.0
141
1.0
290
     0
  0
SCALE
  5
57
102
{ACAD_REACTORS
330
47
102
}
330
47
100
AcDbScale
 70
     0
300
10:1
140
10.0
141
1.0
290
     0
  0
SCALE
  5
58
102
{ACAD_REACTORS
330
47
102
}
330
47
100
AcDbScale
 70
     0
300
100:1
140
100.0
141
1.0
290
     0
  0
SCALE
  5
59
102
{ACAD_REACTORS
330
47
102
}
330
47
100
AcDbScale
 70
     0
300
1/128" = 1'-0"
140
0.0078125
141
12.0
290
     0
  0
SCALE
  5
5A
102
{ACAD_REACTORS
330
47
102
}
330
47
100
AcDbScale
 70
     0
300
1/64" = 1'-0"
140
0.015625
141
12.0
290
     0
  0
SCALE
  5
5B
102
{ACAD_REACTORS
330
47
102
}
330
47
100
AcDbScale
 70
     0
300
1/32" = 1'-0"
140
0.03125
141
12.0
290
     0
  0
SCALE
  5
5C
102
{ACAD_REACTORS
330
47
102
}
330
47
100
AcDbScale
 70
     0
300
1/16" = 1'-0"
140
0.0625
141
12.0
290
     0
  0
SCALE
  5
5D
102
{ACAD_REACTORS
330
47
102
}
330
47
100
AcDbScale
 70
     0
300
3/32" = 1'-0"
140
0.09375
141
12.0
290
     0
  0
SCALE
  5
5E
102
{ACAD_REACTORS
330
47
102
}
330
47
100
AcDbScale
 70
     0
300
1/8" = 1'-0"
140
0.125
141
12.0
290
     0
  0
SCALE
  5
5F
102
{ACAD_REACTORS
330
47
102
}
330
47
100
AcDbScale
 70
     0
300
3/16" = 1'-0"
140
0.1875
141
12.0
290
     0
  0
SCALE
  5
60
102
{ACAD_REACTORS
330
47
102
}
330
47
100
AcDbScale
 70
     0
300
1/4" = 1'-0"
140
0.25
141
12.0
290
     0
  0
SCALE
  5
61
102
{ACAD_REACTORS
330
47
102
}
330
47
100
AcDbScale
 70
     0
300
3/8" = 1'-0"
140
0.375
141
12.0
290
     0
  0
SCALE
  5
62
102
{ACAD_REACTORS
330
47
102
}
330
47
100
AcDbScale
 70
     0
300
1/2" = 1'-0"
140
0.5
141
12.0
290
     0
  0
SCALE
  5
63
102
{ACAD_REACTORS
330
47
102
}
330
47
100
AcDbScale
 70
     0
300
3/4" = 1'-0"
140
0.75
141
12.0
290
     0
  0
SCALE
  5
64
102
{ACAD_REACTORS
330
47
102
}
330
47
100
AcDbScale
 70
     0
300
1" = 1'-0"
140
1.0
141
12.0
290
     0
  0
SCALE
  5
65
102
{ACAD_REACTORS
330
47
102
}
330
47
100
AcDbScale
 70
     0
300
1-1/2" = 1'-0"
140
1.5
141
12.0
290
     0
  0
SCALE
  5
66
102
{ACAD_REACTORS
330
47
102
}
330
47
100
AcDbScale
 70
     0
300
3" = 1'-0"
140
3.0
141
12.0
290
     0
  0
SCALE
  5
67
102
{ACAD_REACTORS
330
47
102
}
330
47
100
AcDbScale
 70
     0
300
6" = 1'-0"
140
6.0
141
12.0
290
     0
  0
SCALE
  5
68
102
{ACAD_REACTORS
330
47
102
}
330
47
100
AcDbScale
 70
     0
300
1'-0" = 1'-0"
140
12.0
141
12.0
290
     0
  0
ENDSEC
  0
EOF
