  0
SECTION
  2
HEADER
  9
$ACADVER
  1
AC1015
  9
$ACADMAINTVER
 70
     6
  9
$DWGCODEPAGE
  3
ANSI_949
  9
$INSBASE
 10
0.0
 20
0.0
 30
0.0
  9
$EXTMIN
 10
-42.34165404862582
 20
-49.75070660587842
 30
0.0
  9
$EXTMAX
 10
99.17300279016855
 20
45.98431198295385
 30
0.0
  9
$LIMMIN
 10
0.0
 20
0.0
  9
$LIMMAX
 10
420.0
 20
297.0
  9
$ORTHOMODE
 70
     1
  9
$REGENMODE
 70
     1
  9
$FILLMODE
 70
     1
  9
$QTEXTMODE
 70
     0
  9
$MIRRTEXT
 70
     1
  9
$LTSCALE
 40
1.0
  9
$ATTMODE
 70
     1
  9
$TEXTSIZE
 40
3.5
  9
$TRACEWID
 40
1.0
  9
$TEXTSTYLE
  7
Standard
  9
$CLAYER
  8
0
  9
$CELTYPE
  6
ByLayer
  9
$CECOLOR
 62
   256
  9
$CELTSCALE
 40
1.0
  9
$DISPSILH
 70
     0
  9
$DIMSCALE
 40
1.0
  9
$DIMASZ
 40
3.302
  9
$DIMEXO
 40
1.0
  9
$DIMDLI
 40
3.75
  9
$DIMRND
 40
0.0
  9
$DIMDLE
 40
0.0
  9
$DIMEXE
 40
1.0
  9
$DIMTP
 40
0.0
  9
$DIMTM
 40
0.0
  9
$DIMTXT
 40
3.5
  9
$DIMCEN
 40
2.5
  9
$DIMTSZ
 40
0.0
  9
$DIMTOL
 70
     0
  9
$DIMLIM
 70
     0
  9
$DIMTIH
 70
     1
  9
$DIMTOH
 70
     1
  9
$DIMSE1
 70
     0
  9
$DIMSE2
 70
     0
  9
$DIMTAD
 70
     1
  9
$DIMZIN
 70
     0
  9
$DIMBLK
  1

  9
$DIMASO
 70
     1
  9
$DIMSHO
 70
     1
  9
$DIMPOST
  1

  9
$DIMAPOST
  1

  9
$DIMALT
 70
     0
  9
$DIMALTD
 70
     3
  9
$DIMALTF
 40
0.0393700787401575
  9
$DIMLFAC
 40
1.0
  9
$DIMTOFL
 70
     1
  9
$DIMTVP
 40
0.0
  9
$DIMTIX
 70
     0
  9
$DIMSOXD
 70
     0
  9
$DIMSAH
 70
     0
  9
$DIMBLK1
  1

  9
$DIMBLK2
  1

  9
$DIMSTYLE
  2
ISO-25
  9
$DIMCLRD
 70
     0
  9
$DIMCLRE
 70
     0
  9
$DIMCLRT
 70
     0
  9
$DIMTFAC
 40
1.0
  9
$DIMGAP
 40
1.524
  9
$DIMJUST
 70
     0
  9
$DIMSD1
 70
     0
  9
$DIMSD2
 70
     0
  9
$DIMTOLJ
 70
     0
  9
$DIMTZIN
 70
     0
  9
$DIMALTZ
 70
     0
  9
$DIMALTTZ
 70
     0
  9
$DIMUPT
 70
     0
  9
$DIMDEC
 70
     2
  9
$DIMTDEC
 70
     2
  9
$DIMALTU
 70
     2
  9
$DIMALTTD
 70
     3
  9
$DIMTXSTY
  7
Standard
  9
$DIMAUNIT
 70
     0
  9
$DIMADEC
 70
     2
  9
$DIMALTRND
 40
0.0
  9
$DIMAZIN
 70
     0
  9
$DIMDSEP
 70
    44
  9
$DIMATFIT
 70
     3
  9
$DIMFRAC
 70
     0
  9
$DIMLDRBLK
  1

  9
$DIMLUNIT
 70
     2
  9
$DIMLWD
 70
    -2
  9
$DIMLWE
 70
    -2
  9
$DIMTMOVE
 70
     0
  9
$LUNITS
 70
     2
  9
$LUPREC
 70
     2
  9
$SKETCHINC
 40
1.0
  9
$FILLETRAD
 40
0.508
  9
$AUNITS
 70
     0
  9
$AUPREC
 70
     2
  9
$MENU
  1
.
  9
$ELEVATION
 40
0.0
  9
$PELEVATION
 40
0.0
  9
$THICKNESS
 40
0.0
  9
$LIMCHECK
 70
     0
  9
$CHAMFERA
 40
0.0
  9
$CHAMFERB
 40
0.0
  9
$CHAMFERC
 40
0.0
  9
$CHAMFERD
 40
0.0
  9
$SKPOLY
 70
     0
  9
$TDCREATE
 40
2458290.677372095
  9
$TDUCREATE
 40
2458290.302372095
  9
$TDUPDATE
 40
2459709.367620694
  9
$TDUUPDATE
 40
2459708.992620694
  9
$TDINDWG
 40
0.0071932176
  9
$TDUSRTIMER
 40
0.000812581
  9
$USRTIMER
 70
     1
  9
$ANGBASE
 50
0.0
  9
$ANGDIR
 70
     0
  9
$PDMODE
 70
     0
  9
$PDSIZE
 40
-1.0
  9
$PLINEWID
 40
0.0
  9
$SPLFRAME
 70
     0
  9
$SPLINETYPE
 70
     6
  9
$SPLINESEGS
 70
     8
  9
$HANDSEED
  5
255
  9
$SURFTAB1
 70
     6
  9
$SURFTAB2
 70
     6
  9
$SURFTYPE
 70
     6
  9
$SURFU
 70
     6
  9
$SURFV
 70
     6
  9
$UCSBASE
  2

  9
$UCSNAME
  2

  9
$UCSORG
 10
0.0
 20
0.0
 30
0.0
  9
$UCSXDIR
 10
1.0
 20
0.0
 30
0.0
  9
$UCSYDIR
 10
0.0
 20
1.0
 30
0.0
  9
$UCSORTHOREF
  2

  9
$UCSORTHOVIEW
 70
     0
  9
$UCSORGTOP
 10
0.0
 20
0.0
 30
0.0
  9
$UCSORGBOTTOM
 10
0.0
 20
0.0
 30
0.0
  9
$UCSORGLEFT
 10
0.0
 20
0.0
 30
0.0
  9
$UCSORGRIGHT
 10
0.0
 20
0.0
 30
0.0
  9
$UCSORGFRONT
 10
0.0
 20
0.0
 30
0.0
  9
$UCSORGBACK
 10
0.0
 20
0.0
 30
0.0
  9
$PUCSBASE
  2

  9
$PUCSNAME
  2

  9
$PUCSORG
 10
0.0
 20
0.0
 30
0.0
  9
$PUCSXDIR
 10
1.0
 20
0.0
 30
0.0
  9
$PUCSYDIR
 10
0.0
 20
1.0
 30
0.0
  9
$PUCSORTHOREF
  2

  9
$PUCSORTHOVIEW
 70
     0
  9
$PUCSORGTOP
 10
0.0
 20
0.0
 30
0.0
  9
$PUCSORGBOTTOM
 10
0.0
 20
0.0
 30
0.0
  9
$PUCSORGLEFT
 10
0.0
 20
0.0
 30
0.0
  9
$PUCSORGRIGHT
 10
0.0
 20
0.0
 30
0.0
  9
$PUCSORGFRONT
 10
0.0
 20
0.0
 30
0.0
  9
$PUCSORGBACK
 10
0.0
 20
0.0
 30
0.0
  9
$USERI1
 70
     0
  9
$USERI2
 70
     0
  9
$USERI3
 70
     0
  9
$USERI4
 70
     0
  9
$USERI5
 70
     0
  9
$USERR1
 40
0.0
  9
$USERR2
 40
0.0
  9
$USERR3
 40
0.0
  9
$USERR4
 40
0.0
  9
$USERR5
 40
0.0
  9
$WORLDVIEW
 70
     1
  9
$SHADEDGE
 70
     3
  9
$SHADEDIF
 70
    70
  9
$TILEMODE
 70
     1
  9
$MAXACTVP
 70
    64
  9
$PINSBASE
 10
0.0
 20
0.0
 30
0.0
  9
$PLIMCHECK
 70
     0
  9
$PEXTMIN
 10
1.000000000000000E+20
 20
1.000000000000000E+20
 30
1.000000000000000E+20
  9
$PEXTMAX
 10
-1.000000000000000E+20
 20
-1.000000000000000E+20
 30
-1.000000000000000E+20
  9
$PLIMMIN
 10
0.0
 20
0.0
  9
$PLIMMAX
 10
0.0
 20
0.0
  9
$UNITMODE
 70
     0
  9
$VISRETAIN
 70
     1
  9
$PLINEGEN
 70
     0
  9
$PSLTSCALE
 70
     1
  9
$TREEDEPTH
 70
  3020
  9
$CMLSTYLE
  2
Standard
  9
$CMLJUST
 70
     0
  9
$CMLSCALE
 40
20.0
  9
$PROXYGRAPHICS
 70
     1
  9
$MEASUREMENT
 70
     1
  9
$CELWEIGHT
370
    -1
  9
$ENDCAPS
280
     0
  9
$JOINSTYLE
280
     0
  9
$LWDISPLAY
290
     1
  9
$INSUNITS
 70
     4
  9
$HYPERLINKBASE
  1

  9
$STYLESHEET
  1

  9
$XEDIT
290
     1
  9
$CEPSNTYPE
380
     0
  9
$PSTYLEMODE
290
     1
  9
$FINGERPRINTGUID
  2
{9D7CD245-9610-4991-AB77-E711210CBD4E}
  9
$VERSIONGUID
  2
{FAEB1C32-E019-11D5-929B-00C0DF256EC4}
  9
$EXTNAMES
290
     1
  9
$PSVPSCALE
 40
0.0
  9
$OLESTARTUP
290
     0
  0
ENDSEC
  0
SECTION
  2
CLASSES
  0
CLASS
  1
ACDBDICTIONARYWDFLT
  2
AcDbDictionaryWithDefault
  3
ObjectDBX Classes
 90
        0
280
     0
281
     0
  0
CLASS
  1
VISUALSTYLE
  2
AcDbVisualStyle
  3
ObjectDBX Classes
 90
     4095
280
     0
281
     0
  0
CLASS
  1
MATERIAL
  2
AcDbMaterial
  3
ObjectDBX Classes
 90
     1153
280
     0
281
     0
  0
CLASS
  1
SCALE
  2
AcDbScale
  3
ObjectDBX Classes
 90
     1153
280
     0
281
     0
  0
CLASS
  1
SUN
  2
AcDbSun
  3
SCENEOE
 90
     1153
280
     0
281
     0
  0
CLASS
  1
ACDBPLACEHOLDER
  2
AcDbPlaceHolder
  3
ObjectDBX Classes
 90
        0
280
     0
281
     0
  0
CLASS
  1
LAYOUT
  2
AcDbLayout
  3
ObjectDBX Classes
 90
        0
280
     0
281
     0
  0
CLASS
  1
TABLESTYLE
  2
AcDbTableStyle
  3
ObjectDBX Classes
 90
     4095
280
     0
281
     0
  0
CLASS
  1
MLEADERSTYLE
  2
AcDbMLeaderStyle
  3
ACDB_MLEADERSTYLE_CLASS
 90
     4095
280
     0
281
     0
  0
CLASS
  1
SORTENTSTABLE
  2
AcDbSortentsTable
  3
ObjectDBX Classes
 90
        0
280
     0
281
     0
  0
ENDSEC
  0
SECTION
  2
TABLES
  0
TABLE
  2
VPORT
  5
8
330
0
100
AcDbSymbolTable
 70
     1
  0
VPORT
  5
29
330
8
100
AcDbSymbolTableRecord
100
AcDbViewportTableRecord
  2
*Active
 70
     0
 10
0.0
 20
0.0
 11
1.0
 21
1.0
 12
11.08993822105313
 22
-15.70427851543126
 13
0.0
 23
0.0
 14
10.0
 24
10.0
 15
10.0
 25
10.0
 16
0.0
 26
0.0
 36
1.0
 17
0.0
 27
0.0
 37
0.0
 40
115.4708510319759
 41
1.163027656477438
 42
50.0
 43
0.0
 44
0.0
 50
0.0
 51
0.0
 71
    16
 72
  2000
 73
     1
 74
     3
 75
     0
 76
     0
 77
     0
 78
     0
281
     0
 65
     1
110
0.0
120
0.0
130
0.0
111
1.0
121
0.0
131
0.0
112
0.0
122
1.0
132
0.0
 79
     0
146
0.0
  0
ENDTAB
  0
TABLE
  2
LTYPE
  5
5
330
0
100
AcDbSymbolTable
 70
     6
  0
LTYPE
  5
14
330
5
100
AcDbSymbolTableRecord
100
AcDbLinetypeTableRecord
  2
ByBlock
 70
     0
  3

 72
    65
 73
     0
 40
0.0
  0
LTYPE
  5
15
330
5
100
AcDbSymbolTableRecord
100
AcDbLinetypeTableRecord
  2
ByLayer
 70
     0
  3

 72
    65
 73
     0
 40
0.0
  0
LTYPE
  5
16
330
5
100
AcDbSymbolTableRecord
100
AcDbLinetypeTableRecord
  2
Continuous
 70
     0
  3
Solid line
 72
    65
 73
     0
 40
0.0
  0
LTYPE
  5
6A
330
5
100
AcDbSymbolTableRecord
100
AcDbLinetypeTableRecord
  2
HIDDEN
 70
     0
  3
Hidden __ __ __ __ __ __ __ __ __ __ __ __ __ __
 72
    65
 73
     2
 40
1.905
 49
1.27
 74
     0
 49
-0.635
 74
     0
  0
LTYPE
  5
6B
330
5
100
AcDbSymbolTableRecord
100
AcDbLinetypeTableRecord
  2
PHANTOM
 70
     0
  3
Phantom ______  __  __  ______  __  __  ______
 72
    65
 73
     6
 40
12.7
 49
6.35
 74
     0
 49
-1.27
 74
     0
 49
1.27
 74
     0
 49
-1.27
 74
     0
 49
1.27
 74
     0
 49
-1.27
 74
     0
  0
LTYPE
  5
6C
330
5
100
AcDbSymbolTableRecord
100
AcDbLinetypeTableRecord
  2
CENTER
 70
     0
  3
Center ____ _ ____ _ ____ _ ____ _ ____ _ ____
 72
    65
 73
     4
 40
10.16
 49
6.35
 74
     0
 49
-1.27
 74
     0
 49
1.27
 74
     0
 49
-1.27
 74
     0
  0
LTYPE
  5
6D
330
5
100
AcDbSymbolTableRecord
100
AcDbLinetypeTableRecord
  2
CENTERX2
 70
     0
  3
Center (2x) ________  __  ________  __  _____
 72
    65
 73
     4
 40
20.32
 49
12.7
 74
     0
 49
-2.54
 74
     0
 49
2.54
 74
     0
 49
-2.54
 74
     0
  0
LTYPE
  5
6E
330
5
100
AcDbSymbolTableRecord
100
AcDbLinetypeTableRecord
  2
DOT2
 70
     0
  3
Dot (.5x) ........................................
 72
    65
 73
     2
 40
0.635
 49
0.0
 74
     0
 49
-0.635
 74
     0
  0
ENDTAB
  0
TABLE
  2
LAYER
  5
2
102
{ACAD_XDICTIONARY
360
1F8
102
}
330
0
100
AcDbSymbolTable
 70
    18
  0
LAYER
  5
10
330
2
100
AcDbSymbolTableRecord
100
AcDbLayerTableRecord
  2
0
 70
     0
 62
     7
  6
Continuous
370
    -3
390
F
  0
LAYER
  5
6F
330
2
100
AcDbSymbolTableRecord
100
AcDbLayerTableRecord
  2
FORMAT
 70
     0
 62
     2
  6
Continuous
370
    -3
390
F
  0
LAYER
  5
70
330
2
100
AcDbSymbolTableRecord
100
AcDbLayerTableRecord
  2
외형선
 70
     0
 62
     4
  6
Continuous
370
    30
390
F
  0
LAYER
  5
71
330
2
100
AcDbSymbolTableRecord
100
AcDbLayerTableRecord
  2
숨은선
 70
     0
 62
     2
  6
HIDDEN
370
    15
390
F
  0
LAYER
  5
72
330
2
100
AcDbSymbolTableRecord
100
AcDbLayerTableRecord
  2
중심선
 70
     0
 62
     1
  6
CENTERX2
370
    -3
390
F
  0
LAYER
  5
73
330
2
100
AcDbSymbolTableRecord
100
AcDbLayerTableRecord
  2
파단선
 70
     0
 62
     4
  6
Continuous
370
    -3
390
F
  0
LAYER
  5
74
330
2
100
AcDbSymbolTableRecord
100
AcDbLayerTableRecord
  2
해칭선
 70
     0
 62
   100
  6
Continuous
370
    -3
390
F
  0
LAYER
  5
75
330
2
100
AcDbSymbolTableRecord
100
AcDbLayerTableRecord
  2
가는실선
 70
     0
 62
     4
  6
Continuous
370
    -3
390
F
  0
LAYER
  5
76
330
2
100
AcDbSymbolTableRecord
100
AcDbLayerTableRecord
  2
치수_보조선
 70
     0
 62
     4
  6
Continuous
370
    -3
390
F
  0
LAYER
  5
77
330
2
100
AcDbSymbolTableRecord
100
AcDbLayerTableRecord
  2
치수문자_일반주서
 70
     0
 62
     7
  6
Continuous
370
    15
390
F
  0
LAYER
  5
78
330
2
100
AcDbSymbolTableRecord
100
AcDbLayerTableRecord
  2
개별주서
 70
     0
 62
   100
  6
Continuous
370
    30
390
F
  0
LAYER
  5
79
330
2
100
AcDbSymbolTableRecord
100
AcDbLayerTableRecord
  2
중간선
 70
     0
 62
     2
  6
Continuous
370
    15
390
F
  0
LAYER
  5
7A
330
2
100
AcDbSymbolTableRecord
100
AcDbLayerTableRecord
  2
윤곽선
 70
     0
 62
     3
  6
Continuous
370
    40
390
F
  0
LAYER
  5
7B
330
2
100
AcDbSymbolTableRecord
100
AcDbLayerTableRecord
  2
중심마크
 70
     0
 62
   100
  6
Continuous
370
    30
390
F
  0
LAYER
  5
7C
330
2
100
AcDbSymbolTableRecord
100
AcDbLayerTableRecord
  2
가상선
 70
     0
 62
     4
  6
PHANTOM
370
    -3
390
F
  0
LAYER
  5
7D
330
2
100
AcDbSymbolTableRecord
100
AcDbLayerTableRecord
  2
특수지정선
 70
     0
 62
     5
  6
CENTERX2
370
    60
390
F
  0
LAYER
  5
7E
330
2
100
AcDbSymbolTableRecord
100
AcDbLayerTableRecord
  2
참조1
 70
     0
 62
    -4
  6
Continuous
370
    -3
390
F
  0
LAYER
  5
14F
330
2
100
AcDbSymbolTableRecord
100
AcDbLayerTableRecord
  2
Defpoints
 70
     0
 62
     7
  6
Continuous
290
     0
370
    -3
390
F
  0
ENDTAB
  0
TABLE
  2
STYLE
  5
3
330
0
100
AcDbSymbolTable
 70
     2
  0
STYLE
  5
11
330
3
100
AcDbSymbolTableRecord
100
AcDbTextStyleTableRecord
  2
Standard
 70
     0
 40
0.0
 41
1.0
 50
0.0
 71
     0
 42
3.5
  3
txt
  4

  0
STYLE
  5
94
330
3
100
AcDbSymbolTableRecord
100
AcDbTextStyleTableRecord
  2
SLDTEXTSTYLE0
 70
     0
 40
0.0
 41
0.75
 50
0.0
 71
     0
 42
3.5
  3
TXT
  4

  0
ENDTAB
  0
TABLE
  2
VIEW
  5
6
330
0
100
AcDbSymbolTable
 70
     0
  0
ENDTAB
  0
TABLE
  2
UCS
  5
7
330
0
100
AcDbSymbolTable
 70
     0
  0
ENDTAB
  0
TABLE
  2
APPID
  5
9
330
0
100
AcDbSymbolTable
 70
     2
  0
APPID
  5
12
330
9
100
AcDbSymbolTableRecord
100
AcDbRegAppTableRecord
  2
ACAD
 70
     0
  0
APPID
  5
208
330
9
100
AcDbSymbolTableRecord
100
AcDbRegAppTableRecord
  2
PE_URL
 70
     0
  0
ENDTAB
  0
TABLE
  2
DIMSTYLE
  5
A
330
0
100
AcDbSymbolTable
 70
     4
100
AcDbDimStyleTable
  0
DIMSTYLE
105
27
102
{ACAD_REACTORS
330
180
102
}
330
A
100
AcDbSymbolTableRecord
100
AcDbDimStyleTableRecord
  2
ISO-25
 70
     0
 41
2.5
 42
0.625
 43
3.75
 44
1.25
 73
     0
 74
     0
 77
     1
 78
     8
140
2.5
141
2.5
143
0.03937007874016
147
0.625
171
     3
172
     1
178
     0
271
     2
272
     2
274
     3
278
    44
283
     0
284
     8
340
11
  0
DIMSTYLE
105
CF
102
{ACAD_REACTORS
330
CE
102
}
330
A
100
AcDbSymbolTableRecord
100
AcDbDimStyleTableRecord
  2
SLDDIMSTYLE0
 70
     0
 41
3.302
 44
0.0
 45
0.000000001
 73
     0
 74
     0
 77
     1
 78
     4
 79
     1
140
3.5
143
0.0393700787401575
147
0.875
148
0.000000001
170
     1
173
     1
178
     0
271
     2
272
     2
276
     2
284
    12
340
94
  0
DIMSTYLE
105
E3
102
{ACAD_REACTORS
330
E2
330
10B
102
}
330
A
100
AcDbSymbolTableRecord
100
AcDbDimStyleTableRecord
  2
SLDDIMSTYLE1
 70
     0
 41
3.302
 44
0.0
 45
0.000000001
 73
     0
 74
     0
 77
     1
 78
    12
 79
     3
140
3.5
143
0.0393700787401575
147
0.875
148
0.000000001
170
     1
172
     1
173
     1
178
     0
271
     2
272
     2
276
     2
284
    12
289
     0
340
94
  0
DIMSTYLE
105
F8
102
{ACAD_REACTORS
330
F7
102
}
330
A
100
AcDbSymbolTableRecord
100
AcDbDimStyleTableRecord
  2
SLDDIMSTYLE2
 70
     0
 41
3.302
 44
0.0
 45
0.000000001
 73
     0
 74
     0
 77
     1
 78
    12
 79
     3
140
3.5
143
0.0393700787401575
147
0.875
148
0.000000001
170
     1
173
     1
178
     0
271
     2
272
     2
276
     2
284
    12
340
94
  0
ENDTAB
  0
TABLE
  2
BLOCK_RECORD
  5
1
330
0
100
AcDbSymbolTable
 70
     7
  0
BLOCK_RECORD
  5
1F
102
{ACAD_XDICTIONARY
360
24F
102
}
330
1
100
AcDbSymbolTableRecord
100
AcDbBlockTableRecord
  2
*Model_Space
340
22
  0
BLOCK_RECORD
  5
1B
330
1
100
AcDbSymbolTableRecord
100
AcDbBlockTableRecord
  2
*Paper_Space
340
1E
  0
BLOCK_RECORD
  5
23
330
1
100
AcDbSymbolTableRecord
100
AcDbBlockTableRecord
  2
*Paper_Space0
340
26
  0
BLOCK_RECORD
  5
7F
330
1
100
AcDbSymbolTableRecord
100
AcDbBlockTableRecord
  2
블럭10
340
0
102
{BLKREFS
331
C7
102
}
  0
BLOCK_RECORD
  5
D0
330
1
100
AcDbSymbolTableRecord
100
AcDbBlockTableRecord
  2
_D
340
0
  0
BLOCK_RECORD
  5
E4
330
1
100
AcDbSymbolTableRecord
100
AcDbBlockTableRecord
  2
_D_1
340
0
  0
BLOCK_RECORD
  5
F9
330
1
100
AcDbSymbolTableRecord
100
AcDbBlockTableRecord
  2
_D_2
340
0
  0
BLOCK_RECORD
  5
10C
330
1
100
AcDbSymbolTableRecord
100
AcDbBlockTableRecord
  2
_D_3
340
0
  0
BLOCK_RECORD
  5
126
330
1
100
AcDbSymbolTableRecord
100
AcDbBlockTableRecord
  2
SW_DOWELSYMBOL_0
340
0
102
{BLKREFS
331
12C
102
}
  0
ENDTAB
  0
ENDSEC
  0
SECTION
  2
BLOCKS
  0
BLOCK
  5
20
330
1F
100
AcDbEntity
  8
0
100
AcDbBlockBegin
  2
*Model_Space
 70
     0
 10
0.0
 20
0.0
 30
0.0
  3
*Model_Space
  1

  0
ENDBLK
  5
21
330
1F
100
AcDbEntity
  8
0
100
AcDbBlockEnd
  0
BLOCK
  5
1C
330
1B
100
AcDbEntity
 67
     1
  8
0
100
AcDbBlockBegin
  2
*Paper_Space
 70
     0
 10
0.0
 20
0.0
 30
0.0
  3
*Paper_Space
  1

  0
ENDBLK
  5
1D
330
1B
100
AcDbEntity
 67
     1
  8
0
100
AcDbBlockEnd
  0
BLOCK
  5
24
330
23
100
AcDbEntity
  8
0
100
AcDbBlockBegin
  2
*Paper_Space0
 70
     0
 10
0.0
 20
0.0
 30
0.0
  3
*Paper_Space0
  1

  0
ENDBLK
  5
25
330
23
100
AcDbEntity
  8
0
100
AcDbBlockEnd
  0
BLOCK
  5
80
330
7F
100
AcDbEntity
  8
0
100
AcDbBlockBegin
  2
블럭10
 70
     2
 10
0.0
 20
0.0
 30
0.0
  3
블럭10
  1

  0
ELLIPSE
  5
82
330
7F
100
AcDbEntity
  8
중심선
100
AcDbEllipse
 10
20.54032771741204
 20
12.0471743016438
 30
0.0
 11
6.600054785286829
 21
-1.261213355974178E-13
 31
0.0
210
0.0
220
0.0
230
1.0
 40
0.636358354079598
 41
0.9219305317359503
 42
6.513795318482858
  0
ELLIPSE
  5
83
330
7F
100
AcDbEntity
  8
중심선
100
AcDbEllipse
 10
20.54032771746488
 20
12.04717430159265
 30
0.0
 11
3.960054785062283
 21
1.540847449632565E-10
 31
0.0
210
0.0
220
0.0
230
1.0
 40
0.3939339440162632
 41
1.131841032648279
 42
5.62031148352944
  0
LINE
  5
84
330
7F
100
AcDbEntity
  8
중심선
100
AcDbLine
 10
2.268634060543552
 20
16.24717430164393
 30
0.0
 11
5.714909304380834
 21
16.24717430164393
 31
0.0
  0
LINE
  5
85
330
7F
100
AcDbEntity
  8
중심선
100
AcDbLine
 10
5.245725140726316
 20
7.84717430164391
 30
0.0
 11
8.692000384563599
 21
7.84717430164391
 31
0.0
  0
LINE
  5
86
330
7F
100
AcDbEntity
  8
중심선
100
AcDbLine
 10
15.74043728645272
 20
16.24717430164393
 30
0.0
 11
8.692000384563599
 21
7.84717430164391
 31
0.0
  0
LINE
  5
87
330
7F
100
AcDbEntity
  8
중심선
100
AcDbLine
 10
0.1404042013395286
 20
13.71084872107135
 30
0.0
 11
3.58671253028996
 21
13.71088815037384
 31
0.0
  0
LINE
  5
88
330
7F
100
AcDbEntity
  8
중심선
100
AcDbLine
 10
2.750260043222114
 20
10.84717430164391
 30
0.0
 11
6.196535287059397
 21
10.84717430164391
 31
0.0
  0
LINE
  5
89
330
7F
100
AcDbEntity
  8
중심선
100
AcDbLine
 10
12.29416204261559
 20
16.24717430164393
 30
0.0
 11
5.245725140726316
 21
7.84717430164391
 31
0.0
  0
LINE
  5
8A
330
7F
100
AcDbEntity
  8
중심선
100
AcDbLine
 10
10.72767329541681
 20
16.24717430164393
 30
0.0
 11
6.196535287059397
 21
10.84717430164391
 31
0.0
  0
LINE
  5
8B
330
7F
100
AcDbEntity
  8
중심선
100
AcDbLine
 10
7.28139805157953
 20
16.24717430164393
 30
0.0
 11
2.750260043222114
 21
10.84717430164391
 31
0.0
  0
LINE
  5
8C
330
7F
100
AcDbEntity
  8
중심선
100
AcDbLine
 10
5.714909304380834
 20
16.24717430164393
 30
0.0
 11
3.58671253028996
 21
13.71088815037384
 31
0.0
  0
LINE
  5
8D
330
7F
100
AcDbEntity
  8
중심선
100
AcDbLine
 10
2.268634060543552
 20
16.24717430164393
 30
0.0
 11
0.1404042013395286
 21
13.71084872107135
 31
0.0
  0
LINE
  5
8E
330
7F
100
AcDbEntity
  8
중심선
100
AcDbLine
 10
7.28139805157953
 20
16.24717430164393
 30
0.0
 11
10.72767329541681
 21
16.24717430164393
 31
0.0
  0
LINE
  5
8F
330
7F
100
AcDbEntity
  8
중심선
100
AcDbLine
 10
12.29416204261559
 20
16.24717430164393
 30
0.0
 11
15.74043728645272
 21
16.24717430164393
 31
0.0
  0
LINE
  5
90
330
7F
100
AcDbEntity
  8
중심선
100
AcDbLine
 10
19.22036997980202
 20
11.08717430171403
 30
0.0
 11
23.66174974927406
 21
11.08717430171406
 31
0.0
  0
LINE
  5
91
330
7F
100
AcDbEntity
  8
중심선
100
AcDbLine
 10
19.22039502424796
 20
13.00717430171391
 30
0.0
 11
19.22036997980202
 21
11.08717430171403
 31
0.0
  0
LINE
  5
92
330
7F
100
AcDbEntity
  8
중심선
100
AcDbLine
 10
19.22039502424796
 20
13.00717430171391
 30
0.0
 11
26.96566020931264
 21
13.00717430171391
 31
0.0
  0
LINE
  5
93
330
7F
100
AcDbEntity
  8
중심선
100
AcDbLine
 10
22.22332737316547
 20
13.45928029700563
 30
0.0
 11
24.52862924686651
 21
15.39360700705356
 31
0.0
  0
ATTDEF
  5
95
330
7F
100
AcDbEntity
  8
FORMAT
 62
     2
100
AcDbText
 10
4.408487351596664
 20
2.075366912832191
 30
0.0
 40
4.233333333333333
  1
E5104022
 41
0.75
  7
SLDTEXTSTYLE0
 11
4.408487351596664
 21
-0.0412997538344756
 31
0.0
100
AcDbAttributeDefinition
  3

  2
AUTOATTR0
 70
     0
 74
     1
  0
ENDBLK
  5
81
330
7F
100
AcDbEntity
  8
0
100
AcDbBlockEnd
  0
BLOCK
  5
D1
330
D0
100
AcDbEntity
  8
0
100
AcDbBlockBegin
  2
_D
 70
     0
 10
0.0
 20
0.0
 30
0.0
  3
_D
  1

  0
LINE
  5
D3
330
D0
100
AcDbEntity
  8
치수문자_일반주서
 62
     0
370
    -2
100
AcDbLine
 10
-28.1
 20
4.824999999999988
 30
0.0
 11
-28.1
 21
41.60931198295385
 31
0.0
  0
LINE
  5
D4
330
D0
100
AcDbEntity
  8
치수문자_일반주서
 62
     0
370
    -2
100
AcDbLine
 10
35.40000000000001
 20
4.42812500000006
 30
0.0
 11
35.40000000000001
 21
41.60931198295385
 31
0.0
  0
LINE
  5
D5
330
D0
100
AcDbEntity
  8
치수문자_일반주서
 62
     0
370
    -2
100
AcDbLine
 10
-24.798
 20
41.60931198295385
 30
0.0
 11
32.09800000000001
 21
41.60931198295385
 31
0.0
  0
SOLID
  5
D6
330
D0
100
AcDbEntity
  8
치수문자_일반주서
 62
     0
100
AcDbTrace
 10
-24.798
 20
42.15964531628718
 30
0.0
 11
-24.798
 21
41.05897864962051
 31
0.0
 12
-28.1
 22
41.60931198295385
 32
0.0
 13
-28.1
 23
41.60931198295385
 33
0.0
  0
SOLID
  5
D7
330
D0
100
AcDbEntity
  8
치수문자_일반주서
 62
     0
100
AcDbTrace
 10
32.09800000000001
 20
41.05897864962051
 30
0.0
 11
32.09800000000001
 21
42.15964531628718
 31
0.0
 12
35.40000000000001
 22
41.60931198295385
 32
0.0
 13
35.40000000000001
 23
41.60931198295385
 33
0.0
  0
MTEXT
  5
D8
330
D0
100
AcDbEntity
  8
치수문자_일반주서
 62
     0
100
AcDbMText
 10
3.650000000000002
 20
45.98431198295385
 30
0.0
 40
3.5
 41
0.0
 71
     2
 72
     1
  1
\A1;63.50 [2 1/2]
  7
SLDTEXTSTYLE0
 73
     1
 44
1.0
  0
POINT
  5
D9
330
D0
100
AcDbEntity
  8
Defpoints
 62
     0
100
AcDbPoint
 10
-28.1
 20
4.762499999999988
 30
0.0
  0
POINT
  5
DA
330
D0
100
AcDbEntity
  8
Defpoints
 62
     0
100
AcDbPoint
 10
35.40000000000001
 20
4.36562500000006
 30
0.0
  0
POINT
  5
DB
330
D0
100
AcDbEntity
  8
Defpoints
 62
     0
100
AcDbPoint
 10
35.40000000000001
 20
41.60931198295385
 30
0.0
  0
ENDBLK
  5
D2
330
D0
100
AcDbEntity
  8
0
100
AcDbBlockEnd
  0
BLOCK
  5
E5
330
E4
100
AcDbEntity
  8
0
100
AcDbBlockBegin
  2
_D_1
 70
     0
 10
0.0
 20
0.0
 30
0.0
  3
_D_1
  1

  0
LINE
  5
E7
330
E4
100
AcDbEntity
  8
치수문자_일반주서
 62
     0
370
    -2
100
AcDbLine
 10
-28.1625
 20
4.762499999999994
 30
0.0
 11
-37.96665404862571
 21
4.762499999999957
 31
0.0
  0
LINE
  5
E8
330
E4
100
AcDbEntity
  8
치수문자_일반주서
 62
     0
370
    -2
100
AcDbLine
 10
-28.14659498378634
 20
-4.76250000000001
 30
0.0
 11
-37.96665404862567
 21
-4.762500000000049
 31
0.0
  0
LINE
  5
E9
330
E4
100
AcDbEntity
  8
치수문자_일반주서
 62
     0
370
    -2
100
AcDbLine
 10
-37.96665404862571
 20
4.762499999999957
 30
0.0
 11
-37.96665404862583
 21
37.83524999999996
 31
0.0
  0
LINE
  5
EA
330
E4
100
AcDbEntity
  8
치수문자_일반주서
 62
     0
370
    -2
100
AcDbLine
 10
-37.96665404862571
 20
4.762499999999957
 30
0.0
 11
-37.96665404862567
 21
-4.762500000000049
 31
0.0
  0
LINE
  5
EB
330
E4
100
AcDbEntity
  8
치수문자_일반주서
 62
     0
370
    -2
100
AcDbLine
 10
-37.96665404862572
 20
8.064499999999956
 30
0.0
 11
-37.96665404862573
 21
11.36649999999996
 31
0.0
  0
LINE
  5
EC
330
E4
100
AcDbEntity
  8
치수문자_일반주서
 62
     0
370
    -2
100
AcDbLine
 10
-37.96665404862566
 20
-8.064500000000049
 30
0.0
 11
-37.96665404862564
 21
-11.36650000000005
 31
0.0
  0
SOLID
  5
ED
330
E4
100
AcDbEntity
  8
치수문자_일반주서
 62
     0
100
AcDbTrace
 10
-38.51698738195905
 20
8.064499999999954
 30
0.0
 11
-37.41632071529239
 21
8.064499999999958
 31
0.0
 12
-37.96665404862571
 22
4.762499999999957
 32
0.0
 13
-37.96665404862571
 23
4.762499999999957
 33
0.0
  0
SOLID
  5
EE
330
E4
100
AcDbEntity
  8
치수문자_일반주서
 62
     0
100
AcDbTrace
 10
-37.41632071529232
 20
-8.064500000000047
 30
0.0
 11
-38.51698738195899
 21
-8.06450000000005
 31
0.0
 12
-37.96665404862567
 22
-4.762500000000049
 32
0.0
 13
-37.96665404862567
 23
-4.762500000000049
 33
0.0
  0
MTEXT
  5
EF
330
E4
100
AcDbEntity
  8
치수문자_일반주서
 62
     0
100
AcDbMText
 10
-42.34165404862578
 20
24.71024999999994
 30
0.0
 40
3.5
 41
0.0
 71
     2
 72
     1
  1
\A1;%%c9.53 [3/8]
  7
SLDTEXTSTYLE0
 11
-3.729883127349606E-15
 21
1.0
 31
0.0
 73
     1
 44
1.0
  0
POINT
  5
150
330
E4
100
AcDbEntity
  8
Defpoints
 62
     0
100
AcDbPoint
 10
-28.1
 20
4.762499999999994
 30
0.0
  0
POINT
  5
151
330
E4
100
AcDbEntity
  8
Defpoints
 62
     0
100
AcDbPoint
 10
-28.08409498378634
 20
-4.76250000000001
 30
0.0
  0
POINT
  5
152
330
E4
100
AcDbEntity
  8
Defpoints
 62
     0
100
AcDbPoint
 10
-37.96665404862567
 20
-4.762500000000047
 30
0.0
  0
ENDBLK
  5
E6
330
E4
100
AcDbEntity
  8
0
100
AcDbBlockEnd
  0
BLOCK
  5
FA
330
F9
100
AcDbEntity
  8
0
100
AcDbBlockBegin
  2
_D_2
 70
     0
 10
0.0
 20
0.0
 30
0.0
  3
_D_2
  1

  0
LINE
  5
FC
330
F9
100
AcDbEntity
  8
치수문자_일반주서
 62
     0
370
    -2
100
AcDbLine
 10
35.40000000000001
 20
4.42812500000006
 30
0.0
 11
35.40000000000002
 21
23.2037021104007
 31
0.0
  0
LINE
  5
FD
330
F9
100
AcDbEntity
  8
치수문자_일반주서
 62
     0
370
    -2
100
AcDbLine
 10
10.00000000000003
 20
4.825000000000007
 30
0.0
 11
10.00000000000003
 21
23.2037021104007
 31
0.0
  0
LINE
  5
FE
330
F9
100
AcDbEntity
  8
치수문자_일반주서
 62
     0
370
    -2
100
AcDbLine
 10
10.00000000000003
 20
23.2037021104007
 30
0.0
 11
-13.42699999999997
 21
23.2037021104007
 31
0.0
  0
LINE
  5
FF
330
F9
100
AcDbEntity
  8
치수문자_일반주서
 62
     0
370
    -2
100
AcDbLine
 10
32.09800000000002
 20
23.2037021104007
 30
0.0
 11
13.30200000000003
 21
23.2037021104007
 31
0.0
  0
SOLID
  5
100
330
F9
100
AcDbEntity
  8
치수문자_일반주서
 62
     0
100
AcDbTrace
 10
32.09800000000002
 20
22.65336877706737
 30
0.0
 11
32.09800000000002
 21
23.75403544373404
 31
0.0
 12
35.40000000000002
 22
23.2037021104007
 32
0.0
 13
35.40000000000002
 23
23.2037021104007
 33
0.0
  0
SOLID
  5
101
330
F9
100
AcDbEntity
  8
치수문자_일반주서
 62
     0
100
AcDbTrace
 10
13.30200000000003
 20
23.75403544373404
 30
0.0
 11
13.30200000000003
 21
22.65336877706737
 31
0.0
 12
10.00000000000003
 22
23.2037021104007
 32
0.0
 13
10.00000000000003
 23
23.2037021104007
 33
0.0
  0
MTEXT
  5
102
330
F9
100
AcDbEntity
  8
치수문자_일반주서
 62
     0
100
AcDbMText
 10
-4.676999999999968
 20
27.5787021104007
 30
0.0
 40
3.5
 41
0.0
 71
     2
 72
     1
  1
\A1;25.4 [1]
  7
SLDTEXTSTYLE0
 73
     1
 44
1.0
  0
POINT
  5
103
330
F9
100
AcDbEntity
  8
Defpoints
 62
     0
100
AcDbPoint
 10
35.40000000000001
 20
4.36562500000006
 30
0.0
  0
POINT
  5
104
330
F9
100
AcDbEntity
  8
Defpoints
 62
     0
100
AcDbPoint
 10
10.00000000000003
 20
4.762500000000007
 30
0.0
  0
POINT
  5
153
330
F9
100
AcDbEntity
  8
Defpoints
 62
     0
100
AcDbPoint
 10
10.00000000000003
 20
23.2037021104007
 30
0.0
  0
ENDBLK
  5
FB
330
F9
100
AcDbEntity
  8
0
100
AcDbBlockEnd
  0
BLOCK
  5
10D
330
10C
100
AcDbEntity
  8
0
100
AcDbBlockBegin
  2
_D_3
 70
     0
 10
0.0
 20
0.0
 30
0.0
  3
_D_3
  1

  0
LINE
  5
10F
330
10C
100
AcDbEntity
  8
치수문자_일반주서
 62
     0
370
    -2
100
AcDbLine
 10
35.46250000000001
 20
4.36562500000006
 30
0.0
 11
45.39999999999999
 21
4.365625000000097
 31
0.0
  0
LINE
  5
110
330
10C
100
AcDbEntity
  8
치수문자_일반주서
 62
     0
370
    -2
100
AcDbLine
 10
35.46289060850838
 20
-4.365624999999954
 30
0.0
 11
45.40000000000002
 21
-4.365624999999916
 31
0.0
  0
LINE
  5
111
330
10C
100
AcDbEntity
  8
치수문자_일반주서
 62
     0
370
    -2
100
AcDbLine
 10
45.39999999999999
 20
4.365625000000097
 30
0.0
 11
45.39999999999987
 21
40.71962500000009
 31
0.0
  0
LINE
  5
112
330
10C
100
AcDbEntity
  8
치수문자_일반주서
 62
     0
370
    -2
100
AcDbLine
 10
45.39999999999999
 20
4.365625000000097
 30
0.0
 11
45.40000000000002
 21
-4.365624999999916
 31
0.0
  0
LINE
  5
113
330
10C
100
AcDbEntity
  8
치수문자_일반주서
 62
     0
370
    -2
100
AcDbLine
 10
45.39999999999998
 20
7.667625000000097
 30
0.0
 11
45.39999999999996
 21
10.9696250000001
 31
0.0
  0
LINE
  5
114
330
10C
100
AcDbEntity
  8
치수문자_일반주서
 62
     0
370
    -2
100
AcDbLine
 10
45.40000000000003
 20
-7.667624999999916
 30
0.0
 11
45.40000000000005
 21
-10.96962499999992
 31
0.0
  0
SOLID
  5
115
330
10C
100
AcDbEntity
  8
치수문자_일반주서
 62
     0
100
AcDbTrace
 10
44.84966666666664
 20
7.667625000000095
 30
0.0
 11
45.95033333333331
 21
7.667625000000099
 31
0.0
 12
45.39999999999999
 22
4.365625000000097
 32
0.0
 13
45.39999999999999
 23
4.365625000000097
 33
0.0
  0
SOLID
  5
116
330
10C
100
AcDbEntity
  8
치수문자_일반주서
 62
     0
100
AcDbTrace
 10
45.95033333333337
 20
-7.667624999999914
 30
0.0
 11
44.8496666666667
 21
-7.667624999999918
 31
0.0
 12
45.40000000000002
 22
-4.365624999999916
 32
0.0
 13
45.40000000000002
 23
-4.365624999999916
 33
0.0
  0
MTEXT
  5
117
330
10C
100
AcDbEntity
  8
치수문자_일반주서
 62
     0
100
AcDbMText
 10
41.02499999999992
 20
25.84462500000008
 30
0.0
 40
3.5
 41
0.0
 71
     2
 72
     1
  1
\A1;%%c8.73 [11/32]
  7
SLDTEXTSTYLE0
 11
-3.255170729323288E-15
 21
1.0
 31
0.0
 73
     1
 44
1.0
  0
POINT
  5
118
330
10C
100
AcDbEntity
  8
Defpoints
 62
     0
100
AcDbPoint
 10
35.40000000000001
 20
4.36562500000006
 30
0.0
  0
POINT
  5
119
330
10C
100
AcDbEntity
  8
Defpoints
 62
     0
100
AcDbPoint
 10
35.40039060850838
 20
-4.365624999999954
 30
0.0
  0
POINT
  5
11A
330
10C
100
AcDbEntity
  8
Defpoints
 62
     0
100
AcDbPoint
 10
45.40000000000002
 20
-4.365624999999917
 30
0.0
  0
ENDBLK
  5
10E
330
10C
100
AcDbEntity
  8
0
100
AcDbBlockEnd
  0
BLOCK
  5
127
330
126
100
AcDbEntity
  8
0
100
AcDbBlockBegin
  2
SW_DOWELSYMBOL_0
 70
     0
 10
0.0
 20
0.0
 30
0.0
  3
SW_DOWELSYMBOL_0
  1

  0
CIRCLE
  5
129
330
126
100
AcDbEntity
  8
해칭선
 62
     0
100
AcDbCircle
 10
0.0
 20
0.0
 30
0.0
 40
3.000000000000002
  0
HATCH
  5
12A
330
126
100
AcDbEntity
  8
0
  6
Continuous
 62
     0
370
     0
100
AcDbHatch
 10
0.0
 20
0.0
 30
0.0
210
0.0
220
0.0
230
1.0
  2
SOLID
 70
     1
 71
     0
 91
        1
 92
        0
 93
        3
 72
     2
 10
0.0000000000000069
 20
0.0
 40
3.000000000000002
 50
0.0
 51
90.0
 73
     1
 72
     1
 10
0.0000000000000069
 20
3.000000000000002
 11
0.0000000000000069
 21
0.0
 72
     1
 10
0.0000000000000069
 20
0.0
 11
3.000000000000009
 21
0.0
 97
        0
 75
     0
 76
     1
 98
        1
 10
0.0
 20
0.0
  0
HATCH
  5
12B
330
126
100
AcDbEntity
  8
0
  6
Continuous
 62
     0
370
     0
100
AcDbHatch
 10
0.0
 20
0.0
 30
0.0
210
0.0
220
0.0
230
1.0
  2
SOLID
 70
     1
 71
     0
 91
        1
 92
        0
 93
        3
 72
     2
 10
0.0000000000000069
 20
0.0
 40
3.000000000000002
 50
180.0
 51
270.0000000000007
 73
     1
 72
     1
 10
0.0000000000000069
 20
-3.000000000000002
 11
0.0000000000000069
 21
0.0
 72
     1
 10
0.0000000000000069
 20
0.0
 11
-2.999999999999995
 21
0.0
 97
        0
 75
     0
 76
     1
 98
        1
 10
0.0
 20
0.0
  0
ENDBLK
  5
128
330
126
100
AcDbEntity
  8
0
100
AcDbBlockEnd
  0
ENDSEC
  0
SECTION
  2
ENTITIES
  0
LINE
  5
98
330
1F
100
AcDbEntity
  8
외형선
  6
Continuous
370
    15
100
AcDbLine
 10
-13.09495000000011
 20
4.762499999999983
 30
0.0
 11
-27.6
 21
4.762499999999994
 31
0.0
  0
LINE
  5
99
330
1F
100
AcDbEntity
  8
외형선
  6
Continuous
370
    15
100
AcDbLine
 10
-27.6
 20
-4.762500000000005
 30
0.0
 11
5.849902345263672
 21
-4.762500000000005
 31
0.0
  0
LINE
  5
9A
330
1F
100
AcDbEntity
  8
외형선
  6
Continuous
370
    15
100
AcDbLine
 10
-27.6
 20
4.762499999999992
 30
0.0
 11
-28.1
 21
4.262499999999992
 31
0.0
  0
LINE
  5
9B
330
1F
100
AcDbEntity
  8
외형선
  6
Continuous
370
    15
100
AcDbLine
 10
-28.1
 20
-4.262500000000003
 30
0.0
 11
-27.6
 21
-4.762500000000003
 31
0.0
  0
LINE
  5
9C
330
1F
100
AcDbEntity
  8
외형선
  6
Continuous
370
    15
100
AcDbLine
 10
10.00000000000001
 20
4.365624999999994
 30
0.0
 11
9.000000000000007
 21
4.365624999999994
 31
0.0
  0
LINE
  5
9D
330
1F
100
AcDbEntity
  8
외형선
  6
Continuous
 62
     1
370
    15
100
AcDbLine
 10
33.70156620080621
 20
-4.365625000000005
 30
0.0
 11
34.89200000000001
 21
-4.365625000000005
 31
0.0
  0
LINE
  5
9E
330
1F
100
AcDbEntity
  8
외형선
  6
Continuous
 62
     1
370
    15
100
AcDbLine
 10
19.9420762243099
 20
4.365624999999994
 30
0.0
 11
10.00000000000001
 21
4.365624999999994
 31
0.0
  0
LINE
  5
9F
330
1F
100
AcDbEntity
  8
외형선
  6
Continuous
 62
     1
370
    15
100
AcDbLine
 10
17.86423832115093
 20
-4.365625000000005
 30
0.0
 11
27.86056467101815
 21
-4.365625000000005
 31
0.0
  0
ARC
  5
A0
330
1F
100
AcDbEntity
  8
외형선
  6
Continuous
 62
     1
370
    15
100
AcDbCircle
 10
34.89200000000001
 20
-3.857625000000005
 30
0.0
 40
0.508
100
AcDbArc
 50
270.0000000000007
 51
0.0
  0
LINE
  5
A3
330
1F
100
AcDbEntity
  8
외형선
  6
Continuous
 62
     1
370
    15
100
AcDbLine
 10
11.17199502587815
 20
-4.365625000000005
 30
0.0
 11
12.02247565793445
 21
-4.365625000000005
 31
0.0
  0
LINE
  5
A6
330
1F
100
AcDbEntity
  8
외형선
  6
Continuous
370
    15
100
AcDbLine
 10
9.000000000000007
 20
4.365624999999994
 30
0.0
 11
9.00000000000001
 21
-4.365624999999994
 31
0.0
  0
LINE
  5
A8
330
1F
100
AcDbEntity
  8
외형선
  6
Continuous
370
    15
100
AcDbLine
 10
-27.6
 20
4.762499999999992
 30
0.0
 11
-27.6
 21
-4.762499999999996
 31
0.0
  0
LINE
  5
A9
330
1F
100
AcDbEntity
  8
외형선
  6
Continuous
370
    15
100
AcDbLine
 10
-28.1
 20
4.262499999999992
 30
0.0
 11
-28.1
 21
-4.262500000000003
 31
0.0
  0
SPLINE
  5
AA
330
1F
100
AcDbEntity
  8
외형선
  6
Continuous
370
    15
100
AcDbSpline
210
0.0
220
0.0
230
1.0
 70
     8
 71
     3
 72
     8
 73
     4
 74
     0
 42
0.000000001
 43
0.00000001
 40
0.0
 40
0.0
 40
0.0
 40
0.0
 40
1.0
 40
1.0
 40
1.0
 40
1.0
 10
10.00000000000001
 20
-4.313431033865784
 30
0.0
 10
9.667349095222871
 20
-4.283755324487864
 30
0.0
 10
9.334950572996574
 20
-4.24151354336795
 30
0.0
 10
9.00000000000001
 20
-4.18687178714922
 30
0.0
  0
LINE
  5
AB
330
1F
100
AcDbEntity
  8
외형선
  6
Continuous
370
    15
100
AcDbLine
 10
10.00000000000001
 20
4.365624999999994
 30
0.0
 11
10.00000000000001
 21
-4.313431033865784
 31
0.0
  0
SPLINE
  5
AC
330
1F
100
AcDbEntity
  8
외형선
  6
Continuous
 62
     1
370
    15
100
AcDbSpline
210
0.0
220
0.0
230
1.0
 70
     8
 71
     3
 72
    17
 73
    13
 74
     0
 42
0.000000001
 43
0.00000001
 40
0.0
 40
0.0
 40
0.0
 40
0.0
 40
0.072744951546322
 40
0.1829097030172011
 40
0.2895980650912022
 40
0.3970386759337534
 40
0.5030293627031056
 40
0.6090204853069778
 40
0.7180279582413607
 40
0.8270351866819341
 40
0.913318436113046
 40
1.0
 40
1.0
 40
1.0
 40
1.0
 10
22.86280320844726
 20
4.028760156007141
 30
0.0
 10
23.16524279917304
 20
4.055160354527903
 30
0.0
 10
23.92569606148732
 20
4.121540939962108
 30
0.0
 10
25.13073675415777
 20
4.075225258282395
 30
0.0
 10
26.47910810776371
 20
3.911869350066956
 30
0.0
 10
27.81136164527182
 20
3.625418154128036
 30
0.0
 10
29.13915313835318
 20
3.227169435576644
 30
0.0
 10
30.47432926303276
 20
2.728884121593457
 30
0.0
 10
31.82226193270982
 20
2.139347701866317
 30
0.0
 10
33.08823630328924
 20
1.521951204332312
 30
0.0
 10
34.26021979911779
 20
0.9118264520243268
 30
0.0
 10
34.97976875899468
 20
0.5251153281987148
 30
0.0
 10
35.34037175066019
 20
0.3313144947075463
 30
0.0
  0
SPLINE
  5
AD
330
1F
100
AcDbEntity
  8
외형선
  6
Continuous
 62
     1
370
    15
100
AcDbSpline
210
0.0
220
0.0
230
1.0
 70
     8
 71
     3
 72
    18
 73
    14
 74
     0
 42
0.000000001
 43
0.00000001
 40
0.0
 40
0.0
 40
0.0
 40
0.0
 40
0.2499999999999997
 40
0.2499999999999997
 40
0.4999999999999993
 40
0.4999999999999993
 40
0.749999999999999
 40
0.749999999999999
 40
0.8749999999999994
 40
0.8749999999999994
 40
0.9374999999999998
 40
0.9374999999999998
 40
1.0
 40
1.0
 40
1.0
 40
1.0
 10
35.34037175065958
 20
0.3313144947077884
 30
0.0
 10
35.35607878126241
 20
0.1386302301449363
 30
0.0
 10
35.36262106687244
 20
-0.0542584180060332
 30
0.0
 10
35.3658822800568
 20
-0.44039399507202
 30
0.0
 10
35.36284492396459
 20
-0.6336161304119152
 30
0.0
 10
35.33942528511086
 20
-1.020923194044878
 30
0.0
 10
35.32163170355895
 20
-1.215859518190019
 30
0.0
 10
35.24438851398914
 20
-1.496410690516053
 30
0.0
 10
35.2102507780232
 20
-1.591684862324591
 30
0.0
 10
35.11752504074141
 20
-1.703428596051914
 30
0.0
 10
35.07693928257253
 20
-1.735188320385814
 30
0.0
 10
34.98460981241789
 20
-1.758075225900848
 30
0.0
 10
34.9346523755213
 20
-1.747912755588844
 30
0.0
 10
34.89200000000001
 20
-1.725314686400899
 30
0.0
  0
SPLINE
  5
AE
330
1F
100
AcDbEntity
  8
외형선
  6
Continuous
 62
     1
370
    15
100
AcDbSpline
210
0.0
220
0.0
230
1.0
 70
     8
 71
     3
 72
    67
 73
    63
 74
     0
 42
0.000000001
 43
0.00000001
 40
0.0
 40
0.0
 40
0.0
 40
0.0
 40
0.058399304511701
 40
0.0660290309257291
 40
0.073650507994187
 40
0.0812637386948601
 40
0.0888687260152193
 40
0.0964654729524623
 40
0.1040539825135496
 40
0.1097650407067402
 40
0.1209313962705048
 40
0.1374584418843393
 40
0.1579925324717494
 40
0.1737009049359309
 40
0.1874965628555326
 40
0.1993794994676051
 40
0.2109415256844962
 40
0.2256354322460626
 40
0.2403624923755864
 40
0.2551227135817001
 40
0.274592635461784
 40
0.2923732426245941
 40
0.3051878470097882
 40
0.3142066267419172
 40
0.3289197377375275
 40
0.3436245791088327
 40
0.3583211524121666
 40
0.365419312595203
 40
0.3725046737493058
 40
0.3852485209829684
 40
0.3992749727195851
 40
0.4094557954071253
 40
0.4163470270406074
 40
0.4179523791252433
 40
0.4229767189642006
 40
0.4311406221414912
 40
0.4690514725892876
 40
0.4917443047116137
 40
0.5252965661828417
 40
0.555172206216488
 40
0.5791810743620943
 40
0.6067750852461975
 40
0.633472997729989
 40
0.6608058056837912
 40
0.6822645140418274
 40
0.7037079859804397
 40
0.7251362251144635
 40
0.7465956425545399
 40
0.7681169281874864
 40
0.7836585566976073
 40
0.8010309183575678
 40
0.8324584867065864
 40
0.8475194589859191
 40
0.8678032922781808
 40
0.8925107003736877
 40
0.9142999492770918
 40
0.9315440103687033
 40
0.9490631612373833
 40
0.9643053713063
 40
0.979559354310133
 40
0.994825113283836
 40
1.0
 40
1.0
 40
1.0
 40
1.0
 10
34.892
 20
-1.725314686400898
 30
0.0
 10
34.6007598867662
 20
-1.569236781585683
 30
0.0
 10
34.27146996449196
 20
-1.392767679940782
 30
0.0
 10
33.90433719576847
 20
-1.189409344360461
 30
0.0
 10
33.7904118146379
 20
-1.125969740521459
 30
0.0
 10
33.67664746483224
 20
-1.062268249863172
 30
0.0
 10
33.56305298300439
 20
-0.9983193803345972
 30
0.0
 10
33.44960453757845
 20
-0.9341740033499933
 30
0.0
 10
33.3456843590847
 20
-0.8749951764039025
 30
0.0
 10
33.22381244896405
 20
-0.805859115074331
 30
0.0
 10
33.05729915092073
 20
-0.7113585511297688
 30
0.0
 10
32.81686874315693
 20
-0.574338200132853
 30
0.0
 10
32.55373888130516
 20
-0.4237589475688806
 30
0.0
 10
32.30427524374132
 20
-0.2804189233724729
 30
0.0
 10
32.09801107908244
 20
-0.1615225346194634
 30
0.0
 10
31.91247576335646
 20
-0.0543303378347245
 30
0.0
 10
31.72261163928631
 20
0.0557309261240329
 30
0.0
 10
31.51851198504811
 20
0.173836807936785
 30
0.0
 10
31.29839482894179
 20
0.3008555537322268
 30
0.0
 10
31.05437947948937
 20
0.4411422499568717
 30
0.0
 10
30.79503536675369
 20
0.5895028974641706
 30
0.0
 10
30.54543970528684
 20
0.7316716848370048
 30
0.0
 10
30.34795492029159
 20
0.8435855002012993
 30
0.0
 10
30.16583835467489
 20
0.9465167954185728
 30
0.0
 10
29.97437041744557
 20
1.054337792105648
 30
0.0
 10
29.75465215965076
 20
1.177244845183916
 30
0.0
 10
29.5728773080657
 20
1.278139549673018
 30
0.0
 10
29.42911562932406
 20
1.357542509129122
 30
0.0
 10
29.29484955148912
 20
1.430868809487845
 30
0.0
 10
29.12606030624356
 20
1.522484589991478
 30
0.0
 10
28.94180440702588
 20
1.621446663930973
 30
0.0
 10
28.78675995792853
 20
1.703979166252732
 30
0.0
 10
28.69362373573015
 20
1.75316346357393
 30
0.0
 10
28.62625120665262
 20
1.788716597565727
 30
0.0
 10
28.55256251317896
 20
1.827542862192972
 30
0.0
 10
28.29803019592313
 20
1.960846308876474
 30
0.0
 10
27.95556624768536
 20
2.136546135836102
 30
0.0
 10
27.4863491300582
 20
2.368417041946256
 30
0.0
 10
27.05689502820053
 20
2.57277500541309
 30
0.0
 10
26.62096375260584
 20
2.771070914637574
 30
0.0
 10
26.21526277296709
 20
2.948570808922922
 30
0.0
 10
25.82527996785348
 20
3.111239989385541
 30
0.0
 10
25.41830180525164
 20
3.271291751728336
 30
0.0
 10
25.04200965249439
 20
3.410770915937428
 30
0.0
 10
24.69201594755168
 20
3.533012075788198
 30
0.0
 10
24.37151169674242
 20
3.638690968218937
 30
0.0
 10
24.05111006281329
 20
3.737919065704217
 30
0.0
 10
23.73028705919356
 20
3.830486718069523
 30
0.0
 10
23.43849659933402
 20
3.908072509888156
 30
0.0
 10
23.16676700474637
 20
3.974894598608854
 30
0.0
 10
22.84637376173018
 20
4.048981833321948
 30
0.0
 10
22.52831839089338
 20
4.114259948900304
 30
0.0
 10
22.19567246722506
 20
4.1740757145821
 30
0.0
 10
21.89631169110591
 20
4.222011135430744
 30
0.0
 10
21.5633132633339
 20
4.267048574777511
 30
0.0
 10
21.2455541119126
 20
4.301848755538958
 30
0.0
 10
20.96375945400136
 20
4.326587805749258
 30
0.0
 10
20.7147990913642
 20
4.343573043419569
 30
0.0
 10
20.47563248025001
 20
4.355466115452757
 30
0.0
 10
20.24763888169825
 20
4.362556403883345
 30
0.0
 10
20.06976584688719
 20
4.365784620251016
 30
0.0
 10
19.96787226560208
 20
4.365301945970208
 30
0.0
 10
19.9420762243099
 20
4.365179749012153
 30
0.0
  0
SPLINE
  5
AF
330
1F
100
AcDbEntity
  8
외형선
  6
Continuous
 62
     1
370
    15
100
AcDbSpline
210
0.0
220
0.0
230
1.0
 70
     8
 71
     3
 72
    78
 73
    74
 74
     0
 42
0.000000001
 43
0.00000001
 40
0.0
 40
0.0
 40
0.0
 40
0.0
 40
0.0125142279516272
 40
0.0217332599536019
 40
0.0282215148247178
 40
0.038806362928874
 40
0.0493852617327978
 40
0.0599582123561404
 40
0.06506474275361
 40
0.0701620653256909
 40
0.0793301933883324
 40
0.0894210473173121
 40
0.0967452944049573
 40
0.1017029575190723
 40
0.1028578735571904
 40
0.106472464239567
 40
0.1123457071628691
 40
0.1396193812300066
 40
0.1559449687745961
 40
0.1800830039278467
 40
0.2015760186522229
 40
0.2188483836529684
 40
0.2386999578118795
 40
0.2579068643570777
 40
0.2775705249208728
 40
0.2930082639927062
 40
0.3084350417400025
 40
0.3238508607633321
 40
0.339289109960251
 40
0.3547718681276295
 40
0.365952765046919
 40
0.3784507207589276
 40
0.4010602176088632
 40
0.4118953226327939
 40
0.4264878377460685
 40
0.4442627436133192
 40
0.4599382788936263
 40
0.472343933068626
 40
0.4849474912474477
 40
0.4959129817137903
 40
0.506886941818441
 40
0.5178693737447941
 40
0.5288602796711952
 40
0.5398596617709557
 40
0.5508675222123656
 40
0.5632946236822918
 40
0.5783040158293017
 40
0.5926912354419506
 40
0.6066903343136297
 40
0.6207031880190921
 40
0.6312162681618333
 40
0.6409146229465655
 40
0.6538797576451564
 40
0.6662802841838779
 40
0.6755942342890091
 40
0.6870123696344727
 40
0.7005346706305327
 40
0.7377088180887154
 40
0.7736327338200447
 40
0.81282219619761
 40
0.8502061795751064
 40
0.8579673507008978
 40
0.8693212027091528
 40
0.8838502941208513
 40
0.892130265272526
 40
0.8988623178552447
 40
0.9086930498560409
 40
0.9216224184564493
 40
0.9324373381142379
 40
0.9478443633989071
 40
0.9680029786929999
 40
0.9866501829841018
 40
1.0
 40
1.0
 40
1.0
 40
1.0
 10
30.78085371591683
 20
-4.043855184230313
 30
0.0
 10
30.69412906571373
 20
-4.062259014784648
 30
0.0
 10
30.5435157498516
 20
-4.094220653578949
 30
0.0
 10
30.34795515425198
 20
-4.131555227676741
 30
0.0
 10
30.16583826285904
 20
-4.164442351281428
 30
0.0
 10
29.97437044697933
 20
-4.196543364994622
 30
0.0
 10
29.75465215156858
 20
-4.229861935645067
 30
0.0
 10
29.57287730847788
 20
-4.254467029890256
 30
0.0
 10
29.42911562747313
 20
-4.27220390224261
 30
0.0
 10
29.29484954945404
 20
-4.287596758243517
 30
0.0
 10
29.1260603075671
 20
-4.305092032310394
 30
0.0
 10
28.94180441308096
 20
-4.321412281257833
 30
0.0
 10
28.78675996442594
 20
-4.333041268808127
 30
0.0
 10
28.69362373935251
 20
-4.339124717790468
 30
0.0
 10
28.62625120680717
 20
-4.343213764827006
 30
0.0
 10
28.5525625134526
 20
-4.347414300459715
 30
0.0
 10
28.29803019611722
 20
-4.36001118152945
 30
0.0
 10
27.95556624749418
 20
-4.367953725878053
 30
0.0
 10
27.48634912984601
 20
-4.362549053945024
 30
0.0
 10
27.05689502835041
 20
-4.343888679604348
 30
0.0
 10
26.62096375293417
 20
-4.309315138793943
 30
0.0
 10
26.21526277297977
 20
-4.264618312895645
 30
0.0
 10
25.82527996753078
 20
-4.210403380480682
 30
0.0
 10
25.41830180503587
 20
-4.141948503283166
 30
0.0
 10
25.04200965249737
 20
-4.067615571576241
 30
0.0
 10
24.69201594755513
 20
-3.989332526295519
 30
0.0
 10
24.37151169674492
 20
-3.910407122082365
 30
0.0
 10
24.05111006281366
 20
-3.824357171159112
 30
0.0
 10
23.73028705919278
 20
-3.731325119541733
 30
0.0
 10
23.43849659917547
 20
-3.640934328758889
 30
0.0
 10
23.16676700433203
 20
-3.552439202579525
 30
0.0
 10
22.84637376128872
 20
-3.442162746209883
 30
0.0
 10
22.52831839123067
 20
-3.325658445559498
 30
0.0
 10
22.19567246786341
 20
-3.197304427774608
 30
0.0
 10
21.8963116930965
 20
-3.077650728884102
 30
0.0
 10
21.5633132573412
 20
-2.938686550236772
 30
0.0
 10
21.24555412799157
 20
-2.800304654522984
 30
0.0
 10
20.96375940421668
 20
-2.673353844076945
 30
0.0
 10
20.71479926899401
 20
-2.55777037273407
 30
0.0
 10
20.47563191162084
 20
-2.444322824190511
 30
0.0
 10
20.24764101629946
 20
-2.334041851039698
 30
0.0
 10
20.01941446106711
 20
-2.221636318707437
 30
0.0
 10
19.79094577852062
 20
-2.107219531982863
 30
0.0
 10
19.56227281039295
 20
-1.990835751649879
 30
0.0
 10
19.32346671210205
 20
-1.867778375352507
 30
0.0
 10
19.05730880255667
 20
-1.7275551665075
 30
0.0
 10
18.76798551870906
 20
-1.572106821545709
 30
0.0
 10
18.46738031378172
 20
-1.408944218938823
 30
0.0
 10
18.17361145901172
 20
-1.247511467315687
 30
0.0
 10
17.90658568041162
 20
-1.099301989677609
 30
0.0
 10
17.6693189871186
 20
-0.9665874243365925
 30
0.0
 10
17.43959904955701
 20
-0.8366457026275896
 30
0.0
 10
17.19683669378081
 20
-0.6984090842415631
 30
0.0
 10
16.9568316319438
 20
-0.5607508766913001
 30
0.0
 10
16.72736185725912
 20
-0.4290334478659221
 30
0.0
 10
16.49003464863799
 20
-0.292611503578999
 30
0.0
 10
16.05952966824428
 20
-0.0449306450526836
 30
0.0
 10
15.45932089362916
 20
0.3017159472189946
 30
0.0
 10
14.68207109556898
 20
0.7491551591727875
 30
0.0
 10
13.90208015396039
 20
1.187476227989859
 30
0.0
 10
13.31806862493189
 20
1.507647266677169
 30
0.0
 10
12.92703050875669
 20
1.717112407657663
 30
0.0
 10
12.69378559047654
 20
1.839856938354901
 30
0.0
 10
12.45703234298075
 20
1.962612757534555
 30
0.0
 10
12.25227696179243
 20
2.067025944347728
 30
0.0
 10
12.08020398788654
 20
2.154041179707868
 30
0.0
 10
11.87600586431644
 20
2.25614160112658
 30
0.0
 10
11.64356756383943
 20
2.370259801053679
 30
0.0
 10
11.37257554118869
 20
2.500599492016697
 30
0.0
 10
11.05125499178793
 20
2.650815011669011
 30
0.0
 10
10.67550801431626
 20
2.819667055943002
 30
0.0
 10
10.31403769825395
 20
2.975434325300322
 30
0.0
 10
10.09245067490554
 20
3.06645092097534
 30
0.0
 10
10.00000000000001
 20
3.104424921305354
 30
0.0
  0
LINE
  5
B0
330
1F
100
AcDbEntity
  8
외형선
  6
Continuous
370
    15
100
AcDbLine
 10
10.00000000000001
 20
4.365514888089949
 30
0.0
 11
10.00000000000001
 21
3.104424921305352
 31
0.0
  0
SPLINE
  5
B1
330
1F
100
AcDbEntity
  8
외형선
  6
Continuous
 62
     1
370
    15
100
AcDbSpline
210
0.0
220
0.0
230
1.0
 70
     8
 71
     3
 72
    26
 73
    22
 74
     0
 42
0.000000001
 43
0.00000001
 40
0.0
 40
0.0
 40
0.0
 40
0.0
 40
0.0531054038953163
 40
0.106581596399101
 40
0.1595940638299025
 40
0.2129736260172888
 40
0.2660944753163854
 40
0.319215494065716
 40
0.3738509652336987
 40
0.428486556340232
 40
0.4818559716440678
 40
0.535600885346331
 40
0.5885648415088254
 40
0.6418971339466885
 40
0.6948608677415551
 40
0.7481906562214947
 40
0.8013118764948816
 40
0.8544330754782394
 40
0.9090676576232946
 40
0.9637024985795059
 40
1.0
 40
1.0
 40
1.0
 40
1.0
 10
10.00000000000001
 20
4.365514888089951
 30
0.0
 10
10.41973220198565
 20
4.352165408797152
 30
0.0
 10
11.26212722897621
 20
4.325373242468318
 30
0.0
 10
12.52263073251768
 20
4.132548350820382
 30
0.0
 10
13.78525248860837
 20
3.832722631131677
 30
0.0
 10
15.04637765320249
 20
3.426423248677421
 30
0.0
 10
16.30670426863981
 20
2.923157430339423
 30
0.0
 10
17.57783701806148
 20
2.335780222900834
 30
0.0
 10
18.86079579248058
 20
1.675083039364341
 30
0.0
 10
20.14637391556643
 20
0.9663724623256881
 30
0.0
 10
21.42362720363716
 20
0.2317730062470919
 30
0.0
 10
22.6884559345629
 20
-0.5004381188462927
 30
0.0
 10
23.953390375559
 20
-1.217715835315835
 30
0.0
 10
25.21112033535284
 20
-1.899643604540233
 30
0.0
 10
26.47204351342525
 20
-2.529704299564867
 30
0.0
 10
27.73223240281255
 20
-3.088011291441474
 30
0.0
 10
28.99251367288364
 20
-3.561900788392134
 30
0.0
 10
30.26334375855914
 20
-3.941535071230066
 30
0.0
 10
31.54609253531302
 20
-4.207756666623229
 30
0.0
 10
32.69696256650003
 20
-4.348239437662957
 30
0.0
 10
33.41496204603428
 20
-4.356845411572273
 30
0.0
 10
33.70156620080621
 20
-4.360280661803748
 30
0.0
  0
LINE
  5
B2
330
1F
100
AcDbEntity
  8
외형선
  6
Continuous
370
    15
100
AcDbLine
 10
10.00000000000001
 20
4.365514888089949
 30
0.0
 11
10.00000000000001
 21
4.365624999999994
 31
0.0
  0
SPLINE
  5
B3
330
1F
100
AcDbEntity
  8
외형선
  6
Continuous
 62
     1
370
    15
100
AcDbSpline
210
0.0
220
0.0
230
1.0
 70
     8
 71
     3
 72
    14
 73
    10
 74
     0
 42
0.000000001
 43
0.00000001
 40
0.0
 40
0.0
 40
0.0
 40
0.0
 40
0.1600505752269615
 40
0.3212186436979233
 40
0.4809891243673797
 40
0.6418659656450717
 40
0.8019630906688202
 40
0.9620607263864989
 40
1.0
 40
1.0
 40
1.0
 40
1.0
 10
10.00000000000001
 20
-2.209609853014216
 30
0.0
 10
10.41973221572587
 20
-2.412364228581343
 30
0.0
 10
11.26212727029279
 20
-2.819288636263951
 30
0.0
 10
12.52263056650666
 20
-3.335413555058546
 30
0.0
 10
13.78525310678322
 20
-3.762931324066148
 30
0.0
 10
15.04637533167557
 20
-4.086053124980997
 30
0.0
 10
16.30671288438006
 20
-4.286417539740286
 30
0.0
 10
17.24559062213962
 20
-4.375950941431766
 30
0.0
 10
17.76477470566964
 20
-4.35772328530851
 30
0.0
 10
17.86423832115093
 20
-4.354231289622814
 30
0.0
  0
LINE
  5
B4
330
1F
100
AcDbEntity
  8
외형선
  6
Continuous
370
    15
100
AcDbLine
 10
10.00000000000001
 20
-2.209609853014219
 30
0.0
 11
10.00000000000001
 21
3.10442492130535
 31
0.0
  0
SPLINE
  5
B5
330
1F
100
AcDbEntity
  8
외형선
  6
Continuous
 62
     1
370
    15
100
AcDbSpline
210
0.0
220
0.0
230
1.0
 70
     8
 71
     3
 72
    30
 73
    26
 74
     0
 42
0.000000001
 43
0.00000001
 40
0.0
 40
0.0
 40
0.0
 40
0.0
 40
0.010158826782558
 40
0.0485670197831814
 40
0.093731397713277
 40
0.1714304809835841
 40
0.2450105947090371
 40
0.2659281583955023
 40
0.2889753816821771
 40
0.3110597376249695
 40
0.3318736191505791
 40
0.3516643157270118
 40
0.3704318314173113
 40
0.3865673916829318
 40
0.4182201470652976
 40
0.4653898959887305
 40
0.5280763370865892
 40
0.5634769239484881
 40
0.6014564966312236
 40
0.6420150631961263
 40
0.6851526285045154
 40
0.7520771695920122
 40
0.8425127361529064
 40
0.9362600722016904
 40
1.0
 40
1.0
 40
1.0
 40
1.0
 10
14.94509823173768
 20
-4.043447375927281
 30
0.0
 10
14.9283614325444
 20
-4.047216258764618
 30
0.0
 10
14.84834663605995
 20
-4.065234422794711
 30
0.0
 10
14.69386498904898
 20
-4.096580084218444
 30
0.0
 10
14.42790031150954
 20
-4.147978087710407
 30
0.0
 10
14.10397948314207
 20
-4.202979129885487
 30
0.0
 10
13.8199544612011
 20
-4.243544400334335
 30
0.0
 10
13.62633414518349
 20
-4.26793727348514
 30
0.0
 10
13.51757339677555
 20
-4.280770777805523
 30
0.0
 10
13.40899876070131
 20
-4.292674856950243
 30
0.0
 10
13.30575241282041
 20
-4.303153065341164
 30
0.0
 10
13.20794260554357
 20
-4.312327156221072
 30
0.0
 10
13.11782122782915
 20
-4.320123363245742
 30
0.0
 10
13.00808486666103
 20
-4.328877956426844
 30
0.0
 10
12.85150438317325
 20
-4.339969474898724
 30
0.0
 10
12.6181563637428
 20
-4.353056844020355
 30
0.0
 10
12.37859870333831
 20
-4.36155394548397
 30
0.0
 10
12.15425348231542
 20
-4.365379672918184
 30
0.0
 10
11.96648150609798
 20
-4.365985860731097
 30
0.0
 10
11.76601216158336
 20
-4.363655838628824
 30
0.0
 10
11.51797820612118
 20
-4.356820277878152
 30
0.0
 10
11.18760640388783
 20
-4.340895979744301
 30
0.0
 10
10.77349129390657
 20
-4.308571287480408
 30
0.0
 10
10.36457784915119
 20
-4.263545908816613
 30
0.0
 10
10.10504208641318
 20
-4.225706986363312
 30
0.0
 10
10.00000000000001
 20
-4.210392413449778
 30
0.0
  0
LINE
  5
B6
330
1F
100
AcDbEntity
  8
외형선
  6
Continuous
370
    15
100
AcDbLine
 10
10.00000000000001
 20
-2.209609853014219
 30
0.0
 11
10.00000000000001
 21
-4.210392413449776
 31
0.0
  0
SPLINE
  5
B7
330
1F
100
AcDbEntity
  8
외형선
  6
Continuous
 62
     1
370
    15
100
AcDbSpline
210
0.0
220
0.0
230
1.0
 70
     8
 71
     3
 72
     8
 73
     4
 74
     0
 42
0.000000001
 43
0.00000001
 40
0.0
 40
0.0
 40
0.0
 40
0.0
 40
1.0
 40
1.0
 40
1.0
 40
1.0
 10
35.40000000000001
 20
0.3364375538614206
 30
0.0
 10
35.40000000000001
 20
0.3211952773786527
 30
0.0
 10
35.37957031285433
 20
0.3188446123649195
 30
0.0
 10
35.34037175065946
 20
0.3313144947078238
 30
0.0
  0
LINE
  5
B9
330
1F
100
AcDbEntity
  8
외형선
  6
Continuous
 62
     1
370
    15
100
AcDbLine
 10
35.40000000000001
 20
-3.857625000000007
 30
0.0
 11
35.40000000000001
 21
0.3364375538614219
 31
0.0
  0
LINE
  5
BB
330
1F
100
AcDbEntity
  8
외형선
  6
Continuous
 62
     1
370
    15
100
AcDbLine
 10
10.00000000000477
 20
-4.313431033866208
 30
0.0
 11
11.17199502587815
 21
-4.359780893875357
 31
0.0
  0
SPLINE
  5
BC
330
1F
100
AcDbEntity
  8
외형선
  6
Continuous
 62
     1
370
    15
100
AcDbSpline
210
0.0
220
0.0
230
1.0
 70
     8
 71
     3
 72
    12
 73
     8
 74
     0
 42
0.000000001
 43
0.00000001
 40
0.0
 40
0.0
 40
0.0
 40
0.0
 40
0.0330995059658926
 40
0.2746230263262203
 40
0.5161854263946749
 40
0.7581496535071017
 40
1.0
 40
1.0
 40
1.0
 40
1.0
 10
29.22877262585339
 20
3.17773196413719
 30
0.0
 10
29.29126367968667
 20
3.204297335391443
 30
0.0
 10
29.80974520444699
 20
3.42470735168716
 30
0.0
 10
30.78386076387319
 20
3.741690881017966
 30
0.0
 10
32.15228079587352
 20
4.097642348907736
 30
0.0
 10
33.52205763421629
 20
4.320037882308412
 30
0.0
 10
34.43542420769734
 20
4.35040056839645
 30
0.0
 10
34.89200000000001
 20
4.365625000000065
 30
0.0
  0
LINE
  5
BD
330
1F
100
AcDbEntity
  8
외형선
  6
Continuous
 62
     1
370
    15
100
AcDbLine
 10
35.40000000000001
 20
2.82675949544243
 30
0.0
 11
35.40000000000001
 21
3.857625000000065
 31
0.0
  0
SPLINE
  5
BE
330
1F
100
AcDbEntity
  8
외형선
  6
Continuous
 62
     1
370
    15
100
AcDbSpline
210
0.0
220
0.0
230
1.0
 70
     8
 71
     3
 72
    14
 73
    10
 74
     0
 42
0.000000001
 43
0.00000001
 40
0.0
 40
0.0
 40
0.0
 40
0.0
 40
0.25
 40
0.25
 40
0.5
 40
0.5
 40
0.75
 40
0.75
 40
1.0
 40
1.0
 40
1.0
 40
1.0
 10
35.40000000000001
 20
2.826759495442432
 30
0.0
 10
35.28431026449533
 20
2.622125753554807
 30
0.0
 10
35.1429587469952
 20
2.442970422304863
 30
0.0
 10
34.81029759052694
 20
2.134260895598268
 30
0.0
 10
34.62375726461399
 20
2.009683665904272
 30
0.0
 10
34.22728661301245
 20
1.816376749265493
 30
0.0
 10
34.01775437483768
 20
1.74781652425933
 30
0.0
 10
33.5953894445213
 20
1.659407960719265
 30
0.0
 10
33.3784584181205
 20
1.638689127665648
 30
0.0
 10
33.16207356978238
 20
1.638064585647461
 30
0.0
  0
SPLINE
  5
BF
330
1F
100
AcDbEntity
  8
외형선
  6
Continuous
 62
     1
370
    15
100
AcDbSpline
210
0.0
220
0.0
230
1.0
 70
     8
 71
     3
 72
     8
 73
     4
 74
     0
 42
0.000000001
 43
0.00000001
 40
0.0
 40
0.0
 40
0.0
 40
0.0
 40
1.0
 40
1.0
 40
1.0
 40
1.0
 10
35.40000000000001
 20
0.8421308620510723
 30
0.0
 10
34.63792834534875
 20
1.148184245296974
 30
0.0
 10
33.89051553161558
 20
1.417133628935446
 30
0.0
 10
33.16207356978241
 20
1.638064585647468
 30
0.0
  0
LINE
  5
C0
330
1F
100
AcDbEntity
  8
외형선
  6
Continuous
 62
     1
370
    15
100
AcDbLine
 10
35.40000000000001
 20
0.3364375538614219
 30
0.0
 11
35.40000000000001
 21
0.8421308620510732
 31
0.0
  0
LINE
  5
C1
330
1F
100
AcDbEntity
  8
외형선
  6
Continuous
 62
     1
370
    15
100
AcDbLine
 10
35.40000000000001
 20
0.8421308620510725
 30
0.0
 11
35.40000000000001
 21
2.82675949544243
 31
0.0
  0
LINE
  5
C2
330
1F
100
AcDbEntity
  8
외형선
  6
Continuous
370
    15
100
AcDbLine
 10
10.00000000000001
 20
-4.313431033865544
 30
0.0
 11
10.00000000000001
 21
-4.210392413449775
 31
0.0
  0
LINE
  5
C3
330
1F
100
AcDbEntity
  8
중심선
 62
     1
100
AcDbLine
 10
-31.10000000000001
 20
-0.0000000000000038
 30
0.0
 11
38.4
 21
0.0000000000000047
 31
0.0
  0
LINE
  5
C4
330
1F
100
AcDbEntity
  8
참조1
100
AcDbLine
 10
3.649999999999997
 20
0.2211007829333199
 30
0.0
 11
3.650000000000002
 21
-39.77889921706668
 31
0.0
  0
LINE
  5
C5
330
1F
100
AcDbEntity
  8
참조1
100
AcDbLine
 10
3.650000000000002
 20
-39.77889921706668
 30
0.0
 11
-11.49933783948571
 21
-39.77889921706667
 31
0.0
  0
CIRCLE
  5
C6
330
1F
100
AcDbEntity
  8
해칭선
100
AcDbCircle
 10
0.0
 20
0.0
 30
0.0
 40
3.000000000000001
  0
INSERT
  5
C7
330
1F
100
AcDbEntity
  8
0
  6
Continuous
 62
     7
100
AcDbBlockReference
 66
     1
  2
블럭10
 10
-10.29027293212521
 20
-51.82607351871061
 30
0.0
  0
ATTRIB
  5
C8
330
C7
100
AcDbEntity
  8
FORMAT
 62
     2
100
AcDbText
 10
-19.47156822086649
 20
-49.75070660587842
 30
0.0
 40
4.233333333333333
  1
E5104022 [ 3 FLUTE ]
 41
0.75
  7
SLDTEXTSTYLE0
 11
-19.47156822086649
 21
-51.86737327254509
 31
0.0
100
AcDbAttribute
  2
AUTOATTR0
 70
     0
 74
     1
  0
SEQEND
  5
C9
330
C7
100
AcDbEntity
  8
0
  6
Continuous
 62
     7
  0
HATCH
  5
CA
330
1F
100
AcDbEntity
  8
중심선
100
AcDbHatch
 10
0.0
 20
0.0
 30
0.0
210
0.0
220
0.0
230
1.0
  2
SOLID
 70
     1
 71
     0
 91
        1
 92
        0
 93
        4
 72
     1
 10
-4.575363627744366
 20
-35.57889921706667
 11
-8.021638871581649
 21
-35.57889921706667
 72
     1
 10
-8.021638871581649
 20
-35.57889921706667
 11
-10.14986873078567
 21
-38.11522479763927
 72
     1
 10
-10.14986873078567
 20
-38.11522479763927
 11
-6.70356040183524
 21
-38.11518536833678
 72
     1
 10
-6.70356040183524
 20
-38.11518536833678
 11
-4.575363627744366
 21
-35.57889921706667
 97
        0
 75
     0
 76
     1
 98
        1
 10
-0.0000000000000105
 20
0.2200258542094307
  0
HATCH
  5
CB
330
1F
100
AcDbEntity
  8
중심선
100
AcDbHatch
 10
0.0
 20
0.0
 30
0.0
210
0.0
220
0.0
230
1.0
  2
SOLID
 70
     1
 71
     0
 91
        1
 92
        0
 93
        4
 72
     1
 10
0.4374003632915852
 20
-35.57889921706667
 11
-3.008874880545697
 21
-35.57889921706667
 72
     1
 10
-3.008874880545697
 20
-35.57889921706667
 11
-7.540012888903085
 21
-40.97889921706669
 72
     1
 10
-7.540012888903085
 20
-40.97889921706669
 11
-4.093737645065803
 21
-40.97889921706669
 72
     1
 10
-4.093737645065803
 20
-40.97889921706669
 11
0.4374003632915846
 21
-35.57889921706667
 97
        0
 75
     0
 76
     1
 98
        1
 10
-0.0000000000000105
 20
0.2200258542094307
  0
HATCH
  5
CC
330
1F
100
AcDbEntity
  8
중심선
100
AcDbHatch
 10
0.0
 20
0.0
 30
0.0
210
0.0
220
0.0
230
1.0
  2
SOLID
 70
     1
 71
     0
 91
        1
 92
        0
 93
        4
 72
     1
 10
5.45016435432748
 20
-35.57889921706667
 11
2.003889110490393
 21
-35.57889921706667
 72
     1
 10
2.003889110490393
 20
-35.57889921706667
 11
-5.044547791398884
 21
-43.97889921706669
 72
     1
 10
-5.044547791398884
 20
-43.97889921706669
 11
-1.598272547561602
 21
-43.97889921706669
 72
     1
 10
-1.598272547561602
 20
-43.97889921706669
 11
5.45016435432748
 21
-35.57889921706667
 97
        0
 75
     0
 76
     1
 98
        1
 10
-0.0000000000000105
 20
0.2200258542094307
  0
HATCH
  5
CD
330
1F
100
AcDbEntity
  8
중심선
100
AcDbHatch
 10
0.0
 20
0.0
 30
0.0
210
0.0
220
0.0
230
1.0
  2
SOLID
 70
     1
 71
     0
 91
        1
 92
        0
 93
        6
 72
     3
 10
10.25005478533968
 20
-39.77889921711795
 11
3.960054785062283
 21
1.540882976769353E-10
 40
0.3939339440162628
 50
17.09539180608436
 51
320.0019657685086
 73
     0
 72
     1
 10
11.93305444104027
 20
-38.366793221705
 11
14.23835631474131
 21
-36.43246651165705
 72
     3
 10
10.25005478528683
 20
-39.77889921706682
 11
6.600054785286828
 21
-1.278976924368180E-13
 40
0.6363583540795982
 50
39.99873849337411
 51
368.4976242363724
 73
     1
 72
     1
 10
16.67538727718744
 20
-38.8188992169967
 11
8.930122092122783
 21
-38.81889921699667
 72
     1
 10
8.930122092122783
 20
-38.81889921699667
 11
8.930097047676822
 21
-40.73889921699659
 72
     1
 10
8.930097047676822
 20
-40.73889921699659
 11
13.37147681714886
 21
-40.73889921699656
 97
        0
 75
     0
 76
     1
 98
        1
 10
-0.0000000000000105
 20
0.2200258542094307
  0
DIMENSION
  5
CE
330
1F
100
AcDbEntity
  8
치수문자_일반주서
100
AcDbDimension
  2
_D
 10
35.40000000000001
 20
41.60931198295385
 30
0.0
 11
3.650000000000002
 21
41.60931198295385
 31
0.0
 70
   160
  1
<>
 71
     2
 42
63.50000000000001
  3
SLDDIMSTYLE0
100
AcDbAlignedDimension
 13
-28.1
 23
4.762499999999988
 33
0.0
 14
35.40000000000001
 24
4.36562500000006
 34
0.0
100
AcDbRotatedDimension
1001
ACAD
1000
DSTYLE
1002
{
1070
   171
1070
     5
1070
   273
1070
     7
1002
}
  0
DIMENSION
  5
E2
330
1F
100
AcDbEntity
  8
치수문자_일반주서
100
AcDbDimension
  2
_D_1
 10
-37.96665404862567
 20
-4.762500000000049
 30
0.0
 11
-37.96665404862578
 21
24.71024999999996
 31
0.0
 70
   160
  1
%%c<>
 71
     2
 42
9.525000000000004
 52
-270.0
  3
SLDDIMSTYLE1
100
AcDbAlignedDimension
 13
-28.1
 23
4.762499999999994
 33
0.0
 14
-28.08409498378634
 24
-4.76250000000001
 34
0.0
 50
90.0000000000002
100
AcDbRotatedDimension
1001
ACAD
1000
DSTYLE
1002
{
1070
   171
1070
     5
1070
   273
1070
     7
1002
}
  0
DIMENSION
  5
F7
330
1F
100
AcDbEntity
  8
치수문자_일반주서
100
AcDbDimension
  2
_D_2
 10
10.00000000000003
 20
23.2037021104007
 30
0.0
 11
-4.676999999999968
 21
23.2037021104007
 31
0.0
 70
   160
  1
<>
 71
     2
 42
25.39999999999998
  3
SLDDIMSTYLE2
100
AcDbAlignedDimension
 13
35.40000000000001
 23
4.36562500000006
 33
0.0
 14
10.00000000000003
 24
4.762500000000007
 34
0.0
 50
0.0000000000000128
100
AcDbRotatedDimension
1001
ACAD
1000
DSTYLE
1002
{
1070
   171
1070
     5
1070
   273
1070
     7
1002
}
  0
DIMENSION
  5
10B
330
1F
100
AcDbEntity
  8
치수문자_일반주서
100
AcDbDimension
  2
_D_3
 10
45.40000000000002
 20
-4.365624999999916
 30
0.0
 11
45.39999999999992
 21
25.8446250000001
 31
0.0
 70
   160
  1
%%c<>
 71
     2
 42
8.731250000000014
 52
-270.0
  3
SLDDIMSTYLE1
100
AcDbAlignedDimension
 13
35.40000000000001
 23
4.36562500000006
 33
0.0
 14
35.40039060850838
 24
-4.365624999999954
 34
0.0
 50
90.0000000000002
100
AcDbRotatedDimension
1001
ACAD
1000
DSTYLE
1002
{
1070
   171
1070
     5
1070
   273
1070
     7
1002
}
  0
LINE
  5
11F
330
1F
100
AcDbEntity
  8
참조1
100
AcDbLine
 10
86.47300279016855
 20
7.661100782933326
 30
0.0
 11
86.47300279016855
 21
-7.218899217066678
 31
0.0
  0
LINE
  5
120
330
1F
100
AcDbEntity
  8
참조1
100
AcDbLine
 10
99.17300279016855
 20
5.661100782933326
 30
0.0
 11
86.47300279016855
 21
5.661100782933326
 31
0.0
  0
SOLID
  5
121
330
1F
100
AcDbEntity
  8
참조1
100
AcDbTrace
 10
86.47300279016855
 20
5.661100782933326
 30
0.0
 11
92.82300279016854
 21
4.645100782933326
 31
0.0
 12
92.82300279016854
 22
6.677100782933326
 32
0.0
 13
92.82300279016854
 23
6.677100782933326
 33
0.0
  0
LINE
  5
122
330
1F
100
AcDbEntity
  8
참조1
100
AcDbLine
 10
99.17300279016855
 20
-5.218899217066678
 30
0.0
 11
86.47300279016855
 21
-5.218899217066678
 31
0.0
  0
SOLID
  5
123
330
1F
100
AcDbEntity
  8
참조1
100
AcDbTrace
 10
86.47300279016855
 20
-5.218899217066678
 30
0.0
 11
92.82300279016854
 21
-6.234899217066678
 31
0.0
 12
92.82300279016854
 22
-4.202899217066678
 32
0.0
 13
92.82300279016854
 23
-4.202899217066678
 33
0.0
  0
MTEXT
  5
124
330
1F
100
AcDbEntity
  8
참조1
100
AcDbMText
 10
95.87049288263883
 20
11.20931742758326
 30
0.0
 40
3.5
 41
0.0
 71
     1
 72
     1
  1
A
  7
SLDTEXTSTYLE0
 73
     1
 44
1.0
  0
MTEXT
  5
125
330
1F
100
AcDbEntity
  8
참조1
100
AcDbMText
 10
95.87049288263883
 20
0.3293174275832567
 30
0.0
 40
3.5
 41
0.0
 71
     1
 72
     1
  1
A
  7
SLDTEXTSTYLE0
 73
     1
 44
1.0
  0
INSERT
  5
12C
330
1F
100
AcDbEntity
  8
해칭선
100
AcDbBlockReference
  2
SW_DOWELSYMBOL_0
 10
0.0
 20
0.0
 30
0.0
  0
MTEXT
  5
17F
102
{ACAD_REACTORS
330
180
102
}
330
1F
100
AcDbEntity
  8
0
100
AcDbMText
 10
45.36561655647893
 20
-21.98414550453787
 30
0.0
 40
3.5
 41
0.0
 71
     7
 72
     1
  1
{R0.51[.020"]}
 73
     1
 44
1.0
1001
ACAD
1000
ACAD_MTEXT_DEFINED_HEIGHT_BEGIN
1070
    46
1040
3.5
1000
ACAD_MTEXT_DEFINED_HEIGHT_END
  0
LEADER
  5
180
102
{ACAD_XDICTIONARY
360
181
102
}
330
1F
100
AcDbEntity
  8
0
100
AcDbLeader
  3
ISO-25
 73
     0
 74
     0
 75
     1
 40
3.5
 41
29.75
 76
     3
 10
35.07655952286844
 20
-4.330913265773179
 30
0.0
 10
40.53961655647893
 20
-20.23414550453787
 30
0.0
 10
43.84161655647893
 20
-20.23414550453787
 30
0.0
340
17F
213
0.0
223
1.75
233
0.0
1001
ACAD
1000
DSTYLE
1002
{
1070
    77
1070
     0
1070
   179
1070
     2
1070
   143
1040
0.0393700787401575
1070
    41
1040
3.302
1070
    44
1040
1.0
1070
    42
1040
1.0
1070
   147
1040
1.524
1070
    73
1070
     1
1070
    74
1070
     1
1070
   140
1040
3.5
1070
   284
1070
     0
1070
    78
1070
     0
1002
}
  0
ARC
  5
187
330
1F
100
AcDbEntity
  8
0
 62
     1
100
AcDbCircle
 10
34.89200000000001
 20
3.857625000000065
 30
0.0
 40
0.5080000000000001
100
AcDbArc
 50
0.0
 51
90.0
  0
LINE
  5
203
330
1F
100
AcDbEntity
  8
외형선
  6
Continuous
370
    15
100
AcDbLine
 10
-11.82495000000013
 20
3.492500000000001
 30
0.0
 11
-4.687550000000002
 21
3.492500000000001
 31
0.0
1001
PE_URL
1000

  0
LINE
  5
204
330
1F
100
AcDbEntity
  8
외형선
  6
Continuous
370
    15
100
AcDbLine
 10
-11.82495000000013
 20
3.492500000000001
 30
0.0
 11
-13.09495000000011
 21
4.762499999999983
 31
0.0
1001
PE_URL
1000

  0
LINE
  5
205
330
1F
100
AcDbEntity
  8
외형선
  6
Continuous
370
    15
100
AcDbLine
 10
-4.687550000000002
 20
3.492500000000001
 30
0.0
 11
-3.417549999999906
 21
4.762499999999983
 31
0.0
1001
PE_URL
1000

  0
LINE
  5
207
330
1F
100
AcDbEntity
  8
외형선
  6
Continuous
370
    15
100
AcDbLine
 10
-3.417549999999906
 20
4.762499999999983
 30
0.0
 11
5.849902345263732
 21
4.762499999999994
 31
0.0
1001
PE_URL
1000

  0
ARC
  5
24D
330
1F
100
AcDbEntity
  8
외형선
  6
Continuous
370
    15
100
AcDbCircle
 10
9.000000000000009
 20
17.06562499999999
 30
0.0
 40
12.7
100
AcDbArc
 50
255.6384884370834
 51
270.0
1001
PE_URL
1000

  0
ARC
  5
251
330
1F
100
AcDbEntity
  8
외형선
  6
Continuous
370
    15
100
AcDbCircle
 10
8.999999999999991
 20
-17.06562499999999
 30
0.0
 40
12.7
100
AcDbArc
 50
89.99999999999994
 51
104.3615115629165
1001
PE_URL
1000

  0
LINE
  5
252
330
1F
100
AcDbEntity
  8
외형선
  6
Continuous
370
    15
100
AcDbLine
 10
5.849902345263727
 20
4.762499999999996
 30
0.0
 11
5.849902345263728
 21
-4.762500000000005
 31
0.0
1001
PE_URL
1000

  0
ENDSEC
  0
SECTION
  2
OBJECTS
  0
DICTIONARY
  5
C
330
0
100
AcDbDictionary
281
     1
  3
ACAD_GROUP
350
D
  3
ACAD_LAYOUT
350
1A
  3
ACAD_MLINESTYLE
350
17
  3
ACAD_PLOTSETTINGS
350
19
  3
ACAD_PLOTSTYLENAME
350
E
  3
ACAD_SCALELIST
350
47
  3
APPDATA
350
14E
  3
DWGPROPS
350
254
  0
DICTIONARY
  5
1F8
330
2
100
AcDbDictionary
280
     1
281
     1
  3
ACAD_LAYERSTATES
360
1F9
  0
DICTIONARY
  5
24F
330
1F
100
AcDbDictionary
280
     1
281
     1
  3
ACAD_SORTENTS
360
250
  3
DIM_BOUNDING_BOXES_V1
360
253
  0
DICTIONARY
  5
181
330
180
100
AcDbDictionary
280
     1
281
     1
  3
*A1
360
182
  0
DICTIONARY
  5
D
102
{ACAD_REACTORS
330
C
102
}
330
C
100
AcDbDictionary
281
     1
  0
DICTIONARY
  5
1A
102
{ACAD_REACTORS
330
C
102
}
330
C
100
AcDbDictionary
281
     1
  3
Layout1
350
1E
  3
Layout2
350
26
  3
Model
350
22
  0
DICTIONARY
  5
17
102
{ACAD_REACTORS
330
C
102
}
330
C
100
AcDbDictionary
281
     1
  3
Standard
350
18
  0
DICTIONARY
  5
19
102
{ACAD_REACTORS
330
C
102
}
330
C
100
AcDbDictionary
281
     1
  0
ACDBDICTIONARYWDFLT
  5
E
102
{ACAD_REACTORS
330
C
102
}
330
C
100
AcDbDictionary
281
     1
  3
Normal
350
F
100
AcDbDictionaryWithDefault
340
F
  0
DICTIONARY
  5
47
102
{ACAD_REACTORS
330
C
102
}
330
C
100
AcDbDictionary
281
     1
  3
A0
350
48
  3
A1
350
49
  3
A2
350
4A
  3
A3
350
4B
  3
A4
350
4C
  3
A5
350
4D
  3
A6
350
4E
  3
A7
350
4F
  3
A8
350
50
  3
A9
350
51
  3
B0
350
52
  3
B1
350
53
  3
B2
350
54
  3
B3
350
55
  3
B4
350
56
  3
B5
350
57
  3
B6
350
58
  3
B7
350
59
  3
B8
350
5A
  3
B9
350
5B
  3
C0
350
5C
  3
C1
350
5D
  3
C2
350
5E
  3
C3
350
5F
  3
C4
350
60
  3
C5
350
61
  3
C6
350
62
  3
C7
350
63
  3
C8
350
64
  3
C9
350
65
  3
D0
350
66
  3
D1
350
67
  3
D2
350
68
  0
DICTIONARY
  5
14E
102
{ACAD_REACTORS
330
C
102
}
330
C
100
AcDbDictionary
281
     1
  0
XRECORD
  5
254
102
{ACAD_REACTORS
330
C
102
}
330
C
100
AcDbXrecord
280
     1
  1
DWGPROPS COOKIE
  2

  3

  4

  6

  7

  8
12014074
  9

300
=
301
=
302
=
303
=
304
=
305
=
306
=
307
=
308
=
309
=
 40
0.0
 41
2458290.302372095
 42
2459708.992620694
  1

 90
        0
  0
DICTIONARY
  5
1F9
102
{ACAD_REACTORS
330
1F8
102
}
330
1F8
100
AcDbDictionary
281
     1
  0
SORTENTSTABLE
  5
250
102
{ACAD_REACTORS
330
24F
102
}
330
24F
100
AcDbSortentsTable
330
1F
  0
DICTIONARY
  5
253
102
{ACAD_REACTORS
330
24F
102
}
330
24F
100
AcDbDictionary
281
     1
  0
SPLINE
  5
182
102
{ACAD_REACTORS
330
181
102
}
330
181
100
AcDbEntity
  8
외형선
  6
Continuous
 62
     1
370
    15
100
AcDbSpline
210
0.0
220
0.0
230
1.0
 70
     8
 71
     3
 72
    29
 73
    25
 74
     0
 42
0.000000001
 43
0.00000001
 40
0.0
 40
0.0
 40
0.0
 40
0.0
 40
0.0422644495549575
 40
0.0894133481135558
 40
0.1360887908804358
 40
0.183088732683559
 40
0.2297638819666308
 40
0.2767625414519669
 40
0.323437633749297
 40
0.3704354120323877
 40
0.4171106810586105
 40
0.464107897037571
 40
0.5107833946634068
 40
0.5577805359514474
 40
0.6044561394422602
 40
0.651453806121575
 40
0.6980998941979074
 40
0.7450685450090514
 40
0.7915976398774139
 40
0.8384484734548767
 40
0.8795785645527328
 40
0.920930788652952
 40
0.9603675209920361
 40
1.0
 40
1.0
 40
1.0
 40
1.0
 10
12.38189177007194
 20
1.248479460924195
 30
0.0
 10
12.52654344348548
 20
1.258273475674198
 30
0.0
 10
12.8325640013379
 20
1.278993387077104
 30
0.0
 10
13.29773257188337
 20
1.254108412177238
 30
0.0
 10
13.78025596066385
 20
1.187861475668798
 30
0.0
 10
14.25966703328228
 20
1.076843206459327
 30
0.0
 10
14.7418375996466
 20
0.9278143507748849
 30
0.0
 10
15.22126826210304
 20
0.7422259995311946
 30
0.0
 10
15.70321466955698
 20
0.5287568400491983
 30
0.0
 10
16.18301476867187
 20
0.291415106865743
 30
0.0
 10
16.66438564818222
 20
0.0386509998105593
 30
0.0
 10
17.14481199956303
 20
-0.2211140264741509
 30
0.0
 10
17.62559449395425
 20
-0.4827611477767423
 30
0.0
 10
18.10652182376923
 20
-0.7336501666871716
 30
0.0
 10
18.58700798445997
 20
-0.9720014204249832
 30
0.0
 10
19.06797035806053
 20
-1.184275237010919
 30
0.0
 10
19.54830862416817
 20
-1.369853183592872
 30
0.0
 10
20.02843114246354
 20
-1.518172522965445
 30
0.0
 10
20.50823986679071
 20
-1.62831800107122
 30
0.0
 10
20.96857053986777
 20
-1.692379933129987
 30
0.0
 10
21.41107311362818
 20
-1.715381820442324
 30
0.0
 10
21.82821005632637
 20
-1.70162911792889
 30
0.0
 10
22.2401103516564
 20
-1.656726206160658
 30
0.0
 10
22.51072264209905
 20
-1.601263250205901
 30
0.0
 10
22.64636375622617
 20
-1.573463119154277
 30
0.0
  0
LAYOUT
  5
1E
102
{ACAD_REACTORS
330
1A
102
}
330
1A
100
AcDbPlotSettings
  1

  2
none_device
  4

  6

 40
0.0
 41
0.0
 42
0.0
 43
0.0
 44
0.0
 45
0.0
 46
0.0
 47
0.0
 48
0.0
 49
0.0
140
0.0
141
0.0
142
1.0
143
1.0
 70
   688
 72
     1
 73
     0
 74
     5
  7

 75
    16
147
1.0
148
0.0
149
0.0
100
AcDbLayout
  1
Layout1
 70
     1
 71
     1
 10
0.0
 20
0.0
 11
420.0
 21
297.0
 12
0.0
 22
0.0
 32
0.0
 14
1.000000000000000E+20
 24
1.000000000000000E+20
 34
1.000000000000000E+20
 15
-1.000000000000000E+20
 25
-1.000000000000000E+20
 35
-1.000000000000000E+20
146
0.0
 13
0.0
 23
0.0
 33
0.0
 16
1.0
 26
0.0
 36
0.0
 17
0.0
 27
1.0
 37
0.0
 76
     0
330
1B
  0
LAYOUT
  5
26
102
{ACAD_REACTORS
330
1A
102
}
330
1A
100
AcDbPlotSettings
  1

  2
none_device
  4

  6

 40
0.0
 41
0.0
 42
0.0
 43
0.0
 44
0.0
 45
0.0
 46
0.0
 47
0.0
 48
0.0
 49
0.0
140
0.0
141
0.0
142
1.0
143
1.0
 70
   688
 72
     1
 73
     0
 74
     5
  7

 75
    16
147
1.0
148
0.0
149
0.0
100
AcDbLayout
  1
Layout2
 70
     1
 71
     2
 10
0.0
 20
0.0
 11
0.0
 21
0.0
 12
0.0
 22
0.0
 32
0.0
 14
0.0
 24
0.0
 34
0.0
 15
0.0
 25
0.0
 35
0.0
146
0.0
 13
0.0
 23
0.0
 33
0.0
 16
1.0
 26
0.0
 36
0.0
 17
0.0
 27
1.0
 37
0.0
 76
     0
330
23
  0
LAYOUT
  5
22
102
{ACAD_REACTORS
330
1A
102
}
330
1A
100
AcDbPlotSettings
  1

  2
none_device
  4
ANSI_A_(11.00_x_8.50_Inches)
  6

 40
6.35
 41
19.05
 42
6.35000508
 43
19.05000254
 44
279.4
 45
215.9
 46
100.2745198137351
 47
79.26461134525867
 48
0.0
 49
0.0
140
0.0
141
0.0
142
0.0680344848847376
143
1.0
 70
  1696
 72
     0
 73
     0
 74
     0
  7

 75
     0
147
0.0235690232323232
148
0.0
149
0.0
100
AcDbLayout
  1
Model
 70
     1
 71
     0
 10
0.0
 20
0.0
 11
420.0
 21
297.0
 12
0.0
 22
0.0
 32
0.0
 14
-42.34165404862582
 24
-49.75070660587842
 34
0.0
 15
99.17300279016855
 25
45.98431198295385
 35
0.0
146
0.0
 13
0.0
 23
0.0
 33
0.0
 16
1.0
 26
0.0
 36
0.0
 17
0.0
 27
1.0
 37
0.0
 76
     0
330
1F
331
29
  0
MLINESTYLE
  5
18
102
{ACAD_REACTORS
330
17
102
}
330
17
100
AcDbMlineStyle
  2
Standard
 70
     0
  3

 62
   256
 51
90.0
 52
90.0
 71
     2
 49
0.5
 62
   256
  6
BYLAYER
 49
-0.5
 62
   256
  6
BYLAYER
  0
ACDBPLACEHOLDER
  5
F
102
{ACAD_REACTORS
330
E
102
}
330
E
  0
SCALE
  5
48
102
{ACAD_REACTORS
330
47
102
}
330
47
100
AcDbScale
 70
     0
300
1:1
140
1.0
141
1.0
290
     1
  0
SCALE
  5
49
102
{ACAD_REACTORS
330
47
102
}
330
47
100
AcDbScale
 70
     0
300
1:2
140
1.0
141
2.0
290
     0
  0
SCALE
  5
4A
102
{ACAD_REACTORS
330
47
102
}
330
47
100
AcDbScale
 70
     0
300
1:4
140
1.0
141
4.0
290
     0
  0
SCALE
  5
4B
102
{ACAD_REACTORS
330
47
102
}
330
47
100
AcDbScale
 70
     0
300
1:5
140
1.0
141
5.0
290
     0
  0
SCALE
  5
4C
102
{ACAD_REACTORS
330
47
102
}
330
47
100
AcDbScale
 70
     0
300
1:8
140
1.0
141
8.0
290
     0
  0
SCALE
  5
4D
102
{ACAD_REACTORS
330
47
102
}
330
47
100
AcDbScale
 70
     0
300
1:10
140
1.0
141
10.0
290
     0
  0
SCALE
  5
4E
102
{ACAD_REACTORS
330
47
102
}
330
47
100
AcDbScale
 70
     0
300
1:16
140
1.0
141
16.0
290
     0
  0
SCALE
  5
4F
102
{ACAD_REACTORS
330
47
102
}
330
47
100
AcDbScale
 70
     0
300
1:20
140
1.0
141
20.0
290
     0
  0
SCALE
  5
50
102
{ACAD_REACTORS
330
47
102
}
330
47
100
AcDbScale
 70
     0
300
1:30
140
1.0
141
30.0
290
     0
  0
SCALE
  5
51
102
{ACAD_REACTORS
330
47
102
}
330
47
100
AcDbScale
 70
     0
300
1:40
140
1.0
141
40.0
290
     0
  0
SCALE
  5
52
102
{ACAD_REACTORS
330
47
102
}
330
47
100
AcDbScale
 70
     0
300
1:50
140
1.0
141
50.0
290
     0
  0
SCALE
  5
53
102
{ACAD_REACTORS
330
47
102
}
330
47
100
AcDbScale
 70
     0
300
1:100
140
1.0
141
100.0
290
     0
  0
SCALE
  5
54
102
{ACAD_REACTORS
330
47
102
}
330
47
100
AcDbScale
 70
     0
300
2:1
140
2.0
141
1.0
290
     0
  0
SCALE
  5
55
102
{ACAD_REACTORS
330
47
102
}
330
47
100
AcDbScale
 70
     0
300
4:1
140
4.0
141
1.0
290
     0
  0
SCALE
  5
56
102
{ACAD_REACTORS
330
47
102
}
330
47
100
AcDbScale
 70
     0
300
8:1
140
8.0
141
1.0
290
     0
  0
SCALE
  5
57
102
{ACAD_REACTORS
330
47
102
}
330
47
100
AcDbScale
 70
     0
300
10:1
140
10.0
141
1.0
290
     0
  0
SCALE
  5
58
102
{ACAD_REACTORS
330
47
102
}
330
47
100
AcDbScale
 70
     0
300
100:1
140
100.0
141
1.0
290
     0
  0
SCALE
  5
59
102
{ACAD_REACTORS
330
47
102
}
330
47
100
AcDbScale
 70
     0
300
1/128" = 1'-0"
140
0.0078125
141
12.0
290
     0
  0
SCALE
  5
5A
102
{ACAD_REACTORS
330
47
102
}
330
47
100
AcDbScale
 70
     0
300
1/64" = 1'-0"
140
0.015625
141
12.0
290
     0
  0
SCALE
  5
5B
102
{ACAD_REACTORS
330
47
102
}
330
47
100
AcDbScale
 70
     0
300
1/32" = 1'-0"
140
0.03125
141
12.0
290
     0
  0
SCALE
  5
5C
102
{ACAD_REACTORS
330
47
102
}
330
47
100
AcDbScale
 70
     0
300
1/16" = 1'-0"
140
0.0625
141
12.0
290
     0
  0
SCALE
  5
5D
102
{ACAD_REACTORS
330
47
102
}
330
47
100
AcDbScale
 70
     0
300
3/32" = 1'-0"
140
0.09375
141
12.0
290
     0
  0
SCALE
  5
5E
102
{ACAD_REACTORS
330
47
102
}
330
47
100
AcDbScale
 70
     0
300
1/8" = 1'-0"
140
0.125
141
12.0
290
     0
  0
SCALE
  5
5F
102
{ACAD_REACTORS
330
47
102
}
330
47
100
AcDbScale
 70
     0
300
3/16" = 1'-0"
140
0.1875
141
12.0
290
     0
  0
SCALE
  5
60
102
{ACAD_REACTORS
330
47
102
}
330
47
100
AcDbScale
 70
     0
300
1/4" = 1'-0"
140
0.25
141
12.0
290
     0
  0
SCALE
  5
61
102
{ACAD_REACTORS
330
47
102
}
330
47
100
AcDbScale
 70
     0
300
3/8" = 1'-0"
140
0.375
141
12.0
290
     0
  0
SCALE
  5
62
102
{ACAD_REACTORS
330
47
102
}
330
47
100
AcDbScale
 70
     0
300
1/2" = 1'-0"
140
0.5
141
12.0
290
     0
  0
SCALE
  5
63
102
{ACAD_REACTORS
330
47
102
}
330
47
100
AcDbScale
 70
     0
300
3/4" = 1'-0"
140
0.75
141
12.0
290
     0
  0
SCALE
  5
64
102
{ACAD_REACTORS
330
47
102
}
330
47
100
AcDbScale
 70
     0
300
1" = 1'-0"
140
1.0
141
12.0
290
     0
  0
SCALE
  5
65
102
{ACAD_REACTORS
330
47
102
}
330
47
100
AcDbScale
 70
     0
300
1-1/2" = 1'-0"
140
1.5
141
12.0
290
     0
  0
SCALE
  5
66
102
{ACAD_REACTORS
330
47
102
}
330
47
100
AcDbScale
 70
     0
300
3" = 1'-0"
140
3.0
141
12.0
290
     0
  0
SCALE
  5
67
102
{ACAD_REACTORS
330
47
102
}
330
47
100
AcDbScale
 70
     0
300
6" = 1'-0"
140
6.0
141
12.0
290
     0
  0
SCALE
  5
68
102
{ACAD_REACTORS
330
47
102
}
330
47
100
AcDbScale
 70
     0
300
1'-0" = 1'-0"
140
12.0
141
12.0
290
     0
  0
ENDSEC
  0
EOF
