  0
SECTION
  2
HEADER
  9
$ACADVER
  1
AC1015
  9
$ACADMAINTVER
 70
     6
  9
$DWGCODEPAGE
  3
ANSI_949
  9
$INSBASE
 10
0.0
 20
0.0
 30
0.0
  9
$EXTMIN
 10
-39.59000713492544
 20
-49.74963167715453
 30
0.0
  9
$EXTMAX
 10
99.17244441736186
 20
53.28824607585889
 30
0.0
  9
$LIMMIN
 10
0.0
 20
0.0
  9
$LIMMAX
 10
420.0
 20
297.0
  9
$ORTHOMODE
 70
     1
  9
$REGENMODE
 70
     1
  9
$FILLMODE
 70
     1
  9
$QTEXTMODE
 70
     0
  9
$MIRRTEXT
 70
     1
  9
$LTSCALE
 40
1.0
  9
$ATTMODE
 70
     1
  9
$TEXTSIZE
 40
3.5
  9
$TRACEWID
 40
1.0
  9
$TEXTSTYLE
  7
Standard
  9
$CLAYER
  8
0
  9
$CELTYPE
  6
ByLayer
  9
$CECOLOR
 62
   256
  9
$CELTSCALE
 40
1.0
  9
$DISPSILH
 70
     0
  9
$DIMSCALE
 40
1.0
  9
$DIMASZ
 40
3.302
  9
$DIMEXO
 40
1.0
  9
$DIMDLI
 40
3.75
  9
$DIMRND
 40
0.0
  9
$DIMDLE
 40
0.0
  9
$DIMEXE
 40
1.0
  9
$DIMTP
 40
0.0
  9
$DIMTM
 40
0.0
  9
$DIMTXT
 40
3.5
  9
$DIMCEN
 40
2.5
  9
$DIMTSZ
 40
0.0
  9
$DIMTOL
 70
     0
  9
$DIMLIM
 70
     0
  9
$DIMTIH
 70
     1
  9
$DIMTOH
 70
     1
  9
$DIMSE1
 70
     0
  9
$DIMSE2
 70
     0
  9
$DIMTAD
 70
     1
  9
$DIMZIN
 70
     0
  9
$DIMBLK
  1

  9
$DIMASO
 70
     1
  9
$DIMSHO
 70
     1
  9
$DIMPOST
  1

  9
$DIMAPOST
  1

  9
$DIMALT
 70
     0
  9
$DIMALTD
 70
     3
  9
$DIMALTF
 40
0.0393700787401575
  9
$DIMLFAC
 40
1.0
  9
$DIMTOFL
 70
     1
  9
$DIMTVP
 40
0.0
  9
$DIMTIX
 70
     0
  9
$DIMSOXD
 70
     0
  9
$DIMSAH
 70
     0
  9
$DIMBLK1
  1

  9
$DIMBLK2
  1

  9
$DIMSTYLE
  2
ISO-25
  9
$DIMCLRD
 70
     0
  9
$DIMCLRE
 70
     0
  9
$DIMCLRT
 70
     0
  9
$DIMTFAC
 40
1.0
  9
$DIMGAP
 40
1.524
  9
$DIMJUST
 70
     0
  9
$DIMSD1
 70
     0
  9
$DIMSD2
 70
     0
  9
$DIMTOLJ
 70
     0
  9
$DIMTZIN
 70
     0
  9
$DIMALTZ
 70
     0
  9
$DIMALTTZ
 70
     0
  9
$DIMUPT
 70
     0
  9
$DIMDEC
 70
     2
  9
$DIMTDEC
 70
     2
  9
$DIMALTU
 70
     2
  9
$DIMALTTD
 70
     3
  9
$DIMTXSTY
  7
Standard
  9
$DIMAUNIT
 70
     0
  9
$DIMADEC
 70
     2
  9
$DIMALTRND
 40
0.0
  9
$DIMAZIN
 70
     0
  9
$DIMDSEP
 70
    44
  9
$DIMATFIT
 70
     3
  9
$DIMFRAC
 70
     0
  9
$DIMLDRBLK
  1

  9
$DIMLUNIT
 70
     2
  9
$DIMLWD
 70
    -2
  9
$DIMLWE
 70
    -2
  9
$DIMTMOVE
 70
     0
  9
$LUNITS
 70
     2
  9
$LUPREC
 70
     2
  9
$SKETCHINC
 40
1.0
  9
$FILLETRAD
 40
0.254
  9
$AUNITS
 70
     0
  9
$AUPREC
 70
     2
  9
$MENU
  1
.
  9
$ELEVATION
 40
0.0
  9
$PELEVATION
 40
0.0
  9
$THICKNESS
 40
0.0
  9
$LIMCHECK
 70
     0
  9
$CHAMFERA
 40
0.0
  9
$CHAMFERB
 40
0.0
  9
$CHAMFERC
 40
0.0
  9
$CHAMFERD
 40
0.0
  9
$SKPOLY
 70
     0
  9
$TDCREATE
 40
2458290.672456829
  9
$TDUCREATE
 40
2458290.297456829
  9
$TDUPDATE
 40
2459709.344662372
  9
$TDUUPDATE
 40
2459708.969662372
  9
$TDINDWG
 40
0.0026446875
  9
$TDUSRTIMER
 40
0.0001068287
  9
$USRTIMER
 70
     1
  9
$ANGBASE
 50
0.0
  9
$ANGDIR
 70
     0
  9
$PDMODE
 70
     0
  9
$PDSIZE
 40
-1.0
  9
$PLINEWID
 40
0.0
  9
$SPLFRAME
 70
     0
  9
$SPLINETYPE
 70
     6
  9
$SPLINESEGS
 70
     8
  9
$HANDSEED
  5
293
  9
$SURFTAB1
 70
     6
  9
$SURFTAB2
 70
     6
  9
$SURFTYPE
 70
     6
  9
$SURFU
 70
     6
  9
$SURFV
 70
     6
  9
$UCSBASE
  2

  9
$UCSNAME
  2

  9
$UCSORG
 10
0.0
 20
0.0
 30
0.0
  9
$UCSXDIR
 10
1.0
 20
0.0
 30
0.0
  9
$UCSYDIR
 10
0.0
 20
1.0
 30
0.0
  9
$UCSORTHOREF
  2

  9
$UCSORTHOVIEW
 70
     0
  9
$UCSORGTOP
 10
0.0
 20
0.0
 30
0.0
  9
$UCSORGBOTTOM
 10
0.0
 20
0.0
 30
0.0
  9
$UCSORGLEFT
 10
0.0
 20
0.0
 30
0.0
  9
$UCSORGRIGHT
 10
0.0
 20
0.0
 30
0.0
  9
$UCSORGFRONT
 10
0.0
 20
0.0
 30
0.0
  9
$UCSORGBACK
 10
0.0
 20
0.0
 30
0.0
  9
$PUCSBASE
  2

  9
$PUCSNAME
  2

  9
$PUCSORG
 10
0.0
 20
0.0
 30
0.0
  9
$PUCSXDIR
 10
1.0
 20
0.0
 30
0.0
  9
$PUCSYDIR
 10
0.0
 20
1.0
 30
0.0
  9
$PUCSORTHOREF
  2

  9
$PUCSORTHOVIEW
 70
     0
  9
$PUCSORGTOP
 10
0.0
 20
0.0
 30
0.0
  9
$PUCSORGBOTTOM
 10
0.0
 20
0.0
 30
0.0
  9
$PUCSORGLEFT
 10
0.0
 20
0.0
 30
0.0
  9
$PUCSORGRIGHT
 10
0.0
 20
0.0
 30
0.0
  9
$PUCSORGFRONT
 10
0.0
 20
0.0
 30
0.0
  9
$PUCSORGBACK
 10
0.0
 20
0.0
 30
0.0
  9
$USERI1
 70
     0
  9
$USERI2
 70
     0
  9
$USERI3
 70
     0
  9
$USERI4
 70
     0
  9
$USERI5
 70
     0
  9
$USERR1
 40
0.0
  9
$USERR2
 40
0.0
  9
$USERR3
 40
0.0
  9
$USERR4
 40
0.0
  9
$USERR5
 40
0.0
  9
$WORLDVIEW
 70
     1
  9
$SHADEDGE
 70
     3
  9
$SHADEDIF
 70
    70
  9
$TILEMODE
 70
     1
  9
$MAXACTVP
 70
    64
  9
$PINSBASE
 10
0.0
 20
0.0
 30
0.0
  9
$PLIMCHECK
 70
     0
  9
$PEXTMIN
 10
1.000000000000000E+20
 20
1.000000000000000E+20
 30
1.000000000000000E+20
  9
$PEXTMAX
 10
-1.000000000000000E+20
 20
-1.000000000000000E+20
 30
-1.000000000000000E+20
  9
$PLIMMIN
 10
0.0
 20
0.0
  9
$PLIMMAX
 10
0.0
 20
0.0
  9
$UNITMODE
 70
     0
  9
$VISRETAIN
 70
     1
  9
$PLINEGEN
 70
     0
  9
$PSLTSCALE
 70
     1
  9
$TREEDEPTH
 70
  3020
  9
$CMLSTYLE
  2
Standard
  9
$CMLJUST
 70
     0
  9
$CMLSCALE
 40
20.0
  9
$PROXYGRAPHICS
 70
     1
  9
$MEASUREMENT
 70
     1
  9
$CELWEIGHT
370
    -1
  9
$ENDCAPS
280
     0
  9
$JOINSTYLE
280
     0
  9
$LWDISPLAY
290
     1
  9
$INSUNITS
 70
     4
  9
$HYPERLINKBASE
  1

  9
$STYLESHEET
  1

  9
$XEDIT
290
     1
  9
$CEPSNTYPE
380
     0
  9
$PSTYLEMODE
290
     1
  9
$FINGERPRINTGUID
  2
{5C855F23-624F-4620-AF90-2C52171F2E1B}
  9
$VERSIONGUID
  2
{FAEB1C32-E019-11D5-929B-00C0DF256EC4}
  9
$EXTNAMES
290
     1
  9
$PSVPSCALE
 40
0.0
  9
$OLESTARTUP
290
     0
  0
ENDSEC
  0
SECTION
  2
CLASSES
  0
CLASS
  1
ACDBDICTIONARYWDFLT
  2
AcDbDictionaryWithDefault
  3
ObjectDBX Classes
 90
        0
280
     0
281
     0
  0
CLASS
  1
VISUALSTYLE
  2
AcDbVisualStyle
  3
ObjectDBX Classes
 90
     4095
280
     0
281
     0
  0
CLASS
  1
MATERIAL
  2
AcDbMaterial
  3
ObjectDBX Classes
 90
     1153
280
     0
281
     0
  0
CLASS
  1
SCALE
  2
AcDbScale
  3
ObjectDBX Classes
 90
     1153
280
     0
281
     0
  0
CLASS
  1
SUN
  2
AcDbSun
  3
SCENEOE
 90
     1153
280
     0
281
     0
  0
CLASS
  1
ACDBPLACEHOLDER
  2
AcDbPlaceHolder
  3
ObjectDBX Classes
 90
        0
280
     0
281
     0
  0
CLASS
  1
LAYOUT
  2
AcDbLayout
  3
ObjectDBX Classes
 90
        0
280
     0
281
     0
  0
CLASS
  1
TABLESTYLE
  2
AcDbTableStyle
  3
ObjectDBX Classes
 90
     4095
280
     0
281
     0
  0
CLASS
  1
MLEADERSTYLE
  2
AcDbMLeaderStyle
  3
ACDB_MLEADERSTYLE_CLASS
 90
     4095
280
     0
281
     0
  0
CLASS
  1
DICTIONARYVAR
  2
AcDbDictionaryVar
  3
ObjectDBX Classes
 90
        0
280
     0
281
     0
  0
CLASS
  1
DIMASSOC
  2
AcDbDimAssoc
  3
"AcDbDimAssoc|Product Desc:     AcDim ARX App For Dimension|Company:          Autodesk, Inc.|WEB Address:      www.autodesk.com"
 90
        0
280
     0
281
     0
  0
CLASS
  1
SORTENTSTABLE
  2
AcDbSortentsTable
  3
ObjectDBX Classes
 90
        0
280
     0
281
     0
  0
ENDSEC
  0
SECTION
  2
TABLES
  0
TABLE
  2
VPORT
  5
8
330
0
100
AcDbSymbolTable
 70
     1
  0
VPORT
  5
29
330
8
100
AcDbSymbolTableRecord
100
AcDbViewportTableRecord
  2
*Active
 70
     0
 10
0.0
 20
0.0
 11
1.0
 21
1.0
 12
-0.1950788962004069
 22
14.16721061105191
 13
0.0
 23
0.0
 14
10.0
 24
10.0
 15
10.0
 25
10.0
 16
0.0
 26
0.0
 36
1.0
 17
0.0
 27
0.0
 37
0.0
 40
194.1862485386743
 41
1.163027656477438
 42
50.0
 43
0.0
 44
0.0
 50
0.0
 51
0.0
 71
    16
 72
  2000
 73
     1
 74
     3
 75
     0
 76
     0
 77
     0
 78
     0
281
     0
 65
     1
110
0.0
120
0.0
130
0.0
111
1.0
121
0.0
131
0.0
112
0.0
122
1.0
132
0.0
 79
     0
146
0.0
  0
ENDTAB
  0
TABLE
  2
LTYPE
  5
5
330
0
100
AcDbSymbolTable
 70
     6
  0
LTYPE
  5
14
330
5
100
AcDbSymbolTableRecord
100
AcDbLinetypeTableRecord
  2
ByBlock
 70
     0
  3

 72
    65
 73
     0
 40
0.0
  0
LTYPE
  5
15
330
5
100
AcDbSymbolTableRecord
100
AcDbLinetypeTableRecord
  2
ByLayer
 70
     0
  3

 72
    65
 73
     0
 40
0.0
  0
LTYPE
  5
16
330
5
100
AcDbSymbolTableRecord
100
AcDbLinetypeTableRecord
  2
Continuous
 70
     0
  3
Solid line
 72
    65
 73
     0
 40
0.0
  0
LTYPE
  5
6A
330
5
100
AcDbSymbolTableRecord
100
AcDbLinetypeTableRecord
  2
HIDDEN
 70
     0
  3
Hidden __ __ __ __ __ __ __ __ __ __ __ __ __ __
 72
    65
 73
     2
 40
1.905
 49
1.27
 74
     0
 49
-0.635
 74
     0
  0
LTYPE
  5
6B
330
5
100
AcDbSymbolTableRecord
100
AcDbLinetypeTableRecord
  2
PHANTOM
 70
     0
  3
Phantom ______  __  __  ______  __  __  ______
 72
    65
 73
     6
 40
12.7
 49
6.35
 74
     0
 49
-1.27
 74
     0
 49
1.27
 74
     0
 49
-1.27
 74
     0
 49
1.27
 74
     0
 49
-1.27
 74
     0
  0
LTYPE
  5
6C
330
5
100
AcDbSymbolTableRecord
100
AcDbLinetypeTableRecord
  2
CENTER
 70
     0
  3
Center ____ _ ____ _ ____ _ ____ _ ____ _ ____
 72
    65
 73
     4
 40
10.16
 49
6.35
 74
     0
 49
-1.27
 74
     0
 49
1.27
 74
     0
 49
-1.27
 74
     0
  0
LTYPE
  5
6D
330
5
100
AcDbSymbolTableRecord
100
AcDbLinetypeTableRecord
  2
CENTERX2
 70
     0
  3
Center (2x) ________  __  ________  __  _____
 72
    65
 73
     4
 40
20.32
 49
12.7
 74
     0
 49
-2.54
 74
     0
 49
2.54
 74
     0
 49
-2.54
 74
     0
  0
LTYPE
  5
6E
330
5
100
AcDbSymbolTableRecord
100
AcDbLinetypeTableRecord
  2
DOT2
 70
     0
  3
Dot (.5x) ........................................
 72
    65
 73
     2
 40
0.635
 49
0.0
 74
     0
 49
-0.635
 74
     0
  0
ENDTAB
  0
TABLE
  2
LAYER
  5
2
330
0
100
AcDbSymbolTable
 70
    18
  0
LAYER
  5
10
330
2
100
AcDbSymbolTableRecord
100
AcDbLayerTableRecord
  2
0
 70
     0
 62
     7
  6
Continuous
370
    -3
390
F
  0
LAYER
  5
6F
330
2
100
AcDbSymbolTableRecord
100
AcDbLayerTableRecord
  2
FORMAT
 70
     0
 62
     2
  6
Continuous
370
    -3
390
F
  0
LAYER
  5
70
330
2
100
AcDbSymbolTableRecord
100
AcDbLayerTableRecord
  2
외형선
 70
     0
 62
     4
  6
Continuous
370
    30
390
F
  0
LAYER
  5
71
330
2
100
AcDbSymbolTableRecord
100
AcDbLayerTableRecord
  2
숨은선
 70
     0
 62
     2
  6
HIDDEN
370
    15
390
F
  0
LAYER
  5
72
330
2
100
AcDbSymbolTableRecord
100
AcDbLayerTableRecord
  2
중심선
 70
     0
 62
     1
  6
CENTERX2
370
    -3
390
F
  0
LAYER
  5
73
330
2
100
AcDbSymbolTableRecord
100
AcDbLayerTableRecord
  2
파단선
 70
     0
 62
     4
  6
Continuous
370
    -3
390
F
  0
LAYER
  5
74
330
2
100
AcDbSymbolTableRecord
100
AcDbLayerTableRecord
  2
해칭선
 70
     0
 62
   100
  6
Continuous
370
    -3
390
F
  0
LAYER
  5
75
330
2
100
AcDbSymbolTableRecord
100
AcDbLayerTableRecord
  2
가는실선
 70
     0
 62
     4
  6
Continuous
370
    -3
390
F
  0
LAYER
  5
76
330
2
100
AcDbSymbolTableRecord
100
AcDbLayerTableRecord
  2
치수_보조선
 70
     0
 62
     4
  6
Continuous
370
    -3
390
F
  0
LAYER
  5
77
330
2
100
AcDbSymbolTableRecord
100
AcDbLayerTableRecord
  2
치수문자_일반주서
 70
     0
 62
     7
  6
Continuous
370
    15
390
F
  0
LAYER
  5
78
330
2
100
AcDbSymbolTableRecord
100
AcDbLayerTableRecord
  2
개별주서
 70
     0
 62
   100
  6
Continuous
370
    30
390
F
  0
LAYER
  5
79
330
2
100
AcDbSymbolTableRecord
100
AcDbLayerTableRecord
  2
중간선
 70
     0
 62
     2
  6
Continuous
370
    15
390
F
  0
LAYER
  5
7A
330
2
100
AcDbSymbolTableRecord
100
AcDbLayerTableRecord
  2
윤곽선
 70
     0
 62
     3
  6
Continuous
370
    40
390
F
  0
LAYER
  5
7B
330
2
100
AcDbSymbolTableRecord
100
AcDbLayerTableRecord
  2
중심마크
 70
     0
 62
   100
  6
Continuous
370
    30
390
F
  0
LAYER
  5
7C
330
2
100
AcDbSymbolTableRecord
100
AcDbLayerTableRecord
  2
가상선
 70
     0
 62
     4
  6
PHANTOM
370
    -3
390
F
  0
LAYER
  5
7D
330
2
100
AcDbSymbolTableRecord
100
AcDbLayerTableRecord
  2
특수지정선
 70
     0
 62
     5
  6
CENTERX2
370
    60
390
F
  0
LAYER
  5
7E
330
2
100
AcDbSymbolTableRecord
100
AcDbLayerTableRecord
  2
참조1
 70
     0
 62
    -4
  6
Continuous
370
    -3
390
F
  0
LAYER
  5
154
330
2
100
AcDbSymbolTableRecord
100
AcDbLayerTableRecord
  2
Defpoints
 70
     0
 62
     7
  6
Continuous
290
     0
370
    -3
390
F
  0
ENDTAB
  0
TABLE
  2
STYLE
  5
3
330
0
100
AcDbSymbolTable
 70
     2
  0
STYLE
  5
11
330
3
100
AcDbSymbolTableRecord
100
AcDbTextStyleTableRecord
  2
Standard
 70
     0
 40
0.0
 41
1.0
 50
0.0
 71
     0
 42
3.5
  3
txt
  4

  0
STYLE
  5
94
330
3
100
AcDbSymbolTableRecord
100
AcDbTextStyleTableRecord
  2
SLDTEXTSTYLE0
 70
     0
 40
0.0
 41
0.75
 50
0.0
 71
     0
 42
3.5
  3
TXT
  4

  0
ENDTAB
  0
TABLE
  2
VIEW
  5
6
330
0
100
AcDbSymbolTable
 70
     0
  0
ENDTAB
  0
TABLE
  2
UCS
  5
7
330
0
100
AcDbSymbolTable
 70
     0
  0
ENDTAB
  0
TABLE
  2
APPID
  5
9
330
0
100
AcDbSymbolTable
 70
     4
  0
APPID
  5
12
330
9
100
AcDbSymbolTableRecord
100
AcDbRegAppTableRecord
  2
ACAD
 70
     0
  0
APPID
  5
156
330
9
100
AcDbSymbolTableRecord
100
AcDbRegAppTableRecord
  2
PE_URL
 70
     0
  0
APPID
  5
163
330
9
100
AcDbSymbolTableRecord
100
AcDbRegAppTableRecord
  2
ACAD_DSTYLE_DIMFLIPARROW_SYMBOL
 70
     0
  0
APPID
  5
164
330
9
100
AcDbSymbolTableRecord
100
AcDbRegAppTableRecord
  2
ACAD_DSTYLE_DIMFLIPARROW_WHICH_SYMBOL
 70
     0
  0
ENDTAB
  0
TABLE
  2
DIMSTYLE
  5
A
330
0
100
AcDbSymbolTable
 70
     4
100
AcDbDimStyleTable
  0
DIMSTYLE
105
27
102
{ACAD_REACTORS
330
1F9
102
}
330
A
100
AcDbSymbolTableRecord
100
AcDbDimStyleTableRecord
  2
ISO-25
 70
     0
 41
2.5
 42
0.625
 43
3.75
 44
1.25
 73
     0
 74
     0
 77
     1
 78
     8
140
2.5
141
2.5
143
0.03937007874016
147
0.625
171
     3
172
     1
178
     0
271
     2
272
     2
274
     3
278
    44
283
     0
284
     8
340
11
  0
DIMSTYLE
105
D2
330
A
100
AcDbSymbolTableRecord
100
AcDbDimStyleTableRecord
  2
SLDDIMSTYLE0
 70
     0
 41
3.302
 44
0.0
 45
0.000000001
 73
     0
 74
     0
 77
     1
 78
     4
 79
     1
140
3.5
143
0.0393700787401575
147
0.875
148
0.000000001
170
     1
173
     1
178
     0
271
     2
272
     2
276
     2
284
    12
340
94
  0
DIMSTYLE
105
E6
102
{ACAD_REACTORS
330
E5
330
110
330
FA
330
D1
102
}
330
A
100
AcDbSymbolTableRecord
100
AcDbDimStyleTableRecord
  2
SLDDIMSTYLE1
 70
     0
 41
3.302
 44
0.0
 45
0.000000001
 73
     0
 74
     0
 77
     1
 78
    12
 79
     3
140
3.5
143
0.0393700787401575
147
0.875
148
0.000000001
170
     1
172
     1
173
     1
178
     0
271
     2
272
     2
276
     2
284
    12
289
     0
340
94
  0
DIMSTYLE
105
FB
330
A
100
AcDbSymbolTableRecord
100
AcDbDimStyleTableRecord
  2
SLDDIMSTYLE2
 70
     0
 41
3.302
 44
0.0
 45
0.000000001
 73
     0
 74
     0
 77
     1
 78
     4
 79
     1
140
3.5
143
0.0393700787401575
147
0.875
148
0.000000001
170
     1
172
     1
173
     1
178
     0
271
     2
272
     2
276
     2
284
    12
289
     0
340
94
  0
ENDTAB
  0
TABLE
  2
BLOCK_RECORD
  5
1
330
0
100
AcDbSymbolTable
 70
     7
  0
BLOCK_RECORD
  5
1F
102
{ACAD_XDICTIONARY
360
28C
102
}
330
1
100
AcDbSymbolTableRecord
100
AcDbBlockTableRecord
  2
*Model_Space
340
22
  0
BLOCK_RECORD
  5
1B
330
1
100
AcDbSymbolTableRecord
100
AcDbBlockTableRecord
  2
*Paper_Space
340
1E
  0
BLOCK_RECORD
  5
23
330
1
100
AcDbSymbolTableRecord
100
AcDbBlockTableRecord
  2
*Paper_Space0
340
26
  0
BLOCK_RECORD
  5
7F
330
1
100
AcDbSymbolTableRecord
100
AcDbBlockTableRecord
  2
블럭10
340
0
102
{BLKREFS
331
CA
102
}
  0
BLOCK_RECORD
  5
D3
330
1
100
AcDbSymbolTableRecord
100
AcDbBlockTableRecord
  2
_D
340
0
  0
BLOCK_RECORD
  5
E7
330
1
100
AcDbSymbolTableRecord
100
AcDbBlockTableRecord
  2
_D_1
340
0
  0
BLOCK_RECORD
  5
FC
330
1
100
AcDbSymbolTableRecord
100
AcDbBlockTableRecord
  2
_D_2
340
0
  0
BLOCK_RECORD
  5
111
330
1
100
AcDbSymbolTableRecord
100
AcDbBlockTableRecord
  2
_D_3
340
0
  0
BLOCK_RECORD
  5
12B
330
1
100
AcDbSymbolTableRecord
100
AcDbBlockTableRecord
  2
SW_DOWELSYMBOL_0
340
0
102
{BLKREFS
331
131
102
}
  0
ENDTAB
  0
ENDSEC
  0
SECTION
  2
BLOCKS
  0
BLOCK
  5
20
330
1F
100
AcDbEntity
  8
0
100
AcDbBlockBegin
  2
*Model_Space
 70
     0
 10
0.0
 20
0.0
 30
0.0
  3
*Model_Space
  1

  0
ENDBLK
  5
21
330
1F
100
AcDbEntity
  8
0
100
AcDbBlockEnd
  0
BLOCK
  5
1C
330
1B
100
AcDbEntity
 67
     1
  8
0
100
AcDbBlockBegin
  2
*Paper_Space
 70
     0
 10
0.0
 20
0.0
 30
0.0
  3
*Paper_Space
  1

  0
ENDBLK
  5
1D
330
1B
100
AcDbEntity
 67
     1
  8
0
100
AcDbBlockEnd
  0
BLOCK
  5
24
330
23
100
AcDbEntity
  8
0
100
AcDbBlockBegin
  2
*Paper_Space0
 70
     0
 10
0.0
 20
0.0
 30
0.0
  3
*Paper_Space0
  1

  0
ENDBLK
  5
25
330
23
100
AcDbEntity
  8
0
100
AcDbBlockEnd
  0
BLOCK
  5
80
330
7F
100
AcDbEntity
  8
0
100
AcDbBlockBegin
  2
블럭10
 70
     2
 10
0.0
 20
0.0
 30
0.0
  3
블럭10
  1

  0
ELLIPSE
  5
82
330
7F
100
AcDbEntity
  8
중심선
100
AcDbEllipse
 10
20.54032771741204
 20
12.0471743016438
 30
0.0
 11
6.600054785286829
 21
-1.261213355974178E-13
 31
0.0
210
0.0
220
0.0
230
1.0
 40
0.636358354079598
 41
0.9219305317359503
 42
6.513795318482858
  0
ELLIPSE
  5
83
330
7F
100
AcDbEntity
  8
중심선
100
AcDbEllipse
 10
20.54032771746488
 20
12.04717430159265
 30
0.0
 11
3.960054785062283
 21
1.540847449632565E-10
 31
0.0
210
0.0
220
0.0
230
1.0
 40
0.3939339440162632
 41
1.131841032648279
 42
5.62031148352944
  0
LINE
  5
84
330
7F
100
AcDbEntity
  8
중심선
100
AcDbLine
 10
2.268634060543552
 20
16.24717430164393
 30
0.0
 11
5.714909304380834
 21
16.24717430164393
 31
0.0
  0
LINE
  5
85
330
7F
100
AcDbEntity
  8
중심선
100
AcDbLine
 10
5.245725140726316
 20
7.84717430164391
 30
0.0
 11
8.692000384563599
 21
7.84717430164391
 31
0.0
  0
LINE
  5
86
330
7F
100
AcDbEntity
  8
중심선
100
AcDbLine
 10
15.74043728645272
 20
16.24717430164393
 30
0.0
 11
8.692000384563599
 21
7.84717430164391
 31
0.0
  0
LINE
  5
87
330
7F
100
AcDbEntity
  8
중심선
100
AcDbLine
 10
0.1404042013395286
 20
13.71084872107135
 30
0.0
 11
3.58671253028996
 21
13.71088815037384
 31
0.0
  0
LINE
  5
88
330
7F
100
AcDbEntity
  8
중심선
100
AcDbLine
 10
2.750260043222114
 20
10.84717430164391
 30
0.0
 11
6.196535287059397
 21
10.84717430164391
 31
0.0
  0
LINE
  5
89
330
7F
100
AcDbEntity
  8
중심선
100
AcDbLine
 10
12.29416204261559
 20
16.24717430164393
 30
0.0
 11
5.245725140726316
 21
7.84717430164391
 31
0.0
  0
LINE
  5
8A
330
7F
100
AcDbEntity
  8
중심선
100
AcDbLine
 10
10.72767329541681
 20
16.24717430164393
 30
0.0
 11
6.196535287059397
 21
10.84717430164391
 31
0.0
  0
LINE
  5
8B
330
7F
100
AcDbEntity
  8
중심선
100
AcDbLine
 10
7.28139805157953
 20
16.24717430164393
 30
0.0
 11
2.750260043222114
 21
10.84717430164391
 31
0.0
  0
LINE
  5
8C
330
7F
100
AcDbEntity
  8
중심선
100
AcDbLine
 10
5.714909304380834
 20
16.24717430164393
 30
0.0
 11
3.58671253028996
 21
13.71088815037384
 31
0.0
  0
LINE
  5
8D
330
7F
100
AcDbEntity
  8
중심선
100
AcDbLine
 10
2.268634060543552
 20
16.24717430164393
 30
0.0
 11
0.1404042013395286
 21
13.71084872107135
 31
0.0
  0
LINE
  5
8E
330
7F
100
AcDbEntity
  8
중심선
100
AcDbLine
 10
7.28139805157953
 20
16.24717430164393
 30
0.0
 11
10.72767329541681
 21
16.24717430164393
 31
0.0
  0
LINE
  5
8F
330
7F
100
AcDbEntity
  8
중심선
100
AcDbLine
 10
12.29416204261559
 20
16.24717430164393
 30
0.0
 11
15.74043728645272
 21
16.24717430164393
 31
0.0
  0
LINE
  5
90
330
7F
100
AcDbEntity
  8
중심선
100
AcDbLine
 10
19.22036997980202
 20
11.08717430171403
 30
0.0
 11
23.66174974927406
 21
11.08717430171406
 31
0.0
  0
LINE
  5
91
330
7F
100
AcDbEntity
  8
중심선
100
AcDbLine
 10
19.22039502424796
 20
13.00717430171391
 30
0.0
 11
19.22036997980202
 21
11.08717430171403
 31
0.0
  0
LINE
  5
92
330
7F
100
AcDbEntity
  8
중심선
100
AcDbLine
 10
19.22039502424796
 20
13.00717430171391
 30
0.0
 11
26.96566020931264
 21
13.00717430171391
 31
0.0
  0
LINE
  5
93
330
7F
100
AcDbEntity
  8
중심선
100
AcDbLine
 10
22.22332737316547
 20
13.45928029700563
 30
0.0
 11
24.52862924686651
 21
15.39360700705356
 31
0.0
  0
ATTDEF
  5
95
330
7F
100
AcDbEntity
  8
FORMAT
 62
     2
100
AcDbText
 10
4.408487351596664
 20
2.075366912832191
 30
0.0
 40
4.233333333333333
  1
E5074010
 41
0.75
  7
SLDTEXTSTYLE0
 11
4.408487351596664
 21
-0.0412997538344756
 31
0.0
100
AcDbAttributeDefinition
  3

  2
AUTOATTR0
 70
     0
 74
     1
  0
ENDBLK
  5
81
330
7F
100
AcDbEntity
  8
0
100
AcDbBlockEnd
  0
BLOCK
  5
D4
330
D3
100
AcDbEntity
  8
0
100
AcDbBlockBegin
  2
_D
 70
     0
 10
0.0
 20
0.0
 30
0.0
  3
_D
  1

  0
LINE
  5
D6
330
D3
100
AcDbEntity
  8
치수문자_일반주서
 62
     0
370
    -2
100
AcDbLine
 10
-26.5130583728067
 20
2.444824928723876
 30
0.0
 11
-26.51305837280669
 21
48.91324607585888
 31
0.0
  0
LINE
  5
D7
330
D3
100
AcDbEntity
  8
치수문자_일반주서
 62
     0
370
    -2
100
AcDbLine
 10
24.2869416271933
 20
2.047949928723917
 30
0.0
 11
24.28694162719331
 21
48.91324607585888
 31
0.0
  0
LINE
  5
D8
330
D3
100
AcDbEntity
  8
치수문자_일반주서
 62
     0
370
    -2
100
AcDbLine
 10
-23.21105837280669
 20
48.91324607585888
 30
0.0
 11
20.98494162719331
 21
48.91324607585888
 31
0.0
  0
SOLID
  5
D9
330
D3
100
AcDbEntity
  8
치수문자_일반주서
 62
     0
100
AcDbTrace
 10
-23.21105837280669
 20
49.46357940919221
 30
0.0
 11
-23.21105837280669
 21
48.36291274252554
 31
0.0
 12
-26.51305837280669
 22
48.91324607585888
 32
0.0
 13
-26.51305837280669
 23
48.91324607585888
 33
0.0
  0
SOLID
  5
DA
330
D3
100
AcDbEntity
  8
치수문자_일반주서
 62
     0
100
AcDbTrace
 10
20.98494162719331
 20
48.36291274252554
 30
0.0
 11
20.98494162719331
 21
49.46357940919221
 31
0.0
 12
24.28694162719331
 22
48.91324607585888
 32
0.0
 13
24.28694162719331
 23
48.91324607585888
 33
0.0
  0
MTEXT
  5
DB
330
D3
100
AcDbEntity
  8
치수문자_일반주서
 62
     0
100
AcDbMText
 10
-1.113058372806688
 20
53.28824607585888
 30
0.0
 40
3.5
 41
0.0
 71
     2
 72
     1
  1
\A1;50.8 [2]
  7
SLDTEXTSTYLE0
 73
     1
 44
1.0
  0
POINT
  5
DC
330
D3
100
AcDbEntity
  8
Defpoints
 62
     0
100
AcDbPoint
 10
-26.5130583728067
 20
2.382324928723876
 30
0.0
  0
POINT
  5
DD
330
D3
100
AcDbEntity
  8
Defpoints
 62
     0
100
AcDbPoint
 10
24.2869416271933
 20
1.985449928723917
 30
0.0
  0
POINT
  5
DE
330
D3
100
AcDbEntity
  8
Defpoints
 62
     0
100
AcDbPoint
 10
24.2869416271933
 20
48.91324607585888
 30
0.0
  0
ENDBLK
  5
D5
330
D3
100
AcDbEntity
  8
0
100
AcDbBlockEnd
  0
BLOCK
  5
E8
330
E7
100
AcDbEntity
  8
0
100
AcDbBlockBegin
  2
_D_1
 70
     0
 10
0.0
 20
0.0
 30
0.0
  3
_D_1
  1

  0
LINE
  5
EA
330
E7
100
AcDbEntity
  8
치수문자_일반주서
 62
     0
370
    -2
100
AcDbLine
 10
-26.57468700907508
 20
2.382324928723876
 30
0.0
 11
-35.21500713492543
 21
2.382324928723843
 31
0.0
  0
LINE
  5
EB
330
E7
100
AcDbEntity
  8
치수문자_일반주서
 62
     0
370
    -2
100
AcDbLine
 10
-26.56478430988776
 20
-2.380175071276113
 30
0.0
 11
-35.21500713492541
 21
-2.380175071276146
 31
0.0
  0
LINE
  5
EC
330
E7
100
AcDbEntity
  8
치수문자_일반주서
 62
     0
370
    -2
100
AcDbLine
 10
-35.21500713492543
 20
2.382324928723843
 30
0.0
 11
-35.21500713492541
 21
-2.380175071276146
 31
0.0
  0
LINE
  5
ED
330
E7
100
AcDbEntity
  8
치수문자_일반주서
 62
     0
370
    -2
100
AcDbLine
 10
-35.21500713492544
 20
5.684324928723843
 30
0.0
 11
-35.21500713492544
 21
8.986324928723842
 31
0.0
  0
LINE
  5
EE
330
E7
100
AcDbEntity
  8
치수문자_일반주서
 62
     0
370
    -2
100
AcDbLine
 10
-35.21500713492541
 20
-5.682175071276146
 30
0.0
 11
-35.2150071349254
 21
-8.984175071276146
 31
0.0
  0
SOLID
  5
EF
330
E7
100
AcDbEntity
  8
치수문자_일반주서
 62
     0
100
AcDbTrace
 10
-35.76534046825877
 20
5.684324928723841
 30
0.0
 11
-34.6646738015921
 21
5.684324928723845
 31
0.0
 12
-35.21500713492543
 22
2.382324928723843
 32
0.0
 13
-35.21500713492543
 23
2.382324928723843
 33
0.0
  0
SOLID
  5
F0
330
E7
100
AcDbEntity
  8
치수문자_일반주서
 62
     0
100
AcDbTrace
 10
-34.66467380159207
 20
-5.682175071276144
 30
0.0
 11
-35.76534046825874
 21
-5.682175071276148
 31
0.0
 12
-35.21500713492541
 22
-2.380175071276146
 32
0.0
 13
-35.21500713492541
 23
-2.380175071276146
 33
0.0
  0
MTEXT
  5
F1
330
E7
100
AcDbEntity
  8
치수문자_일반주서
 62
     0
100
AcDbMText
 10
-39.59000713492542
 20
0.0010749287238841
 30
0.0
 40
3.5
 41
0.0
 71
     2
 72
     1
  1
\A1;%%c4.76 [3/16]
  7
SLDTEXTSTYLE0
 11
-2.983906501879694E-15
 21
1.0
 31
0.0
 73
     1
 44
1.0
  0
POINT
  5
F2
330
E7
100
AcDbEntity
  8
Defpoints
 62
     0
100
AcDbPoint
 10
-26.51218700907508
 20
2.382324928723876
 30
0.0
  0
POINT
  5
15E
330
E7
100
AcDbEntity
  8
Defpoints
 62
     0
100
AcDbPoint
 10
-26.50228430988776
 20
-2.380175071276112
 30
0.0
  0
POINT
  5
15F
330
E7
100
AcDbEntity
  8
Defpoints
 62
     0
100
AcDbPoint
 10
-35.21500713492542
 20
-2.380175071276145
 30
0.0
  0
ENDBLK
  5
E9
330
E7
100
AcDbEntity
  8
0
100
AcDbBlockEnd
  0
BLOCK
  5
FD
330
FC
100
AcDbEntity
  8
0
100
AcDbBlockBegin
  2
_D_2
 70
     0
 10
0.0
 20
0.0
 30
0.0
  3
_D_2
  1

  0
LINE
  5
FF
330
FC
100
AcDbEntity
  8
치수문자_일반주서
 62
     0
370
    -2
100
AcDbLine
 10
24.2869416271933
 20
2.047949928723916
 30
0.0
 11
24.2869416271933
 21
24.11949607585884
 31
0.0
  0
LINE
  5
100
330
FC
100
AcDbEntity
  8
치수문자_일반주서
 62
     0
370
    -2
100
AcDbLine
 10
9.999441627193306
 20
2.466303708437543
 30
0.0
 11
9.999441627193306
 21
24.11949607585884
 31
0.0
  0
LINE
  5
101
330
FC
100
AcDbEntity
  8
치수문자_일반주서
 62
     0
370
    -2
100
AcDbLine
 10
24.2869416271933
 20
24.11949607585884
 30
0.0
 11
-23.72955837280669
 21
24.11949607585884
 31
0.0
  0
LINE
  5
102
330
FC
100
AcDbEntity
  8
치수문자_일반주서
 62
     0
370
    -2
100
AcDbLine
 10
20.9849416271933
 20
24.11949607585884
 30
0.0
 11
13.30144162719331
 21
24.11949607585884
 31
0.0
  0
LINE
  5
103
330
FC
100
AcDbEntity
  8
치수문자_일반주서
 62
     0
370
    -2
100
AcDbLine
 10
13.30144162719331
 20
24.11949607585884
 30
0.0
 11
16.60344162719331
 21
24.11949607585884
 31
0.0
  0
SOLID
  5
104
330
FC
100
AcDbEntity
  8
치수문자_일반주서
 62
     0
100
AcDbTrace
 10
20.9849416271933
 20
23.5691627425255
 30
0.0
 11
20.9849416271933
 21
24.66982940919217
 31
0.0
 12
24.2869416271933
 22
24.11949607585884
 32
0.0
 13
24.2869416271933
 23
24.11949607585884
 33
0.0
  0
SOLID
  5
105
330
FC
100
AcDbEntity
  8
치수문자_일반주서
 62
     0
100
AcDbTrace
 10
13.30144162719331
 20
24.66982940919217
 30
0.0
 11
13.30144162719331
 21
23.5691627425255
 31
0.0
 12
9.999441627193306
 22
24.11949607585884
 32
0.0
 13
9.999441627193306
 23
24.11949607585884
 33
0.0
  0
MTEXT
  5
106
330
FC
100
AcDbEntity
  8
치수문자_일반주서
 62
     0
100
AcDbMText
 10
-10.16705837280669
 20
28.49449607585884
 30
0.0
 40
3.5
 41
0.0
 71
     2
 72
     1
  1
\A1;14.29 [9/16]
  7
SLDTEXTSTYLE0
 73
     1
 44
1.0
  0
POINT
  5
107
330
FC
100
AcDbEntity
  8
Defpoints
 62
     0
100
AcDbPoint
 10
24.2869416271933
 20
1.985449928723916
 30
0.0
  0
POINT
  5
160
330
FC
100
AcDbEntity
  8
Defpoints
 62
     0
100
AcDbPoint
 10
9.999441627193306
 20
2.403803708437543
 30
0.0
  0
POINT
  5
161
330
FC
100
AcDbEntity
  8
Defpoints
 62
     0
100
AcDbPoint
 10
9.999441627193306
 20
24.11949607585884
 30
0.0
  0
ENDBLK
  5
FE
330
FC
100
AcDbEntity
  8
0
100
AcDbBlockEnd
  0
BLOCK
  5
112
330
111
100
AcDbEntity
  8
0
100
AcDbBlockBegin
  2
_D_3
 70
     0
 10
0.0
 20
0.0
 30
0.0
  3
_D_3
  1

  0
LINE
  5
114
330
111
100
AcDbEntity
  8
치수문자_일반주서
 62
     0
370
    -2
100
AcDbLine
 10
24.3494416271933
 20
1.985449928723917
 30
0.0
 11
34.28694162719331
 21
1.985449928723952
 31
0.0
  0
LINE
  5
115
330
111
100
AcDbEntity
  8
치수문자_일반주서
 62
     0
370
    -2
100
AcDbLine
 10
24.36260727342978
 20
-1.98330007127609
 30
0.0
 11
34.28694162719333
 21
-1.983300071276055
 31
0.0
  0
LINE
  5
116
330
111
100
AcDbEntity
  8
치수문자_일반주서
 62
     0
370
    -2
100
AcDbLine
 10
34.28694162719331
 20
1.985449928723952
 30
0.0
 11
34.28694162719319
 21
37.46444992872398
 31
0.0
  0
LINE
  5
117
330
111
100
AcDbEntity
  8
치수문자_일반주서
 62
     0
370
    -2
100
AcDbLine
 10
34.28694162719331
 20
1.985449928723952
 30
0.0
 11
34.28694162719333
 21
-1.983300071276055
 31
0.0
  0
LINE
  5
118
330
111
100
AcDbEntity
  8
치수문자_일반주서
 62
     0
370
    -2
100
AcDbLine
 10
34.2869416271933
 20
5.287449928723952
 30
0.0
 11
34.28694162719329
 21
8.589449928723951
 31
0.0
  0
LINE
  5
119
330
111
100
AcDbEntity
  8
치수문자_일반주서
 62
     0
370
    -2
100
AcDbLine
 10
34.28694162719334
 20
-5.285300071276055
 30
0.0
 11
34.28694162719336
 21
-8.587300071276054
 31
0.0
  0
SOLID
  5
11A
330
111
100
AcDbEntity
  8
치수문자_일반주서
 62
     0
100
AcDbTrace
 10
33.73660829385997
 20
5.28744992872395
 30
0.0
 11
34.83727496052663
 21
5.287449928723953
 31
0.0
 12
34.28694162719331
 22
1.985449928723952
 32
0.0
 13
34.28694162719331
 23
1.985449928723952
 33
0.0
  0
SOLID
  5
11B
330
111
100
AcDbEntity
  8
치수문자_일반주서
 62
     0
100
AcDbTrace
 10
34.83727496052668
 20
-5.285300071276053
 30
0.0
 11
33.73660829386001
 21
-5.285300071276056
 31
0.0
 12
34.28694162719333
 22
-1.983300071276055
 32
0.0
 13
34.28694162719333
 23
-1.983300071276055
 33
0.0
  0
MTEXT
  5
11C
330
111
100
AcDbEntity
  8
치수문자_일반주서
 62
     0
100
AcDbMText
 10
29.91194162719324
 20
23.02694992872396
 30
0.0
 40
3.5
 41
0.0
 71
     2
 72
     1
  1
\A1;%%c3.97 [5/32]
  7
SLDTEXTSTYLE0
 11
-3.580687802255617E-15
 21
1.0
 31
0.0
 73
     1
 44
1.0
  0
POINT
  5
11D
330
111
100
AcDbEntity
  8
Defpoints
 62
     0
100
AcDbPoint
 10
24.2869416271933
 20
1.985449928723916
 30
0.0
  0
POINT
  5
11E
330
111
100
AcDbEntity
  8
Defpoints
 62
     0
100
AcDbPoint
 10
24.30010727342978
 20
-1.98330007127609
 30
0.0
  0
POINT
  5
11F
330
111
100
AcDbEntity
  8
Defpoints
 62
     0
100
AcDbPoint
 10
34.28694162719332
 20
-1.983300071276052
 30
0.0
  0
ENDBLK
  5
113
330
111
100
AcDbEntity
  8
0
100
AcDbBlockEnd
  0
BLOCK
  5
12C
330
12B
100
AcDbEntity
  8
0
100
AcDbBlockBegin
  2
SW_DOWELSYMBOL_0
 70
     0
 10
0.0
 20
0.0
 30
0.0
  3
SW_DOWELSYMBOL_0
  1

  0
CIRCLE
  5
12E
330
12B
100
AcDbEntity
  8
해칭선
 62
     0
100
AcDbCircle
 10
0.0
 20
0.0
 30
0.0
 40
3.000000000000002
  0
HATCH
  5
12F
330
12B
100
AcDbEntity
  8
0
  6
Continuous
 62
     0
370
     0
100
AcDbHatch
 10
0.0
 20
0.0
 30
0.0
210
0.0
220
0.0
230
1.0
  2
SOLID
 70
     1
 71
     0
 91
        1
 92
        0
 93
        3
 72
     2
 10
0.0000000000000069
 20
0.0
 40
3.000000000000002
 50
0.0
 51
90.0
 73
     1
 72
     1
 10
0.0000000000000069
 20
3.000000000000002
 11
0.0000000000000069
 21
0.0
 72
     1
 10
0.0000000000000069
 20
0.0
 11
3.000000000000009
 21
0.0
 97
        0
 75
     0
 76
     1
 98
        1
 10
0.0
 20
0.0
  0
HATCH
  5
130
330
12B
100
AcDbEntity
  8
0
  6
Continuous
 62
     0
370
     0
100
AcDbHatch
 10
0.0
 20
0.0
 30
0.0
210
0.0
220
0.0
230
1.0
  2
SOLID
 70
     1
 71
     0
 91
        1
 92
        0
 93
        3
 72
     2
 10
0.0000000000000069
 20
0.0
 40
3.000000000000002
 50
180.0
 51
270.0000000000007
 73
     1
 72
     1
 10
0.0000000000000069
 20
-3.000000000000002
 11
0.0000000000000069
 21
0.0
 72
     1
 10
0.0000000000000069
 20
0.0
 11
-2.999999999999995
 21
0.0
 97
        0
 75
     0
 76
     1
 98
        1
 10
0.0
 20
0.0
  0
ENDBLK
  5
12D
330
12B
100
AcDbEntity
  8
0
100
AcDbBlockEnd
  0
ENDSEC
  0
SECTION
  2
ENTITIES
  0
LINE
  5
96
330
1F
100
AcDbEntity
  8
외형선
  6
Continuous
370
    15
100
AcDbLine
 10
5.849343972457043
 20
2.38232492872389
 30
0.0
 11
-26.0130583728067
 21
2.38232492872389
 31
0.0
  0
LINE
  5
97
330
1F
100
AcDbEntity
  8
외형선
  6
Continuous
370
    15
100
AcDbLine
 10
-26.0130583728067
 20
-2.380175071276109
 30
0.0
 11
5.849343972457003
 21
-2.380175071276109
 31
0.0
  0
LINE
  5
9A
330
1F
100
AcDbEntity
  8
외형선
  6
Continuous
370
    15
100
AcDbLine
 10
-26.0130583728067
 20
2.382324928723889
 30
0.0
 11
-26.5130583728067
 21
1.882324928723888
 31
0.0
  0
LINE
  5
9B
330
1F
100
AcDbEntity
  8
외형선
  6
Continuous
370
    15
100
AcDbLine
 10
-26.5130583728067
 20
-1.880175071276108
 30
0.0
 11
-26.0130583728067
 21
-2.380175071276107
 31
0.0
  0
LINE
  5
9C
330
1F
100
AcDbEntity
  8
외형선
  6
Continuous
370
    15
100
AcDbLine
 10
9.999441627193306
 20
1.98544992872389
 30
0.0
 11
8.999441627193304
 21
1.98544992872389
 31
0.0
  0
LINE
  5
9D
330
1F
100
AcDbEntity
  8
외형선
  6
Continuous
370
    15
100
AcDbLine
 10
8.999441627193304
 20
-1.98330007127611
 30
0.0
 11
9.109556980028668
 21
-1.98330007127611
 31
0.0
  0
LINE
  5
9E
330
1F
100
AcDbEntity
  8
외형선
  6
Continuous
 62
     1
370
    15
100
AcDbLine
 10
16.31581044820112
 20
-1.98330007127611
 30
0.0
 11
20.85869299103506
 21
-1.98330007127611
 31
0.0
  0
LINE
  5
9F
330
1F
100
AcDbEntity
  8
외형선
  6
Continuous
 62
     1
370
    15
100
AcDbLine
 10
10.06245535775649
 20
1.98544992872389
 30
0.0
 11
9.999441627193306
 21
1.98544992872389
 31
0.0
  0
LINE
  5
A0
330
1F
100
AcDbEntity
  8
외형선
  6
Continuous
 62
     1
370
    15
100
AcDbLine
 10
23.51492912865323
 20
-1.98330007127611
 30
0.0
 11
24.03294162719331
 21
-1.98330007127611
 31
0.0
  0
LINE
  5
A1
330
1F
100
AcDbEntity
  8
외형선
  6
Continuous
 62
     1
370
    15
100
AcDbLine
 10
17.26116287148934
 20
1.98544992872389
 30
0.0
 11
12.71624384821557
 21
1.98544992872389
 31
0.0
  0
ARC
  5
A2
330
1F
100
AcDbEntity
  8
외형선
  6
Continuous
 62
     1
370
    15
100
AcDbCircle
 10
24.03294162719331
 20
-1.72930007127611
 30
0.0
 40
0.2540000000000007
100
AcDbArc
 50
270.0000000000007
 51
0.0
  0
LINE
  5
A5
330
1F
100
AcDbEntity
  8
외형선
  6
Continuous
 62
     1
370
    15
100
AcDbLine
 10
13.27327754893041
 20
-1.98330007127611
 30
0.0
 11
13.66055747823669
 21
-1.98330007127611
 31
0.0
  0
LINE
  5
A7
330
1F
100
AcDbEntity
  8
외형선
  6
Continuous
370
    15
100
AcDbLine
 10
-25.98813142119625
 20
2.382324928723889
 30
0.0
 11
-25.98813142119625
 21
-2.380175071276109
 31
0.0
  0
LINE
  5
A8
330
1F
100
AcDbEntity
  8
외형선
  6
Continuous
370
    15
100
AcDbLine
 10
8.999441627193304
 20
1.98544992872389
 30
0.0
 11
8.999441627193304
 21
-1.98330007127611
 31
0.0
  0
LINE
  5
A9
330
1F
100
AcDbEntity
  8
외형선
  6
Continuous
370
    15
100
AcDbLine
 10
-26.5130583728067
 20
1.882324928723888
 30
0.0
 11
-26.5130583728067
 21
-1.880175071276108
 31
0.0
  0
SPLINE
  5
AA
330
1F
100
AcDbEntity
  8
외형선
  6
Continuous
370
    15
100
AcDbSpline
210
0.0
220
0.0
230
1.0
 70
     8
 71
     3
 72
     8
 73
     4
 74
     0
 42
0.000000001
 43
0.00000001
 40
0.0
 40
0.0
 40
0.0
 40
0.0
 40
1.0
 40
1.0
 40
1.0
 40
1.0
 10
9.999441627193306
 20
-1.148496216757667
 30
0.0
 10
9.70276685761484
 20
-1.008962202642407
 30
0.0
 10
9.403483674330502
 20
-0.8560650874773398
 30
0.0
 10
9.109556980028668
 20
-0.696294513502814
 30
0.0
  0
LINE
  5
AB
330
1F
100
AcDbEntity
  8
외형선
  6
Continuous
370
    15
100
AcDbLine
 10
9.109556980028668
 20
-0.6962960486037184
 30
0.0
 11
9.109556980028668
 21
-1.98330007127611
 31
0.0
  0
SPLINE
  5
AC
330
1F
100
AcDbEntity
  8
외형선
  6
Continuous
370
    15
100
AcDbSpline
210
0.0
220
0.0
230
1.0
 70
     8
 71
     3
 72
     8
 73
     4
 74
     0
 42
0.000000001
 43
0.00000001
 40
0.0
 40
0.0
 40
0.0
 40
0.0
 40
1.0
 40
1.0
 40
1.0
 40
1.0
 10
9.999441627193306
 20
-1.747411707240215
 30
0.0
 10
9.702766857614838
 20
-1.828361605307451
 30
0.0
 10
9.4034836743305
 20
-1.889792838792252
 30
0.0
 10
9.109556980028668
 20
-1.929324822336506
 30
0.0
  0
LINE
  5
AD
330
1F
100
AcDbEntity
  8
외형선
  6
Continuous
370
    15
100
AcDbLine
 10
9.999441627193306
 20
1.98544992872389
 30
0.0
 11
9.999441627193306
 21
-1.148496216757667
 31
0.0
  0
SPLINE
  5
AE
330
1F
100
AcDbEntity
  8
외형선
  6
Continuous
370
    15
100
AcDbSpline
210
0.0
220
0.0
230
1.0
 70
    24
 71
     3
 72
    11
 73
     7
 74
     0
 42
0.000000001
 43
0.00000001
 40
0.0
 40
0.0
 40
0.0
 40
0.0
 40
0.0824389199937841
 40
0.476180905773067
 40
0.8699228915523504
 40
1.0
 40
1.0
 40
1.0
 40
1.0
 10
9.999441627193306
 20
-1.18357399043222
 30
0.0
 10
9.999441627193306
 20
-1.193977162608408
 30
0.0
 10
9.999441627193306
 20
-1.254067614425868
 30
0.0
 10
9.999441627193306
 20
-1.412566478750812
 30
0.0
 10
9.999441627193306
 20
-1.598200895259546
 30
0.0
 10
9.999441627193306
 20
-1.717729762472423
 30
0.0
 10
9.999441627193306
 20
-1.747411707240054
 30
0.0
  0
SPLINE
  5
AF
330
1F
100
AcDbEntity
  8
외형선
  6
Continuous
 62
     1
370
    15
100
AcDbSpline
210
0.0
220
0.0
230
1.0
 70
     8
 71
     3
 72
     9
 73
     5
 74
     0
 42
0.000000001
 43
0.00000001
 40
0.0
 40
0.0
 40
0.0
 40
0.0
 40
0.7146105719256766
 40
1.0
 40
1.0
 40
1.0
 40
1.0
 10
9.999441627193297
 20
-1.648648389884958
 30
0.0
 10
10.16155347620519
 20
-1.606075434756859
 30
0.0
 10
10.38840689173057
 20
-1.54650039234827
 30
0.0
 10
10.61534155055392
 20
-1.465939976609206
 30
0.0
 10
10.68010630304576
 20
-1.442948885636005
 30
0.0
1001
PE_URL
1000

  0
SPLINE
  5
B0
330
1F
100
AcDbEntity
  8
외형선
  6
Continuous
 62
     1
370
    15
100
AcDbSpline
210
0.0
220
0.0
230
1.0
 70
     8
 71
     3
 72
    17
 73
    13
 74
     0
 42
0.000000001
 43
0.00000001
 40
0.0
 40
0.0
 40
0.0
 40
0.0
 40
0.0096607389693255
 40
0.1185087202356622
 40
0.225220578028591
 40
0.3326829230954264
 40
0.4388178582963903
 40
0.545689370383536
 40
0.6575041130203956
 40
0.7693182759845866
 40
0.8846601386380694
 40
1.0
 40
1.0
 40
1.0
 40
1.0
 10
18.5892655074383
 20
1.836916841180589
 30
0.0
 10
18.60749128088584
 20
1.839258087610296
 30
0.0
 10
18.83106766499376
 20
1.867978263056692
 30
0.0
 10
19.25613207336954
 20
1.868031144758911
 30
0.0
 10
19.86609601788298
 20
1.83218859510261
 30
0.0
 10
20.4700715226977
 20
1.733800657161408
 30
0.0
 10
21.074783840511
 20
1.583592285294488
 30
0.0
 10
21.68777000993614
 20
1.381758997076633
 30
0.0
 10
22.31166147722663
 20
1.131437812203139
 30
0.0
 10
22.95099312330004
 20
0.8356075885883667
 30
0.0
 10
23.59776248124903
 20
0.5086755522376468
 30
0.0
 10
24.03270111469886
 20
0.2742088525458757
 30
0.0
 10
24.25016854475717
 20
0.156976519764145
 30
0.0
  0
SPLINE
  5
B1
330
1F
100
AcDbEntity
  8
외형선
  6
Continuous
 62
     1
370
    15
100
AcDbSpline
210
0.0
220
0.0
230
1.0
 70
     8
 71
     3
 72
    16
 73
    12
 74
     0
 42
0.000000001
 43
0.00000001
 40
0.0
 40
0.0
 40
0.0
 40
0.0
 40
0.0624999999999998
 40
0.0624999999999998
 40
0.1249999999999997
 40
0.1249999999999997
 40
0.2499999999999991
 40
0.2499999999999991
 40
0.4999999999999996
 40
0.4999999999999996
 40
1.0
 40
1.0
 40
1.0
 40
1.0
 10
24.03294162719331
 20
-0.7706360377487307
 30
0.0
 10
24.05259591440829
 20
-0.7810831753728088
 30
0.0
 10
24.07481927256347
 20
-0.7864435422544808
 30
0.0
 10
24.11852330975395
 20
-0.7787089032710447
 30
0.0
 10
24.13802401030308
 20
-0.7658541183937356
 30
0.0
 10
24.18419735705409
 20
-0.7169080435629098
 30
0.0
 10
24.20137459447065
 20
-0.6736211346772422
 30
0.0
 10
24.24033884464522
 20
-0.5462996071030223
 30
0.0
 10
24.24972847724175
 20
-0.4569269604553722
 30
0.0
 10
24.26812192092115
 20
-0.1930330804940842
 30
0.0
 10
24.26628164446272
 20
-0.0178662118567557
 30
0.0
 10
24.25016854475705
 20
0.1569765197639089
 30
0.0
  0
SPLINE
  5
B2
330
1F
100
AcDbEntity
  8
외형선
  6
Continuous
 62
     1
370
    15
100
AcDbSpline
210
0.0
220
0.0
230
1.0
 70
     8
 71
     3
 72
    54
 73
    50
 74
     0
 42
0.000000001
 43
0.00000001
 40
0.0
 40
0.0
 40
0.0
 40
0.0
 40
0.0433213368510787
 40
0.0814472937340434
 40
0.1296073782926336
 40
0.1666693938529518
 40
0.2193155696915473
 40
0.2593366314346865
 40
0.2754663076698332
 40
0.2915882728194791
 40
0.3077025281208926
 40
0.3238090748131178
 40
0.3399933596262544
 40
0.3562279991274712
 40
0.3725130452917729
 40
0.3888485496130256
 40
0.3956420196074376
 40
0.4114383722528096
 40
0.4357105560425273
 40
0.4592659630593731
 40
0.4754600485504401
 40
0.495117592981566
 40
0.5182385580819471
 40
0.5908056833761782
 40
0.602184314621905
 40
0.613555580273749
 40
0.6249194819301898
 40
0.636276021192817
 40
0.6476251996663378
 40
0.6486186806818548
 40
0.6568650285994077
 40
0.6691492576655547
 40
0.6843669513758153
 40
0.6957360836001956
 40
0.7051699213096823
 40
0.7126684567060276
 40
0.712823801610891
 40
0.7140099399184278
 40
0.7172716988048894
 40
0.7295559754098611
 40
0.7819185510379753
 40
0.8183633375707121
 40
0.8674664017446166
 40
0.9082083757397862
 40
0.9294028433469738
 40
0.9507216639135244
 40
0.9720892757791363
 40
0.9935057161990408
 40
1.0
 40
1.0
 40
1.0
 40
1.0
 10
24.03294162719327
 20
-0.7706360377487181
 30
0.0
 10
23.93511616475503
 20
-0.7181405069381651
 30
0.0
 10
23.75119711347399
 20
-0.6194450550330337
 30
0.0
 10
23.45815104306078
 20
-0.4573995686697397
 30
0.0
 10
23.18022950283149
 20
-0.2986012090209168
 30
0.0
 10
22.86913346035891
 20
-0.1196591315219491
 30
0.0
 10
22.57590635228393
 20
0.0489742073540907
 30
0.0
 10
22.33020053271701
 20
0.1903025299131206
 30
0.0
 10
22.16719933486453
 20
0.2839574018594972
 30
0.0
 10
22.05811743424026
 20
0.3463494069828075
 30
0.0
 10
21.94910547742283
 20
0.4083913781993508
 30
0.0
 10
21.83998619131015
 20
0.4701557608916874
 30
0.0
 10
21.73055003413559
 20
0.5315185784074881
 30
0.0
 10
21.62056900092002
 20
0.5923277575310991
 30
0.0
 10
21.51017735545485
 20
0.6526049073689724
 30
0.0
 10
21.42090851887415
 20
0.7003551253372949
 30
0.0
 10
21.3329935263824
 20
0.747504593128173
 30
0.0
 10
21.22730762909693
 20
0.8040136301319891
 30
0.0
 10
21.08381822877513
 20
0.8794250645741634
 30
0.0
 10
20.93951149825207
 20
0.9536765820145536
 30
0.0
 10
20.80544531730413
 20
1.020850603883736
 30
0.0
 10
20.6722777310355
 20
1.086030417783371
 30
0.0
 10
20.41167857977385
 20
1.209856452464412
 30
0.0
 10
20.16977666492485
 20
1.317401817248078
 30
0.0
 10
19.95473890952166
 20
1.406224417780363
 30
0.0
 10
19.87778885572152
 20
1.437325292617736
 30
0.0
 10
19.80091156631638
 20
1.467708168854227
 30
0.0
 10
19.72408101869961
 20
1.497330382704787
 30
0.0
 10
19.67069924081729
 20
1.517480755981629
 30
0.0
 10
19.62423924273476
 20
1.534640694596437
 30
0.0
 10
19.57560082190613
 20
1.552308589488666
 30
0.0
 10
19.49484426136641
 20
1.580949162993995
 30
0.0
 10
19.40701272816613
 20
1.610985671844536
 30
0.0
 10
19.32562893851399
 20
1.637833575019191
 30
0.0
 10
19.26170118230823
 20
1.65832228004111
 30
0.0
 10
19.22309236578007
 20
1.670373862874732
 30
0.0
 10
19.20313939709672
 20
1.676554559869257
 30
0.0
 10
19.19275751050619
 20
1.679773899540233
 30
0.0
 10
19.15501699737857
 20
1.691391213571793
 30
0.0
 10
19.00186243773673
 20
1.737401676141051
 30
0.0
 10
18.77393584815268
 20
1.798717738472034
 30
0.0
 10
18.46250455758565
 20
1.867599308017938
 30
0.0
 10
18.1770798256231
 20
1.917650535157492
 30
0.0
 10
17.92648003125273
 20
1.9494907033252
 30
0.0
 10
17.73885812082338
 20
1.966860144107905
 30
0.0
 10
17.59483521938045
 20
1.976754147262077
 30
0.0
 10
17.45018057648666
 20
1.982892838829359
 30
0.0
 10
17.33892008252776
 20
1.98564251246334
 30
0.0
 10
17.27584031018473
 20
1.985184727138091
 30
0.0
 10
17.26116287148934
 20
1.98507820937816
 30
0.0
  0
SPLINE
  5
B3
330
1F
100
AcDbEntity
  8
외형선
  6
Continuous
 62
     1
370
    15
100
AcDbSpline
210
0.0
220
0.0
230
1.0
 70
     8
 71
     3
 72
    13
 73
     9
 74
     0
 42
0.000000001
 43
0.00000001
 40
0.0
 40
0.0
 40
0.0
 40
0.0
 40
0.1208702966036078
 40
0.2966987552039801
 40
0.4725259548408149
 40
0.6483518955171034
 40
0.8241765772358352
 40
1.0
 40
1.0
 40
1.0
 40
1.0
 10
14.98602163723062
 20
-1.824591667951519
 30
0.0
 10
14.78511049377997
 20
-1.867925475182432
 30
0.0
 10
14.29193650609707
 20
-1.974296411838821
 30
0.0
 10
13.5065041662858
 20
-2.000057852686828
 30
0.0
 10
12.62972636973006
 20
-1.916236369342847
 30
0.0
 10
11.75295705170868
 20
-1.702597907807632
 30
0.0
 10
10.87619592359694
 20
-1.384297463863159
 30
0.0
 10
10.29169236123805
 20
-1.100982750050101
 30
0.0
 10
9.999441626365149
 20
-0.9593259002988047
 30
0.0
  0
LINE
  5
B4
330
1F
100
AcDbEntity
  8
외형선
  6
Continuous
370
    15
100
AcDbLine
 10
9.999441627193306
 20
0.5254418025135386
 30
0.0
 11
9.999441627193306
 21
-0.9593259007169667
 31
0.0
  0
SPLINE
  5
B5
330
1F
100
AcDbEntity
  8
외형선
  6
Continuous
 62
     1
370
    15
100
AcDbSpline
210
0.0
220
0.0
230
1.0
 70
     8
 71
     3
 72
    15
 73
    11
 74
     0
 42
0.000000001
 43
0.00000001
 40
0.0
 40
0.0
 40
0.0
 40
0.0
 40
0.1392438199187446
 40
0.2784280111656456
 40
0.4176868437554606
 40
0.5571534059889349
 40
0.6966992189710737
 40
0.8335118441914317
 40
0.9702034975919906
 40
1.0
 40
1.0
 40
1.0
 40
1.0
 10
9.999441627186727
 20
0.525441802500912
 30
0.0
 10
10.29259632416521
 20
0.3588067977482908
 30
0.0
 10
10.87878017987396
 20
0.0256081466991857
 30
0.0
 10
11.75801304209169
 20
-0.4851805161374128
 30
0.0
 10
12.63781114503686
 20
-0.9621078694230848
 30
0.0
 10
13.51869003532301
 20
-1.375970229396988
 30
0.0
 10
14.39461474349916
 20
-1.700663925600149
 30
0.0
 10
15.26418879806825
 20
-1.90433170012657
 30
0.0
 10
15.90259578589091
 20
-1.994241334468181
 30
0.0
 10
16.25308342820669
 20
-1.975917548160969
 30
0.0
 10
16.31581044820112
 20
-1.972638127230544
 30
0.0
  0
LINE
  5
B6
330
1F
100
AcDbEntity
  8
외형선
  6
Continuous
370
    15
100
AcDbLine
 10
9.999441627193306
 20
0.5254418025119054
 30
0.0
 11
9.999441627193306
 21
1.98544992872389
 31
0.0
  0
SPLINE
  5
B7
330
1F
100
AcDbEntity
  8
외형선
  6
Continuous
 62
     1
370
    15
100
AcDbSpline
210
0.0
220
0.0
230
1.0
 70
     8
 71
     3
 72
    52
 73
    48
 74
     0
 42
0.000000001
 43
0.00000001
 40
0.0
 40
0.0
 40
0.0
 40
0.0
 40
0.0648083866154154
 40
0.1371587300336068
 40
0.2095031495740126
 40
0.28184164539739
 40
0.354174217664536
 40
0.4265008665362867
 40
0.498764254398943
 40
0.5710092834421532
 40
0.580092277069844
 40
0.5891756390828756
 40
0.5982593694861958
 40
0.6073434682847524
 40
0.6163834914601652
 40
0.6253991592106138
 40
0.6343904935366451
 40
0.6433575166179114
 40
0.6445393460741047
 40
0.6538390263031704
 40
0.6717695365425052
 40
0.6903612030008424
 40
0.7043372395711426
 40
0.7158299878860201
 40
0.7224074079194607
 40
0.7293086278471602
 40
0.7365336545262507
 40
0.7440824938426649
 40
0.7519551508671497
 40
0.7659941655660834
 40
0.776727768511641
 40
0.784155869857103
 40
0.7878409397498342
 40
0.794414318786527
 40
0.8019860106084528
 40
0.8095489205454763
 40
0.817103052021254
 40
0.8243276849083511
 40
0.8264389255695263
 40
0.8311230168598928
 40
0.8383799360971427
 40
0.8482096466237717
 40
0.8606120985609457
 40
0.8967331328873802
 40
0.9328917828718163
 40
0.9691066307424063
 40
1.0
 40
1.0
 40
1.0
 40
1.0
 10
22.18601456360517
 20
-1.831593564903432
 30
0.0
 10
21.92401078049943
 20
-1.881553717486997
 30
0.0
 10
21.36951300588215
 20
-1.987288043528944
 30
0.0
 10
20.52257432251412
 20
-1.993518879895328
 30
0.0
 10
19.64521645014036
 20
-1.88172427451033
 30
0.0
 10
18.76795310859345
 20
-1.645013296668672
 30
0.0
 10
17.89079162285888
 20
-1.302460258661038
 30
0.0
 10
17.01393385930679
 20
-0.8753204405342688
 30
0.0
 10
16.13754226967036
 20
-0.3918124876045235
 30
0.0
 10
15.51695801063849
 20
-0.0301925518752604
 30
0.0
 10
15.1514329670851
 20
0.17956011287746
 30
0.0
 10
15.04126456742992
 20
0.2426175574738633
 30
0.0
 10
14.93109263435901
 20
0.3054277924779003
 30
0.0
 10
14.82108208663464
 20
0.3678055700375366
 30
0.0
 10
14.71139202413194
 20
0.429732541919059
 30
0.0
 10
14.60219867257321
 20
0.4912197901738311
 30
0.0
 10
14.49335736584455
 20
0.5521415915693868
 30
0.0
 10
14.416297623736
 20
0.5952568248752467
 30
0.0
 10
14.33782206720757
 20
0.6385241214830082
 30
0.0
 10
14.22292615017552
 20
0.7009385408902584
 30
0.0
 10
14.03769250981457
 20
0.7999706900881866
 30
0.0
 10
13.83347738348846
 20
0.9059554641489425
 30
0.0
 10
13.65545849633977
 20
0.9959629829953173
 30
0.0
 10
13.52615449073782
 20
1.059990207569261
 30
0.0
 10
13.42545827297072
 20
1.108958157151233
 30
0.0
 10
13.34189340826833
 20
1.148800816245419
 30
0.0
 10
13.25436484688877
 20
1.189722319660941
 30
0.0
 10
13.1628654279608
 20
1.231587546257966
 30
0.0
 10
13.0437710463429
 20
1.284806219100645
 30
0.0
 10
12.91177073768097
 20
1.341867770927058
 30
0.0
 10
12.78158888868714
 20
1.395959693802765
 30
0.0
 10
12.69327264826009
 20
1.431520090669658
 30
0.0
 10
12.62179007707252
 20
1.459744208957115
 30
0.0
 10
12.54978923968261
 20
1.487720610732494
 30
0.0
 10
12.46214109387789
 20
1.520848065254082
 30
0.0
 10
12.37058311289679
 20
1.554440949333325
 30
0.0
 10
12.28042586387295
 20
1.586428040462313
 30
0.0
 10
12.2123874103719
 20
1.609902250524061
 30
0.0
 10
12.15573856983474
 20
1.628772390345009
 30
0.0
 10
12.09893424055192
 20
1.647341316394462
 30
0.0
 10
12.01092204968873
 20
1.675221779736529
 30
0.0
 10
11.89170365100881
 20
1.711249633407381
 30
0.0
 10
11.65572217956423
 20
1.777902309519334
 30
0.0
 10
11.31389472072398
 20
1.860517879911021
 30
0.0
 10
10.87563373049649
 20
1.934848910231954
 30
0.0
 10
10.45801585444087
 20
1.978744009066149
 30
0.0
 10
10.1871492217893
 20
1.981973498535536
 30
0.0
 10
10.06245535775649
 20
1.983460198897442
 30
0.0
  0
SPLINE
  5
B8
330
1F
100
AcDbEntity
  8
외형선
  6
Continuous
 62
     1
370
    15
100
AcDbSpline
210
0.0
220
0.0
230
1.0
 70
     8
 71
     3
 72
    23
 73
    19
 74
     0
 42
0.000000001
 43
0.00000001
 40
0.0
 40
0.0
 40
0.0
 40
0.0
 40
0.0301638560366282
 40
0.1027213941736189
 40
0.1753871649538397
 40
0.2480942274719037
 40
0.3193772268151469
 40
0.3905971966380216
 40
0.4618418929605916
 40
0.5331986172701109
 40
0.5969959818997268
 40
0.6605717607930797
 40
0.7241703117309178
 40
0.7879963890873988
 40
0.8516584006736777
 40
0.9152133265765989
 40
0.9789173442952837
 40
1.0
 40
1.0
 40
1.0
 40
1.0
 10
11.39225977387673
 20
1.8252858129755
 30
0.0
 10
11.51412966862854
 20
1.855269706292936
 30
0.0
 10
11.92915105984249
 20
1.95737824707698
 30
0.0
 10
12.63781086966455
 20
2.00221655406022
 30
0.0
 10
13.51868957646374
 20
1.954145830595493
 30
0.0
 10
14.39461683864199
 20
1.772719028343467
 30
0.0
 10
15.26418104981709
 20
1.481015708276138
 30
0.0
 10
16.12772440393141
 20
1.09750073125007
 30
0.0
 10
16.99160504370331
 20
0.6450760123892245
 30
0.0
 10
17.82580126653651
 20
0.1695782439411782
 30
0.0
 10
18.62929035107247
 20
-0.2956831249543938
 30
0.0
 10
19.40052894683624
 20
-0.7294581086565215
 30
0.0
 10
20.17193701045178
 20
-1.126499410619597
 30
0.0
 10
20.94469595310812
 20
-1.465257289864744
 30
0.0
 10
21.71651776484989
 20
-1.73321704506264
 30
0.0
 10
22.48750906918863
 20
-1.907102860573977
 30
0.0
 10
23.08697902062766
 20
-1.987627988902964
 30
0.0
 10
23.42970780099769
 20
-1.975294469523221
 30
0.0
 10
23.51492912865321
 20
-1.972227674563451
 30
0.0
  0
SPLINE
  5
B9
330
1F
100
AcDbEntity
  8
외형선
  6
Continuous
 62
     1
370
    15
100
AcDbSpline
210
0.0
220
0.0
230
1.0
 70
     8
 71
     3
 72
     8
 73
     4
 74
     0
 42
0.000000001
 43
0.00000001
 40
0.0
 40
0.0
 40
0.0
 40
0.0
 40
1.0
 40
1.0
 40
1.0
 40
1.0
 10
24.2869416271933
 20
0.1584738161834846
 30
0.0
 10
24.2869416271933
 20
0.1494270713229983
 30
0.0
 10
24.27437967189806
 20
0.1484699656125157
 30
0.0
 10
24.25016854475717
 20
0.1569765197641441
 30
0.0
1001
PE_URL
1000

  0
LINE
  5
BB
330
1F
100
AcDbEntity
  8
외형선
  6
Continuous
 62
     1
370
    15
100
AcDbLine
 10
24.2869416271933
 20
-1.72930007127611
 30
0.0
 11
24.2869416271933
 21
0.1584738161834828
 31
0.0
  0
SPLINE
  5
BD
330
1F
100
AcDbEntity
  8
외형선
  6
Continuous
 62
     1
370
    15
100
AcDbSpline
210
0.0
220
0.0
230
1.0
 70
     8
 71
     3
 72
    12
 73
     8
 74
     0
 42
0.000000001
 43
0.00000001
 40
0.0
 40
0.0
 40
0.0
 40
0.0
 40
0.2214073092942456
 40
0.4430794572129551
 40
0.6655015161480722
 40
0.8869358517117444
 40
1.0
 40
1.0
 40
1.0
 40
1.0
 10
9.999441627193306
 20
-1.148496216757667
 30
0.0
 10
10.24099010081625
 20
-1.257330654431725
 30
0.0
 10
10.72437597874693
 20
-1.475129713209013
 30
0.0
 10
11.45040502332228
 20
-1.723910733621099
 30
0.0
 10
12.17755943453323
 20
-1.89408981036014
 30
0.0
 10
12.78485078667996
 20
-1.980911960178608
 30
0.0
 10
13.14989022409731
 20
-1.973680262646832
 30
0.0
 10
13.27327754893041
 20
-1.971235869737505
 30
0.0
  0
SPLINE
  5
BE
330
1F
100
AcDbEntity
  8
외형선
  6
Continuous
 62
     1
370
    15
100
AcDbSpline
210
0.0
220
0.0
230
1.0
 70
     8
 71
     3
 72
    10
 73
     6
 74
     0
 42
0.000000001
 43
0.00000001
 40
0.0
 40
0.0
 40
0.0
 40
0.0
 40
0.3059143877089625
 40
0.653131683711066
 40
0.9915600119407945
 40
0.9915600119407945
 40
0.9915600119407945
 40
0.9915600119407945
 10
21.48014361277182
 20
1.442671293015289
 30
0.0
 10
21.74039232425731
 20
1.540026113461577
 30
0.0
 10
22.29602712257176
 20
1.747880076368239
 30
0.0
 10
23.14007237322208
 20
1.938135511274747
 30
0.0
 10
23.72345011391389
 20
1.969382066505681
 30
0.0
 10
24.03294162719331
 20
1.985449928723916
 30
0.0
  0
LINE
  5
BF
330
1F
100
AcDbEntity
  8
외형선
  6
Continuous
 62
     1
370
    15
100
AcDbLine
 10
24.2869416271933
 20
1.285965608470451
 30
0.0
 11
24.2869416271933
 21
1.731449928723916
 31
0.0
1001
PE_URL
1000

  0
SPLINE
  5
C0
330
1F
100
AcDbEntity
  8
외형선
  6
Continuous
 62
     1
370
    15
100
AcDbSpline
210
0.0
220
0.0
230
1.0
 70
     8
 71
     3
 72
    10
 73
     6
 74
     0
 42
0.000000001
 43
0.00000001
 40
0.0
 40
0.0
 40
0.0
 40
0.0
 40
0.5
 40
0.5
 40
1.0
 40
1.0
 40
1.0
 40
1.0
 10
24.2869416271933
 20
1.285965608470453
 30
0.0
 10
24.18188612814999
 20
1.099877592540797
 30
0.0
 10
24.02431933174491
 20
0.958472098438209
 30
0.0
 10
23.66385878883073
 20
0.782816660786056
 30
0.0
 10
23.46656451161639
 20
0.7459882323039141
 30
0.0
 10
23.26987253854158
 20
0.7455251630039867
 30
0.0
  0
SPLINE
  5
C1
330
1F
100
AcDbEntity
  8
외형선
  6
Continuous
 62
     1
370
    15
100
AcDbSpline
210
0.0
220
0.0
230
1.0
 70
     8
 71
     3
 72
     8
 73
     4
 74
     0
 42
0.000000001
 43
0.00000001
 40
0.0
 40
0.0
 40
0.0
 40
0.0
 40
1.0
 40
1.0
 40
1.0
 40
1.0
 10
24.2869416271933
 20
0.3838616842016537
 30
0.0
 10
23.94052401196248
 20
0.5231242295391032
 30
0.0
 10
23.60101789243814
 20
0.6449009238155983
 30
0.0
 10
23.26987253854158
 20
0.7455251630039917
 30
0.0
  0
LINE
  5
C2
330
1F
100
AcDbEntity
  8
외형선
  6
Continuous
 62
     1
370
    15
100
AcDbLine
 10
24.2869416271933
 20
0.1584738161834828
 30
0.0
 11
24.2869416271933
 21
0.383861684201654
 31
0.0
1001
PE_URL
1000

  0
SPLINE
  5
C3
330
1F
100
AcDbEntity
  8
외형선
  6
Continuous
370
    15
100
AcDbSpline
210
0.0
220
0.0
230
1.0
 70
    24
 71
     3
 72
    10
 73
     6
 74
     0
 42
0.000000001
 43
0.00000001
 40
0.0
 40
0.0
 40
0.0
 40
0.0
 40
0.096501265606195
 40
0.5482506328030349
 40
1.0
 40
1.0
 40
1.0
 40
1.0
 10
9.999441627193306
 20
-1.183583990432221
 30
0.0
 10
9.999441627193306
 20
-1.193994655937655
 30
0.0
 10
9.999441627193306
 20
-1.253140553303883
 30
0.0
 10
9.999441627193306
 20
-1.406168464590028
 30
0.0
 10
9.999441627193306
 20
-1.567821748120443
 30
0.0
 10
9.999441627193306
 20
-1.648648389885662
 30
0.0
  0
LINE
  5
C4
330
1F
100
AcDbEntity
  8
외형선
  6
Continuous
370
    15
100
AcDbLine
 10
9.999441627193306
 20
-1.148496216757667
 30
0.0
 11
9.999441627193306
 21
-0.9593259007169667
 31
0.0
  0
LINE
  5
C5
330
1F
100
AcDbEntity
  8
외형선
  6
Continuous
 62
     1
370
    15
100
AcDbLine
 10
24.2869416271933
 20
0.3838616842016537
 30
0.0
 11
24.2869416271933
 21
1.285965608470451
 31
0.0
  0
LINE
  5
C6
330
1F
100
AcDbEntity
  8
외형선
  6
Continuous
 62
     1
370
    15
100
AcDbLine
 10
-30.72035985448502
 20
0.0010749287238891
 30
0.0
 11
26.07964014551498
 21
0.0010749287238961
 31
0.0
1001
PE_URL
1000

  0
LINE
  5
C7
330
1F
100
AcDbEntity
  8
참조1
100
AcDbLine
 10
-1.113058372806708
 20
0.2221757116572164
 30
0.0
 11
-1.113058372806703
 21
-39.77782428834279
 31
0.0
  0
LINE
  5
C8
330
1F
100
AcDbEntity
  8
참조1
100
AcDbLine
 10
-1.113058372806703
 20
-39.77782428834279
 30
0.0
 11
-11.49989621229241
 21
-39.77782428834277
 31
0.0
  0
CIRCLE
  5
C9
330
1F
100
AcDbEntity
  8
해칭선
100
AcDbCircle
 10
-0.0005583728067098
 20
0.0010749287238929
 30
0.0
 40
3.000000000000001
  0
INSERT
  5
CA
330
1F
100
AcDbEntity
  8
0
  6
Continuous
 62
     7
100
AcDbBlockReference
 66
     1
  2
블럭10
 10
-15.05333130493191
 20
-51.82499858998671
 30
0.0
  0
ATTRIB
  5
CB
330
CA
100
AcDbEntity
  8
FORMAT
 62
     2
100
AcDbText
 10
-24.23462659367319
 20
-49.74963167715453
 30
0.0
 40
4.233333333333333
  1
E5074010 [ 3 FLUTE ]
 41
0.75
  7
SLDTEXTSTYLE0
 11
-24.23462659367319
 21
-51.86629834382119
 31
0.0
100
AcDbAttribute
  2
AUTOATTR0
 70
     0
 74
     1
  0
SEQEND
  5
CC
330
CA
100
AcDbEntity
  8
0
  6
Continuous
 62
     7
  0
HATCH
  5
CD
330
1F
100
AcDbEntity
  8
중심선
100
AcDbHatch
 10
0.0
 20
0.0
 30
0.0
210
0.0
220
0.0
230
1.0
  2
SOLID
 70
     1
 71
     0
 91
        1
 92
        0
 93
        4
 72
     1
 10
-9.338422000551072
 20
-35.57782428834278
 11
-12.78469724438835
 21
-35.57782428834278
 72
     1
 10
-12.78469724438835
 20
-35.57782428834278
 11
-14.91292710359237
 21
-38.11414986891538
 72
     1
 10
-14.91292710359237
 20
-38.11414986891538
 11
-11.46661877464194
 21
-38.11411043961288
 72
     1
 10
-11.46661877464194
 20
-38.11411043961288
 11
-9.338422000551072
 21
-35.57782428834278
 97
        0
 75
     0
 76
     1
 98
        1
 10
-0.0005583728067134
 20
0.2211007829333272
  0
HATCH
  5
CE
330
1F
100
AcDbEntity
  8
중심선
100
AcDbHatch
 10
0.0
 20
0.0
 30
0.0
210
0.0
220
0.0
230
1.0
  2
SOLID
 70
     1
 71
     0
 91
        1
 92
        0
 93
        4
 72
     1
 10
-4.32565800951512
 20
-35.57782428834278
 11
-7.771933253352402
 21
-35.57782428834278
 72
     1
 10
-7.771933253352402
 20
-35.57782428834278
 11
-12.30307126170979
 21
-40.9778242883428
 72
     1
 10
-12.30307126170979
 20
-40.9778242883428
 11
-8.856796017872508
 21
-40.9778242883428
 72
     1
 10
-8.856796017872508
 20
-40.9778242883428
 11
-4.32565800951512
 21
-35.57782428834278
 97
        0
 75
     0
 76
     1
 98
        1
 10
-0.0005583728067134
 20
0.2211007829333272
  0
HATCH
  5
CF
330
1F
100
AcDbEntity
  8
중심선
100
AcDbHatch
 10
0.0
 20
0.0
 30
0.0
210
0.0
220
0.0
230
1.0
  2
SOLID
 70
     1
 71
     0
 91
        1
 92
        0
 93
        4
 72
     1
 10
0.6871059815207752
 20
-35.57782428834278
 11
-2.759169262316312
 21
-35.57782428834278
 72
     1
 10
-2.759169262316312
 20
-35.57782428834278
 11
-9.80760616420559
 21
-43.9778242883428
 72
     1
 10
-9.80760616420559
 20
-43.9778242883428
 11
-6.361330920368307
 21
-43.9778242883428
 72
     1
 10
-6.361330920368307
 20
-43.9778242883428
 11
0.6871059815207756
 21
-35.57782428834278
 97
        0
 75
     0
 76
     1
 98
        1
 10
-0.0005583728067134
 20
0.2211007829333272
  0
HATCH
  5
D0
330
1F
100
AcDbEntity
  8
중심선
100
AcDbHatch
 10
0.0
 20
0.0
 30
0.0
210
0.0
220
0.0
230
1.0
  2
SOLID
 70
     1
 71
     0
 91
        1
 92
        0
 93
        6
 72
     3
 10
5.486996412532974
 20
-39.77782428839405
 11
3.960054785062285
 21
1.540882976769353E-10
 40
0.3939339440162626
 50
17.09539180608438
 51
320.0019657685077
 73
     0
 72
     1
 10
7.169996068233569
 20
-38.36571829298109
 11
9.475297941934636
 21
-36.43139158293313
 72
     3
 10
5.486996412480128
 20
-39.77782428834292
 11
6.600054785286829
 21
-1.278976924368180E-13
 40
0.636358354079598
 50
39.99873849337411
 51
368.4976242363724
 73
     1
 72
     1
 10
11.91232890438074
 20
-38.8178242882728
 11
4.16706371931605
 21
-38.8178242882728
 72
     1
 10
4.16706371931605
 20
-38.8178242882728
 11
4.167038674870117
 21
-40.73782428827269
 72
     1
 10
4.167038674870117
 20
-40.73782428827269
 11
8.608418444342153
 21
-40.73782428827266
 97
        0
 75
     0
 76
     1
 98
        1
 10
-0.0005583728067134
 20
0.2211007829333272
  0
DIMENSION
  5
D1
330
1F
100
AcDbEntity
  8
치수문자_일반주서
100
AcDbDimension
  2
_D
 10
24.28694162719331
 20
48.91324607585888
 30
0.0
 11
-1.113058372806688
 21
48.91324607585888
 31
0.0
 70
   160
  1
<>
 71
     2
 42
50.8
  3
SLDDIMSTYLE1
100
AcDbAlignedDimension
 13
-26.5130583728067
 23
2.382324928723876
 33
0.0
 14
24.2869416271933
 24
1.985449928723917
 34
0.0
100
AcDbRotatedDimension
1001
PE_URL
1000

1001
ACAD
1000
DSTYLE
1002
{
1070
   171
1070
     3
1070
   273
1070
     7
1002
}
  0
DIMENSION
  5
E5
330
1F
100
AcDbEntity
  8
치수문자_일반주서
100
AcDbDimension
  2
_D_1
 10
-35.21500713492541
 20
-2.380175071276146
 30
0.0
 11
-35.21500713492542
 21
0.0010749287238973
 31
0.0
 70
   160
  1
%%c<>
 71
     2
 42
4.762499999999989
 52
-270.0
  3
SLDDIMSTYLE1
100
AcDbAlignedDimension
 13
-26.51218700907508
 23
2.382324928723876
 33
0.0
 14
-26.50228430988776
 24
-2.380175071276112
 34
0.0
 50
90.0000000000002
100
AcDbRotatedDimension
1001
PE_URL
1000

1001
ACAD
1000
DSTYLE
1002
{
1070
   171
1070
     4
1070
   273
1070
     7
1002
}
1001
ACAD_DSTYLE_DIMFLIPARROW_SYMBOL
1070
   385
1070
     0
1001
ACAD_DSTYLE_DIMFLIPARROW_WHICH_SYMBOL
1070
   386
1070
     3
  0
DIMENSION
  5
FA
330
1F
100
AcDbEntity
  8
치수문자_일반주서
100
AcDbDimension
  2
_D_2
 10
9.999441627193306
 20
24.11949607585884
 30
0.0
 11
-10.16705837280669
 21
24.11949607585884
 31
0.0
 70
   160
  1
<>
 71
     2
 42
14.2875
  3
SLDDIMSTYLE1
100
AcDbAlignedDimension
 13
24.2869416271933
 23
1.985449928723916
 33
0.0
 14
9.999441627193306
 24
2.403803708437543
 34
0.0
 50
-0.0000000000000801
100
AcDbRotatedDimension
1001
PE_URL
1000

1001
ACAD
1000
DSTYLE
1002
{
1070
   171
1070
     4
1070
   273
1070
     7
1002
}
1001
ACAD_DSTYLE_DIMFLIPARROW_SYMBOL
1070
   385
1070
     0
1001
ACAD_DSTYLE_DIMFLIPARROW_WHICH_SYMBOL
1070
   386
1070
     3
  0
DIMENSION
  5
110
330
1F
100
AcDbEntity
  8
치수문자_일반주서
100
AcDbDimension
  2
_D_3
 10
34.28694162719333
 20
-1.983300071276055
 30
0.0
 11
34.28694162719324
 21
23.02694992872398
 31
0.0
 70
   160
  1
%%c<>
 71
     2
 42
3.968750000000006
 52
-270.0
  3
SLDDIMSTYLE1
100
AcDbAlignedDimension
 13
24.2869416271933
 23
1.985449928723916
 33
0.0
 14
24.30010727342978
 24
-1.98330007127609
 34
0.0
 50
90.0000000000002
100
AcDbRotatedDimension
1001
ACAD
1000
DSTYLE
1002
{
1070
   171
1070
     5
1070
   273
1070
     7
1002
}
  0
LINE
  5
124
330
1F
100
AcDbEntity
  8
참조1
100
AcDbLine
 10
86.47244441736186
 20
7.662175711657223
 30
0.0
 11
86.47244441736186
 21
-7.217824288342782
 31
0.0
  0
LINE
  5
125
330
1F
100
AcDbEntity
  8
참조1
100
AcDbLine
 10
99.17244441736186
 20
5.662175711657223
 30
0.0
 11
86.47244441736186
 21
5.662175711657223
 31
0.0
  0
SOLID
  5
126
330
1F
100
AcDbEntity
  8
참조1
100
AcDbTrace
 10
86.47244441736186
 20
5.662175711657223
 30
0.0
 11
92.82244441736185
 21
4.646175711657223
 31
0.0
 12
92.82244441736185
 22
6.678175711657223
 32
0.0
 13
92.82244441736185
 23
6.678175711657223
 33
0.0
  0
LINE
  5
127
330
1F
100
AcDbEntity
  8
참조1
100
AcDbLine
 10
99.17244441736186
 20
-5.217824288342782
 30
0.0
 11
86.47244441736186
 21
-5.217824288342782
 31
0.0
  0
SOLID
  5
128
330
1F
100
AcDbEntity
  8
참조1
100
AcDbTrace
 10
86.47244441736186
 20
-5.217824288342782
 30
0.0
 11
92.82244441736185
 21
-6.233824288342782
 31
0.0
 12
92.82244441736185
 22
-4.201824288342782
 32
0.0
 13
92.82244441736185
 23
-4.201824288342782
 33
0.0
  0
MTEXT
  5
129
330
1F
100
AcDbEntity
  8
참조1
100
AcDbMText
 10
95.86993450983213
 20
11.21039235630716
 30
0.0
 40
3.5
 41
0.0
 71
     1
 72
     1
  1
A
  7
SLDTEXTSTYLE0
 73
     1
 44
1.0
  0
MTEXT
  5
12A
330
1F
100
AcDbEntity
  8
참조1
100
AcDbMText
 10
95.86993450983213
 20
0.3303923563071531
 30
0.0
 40
3.5
 41
0.0
 71
     1
 72
     1
  1
A
  7
SLDTEXTSTYLE0
 73
     1
 44
1.0
  0
INSERT
  5
131
330
1F
100
AcDbEntity
  8
해칭선
100
AcDbBlockReference
  2
SW_DOWELSYMBOL_0
 10
0.0
 20
0.0
 30
0.0
  0
MTEXT
  5
1F8
102
{ACAD_REACTORS
330
1F9
102
}
330
1F
100
AcDbEntity
  8
0
100
AcDbMText
 10
34.63750057166998
 20
-16.07293287583679
 30
0.0
 40
3.5
 41
0.0
 71
     7
 72
     1
  1
{R0.25[.010"]}
 73
     1
 44
1.0
1001
ACAD
1000
ACAD_MTEXT_DEFINED_HEIGHT_BEGIN
1070
    46
1040
3.5
1000
ACAD_MTEXT_DEFINED_HEIGHT_END
  0
LEADER
  5
1F9
102
{ACAD_XDICTIONARY
360
1FA
102
}
330
1F
100
AcDbEntity
  8
0
100
AcDbLeader
  3
ISO-25
 73
     0
 74
     0
 75
     1
 40
3.5
 41
29.75
 76
     3
 10
24.16953242541986
 20
-1.943447109172578
 30
0.0
 10
29.81150057166998
 20
-14.32293287583679
 30
0.0
 10
33.11350057166998
 20
-14.32293287583679
 30
0.0
340
1F8
213
0.0
223
1.75
233
0.0
1001
ACAD
1000
DSTYLE
1002
{
1070
    77
1070
     0
1070
   179
1070
     2
1070
   143
1040
0.0393700787401575
1070
    41
1040
3.302
1070
    44
1040
1.0
1070
    42
1040
1.0
1070
   147
1040
1.524
1070
    73
1070
     1
1070
    74
1070
     1
1070
   140
1040
3.5
1070
   284
1070
     0
1070
    78
1070
     0
1002
}
  0
ARC
  5
223
330
1F
100
AcDbEntity
  8
외형선
  6
Continuous
 62
     1
370
    15
100
AcDbCircle
 10
24.03294162719331
 20
1.731449928723916
 30
0.0
 40
0.2539999999999999
100
AcDbArc
 50
0.0
 51
90.0
1001
PE_URL
1000

  0
ARC
  5
28A
330
1F
100
AcDbEntity
  8
외형선
  6
Continuous
370
    15
100
AcDbCircle
 10
8.999441627193306
 20
14.68544992872389
 30
0.0
 40
12.7
100
AcDbArc
 50
255.6384884370835
 51
270.0
1001
PE_URL
1000

  0
ARC
  5
28E
330
1F
100
AcDbEntity
  8
외형선
  6
Continuous
370
    15
100
AcDbCircle
 10
8.999441627193304
 20
-14.6833000712761
 30
0.0
 40
12.7
100
AcDbArc
 50
90.0
 51
104.3615115629165
1001
PE_URL
1000

  0
LINE
  5
28F
330
1F
100
AcDbEntity
  8
외형선
  6
Continuous
370
    15
100
AcDbLine
 10
5.849343972457046
 20
2.382324928723889
 30
0.0
 11
5.849343972457046
 21
-2.380175071276109
 31
0.0
1001
PE_URL
1000

  0
ENDSEC
  0
SECTION
  2
OBJECTS
  0
DICTIONARY
  5
C
330
0
100
AcDbDictionary
281
     1
  3
ACAD_DETAILVIEWSTYLE
350
15C
  3
ACAD_GROUP
350
D
  3
ACAD_LAYOUT
350
1A
  3
ACAD_MLINESTYLE
350
17
  3
ACAD_PLOTSETTINGS
350
19
  3
ACAD_PLOTSTYLENAME
350
E
  3
ACAD_SCALELIST
350
47
  3
ACAD_SECTIONVIEWSTYLE
350
15D
  3
AcDbVariableDictionary
350
157
  3
APPDATA
350
153
  3
DWGPROPS
350
292
  0
DICTIONARY
  5
28C
330
1F
100
AcDbDictionary
280
     1
281
     1
  3
ACAD_SORTENTS
360
28D
  3
DIM_BOUNDING_BOXES_V1
360
290
  0
DICTIONARY
  5
1FA
330
1F9
100
AcDbDictionary
280
     1
281
     1
  3
*A1
360
1FC
  0
DICTIONARY
  5
15C
102
{ACAD_REACTORS
330
C
102
}
330
C
100
AcDbDictionary
281
     1
  0
DICTIONARY
  5
D
102
{ACAD_REACTORS
330
C
102
}
330
C
100
AcDbDictionary
281
     1
  0
DICTIONARY
  5
1A
102
{ACAD_REACTORS
330
C
102
}
330
C
100
AcDbDictionary
281
     1
  3
Layout1
350
1E
  3
Layout2
350
26
  3
Model
350
22
  0
DICTIONARY
  5
17
102
{ACAD_REACTORS
330
C
102
}
330
C
100
AcDbDictionary
281
     1
  3
Standard
350
18
  0
DICTIONARY
  5
19
102
{ACAD_REACTORS
330
C
102
}
330
C
100
AcDbDictionary
281
     1
  0
ACDBDICTIONARYWDFLT
  5
E
102
{ACAD_REACTORS
330
C
102
}
330
C
100
AcDbDictionary
281
     1
  3
Normal
350
F
100
AcDbDictionaryWithDefault
340
F
  0
DICTIONARY
  5
47
102
{ACAD_REACTORS
330
C
102
}
330
C
100
AcDbDictionary
281
     1
  3
A0
350
48
  3
A1
350
49
  3
A2
350
4A
  3
A3
350
4B
  3
A4
350
4C
  3
A5
350
4D
  3
A6
350
4E
  3
A7
350
4F
  3
A8
350
50
  3
A9
350
51
  3
B0
350
52
  3
B1
350
53
  3
B2
350
54
  3
B3
350
55
  3
B4
350
56
  3
B5
350
57
  3
B6
350
58
  3
B7
350
59
  3
B8
350
5A
  3
B9
350
5B
  3
C0
350
5C
  3
C1
350
5D
  3
C2
350
5E
  3
C3
350
5F
  3
C4
350
60
  3
C5
350
61
  3
C6
350
62
  3
C7
350
63
  3
C8
350
64
  3
C9
350
65
  3
D0
350
66
  3
D1
350
67
  3
D2
350
68
  0
DICTIONARY
  5
15D
102
{ACAD_REACTORS
330
C
102
}
330
C
100
AcDbDictionary
281
     1
  0
DICTIONARY
  5
157
102
{ACAD_REACTORS
330
C
102
}
330
C
100
AcDbDictionary
281
     1
  0
DICTIONARY
  5
153
102
{ACAD_REACTORS
330
C
102
}
330
C
100
AcDbDictionary
281
     1
  0
XRECORD
  5
292
102
{ACAD_REACTORS
330
C
102
}
330
C
100
AcDbXrecord
280
     1
  1
DWGPROPS COOKIE
  2

  3

  4

  6

  7

  8
12014074
  9

300
=
301
=
302
=
303
=
304
=
305
=
306
=
307
=
308
=
309
=
 40
0.0
 41
2458290.297456829
 42
2459708.969662372
  1

 90
        0
  0
SORTENTSTABLE
  5
28D
102
{ACAD_REACTORS
330
28C
102
}
330
28C
100
AcDbSortentsTable
330
1F
  0
DICTIONARY
  5
290
102
{ACAD_REACTORS
330
28C
102
}
330
28C
100
AcDbDictionary
281
     1
  0
SPLINE
  5
1FC
102
{ACAD_REACTORS
330
1FA
102
}
330
1FA
100
AcDbEntity
  8
외형선
  6
Continuous
 62
     1
370
    15
100
AcDbSpline
210
0.0
220
0.0
230
1.0
 70
     8
 71
     3
 72
    29
 73
    25
 74
     0
 42
0.000000001
 43
0.00000001
 40
0.0
 40
0.0
 40
0.0
 40
0.0
 40
0.0422644495549575
 40
0.0894133481135558
 40
0.1360887908804358
 40
0.183088732683559
 40
0.2297638819666308
 40
0.2767625414519669
 40
0.323437633749297
 40
0.3704354120323877
 40
0.4171106810586105
 40
0.464107897037571
 40
0.5107833946634068
 40
0.5577805359514474
 40
0.6044561394422602
 40
0.651453806121575
 40
0.6980998941979074
 40
0.7450685450090514
 40
0.7915976398774139
 40
0.8384484734548767
 40
0.8795785645527328
 40
0.920930788652952
 40
0.9603675209920361
 40
1.0
 40
1.0
 40
1.0
 40
1.0
 10
12.38189177007194
 20
1.248479460924195
 30
0.0
 10
12.52654344348548
 20
1.258273475674198
 30
0.0
 10
12.8325640013379
 20
1.278993387077104
 30
0.0
 10
13.29773257188337
 20
1.254108412177238
 30
0.0
 10
13.78025596066385
 20
1.187861475668798
 30
0.0
 10
14.25966703328228
 20
1.076843206459327
 30
0.0
 10
14.7418375996466
 20
0.9278143507748849
 30
0.0
 10
15.22126826210304
 20
0.7422259995311946
 30
0.0
 10
15.70321466955698
 20
0.5287568400491983
 30
0.0
 10
16.18301476867187
 20
0.291415106865743
 30
0.0
 10
16.66438564818222
 20
0.0386509998105593
 30
0.0
 10
17.14481199956303
 20
-0.2211140264741509
 30
0.0
 10
17.62559449395425
 20
-0.4827611477767423
 30
0.0
 10
18.10652182376923
 20
-0.7336501666871716
 30
0.0
 10
18.58700798445997
 20
-0.9720014204249832
 30
0.0
 10
19.06797035806053
 20
-1.184275237010919
 30
0.0
 10
19.54830862416817
 20
-1.369853183592872
 30
0.0
 10
20.02843114246354
 20
-1.518172522965445
 30
0.0
 10
20.50823986679071
 20
-1.62831800107122
 30
0.0
 10
20.96857053986777
 20
-1.692379933129987
 30
0.0
 10
21.41107311362818
 20
-1.715381820442324
 30
0.0
 10
21.82821005632637
 20
-1.70162911792889
 30
0.0
 10
22.2401103516564
 20
-1.656726206160658
 30
0.0
 10
22.51072264209905
 20
-1.601263250205901
 30
0.0
 10
22.64636375622617
 20
-1.573463119154277
 30
0.0
  0
LAYOUT
  5
1E
102
{ACAD_REACTORS
330
1A
102
}
330
1A
100
AcDbPlotSettings
  1

  2
none_device
  4

  6

 40
0.0
 41
0.0
 42
0.0
 43
0.0
 44
0.0
 45
0.0
 46
0.0
 47
0.0
 48
0.0
 49
0.0
140
0.0
141
0.0
142
1.0
143
1.0
 70
   688
 72
     1
 73
     0
 74
     5
  7

 75
    16
147
1.0
148
0.0
149
0.0
100
AcDbLayout
  1
Layout1
 70
     1
 71
     1
 10
0.0
 20
0.0
 11
420.0
 21
297.0
 12
0.0
 22
0.0
 32
0.0
 14
1.000000000000000E+20
 24
1.000000000000000E+20
 34
1.000000000000000E+20
 15
-1.000000000000000E+20
 25
-1.000000000000000E+20
 35
-1.000000000000000E+20
146
0.0
 13
0.0
 23
0.0
 33
0.0
 16
1.0
 26
0.0
 36
0.0
 17
0.0
 27
1.0
 37
0.0
 76
     0
330
1B
  0
LAYOUT
  5
26
102
{ACAD_REACTORS
330
1A
102
}
330
1A
100
AcDbPlotSettings
  1

  2
none_device
  4

  6

 40
0.0
 41
0.0
 42
0.0
 43
0.0
 44
0.0
 45
0.0
 46
0.0
 47
0.0
 48
0.0
 49
0.0
140
0.0
141
0.0
142
1.0
143
1.0
 70
   688
 72
     1
 73
     0
 74
     5
  7

 75
    16
147
1.0
148
0.0
149
0.0
100
AcDbLayout
  1
Layout2
 70
     1
 71
     2
 10
0.0
 20
0.0
 11
0.0
 21
0.0
 12
0.0
 22
0.0
 32
0.0
 14
0.0
 24
0.0
 34
0.0
 15
0.0
 25
0.0
 35
0.0
146
0.0
 13
0.0
 23
0.0
 33
0.0
 16
1.0
 26
0.0
 36
0.0
 17
0.0
 27
1.0
 37
0.0
 76
     0
330
23
  0
LAYOUT
  5
22
102
{ACAD_REACTORS
330
1A
102
}
330
1A
100
AcDbPlotSettings
  1

  2
none_device
  4
ANSI_A_(11.00_x_8.50_Inches)
  6

 40
6.35
 41
19.05
 42
6.35000508
 43
19.05000254
 44
279.4
 45
215.9
 46
98.55779778813425
 47
81.24619288557537
 48
0.0
 49
0.0
140
0.0
141
0.0
142
0.0687159957740053
143
1.0
 70
  1696
 72
     0
 73
     0
 74
     0
  7

 75
     0
147
0.0235690232323232
148
0.0
149
0.0
100
AcDbLayout
  1
Model
 70
     1
 71
     0
 10
0.0
 20
0.0
 11
420.0
 21
297.0
 12
0.0
 22
0.0
 32
0.0
 14
-39.59000713492544
 24
-49.74963167715453
 34
0.0
 15
99.17244441736186
 25
53.28824607585889
 35
0.0
146
0.0
 13
0.0
 23
0.0
 33
0.0
 16
1.0
 26
0.0
 36
0.0
 17
0.0
 27
1.0
 37
0.0
 76
     0
330
1F
331
29
  0
MLINESTYLE
  5
18
102
{ACAD_REACTORS
330
17
102
}
330
17
100
AcDbMlineStyle
  2
Standard
 70
     0
  3

 62
   256
 51
90.0
 52
90.0
 71
     2
 49
0.5
 62
   256
  6
BYLAYER
 49
-0.5
 62
   256
  6
BYLAYER
  0
ACDBPLACEHOLDER
  5
F
102
{ACAD_REACTORS
330
E
102
}
330
E
  0
SCALE
  5
48
102
{ACAD_REACTORS
330
47
102
}
330
47
100
AcDbScale
 70
     0
300
1:1
140
1.0
141
1.0
290
     1
  0
SCALE
  5
49
102
{ACAD_REACTORS
330
47
102
}
330
47
100
AcDbScale
 70
     0
300
1:2
140
1.0
141
2.0
290
     0
  0
SCALE
  5
4A
102
{ACAD_REACTORS
330
47
102
}
330
47
100
AcDbScale
 70
     0
300
1:4
140
1.0
141
4.0
290
     0
  0
SCALE
  5
4B
102
{ACAD_REACTORS
330
47
102
}
330
47
100
AcDbScale
 70
     0
300
1:5
140
1.0
141
5.0
290
     0
  0
SCALE
  5
4C
102
{ACAD_REACTORS
330
47
102
}
330
47
100
AcDbScale
 70
     0
300
1:8
140
1.0
141
8.0
290
     0
  0
SCALE
  5
4D
102
{ACAD_REACTORS
330
47
102
}
330
47
100
AcDbScale
 70
     0
300
1:10
140
1.0
141
10.0
290
     0
  0
SCALE
  5
4E
102
{ACAD_REACTORS
330
47
102
}
330
47
100
AcDbScale
 70
     0
300
1:16
140
1.0
141
16.0
290
     0
  0
SCALE
  5
4F
102
{ACAD_REACTORS
330
47
102
}
330
47
100
AcDbScale
 70
     0
300
1:20
140
1.0
141
20.0
290
     0
  0
SCALE
  5
50
102
{ACAD_REACTORS
330
47
102
}
330
47
100
AcDbScale
 70
     0
300
1:30
140
1.0
141
30.0
290
     0
  0
SCALE
  5
51
102
{ACAD_REACTORS
330
47
102
}
330
47
100
AcDbScale
 70
     0
300
1:40
140
1.0
141
40.0
290
     0
  0
SCALE
  5
52
102
{ACAD_REACTORS
330
47
102
}
330
47
100
AcDbScale
 70
     0
300
1:50
140
1.0
141
50.0
290
     0
  0
SCALE
  5
53
102
{ACAD_REACTORS
330
47
102
}
330
47
100
AcDbScale
 70
     0
300
1:100
140
1.0
141
100.0
290
     0
  0
SCALE
  5
54
102
{ACAD_REACTORS
330
47
102
}
330
47
100
AcDbScale
 70
     0
300
2:1
140
2.0
141
1.0
290
     0
  0
SCALE
  5
55
102
{ACAD_REACTORS
330
47
102
}
330
47
100
AcDbScale
 70
     0
300
4:1
140
4.0
141
1.0
290
     0
  0
SCALE
  5
56
102
{ACAD_REACTORS
330
47
102
}
330
47
100
AcDbScale
 70
     0
300
8:1
140
8.0
141
1.0
290
     0
  0
SCALE
  5
57
102
{ACAD_REACTORS
330
47
102
}
330
47
100
AcDbScale
 70
     0
300
10:1
140
10.0
141
1.0
290
     0
  0
SCALE
  5
58
102
{ACAD_REACTORS
330
47
102
}
330
47
100
AcDbScale
 70
     0
300
100:1
140
100.0
141
1.0
290
     0
  0
SCALE
  5
59
102
{ACAD_REACTORS
330
47
102
}
330
47
100
AcDbScale
 70
     0
300
1/128" = 1'-0"
140
0.0078125
141
12.0
290
     0
  0
SCALE
  5
5A
102
{ACAD_REACTORS
330
47
102
}
330
47
100
AcDbScale
 70
     0
300
1/64" = 1'-0"
140
0.015625
141
12.0
290
     0
  0
SCALE
  5
5B
102
{ACAD_REACTORS
330
47
102
}
330
47
100
AcDbScale
 70
     0
300
1/32" = 1'-0"
140
0.03125
141
12.0
290
     0
  0
SCALE
  5
5C
102
{ACAD_REACTORS
330
47
102
}
330
47
100
AcDbScale
 70
     0
300
1/16" = 1'-0"
140
0.0625
141
12.0
290
     0
  0
SCALE
  5
5D
102
{ACAD_REACTORS
330
47
102
}
330
47
100
AcDbScale
 70
     0
300
3/32" = 1'-0"
140
0.09375
141
12.0
290
     0
  0
SCALE
  5
5E
102
{ACAD_REACTORS
330
47
102
}
330
47
100
AcDbScale
 70
     0
300
1/8" = 1'-0"
140
0.125
141
12.0
290
     0
  0
SCALE
  5
5F
102
{ACAD_REACTORS
330
47
102
}
330
47
100
AcDbScale
 70
     0
300
3/16" = 1'-0"
140
0.1875
141
12.0
290
     0
  0
SCALE
  5
60
102
{ACAD_REACTORS
330
47
102
}
330
47
100
AcDbScale
 70
     0
300
1/4" = 1'-0"
140
0.25
141
12.0
290
     0
  0
SCALE
  5
61
102
{ACAD_REACTORS
330
47
102
}
330
47
100
AcDbScale
 70
     0
300
3/8" = 1'-0"
140
0.375
141
12.0
290
     0
  0
SCALE
  5
62
102
{ACAD_REACTORS
330
47
102
}
330
47
100
AcDbScale
 70
     0
300
1/2" = 1'-0"
140
0.5
141
12.0
290
     0
  0
SCALE
  5
63
102
{ACAD_REACTORS
330
47
102
}
330
47
100
AcDbScale
 70
     0
300
3/4" = 1'-0"
140
0.75
141
12.0
290
     0
  0
SCALE
  5
64
102
{ACAD_REACTORS
330
47
102
}
330
47
100
AcDbScale
 70
     0
300
1" = 1'-0"
140
1.0
141
12.0
290
     0
  0
SCALE
  5
65
102
{ACAD_REACTORS
330
47
102
}
330
47
100
AcDbScale
 70
     0
300
1-1/2" = 1'-0"
140
1.5
141
12.0
290
     0
  0
SCALE
  5
66
102
{ACAD_REACTORS
330
47
102
}
330
47
100
AcDbScale
 70
     0
300
3" = 1'-0"
140
3.0
141
12.0
290
     0
  0
SCALE
  5
67
102
{ACAD_REACTORS
330
47
102
}
330
47
100
AcDbScale
 70
     0
300
6" = 1'-0"
140
6.0
141
12.0
290
     0
  0
SCALE
  5
68
102
{ACAD_REACTORS
330
47
102
}
330
47
100
AcDbScale
 70
     0
300
1'-0" = 1'-0"
140
12.0
141
12.0
290
     0
  0
ENDSEC
  0
EOF
