  0
SECTION
  2
HEADER
  9
$ACADVER
  1
AC1015
  9
$ACADMAINTVER
 70
     6
  9
$DWGCODEPAGE
  3
ANSI_949
  9
$INSBASE
 10
0.0
 20
0.0
 30
0.0
  9
$EXTMIN
 10
-29.77500000000009
 20
-49.75070660587842
 30
0.0
  9
$EXTMAX
 10
99.17300279016857
 20
52.49342114713498
 30
0.0
  9
$LIMMIN
 10
0.0
 20
0.0
  9
$LIMMAX
 10
420.0
 20
297.0
  9
$ORTHOMODE
 70
     1
  9
$REGENMODE
 70
     1
  9
$FILLMODE
 70
     1
  9
$QTEXTMODE
 70
     0
  9
$MIRRTEXT
 70
     1
  9
$LTSCALE
 40
1.0
  9
$ATTMODE
 70
     1
  9
$TEXTSIZE
 40
3.5
  9
$TRACEWID
 40
1.0
  9
$TEXTSTYLE
  7
Standard
  9
$CLAYER
  8
0
  9
$CELTYPE
  6
ByLayer
  9
$CECOLOR
 62
   256
  9
$CELTSCALE
 40
1.0
  9
$DISPSILH
 70
     0
  9
$DIMSCALE
 40
1.0
  9
$DIMASZ
 40
3.302
  9
$DIMEXO
 40
1.0
  9
$DIMDLI
 40
3.75
  9
$DIMRND
 40
0.0
  9
$DIMDLE
 40
0.0
  9
$DIMEXE
 40
1.0
  9
$DIMTP
 40
0.0
  9
$DIMTM
 40
0.0
  9
$DIMTXT
 40
3.5
  9
$DIMCEN
 40
2.5
  9
$DIMTSZ
 40
0.0
  9
$DIMTOL
 70
     0
  9
$DIMLIM
 70
     0
  9
$DIMTIH
 70
     1
  9
$DIMTOH
 70
     1
  9
$DIMSE1
 70
     0
  9
$DIMSE2
 70
     0
  9
$DIMTAD
 70
     1
  9
$DIMZIN
 70
     0
  9
$DIMBLK
  1

  9
$DIMASO
 70
     1
  9
$DIMSHO
 70
     1
  9
$DIMPOST
  1

  9
$DIMAPOST
  1

  9
$DIMALT
 70
     0
  9
$DIMALTD
 70
     3
  9
$DIMALTF
 40
0.0393700787401575
  9
$DIMLFAC
 40
1.0
  9
$DIMTOFL
 70
     1
  9
$DIMTVP
 40
0.0
  9
$DIMTIX
 70
     0
  9
$DIMSOXD
 70
     0
  9
$DIMSAH
 70
     0
  9
$DIMBLK1
  1

  9
$DIMBLK2
  1

  9
$DIMSTYLE
  2
ISO-25
  9
$DIMCLRD
 70
     0
  9
$DIMCLRE
 70
     0
  9
$DIMCLRT
 70
     0
  9
$DIMTFAC
 40
1.0
  9
$DIMGAP
 40
1.524
  9
$DIMJUST
 70
     0
  9
$DIMSD1
 70
     0
  9
$DIMSD2
 70
     0
  9
$DIMTOLJ
 70
     0
  9
$DIMTZIN
 70
     0
  9
$DIMALTZ
 70
     0
  9
$DIMALTTZ
 70
     0
  9
$DIMUPT
 70
     0
  9
$DIMDEC
 70
     2
  9
$DIMTDEC
 70
     2
  9
$DIMALTU
 70
     2
  9
$DIMALTTD
 70
     3
  9
$DIMTXSTY
  7
Standard
  9
$DIMAUNIT
 70
     0
  9
$DIMADEC
 70
     2
  9
$DIMALTRND
 40
0.0
  9
$DIMAZIN
 70
     0
  9
$DIMDSEP
 70
    44
  9
$DIMATFIT
 70
     3
  9
$DIMFRAC
 70
     0
  9
$DIMLDRBLK
  1

  9
$DIMLUNIT
 70
     2
  9
$DIMLWD
 70
    -2
  9
$DIMLWE
 70
    -2
  9
$DIMTMOVE
 70
     0
  9
$LUNITS
 70
     2
  9
$LUPREC
 70
     2
  9
$SKETCHINC
 40
1.0
  9
$FILLETRAD
 40
0.254
  9
$AUNITS
 70
     0
  9
$AUPREC
 70
     2
  9
$MENU
  1
.
  9
$ELEVATION
 40
0.0
  9
$PELEVATION
 40
0.0
  9
$THICKNESS
 40
0.0
  9
$LIMCHECK
 70
     0
  9
$CHAMFERA
 40
0.0
  9
$CHAMFERB
 40
0.0
  9
$CHAMFERC
 40
0.0
  9
$CHAMFERD
 40
0.0
  9
$SKPOLY
 70
     0
  9
$TDCREATE
 40
2458290.672313658
  9
$TDUCREATE
 40
2458290.297313658
  9
$TDUPDATE
 40
2458299.752404676
  9
$TDUUPDATE
 40
2458299.377404676
  9
$TDINDWG
 40
0.0179520718
  9
$TDUSRTIMER
 40
0.0001189699
  9
$USRTIMER
 70
     1
  9
$ANGBASE
 50
0.0
  9
$ANGDIR
 70
     0
  9
$PDMODE
 70
     0
  9
$PDSIZE
 40
-1.0
  9
$PLINEWID
 40
0.0
  9
$SPLFRAME
 70
     0
  9
$SPLINETYPE
 70
     6
  9
$SPLINESEGS
 70
     8
  9
$HANDSEED
  5
2E7
  9
$SURFTAB1
 70
     6
  9
$SURFTAB2
 70
     6
  9
$SURFTYPE
 70
     6
  9
$SURFU
 70
     6
  9
$SURFV
 70
     6
  9
$UCSBASE
  2

  9
$UCSNAME
  2

  9
$UCSORG
 10
0.0
 20
0.0
 30
0.0
  9
$UCSXDIR
 10
1.0
 20
0.0
 30
0.0
  9
$UCSYDIR
 10
0.0
 20
1.0
 30
0.0
  9
$UCSORTHOREF
  2

  9
$UCSORTHOVIEW
 70
     0
  9
$UCSORGTOP
 10
0.0
 20
0.0
 30
0.0
  9
$UCSORGBOTTOM
 10
0.0
 20
0.0
 30
0.0
  9
$UCSORGLEFT
 10
0.0
 20
0.0
 30
0.0
  9
$UCSORGRIGHT
 10
0.0
 20
0.0
 30
0.0
  9
$UCSORGFRONT
 10
0.0
 20
0.0
 30
0.0
  9
$UCSORGBACK
 10
0.0
 20
0.0
 30
0.0
  9
$PUCSBASE
  2

  9
$PUCSNAME
  2

  9
$PUCSORG
 10
0.0
 20
0.0
 30
0.0
  9
$PUCSXDIR
 10
1.0
 20
0.0
 30
0.0
  9
$PUCSYDIR
 10
0.0
 20
1.0
 30
0.0
  9
$PUCSORTHOREF
  2

  9
$PUCSORTHOVIEW
 70
     0
  9
$PUCSORGTOP
 10
0.0
 20
0.0
 30
0.0
  9
$PUCSORGBOTTOM
 10
0.0
 20
0.0
 30
0.0
  9
$PUCSORGLEFT
 10
0.0
 20
0.0
 30
0.0
  9
$PUCSORGRIGHT
 10
0.0
 20
0.0
 30
0.0
  9
$PUCSORGFRONT
 10
0.0
 20
0.0
 30
0.0
  9
$PUCSORGBACK
 10
0.0
 20
0.0
 30
0.0
  9
$USERI1
 70
     0
  9
$USERI2
 70
     0
  9
$USERI3
 70
     0
  9
$USERI4
 70
     0
  9
$USERI5
 70
     0
  9
$USERR1
 40
0.0
  9
$USERR2
 40
0.0
  9
$USERR3
 40
0.0
  9
$USERR4
 40
0.0
  9
$USERR5
 40
0.0
  9
$WORLDVIEW
 70
     1
  9
$SHADEDGE
 70
     3
  9
$SHADEDIF
 70
    70
  9
$TILEMODE
 70
     1
  9
$MAXACTVP
 70
    64
  9
$PINSBASE
 10
0.0
 20
0.0
 30
0.0
  9
$PLIMCHECK
 70
     0
  9
$PEXTMIN
 10
1.000000000000000E+20
 20
1.000000000000000E+20
 30
1.000000000000000E+20
  9
$PEXTMAX
 10
-1.000000000000000E+20
 20
-1.000000000000000E+20
 30
-1.000000000000000E+20
  9
$PLIMMIN
 10
0.0
 20
0.0
  9
$PLIMMAX
 10
0.0
 20
0.0
  9
$UNITMODE
 70
     0
  9
$VISRETAIN
 70
     1
  9
$PLINEGEN
 70
     0
  9
$PSLTSCALE
 70
     1
  9
$TREEDEPTH
 70
  3020
  9
$CMLSTYLE
  2
Standard
  9
$CMLJUST
 70
     0
  9
$CMLSCALE
 40
20.0
  9
$PROXYGRAPHICS
 70
     1
  9
$MEASUREMENT
 70
     1
  9
$CELWEIGHT
370
    -1
  9
$ENDCAPS
280
     0
  9
$JOINSTYLE
280
     0
  9
$LWDISPLAY
290
     1
  9
$INSUNITS
 70
     4
  9
$HYPERLINKBASE
  1

  9
$STYLESHEET
  1

  9
$XEDIT
290
     1
  9
$CEPSNTYPE
380
     0
  9
$PSTYLEMODE
290
     1
  9
$FINGERPRINTGUID
  2
{D785F291-8FE1-4F6D-BC7A-B4DAD2D406EB}
  9
$VERSIONGUID
  2
{FAEB1C32-E019-11D5-929B-00C0DF256EC4}
  9
$EXTNAMES
290
     1
  9
$PSVPSCALE
 40
0.0
  9
$OLESTARTUP
290
     0
  0
ENDSEC
  0
SECTION
  2
CLASSES
  0
CLASS
  1
ACDBDICTIONARYWDFLT
  2
AcDbDictionaryWithDefault
  3
ObjectDBX Classes
 90
        0
280
     0
281
     0
  0
CLASS
  1
VISUALSTYLE
  2
AcDbVisualStyle
  3
ObjectDBX Classes
 90
     4095
280
     0
281
     0
  0
CLASS
  1
MATERIAL
  2
AcDbMaterial
  3
ObjectDBX Classes
 90
     1153
280
     0
281
     0
  0
CLASS
  1
SCALE
  2
AcDbScale
  3
ObjectDBX Classes
 90
     1153
280
     0
281
     0
  0
CLASS
  1
SUN
  2
AcDbSun
  3
SCENEOE
 90
     1153
280
     0
281
     0
  0
CLASS
  1
ACDBPLACEHOLDER
  2
AcDbPlaceHolder
  3
ObjectDBX Classes
 90
        0
280
     0
281
     0
  0
CLASS
  1
LAYOUT
  2
AcDbLayout
  3
ObjectDBX Classes
 90
        0
280
     0
281
     0
  0
CLASS
  1
TABLESTYLE
  2
AcDbTableStyle
  3
ObjectDBX Classes
 90
     4095
280
     0
281
     0
  0
CLASS
  1
MLEADERSTYLE
  2
AcDbMLeaderStyle
  3
ACDB_MLEADERSTYLE_CLASS
 90
     4095
280
     0
281
     0
  0
CLASS
  1
DICTIONARYVAR
  2
AcDbDictionaryVar
  3
ObjectDBX Classes
 90
        0
280
     0
281
     0
  0
CLASS
  1
DIMASSOC
  2
AcDbDimAssoc
  3
"AcDbDimAssoc|Product Desc:     AcDim ARX App For Dimension|Company:          Autodesk, Inc.|WEB Address:      www.autodesk.com"
 90
        0
280
     0
281
     0
  0
ENDSEC
  0
SECTION
  2
TABLES
  0
TABLE
  2
VPORT
  5
8
330
0
100
AcDbSymbolTable
 70
     1
  0
VPORT
  5
29
330
8
100
AcDbSymbolTableRecord
100
AcDbViewportTableRecord
  2
*Active
 70
     0
 10
0.0
 20
0.0
 11
1.0
 21
1.0
 12
34.69900139508424
 22
1.37135727062828
 13
0.0
 23
0.0
 14
10.0
 24
10.0
 15
10.0
 25
10.0
 16
0.0
 26
0.0
 36
1.0
 17
0.0
 27
0.0
 37
0.0
 40
104.2890103080737
 41
2.148876404494382
 42
50.0
 43
0.0
 44
0.0
 50
0.0
 51
0.0
 71
    16
 72
  2000
 73
     1
 74
     3
 75
     0
 76
     0
 77
     0
 78
     0
281
     0
 65
     1
110
0.0
120
0.0
130
0.0
111
1.0
121
0.0
131
0.0
112
0.0
122
1.0
132
0.0
 79
     0
146
0.0
  0
ENDTAB
  0
TABLE
  2
LTYPE
  5
5
330
0
100
AcDbSymbolTable
 70
     6
  0
LTYPE
  5
14
330
5
100
AcDbSymbolTableRecord
100
AcDbLinetypeTableRecord
  2
ByBlock
 70
     0
  3

 72
    65
 73
     0
 40
0.0
  0
LTYPE
  5
15
330
5
100
AcDbSymbolTableRecord
100
AcDbLinetypeTableRecord
  2
ByLayer
 70
     0
  3

 72
    65
 73
     0
 40
0.0
  0
LTYPE
  5
16
330
5
100
AcDbSymbolTableRecord
100
AcDbLinetypeTableRecord
  2
Continuous
 70
     0
  3
Solid line
 72
    65
 73
     0
 40
0.0
  0
LTYPE
  5
6A
330
5
100
AcDbSymbolTableRecord
100
AcDbLinetypeTableRecord
  2
HIDDEN
 70
     0
  3
Hidden __ __ __ __ __ __ __ __ __ __ __ __ __ __
 72
    65
 73
     2
 40
1.905
 49
1.27
 74
     0
 49
-0.635
 74
     0
  0
LTYPE
  5
6B
330
5
100
AcDbSymbolTableRecord
100
AcDbLinetypeTableRecord
  2
PHANTOM
 70
     0
  3
Phantom ______  __  __  ______  __  __  ______
 72
    65
 73
     6
 40
12.7
 49
6.35
 74
     0
 49
-1.27
 74
     0
 49
1.27
 74
     0
 49
-1.27
 74
     0
 49
1.27
 74
     0
 49
-1.27
 74
     0
  0
LTYPE
  5
6C
330
5
100
AcDbSymbolTableRecord
100
AcDbLinetypeTableRecord
  2
CENTER
 70
     0
  3
Center ____ _ ____ _ ____ _ ____ _ ____ _ ____
 72
    65
 73
     4
 40
10.16
 49
6.35
 74
     0
 49
-1.27
 74
     0
 49
1.27
 74
     0
 49
-1.27
 74
     0
  0
LTYPE
  5
6D
330
5
100
AcDbSymbolTableRecord
100
AcDbLinetypeTableRecord
  2
CENTERX2
 70
     0
  3
Center (2x) ________  __  ________  __  _____
 72
    65
 73
     4
 40
20.32
 49
12.7
 74
     0
 49
-2.54
 74
     0
 49
2.54
 74
     0
 49
-2.54
 74
     0
  0
LTYPE
  5
6E
330
5
100
AcDbSymbolTableRecord
100
AcDbLinetypeTableRecord
  2
DOT2
 70
     0
  3
Dot (.5x) ........................................
 72
    65
 73
     2
 40
0.635
 49
0.0
 74
     0
 49
-0.635
 74
     0
  0
ENDTAB
  0
TABLE
  2
LAYER
  5
2
330
0
100
AcDbSymbolTable
 70
    18
  0
LAYER
  5
10
330
2
100
AcDbSymbolTableRecord
100
AcDbLayerTableRecord
  2
0
 70
     0
 62
     7
  6
Continuous
370
    -3
390
F
  0
LAYER
  5
6F
330
2
100
AcDbSymbolTableRecord
100
AcDbLayerTableRecord
  2
FORMAT
 70
     0
 62
     2
  6
Continuous
370
    -3
390
F
  0
LAYER
  5
70
330
2
100
AcDbSymbolTableRecord
100
AcDbLayerTableRecord
  2
외형선
 70
     0
 62
     4
  6
Continuous
370
    30
390
F
  0
LAYER
  5
71
330
2
100
AcDbSymbolTableRecord
100
AcDbLayerTableRecord
  2
숨은선
 70
     0
 62
     2
  6
HIDDEN
370
    15
390
F
  0
LAYER
  5
72
330
2
100
AcDbSymbolTableRecord
100
AcDbLayerTableRecord
  2
중심선
 70
     0
 62
     1
  6
CENTERX2
370
    -3
390
F
  0
LAYER
  5
73
330
2
100
AcDbSymbolTableRecord
100
AcDbLayerTableRecord
  2
파단선
 70
     0
 62
     4
  6
Continuous
370
    -3
390
F
  0
LAYER
  5
74
330
2
100
AcDbSymbolTableRecord
100
AcDbLayerTableRecord
  2
해칭선
 70
     0
 62
   100
  6
Continuous
370
    -3
390
F
  0
LAYER
  5
75
330
2
100
AcDbSymbolTableRecord
100
AcDbLayerTableRecord
  2
가는실선
 70
     0
 62
     4
  6
Continuous
370
    -3
390
F
  0
LAYER
  5
76
330
2
100
AcDbSymbolTableRecord
100
AcDbLayerTableRecord
  2
치수_보조선
 70
     0
 62
     4
  6
Continuous
370
    -3
390
F
  0
LAYER
  5
77
330
2
100
AcDbSymbolTableRecord
100
AcDbLayerTableRecord
  2
치수문자_일반주서
 70
     0
 62
     7
  6
Continuous
370
    15
390
F
  0
LAYER
  5
78
330
2
100
AcDbSymbolTableRecord
100
AcDbLayerTableRecord
  2
개별주서
 70
     0
 62
   100
  6
Continuous
370
    30
390
F
  0
LAYER
  5
79
330
2
100
AcDbSymbolTableRecord
100
AcDbLayerTableRecord
  2
중간선
 70
     0
 62
     2
  6
Continuous
370
    15
390
F
  0
LAYER
  5
7A
330
2
100
AcDbSymbolTableRecord
100
AcDbLayerTableRecord
  2
윤곽선
 70
     0
 62
     3
  6
Continuous
370
    40
390
F
  0
LAYER
  5
7B
330
2
100
AcDbSymbolTableRecord
100
AcDbLayerTableRecord
  2
중심마크
 70
     0
 62
   100
  6
Continuous
370
    30
390
F
  0
LAYER
  5
7C
330
2
100
AcDbSymbolTableRecord
100
AcDbLayerTableRecord
  2
가상선
 70
     0
 62
     4
  6
PHANTOM
370
    -3
390
F
  0
LAYER
  5
7D
330
2
100
AcDbSymbolTableRecord
100
AcDbLayerTableRecord
  2
특수지정선
 70
     0
 62
     5
  6
CENTERX2
370
    60
390
F
  0
LAYER
  5
7E
330
2
100
AcDbSymbolTableRecord
100
AcDbLayerTableRecord
  2
참조1
 70
     0
 62
    -4
  6
Continuous
370
    -3
390
F
  0
LAYER
  5
156
330
2
100
AcDbSymbolTableRecord
100
AcDbLayerTableRecord
  2
Defpoints
 70
     0
 62
     7
  6
Continuous
290
     0
370
    -3
390
F
  0
ENDTAB
  0
TABLE
  2
STYLE
  5
3
330
0
100
AcDbSymbolTable
 70
     2
  0
STYLE
  5
11
330
3
100
AcDbSymbolTableRecord
100
AcDbTextStyleTableRecord
  2
Standard
 70
     0
 40
0.0
 41
1.0
 50
0.0
 71
     0
 42
3.5
  3
txt
  4

  0
STYLE
  5
94
330
3
100
AcDbSymbolTableRecord
100
AcDbTextStyleTableRecord
  2
SLDTEXTSTYLE0
 70
     0
 40
0.0
 41
0.75
 50
0.0
 71
     0
 42
3.5
  3
TXT
  4

  0
ENDTAB
  0
TABLE
  2
VIEW
  5
6
330
0
100
AcDbSymbolTable
 70
     0
  0
ENDTAB
  0
TABLE
  2
UCS
  5
7
330
0
100
AcDbSymbolTable
 70
     0
  0
ENDTAB
  0
TABLE
  2
APPID
  5
9
330
0
100
AcDbSymbolTable
 70
     3
  0
APPID
  5
12
330
9
100
AcDbSymbolTableRecord
100
AcDbRegAppTableRecord
  2
ACAD
 70
     0
  0
APPID
  5
158
330
9
100
AcDbSymbolTableRecord
100
AcDbRegAppTableRecord
  2
PE_URL
 70
     0
  0
APPID
  5
1D5
330
9
100
AcDbSymbolTableRecord
100
AcDbRegAppTableRecord
  2
ACAD_DSTYLE_DIMRADIAL_EXTENSION
 70
     0
  0
ENDTAB
  0
TABLE
  2
DIMSTYLE
  5
A
330
0
100
AcDbSymbolTable
 70
     4
100
AcDbDimStyleTable
  0
DIMSTYLE
105
27
102
{ACAD_REACTORS
330
251
102
}
330
A
100
AcDbSymbolTableRecord
100
AcDbDimStyleTableRecord
  2
ISO-25
 70
     0
 41
2.5
 42
0.625
 43
3.75
 44
1.25
 73
     0
 74
     0
 77
     1
 78
     8
140
2.5
141
2.5
143
0.03937007874016
147
0.625
171
     3
172
     1
178
     0
271
     2
272
     2
274
     3
278
    44
283
     0
284
     8
340
11
  0
DIMSTYLE
105
D4
330
A
100
AcDbSymbolTableRecord
100
AcDbDimStyleTableRecord
  2
SLDDIMSTYLE0
 70
     0
 41
3.302
 44
0.0
 45
0.000000001
 73
     0
 74
     0
 77
     1
 78
     4
 79
     1
140
3.5
143
0.0393700787401575
147
0.875
148
0.000000001
170
     1
173
     1
178
     0
271
     2
272
     2
276
     2
284
    12
340
94
  0
DIMSTYLE
105
E8
102
{ACAD_REACTORS
330
E7
330
112
330
D3
330
FC
102
}
330
A
100
AcDbSymbolTableRecord
100
AcDbDimStyleTableRecord
  2
SLDDIMSTYLE1
 70
     0
 41
3.302
 44
0.0
 45
0.000000001
 73
     0
 74
     0
 77
     1
 78
    12
 79
     3
140
3.5
143
0.0393700787401575
147
0.875
148
0.000000001
170
     1
172
     1
173
     1
178
     0
271
     2
272
     2
276
     2
284
    12
289
     0
340
94
  0
DIMSTYLE
105
FD
330
A
100
AcDbSymbolTableRecord
100
AcDbDimStyleTableRecord
  2
SLDDIMSTYLE2
 70
     0
 41
3.302
 44
0.0
 45
0.000000001
 73
     0
 74
     0
 77
     1
 78
     4
 79
     1
140
3.5
143
0.0393700787401575
147
0.875
148
0.000000001
170
     1
172
     1
173
     1
178
     0
271
     2
272
     2
276
     2
284
    12
289
     0
340
94
  0
ENDTAB
  0
TABLE
  2
BLOCK_RECORD
  5
1
330
0
100
AcDbSymbolTable
 70
    12
  0
BLOCK_RECORD
  5
1F
330
1
100
AcDbSymbolTableRecord
100
AcDbBlockTableRecord
  2
*Model_Space
340
22
  0
BLOCK_RECORD
  5
1B
330
1
100
AcDbSymbolTableRecord
100
AcDbBlockTableRecord
  2
*Paper_Space
340
1E
  0
BLOCK_RECORD
  5
23
330
1
100
AcDbSymbolTableRecord
100
AcDbBlockTableRecord
  2
*Paper_Space0
340
26
  0
BLOCK_RECORD
  5
7F
330
1
100
AcDbSymbolTableRecord
100
AcDbBlockTableRecord
  2
블럭10
340
0
102
{BLKREFS
331
CC
102
}
  0
BLOCK_RECORD
  5
D5
330
1
100
AcDbSymbolTableRecord
100
AcDbBlockTableRecord
  2
_D
340
0
  0
BLOCK_RECORD
  5
E9
330
1
100
AcDbSymbolTableRecord
100
AcDbBlockTableRecord
  2
_D_1
340
0
  0
BLOCK_RECORD
  5
FE
330
1
100
AcDbSymbolTableRecord
100
AcDbBlockTableRecord
  2
_D_2
340
0
  0
BLOCK_RECORD
  5
113
330
1
100
AcDbSymbolTableRecord
100
AcDbBlockTableRecord
  2
_D_3
340
0
  0
BLOCK_RECORD
  5
12D
330
1
100
AcDbSymbolTableRecord
100
AcDbBlockTableRecord
  2
SW_DOWELSYMBOL_0
340
0
102
{BLKREFS
331
133
102
}
  0
BLOCK_RECORD
  5
1D9
330
1
100
AcDbSymbolTableRecord
100
AcDbBlockTableRecord
  2
*D7
340
0
  0
BLOCK_RECORD
  5
1F0
330
1
100
AcDbSymbolTableRecord
100
AcDbBlockTableRecord
  2
*D8
340
0
  0
BLOCK_RECORD
  5
1FF
330
1
100
AcDbSymbolTableRecord
100
AcDbBlockTableRecord
  2
*D9
340
0
  0
BLOCK_RECORD
  5
235
330
1
100
AcDbSymbolTableRecord
100
AcDbBlockTableRecord
  2
*D10
340
0
  0
BLOCK_RECORD
  5
246
330
1
100
AcDbSymbolTableRecord
100
AcDbBlockTableRecord
  2
*D11
340
0
  0
ENDTAB
  0
ENDSEC
  0
SECTION
  2
BLOCKS
  0
BLOCK
  5
20
330
1F
100
AcDbEntity
  8
0
100
AcDbBlockBegin
  2
*Model_Space
 70
     0
 10
0.0
 20
0.0
 30
0.0
  3
*Model_Space
  1

  0
ENDBLK
  5
21
330
1F
100
AcDbEntity
  8
0
100
AcDbBlockEnd
  0
BLOCK
  5
1C
330
1B
100
AcDbEntity
 67
     1
  8
0
100
AcDbBlockBegin
  2
*Paper_Space
 70
     0
 10
0.0
 20
0.0
 30
0.0
  3
*Paper_Space
  1

  0
ENDBLK
  5
1D
330
1B
100
AcDbEntity
 67
     1
  8
0
100
AcDbBlockEnd
  0
BLOCK
  5
24
330
23
100
AcDbEntity
  8
0
100
AcDbBlockBegin
  2
*Paper_Space0
 70
     0
 10
0.0
 20
0.0
 30
0.0
  3
*Paper_Space0
  1

  0
ENDBLK
  5
25
330
23
100
AcDbEntity
  8
0
100
AcDbBlockEnd
  0
BLOCK
  5
80
330
7F
100
AcDbEntity
  8
0
100
AcDbBlockBegin
  2
블럭10
 70
     2
 10
0.0
 20
0.0
 30
0.0
  3
블럭10
  1

  0
ELLIPSE
  5
82
330
7F
100
AcDbEntity
  8
중심선
100
AcDbEllipse
 10
20.54032771741204
 20
12.0471743016438
 30
0.0
 11
6.600054785286829
 21
-1.261213355974178E-13
 31
0.0
210
0.0
220
0.0
230
1.0
 40
0.636358354079598
 41
0.9219305317359503
 42
6.513795318482858
  0
ELLIPSE
  5
83
330
7F
100
AcDbEntity
  8
중심선
100
AcDbEllipse
 10
20.54032771746488
 20
12.04717430159265
 30
0.0
 11
3.960054785062283
 21
1.540847449632565E-10
 31
0.0
210
0.0
220
0.0
230
1.0
 40
0.3939339440162632
 41
1.131841032648279
 42
5.62031148352944
  0
LINE
  5
84
330
7F
100
AcDbEntity
  8
중심선
100
AcDbLine
 10
2.268634060543552
 20
16.24717430164393
 30
0.0
 11
5.714909304380834
 21
16.24717430164393
 31
0.0
  0
LINE
  5
85
330
7F
100
AcDbEntity
  8
중심선
100
AcDbLine
 10
5.245725140726316
 20
7.84717430164391
 30
0.0
 11
8.692000384563599
 21
7.84717430164391
 31
0.0
  0
LINE
  5
86
330
7F
100
AcDbEntity
  8
중심선
100
AcDbLine
 10
15.74043728645272
 20
16.24717430164393
 30
0.0
 11
8.692000384563599
 21
7.84717430164391
 31
0.0
  0
LINE
  5
87
330
7F
100
AcDbEntity
  8
중심선
100
AcDbLine
 10
0.1404042013395286
 20
13.71084872107135
 30
0.0
 11
3.58671253028996
 21
13.71088815037384
 31
0.0
  0
LINE
  5
88
330
7F
100
AcDbEntity
  8
중심선
100
AcDbLine
 10
2.750260043222114
 20
10.84717430164391
 30
0.0
 11
6.196535287059397
 21
10.84717430164391
 31
0.0
  0
LINE
  5
89
330
7F
100
AcDbEntity
  8
중심선
100
AcDbLine
 10
12.29416204261559
 20
16.24717430164393
 30
0.0
 11
5.245725140726316
 21
7.84717430164391
 31
0.0
  0
LINE
  5
8A
330
7F
100
AcDbEntity
  8
중심선
100
AcDbLine
 10
10.72767329541681
 20
16.24717430164393
 30
0.0
 11
6.196535287059397
 21
10.84717430164391
 31
0.0
  0
LINE
  5
8B
330
7F
100
AcDbEntity
  8
중심선
100
AcDbLine
 10
7.28139805157953
 20
16.24717430164393
 30
0.0
 11
2.750260043222114
 21
10.84717430164391
 31
0.0
  0
LINE
  5
8C
330
7F
100
AcDbEntity
  8
중심선
100
AcDbLine
 10
5.714909304380834
 20
16.24717430164393
 30
0.0
 11
3.58671253028996
 21
13.71088815037384
 31
0.0
  0
LINE
  5
8D
330
7F
100
AcDbEntity
  8
중심선
100
AcDbLine
 10
2.268634060543552
 20
16.24717430164393
 30
0.0
 11
0.1404042013395286
 21
13.71084872107135
 31
0.0
  0
LINE
  5
8E
330
7F
100
AcDbEntity
  8
중심선
100
AcDbLine
 10
7.28139805157953
 20
16.24717430164393
 30
0.0
 11
10.72767329541681
 21
16.24717430164393
 31
0.0
  0
LINE
  5
8F
330
7F
100
AcDbEntity
  8
중심선
100
AcDbLine
 10
12.29416204261559
 20
16.24717430164393
 30
0.0
 11
15.74043728645272
 21
16.24717430164393
 31
0.0
  0
LINE
  5
90
330
7F
100
AcDbEntity
  8
중심선
100
AcDbLine
 10
19.22036997980202
 20
11.08717430171403
 30
0.0
 11
23.66174974927406
 21
11.08717430171406
 31
0.0
  0
LINE
  5
91
330
7F
100
AcDbEntity
  8
중심선
100
AcDbLine
 10
19.22039502424796
 20
13.00717430171391
 30
0.0
 11
19.22036997980202
 21
11.08717430171403
 31
0.0
  0
LINE
  5
92
330
7F
100
AcDbEntity
  8
중심선
100
AcDbLine
 10
19.22039502424796
 20
13.00717430171391
 30
0.0
 11
26.96566020931264
 21
13.00717430171391
 31
0.0
  0
LINE
  5
93
330
7F
100
AcDbEntity
  8
중심선
100
AcDbLine
 10
22.22332737316547
 20
13.45928029700563
 30
0.0
 11
24.52862924686651
 21
15.39360700705356
 31
0.0
  0
ATTDEF
  5
95
330
7F
100
AcDbEntity
  8
FORMAT
 62
     2
100
AcDbText
 10
4.408487351596664
 20
2.075366912832191
 30
0.0
 40
4.233333333333333
  1
E5074008
 41
0.75
  7
SLDTEXTSTYLE0
 11
4.408487351596664
 21
-0.0412997538344756
 31
0.0
100
AcDbAttributeDefinition
  3

  2
AUTOATTR0
 70
     0
 74
     1
  0
ENDBLK
  5
81
330
7F
100
AcDbEntity
  8
0
100
AcDbBlockEnd
  0
BLOCK
  5
D6
330
D5
100
AcDbEntity
  8
0
100
AcDbBlockBegin
  2
_D
 70
     0
 10
0.0
 20
0.0
 30
0.0
  3
_D
  1

  0
LINE
  5
D8
330
D5
100
AcDbEntity
  8
치수문자_일반주서
 62
     0
370
    -2
100
AcDbLine
 10
-15.4
 20
1.649613644135798
 30
0.0
 11
-15.4
 21
48.11842114713498
 31
0.0
  0
LINE
  5
D9
330
D5
100
AcDbEntity
  8
치수문자_일반주서
 62
     0
370
    -2
100
AcDbLine
 10
22.70000000000001
 20
1.649999999999998
 30
0.0
 11
22.70000000000001
 21
48.11842114713498
 31
0.0
  0
LINE
  5
DA
330
D5
100
AcDbEntity
  8
치수문자_일반주서
 62
     0
370
    -2
100
AcDbLine
 10
-12.098
 20
48.11842114713498
 30
0.0
 11
19.39800000000001
 21
48.11842114713498
 31
0.0
  0
SOLID
  5
DB
330
D5
100
AcDbEntity
  8
치수문자_일반주서
 62
     0
100
AcDbTrace
 10
-12.098
 20
48.66875448046832
 30
0.0
 11
-12.098
 21
47.56808781380165
 31
0.0
 12
-15.4
 22
48.11842114713498
 32
0.0
 13
-15.4
 23
48.11842114713498
 33
0.0
  0
SOLID
  5
DC
330
D5
100
AcDbEntity
  8
치수문자_일반주서
 62
     0
100
AcDbTrace
 10
19.39800000000001
 20
47.56808781380165
 30
0.0
 11
19.39800000000001
 21
48.66875448046832
 31
0.0
 12
22.70000000000001
 22
48.11842114713498
 32
0.0
 13
22.70000000000001
 23
48.11842114713498
 33
0.0
  0
MTEXT
  5
DD
330
D5
100
AcDbEntity
  8
치수문자_일반주서
 62
     0
100
AcDbMText
 10
3.650000000000013
 20
52.49342114713498
 30
0.0
 40
3.5
 41
0.0
 71
     2
 72
     1
  1
\A1;38.1 [1 1/2]
  7
SLDTEXTSTYLE0
 73
     1
 44
1.0
  0
POINT
  5
DE
330
D5
100
AcDbEntity
  8
Defpoints
 62
     0
100
AcDbPoint
 10
-15.4
 20
1.587113644135798
 30
0.0
  0
POINT
  5
DF
330
D5
100
AcDbEntity
  8
Defpoints
 62
     0
100
AcDbPoint
 10
22.70000000000001
 20
1.587499999999998
 30
0.0
  0
POINT
  5
E0
330
D5
100
AcDbEntity
  8
Defpoints
 62
     0
100
AcDbPoint
 10
22.70000000000001
 20
48.11842114713498
 30
0.0
  0
ENDBLK
  5
D7
330
D5
100
AcDbEntity
  8
0
100
AcDbBlockEnd
  0
BLOCK
  5
EA
330
E9
100
AcDbEntity
  8
0
100
AcDbBlockBegin
  2
_D_1
 70
     0
 10
0.0
 20
0.0
 30
0.0
  3
_D_1
  1

  0
LINE
  5
EC
330
E9
100
AcDbEntity
  8
치수문자_일반주서
 62
     0
370
    -2
100
AcDbLine
 10
-15.46213112105456
 20
1.587499999999994
 30
0.0
 11
-25.39999999999998
 21
1.587499999999959
 31
0.0
  0
LINE
  5
ED
330
E9
100
AcDbEntity
  8
치수문자_일반주서
 62
     0
370
    -2
100
AcDbLine
 10
-15.45094817880357
 20
-1.587499999999995
 30
0.0
 11
-25.39999999999997
 21
-1.587500000000031
 31
0.0
  0
LINE
  5
EE
330
E9
100
AcDbEntity
  8
치수문자_일반주서
 62
     0
370
    -2
100
AcDbLine
 10
-25.39999999999998
 20
1.587499999999959
 30
0.0
 11
-25.40000000000009
 21
32.69149999999996
 31
0.0
  0
LINE
  5
EF
330
E9
100
AcDbEntity
  8
치수문자_일반주서
 62
     0
370
    -2
100
AcDbLine
 10
-25.39999999999998
 20
1.587499999999959
 30
0.0
 11
-25.39999999999997
 21
-1.587500000000031
 31
0.0
  0
LINE
  5
F0
330
E9
100
AcDbEntity
  8
치수문자_일반주서
 62
     0
370
    -2
100
AcDbLine
 10
-25.4
 20
4.889499999999959
 30
0.0
 11
-25.40000000000001
 21
8.191499999999959
 31
0.0
  0
LINE
  5
F1
330
E9
100
AcDbEntity
  8
치수문자_일반주서
 62
     0
370
    -2
100
AcDbLine
 10
-25.39999999999996
 20
-4.88950000000003
 30
0.0
 11
-25.39999999999995
 21
-8.19150000000003
 31
0.0
  0
SOLID
  5
F2
330
E9
100
AcDbEntity
  8
치수문자_일반주서
 62
     0
100
AcDbTrace
 10
-25.95033333333333
 20
4.889499999999957
 30
0.0
 11
-24.84966666666666
 21
4.889499999999961
 31
0.0
 12
-25.39999999999998
 22
1.587499999999959
 32
0.0
 13
-25.39999999999998
 23
1.587499999999959
 33
0.0
  0
SOLID
  5
F3
330
E9
100
AcDbEntity
  8
치수문자_일반주서
 62
     0
100
AcDbTrace
 10
-24.84966666666663
 20
-4.889500000000028
 30
0.0
 11
-25.9503333333333
 21
-4.889500000000032
 31
0.0
 12
-25.39999999999997
 22
-1.587500000000031
 32
0.0
 13
-25.39999999999997
 23
-1.587500000000031
 33
0.0
  0
MTEXT
  5
F4
330
E9
100
AcDbEntity
  8
치수문자_일반주서
 62
     0
100
AcDbMText
 10
-29.77500000000005
 20
20.44149999999995
 30
0.0
 40
3.5
 41
0.0
 71
     2
 72
     1
  1
\A1;%%c3.18 [1/8]
  7
SLDTEXTSTYLE0
 11
-3.356894814614657E-15
 21
1.0
 31
0.0
 73
     1
 44
1.0
  0
POINT
  5
159
330
E9
100
AcDbEntity
  8
Defpoints
 62
     0
100
AcDbPoint
 10
-15.39963112105456
 20
1.587499999999995
 30
0.0
  0
POINT
  5
15A
330
E9
100
AcDbEntity
  8
Defpoints
 62
     0
100
AcDbPoint
 10
-15.38844817880357
 20
-1.587499999999995
 30
0.0
  0
POINT
  5
167
330
E9
100
AcDbEntity
  8
Defpoints
 62
     0
100
AcDbPoint
 10
-25.39999999999997
 20
-1.587500000000033
 30
0.0
  0
ENDBLK
  5
EB
330
E9
100
AcDbEntity
  8
0
100
AcDbBlockEnd
  0
BLOCK
  5
FF
330
FE
100
AcDbEntity
  8
0
100
AcDbBlockBegin
  2
_D_2
 70
     0
 10
0.0
 20
0.0
 30
0.0
  3
_D_2
  1

  0
LINE
  5
101
330
FE
100
AcDbEntity
  8
치수문자_일반주서
 62
     0
370
    -2
100
AcDbLine
 10
22.7
 20
1.649802957895413
 30
0.0
 11
22.7
 21
24.39358781380162
 31
0.0
  0
LINE
  5
102
330
FE
100
AcDbEntity
  8
치수문자_일반주서
 62
     0
370
    -2
100
AcDbLine
 10
10.00000000000001
 20
1.649505799220584
 30
0.0
 11
10.00000000000001
 21
24.39358781380162
 31
0.0
  0
LINE
  5
103
330
FE
100
AcDbEntity
  8
치수문자_일반주서
 62
     0
370
    -2
100
AcDbLine
 10
22.7
 20
24.39358781380162
 30
0.0
 11
51.17900000000002
 21
24.39358781380162
 31
0.0
  0
LINE
  5
104
330
FE
100
AcDbEntity
  8
치수문자_일반주서
 62
     0
370
    -2
100
AcDbLine
 10
19.398
 20
24.39358781380162
 30
0.0
 11
13.30200000000001
 21
24.39358781380162
 31
0.0
  0
SOLID
  5
105
330
FE
100
AcDbEntity
  8
치수문자_일반주서
 62
     0
100
AcDbTrace
 10
19.398
 20
23.84325448046828
 30
0.0
 11
19.398
 21
24.94392114713495
 31
0.0
 12
22.7
 22
24.39358781380162
 32
0.0
 13
22.7
 23
24.39358781380162
 33
0.0
  0
SOLID
  5
106
330
FE
100
AcDbEntity
  8
치수문자_일반주서
 62
     0
100
AcDbTrace
 10
13.30200000000001
 20
24.94392114713495
 30
0.0
 11
13.30200000000001
 21
23.84325448046828
 31
0.0
 12
10.00000000000001
 22
24.39358781380162
 32
0.0
 13
10.00000000000001
 23
24.39358781380162
 33
0.0
  0
MTEXT
  5
107
330
FE
100
AcDbEntity
  8
치수문자_일반주서
 62
     0
100
AcDbMText
 10
40.24150000000002
 20
28.76858781380162
 30
0.0
 40
3.5
 41
0.0
 71
     2
 72
     1
  1
\A1;12.7 [1/2]
  7
SLDTEXTSTYLE0
 73
     1
 44
1.0
  0
POINT
  5
108
330
FE
100
AcDbEntity
  8
Defpoints
 62
     0
100
AcDbPoint
 10
22.7
 20
1.587302957895413
 30
0.0
  0
POINT
  5
109
330
FE
100
AcDbEntity
  8
Defpoints
 62
     0
100
AcDbPoint
 10
10.00000000000001
 20
1.587005799220584
 30
0.0
  0
POINT
  5
168
330
FE
100
AcDbEntity
  8
Defpoints
 62
     0
100
AcDbPoint
 10
10.00000000000001
 20
24.39358781380162
 30
0.0
  0
ENDBLK
  5
100
330
FE
100
AcDbEntity
  8
0
100
AcDbBlockEnd
  0
BLOCK
  5
114
330
113
100
AcDbEntity
  8
0
100
AcDbBlockBegin
  2
_D_3
 70
     0
 10
0.0
 20
0.0
 30
0.0
  3
_D_3
  1

  0
LINE
  5
116
330
113
100
AcDbEntity
  8
치수문자_일반주서
 62
     0
370
    -2
100
AcDbLine
 10
22.76250000000001
 20
1.587499999999998
 30
0.0
 11
59.46175930766177
 21
1.587500000000135
 31
0.0
  0
LINE
  5
117
330
113
100
AcDbEntity
  8
치수문자_일반주서
 62
     0
370
    -2
100
AcDbLine
 10
22.76250000000001
 20
-1.527582568840869
 30
0.0
 11
59.46175930766178
 21
-1.527582568840732
 31
0.0
  0
LINE
  5
118
330
113
100
AcDbEntity
  8
치수문자_일반주서
 62
     0
370
    -2
100
AcDbLine
 10
59.46175930766177
 20
1.587500000000135
 30
0.0
 11
59.46175930766161
 21
35.84573236837409
 31
0.0
  0
LINE
  5
119
330
113
100
AcDbEntity
  8
치수문자_일반주서
 62
     0
370
    -2
100
AcDbLine
 10
59.46175930766177
 20
1.587500000000135
 30
0.0
 11
59.46175930766178
 21
-1.527582568840732
 31
0.0
  0
LINE
  5
11A
330
113
100
AcDbEntity
  8
치수문자_일반주서
 62
     0
370
    -2
100
AcDbLine
 10
59.46175930766175
 20
4.889500000000135
 30
0.0
 11
59.46175930766174
 21
8.191500000000135
 31
0.0
  0
LINE
  5
11B
330
113
100
AcDbEntity
  8
치수문자_일반주서
 62
     0
370
    -2
100
AcDbLine
 10
59.46175930766179
 20
-4.829582568840732
 30
0.0
 11
59.46175930766181
 21
-8.131582568840733
 31
0.0
  0
SOLID
  5
11C
330
113
100
AcDbEntity
  8
치수문자_일반주서
 62
     0
100
AcDbTrace
 10
58.91142597432842
 20
4.889500000000132
 30
0.0
 11
60.01209264099509
 21
4.889500000000138
 31
0.0
 12
59.46175930766177
 22
1.587500000000135
 32
0.0
 13
59.46175930766177
 23
1.587500000000135
 33
0.0
  0
SOLID
  5
11D
330
113
100
AcDbEntity
  8
치수문자_일반주서
 62
     0
100
AcDbTrace
 10
60.01209264099513
 20
-4.829582568840729
 30
0.0
 11
58.91142597432846
 21
-4.829582568840735
 31
0.0
 12
59.46175930766178
 22
-1.527582568840732
 32
0.0
 13
59.46175930766178
 23
-1.527582568840732
 33
0.0
  0
MTEXT
  5
11E
330
113
100
AcDbEntity
  8
치수문자_일반주서
 62
     0
100
AcDbMText
 10
60.33675930766167
 20
23.59573236837408
 30
0.0
 40
3.5
 41
0.0
 71
     2
 72
     1
  1
\A1;%%c3.12 [1/8]
  7
SLDTEXTSTYLE0
 11
-4.561951216750545E-15
 21
1.0
 31
0.0
 73
     1
 44
1.0
  0
POINT
  5
11F
330
113
100
AcDbEntity
  8
Defpoints
 62
     0
100
AcDbPoint
 10
22.70000000000001
 20
1.587499999999998
 30
0.0
  0
POINT
  5
120
330
113
100
AcDbEntity
  8
Defpoints
 62
     0
100
AcDbPoint
 10
22.70000000000001
 20
-1.527582568840869
 30
0.0
  0
POINT
  5
121
330
113
100
AcDbEntity
  8
Defpoints
 62
     0
100
AcDbPoint
 10
59.46175930766178
 20
-1.527582568840732
 30
0.0
  0
ENDBLK
  5
115
330
113
100
AcDbEntity
  8
0
100
AcDbBlockEnd
  0
BLOCK
  5
12E
330
12D
100
AcDbEntity
  8
0
100
AcDbBlockBegin
  2
SW_DOWELSYMBOL_0
 70
     0
 10
0.0
 20
0.0
 30
0.0
  3
SW_DOWELSYMBOL_0
  1

  0
CIRCLE
  5
130
330
12D
100
AcDbEntity
  8
해칭선
 62
     0
100
AcDbCircle
 10
0.0
 20
0.0
 30
0.0
 40
3.000000000000002
  0
HATCH
  5
131
330
12D
100
AcDbEntity
  8
0
  6
Continuous
 62
     0
370
     0
100
AcDbHatch
 10
0.0
 20
0.0
 30
0.0
210
0.0
220
0.0
230
1.0
  2
SOLID
 70
     1
 71
     0
 91
        1
 92
        0
 93
        3
 72
     2
 10
0.0000000000000069
 20
0.0
 40
3.000000000000002
 50
0.0
 51
90.0
 73
     1
 72
     1
 10
0.0000000000000069
 20
3.000000000000002
 11
0.0000000000000069
 21
0.0
 72
     1
 10
0.0000000000000069
 20
0.0
 11
3.000000000000009
 21
0.0
 97
        0
 75
     0
 76
     1
 98
        1
 10
0.0
 20
0.0
  0
HATCH
  5
132
330
12D
100
AcDbEntity
  8
0
  6
Continuous
 62
     0
370
     0
100
AcDbHatch
 10
0.0
 20
0.0
 30
0.0
210
0.0
220
0.0
230
1.0
  2
SOLID
 70
     1
 71
     0
 91
        1
 92
        0
 93
        3
 72
     2
 10
0.0000000000000069
 20
0.0
 40
3.000000000000002
 50
180.0
 51
270.0000000000007
 73
     1
 72
     1
 10
0.0000000000000069
 20
-3.000000000000002
 11
0.0000000000000069
 21
0.0
 72
     1
 10
0.0000000000000069
 20
0.0
 11
-2.999999999999995
 21
0.0
 97
        0
 75
     0
 76
     1
 98
        1
 10
0.0
 20
0.0
  0
ENDBLK
  5
12F
330
12D
100
AcDbEntity
  8
0
100
AcDbBlockEnd
  0
BLOCK
  5
1DA
330
1D9
100
AcDbEntity
  8
0
100
AcDbBlockBegin
  2
*D7
 70
     1
 10
0.0
 20
0.0
 30
0.0
  3
*D7
  1

  0
LINE
  5
1DC
330
1D9
100
AcDbEntity
  8
0
 62
     0
370
    -2
100
AcDbLine
 10
50.9122754907988
 20
-14.41704561368429
 30
0.0
 11
30.1382754907988
 21
-14.41704561368429
 31
0.0
  0
LINE
  5
1DD
330
1D9
100
AcDbEntity
  8
0
 62
     0
370
    -2
100
AcDbLine
 10
30.1382754907988
 20
-14.41704561368429
 30
0.0
 11
24.02426388544296
 21
-2.073751357521312
 31
0.0
  0
LINE
  5
1DE
330
1D9
100
AcDbEntity
  8
0
 62
     0
370
    -2
100
AcDbLine
 10
20.86750952435822
 20
4.29927350542819
 30
0.0
 11
19.40187357099745
 21
7.258177906083317
 31
0.0
  0
MTEXT
  5
1DF
330
1D9
100
AcDbEntity
  8
0
 62
     0
100
AcDbMText
 10
44.49560882413213
 20
-10.85137894701762
 30
0.0
 40
3.5
 41
0.0
 71
     5
 72
     1
  1
%%c0,51
 73
     1
 44
1.0
  0
LINE
  5
1E0
330
1D9
100
AcDbEntity
  8
0
 62
     0
370
    -2
100
AcDbLine
 10
22.33314547771899
 20
1.340369104773064
 30
0.0
 11
22.55862793208219
 21
0.8851530431338137
 31
0.0
  0
SOLID
  5
1E1
330
1D9
100
AcDbEntity
  8
0
 62
     0
100
AcDbTrace
 10
20.3743587909157
 20
4.055000846534729
 30
0.0
 11
21.36066025780074
 21
4.543546164321651
 31
0.0
 12
22.33314547771899
 22
1.340369104773064
 32
0.0
 13
22.33314547771899
 23
1.340369104773064
 33
0.0
  0
SOLID
  5
1E2
330
1D9
100
AcDbEntity
  8
0
 62
     0
100
AcDbTrace
 10
24.51741461888548
 20
-1.829478698627851
 30
0.0
 11
23.53111315200043
 21
-2.318024016414774
 31
0.0
 12
22.55862793208219
 22
0.8851530431338137
 32
0.0
 13
22.55862793208219
 23
0.8851530431338137
 33
0.0
  0
ARC
  5
1E3
330
1D9
100
AcDbEntity
  8
0
 62
     0
370
    -2
100
AcDbCircle
 10
22.44588670490059
 20
1.112761073953439
 30
0.0
 40
0.2540000000000003
100
AcDbArc
 50
116.3514333810297
 51
359.3719576535967
  0
POINT
  5
1E4
330
1D9
100
AcDbEntity
  8
Defpoints
 62
     0
100
AcDbPoint
 10
22.55862793208219
 20
0.8851530431338137
 30
0.0
  0
POINT
  5
1E5
330
1D9
100
AcDbEntity
  8
Defpoints
 62
     0
100
AcDbPoint
 10
22.33314547771899
 20
1.340369104773064
 30
0.0
  0
ENDBLK
  5
1DB
330
1D9
100
AcDbEntity
  8
0
100
AcDbBlockEnd
  0
BLOCK
  5
1F1
330
1F0
100
AcDbEntity
  8
0
100
AcDbBlockBegin
  2
*D8
 70
     1
 10
0.0
 20
0.0
 30
0.0
  3
*D8
  1

  0
LINE
  5
1F3
330
1F0
100
AcDbEntity
  8
0
 62
     0
370
    -2
100
AcDbLine
 10
40.56296670055499
 20
6.848305427819558
 30
0.0
 11
26.20563336722167
 21
6.848305427819558
 31
0.0
  0
LINE
  5
1F4
330
1F0
100
AcDbEntity
  8
0
 62
     0
370
    -2
100
AcDbLine
 10
26.20563336722167
 20
6.848305427819558
 30
0.0
 11
24.39538497425226
 21
4.086747035217353
 31
0.0
  0
LINE
  5
1F5
330
1F0
100
AcDbEntity
  8
0
 62
     0
370
    -2
100
AcDbLine
 10
20.49638843554892
 20
-1.861224887310475
 30
0.0
 11
18.68614004257951
 21
-4.622783279912681
 31
0.0
  0
MTEXT
  5
1F6
330
1F0
100
AcDbEntity
  8
0
 62
     0
100
AcDbMText
 10
34.14630003388833
 20
10.41397209448622
 30
0.0
 40
3.5
 41
0.0
 71
     5
 72
     1
  1
%%c0,51
 73
     1
 44
1.0
  0
LINE
  5
1F7
330
1F0
100
AcDbEntity
  8
0
 62
     0
370
    -2
100
AcDbLine
 10
22.30663682851833
 20
0.9003335052917307
 30
0.0
 11
22.58513658128285
 21
1.325188642615147
 31
0.0
  0
SOLID
  5
1F8
330
1F0
100
AcDbEntity
  8
0
 62
     0
100
AcDbTrace
 10
20.95664816764928
 20
-2.162932952805376
 30
0.0
 11
20.03612870344855
 21
-1.559516821815574
 31
0.0
 12
22.30663682851833
 22
0.9003335052917307
 32
0.0
 13
22.30663682851833
 23
0.9003335052917307
 33
0.0
  0
SOLID
  5
1F9
330
1F0
100
AcDbEntity
  8
0
 62
     0
100
AcDbTrace
 10
23.93512524215189
 20
4.388455100712255
 30
0.0
 11
24.85564470635263
 21
3.785038969722452
 31
0.0
 12
22.58513658128285
 22
1.325188642615147
 32
0.0
 13
22.58513658128285
 23
1.325188642615147
 33
0.0
  0
POINT
  5
1FA
330
1F0
100
AcDbEntity
  8
Defpoints
 62
     0
100
AcDbPoint
 10
22.58513658128285
 20
1.325188642615147
 30
0.0
  0
POINT
  5
1FB
330
1F0
100
AcDbEntity
  8
Defpoints
 62
     0
100
AcDbPoint
 10
22.30663682851833
 20
0.9003335052917307
 30
0.0
  0
ENDBLK
  5
1F2
330
1F0
100
AcDbEntity
  8
0
100
AcDbBlockEnd
  0
BLOCK
  5
200
330
1FF
100
AcDbEntity
  8
0
100
AcDbBlockBegin
  2
*D9
 70
     1
 10
0.0
 20
0.0
 30
0.0
  3
*D9
  1

  0
LINE
  5
202
330
1FF
100
AcDbEntity
  8
0
 62
     0
370
    -2
100
AcDbLine
 10
73.26088850291293
 20
14.94631149490441
 30
0.0
 11
36.1535551695796
 21
14.94631149490441
 31
0.0
  0
LINE
  5
203
330
1FF
100
AcDbEntity
  8
0
 62
     0
370
    -2
100
AcDbLine
 10
36.1535551695796
 20
14.94631149490441
 30
0.0
 11
24.94883944165491
 21
3.638699235820043
 31
0.0
  0
MTEXT
  5
204
330
1FF
100
AcDbEntity
  8
0
 62
     0
100
AcDbMText
 10
55.46922183624627
 20
18.51197816157108
 30
0.0
 40
3.5
 41
0.0
 71
     5
 72
     1
  1
R0,25 [R,010]
 73
     1
 44
1.0
  0
LINE
  5
205
330
1FF
100
AcDbEntity
  8
0
 62
     0
370
    -2
100
AcDbLine
 10
22.44588670490059
 20
1.112761073953439
 30
0.0
 11
22.62466904324018
 21
1.293185228372482
 31
0.0
  0
SOLID
  5
206
330
1FF
100
AcDbEntity
  8
0
 62
     0
100
AcDbTrace
 10
24.55792044041365
 20
4.026060968889165
 30
0.0
 11
25.33975844289617
 21
3.251337502750922
 31
0.0
 12
22.62466904324018
 22
1.293185228372482
 32
0.0
 13
22.62466904324018
 23
1.293185228372482
 33
0.0
  0
POINT
  5
207
330
1FF
100
AcDbEntity
  8
Defpoints
 62
     0
100
AcDbPoint
 10
22.62466904324018
 20
1.293185228372482
 30
0.0
  0
POINT
  5
20A
330
1FF
100
AcDbEntity
  8
Defpoints
 62
     0
100
AcDbPoint
 10
22.44588670490059
 20
1.112761073953439
 30
0.0
  0
ENDBLK
  5
201
330
1FF
100
AcDbEntity
  8
0
100
AcDbBlockEnd
  0
BLOCK
  5
236
330
235
100
AcDbEntity
  8
0
100
AcDbBlockBegin
  2
*D10
 70
     1
 10
0.0
 20
0.0
 30
0.0
  3
*D10
  1

  0
LINE
  5
237
330
235
100
AcDbEntity
  8
0
 62
     0
370
    -2
100
AcDbLine
 10
50.81500179801236
 20
13.83355042095097
 30
0.0
 11
13.70766846467902
 21
13.83355042095097
 31
0.0
  0
LINE
  5
238
330
235
100
AcDbEntity
  8
0
 62
     0
370
    -2
100
AcDbLine
 10
13.70766846467902
 20
13.83355042095097
 30
0.0
 11
2.502952736754323
 21
2.525938161866605
 31
0.0
  0
MTEXT
  5
239
330
235
100
AcDbEntity
  8
0
 62
     0
100
AcDbMText
 10
33.02333513134569
 20
17.39921708761764
 30
0.0
 40
3.5
 41
0.0
 71
     5
 72
     1
  1
R0,25 [R,010]
 73
     1
 44
1.0
  0
LINE
  5
23A
330
235
100
AcDbEntity
  8
0
 62
     0
370
    -2
100
AcDbLine
 10
0.0
 20
0.0000000000000002
 30
0.0
 11
0.1787823383395946
 21
0.1804241544190435
 31
0.0
  0
SOLID
  5
23B
330
235
100
AcDbEntity
  8
0
 62
     0
100
AcDbTrace
 10
2.112033735513063
 20
2.913299894935726
 30
0.0
 11
2.893871737995584
 21
2.138576428797483
 31
0.0
 12
0.1787823383395946
 22
0.1804241544190435
 32
0.0
 13
0.1787823383395946
 23
0.1804241544190435
 33
0.0
  0
POINT
  5
23C
330
235
100
AcDbEntity
  8
Defpoints
 62
     0
100
AcDbPoint
 10
0.1787823383395946
 20
0.1804241544190435
 30
0.0
  0
POINT
  5
23D
330
235
100
AcDbEntity
  8
Defpoints
 62
     0
100
AcDbPoint
 10
0.0
 20
0.0000000000000002
 30
0.0
  0
ENDBLK
  5
23E
330
235
100
AcDbEntity
  8
0
100
AcDbBlockEnd
  0
BLOCK
  5
247
330
246
100
AcDbEntity
  8
0
100
AcDbBlockBegin
  2
*D11
 70
     1
 10
0.0
 20
0.0
 30
0.0
  3
*D11
  1

  0
LINE
  5
249
330
246
100
AcDbEntity
  8
0
 62
     0
370
    -2
100
AcDbLine
 10
69.90940727895855
 20
-16.08984902235135
 30
0.0
 11
32.80207394562521
 21
-16.08984902235135
 31
0.0
  0
LINE
  5
24A
330
246
100
AcDbEntity
  8
0
 62
     0
370
    -2
100
AcDbLine
 10
32.80207394562521
 20
-16.08984902235135
 30
0.0
 11
24.50316516166733
 21
-4.294018274195381
 31
0.0
  0
MTEXT
  5
24B
330
246
100
AcDbEntity
  8
0
 62
     0
100
AcDbMText
 10
52.11774061229188
 20
-12.52418235568468
 30
0.0
 40
3.5
 41
0.0
 71
     5
 72
     1
  1
R0,25 [R,010]
 73
     1
 44
1.0
  0
LINE
  5
24C
330
246
100
AcDbEntity
  8
0
 62
     0
370
    -2
100
AcDbLine
 10
22.45701749732313
 20
-1.385682713140092
 30
0.0
 11
22.60317090191915
 21
-1.593420967501183
 31
0.0
  0
SOLID
  5
24D
330
246
100
AcDbEntity
  8
0
 62
     0
100
AcDbTrace
 10
24.95326471278303
 20
-3.97735256423735
 30
0.0
 11
24.05306561055163
 21
-4.610683984153411
 31
0.0
 12
22.60317090191915
 22
-1.593420967501183
 32
0.0
 13
22.60317090191915
 23
-1.593420967501183
 33
0.0
  0
ARC
  5
24E
330
246
100
AcDbEntity
  8
0
 62
     0
370
    -2
100
AcDbCircle
 10
22.45701749732313
 20
-1.385682713140092
 30
0.0
 40
0.253999999999999
100
AcDbArc
 50
125.1289572577811
 51
359.3719576535967
  0
POINT
  5
24F
330
246
100
AcDbEntity
  8
Defpoints
 62
     0
100
AcDbPoint
 10
22.60317090191915
 20
-1.593420967501183
 30
0.0
  0
POINT
  5
250
330
246
100
AcDbEntity
  8
Defpoints
 62
     0
100
AcDbPoint
 10
22.45701749732313
 20
-1.385682713140092
 30
0.0
  0
ENDBLK
  5
248
330
246
100
AcDbEntity
  8
0
100
AcDbBlockEnd
  0
ENDSEC
  0
SECTION
  2
ENTITIES
  0
LINE
  5
96
330
1F
100
AcDbEntity
  8
외형선
  6
Continuous
370
    15
100
AcDbLine
 10
9.109822978557332
 20
1.587499999999999
 30
0.0
 11
-14.9
 21
1.587499999999999
 31
0.0
  0
LINE
  5
97
330
1F
100
AcDbEntity
  8
외형선
  6
Continuous
370
    15
100
AcDbLine
 10
-14.9
 20
-1.587500000000002
 30
0.0
 11
9.914712515280446
 21
-1.587500000000002
 31
0.0
  0
LINE
  5
98
330
1F
100
AcDbEntity
  8
외형선
  6
Continuous
370
    15
100
AcDbLine
 10
-14.9
 20
1.587499999999997
 30
0.0
 11
-15.4
 21
1.087499999999996
 31
0.0
  0
LINE
  5
99
330
1F
100
AcDbEntity
  8
외형선
  6
Continuous
370
    15
100
AcDbLine
 10
-15.4
 20
-1.0875
 30
0.0
 11
-14.9
 21
-1.5875
 31
0.0
  0
LINE
  5
9A
330
1F
100
AcDbEntity
  8
외형선
  6
Continuous
 62
     1
370
    15
100
AcDbLine
 10
19.64856176557075
 20
-1.587500000000002
 30
0.0
 11
19.95835082152512
 21
-1.587500000000002
 31
0.0
  0
LINE
  5
9B
330
1F
100
AcDbEntity
  8
외형선
  6
Continuous
 62
     1
370
    15
100
AcDbLine
 10
11.3194739119623
 20
1.587499999999998
 30
0.0
 11
11.01055834058733
 21
1.587499999999998
 31
0.0
  0
LINE
  5
9C
330
1F
100
AcDbEntity
  8
외형선
  6
Continuous
 62
     1
370
    15
100
AcDbLine
 10
17.07891763230215
 20
1.587499999999998
 30
0.0
 11
16.76905403527382
 21
1.587499999999998
 31
0.0
  0
LINE
  5
9D
330
1F
100
AcDbEntity
  8
외형선
  6
Continuous
 62
     1
370
    15
100
AcDbLine
 10
13.8900439488897
 20
-1.587500000000002
 30
0.0
 11
14.19901747794811
 21
-1.587500000000002
 31
0.0
  0
SPLINE
  5
9E
330
1F
100
AcDbEntity
  8
외형선
  6
Continuous
370
    15
100
AcDbSpline
210
0.0
220
0.0
230
1.0
 70
     8
 71
     3
 72
    10
 73
     6
 74
     0
 42
0.000000001
 43
0.00000001
 40
0.0
 40
0.0
 40
0.0
 40
0.0
 40
0.5
 40
0.5
 40
1.0
 40
1.0
 40
1.0
 40
1.0
 10
10.00000000000916
 20
-1.586730289965127
 30
0.0
 10
9.85117786450327
 20
-1.589399965508077
 30
0.0
 10
9.705254773675161
 20
-1.58514976483703
 30
0.0
 10
9.408495318020876
 20
-1.562859572026264
 30
0.0
 10
9.258499654235411
 20
-1.544755534290782
 30
0.0
 10
9.109822978557332
 20
-1.520033358874517
 30
0.0
  0
SPLINE
  5
9F
330
1F
100
AcDbEntity
  8
외형선
  6
Continuous
370
    15
100
AcDbSpline
210
0.0
220
0.0
230
1.0
 70
     8
 71
     3
 72
    10
 73
     6
 74
     0
 42
0.000000001
 43
0.00000001
 40
0.0
 40
0.0
 40
0.0
 40
0.0
 40
0.5
 40
0.5
 40
1.0
 40
1.0
 40
1.0
 40
1.0
 10
10.00000000000916
 20
-0.2473827108835579
 30
0.0
 10
9.85117786450327
 20
-0.162688982419949
 30
0.0
 10
9.70525477367516
 20
-0.0774693154133836
 30
0.0
 10
9.408495318020876
 20
0.0938408333088062
 30
0.0
 10
9.258499654235411
 20
0.1797682403908317
 30
0.0
 10
9.109822978557332
 20
0.2642853645417544
 30
0.0
  0
SPLINE
  5
A0
330
1F
100
AcDbEntity
  8
외형선
  6
Continuous
370
    15
100
AcDbSpline
210
0.0
220
0.0
230
1.0
 70
    24
 71
     3
 72
    15
 73
    11
 74
     0
 42
0.000000001
 43
0.00000001
 40
0.0
 40
0.0
 40
0.0
 40
0.0
 40
0.0937477483736399
 40
0.2224242035975953
 40
0.3511006588215508
 40
0.4797771140455064
 40
0.6084535692694619
 40
0.7371300244934172
 40
0.8658064797173726
 40
1.0
 40
1.0
 40
1.0
 40
1.0
 10
10.00000000000001
 20
-0.2557215905242435
 30
0.0
 10
10.00000000000001
 20
-0.2645111486018806
 30
0.0
 10
10.00000000000001
 20
-0.2853650943158771
 30
0.0
 10
10.00000000000001
 20
-0.3626809453700953
 30
0.0
 10
10.00000000000001
 20
-0.4855434021551961
 30
0.0
 10
10.00000000000001
 20
-0.648303260859329
 30
0.0
 10
10.00000000000001
 20
-0.8437765468183533
 30
0.0
 10
10.00000000000001
 20
-1.068133362347927
 30
0.0
 10
10.00000000000001
 20
-1.31677698575759
 30
0.0
 10
10.00000000000001
 20
-1.495495551471709
 30
0.0
 10
10.00000000000001
 20
-1.586730289964842
 30
0.0
  0
LINE
  5
A1
330
1F
100
AcDbEntity
  8
외형선
  6
Continuous
370
    15
100
AcDbLine
 10
9.109822978557332
 20
0.2643041459448743
 30
0.0
 11
9.10982297855733
 21
-1.520031914233726
 31
0.0
  0
SPLINE
  5
A2
330
1F
100
AcDbEntity
  8
외형선
  6
Continuous
370
    15
100
AcDbSpline
210
0.0
220
0.0
230
1.0
 70
     8
 71
     3
 72
    10
 73
     6
 74
     0
 42
0.000000001
 43
0.00000001
 40
0.0
 40
0.0
 40
0.0
 40
0.0
 40
0.5
 40
0.5
 40
1.0
 40
1.0
 40
1.0
 40
1.0
 10
10.00000000000916
 20
1.481711433815783
 30
0.0
 10
9.85117786450327
 20
1.450935696813142
 30
0.0
 10
9.70525477367516
 20
1.413914211986191
 30
0.0
 10
9.408495318020876
 20
1.327494131847707
 30
0.0
 10
9.258499654235411
 20
1.278103377372581
 30
0.0
 10
9.109822978557332
 20
1.223487105712108
 30
0.0
  0
LINE
  5
A3
330
1F
100
AcDbEntity
  8
외형선
  6
Continuous
370
    15
100
AcDbLine
 10
9.109822978557332
 20
1.587499999999999
 30
0.0
 11
9.10982297855733
 21
1.156556525386
 31
0.0
  0
SPLINE
  5
A4
330
1F
100
AcDbEntity
  8
외형선
  6
Continuous
370
    15
100
AcDbSpline
210
0.0
220
0.0
230
1.0
 70
     8
 71
     3
 72
    10
 73
     6
 74
     0
 42
0.000000001
 43
0.00000001
 40
0.0
 40
0.0
 40
0.0
 40
0.0
 40
0.4999999999999999
 40
0.4999999999999999
 40
1.0
 40
1.0
 40
1.0
 40
1.0
 10
10.00000000000916
 20
0.7505582801079331
 30
0.0
 10
9.85117786450327
 20
0.8261111503279016
 30
0.0
 10
9.705254773675161
 20
0.8979081388437672
 30
0.0
 10
9.408495318020876
 20
1.033862739935007
 30
0.0
 10
9.258499654235411
 20
1.097838998555127
 30
0.0
 10
9.109822978557332
 20
1.156553094450416
 30
0.0
  0
LINE
  5
A5
330
1F
100
AcDbEntity
  8
외형선
  6
Continuous
370
    15
100
AcDbLine
 10
-14.9
 20
1.587499999999997
 30
0.0
 11
-14.9
 21
-1.587500000000002
 31
0.0
  0
LINE
  5
A6
330
1F
100
AcDbEntity
  8
외형선
  6
Continuous
370
    15
100
AcDbLine
 10
10.00000000000001
 20
0.750558280112578
 30
0.0
 11
10.00000000000001
 21
-0.247382710878351
 31
0.0
  0
LINE
  5
A7
330
1F
100
AcDbEntity
  8
외형선
  6
Continuous
370
    15
100
AcDbLine
 10
-15.4
 20
1.087499999999996
 30
0.0
 11
-15.4
 21
-1.087499999999999
 31
0.0
  0
SPLINE
  5
A8
330
1F
100
AcDbEntity
  8
외형선
  6
Continuous
370
    15
100
AcDbSpline
210
0.0
220
0.0
230
1.0
 70
    24
 71
     3
 72
    16
 73
    12
 74
     0
 42
0.000000001
 43
0.00000001
 40
0.0
 40
0.0
 40
0.0
 40
0.0
 40
0.0896187161386924
 40
0.1796050260230452
 40
0.2701530995238836
 40
0.3614619976124608
 40
0.4777722881573361
 40
0.5660559836621912
 40
0.7146515122015
 40
0.8350863127587481
 40
1.0
 40
1.0
 40
1.0
 40
1.0
 10
10.00000000000001
 20
1.481711433813891
 30
0.0
 10
10.00000000000001
 20
1.452244256284312
 30
0.0
 10
10.00000000000001
 20
1.39318903417161
 30
0.0
 10
10.00000000000001
 20
1.308624019053771
 30
0.0
 10
10.00000000000001
 20
1.227137413559381
 30
0.0
 10
10.00000000000001
 20
1.14243087745076
 30
0.0
 10
10.00000000000001
 20
1.063966431980934
 30
0.0
 10
10.00000000000001
 20
0.9774669123237689
 30
0.0
 10
10.00000000000001
 20
0.899084871785981
 30
0.0
 10
10.00000000000001
 20
0.8158575259908152
 30
0.0
 10
10.00000000000001
 20
0.7744748780609748
 30
0.0
 10
10.00000000000001
 20
0.7505582801123788
 30
0.0
  0
SPLINE
  5
A9
330
1F
100
AcDbEntity
  8
외형선
  6
Continuous
 62
     1
370
    15
100
AcDbSpline
210
0.0
220
0.0
230
1.0
 70
     8
 71
     3
 72
    22
 73
    18
 74
     0
 42
0.000000001
 43
0.00000001
 40
0.0
 40
0.0
 40
0.0
 40
0.0
 40
0.0650254942957435
 40
0.1301015926444551
 40
0.1949724850870778
 40
0.2598636662740555
 40
0.3303833225016555
 40
0.4008815073620812
 40
0.4712412424204349
 40
0.5415699900248421
 40
0.6119758631640233
 40
0.6825310748338776
 40
0.7529742606788399
 40
0.823312589017315
 40
0.8936539715240123
 40
0.9641062557261931
 40
1.0
 40
1.0
 40
1.0
 40
1.0
 10
10.00000000000759
 20
1.481711433815457
 30
0.0
 10
10.2091346690356
 20
1.517573815297132
 30
0.0
 10
10.6275667595933
 20
1.589326487034907
 30
0.0
 10
11.25495651776275
 20
1.594089537844262
 30
0.0
 10
11.88121780488751
 20
1.521845744137541
 30
0.0
 10
12.5250710832063
 20
1.365015554397817
 30
0.0
 10
13.18763368335082
 20
1.126642764436439
 30
0.0
 10
13.86765535178237
 20
0.8133292536149658
 30
0.0
 10
14.5467036547885
 20
0.4503822543160418
 30
0.0
 10
15.22542881457588
 20
0.0601658156147344
 30
0.0
 10
15.90488692364297
 20
-0.333853938880164
 30
0.0
 10
16.58521738370802
 20
-0.7070634886595988
 30
0.0
 10
17.26493228549552
 20
-1.037533467512144
 30
0.0
 10
17.94375680390218
 20
-1.306069453790884
 30
0.0
 10
18.62260443724869
 20
-1.490865942888273
 30
0.0
 10
19.19092310285357
 20
-1.583288693944464
 30
0.0
 10
19.53307813668256
 20
-1.578758892625184
 30
0.0
 10
19.64856176557075
 20
-1.577230001208217
 30
0.0
  0
SPLINE
  5
AA
330
1F
100
AcDbEntity
  8
외형선
  6
Continuous
 62
     1
370
    15
100
AcDbSpline
210
0.0
220
0.0
230
1.0
 70
     8
 71
     3
 72
    24
 73
    20
 74
     0
 42
0.000000001
 43
0.00000001
 40
0.0
 40
0.0
 40
0.0
 40
0.0
 40
0.0511929777311229
 40
0.1026186466058316
 40
0.1538117568481135
 40
0.2052375979030333
 40
0.2564309722002002
 40
0.307857209995357
 40
0.3712134862128716
 40
0.4350149067522476
 40
0.4981756516237353
 40
0.5617755053632753
 40
0.6249358530953931
 40
0.6885339716152589
 40
0.7516942422348377
 40
0.8152911683205902
 40
0.878451678087949
 40
0.9420478432693459
 40
0.9999999999999999
 40
0.9999999999999999
 40
0.9999999999999999
 40
0.9999999999999999
 10
10.00000000000001
 20
0.7178668938255489
 30
0.0
 10
10.1295925205146
 20
0.6553373078931478
 30
0.0
 10
10.38936660779847
 20
0.5299939157797211
 30
0.0
 10
10.77746848077876
 20
0.3254876320574496
 30
0.0
 10
11.1676734805896
 20
0.1178983466499127
 30
0.0
 10
11.55590842414919
 20
-0.094522696087995
 30
0.0
 10
11.94581966821342
 20
-0.3033175593505043
 30
0.0
 10
12.36519490702424
 20
-0.5230567587966594
 30
0.0
 10
12.81701835011492
 20
-0.7454945529900904
 30
0.0
 10
13.29772577316607
 20
-0.9608671509848603
 30
0.0
 10
13.78025779384268
 20
-1.145509933944696
 30
0.0
 10
14.25966652649061
 20
-1.296332355859981
 30
0.0
 10
14.74183780303453
 20
-1.406433990103211
 30
0.0
 10
15.22126795650111
 20
-1.4745390059414
 30
0.0
 10
15.70321568389029
 20
-1.497147220896697
 30
0.0
 10
16.18301099705878
 20
-1.474532278786788
 30
0.0
 10
16.66439964560538
 20
-1.405930774547714
 30
0.0
 10
17.13158519067342
 20
-1.30095318924482
 30
0.0
 10
17.43875409847957
 20
-1.200253116104343
 30
0.0
 10
17.58520696930445
 20
-1.152241047080075
 30
0.0
  0
SPLINE
  5
AB
330
1F
100
AcDbEntity
  8
외형선
  6
Continuous
370
    15
100
AcDbSpline
210
0.0
220
0.0
230
1.0
 70
    24
 71
     3
 72
    12
 73
     8
 74
     0
 42
0.000000001
 43
0.00000001
 40
0.0
 40
0.0
 40
0.0
 40
0.0
 40
0.1778134741677799
 40
0.3586057405147095
 40
0.5901091889167204
 40
0.828326253005548
 40
1.0
 40
1.0
 40
1.0
 40
1.0
 10
10.00000000000001
 20
1.481711433839497
 30
0.0
 10
10.00000000000001
 20
1.423384629125898
 30
0.0
 10
10.00000000000001
 20
1.305753909102729
 30
0.0
 10
10.00000000000001
 20
1.132336767422254
 30
0.0
 10
10.00000000000001
 20
0.9662277076943347
 30
0.0
 10
10.00000000000001
 20
0.830624265723425
 30
0.0
 10
10.00000000000001
 20
0.7741931931512426
 30
0.0
 10
10.00000000000001
 20
0.7505582801123795
 30
0.0
  0
SPLINE
  5
AC
330
1F
100
AcDbEntity
  8
외형선
  6
Continuous
 62
     1
370
    15
100
AcDbSpline
210
0.0
220
0.0
230
1.0
 70
     8
 71
     3
 72
    27
 73
    23
 74
     0
 42
0.000000001
 43
0.00000001
 40
0.0
 40
0.0
 40
0.0
 40
0.0
 40
0.0132592150450529
 40
0.0667248191602153
 40
0.1201904232753778
 40
0.1736560273905401
 40
0.2271216315057028
 40
0.2805872356208651
 40
0.3340528397360276
 40
0.3875184438511901
 40
0.4409840479663524
 40
0.4944496520815148
 40
0.5479152561966771
 40
0.6013808603118395
 40
0.654846464427002
 40
0.7083120685421644
 40
0.7617776726573269
 40
0.8152432767724894
 40
0.8687088808876519
 40
0.9221744850028143
 40
0.9756400891179768
 40
0.9999999999999999
 40
0.9999999999999999
 40
0.9999999999999999
 40
0.9999999999999999
 10
21.01885619550147
 20
-1.466126329695423
 30
0.0
 10
20.9759874636676
 20
-1.476878485769659
 30
0.0
 10
20.76025762072262
 20
-1.530986942959472
 30
0.0
 10
20.37166666666653
 20
-1.576355500915895
 30
0.0
 10
19.8530833333332
 20
-1.5964583697036
 30
0.0
 10
19.33449999999987
 20
-1.555813305003323
 30
0.0
 10
18.81591666666655
 20
-1.461111337531528
 30
0.0
 10
18.29733333333322
 20
-1.314303740275166
 30
0.0
 10
17.7787499999999
 20
-1.120972963587987
 30
0.0
 10
17.26016666666657
 20
-0.8878731787568144
 30
0.0
 10
16.74158333333325
 20
-0.6232967150297387
 30
0.0
 10
16.22299999999992
 20
-0.3366178306473588
 30
0.0
 10
15.70441666666659
 20
-0.0380031828714252
 30
0.0
 10
15.18583333333327
 20
0.2619579222808243
 30
0.0
 10
14.66724999999994
 20
0.5526348358619518
 30
0.0
 10
14.14866666666661
 20
0.8236999377046492
 30
0.0
 10
13.63008333333329
 20
1.065619294321739
 30
0.0
 10
13.11149999999997
 20
1.269525450008282
 30
0.0
 10
12.59291666666664
 20
1.429268451229082
 30
0.0
 10
12.07433333333331
 20
1.535152775883227
 30
0.0
 10
11.64985241509853
 20
1.586979657633361
 30
0.0
 10
11.39823260797486
 20
1.582047564477998
 30
0.0
 10
11.3194739119623
 20
1.580503786068941
 30
0.0
  0
SPLINE
  5
AD
330
1F
100
AcDbEntity
  8
외형선
  6
Continuous
 62
     1
370
    15
100
AcDbSpline
210
0.0
220
0.0
230
1.0
 70
     8
 71
     3
 72
    19
 73
    15
 74
     0
 42
0.000000001
 43
0.00000001
 40
0.0
 40
0.0
 40
0.0
 40
0.0
 40
0.0674449194249612
 40
0.1551778829680679
 40
0.2430969376891254
 40
0.3308763967035617
 40
0.4185251924738157
 40
0.506177794051985
 40
0.5939685905558463
 40
0.6753155353957014
 40
0.7563920073855886
 40
0.8374456003833766
 40
0.9187518999641741
 40
1.0
 40
1.0
 40
1.0
 40
1.0
 10
14.70310524496568
 20
1.153616248823127
 30
0.0
 10
14.87713258231951
 20
1.220842584332092
 30
0.0
 10
15.27753626015596
 20
1.37551754744164
 30
0.0
 10
15.90488725741338
 20
1.523937391696216
 30
0.0
 10
16.58521716993188
 20
1.600514399267583
 30
0.0
 10
17.26493280573163
 20
1.577696403622605
 30
0.0
 10
17.94375493918317
 20
1.459566585070829
 30
0.0
 10
18.62261138202575
 20
1.252607811815525
 30
0.0
 10
19.28542291775661
 20
0.9765058908137896
 30
0.0
 10
19.93162205765035
 20
0.6544386469916323
 30
0.0
 10
20.55972225515873
 20
0.3057161671970663
 30
0.0
 10
21.1876706571909
 20
-0.0582138445436273
 30
0.0
 10
21.81673598641355
 20
-0.4210380678838962
 30
0.0
 10
22.23629540058971
 20
-0.6418710067291039
 30
0.0
 10
22.44599999999983
 20
-0.7522479436118756
 30
0.0
1001
PE_URL
1000

  0
SPLINE
  5
AE
330
1F
100
AcDbEntity
  8
외형선
  6
Continuous
 62
     1
370
    15
100
AcDbSpline
210
0.0
220
0.0
230
1.0
 70
     8
 71
     3
 72
    10
 73
     6
 74
     0
 42
0.000000001
 43
0.00000001
 40
0.0
 40
0.0
 40
0.0
 40
0.0
 40
0.5
 40
0.5
 40
1.0
 40
1.0
 40
1.0
 40
1.0
 10
22.44600000000001
 20
-0.7522479436119666
 30
0.0
 10
22.5111659147244
 20
-0.7853119545591374
 30
0.0
 10
22.57372604197322
 20
-0.8067806525838024
 30
0.0
 10
22.66968743478486
 20
-0.8164196937372474
 30
0.0
 10
22.70000000000001
 20
-0.8039146948970044
 30
0.0
 10
22.70000000000001
 20
-0.7819024271551713
 30
0.0
1001
PE_URL
1000

  0
SPLINE
  5
AF
330
1F
100
AcDbEntity
  8
외형선
  6
Continuous
 62
     1
370
    15
100
AcDbSpline
210
0.0
220
0.0
230
1.0
 70
     8
 71
     3
 72
    11
 73
     7
 74
     0
 42
0.000000001
 43
0.00000001
 40
0.0
 40
0.0
 40
0.0
 40
0.0
 40
0.1103553478636333
 40
0.501018781803125
 40
0.9027791826559701
 40
1.0
 40
1.0
 40
1.0
 40
1.0
 10
22.34553333080674
 20
-0.6985234986798292
 30
0.0
 10
22.32987501955465
 20
-0.7006925718757366
 30
0.0
 10
22.25878550572054
 20
-0.7105402723387734
 30
0.0
 10
22.11935157716988
 20
-0.7482339060432829
 30
0.0
 10
21.98015183465552
 20
-0.7953262327361654
 30
0.0
 10
21.90164156292555
 20
-0.8265087272736613
 30
0.0
 10
21.88634472907864
 20
-0.8325842818140032
 30
0.0
1001
PE_URL
1000

  0
SPLINE
  5
B0
330
1F
100
AcDbEntity
  8
외형선
  6
Continuous
 62
     1
370
    15
100
AcDbSpline
210
0.0
220
0.0
230
1.0
 70
     8
 71
     3
 72
     8
 73
     4
 74
     0
 42
0.000000001
 43
0.00000001
 40
0.0
 40
0.0
 40
0.0
 40
0.0
 40
1.0
 40
1.0
 40
1.0
 40
1.0
 10
22.70000000000001
 20
-0.9280654770622883
 30
0.0
 10
22.42286590781535
 20
-0.9258645343955423
 30
0.0
 10
22.15126101219589
 20
-0.8959729506662453
 30
0.0
 10
21.88634472907865
 20
-0.8325842818140012
 30
0.0
1001
PE_URL
1000

  0
LINE
  5
B1
330
1F
100
AcDbEntity
  8
외형선
  6
Continuous
 62
     1
370
    15
100
AcDbLine
 10
22.70000000000001
 20
-1.217251717246036
 30
0.0
 11
22.70000000000001
 21
-0.9280654770622914
 31
0.0
1001
PE_URL
1000

  0
SPLINE
  5
B2
330
1F
100
AcDbEntity
  8
외형선
  6
Continuous
 62
     1
370
    15
100
AcDbSpline
210
0.0
220
0.0
230
1.0
 70
     8
 71
     3
 72
     8
 73
     4
 74
     0
 42
0.000000001
 43
0.00000001
 40
0.0
 40
0.0
 40
0.0
 40
0.0
 40
1.0
 40
1.0
 40
1.0
 40
1.0
 10
22.70000000000001
 20
-1.217251717246036
 30
0.0
 10
22.70000000000001
 20
-1.25917150546713
 30
0.0
 10
22.68066784106286
 20
-1.30932278849111
 30
0.0
 10
22.64636375622576
 20
-1.353437264945009
 30
0.0
  0
SPLINE
  5
B3
330
1F
100
AcDbEntity
  8
외형선
  6
Continuous
 62
     1
370
    15
100
AcDbSpline
210
0.0
220
0.0
230
1.0
 70
     8
 71
     3
 72
    29
 73
    25
 74
     0
 42
0.000000001
 43
0.00000001
 40
0.0
 40
0.0
 40
0.0
 40
0.0
 40
0.0422644495549575
 40
0.0894133481135558
 40
0.1360887908804358
 40
0.183088732683559
 40
0.2297638819666308
 40
0.2767625414519669
 40
0.323437633749297
 40
0.3704354120323877
 40
0.4171106810586105
 40
0.464107897037571
 40
0.5107833946634068
 40
0.5577805359514474
 40
0.6044561394422602
 40
0.651453806121575
 40
0.6980998941979074
 40
0.7450685450090514
 40
0.7915976398774139
 40
0.8384484734548767
 40
0.8795785645527328
 40
0.920930788652952
 40
0.9603675209920361
 40
1.0
 40
1.0
 40
1.0
 40
1.0
 10
12.38189177007193
 20
1.46850531513363
 30
0.0
 10
12.52654344348547
 20
1.478299329883633
 30
0.0
 10
12.83256400133789
 20
1.499019241286539
 30
0.0
 10
13.29773257188336
 20
1.474134266386673
 30
0.0
 10
13.78025596066384
 20
1.407887329878233
 30
0.0
 10
14.25966703328227
 20
1.296869060668762
 30
0.0
 10
14.74183759964659
 20
1.147840204984319
 30
0.0
 10
15.22126826210303
 20
0.9622518537406293
 30
0.0
 10
15.70321466955697
 20
0.748782694258633
 30
0.0
 10
16.18301476867186
 20
0.5114409610751777
 30
0.0
 10
16.66438564818221
 20
0.2586768540199939
 30
0.0
 10
17.14481199956302
 20
-0.0010881722647163
 30
0.0
 10
17.62559449395424
 20
-0.2627352935673076
 30
0.0
 10
18.10652182376922
 20
-0.513624312477737
 30
0.0
 10
18.58700798445996
 20
-0.7519755662155485
 30
0.0
 10
19.06797035806052
 20
-0.9642493828014844
 30
0.0
 10
19.54830862416816
 20
-1.149827329383437
 30
0.0
 10
20.02843114246353
 20
-1.29814666875601
 30
0.0
 10
20.5082398667907
 20
-1.408292146861785
 30
0.0
 10
20.96857053986776
 20
-1.472354078920552
 30
0.0
 10
21.41107311362817
 20
-1.495355966232889
 30
0.0
 10
21.82821005632636
 20
-1.481603263719455
 30
0.0
 10
22.24011035165639
 20
-1.436700351951223
 30
0.0
 10
22.51072264209904
 20
-1.381237395996466
 30
0.0
 10
22.64636375622616
 20
-1.353437264944842
 30
0.0
  0
SPLINE
  5
B4
330
1F
100
AcDbEntity
  8
외형선
  6
Continuous
 62
     1
370
    15
100
AcDbSpline
210
0.0
220
0.0
230
1.0
 70
     8
 71
     3
 72
    18
 73
    14
 74
     0
 42
0.000000001
 43
0.00000001
 40
0.0
 40
0.0
 40
0.0
 40
0.0
 40
0.096622950386316
 40
0.1932459007726326
 40
0.2898688511589487
 40
0.3864918015452649
 40
0.4831147519315812
 40
0.5797377023178972
 40
0.6763606527042141
 40
0.7729836030905299
 40
0.8696065534768462
 40
0.9662295038631625
 40
1.0
 40
1.0
 40
1.0
 40
1.0
 10
22.44599999999983
 20
-0.5902819081735052
 30
0.0
 10
22.27313888888872
 20
-0.4956198982643637
 30
0.0
 10
21.9274166666665
 20
-0.3062958784460799
 30
0.0
 10
21.40883333333318
 20
-0.0058405366682202
 30
0.0
 10
20.89024999999986
 20
0.2933177679979261
 30
0.0
 10
20.37166666666653
 20
0.5824834687694598
 30
0.0
 10
19.85308333333321
 20
0.8508678405651616
 30
0.0
 10
19.33449999999987
 20
1.089184146551631
 30
0.0
 10
18.81591666666655
 20
1.288598807174641
 30
0.0
 10
18.29733333333322
 20
1.44334451235898
 30
0.0
 10
17.7787499999999
 20
1.543103283856789
 30
0.0
 10
17.37261143298954
 20
1.589509907018696
 30
0.0
 10
17.13933397709029
 20
1.582820669259367
 30
0.0
 10
17.07891763230215
 20
1.581088228834383
 30
0.0
1001
PE_URL
1000

  0
SPLINE
  5
B5
330
1F
100
AcDbEntity
  8
외형선
  6
Continuous
 62
     1
370
    15
100
AcDbSpline
210
0.0
220
0.0
230
1.0
 70
     8
 71
     3
 72
    16
 73
    12
 74
     0
 42
0.000000001
 43
0.00000001
 40
0.0
 40
0.0
 40
0.0
 40
0.0
 40
0.5000000000000026
 40
0.5000000000000026
 40
0.7500000000000037
 40
0.7500000000000037
 40
0.8750000000000042
 40
0.8750000000000042
 40
0.9375000000000021
 40
0.9375000000000021
 40
1.0
 40
1.0
 40
1.0
 40
1.0
 10
22.64636375622574
 20
0.1378685807079557
 30
0.0
 10
22.66292483930326
 20
-0.0039672239736579
 30
0.0
 10
22.66554304526713
 20
-0.146436264019648
 30
0.0
 10
22.64489090407452
 20
-0.3606422347141375
 30
0.0
 10
22.6344719026988
 20
-0.4324676800220827
 30
0.0
 10
22.59390832755146
 20
-0.5321923886982367
 30
0.0
 10
22.57568293452651
 20
-0.5653427932384483
 30
0.0
 10
22.53191646338399
 20
-0.5968067675360357
 30
0.0
 10
22.5145620109311
 20
-0.6032067945148699
 30
0.0
 10
22.47934586532626
 20
-0.6040130488423812
 30
0.0
 10
22.46177388695042
 20
-0.5987188046009764
 30
0.0
 10
22.44599999999936
 20
-0.5902819081732533
 30
0.0
1001
PE_URL
1000

  0
SPLINE
  5
B6
330
1F
100
AcDbEntity
  8
외형선
  6
Continuous
 62
     1
370
    15
100
AcDbSpline
210
0.0
220
0.0
230
1.0
 70
     8
 71
     3
 72
    12
 73
     8
 74
     0
 42
0.000000001
 43
0.00000001
 40
0.0
 40
0.0
 40
0.0
 40
0.0
 40
0.2137854237877999
 40
0.4285425819217528
 40
0.6423285590853387
 40
0.8570864362557887
 40
1.0
 40
1.0
 40
1.0
 40
1.0
 10
10.00000000000001
 20
-1.489289162143512
 30
0.0
 10
10.12959253349303
 20
-1.485013004438076
 30
0.0
 10
10.38936664679274
 20
-1.476441252298362
 30
0.0
 10
10.77746832426976
 20
-1.425878580996954
 30
0.0
 10
11.16767406556764
 20
-1.348772599961378
 30
0.0
 10
11.51306946883143
 20
-1.257881140834333
 30
0.0
 10
11.72976108429303
 20
-1.184109641103681
 30
0.0
 10
11.81634381765276
 20
-1.154633013329594
 30
0.0
  0
SPLINE
  5
B7
330
1F
100
AcDbEntity
  8
외형선
  6
Continuous
 62
     1
370
    15
100
AcDbSpline
210
0.0
220
0.0
230
1.0
 70
     8
 71
     3
 72
    17
 73
    13
 74
     0
 42
0.000000001
 43
0.00000001
 40
0.0
 40
0.0
 40
0.0
 40
0.0
 40
0.0987377810803778
 40
0.205823810163772
 40
0.312108753594107
 40
0.419128668882447
 40
0.5251470386942081
 40
0.6318985027890331
 40
0.725615030495848
 40
0.8198376969715037
 40
0.9096958402498356
 40
1.0
 40
1.0
 40
1.0
 40
1.0
 10
18.14164639910025
 20
1.469030659450036
 30
0.0
 10
18.28976356645657
 20
1.478734558026839
 30
0.0
 10
18.59852116058483
 20
1.498962816720383
 30
0.0
 10
19.06795421938055
 20
1.473398710479006
 30
0.0
 10
19.54831296936704
 20
1.405567979413766
 30
0.0
 10
20.02842998684334
 20
1.294953155699201
 30
0.0
 10
20.50824017891923
 20
1.144357957763316
 30
0.0
 10
20.96857046731571
 20
0.9670028558768664
 30
0.0
 10
21.41107313212231
 20
0.771244659979656
 30
0.0
 10
21.82821005163913
 20
0.5686202105943162
 30
0.0
 10
22.24011035281161
 20
0.3557934676960384
 30
0.0
 10
22.51072264248476
 20
0.2106300003896716
 30
0.0
 10
22.64636375622616
 20
0.1378685807077281
 30
0.0
  0
SPLINE
  5
B8
330
1F
100
AcDbEntity
  8
외형선
  6
Continuous
 62
     1
370
    15
100
AcDbSpline
210
0.0
220
0.0
230
1.0
 70
     8
 71
     3
 72
    14
 73
    10
 74
     0
 42
0.000000001
 43
0.00000001
 40
0.0
 40
0.0
 40
0.0
 40
0.0
 40
0.1612886087649361
 40
0.322702735334688
 40
0.4836078711545522
 40
0.6445633309801937
 40
0.8194796059999697
 40
0.9943426236477362
 40
1.0
 40
1.0
 40
1.0
 40
1.0
 10
10.00000000000759
 20
-0.2473827108826643
 30
0.0
 10
10.20913464370531
 20
-0.3653485312248905
 30
0.0
 10
10.62756668358271
 20
-0.6013719751118505
 30
0.0
 10
11.2549568216813
 20
-0.9202481485627163
 30
0.0
 10
11.88121666908474
 20
-1.192524963139704
 30
0.0
 10
12.5250754809606
 20
-1.411177910798448
 30
0.0
 10
13.18761568003813
 20
-1.544681054378541
 30
0.0
 10
13.64867867894724
 20
-1.602501934669943
 30
0.0
 10
13.882709592227
 20
-1.586489566669942
 30
0.0
 10
13.8900439488897
 20
-1.585987750835954
 30
0.0
  0
SPLINE
  5
B9
330
1F
100
AcDbEntity
  8
외형선
  6
Continuous
 62
     1
370
    15
100
AcDbSpline
210
0.0
220
0.0
230
1.0
 70
     8
 71
     3
 72
    11
 73
     7
 74
     0
 42
0.000000001
 43
0.00000001
 40
0.0
 40
0.0
 40
0.0
 40
0.0
 40
0.0513894016581511
 40
0.3670124505007604
 40
0.683619539892865
 40
0.9860758370591187
 40
0.9860758370591187
 40
0.9860758370591187
 40
0.9860758370591187
 10
20.45762203740246
 20
1.154479707078645
 30
0.0
 10
20.49167313499958
 20
1.169174721215017
 30
0.0
 10
20.73485901317918
 20
1.274123465008721
 30
0.0
 10
21.18765385094649
 20
1.410883129810383
 30
0.0
 10
21.80750615783952
 20
1.550581317510605
 30
0.0
 10
22.21783827659743
 20
1.574380275339418
 30
0.0
 10
22.44600000000001
 20
1.587499999999998
 30
0.0
  0
SPLINE
  5
BA
330
1F
100
AcDbEntity
  8
외형선
  6
Continuous
 62
     1
370
    15
100
AcDbSpline
210
0.0
220
0.0
230
1.0
 70
     8
 71
     3
 72
    18
 73
    14
 74
     0
 42
0.000000001
 43
0.00000001
 40
0.0
 40
0.0
 40
0.0
 40
0.0
 40
0.014170984389097
 40
0.1127538859501873
 40
0.2113367875112776
 40
0.3099196890723679
 40
0.4085025906334583
 40
0.5070854921945485
 40
0.6056683937556387
 40
0.7042512953167291
 40
0.8028341968778194
 40
0.9014170984389094
 40
1.0
 40
1.0
 40
1.0
 40
1.0
 10
15.26037806882764
 20
-1.467586526834004
 30
0.0
 10
15.23552982366293
 20
-1.473996757794039
 30
0.0
 10
15.03782046738713
 20
-1.52500086807577
 30
0.0
 10
14.66725000000021
 20
-1.570777257652576
 30
0.0
 10
14.1486666666669
 20
-1.597493018192286
 30
0.0
 10
13.63008333333358
 20
-1.562647137796532
 30
0.0
 10
13.11150000000026
 20
-1.473710014666035
 30
0.0
 10
12.59291666666694
 20
-1.332165654671508
 30
0.0
 10
12.07433333333362
 20
-1.143476311948457
 30
0.0
 10
11.5557500000003
 20
-0.9142287225404973
 30
0.0
 10
11.03716666666698
 20
-0.6525236287781201
 30
0.0
 10
10.51858333333366
 20
-0.3678563138981116
 30
0.0
 10
10.17286111111145
 20
-0.1689426041611976
 30
0.0
 10
10.00000000000034
 20
-0.0694857492927403
 30
0.0
  0
LINE
  5
BB
330
1F
100
AcDbEntity
  8
외형선
  6
Continuous
370
    15
100
AcDbLine
 10
10.00000000000001
 20
-0.2473827108747641
 30
0.0
 11
10.00000000000001
 21
-0.0694857492925484
 31
0.0
  0
LINE
  5
BC
330
1F
100
AcDbEntity
  8
외형선
  6
Continuous
370
    15
100
AcDbLine
 10
10.00000000000001
 20
0.7178668938246975
 30
0.0
 11
10.00000000000001
 21
-0.0694857492925484
 31
0.0
  0
LINE
  5
BE
330
1F
100
AcDbEntity
  8
외형선
  6
Continuous
 62
     1
370
    15
100
AcDbLine
 10
22.70000000000001
 20
1.027912543797244
 30
0.0
 11
22.70000000000001
 21
1.333500000000004
 31
0.0
1001
PE_URL
1000

  0
SPLINE
  5
BF
330
1F
100
AcDbEntity
  8
외형선
  6
Continuous
 62
     1
370
    15
100
AcDbSpline
210
0.0
220
0.0
230
1.0
 70
     8
 71
     3
 72
    10
 73
     6
 74
     0
 42
0.000000001
 43
0.00000001
 40
0.0
 40
0.0
 40
0.0
 40
0.0
 40
0.5
 40
0.5
 40
1.0
 40
1.0
 40
1.0
 40
1.0
 10
22.70000000000001
 20
1.027912543797245
 30
0.0
 10
22.61595560076536
 20
0.8790421310535197
 30
0.0
 10
22.48990216364129
 20
0.7659177357714525
 30
0.0
 10
22.20153372930995
 20
0.6253933856497299
 30
0.0
 10
22.04369830753849
 20
0.5959306428640156
 30
0.0
 10
21.88634472907864
 20
0.5955601874240734
 30
0.0
1001
PE_URL
1000

  0
SPLINE
  5
C0
330
1F
100
AcDbEntity
  8
외형선
  6
Continuous
 62
     1
370
    15
100
AcDbSpline
210
0.0
220
0.0
230
1.0
 70
     8
 71
     3
 72
     8
 73
     4
 74
     0
 42
0.000000001
 43
0.00000001
 40
0.0
 40
0.0
 40
0.0
 40
0.0
 40
1.0
 40
1.0
 40
1.0
 40
1.0
 10
22.70000000000001
 20
0.3062294043822077
 30
0.0
 10
22.42286590781535
 20
0.4176394406521667
 30
0.0
 10
22.15126101219588
 20
0.515060796073362
 30
0.0
 10
21.88634472907864
 20
0.5955601874240766
 30
0.0
  0
LINE
  5
C1
330
1F
100
AcDbEntity
  8
외형선
  6
Continuous
 62
     1
370
    15
100
AcDbLine
 10
22.70000000000001
 20
0.1370430131481388
 30
0.0
 11
22.70000000000001
 21
0.3062294043822079
 31
0.0
1001
PE_URL
1000

  0
SPLINE
  5
C2
330
1F
100
AcDbEntity
  8
외형선
  6
Continuous
 62
     1
370
    15
100
AcDbSpline
210
0.0
220
0.0
230
1.0
 70
     8
 71
     3
 72
     8
 73
     4
 74
     0
 42
0.000000001
 43
0.00000001
 40
0.0
 40
0.0
 40
0.0
 40
0.0
 40
1.0
 40
1.0
 40
1.0
 40
1.0
 10
22.70000000000001
 20
0.1370430131481385
 30
0.0
 10
22.70000000000001
 20
0.1241383308435825
 30
0.0
 10
22.68066784106286
 20
0.1239942354735531
 30
0.0
 10
22.64636375622576
 20
0.137868580707966
 30
0.0
  0
SPLINE
  5
C3
330
1F
100
AcDbEntity
  8
외형선
  6
Continuous
370
    15
100
AcDbSpline
210
0.0
220
0.0
230
1.0
 70
    24
 71
     3
 72
    15
 73
    11
 74
     0
 42
0.000000001
 43
0.00000001
 40
0.0
 40
0.0
 40
0.0
 40
0.0
 40
0.0162668787113441
 40
0.1636876833051789
 40
0.3111084878990137
 40
0.4585292924928489
 40
0.6059500970866841
 40
0.7533709016805195
 40
0.9007917062743548
 40
1.0
 40
1.0
 40
1.0
 40
1.0
 10
10.00000000000001
 20
-0.282336359242284
 30
0.0
 10
10.00000000000001
 20
-0.2838574365265978
 30
0.0
 10
10.00000000000001
 20
-0.2991634839383752
 30
0.0
 10
10.00000000000001
 20
-0.3642779677089216
 30
0.0
 10
10.00000000000001
 20
-0.4851155714444481
 30
0.0
 10
10.00000000000001
 20
-0.6484175613634875
 30
0.0
 10
10.00000000000001
 20
-0.8437471755124584
 30
0.0
 10
10.00000000000001
 20
-1.068136547067335
 30
0.0
 10
10.00000000000001
 20
-1.286565103870505
 30
0.0
 10
10.00000000000001
 20
-1.431134930180711
 30
0.0
 10
10.00000000000001
 20
-1.489289162143516
 30
0.0
  0
LINE
  5
C4
330
1F
100
AcDbEntity
  8
외형선
  6
Continuous
 62
     1
370
    15
100
AcDbLine
 10
22.70000000000001
 20
-0.7819024271551733
 30
0.0
 11
22.70000000000001
 21
0.1370430131481388
 31
0.0
1001
PE_URL
1000

  0
LINE
  5
C5
330
1F
100
AcDbEntity
  8
외형선
  6
Continuous
 62
     1
370
    15
100
AcDbLine
 10
22.70000000000001
 20
0.3062294043822077
 30
0.0
 11
22.70000000000001
 21
1.027912543797244
 31
0.0
1001
PE_URL
1000

  0
LINE
  5
C6
330
1F
100
AcDbEntity
  8
외형선
  6
Continuous
 62
     1
370
    15
100
AcDbLine
 10
22.70000000000001
 20
-0.7819024271551733
 30
0.0
 11
22.70000000000001
 21
-0.9280654770622883
 31
0.0
1001
PE_URL
1000

  0
LINE
  5
C8
330
1F
100
AcDbEntity
  8
중심선
 62
     1
100
AcDbLine
 10
-18.40000000000001
 20
-0.0000000000000022
 30
0.0
 11
25.69999999999999
 21
0.0000000000000031
 31
0.0
  0
LINE
  5
C9
330
1F
100
AcDbEntity
  8
참조1
100
AcDbLine
 10
3.649999999999993
 20
0.2211007829333238
 30
0.0
 11
3.650000000000002
 21
-39.77889921706668
 31
0.0
  0
LINE
  5
CA
330
1F
100
AcDbEntity
  8
참조1
100
AcDbLine
 10
3.650000000000002
 20
-39.77889921706668
 30
0.0
 11
-11.49933783948571
 21
-39.77889921706667
 31
0.0
  0
INSERT
  5
CC
330
1F
100
AcDbEntity
  8
0
  6
Continuous
 62
     7
100
AcDbBlockReference
 66
     1
  2
블럭10
 10
-10.29027293212521
 20
-51.82607351871061
 30
0.0
  0
ATTRIB
  5
CD
330
CC
100
AcDbEntity
  8
FORMAT
 62
     2
100
AcDbText
 10
-19.47156822086649
 20
-49.75070660587842
 30
0.0
 40
4.233333333333333
  1
E5074008 [ 3 FLUTE ]
 41
0.75
  7
SLDTEXTSTYLE0
 11
-19.47156822086649
 21
-51.86737327254509
 31
0.0
100
AcDbAttribute
  2
AUTOATTR0
 70
     0
 74
     1
  0
SEQEND
  5
CE
330
CC
100
AcDbEntity
  8
0
  6
Continuous
 62
     7
  0
HATCH
  5
CF
330
1F
100
AcDbEntity
  8
중심선
100
AcDbHatch
 10
0.0
 20
0.0
 30
0.0
210
0.0
220
0.0
230
1.0
  2
SOLID
 70
     1
 71
     0
 91
        1
 92
        0
 93
        4
 72
     1
 10
-4.575363627744362
 20
-35.57889921706667
 11
-8.021638871581645
 21
-35.57889921706667
 72
     1
 10
-8.021638871581645
 20
-35.57889921706667
 11
-10.14986873078567
 21
-38.11522479763927
 72
     1
 10
-10.14986873078567
 20
-38.11522479763927
 11
-6.703560401835236
 21
-38.11518536833677
 72
     1
 10
-6.703560401835236
 20
-38.11518536833677
 11
-4.575363627744362
 21
-35.57889921706667
 97
        0
 75
     0
 76
     1
 98
        1
 10
-0.0000000000000069
 20
0.2200258542094346
  0
HATCH
  5
D0
330
1F
100
AcDbEntity
  8
중심선
100
AcDbHatch
 10
0.0
 20
0.0
 30
0.0
210
0.0
220
0.0
230
1.0
  2
SOLID
 70
     1
 71
     0
 91
        1
 92
        0
 93
        4
 72
     1
 10
0.4374003632915888
 20
-35.57889921706667
 11
-3.008874880545694
 21
-35.57889921706667
 72
     1
 10
-3.008874880545694
 20
-35.57889921706667
 11
-7.540012888903082
 21
-40.97889921706669
 72
     1
 10
-7.540012888903082
 20
-40.97889921706669
 11
-4.0937376450658
 21
-40.97889921706669
 72
     1
 10
-4.0937376450658
 20
-40.97889921706669
 11
0.4374003632915882
 21
-35.57889921706667
 97
        0
 75
     0
 76
     1
 98
        1
 10
-0.0000000000000069
 20
0.2200258542094346
  0
HATCH
  5
D1
330
1F
100
AcDbEntity
  8
중심선
100
AcDbHatch
 10
0.0
 20
0.0
 30
0.0
210
0.0
220
0.0
230
1.0
  2
SOLID
 70
     1
 71
     0
 91
        1
 92
        0
 93
        4
 72
     1
 10
5.450164354327484
 20
-35.57889921706667
 11
2.003889110490397
 21
-35.57889921706667
 72
     1
 10
2.003889110490397
 20
-35.57889921706667
 11
-5.04454779139888
 21
-43.97889921706669
 72
     1
 10
-5.04454779139888
 20
-43.97889921706669
 11
-1.598272547561598
 21
-43.97889921706669
 72
     1
 10
-1.598272547561598
 20
-43.97889921706669
 11
5.450164354327484
 21
-35.57889921706667
 97
        0
 75
     0
 76
     1
 98
        1
 10
-0.0000000000000069
 20
0.2200258542094346
  0
HATCH
  5
D2
330
1F
100
AcDbEntity
  8
중심선
100
AcDbHatch
 10
0.0
 20
0.0
 30
0.0
210
0.0
220
0.0
230
1.0
  2
SOLID
 70
     1
 71
     0
 91
        1
 92
        0
 93
        6
 72
     3
 10
10.25005478533968
 20
-39.77889921711795
 11
3.960054785062285
 21
1.540882976769353E-10
 40
0.3939339440162626
 50
17.09539180608439
 51
320.0019657685086
 73
     0
 72
     1
 10
11.93305444104028
 20
-38.366793221705
 11
14.23835631474131
 21
-36.43246651165706
 72
     3
 10
10.25005478528683
 20
-39.77889921706682
 11
6.600054785286831
 21
-1.278976924368180E-13
 40
0.6363583540795978
 50
39.99873849337411
 51
368.4976242363724
 73
     1
 72
     1
 10
16.67538727718744
 20
-38.8188992169967
 11
8.930122092122787
 21
-38.81889921699667
 72
     1
 10
8.930122092122787
 20
-38.81889921699667
 11
8.930097047676826
 21
-40.73889921699659
 72
     1
 10
8.930097047676826
 20
-40.73889921699659
 11
13.37147681714886
 21
-40.73889921699656
 97
        0
 75
     0
 76
     1
 98
        1
 10
-0.0000000000000069
 20
0.2200258542094346
  0
DIMENSION
  5
D3
330
1F
100
AcDbEntity
  8
치수문자_일반주서
100
AcDbDimension
  2
_D
 10
22.70000000000001
 20
48.11842114713498
 30
0.0
 11
3.650000000000013
 21
48.11842114713498
 31
0.0
 70
   160
  1
<>
 71
     2
 42
38.10000000000001
  3
SLDDIMSTYLE1
100
AcDbAlignedDimension
 13
-15.4
 23
1.587113644135798
 33
0.0
 14
22.70000000000001
 24
1.587499999999998
 34
0.0
100
AcDbRotatedDimension
1001
PE_URL
1000

1001
ACAD
1000
DSTYLE
1002
{
1070
   279
1070
     1
1070
   171
1070
     6
1070
   273
1070
     7
1002
}
  0
DIMENSION
  5
E7
330
1F
100
AcDbEntity
  8
치수문자_일반주서
100
AcDbDimension
  2
_D_1
 10
-25.39999999999997
 20
-1.587500000000031
 30
0.0
 11
-25.40000000000005
 21
20.44149999999997
 31
0.0
 70
   160
  1
%%c<>
 71
     2
 42
3.17499999999999
 52
-270.0
  3
SLDDIMSTYLE1
100
AcDbAlignedDimension
 13
-15.39963112105456
 23
1.587499999999995
 33
0.0
 14
-15.38844817880357
 24
-1.587499999999995
 34
0.0
 50
90.0000000000002
100
AcDbRotatedDimension
1001
PE_URL
1000

1001
ACAD
1000
DSTYLE
1002
{
1070
   171
1070
     6
1070
   273
1070
     7
1002
}
  0
DIMENSION
  5
FC
330
1F
100
AcDbEntity
  8
치수문자_일반주서
100
AcDbDimension
  2
_D_2
 10
10.00000000000001
 20
24.39358781380162
 30
0.0
 11
40.24150000000002
 21
24.39358781380162
 31
0.0
 70
   160
  1
<>
 71
     2
 42
12.69999999999999
  3
SLDDIMSTYLE1
100
AcDbAlignedDimension
 13
22.7
 23
1.587302957895413
 33
0.0
 14
10.00000000000001
 24
1.587005799220584
 34
0.0
 50
-0.0000000000000801
100
AcDbRotatedDimension
1001
PE_URL
1000

1001
ACAD
1000
DSTYLE
1002
{
1070
   279
1070
     1
1070
   171
1070
     6
1070
   273
1070
     7
1002
}
  0
DIMENSION
  5
112
330
1F
100
AcDbEntity
  8
치수문자_일반주서
100
AcDbDimension
  2
_D_3
 10
59.46175930766178
 20
-1.527582568840732
 30
0.0
 11
59.46175930766167
 21
23.59573236837408
 31
0.0
 70
   160
  1
%%c<>
 71
     2
 42
3.115082568840867
 52
-270.0
  3
SLDDIMSTYLE1
100
AcDbAlignedDimension
 13
22.70000000000001
 23
1.587499999999998
 33
0.0
 14
22.70000000000001
 24
-1.527582568840869
 34
0.0
 50
90.0000000000002
100
AcDbRotatedDimension
1001
ACAD
1000
DSTYLE
1002
{
1070
   279
1070
     1
1070
   171
1070
     6
1070
   273
1070
     7
1002
}
  0
LINE
  5
126
330
1F
100
AcDbEntity
  8
참조1
100
AcDbLine
 10
86.47300279016856
 20
7.661100782933331
 30
0.0
 11
86.47300279016856
 21
-7.218899217066674
 31
0.0
  0
LINE
  5
127
330
1F
100
AcDbEntity
  8
참조1
100
AcDbLine
 10
99.17300279016857
 20
5.661100782933331
 30
0.0
 11
86.47300279016856
 21
5.661100782933331
 31
0.0
  0
SOLID
  5
128
330
1F
100
AcDbEntity
  8
참조1
100
AcDbTrace
 10
86.47300279016856
 20
5.661100782933331
 30
0.0
 11
92.82300279016856
 21
4.645100782933331
 31
0.0
 12
92.82300279016856
 22
6.677100782933331
 32
0.0
 13
92.82300279016856
 23
6.677100782933331
 33
0.0
  0
LINE
  5
129
330
1F
100
AcDbEntity
  8
참조1
100
AcDbLine
 10
99.17300279016857
 20
-5.218899217066674
 30
0.0
 11
86.47300279016856
 21
-5.218899217066674
 31
0.0
  0
SOLID
  5
12A
330
1F
100
AcDbEntity
  8
참조1
100
AcDbTrace
 10
86.47300279016856
 20
-5.218899217066674
 30
0.0
 11
92.82300279016856
 21
-6.234899217066674
 31
0.0
 12
92.82300279016856
 22
-4.202899217066674
 32
0.0
 13
92.82300279016856
 23
-4.202899217066674
 33
0.0
  0
MTEXT
  5
12B
330
1F
100
AcDbEntity
  8
참조1
100
AcDbMText
 10
95.87049288263884
 20
11.20931742758327
 30
0.0
 40
3.5
 41
0.0
 71
     1
 72
     1
  1
A
  7
SLDTEXTSTYLE0
 73
     1
 44
1.0
  0
MTEXT
  5
12C
330
1F
100
AcDbEntity
  8
참조1
100
AcDbMText
 10
95.87049288263884
 20
0.3293174275832605
 30
0.0
 40
3.5
 41
0.0
 71
     1
 72
     1
  1
A
  7
SLDTEXTSTYLE0
 73
     1
 44
1.0
  0
INSERT
  5
133
330
1F
100
AcDbEntity
  8
해칭선
100
AcDbBlockReference
  2
SW_DOWELSYMBOL_0
 10
0.0
 20
0.0
 30
0.0
  0
LEADER
  5
251
102
{ACAD_XDICTIONARY
360
254
102
}
330
1F
100
AcDbEntity
  8
0
100
AcDbLeader
  3
ISO-25
 73
     0
 74
     0
 75
     1
 40
3.5
 41
29.75
 76
     3
 10
22.64636375622616
 20
-1.353437264944842
 30
0.0
 10
28.23929641518226
 20
-13.44496874784602
 30
0.0
 10
31.54129641518226
 20
-13.44496874784602
 30
0.0
340
252
213
0.0
223
1.75
233
0.0
1001
ACAD
1000
DSTYLE
1002
{
1070
    77
1070
     0
1070
   179
1070
     2
1070
   143
1040
0.0393700787401575
1070
    41
1040
3.302
1070
    44
1040
1.0
1070
    42
1040
1.0
1070
   147
1040
1.524
1070
    73
1070
     1
1070
    74
1070
     1
1070
   140
1040
3.5
1070
   284
1070
     0
1070
    78
1070
     0
1002
}
  0
MTEXT
  5
252
102
{ACAD_REACTORS
330
251
102
}
330
1F
100
AcDbEntity
  8
0
100
AcDbMText
 10
33.06529641518226
 20
-15.19496874784602
 30
0.0
 40
3.5
 41
0.0
 71
     7
 72
     1
  1
{R0.25[.010"]}
 73
     1
 44
1.0
1001
ACAD
1000
ACAD_MTEXT_DEFINED_HEIGHT_BEGIN
1070
    46
1040
3.5
1000
ACAD_MTEXT_DEFINED_HEIGHT_END
  0
ARC
  5
27A
330
1F
100
AcDbEntity
  8
외형선
  6
Continuous
 62
     1
370
    15
100
AcDbCircle
 10
22.44600000000001
 20
1.333499999999998
 30
0.0
 40
0.2540000000000001
100
AcDbArc
 50
0.0000000000012021
 51
90.0
1001
PE_URL
1000

  0
ENDSEC
  0
SECTION
  2
OBJECTS
  0
DICTIONARY
  5
C
330
0
100
AcDbDictionary
281
     1
  3
ACAD_DETAILVIEWSTYLE
350
165
  3
ACAD_GROUP
350
D
  3
ACAD_LAYOUT
350
1A
  3
ACAD_MLINESTYLE
350
17
  3
ACAD_PLOTSETTINGS
350
19
  3
ACAD_PLOTSTYLENAME
350
E
  3
ACAD_SCALELIST
350
47
  3
ACAD_SECTIONVIEWSTYLE
350
166
  3
AcadDim
350
253
  3
AcDbVariableDictionary
350
160
  3
APPDATA
350
155
  3
DWGPROPS
350
2E6
  0
DICTIONARY
  5
254
330
251
100
AcDbDictionary
280
     1
281
     1
  0
DICTIONARY
  5
165
102
{ACAD_REACTORS
330
C
102
}
330
C
100
AcDbDictionary
281
     1
  0
DICTIONARY
  5
D
102
{ACAD_REACTORS
330
C
102
}
330
C
100
AcDbDictionary
281
     1
  0
DICTIONARY
  5
1A
102
{ACAD_REACTORS
330
C
102
}
330
C
100
AcDbDictionary
281
     1
  3
Layout1
350
1E
  3
Layout2
350
26
  3
Model
350
22
  0
DICTIONARY
  5
17
102
{ACAD_REACTORS
330
C
102
}
330
C
100
AcDbDictionary
281
     1
  3
Standard
350
18
  0
DICTIONARY
  5
19
102
{ACAD_REACTORS
330
C
102
}
330
C
100
AcDbDictionary
281
     1
  0
ACDBDICTIONARYWDFLT
  5
E
102
{ACAD_REACTORS
330
C
102
}
330
C
100
AcDbDictionary
281
     1
  3
Normal
350
F
100
AcDbDictionaryWithDefault
340
F
  0
DICTIONARY
  5
47
102
{ACAD_REACTORS
330
C
102
}
330
C
100
AcDbDictionary
281
     1
  3
A0
350
48
  3
A1
350
49
  3
A2
350
4A
  3
A3
350
4B
  3
A4
350
4C
  3
A5
350
4D
  3
A6
350
4E
  3
A7
350
4F
  3
A8
350
50
  3
A9
350
51
  3
B0
350
52
  3
B1
350
53
  3
B2
350
54
  3
B3
350
55
  3
B4
350
56
  3
B5
350
57
  3
B6
350
58
  3
B7
350
59
  3
B8
350
5A
  3
B9
350
5B
  3
C0
350
5C
  3
C1
350
5D
  3
C2
350
5E
  3
C3
350
5F
  3
C4
350
60
  3
C5
350
61
  3
C6
350
62
  3
C7
350
63
  3
C8
350
64
  3
C9
350
65
  3
D0
350
66
  3
D1
350
67
  3
D2
350
68
  0
DICTIONARY
  5
166
102
{ACAD_REACTORS
330
C
102
}
330
C
100
AcDbDictionary
281
     1
  0
XRECORD
  5
253
102
{ACAD_REACTORS
330
C
102
}
330
C
100
AcDbXrecord
280
     1
340
252
 72
     0
 71
     0
 70
     0
 69
     0
 68
     1
 67
     3
 66
     0
 65
     0
 64
     0
 63
     3
 62
     1
 61
     0
 60
     0
 40
0.0
  0
DICTIONARY
  5
160
102
{ACAD_REACTORS
330
C
102
}
330
C
100
AcDbDictionary
281
     1
  0
DICTIONARY
  5
155
102
{ACAD_REACTORS
330
C
102
}
330
C
100
AcDbDictionary
281
     1
  0
XRECORD
  5
2E6
102
{ACAD_REACTORS
330
C
102
}
330
C
100
AcDbXrecord
280
     1
  1
DWGPROPS COOKIE
  2

  3

  4

  6

  7

  8
12017103
  9

300
=
301
=
302
=
303
=
304
=
305
=
306
=
307
=
308
=
309
=
 40
0.0
 41
2458290.297313658
 42
2458299.377404676
  1

 90
        0
  0
LAYOUT
  5
1E
102
{ACAD_REACTORS
330
1A
102
}
330
1A
100
AcDbPlotSettings
  1

  2
none_device
  4

  6

 40
0.0
 41
0.0
 42
0.0
 43
0.0
 44
0.0
 45
0.0
 46
0.0
 47
0.0
 48
0.0
 49
0.0
140
0.0
141
0.0
142
1.0
143
1.0
 70
   688
 72
     1
 73
     0
 74
     5
  7

 75
    16
147
1.0
148
0.0
149
0.0
100
AcDbLayout
  1
Layout1
 70
     1
 71
     1
 10
0.0
 20
0.0
 11
420.0
 21
297.0
 12
0.0
 22
0.0
 32
0.0
 14
1.000000000000000E+20
 24
1.000000000000000E+20
 34
1.000000000000000E+20
 15
-1.000000000000000E+20
 25
-1.000000000000000E+20
 35
-1.000000000000000E+20
146
0.0
 13
0.0
 23
0.0
 33
0.0
 16
1.0
 26
0.0
 36
0.0
 17
0.0
 27
1.0
 37
0.0
 76
     0
330
1B
  0
LAYOUT
  5
26
102
{ACAD_REACTORS
330
1A
102
}
330
1A
100
AcDbPlotSettings
  1

  2
none_device
  4

  6

 40
0.0
 41
0.0
 42
0.0
 43
0.0
 44
0.0
 45
0.0
 46
0.0
 47
0.0
 48
0.0
 49
0.0
140
0.0
141
0.0
142
1.0
143
1.0
 70
   688
 72
     1
 73
     0
 74
     5
  7

 75
    16
147
1.0
148
0.0
149
0.0
100
AcDbLayout
  1
Layout2
 70
     1
 71
     2
 10
0.0
 20
0.0
 11
0.0
 21
0.0
 12
0.0
 22
0.0
 32
0.0
 14
0.0
 24
0.0
 34
0.0
 15
0.0
 25
0.0
 35
0.0
146
0.0
 13
0.0
 23
0.0
 33
0.0
 16
1.0
 26
0.0
 36
0.0
 17
0.0
 27
1.0
 37
0.0
 76
     0
330
23
  0
LAYOUT
  5
22
102
{ACAD_REACTORS
330
1A
102
}
330
1A
100
AcDbPlotSettings
  1

  2
none_device
  4
ANSI_A_(11.00_x_8.50_Inches)
  6

 40
6.35
 41
19.05
 42
6.35000508
 43
19.05000254
 44
279.4
 45
215.9
 46
85.50511322142556
 47
81.41397316176804
 48
0.0
 49
0.0
140
0.0
141
0.0
142
0.0738977005192881
143
1.0
 70
  1696
 72
     0
 73
     0
 74
     0
  7

 75
     0
147
0.0235690232323232
148
0.0
149
0.0
100
AcDbLayout
  1
Model
 70
     1
 71
     0
 10
0.0
 20
0.0
 11
420.0
 21
297.0
 12
0.0
 22
0.0
 32
0.0
 14
-29.77500000000009
 24
-49.75070660587842
 34
0.0
 15
99.17300279016857
 25
52.49342114713498
 35
0.0
146
0.0
 13
0.0
 23
0.0
 33
0.0
 16
1.0
 26
0.0
 36
0.0
 17
0.0
 27
1.0
 37
0.0
 76
     0
330
1F
331
29
  0
MLINESTYLE
  5
18
102
{ACAD_REACTORS
330
17
102
}
330
17
100
AcDbMlineStyle
  2
Standard
 70
     0
  3

 62
   256
 51
90.0
 52
90.0
 71
     2
 49
0.5
 62
   256
  6
BYLAYER
 49
-0.5
 62
   256
  6
BYLAYER
  0
ACDBPLACEHOLDER
  5
F
102
{ACAD_REACTORS
330
E
102
}
330
E
  0
SCALE
  5
48
102
{ACAD_REACTORS
330
47
102
}
330
47
100
AcDbScale
 70
     0
300
1:1
140
1.0
141
1.0
290
     1
  0
SCALE
  5
49
102
{ACAD_REACTORS
330
47
102
}
330
47
100
AcDbScale
 70
     0
300
1:2
140
1.0
141
2.0
290
     0
  0
SCALE
  5
4A
102
{ACAD_REACTORS
330
47
102
}
330
47
100
AcDbScale
 70
     0
300
1:4
140
1.0
141
4.0
290
     0
  0
SCALE
  5
4B
102
{ACAD_REACTORS
330
47
102
}
330
47
100
AcDbScale
 70
     0
300
1:5
140
1.0
141
5.0
290
     0
  0
SCALE
  5
4C
102
{ACAD_REACTORS
330
47
102
}
330
47
100
AcDbScale
 70
     0
300
1:8
140
1.0
141
8.0
290
     0
  0
SCALE
  5
4D
102
{ACAD_REACTORS
330
47
102
}
330
47
100
AcDbScale
 70
     0
300
1:10
140
1.0
141
10.0
290
     0
  0
SCALE
  5
4E
102
{ACAD_REACTORS
330
47
102
}
330
47
100
AcDbScale
 70
     0
300
1:16
140
1.0
141
16.0
290
     0
  0
SCALE
  5
4F
102
{ACAD_REACTORS
330
47
102
}
330
47
100
AcDbScale
 70
     0
300
1:20
140
1.0
141
20.0
290
     0
  0
SCALE
  5
50
102
{ACAD_REACTORS
330
47
102
}
330
47
100
AcDbScale
 70
     0
300
1:30
140
1.0
141
30.0
290
     0
  0
SCALE
  5
51
102
{ACAD_REACTORS
330
47
102
}
330
47
100
AcDbScale
 70
     0
300
1:40
140
1.0
141
40.0
290
     0
  0
SCALE
  5
52
102
{ACAD_REACTORS
330
47
102
}
330
47
100
AcDbScale
 70
     0
300
1:50
140
1.0
141
50.0
290
     0
  0
SCALE
  5
53
102
{ACAD_REACTORS
330
47
102
}
330
47
100
AcDbScale
 70
     0
300
1:100
140
1.0
141
100.0
290
     0
  0
SCALE
  5
54
102
{ACAD_REACTORS
330
47
102
}
330
47
100
AcDbScale
 70
     0
300
2:1
140
2.0
141
1.0
290
     0
  0
SCALE
  5
55
102
{ACAD_REACTORS
330
47
102
}
330
47
100
AcDbScale
 70
     0
300
4:1
140
4.0
141
1.0
290
     0
  0
SCALE
  5
56
102
{ACAD_REACTORS
330
47
102
}
330
47
100
AcDbScale
 70
     0
300
8:1
140
8.0
141
1.0
290
     0
  0
SCALE
  5
57
102
{ACAD_REACTORS
330
47
102
}
330
47
100
AcDbScale
 70
     0
300
10:1
140
10.0
141
1.0
290
     0
  0
SCALE
  5
58
102
{ACAD_REACTORS
330
47
102
}
330
47
100
AcDbScale
 70
     0
300
100:1
140
100.0
141
1.0
290
     0
  0
SCALE
  5
59
102
{ACAD_REACTORS
330
47
102
}
330
47
100
AcDbScale
 70
     0
300
1/128" = 1'-0"
140
0.0078125
141
12.0
290
     0
  0
SCALE
  5
5A
102
{ACAD_REACTORS
330
47
102
}
330
47
100
AcDbScale
 70
     0
300
1/64" = 1'-0"
140
0.015625
141
12.0
290
     0
  0
SCALE
  5
5B
102
{ACAD_REACTORS
330
47
102
}
330
47
100
AcDbScale
 70
     0
300
1/32" = 1'-0"
140
0.03125
141
12.0
290
     0
  0
SCALE
  5
5C
102
{ACAD_REACTORS
330
47
102
}
330
47
100
AcDbScale
 70
     0
300
1/16" = 1'-0"
140
0.0625
141
12.0
290
     0
  0
SCALE
  5
5D
102
{ACAD_REACTORS
330
47
102
}
330
47
100
AcDbScale
 70
     0
300
3/32" = 1'-0"
140
0.09375
141
12.0
290
     0
  0
SCALE
  5
5E
102
{ACAD_REACTORS
330
47
102
}
330
47
100
AcDbScale
 70
     0
300
1/8" = 1'-0"
140
0.125
141
12.0
290
     0
  0
SCALE
  5
5F
102
{ACAD_REACTORS
330
47
102
}
330
47
100
AcDbScale
 70
     0
300
3/16" = 1'-0"
140
0.1875
141
12.0
290
     0
  0
SCALE
  5
60
102
{ACAD_REACTORS
330
47
102
}
330
47
100
AcDbScale
 70
     0
300
1/4" = 1'-0"
140
0.25
141
12.0
290
     0
  0
SCALE
  5
61
102
{ACAD_REACTORS
330
47
102
}
330
47
100
AcDbScale
 70
     0
300
3/8" = 1'-0"
140
0.375
141
12.0
290
     0
  0
SCALE
  5
62
102
{ACAD_REACTORS
330
47
102
}
330
47
100
AcDbScale
 70
     0
300
1/2" = 1'-0"
140
0.5
141
12.0
290
     0
  0
SCALE
  5
63
102
{ACAD_REACTORS
330
47
102
}
330
47
100
AcDbScale
 70
     0
300
3/4" = 1'-0"
140
0.75
141
12.0
290
     0
  0
SCALE
  5
64
102
{ACAD_REACTORS
330
47
102
}
330
47
100
AcDbScale
 70
     0
300
1" = 1'-0"
140
1.0
141
12.0
290
     0
  0
SCALE
  5
65
102
{ACAD_REACTORS
330
47
102
}
330
47
100
AcDbScale
 70
     0
300
1-1/2" = 1'-0"
140
1.5
141
12.0
290
     0
  0
SCALE
  5
66
102
{ACAD_REACTORS
330
47
102
}
330
47
100
AcDbScale
 70
     0
300
3" = 1'-0"
140
3.0
141
12.0
290
     0
  0
SCALE
  5
67
102
{ACAD_REACTORS
330
47
102
}
330
47
100
AcDbScale
 70
     0
300
6" = 1'-0"
140
6.0
141
12.0
290
     0
  0
SCALE
  5
68
102
{ACAD_REACTORS
330
47
102
}
330
47
100
AcDbScale
 70
     0
300
1'-0" = 1'-0"
140
12.0
141
12.0
290
     0
  0
ENDSEC
  0
EOF
