  0
SECTION
  2
HEADER
  9
$ACADVER
  1
AC1015
  9
$ACADMAINTVER
 70
     6
  9
$DWGCODEPAGE
  3
ANSI_949
  9
$INSBASE
 10
0.0
 20
0.0
 30
0.0
  9
$EXTMIN
 10
1.000000000000000E+20
 20
1.000000000000000E+20
 30
1.000000000000000E+20
  9
$EXTMAX
 10
-1.000000000000000E+20
 20
-1.000000000000000E+20
 30
-1.000000000000000E+20
  9
$LIMMIN
 10
0.0
 20
0.0
  9
$LIMMAX
 10
420.0
 20
297.0
  9
$ORTHOMODE
 70
     1
  9
$REGENMODE
 70
     1
  9
$FILLMODE
 70
     1
  9
$QTEXTMODE
 70
     0
  9
$MIRRTEXT
 70
     1
  9
$LTSCALE
 40
1.0
  9
$ATTMODE
 70
     1
  9
$TEXTSIZE
 40
3.5
  9
$TRACEWID
 40
1.0
  9
$TEXTSTYLE
  7
Standard
  9
$CLAYER
  8
0
  9
$CELTYPE
  6
ByLayer
  9
$CECOLOR
 62
   256
  9
$CELTSCALE
 40
1.0
  9
$DISPSILH
 70
     0
  9
$DIMSCALE
 40
1.0
  9
$DIMASZ
 40
3.302
  9
$DIMEXO
 40
1.0
  9
$DIMDLI
 40
3.75
  9
$DIMRND
 40
0.0
  9
$DIMDLE
 40
0.0
  9
$DIMEXE
 40
1.0
  9
$DIMTP
 40
0.0
  9
$DIMTM
 40
0.0
  9
$DIMTXT
 40
3.5
  9
$DIMCEN
 40
2.5
  9
$DIMTSZ
 40
0.0
  9
$DIMTOL
 70
     0
  9
$DIMLIM
 70
     0
  9
$DIMTIH
 70
     1
  9
$DIMTOH
 70
     1
  9
$DIMSE1
 70
     0
  9
$DIMSE2
 70
     0
  9
$DIMTAD
 70
     1
  9
$DIMZIN
 70
     0
  9
$DIMBLK
  1

  9
$DIMASO
 70
     1
  9
$DIMSHO
 70
     1
  9
$DIMPOST
  1

  9
$DIMAPOST
  1

  9
$DIMALT
 70
     0
  9
$DIMALTD
 70
     3
  9
$DIMALTF
 40
0.0393700787401575
  9
$DIMLFAC
 40
1.0
  9
$DIMTOFL
 70
     1
  9
$DIMTVP
 40
0.0
  9
$DIMTIX
 70
     0
  9
$DIMSOXD
 70
     0
  9
$DIMSAH
 70
     0
  9
$DIMBLK1
  1

  9
$DIMBLK2
  1

  9
$DIMSTYLE
  2
ISO-25
  9
$DIMCLRD
 70
     0
  9
$DIMCLRE
 70
     0
  9
$DIMCLRT
 70
     0
  9
$DIMTFAC
 40
1.0
  9
$DIMGAP
 40
1.524
  9
$DIMJUST
 70
     0
  9
$DIMSD1
 70
     0
  9
$DIMSD2
 70
     0
  9
$DIMTOLJ
 70
     0
  9
$DIMTZIN
 70
     0
  9
$DIMALTZ
 70
     0
  9
$DIMALTTZ
 70
     0
  9
$DIMUPT
 70
     0
  9
$DIMDEC
 70
     2
  9
$DIMTDEC
 70
     2
  9
$DIMALTU
 70
     2
  9
$DIMALTTD
 70
     3
  9
$DIMTXSTY
  7
Standard
  9
$DIMAUNIT
 70
     0
  9
$DIMADEC
 70
     2
  9
$DIMALTRND
 40
0.0
  9
$DIMAZIN
 70
     0
  9
$DIMDSEP
 70
    44
  9
$DIMATFIT
 70
     3
  9
$DIMFRAC
 70
     0
  9
$DIMLDRBLK
  1

  9
$DIMLUNIT
 70
     2
  9
$DIMLWD
 70
    -2
  9
$DIMLWE
 70
    -2
  9
$DIMTMOVE
 70
     0
  9
$LUNITS
 70
     2
  9
$LUPREC
 70
     2
  9
$SKETCHINC
 40
1.0
  9
$FILLETRAD
 40
10.0
  9
$AUNITS
 70
     0
  9
$AUPREC
 70
     2
  9
$MENU
  1
.
  9
$ELEVATION
 40
0.0
  9
$PELEVATION
 40
0.0
  9
$THICKNESS
 40
0.0
  9
$LIMCHECK
 70
     0
  9
$CHAMFERA
 40
0.0
  9
$CHAMFERB
 40
0.0
  9
$CHAMFERC
 40
0.0
  9
$CHAMFERD
 40
0.0
  9
$SKPOLY
 70
     0
  9
$TDCREATE
 40
2458316.447505475
  9
$TDUCREATE
 40
2458316.072505475
  9
$TDUPDATE
 40
2458323.72095081
  9
$TDUUPDATE
 40
2458323.34595081
  9
$TDINDWG
 40
0.0010247106
  9
$TDUSRTIMER
 40
2458323.344926308
  9
$USRTIMER
 70
     1
  9
$ANGBASE
 50
0.0
  9
$ANGDIR
 70
     0
  9
$PDMODE
 70
     0
  9
$PDSIZE
 40
-1.0
  9
$PLINEWID
 40
0.0
  9
$SPLFRAME
 70
     0
  9
$SPLINETYPE
 70
     6
  9
$SPLINESEGS
 70
     8
  9
$HANDSEED
  5
2BF
  9
$SURFTAB1
 70
     6
  9
$SURFTAB2
 70
     6
  9
$SURFTYPE
 70
     6
  9
$SURFU
 70
     6
  9
$SURFV
 70
     6
  9
$UCSBASE
  2

  9
$UCSNAME
  2

  9
$UCSORG
 10
0.0
 20
0.0
 30
0.0
  9
$UCSXDIR
 10
1.0
 20
0.0
 30
0.0
  9
$UCSYDIR
 10
0.0
 20
1.0
 30
0.0
  9
$UCSORTHOREF
  2

  9
$UCSORTHOVIEW
 70
     0
  9
$UCSORGTOP
 10
0.0
 20
0.0
 30
0.0
  9
$UCSORGBOTTOM
 10
0.0
 20
0.0
 30
0.0
  9
$UCSORGLEFT
 10
0.0
 20
0.0
 30
0.0
  9
$UCSORGRIGHT
 10
0.0
 20
0.0
 30
0.0
  9
$UCSORGFRONT
 10
0.0
 20
0.0
 30
0.0
  9
$UCSORGBACK
 10
0.0
 20
0.0
 30
0.0
  9
$PUCSBASE
  2

  9
$PUCSNAME
  2

  9
$PUCSORG
 10
0.0
 20
0.0
 30
0.0
  9
$PUCSXDIR
 10
1.0
 20
0.0
 30
0.0
  9
$PUCSYDIR
 10
0.0
 20
1.0
 30
0.0
  9
$PUCSORTHOREF
  2

  9
$PUCSORTHOVIEW
 70
     0
  9
$PUCSORGTOP
 10
0.0
 20
0.0
 30
0.0
  9
$PUCSORGBOTTOM
 10
0.0
 20
0.0
 30
0.0
  9
$PUCSORGLEFT
 10
0.0
 20
0.0
 30
0.0
  9
$PUCSORGRIGHT
 10
0.0
 20
0.0
 30
0.0
  9
$PUCSORGFRONT
 10
0.0
 20
0.0
 30
0.0
  9
$PUCSORGBACK
 10
0.0
 20
0.0
 30
0.0
  9
$USERI1
 70
     0
  9
$USERI2
 70
     0
  9
$USERI3
 70
     0
  9
$USERI4
 70
     0
  9
$USERI5
 70
     0
  9
$USERR1
 40
0.0
  9
$USERR2
 40
0.0
  9
$USERR3
 40
0.0
  9
$USERR4
 40
0.0
  9
$USERR5
 40
0.0
  9
$WORLDVIEW
 70
     1
  9
$SHADEDGE
 70
     3
  9
$SHADEDIF
 70
    70
  9
$TILEMODE
 70
     1
  9
$MAXACTVP
 70
    64
  9
$PINSBASE
 10
0.0
 20
0.0
 30
0.0
  9
$PLIMCHECK
 70
     0
  9
$PEXTMIN
 10
1.000000000000000E+20
 20
1.000000000000000E+20
 30
1.000000000000000E+20
  9
$PEXTMAX
 10
-1.000000000000000E+20
 20
-1.000000000000000E+20
 30
-1.000000000000000E+20
  9
$PLIMMIN
 10
0.0
 20
0.0
  9
$PLIMMAX
 10
0.0
 20
0.0
  9
$UNITMODE
 70
     0
  9
$VISRETAIN
 70
     1
  9
$PLINEGEN
 70
     0
  9
$PSLTSCALE
 70
     1
  9
$TREEDEPTH
 70
  3020
  9
$CMLSTYLE
  2
Standard
  9
$CMLJUST
 70
     0
  9
$CMLSCALE
 40
20.0
  9
$PROXYGRAPHICS
 70
     1
  9
$MEASUREMENT
 70
     1
  9
$CELWEIGHT
370
    -1
  9
$ENDCAPS
280
     0
  9
$JOINSTYLE
280
     0
  9
$LWDISPLAY
290
     1
  9
$INSUNITS
 70
     4
  9
$HYPERLINKBASE
  1

  9
$STYLESHEET
  1

  9
$XEDIT
290
     1
  9
$CEPSNTYPE
380
     0
  9
$PSTYLEMODE
290
     1
  9
$FINGERPRINTGUID
  2
{20802CBA-B5F7-410C-BE9E-214F57241BE5}
  9
$VERSIONGUID
  2
{FAEB1C32-E019-11D5-929B-00C0DF256EC4}
  9
$EXTNAMES
290
     1
  9
$PSVPSCALE
 40
0.0
  9
$OLESTARTUP
290
     0
  0
ENDSEC
  0
SECTION
  2
CLASSES
  0
CLASS
  1
ACDBDICTIONARYWDFLT
  2
AcDbDictionaryWithDefault
  3
ObjectDBX Classes
 90
        0
280
     0
281
     0
  0
CLASS
  1
VISUALSTYLE
  2
AcDbVisualStyle
  3
ObjectDBX Classes
 90
     4095
280
     0
281
     0
  0
CLASS
  1
MATERIAL
  2
AcDbMaterial
  3
ObjectDBX Classes
 90
     1153
280
     0
281
     0
  0
CLASS
  1
SCALE
  2
AcDbScale
  3
ObjectDBX Classes
 90
     1153
280
     0
281
     0
  0
CLASS
  1
SUN
  2
AcDbSun
  3
SCENEOE
 90
     1153
280
     0
281
     0
  0
CLASS
  1
ACDBPLACEHOLDER
  2
AcDbPlaceHolder
  3
ObjectDBX Classes
 90
        0
280
     0
281
     0
  0
CLASS
  1
LAYOUT
  2
AcDbLayout
  3
ObjectDBX Classes
 90
        0
280
     0
281
     0
  0
CLASS
  1
TABLESTYLE
  2
AcDbTableStyle
  3
ObjectDBX Classes
 90
     4095
280
     0
281
     0
  0
CLASS
  1
MLEADERSTYLE
  2
AcDbMLeaderStyle
  3
ACDB_MLEADERSTYLE_CLASS
 90
     4095
280
     0
281
     0
  0
CLASS
  1
RASTERVARIABLES
  2
AcDbRasterVariables
  3
ISM
 90
        0
280
     0
281
     0
  0
ENDSEC
  0
SECTION
  2
TABLES
  0
TABLE
  2
VPORT
  5
8
330
0
100
AcDbSymbolTable
 70
     1
  0
VPORT
  5
29
330
8
100
AcDbSymbolTableRecord
100
AcDbViewportTableRecord
  2
*Active
 70
     0
 10
0.0
 20
0.0
 11
1.0
 21
1.0
 12
49.70859524781253
 22
7.684765060906827
 13
0.0
 23
0.0
 14
10.0
 24
10.0
 15
10.0
 25
10.0
 16
0.0
 26
0.0
 36
1.0
 17
0.0
 27
0.0
 37
0.0
 40
189.7398015033051
 41
1.970186335403727
 42
50.0
 43
0.0
 44
0.0
 50
0.0
 51
0.0
 71
    16
 72
  2000
 73
     1
 74
     3
 75
     0
 76
     0
 77
     0
 78
     0
281
     0
 65
     1
110
0.0
120
0.0
130
0.0
111
1.0
121
0.0
131
0.0
112
0.0
122
1.0
132
0.0
 79
     0
146
0.0
  0
ENDTAB
  0
TABLE
  2
LTYPE
  5
5
330
0
100
AcDbSymbolTable
 70
     6
  0
LTYPE
  5
14
330
5
100
AcDbSymbolTableRecord
100
AcDbLinetypeTableRecord
  2
ByBlock
 70
     0
  3

 72
    65
 73
     0
 40
0.0
  0
LTYPE
  5
15
330
5
100
AcDbSymbolTableRecord
100
AcDbLinetypeTableRecord
  2
ByLayer
 70
     0
  3

 72
    65
 73
     0
 40
0.0
  0
LTYPE
  5
16
330
5
100
AcDbSymbolTableRecord
100
AcDbLinetypeTableRecord
  2
Continuous
 70
     0
  3
Solid line
 72
    65
 73
     0
 40
0.0
  0
LTYPE
  5
6A
330
5
100
AcDbSymbolTableRecord
100
AcDbLinetypeTableRecord
  2
HIDDEN
 70
     0
  3
Hidden __ __ __ __ __ __ __ __ __ __ __ __ __ __
 72
    65
 73
     2
 40
1.905
 49
1.27
 74
     0
 49
-0.635
 74
     0
  0
LTYPE
  5
6B
330
5
100
AcDbSymbolTableRecord
100
AcDbLinetypeTableRecord
  2
PHANTOM
 70
     0
  3
Phantom ______  __  __  ______  __  __  ______
 72
    65
 73
     6
 40
12.7
 49
6.35
 74
     0
 49
-1.27
 74
     0
 49
1.27
 74
     0
 49
-1.27
 74
     0
 49
1.27
 74
     0
 49
-1.27
 74
     0
  0
LTYPE
  5
6C
330
5
100
AcDbSymbolTableRecord
100
AcDbLinetypeTableRecord
  2
CENTER
 70
     0
  3
Center ____ _ ____ _ ____ _ ____ _ ____ _ ____
 72
    65
 73
     4
 40
10.16
 49
6.35
 74
     0
 49
-1.27
 74
     0
 49
1.27
 74
     0
 49
-1.27
 74
     0
  0
LTYPE
  5
6D
330
5
100
AcDbSymbolTableRecord
100
AcDbLinetypeTableRecord
  2
CENTERX2
 70
     0
  3
Center (2x) ________  __  ________  __  _____
 72
    65
 73
     4
 40
20.32
 49
12.7
 74
     0
 49
-2.54
 74
     0
 49
2.54
 74
     0
 49
-2.54
 74
     0
  0
LTYPE
  5
6E
330
5
100
AcDbSymbolTableRecord
100
AcDbLinetypeTableRecord
  2
DOT2
 70
     0
  3
Dot (.5x) ........................................
 72
    65
 73
     2
 40
0.635
 49
0.0
 74
     0
 49
-0.635
 74
     0
  0
ENDTAB
  0
TABLE
  2
LAYER
  5
2
102
{ACAD_XDICTIONARY
360
20A
102
}
330
0
100
AcDbSymbolTable
 70
    18
  0
LAYER
  5
10
330
2
100
AcDbSymbolTableRecord
100
AcDbLayerTableRecord
  2
0
 70
     0
 62
     7
  6
Continuous
370
    -3
390
F
  0
LAYER
  5
6F
330
2
100
AcDbSymbolTableRecord
100
AcDbLayerTableRecord
  2
FORMAT
 70
     0
 62
     2
  6
Continuous
370
    -3
390
F
  0
LAYER
  5
70
330
2
100
AcDbSymbolTableRecord
100
AcDbLayerTableRecord
  2
외형선
 70
     0
 62
     4
  6
Continuous
370
    30
390
F
  0
LAYER
  5
71
330
2
100
AcDbSymbolTableRecord
100
AcDbLayerTableRecord
  2
숨은선
 70
     0
 62
     2
  6
HIDDEN
370
    15
390
F
  0
LAYER
  5
72
330
2
100
AcDbSymbolTableRecord
100
AcDbLayerTableRecord
  2
중심선
 70
     0
 62
     1
  6
CENTERX2
370
    -3
390
F
  0
LAYER
  5
73
330
2
100
AcDbSymbolTableRecord
100
AcDbLayerTableRecord
  2
파단선
 70
     0
 62
     4
  6
Continuous
370
    -3
390
F
  0
LAYER
  5
74
330
2
100
AcDbSymbolTableRecord
100
AcDbLayerTableRecord
  2
해칭선
 70
     0
 62
   100
  6
Continuous
370
    -3
390
F
  0
LAYER
  5
75
330
2
100
AcDbSymbolTableRecord
100
AcDbLayerTableRecord
  2
가는실선
 70
     0
 62
     4
  6
Continuous
370
    -3
390
F
  0
LAYER
  5
76
330
2
100
AcDbSymbolTableRecord
100
AcDbLayerTableRecord
  2
치수_보조선
 70
     0
 62
     4
  6
Continuous
370
    -3
390
F
  0
LAYER
  5
77
330
2
100
AcDbSymbolTableRecord
100
AcDbLayerTableRecord
  2
치수문자_일반주서
 70
     0
 62
     7
  6
Continuous
370
    15
390
F
  0
LAYER
  5
78
330
2
100
AcDbSymbolTableRecord
100
AcDbLayerTableRecord
  2
개별주서
 70
     0
 62
   100
  6
Continuous
370
    30
390
F
  0
LAYER
  5
79
330
2
100
AcDbSymbolTableRecord
100
AcDbLayerTableRecord
  2
중간선
 70
     0
 62
     2
  6
Continuous
370
    15
390
F
  0
LAYER
  5
7A
330
2
100
AcDbSymbolTableRecord
100
AcDbLayerTableRecord
  2
윤곽선
 70
     0
 62
     3
  6
Continuous
370
    40
390
F
  0
LAYER
  5
7B
330
2
100
AcDbSymbolTableRecord
100
AcDbLayerTableRecord
  2
중심마크
 70
     0
 62
   100
  6
Continuous
370
    30
390
F
  0
LAYER
  5
7C
330
2
100
AcDbSymbolTableRecord
100
AcDbLayerTableRecord
  2
가상선
 70
     0
 62
     4
  6
PHANTOM
370
    -3
390
F
  0
LAYER
  5
7D
330
2
100
AcDbSymbolTableRecord
100
AcDbLayerTableRecord
  2
특수지정선
 70
     0
 62
     5
  6
CENTERX2
370
    60
390
F
  0
LAYER
  5
7E
330
2
100
AcDbSymbolTableRecord
100
AcDbLayerTableRecord
  2
참조1
 70
     0
 62
    -4
  6
Continuous
370
    -3
390
F
  0
LAYER
  5
152
330
2
100
AcDbSymbolTableRecord
100
AcDbLayerTableRecord
  2
Defpoints
 70
     0
 62
     7
  6
Continuous
290
     0
370
    -3
390
F
  0
ENDTAB
  0
TABLE
  2
STYLE
  5
3
330
0
100
AcDbSymbolTable
 70
     2
  0
STYLE
  5
11
330
3
100
AcDbSymbolTableRecord
100
AcDbTextStyleTableRecord
  2
Standard
 70
     0
 40
0.0
 41
1.0
 50
0.0
 71
     0
 42
3.5
  3
txt
  4

  0
STYLE
  5
94
330
3
100
AcDbSymbolTableRecord
100
AcDbTextStyleTableRecord
  2
SLDTEXTSTYLE0
 70
     0
 40
0.0
 41
0.75
 50
0.0
 71
     0
 42
3.5
  3
TXT
  4

  0
ENDTAB
  0
TABLE
  2
VIEW
  5
6
330
0
100
AcDbSymbolTable
 70
     0
  0
ENDTAB
  0
TABLE
  2
UCS
  5
7
330
0
100
AcDbSymbolTable
 70
     0
  0
ENDTAB
  0
TABLE
  2
APPID
  5
9
330
0
100
AcDbSymbolTable
 70
     1
  0
APPID
  5
12
330
9
100
AcDbSymbolTableRecord
100
AcDbRegAppTableRecord
  2
ACAD
 70
     0
  0
ENDTAB
  0
TABLE
  2
DIMSTYLE
  5
A
330
0
100
AcDbSymbolTable
 70
     4
100
AcDbDimStyleTable
  0
DIMSTYLE
105
27
330
A
100
AcDbSymbolTableRecord
100
AcDbDimStyleTableRecord
  2
ISO-25
 70
     0
 41
2.5
 42
0.625
 43
3.75
 44
1.25
 73
     0
 74
     0
 77
     1
 78
     8
140
2.5
141
2.5
143
0.03937007874016
147
0.625
171
     3
172
     1
178
     0
271
     2
272
     2
274
     3
278
    44
283
     0
284
     8
340
11
  0
DIMSTYLE
105
CE
330
A
100
AcDbSymbolTableRecord
100
AcDbDimStyleTableRecord
  2
SLDDIMSTYLE0
 70
     0
 41
3.302
 44
0.0
 45
0.000000001
 73
     0
 74
     0
 77
     1
 78
    12
 79
     3
140
3.5
143
0.0393700787401575
147
0.875
148
0.000000001
170
     1
172
     1
173
     1
178
     0
271
     2
272
     2
276
     2
284
    12
289
     0
340
94
  0
DIMSTYLE
105
E3
330
A
100
AcDbSymbolTableRecord
100
AcDbDimStyleTableRecord
  2
SLDDIMSTYLE1
 70
     0
 41
3.302
 44
0.0
 45
0.000000001
 73
     0
 74
     0
 77
     1
 78
     4
 79
     1
140
3.5
143
0.0393700787401575
147
0.875
148
0.000000001
170
     1
173
     1
178
     0
271
     2
272
     2
276
     2
284
    12
340
94
  0
DIMSTYLE
105
10B
102
{ACAD_REACTORS
330
10A
330
1C9
330
1D9
330
1E6
330
1F3
330
CD
330
E2
330
F7
102
}
330
A
100
AcDbSymbolTableRecord
100
AcDbDimStyleTableRecord
  2
SLDDIMSTYLE2
 70
     0
 41
3.302
 44
0.0
 45
0.000000001
 73
     0
 74
     0
 77
     1
 78
     4
 79
     1
140
3.5
143
0.0393700787401575
147
0.875
148
0.000000001
170
     1
172
     1
173
     1
178
     0
271
     2
272
     2
276
     2
284
    12
289
     0
340
94
  0
ENDTAB
  0
TABLE
  2
BLOCK_RECORD
  5
1
330
0
100
AcDbSymbolTable
 70
    16
  0
BLOCK_RECORD
  5
1F
330
1
100
AcDbSymbolTableRecord
100
AcDbBlockTableRecord
  2
*Model_Space
340
22
  0
BLOCK_RECORD
  5
1B
330
1
100
AcDbSymbolTableRecord
100
AcDbBlockTableRecord
  2
*Paper_Space
340
1E
  0
BLOCK_RECORD
  5
23
330
1
100
AcDbSymbolTableRecord
100
AcDbBlockTableRecord
  2
*Paper_Space0
340
26
  0
BLOCK_RECORD
  5
7F
330
1
100
AcDbSymbolTableRecord
100
AcDbBlockTableRecord
  2
블럭10
340
0
102
{BLKREFS
331
C6
331
1AC
331
0
102
}
  0
BLOCK_RECORD
  5
CF
330
1
100
AcDbSymbolTableRecord
100
AcDbBlockTableRecord
  2
_D
340
0
  0
BLOCK_RECORD
  5
E4
330
1
100
AcDbSymbolTableRecord
100
AcDbBlockTableRecord
  2
_D_1
340
0
  0
BLOCK_RECORD
  5
F8
330
1
100
AcDbSymbolTableRecord
100
AcDbBlockTableRecord
  2
_D_2
340
0
  0
BLOCK_RECORD
  5
10C
330
1
100
AcDbSymbolTableRecord
100
AcDbBlockTableRecord
  2
_D_3
340
0
  0
BLOCK_RECORD
  5
126
330
1
100
AcDbSymbolTableRecord
100
AcDbBlockTableRecord
  2
SW_DOWELSYMBOL_0
340
0
102
{BLKREFS
331
12C
331
203
331
0
102
}
  0
BLOCK_RECORD
  5
20E
330
1
100
AcDbSymbolTableRecord
100
AcDbBlockTableRecord
  2
*D8
340
0
  0
BLOCK_RECORD
  5
21D
330
1
100
AcDbSymbolTableRecord
100
AcDbBlockTableRecord
  2
*D9
340
0
  0
BLOCK_RECORD
  5
229
330
1
100
AcDbSymbolTableRecord
100
AcDbBlockTableRecord
  2
*D10
340
0
  0
BLOCK_RECORD
  5
235
330
1
100
AcDbSymbolTableRecord
100
AcDbBlockTableRecord
  2
*D11
340
0
  0
BLOCK_RECORD
  5
281
330
1
100
AcDbSymbolTableRecord
100
AcDbBlockTableRecord
  2
*D12
340
0
  0
BLOCK_RECORD
  5
290
330
1
100
AcDbSymbolTableRecord
100
AcDbBlockTableRecord
  2
*D13
340
0
  0
BLOCK_RECORD
  5
29C
330
1
100
AcDbSymbolTableRecord
100
AcDbBlockTableRecord
  2
*D14
340
0
  0
BLOCK_RECORD
  5
2A8
330
1
100
AcDbSymbolTableRecord
100
AcDbBlockTableRecord
  2
*D15
340
0
  0
ENDTAB
  0
ENDSEC
  0
SECTION
  2
BLOCKS
  0
BLOCK
  5
20
330
1F
100
AcDbEntity
  8
0
100
AcDbBlockBegin
  2
*Model_Space
 70
     0
 10
0.0
 20
0.0
 30
0.0
  3
*Model_Space
  1
*Model_Space
  0
ENDBLK
  5
21
330
1F
100
AcDbEntity
  8
0
100
AcDbBlockEnd
  0
BLOCK
  5
1C
330
1B
100
AcDbEntity
 67
     1
  8
0
100
AcDbBlockBegin
  2
*Paper_Space
 70
     0
 10
0.0
 20
0.0
 30
0.0
  3
*Paper_Space
  1
*Paper_Space
  0
ENDBLK
  5
1D
330
1B
100
AcDbEntity
 67
     1
  8
0
100
AcDbBlockEnd
  0
BLOCK
  5
24
330
23
100
AcDbEntity
  8
0
100
AcDbBlockBegin
  2
*Paper_Space0
 70
     0
 10
0.0
 20
0.0
 30
0.0
  3
*Paper_Space0
  1
*Paper_Space0
  0
ENDBLK
  5
25
330
23
100
AcDbEntity
  8
0
100
AcDbBlockEnd
  0
BLOCK
  5
80
330
7F
100
AcDbEntity
  8
0
100
AcDbBlockBegin
  2
블럭10
 70
     2
 10
0.0
 20
0.0
 30
0.0
  3
블럭10
  1
블럭10
  0
ELLIPSE
  5
82
330
7F
100
AcDbEntity
  8
중심선
100
AcDbEllipse
 10
20.54032771741204
 20
12.0471743016438
 30
0.0
 11
6.600054785286829
 21
-1.261213355974178E-13
 31
0.0
210
0.0
220
0.0
230
1.0
 40
0.636358354079598
 41
0.9219305317359503
 42
6.513795318482858
  0
ELLIPSE
  5
83
330
7F
100
AcDbEntity
  8
중심선
100
AcDbEllipse
 10
20.54032771746488
 20
12.04717430159265
 30
0.0
 11
3.960054785062283
 21
1.540847449632565E-10
 31
0.0
210
0.0
220
0.0
230
1.0
 40
0.3939339440162632
 41
1.131841032648279
 42
5.62031148352944
  0
LINE
  5
84
330
7F
100
AcDbEntity
  8
중심선
100
AcDbLine
 10
2.268634060543552
 20
16.24717430164393
 30
0.0
 11
5.714909304380834
 21
16.24717430164393
 31
0.0
  0
LINE
  5
85
330
7F
100
AcDbEntity
  8
중심선
100
AcDbLine
 10
5.245725140726316
 20
7.84717430164391
 30
0.0
 11
8.692000384563599
 21
7.84717430164391
 31
0.0
  0
LINE
  5
86
330
7F
100
AcDbEntity
  8
중심선
100
AcDbLine
 10
15.74043728645272
 20
16.24717430164393
 30
0.0
 11
8.692000384563599
 21
7.84717430164391
 31
0.0
  0
LINE
  5
87
330
7F
100
AcDbEntity
  8
중심선
100
AcDbLine
 10
0.1404042013395286
 20
13.71084872107135
 30
0.0
 11
3.58671253028996
 21
13.71088815037384
 31
0.0
  0
LINE
  5
88
330
7F
100
AcDbEntity
  8
중심선
100
AcDbLine
 10
2.750260043222114
 20
10.84717430164391
 30
0.0
 11
6.196535287059397
 21
10.84717430164391
 31
0.0
  0
LINE
  5
89
330
7F
100
AcDbEntity
  8
중심선
100
AcDbLine
 10
12.29416204261559
 20
16.24717430164393
 30
0.0
 11
5.245725140726316
 21
7.84717430164391
 31
0.0
  0
LINE
  5
8A
330
7F
100
AcDbEntity
  8
중심선
100
AcDbLine
 10
10.72767329541681
 20
16.24717430164393
 30
0.0
 11
6.196535287059397
 21
10.84717430164391
 31
0.0
  0
LINE
  5
8B
330
7F
100
AcDbEntity
  8
중심선
100
AcDbLine
 10
7.28139805157953
 20
16.24717430164393
 30
0.0
 11
2.750260043222114
 21
10.84717430164391
 31
0.0
  0
LINE
  5
8C
330
7F
100
AcDbEntity
  8
중심선
100
AcDbLine
 10
5.714909304380834
 20
16.24717430164393
 30
0.0
 11
3.58671253028996
 21
13.71088815037384
 31
0.0
  0
LINE
  5
8D
330
7F
100
AcDbEntity
  8
중심선
100
AcDbLine
 10
2.268634060543552
 20
16.24717430164393
 30
0.0
 11
0.1404042013395286
 21
13.71084872107135
 31
0.0
  0
LINE
  5
8E
330
7F
100
AcDbEntity
  8
중심선
100
AcDbLine
 10
7.28139805157953
 20
16.24717430164393
 30
0.0
 11
10.72767329541681
 21
16.24717430164393
 31
0.0
  0
LINE
  5
8F
330
7F
100
AcDbEntity
  8
중심선
100
AcDbLine
 10
12.29416204261559
 20
16.24717430164393
 30
0.0
 11
15.74043728645272
 21
16.24717430164393
 31
0.0
  0
LINE
  5
90
330
7F
100
AcDbEntity
  8
중심선
100
AcDbLine
 10
19.22036997980202
 20
11.08717430171403
 30
0.0
 11
23.66174974927406
 21
11.08717430171406
 31
0.0
  0
LINE
  5
91
330
7F
100
AcDbEntity
  8
중심선
100
AcDbLine
 10
19.22039502424796
 20
13.00717430171391
 30
0.0
 11
19.22036997980202
 21
11.08717430171403
 31
0.0
  0
LINE
  5
92
330
7F
100
AcDbEntity
  8
중심선
100
AcDbLine
 10
19.22039502424796
 20
13.00717430171391
 30
0.0
 11
26.96566020931264
 21
13.00717430171391
 31
0.0
  0
LINE
  5
93
330
7F
100
AcDbEntity
  8
중심선
100
AcDbLine
 10
22.22332737316547
 20
13.45928029700563
 30
0.0
 11
24.52862924686651
 21
15.39360700705356
 31
0.0
  0
ATTDEF
  5
95
330
7F
100
AcDbEntity
  8
FORMAT
 62
     2
100
AcDbText
 10
4.408487351596664
 20
2.075366912832191
 30
0.0
 40
4.233333333333333
  1
E5067064
 41
0.75
  7
SLDTEXTSTYLE0
 11
4.408487351596664
 21
-0.0412997538344756
 31
0.0
100
AcDbAttributeDefinition
  3

  2
AUTOATTR0
 70
     0
 74
     1
  0
ENDBLK
  5
81
330
7F
100
AcDbEntity
  8
0
100
AcDbBlockEnd
  0
BLOCK
  5
D0
330
CF
100
AcDbEntity
  8
0
100
AcDbBlockBegin
  2
_D
 70
     0
 10
0.0
 20
0.0
 30
0.0
  3
_D
  1
_D
  0
LINE
  5
D2
330
CF
100
AcDbEntity
  8
치수문자_일반주서
 62
     0
370
    -2
100
AcDbLine
 10
62.8625
 20
12.65398161372425
 30
0.0
 11
82.19299775540172
 21
12.65398161372432
 31
0.0
  0
LINE
  5
D3
330
CF
100
AcDbEntity
  8
치수문자_일반주서
 62
     0
370
    -2
100
AcDbLine
 10
62.86250000000001
 20
-12.74601838627575
 30
0.0
 11
82.1929977554018
 21
-12.74601838627567
 31
0.0
  0
LINE
  5
D4
330
CF
100
AcDbEntity
  8
치수문자_일반주서
 62
     0
370
    -2
100
AcDbLine
 10
82.19299775540172
 20
12.65398161372432
 30
0.0
 11
82.19299775540159
 21
48.90398161372433
 31
0.0
  0
LINE
  5
D5
330
CF
100
AcDbEntity
  8
치수문자_일반주서
 62
     0
370
    -2
100
AcDbLine
 10
82.19299775540172
 20
12.65398161372432
 30
0.0
 11
82.1929977554018
 21
-12.74601838627567
 31
0.0
  0
LINE
  5
D6
330
CF
100
AcDbEntity
  8
치수문자_일반주서
 62
     0
370
    -2
100
AcDbLine
 10
82.1929977554017
 20
16.65398161372432
 30
0.0
 11
82.19299775540169
 21
20.65398161372432
 31
0.0
  0
LINE
  5
D7
330
CF
100
AcDbEntity
  8
치수문자_일반주서
 62
     0
370
    -2
100
AcDbLine
 10
82.19299775540182
 20
-16.74601838627567
 30
0.0
 11
82.19299775540183
 21
-20.74601838627567
 31
0.0
  0
SOLID
  5
D8
330
CF
100
AcDbEntity
  8
치수문자_일반주서
 62
     0
100
AcDbTrace
 10
81.52633108873503
 20
16.65398161372432
 30
0.0
 11
82.85966442206838
 21
16.65398161372433
 31
0.0
 12
82.19299775540172
 22
12.65398161372432
 32
0.0
 13
82.19299775540172
 23
12.65398161372432
 33
0.0
  0
SOLID
  5
D9
330
CF
100
AcDbEntity
  8
치수문자_일반주서
 62
     0
100
AcDbTrace
 10
82.85966442206849
 20
-16.74601838627567
 30
0.0
 11
81.52633108873515
 21
-16.74601838627568
 31
0.0
 12
82.1929977554018
 22
-12.74601838627567
 32
0.0
 13
82.1929977554018
 23
-12.74601838627567
 33
0.0
  0
MTEXT
  5
DA
330
CF
100
AcDbEntity
  8
치수문자_일반주서
 62
     0
100
AcDbMText
 10
77.31799775540163
 20
36.27898161372431
 30
0.0
 40
4.0
 41
0.0
 71
     2
 72
     1
  1
\A1;%%c25.40 [1]
  7
SLDTEXTSTYLE0
 11
-3.356894814614647E-15
 21
1.0
 31
0.0
 73
     1
 44
1.0
  0
POINT
  5
DB
330
CF
100
AcDbEntity
  8
Defpoints
 62
     0
100
AcDbPoint
 10
62.8
 20
12.65398161372425
 30
0.0
  0
POINT
  5
DC
330
CF
100
AcDbEntity
  8
Defpoints
 62
     0
100
AcDbPoint
 10
62.80000000000001
 20
-12.74601838627575
 30
0.0
  0
POINT
  5
DD
330
CF
100
AcDbEntity
  8
Defpoints
 62
     0
100
AcDbPoint
 10
82.1929977554018
 20
-12.74601838627567
 30
0.0
  0
ENDBLK
  5
D1
330
CF
100
AcDbEntity
  8
0
100
AcDbBlockEnd
  0
BLOCK
  5
E5
330
E4
100
AcDbEntity
  8
0
100
AcDbBlockBegin
  2
_D_1
 70
     0
 10
0.0
 20
0.0
 30
0.0
  3
_D_1
  1
_D_1
  0
LINE
  5
E7
330
E4
100
AcDbEntity
  8
치수문자_일반주서
 62
     0
370
    -2
100
AcDbLine
 10
62.8
 20
12.71648161372425
 30
0.0
 11
62.8
 21
38.95572817130187
 31
0.0
  0
LINE
  5
E8
330
E4
100
AcDbEntity
  8
치수문자_일반주서
 62
     0
370
    -2
100
AcDbLine
 10
12.0
 20
12.71648161372425
 30
0.0
 11
12.0
 21
38.95572817130187
 31
0.0
  0
LINE
  5
E9
330
E4
100
AcDbEntity
  8
치수문자_일반주서
 62
     0
370
    -2
100
AcDbLine
 10
58.8
 20
38.95572817130187
 30
0.0
 11
16.0
 21
38.95572817130187
 31
0.0
  0
SOLID
  5
EA
330
E4
100
AcDbEntity
  8
치수문자_일반주서
 62
     0
100
AcDbTrace
 10
58.8
 20
38.28906150463521
 30
0.0
 11
58.8
 21
39.62239483796854
 31
0.0
 12
62.8
 22
38.95572817130187
 32
0.0
 13
62.8
 23
38.95572817130187
 33
0.0
  0
SOLID
  5
EB
330
E4
100
AcDbEntity
  8
치수문자_일반주서
 62
     0
100
AcDbTrace
 10
16.0
 20
39.62239483796854
 30
0.0
 11
16.0
 21
38.28906150463521
 31
0.0
 12
12.0
 22
38.95572817130187
 32
0.0
 13
12.0
 23
38.95572817130187
 33
0.0
  0
MTEXT
  5
EC
330
E4
100
AcDbEntity
  8
치수문자_일반주서
 62
     0
100
AcDbMText
 10
37.40000000000001
 20
43.83072817130187
 30
0.0
 40
4.0
 41
0.0
 71
     2
 72
     1
  1
\A1;50.80 [2]
  7
SLDTEXTSTYLE0
 73
     1
 44
1.0
  0
POINT
  5
ED
330
E4
100
AcDbEntity
  8
Defpoints
 62
     0
100
AcDbPoint
 10
62.8
 20
12.65398161372425
 30
0.0
  0
POINT
  5
EE
330
E4
100
AcDbEntity
  8
Defpoints
 62
     0
100
AcDbPoint
 10
12.0
 20
12.65398161372425
 30
0.0
  0
POINT
  5
EF
330
E4
100
AcDbEntity
  8
Defpoints
 62
     0
100
AcDbPoint
 10
12.0
 20
38.95572817130187
 30
0.0
  0
ENDBLK
  5
E6
330
E4
100
AcDbEntity
  8
0
100
AcDbBlockEnd
  0
BLOCK
  5
F9
330
F8
100
AcDbEntity
  8
0
100
AcDbBlockBegin
  2
_D_2
 70
     0
 10
0.0
 20
0.0
 30
0.0
  3
_D_2
  1
_D_2
  0
LINE
  5
FB
330
F8
100
AcDbEntity
  8
치수문자_일반주서
 62
     0
370
    -2
100
AcDbLine
 10
62.8
 20
12.71648161372425
 30
0.0
 11
62.8
 21
56.1710687011412
 31
0.0
  0
LINE
  5
FC
330
F8
100
AcDbEntity
  8
치수문자_일반주서
 62
     0
370
    -2
100
AcDbLine
 10
-38.8
 20
10.17648161372426
 30
0.0
 11
-38.8
 21
56.1710687011412
 31
0.0
  0
LINE
  5
FD
330
F8
100
AcDbEntity
  8
치수문자_일반주서
 62
     0
370
    -2
100
AcDbLine
 10
58.8
 20
56.1710687011412
 30
0.0
 11
-34.8
 21
56.1710687011412
 31
0.0
  0
SOLID
  5
FE
330
F8
100
AcDbEntity
  8
치수문자_일반주서
 62
     0
100
AcDbTrace
 10
58.8
 20
55.50440203447454
 30
0.0
 11
58.8
 21
56.83773536780787
 31
0.0
 12
62.8
 22
56.1710687011412
 32
0.0
 13
62.8
 23
56.1710687011412
 33
0.0
  0
SOLID
  5
FF
330
F8
100
AcDbEntity
  8
치수문자_일반주서
 62
     0
100
AcDbTrace
 10
-34.8
 20
56.83773536780787
 30
0.0
 11
-34.8
 21
55.50440203447454
 31
0.0
 12
-38.8
 22
56.1710687011412
 32
0.0
 13
-38.8
 23
56.1710687011412
 33
0.0
  0
MTEXT
  5
100
330
F8
100
AcDbEntity
  8
치수문자_일반주서
 62
     0
100
AcDbMText
 10
12.0
 20
61.0460687011412
 30
0.0
 40
4.0
 41
0.0
 71
     2
 72
     1
  1
\A1;101.60 [4]
  7
SLDTEXTSTYLE0
 73
     1
 44
1.0
  0
POINT
  5
101
330
F8
100
AcDbEntity
  8
Defpoints
 62
     0
100
AcDbPoint
 10
62.8
 20
12.65398161372425
 30
0.0
  0
POINT
  5
102
330
F8
100
AcDbEntity
  8
Defpoints
 62
     0
100
AcDbPoint
 10
-38.8
 20
10.11398161372426
 30
0.0
  0
POINT
  5
103
330
F8
100
AcDbEntity
  8
Defpoints
 62
     0
100
AcDbPoint
 10
-38.8
 20
56.1710687011412
 30
0.0
  0
ENDBLK
  5
FA
330
F8
100
AcDbEntity
  8
0
100
AcDbBlockEnd
  0
BLOCK
  5
10D
330
10C
100
AcDbEntity
  8
0
100
AcDbBlockBegin
  2
_D_3
 70
     0
 10
0.0
 20
0.0
 30
0.0
  3
_D_3
  1
_D_3
  0
LINE
  5
10F
330
10C
100
AcDbEntity
  8
치수문자_일반주서
 62
     0
370
    -2
100
AcDbLine
 10
-36.32250000000001
 20
12.65398161372424
 30
0.0
 11
-56.85010880483053
 21
12.65398161372416
 31
0.0
  0
LINE
  5
110
330
10C
100
AcDbEntity
  8
치수문자_일반주서
 62
     0
370
    -2
100
AcDbLine
 10
-36.32250000000001
 20
-12.74601838627574
 30
0.0
 11
-56.85010880483045
 21
-12.74601838627581
 31
0.0
  0
LINE
  5
111
330
10C
100
AcDbEntity
  8
치수문자_일반주서
 62
     0
370
    -2
100
AcDbLine
 10
-56.85010880483053
 20
12.65398161372416
 30
0.0
 11
-56.85010880483065
 21
48.90398161372417
 31
0.0
  0
LINE
  5
112
330
10C
100
AcDbEntity
  8
치수문자_일반주서
 62
     0
370
    -2
100
AcDbLine
 10
-56.85010880483053
 20
12.65398161372416
 30
0.0
 11
-56.85010880483045
 21
-12.74601838627581
 31
0.0
  0
LINE
  5
113
330
10C
100
AcDbEntity
  8
치수문자_일반주서
 62
     0
370
    -2
100
AcDbLine
 10
-56.85010880483055
 20
16.65398161372416
 30
0.0
 11
-56.85010880483056
 21
20.65398161372416
 31
0.0
  0
LINE
  5
114
330
10C
100
AcDbEntity
  8
치수문자_일반주서
 62
     0
370
    -2
100
AcDbLine
 10
-56.85010880483043
 20
-16.74601838627581
 30
0.0
 11
-56.85010880483042
 21
-20.74601838627581
 31
0.0
  0
SOLID
  5
115
330
10C
100
AcDbEntity
  8
치수문자_일반주서
 62
     0
100
AcDbTrace
 10
-57.51677547149721
 20
16.65398161372416
 30
0.0
 11
-56.18344213816388
 21
16.65398161372417
 31
0.0
 12
-56.85010880483053
 22
12.65398161372416
 32
0.0
 13
-56.85010880483053
 23
12.65398161372416
 33
0.0
  0
SOLID
  5
116
330
10C
100
AcDbEntity
  8
치수문자_일반주서
 62
     0
100
AcDbTrace
 10
-56.18344213816377
 20
-16.74601838627581
 30
0.0
 11
-57.5167754714971
 21
-16.74601838627582
 31
0.0
 12
-56.85010880483045
 22
-12.74601838627581
 32
0.0
 13
-56.85010880483045
 23
-12.74601838627581
 33
0.0
  0
MTEXT
  5
117
330
10C
100
AcDbEntity
  8
치수문자_일반주서
 62
     0
100
AcDbMText
 10
-61.72510880483061
 20
36.27898161372416
 30
0.0
 40
4.0
 41
0.0
 71
     2
 72
     1
  1
\A1;%%c25.40 [1]
  7
SLDTEXTSTYLE0
 11
-3.356894814614650E-15
 21
1.0
 31
0.0
 73
     1
 44
1.0
  0
POINT
  5
2B7
330
10C
100
AcDbEntity
  8
Defpoints
 62
     0
100
AcDbPoint
 10
-36.26000000000001
 20
12.65398161372424
 30
0.0
  0
POINT
  5
2B8
330
10C
100
AcDbEntity
  8
Defpoints
 62
     0
100
AcDbPoint
 10
-36.26000000000001
 20
-12.74601838627574
 30
0.0
  0
POINT
  5
2B9
330
10C
100
AcDbEntity
  8
Defpoints
 62
     0
100
AcDbPoint
 10
-56.85010880483045
 20
-12.74601838627581
 30
0.0
  0
ENDBLK
  5
10E
330
10C
100
AcDbEntity
  8
0
100
AcDbBlockEnd
  0
BLOCK
  5
127
330
126
100
AcDbEntity
  8
0
100
AcDbBlockBegin
  2
SW_DOWELSYMBOL_0
 70
     0
 10
0.0
 20
0.0
 30
0.0
  3
SW_DOWELSYMBOL_0
  1
SW_DOWELSYMBOL_0
  0
CIRCLE
  5
129
330
126
100
AcDbEntity
  8
해칭선
 62
     0
100
AcDbCircle
 10
0.0
 20
0.0
 30
0.0
 40
3.000000000000001
  0
HATCH
  5
12A
330
126
100
AcDbEntity
  8
0
  6
Continuous
 62
     0
370
     0
100
AcDbHatch
 10
0.0
 20
0.0
 30
0.0
210
0.0
220
0.0
230
1.0
  2
SOLID
 70
     1
 71
     0
 91
        1
 92
        0
 93
        3
 72
     2
 10
0.0
 20
0.0
 40
3.000000000000001
 50
0.0
 51
90.0
 73
     1
 72
     1
 10
0.0
 20
3.000000000000001
 11
0.0
 21
0.0
 72
     1
 10
0.0
 20
0.0
 11
3.000000000000003
 21
0.0
 97
        0
 75
     0
 76
     1
 98
        1
 10
0.0
 20
0.0
  0
HATCH
  5
12B
330
126
100
AcDbEntity
  8
0
  6
Continuous
 62
     0
370
     0
100
AcDbHatch
 10
0.0
 20
0.0
 30
0.0
210
0.0
220
0.0
230
1.0
  2
SOLID
 70
     1
 71
     0
 91
        1
 92
        0
 93
        3
 72
     2
 10
0.0
 20
0.0
 40
3.000000000000001
 50
180.0
 51
270.0000000000008
 73
     1
 72
     1
 10
0.0
 20
-3.000000000000001
 11
0.0
 21
0.0
 72
     1
 10
0.0
 20
0.0
 11
-3.000000000000003
 21
0.0
 97
        0
 75
     0
 76
     1
 98
        1
 10
0.0
 20
0.0
  0
ENDBLK
  5
128
330
126
100
AcDbEntity
  8
0
100
AcDbBlockEnd
  0
BLOCK
  5
20F
330
20E
100
AcDbEntity
  8
0
100
AcDbBlockBegin
  2
*D8
 70
     1
 10
0.0
 20
0.0
 30
0.0
  3
*D8
  1
*D8
  0
LINE
  5
211
330
20E
100
AcDbEntity
  8
치수문자_일반주서
 62
     0
370
    -2
100
AcDbLine
 10
127.970031813922
 20
61.038289002536
 30
0.0
 11
148.0708383366639
 21
61.03828900253608
 31
0.0
  0
LINE
  5
212
330
20E
100
AcDbEntity
  8
치수문자_일반주서
 62
     0
370
    -2
100
AcDbLine
 10
127.970031813922
 20
38.813289002536
 30
0.0
 11
148.0708383366639
 21
38.81328900253607
 31
0.0
  0
LINE
  5
213
330
20E
100
AcDbEntity
  8
치수문자_일반주서
 62
     0
370
    -2
100
AcDbLine
 10
148.0708383366639
 20
61.03828900253608
 30
0.0
 11
148.0708383366637
 21
102.2882890025361
 31
0.0
  0
LINE
  5
214
330
20E
100
AcDbEntity
  8
치수문자_일반주서
 62
     0
370
    -2
100
AcDbLine
 10
148.0708383366639
 20
61.03828900253608
 30
0.0
 11
148.0708383366639
 21
38.81328900253607
 31
0.0
  0
LINE
  5
215
330
20E
100
AcDbEntity
  8
치수문자_일반주서
 62
     0
370
    -2
100
AcDbLine
 10
148.0708383366638
 20
65.03828900253608
 30
0.0
 11
148.0708383366638
 21
69.03828900253608
 31
0.0
  0
LINE
  5
216
330
20E
100
AcDbEntity
  8
치수문자_일반주서
 62
     0
370
    -2
100
AcDbLine
 10
148.070838336664
 20
34.81328900253607
 30
0.0
 11
148.070838336664
 21
30.81328900253607
 31
0.0
  0
SOLID
  5
217
330
20E
100
AcDbEntity
  8
치수문자_일반주서
 62
     0
100
AcDbTrace
 10
147.4041716699972
 20
65.03828900253608
 30
0.0
 11
148.7375050033305
 21
65.03828900253608
 31
0.0
 12
148.0708383366639
 22
61.03828900253608
 32
0.0
 13
148.0708383366639
 23
61.03828900253608
 33
0.0
  0
SOLID
  5
218
330
20E
100
AcDbEntity
  8
치수문자_일반주서
 62
     0
100
AcDbTrace
 10
148.7375050033306
 20
34.81328900253607
 30
0.0
 11
147.4041716699973
 21
34.81328900253607
 31
0.0
 12
148.0708383366639
 22
38.81328900253607
 32
0.0
 13
148.0708383366639
 23
38.81328900253607
 33
0.0
  0
MTEXT
  5
219
330
20E
100
AcDbEntity
  8
치수문자_일반주서
 62
     0
100
AcDbMText
 10
143.1958383366638
 20
85.66328900253605
 30
0.0
 40
4.0
 41
0.0
 71
     2
 72
     1
  1
\A1;%%c22.23 [0.88]
  7
SLDTEXTSTYLE0
 11
-3.836451216702454E-15
 21
1.0
 31
0.0
 73
     1
 44
1.0
  0
POINT
  5
21A
330
20E
100
AcDbEntity
  8
Defpoints
 62
     0
100
AcDbPoint
 10
127.907531813922
 20
61.038289002536
 30
0.0
  0
POINT
  5
21B
330
20E
100
AcDbEntity
  8
Defpoints
 62
     0
100
AcDbPoint
 10
127.907531813922
 20
38.813289002536
 30
0.0
  0
POINT
  5
21C
330
20E
100
AcDbEntity
  8
Defpoints
 62
     0
100
AcDbPoint
 10
148.0708383366639
 20
38.81328900253608
 30
0.0
  0
ENDBLK
  5
210
330
20E
100
AcDbEntity
  8
0
100
AcDbBlockEnd
  0
BLOCK
  5
21E
330
21D
100
AcDbEntity
  8
0
100
AcDbBlockBegin
  2
*D9
 70
     1
 10
0.0
 20
0.0
 30
0.0
  3
*D9
  1
*D9
  0
LINE
  5
220
330
21D
100
AcDbEntity
  8
치수문자_일반주서
 62
     0
370
    -2
100
AcDbLine
 10
127.907531813922
 20
61.100789002536
 30
0.0
 11
127.907531813922
 21
87.35162026055289
 31
0.0
  0
LINE
  5
221
330
21D
100
AcDbEntity
  8
치수문자_일반주서
 62
     0
370
    -2
100
AcDbLine
 10
77.10753181392204
 20
61.10063908414707
 30
0.0
 11
77.10753181392204
 21
87.35162026055289
 31
0.0
  0
LINE
  5
222
330
21D
100
AcDbEntity
  8
치수문자_일반주서
 62
     0
370
    -2
100
AcDbLine
 10
123.907531813922
 20
87.35162026055289
 30
0.0
 11
81.10753181392204
 21
87.35162026055289
 31
0.0
  0
SOLID
  5
223
330
21D
100
AcDbEntity
  8
치수문자_일반주서
 62
     0
100
AcDbTrace
 10
123.907531813922
 20
86.68495359388622
 30
0.0
 11
123.907531813922
 21
88.01828692721956
 31
0.0
 12
127.907531813922
 22
87.35162026055289
 32
0.0
 13
127.907531813922
 23
87.35162026055289
 33
0.0
  0
SOLID
  5
224
330
21D
100
AcDbEntity
  8
치수문자_일반주서
 62
     0
100
AcDbTrace
 10
81.10753181392204
 20
88.01828692721956
 30
0.0
 11
81.10753181392204
 21
86.68495359388622
 31
0.0
 12
77.10753181392204
 22
87.35162026055289
 32
0.0
 13
77.10753181392204
 23
87.35162026055289
 33
0.0
  0
MTEXT
  5
225
330
21D
100
AcDbEntity
  8
치수문자_일반주서
 62
     0
100
AcDbMText
 10
102.507531813922
 20
92.22662026055289
 30
0.0
 40
4.0
 41
0.0
 71
     2
 72
     1
  1
\A1;50.80 [2.00]
  7
SLDTEXTSTYLE0
 73
     1
 44
1.0
  0
POINT
  5
226
330
21D
100
AcDbEntity
  8
Defpoints
 62
     0
100
AcDbPoint
 10
127.907531813922
 20
61.038289002536
 30
0.0
  0
POINT
  5
227
330
21D
100
AcDbEntity
  8
Defpoints
 62
     0
100
AcDbPoint
 10
77.10753181392204
 20
61.03813908414707
 30
0.0
  0
POINT
  5
228
330
21D
100
AcDbEntity
  8
Defpoints
 62
     0
100
AcDbPoint
 10
77.10753181392204
 20
87.35162026055289
 30
0.0
  0
ENDBLK
  5
21F
330
21D
100
AcDbEntity
  8
0
100
AcDbBlockEnd
  0
BLOCK
  5
22A
330
229
100
AcDbEntity
  8
0
100
AcDbBlockBegin
  2
*D10
 70
     1
 10
0.0
 20
0.0
 30
0.0
  3
*D10
  1
*D10
  0
LINE
  5
22C
330
229
100
AcDbEntity
  8
치수문자_일반주서
 62
     0
370
    -2
100
AcDbLine
 10
127.907531813922
 20
61.100789002536
 30
0.0
 11
127.907531813922
 21
104.5669607903923
 31
0.0
  0
LINE
  5
22D
330
229
100
AcDbEntity
  8
치수문자_일반주서
 62
     0
370
    -2
100
AcDbLine
 10
26.30753181392203
 20
58.87828900253601
 30
0.0
 11
26.30753181392203
 21
104.5669607903923
 31
0.0
  0
LINE
  5
22E
330
229
100
AcDbEntity
  8
치수문자_일반주서
 62
     0
370
    -2
100
AcDbLine
 10
123.907531813922
 20
104.5669607903923
 30
0.0
 11
30.30753181392203
 21
104.5669607903923
 31
0.0
  0
SOLID
  5
22F
330
229
100
AcDbEntity
  8
치수문자_일반주서
 62
     0
100
AcDbTrace
 10
123.907531813922
 20
103.9002941237257
 30
0.0
 11
123.907531813922
 21
105.233627457059
 31
0.0
 12
127.907531813922
 22
104.5669607903923
 32
0.0
 13
127.907531813922
 23
104.5669607903923
 33
0.0
  0
SOLID
  5
230
330
229
100
AcDbEntity
  8
치수문자_일반주서
 62
     0
100
AcDbTrace
 10
30.30753181392203
 20
105.233627457059
 30
0.0
 11
30.30753181392203
 21
103.9002941237257
 31
0.0
 12
26.30753181392203
 22
104.5669607903923
 32
0.0
 13
26.30753181392203
 23
104.5669607903923
 33
0.0
  0
MTEXT
  5
231
330
229
100
AcDbEntity
  8
치수문자_일반주서
 62
     0
100
AcDbMText
 10
77.10753181392204
 20
109.4419607903923
 30
0.0
 40
4.0
 41
0.0
 71
     2
 72
     1
  1
\A1;101.60 [4.00]
  7
SLDTEXTSTYLE0
 73
     1
 44
1.0
  0
POINT
  5
232
330
229
100
AcDbEntity
  8
Defpoints
 62
     0
100
AcDbPoint
 10
127.907531813922
 20
61.038289002536
 30
0.0
  0
POINT
  5
233
330
229
100
AcDbEntity
  8
Defpoints
 62
     0
100
AcDbPoint
 10
26.30753181392203
 20
58.81578900253601
 30
0.0
  0
POINT
  5
234
330
229
100
AcDbEntity
  8
Defpoints
 62
     0
100
AcDbPoint
 10
26.30753181392203
 20
104.5669607903923
 30
0.0
  0
ENDBLK
  5
22B
330
229
100
AcDbEntity
  8
0
100
AcDbBlockEnd
  0
BLOCK
  5
236
330
235
100
AcDbEntity
  8
0
100
AcDbBlockBegin
  2
*D11
 70
     1
 10
0.0
 20
0.0
 30
0.0
  3
*D11
  1
*D11
  0
LINE
  5
238
330
235
100
AcDbEntity
  8
치수문자_일반주서
 62
     0
370
    -2
100
AcDbLine
 10
28.46753181392202
 20
61.038289002536
 30
0.0
 11
4.875000000000078
 21
61.0382890025359
 31
0.0
  0
LINE
  5
239
330
235
100
AcDbEntity
  8
치수문자_일반주서
 62
     0
370
    -2
100
AcDbLine
 10
28.46753181392202
 20
38.813289002536
 30
0.0
 11
4.875000000000155
 21
38.81328900253591
 31
0.0
  0
LINE
  5
23A
330
235
100
AcDbEntity
  8
치수문자_일반주서
 62
     0
370
    -2
100
AcDbLine
 10
4.875000000000078
 20
61.0382890025359
 30
0.0
 11
4.874999999999935
 21
102.2882890025359
 31
0.0
  0
LINE
  5
23B
330
235
100
AcDbEntity
  8
치수문자_일반주서
 62
     0
370
    -2
100
AcDbLine
 10
4.875000000000078
 20
61.0382890025359
 30
0.0
 11
4.875000000000155
 21
38.81328900253591
 31
0.0
  0
LINE
  5
23C
330
235
100
AcDbEntity
  8
치수문자_일반주서
 62
     0
370
    -2
100
AcDbLine
 10
4.875000000000064
 20
65.0382890025359
 30
0.0
 11
4.87500000000005
 21
69.0382890025359
 31
0.0
  0
LINE
  5
23D
330
235
100
AcDbEntity
  8
치수문자_일반주서
 62
     0
370
    -2
100
AcDbLine
 10
4.87500000000017
 20
34.81328900253591
 30
0.0
 11
4.875000000000184
 21
30.81328900253591
 31
0.0
  0
SOLID
  5
23E
330
235
100
AcDbEntity
  8
치수문자_일반주서
 62
     0
100
AcDbTrace
 10
4.208333333333397
 20
65.0382890025359
 30
0.0
 11
5.541666666666731
 21
65.0382890025359
 31
0.0
 12
4.875000000000078
 22
61.0382890025359
 32
0.0
 13
4.875000000000078
 23
61.0382890025359
 33
0.0
  0
SOLID
  5
23F
330
235
100
AcDbEntity
  8
치수문자_일반주서
 62
     0
100
AcDbTrace
 10
5.541666666666837
 20
34.81328900253591
 30
0.0
 11
4.208333333333503
 21
34.81328900253591
 31
0.0
 12
4.875000000000155
 22
38.81328900253591
 32
0.0
 13
4.875000000000155
 23
38.81328900253591
 33
0.0
  0
MTEXT
  5
240
330
235
100
AcDbEntity
  8
치수문자_일반주서
 62
     0
100
AcDbMText
 10
-0.0000000000000071
 20
85.66328900253589
 30
0.0
 40
4.0
 41
0.0
 71
     2
 72
     1
  1
\A1;%%c22.23 [0.88]
  7
SLDTEXTSTYLE0
 11
-3.476783915136600E-15
 21
1.0
 31
0.0
 73
     1
 44
1.0
  0
POINT
  5
241
330
235
100
AcDbEntity
  8
Defpoints
 62
     0
100
AcDbPoint
 10
28.53003181392202
 20
61.038289002536
 30
0.0
  0
POINT
  5
242
330
235
100
AcDbEntity
  8
Defpoints
 62
     0
100
AcDbPoint
 10
28.53003181392202
 20
38.813289002536
 30
0.0
  0
POINT
  5
243
330
235
100
AcDbEntity
  8
Defpoints
 62
     0
100
AcDbPoint
 10
4.875000000000156
 20
38.81328900253592
 30
0.0
  0
ENDBLK
  5
237
330
235
100
AcDbEntity
  8
0
100
AcDbBlockEnd
  0
BLOCK
  5
282
330
281
100
AcDbEntity
  8
0
100
AcDbBlockBegin
  2
*D12
 70
     1
 10
0.0
 20
0.0
 30
0.0
  3
*D12
  1
*D12
  0
LINE
  5
284
330
281
100
AcDbEntity
  8
치수문자_일반주서
 62
     0
370
    -2
100
AcDbLine
 10
67.15277753584996
 20
142.2387445735437
 30
0.0
 11
87.2535840585918
 21
142.2387445735438
 31
0.0
  0
LINE
  5
285
330
281
100
AcDbEntity
  8
치수문자_일반주서
 62
     0
370
    -2
100
AcDbLine
 10
67.15277753584999
 20
120.0137445735437
 30
0.0
 11
87.25358405859187
 21
120.0137445735438
 31
0.0
  0
LINE
  5
286
330
281
100
AcDbEntity
  8
치수문자_일반주서
 62
     0
370
    -2
100
AcDbLine
 10
87.2535840585918
 20
142.2387445735438
 30
0.0
 11
87.25358405859166
 21
183.4887445735438
 31
0.0
  0
LINE
  5
287
330
281
100
AcDbEntity
  8
치수문자_일반주서
 62
     0
370
    -2
100
AcDbLine
 10
87.2535840585918
 20
142.2387445735438
 30
0.0
 11
87.25358405859187
 21
120.0137445735438
 31
0.0
  0
LINE
  5
288
330
281
100
AcDbEntity
  8
치수문자_일반주서
 62
     0
370
    -2
100
AcDbLine
 10
87.25358405859178
 20
146.2387445735438
 30
0.0
 11
87.25358405859177
 21
150.2387445735438
 31
0.0
  0
LINE
  5
289
330
281
100
AcDbEntity
  8
치수문자_일반주서
 62
     0
370
    -2
100
AcDbLine
 10
87.25358405859188
 20
116.0137445735438
 30
0.0
 11
87.2535840585919
 21
112.0137445735438
 31
0.0
  0
SOLID
  5
28A
330
281
100
AcDbEntity
  8
치수문자_일반주서
 62
     0
100
AcDbTrace
 10
86.58691739192511
 20
146.2387445735438
 30
0.0
 11
87.92025072525846
 21
146.2387445735438
 31
0.0
 12
87.2535840585918
 22
142.2387445735438
 32
0.0
 13
87.2535840585918
 23
142.2387445735438
 33
0.0
  0
SOLID
  5
28B
330
281
100
AcDbEntity
  8
치수문자_일반주서
 62
     0
100
AcDbTrace
 10
87.92025072525855
 20
116.0137445735438
 30
0.0
 11
86.58691739192521
 21
116.0137445735438
 31
0.0
 12
87.25358405859187
 22
120.0137445735438
 32
0.0
 13
87.25358405859187
 23
120.0137445735438
 33
0.0
  0
MTEXT
  5
28C
330
281
100
AcDbEntity
  8
치수문자_일반주서
 62
     0
100
AcDbMText
 10
82.37858405859171
 20
166.8637445735438
 30
0.0
 40
4.0
 41
0.0
 71
     2
 72
     1
  1
\A1;%%c22.23 [0.88]
  7
SLDTEXTSTYLE0
 11
-3.197042680585376E-15
 21
1.0
 31
0.0
 73
     1
 44
1.0
  0
POINT
  5
28D
330
281
100
AcDbEntity
  8
Defpoints
 62
     0
100
AcDbPoint
 10
67.09027753584996
 20
142.2387445735437
 30
0.0
  0
POINT
  5
28E
330
281
100
AcDbEntity
  8
Defpoints
 62
     0
100
AcDbPoint
 10
67.09027753584999
 20
120.0137445735437
 30
0.0
  0
POINT
  5
28F
330
281
100
AcDbEntity
  8
Defpoints
 62
     0
100
AcDbPoint
 10
87.25358405859188
 20
120.0137445735437
 30
0.0
  0
ENDBLK
  5
283
330
281
100
AcDbEntity
  8
0
100
AcDbBlockEnd
  0
BLOCK
  5
291
330
290
100
AcDbEntity
  8
0
100
AcDbBlockBegin
  2
*D13
 70
     1
 10
0.0
 20
0.0
 30
0.0
  3
*D13
  1
*D13
  0
LINE
  5
293
330
290
100
AcDbEntity
  8
치수문자_일반주서
 62
     0
370
    -2
100
AcDbLine
 10
67.09027753584996
 20
142.3012445735437
 30
0.0
 11
67.09027753584996
 21
168.5520758315606
 31
0.0
  0
LINE
  5
294
330
290
100
AcDbEntity
  8
치수문자_일반주서
 62
     0
370
    -2
100
AcDbLine
 10
16.29027753584998
 20
142.3010946551547
 30
0.0
 11
16.29027753584998
 21
168.5520758315606
 31
0.0
  0
LINE
  5
295
330
290
100
AcDbEntity
  8
치수문자_일반주서
 62
     0
370
    -2
100
AcDbLine
 10
63.09027753584996
 20
168.5520758315606
 30
0.0
 11
20.29027753584998
 21
168.5520758315606
 31
0.0
  0
SOLID
  5
296
330
290
100
AcDbEntity
  8
치수문자_일반주서
 62
     0
100
AcDbTrace
 10
63.09027753584996
 20
167.8854091648939
 30
0.0
 11
63.09027753584996
 21
169.2187424982272
 31
0.0
 12
67.09027753584996
 22
168.5520758315606
 32
0.0
 13
67.09027753584996
 23
168.5520758315606
 33
0.0
  0
SOLID
  5
297
330
290
100
AcDbEntity
  8
치수문자_일반주서
 62
     0
100
AcDbTrace
 10
20.29027753584998
 20
169.2187424982272
 30
0.0
 11
20.29027753584998
 21
167.8854091648939
 31
0.0
 12
16.29027753584998
 22
168.5520758315606
 32
0.0
 13
16.29027753584998
 23
168.5520758315606
 33
0.0
  0
MTEXT
  5
298
330
290
100
AcDbEntity
  8
치수문자_일반주서
 62
     0
100
AcDbMText
 10
41.69027753584999
 20
173.4270758315606
 30
0.0
 40
4.0
 41
0.0
 71
     2
 72
     1
  1
\A1;50.80 [2.00]
  7
SLDTEXTSTYLE0
 73
     1
 44
1.0
  0
POINT
  5
299
330
290
100
AcDbEntity
  8
Defpoints
 62
     0
100
AcDbPoint
 10
67.09027753584996
 20
142.2387445735437
 30
0.0
  0
POINT
  5
29A
330
290
100
AcDbEntity
  8
Defpoints
 62
     0
100
AcDbPoint
 10
16.29027753584998
 20
142.2385946551547
 30
0.0
  0
POINT
  5
29B
330
290
100
AcDbEntity
  8
Defpoints
 62
     0
100
AcDbPoint
 10
16.29027753584998
 20
168.5520758315606
 30
0.0
  0
ENDBLK
  5
292
330
290
100
AcDbEntity
  8
0
100
AcDbBlockEnd
  0
BLOCK
  5
29D
330
29C
100
AcDbEntity
  8
0
100
AcDbBlockBegin
  2
*D14
 70
     1
 10
0.0
 20
0.0
 30
0.0
  3
*D14
  1
*D14
  0
LINE
  5
29F
330
29C
100
AcDbEntity
  8
치수문자_일반주서
 62
     0
370
    -2
100
AcDbLine
 10
67.09027753584996
 20
142.3012445735437
 30
0.0
 11
67.09027753584996
 21
185.7674163614
 31
0.0
  0
LINE
  5
2A0
330
29C
100
AcDbEntity
  8
치수문자_일반주서
 62
     0
370
    -2
100
AcDbLine
 10
-34.50972246415002
 20
140.0787445735437
 30
0.0
 11
-34.50972246415002
 21
185.7674163614
 31
0.0
  0
LINE
  5
2A1
330
29C
100
AcDbEntity
  8
치수문자_일반주서
 62
     0
370
    -2
100
AcDbLine
 10
63.09027753584996
 20
185.7674163614
 30
0.0
 11
-30.50972246415002
 21
185.7674163614
 31
0.0
  0
SOLID
  5
2A2
330
29C
100
AcDbEntity
  8
치수문자_일반주서
 62
     0
100
AcDbTrace
 10
63.09027753584996
 20
185.1007496947334
 30
0.0
 11
63.09027753584996
 21
186.4340830280667
 31
0.0
 12
67.09027753584996
 22
185.7674163614
 32
0.0
 13
67.09027753584996
 23
185.7674163614
 33
0.0
  0
SOLID
  5
2A3
330
29C
100
AcDbEntity
  8
치수문자_일반주서
 62
     0
100
AcDbTrace
 10
-30.50972246415002
 20
186.4340830280667
 30
0.0
 11
-30.50972246415002
 21
185.1007496947334
 31
0.0
 12
-34.50972246415002
 22
185.7674163614
 32
0.0
 13
-34.50972246415002
 23
185.7674163614
 33
0.0
  0
MTEXT
  5
2A4
330
29C
100
AcDbEntity
  8
치수문자_일반주서
 62
     0
100
AcDbMText
 10
16.29027753584998
 20
190.6424163614
 30
0.0
 40
4.0
 41
0.0
 71
     2
 72
     1
  1
\A1;101.60 [4.00]
  7
SLDTEXTSTYLE0
 73
     1
 44
1.0
  0
POINT
  5
2A5
330
29C
100
AcDbEntity
  8
Defpoints
 62
     0
100
AcDbPoint
 10
67.09027753584996
 20
142.2387445735437
 30
0.0
  0
POINT
  5
2A6
330
29C
100
AcDbEntity
  8
Defpoints
 62
     0
100
AcDbPoint
 10
-34.50972246415002
 20
140.0162445735437
 30
0.0
  0
POINT
  5
2A7
330
29C
100
AcDbEntity
  8
Defpoints
 62
     0
100
AcDbPoint
 10
-34.50972246415002
 20
185.7674163614
 30
0.0
  0
ENDBLK
  5
29E
330
29C
100
AcDbEntity
  8
0
100
AcDbBlockEnd
  0
BLOCK
  5
2A9
330
2A8
100
AcDbEntity
  8
0
100
AcDbBlockBegin
  2
*D15
 70
     1
 10
0.0
 20
0.0
 30
0.0
  3
*D15
  1
*D15
  0
LINE
  5
2AB
330
2A8
100
AcDbEntity
  8
치수문자_일반주서
 62
     0
370
    -2
100
AcDbLine
 10
-32.34972246415003
 20
142.2387445735437
 30
0.0
 11
-55.94225427807198
 21
142.2387445735436
 31
0.0
  0
LINE
  5
2AC
330
2A8
100
AcDbEntity
  8
치수문자_일반주서
 62
     0
370
    -2
100
AcDbLine
 10
-32.34972246415003
 20
120.0137445735437
 30
0.0
 11
-55.9422542780719
 21
120.0137445735436
 31
0.0
  0
LINE
  5
2AD
330
2A8
100
AcDbEntity
  8
치수문자_일반주서
 62
     0
370
    -2
100
AcDbLine
 10
-55.94225427807198
 20
142.2387445735436
 30
0.0
 11
-55.94225427807212
 21
183.4887445735436
 31
0.0
  0
LINE
  5
2AE
330
2A8
100
AcDbEntity
  8
치수문자_일반주서
 62
     0
370
    -2
100
AcDbLine
 10
-55.94225427807198
 20
142.2387445735436
 30
0.0
 11
-55.9422542780719
 21
120.0137445735436
 31
0.0
  0
LINE
  5
2AF
330
2A8
100
AcDbEntity
  8
치수문자_일반주서
 62
     0
370
    -2
100
AcDbLine
 10
-55.94225427807199
 20
146.2387445735436
 30
0.0
 11
-55.94225427807201
 21
150.2387445735436
 31
0.0
  0
LINE
  5
2B0
330
2A8
100
AcDbEntity
  8
치수문자_일반주서
 62
     0
370
    -2
100
AcDbLine
 10
-55.94225427807189
 20
116.0137445735436
 30
0.0
 11
-55.94225427807187
 21
112.0137445735436
 31
0.0
  0
SOLID
  5
2B1
330
2A8
100
AcDbEntity
  8
치수문자_일반주서
 62
     0
100
AcDbTrace
 10
-56.60892094473866
 20
146.2387445735436
 30
0.0
 11
-55.27558761140533
 21
146.2387445735436
 31
0.0
 12
-55.94225427807198
 22
142.2387445735436
 32
0.0
 13
-55.94225427807198
 23
142.2387445735436
 33
0.0
  0
SOLID
  5
2B2
330
2A8
100
AcDbEntity
  8
치수문자_일반주서
 62
     0
100
AcDbTrace
 10
-55.27558761140522
 20
116.0137445735436
 30
0.0
 11
-56.60892094473855
 21
116.0137445735436
 31
0.0
 12
-55.9422542780719
 22
120.0137445735436
 32
0.0
 13
-55.9422542780719
 23
120.0137445735436
 33
0.0
  0
MTEXT
  5
2B3
330
2A8
100
AcDbEntity
  8
치수문자_일반주서
 62
     0
100
AcDbMText
 10
-60.81725427807206
 20
166.8637445735436
 30
0.0
 40
4.0
 41
0.0
 71
     2
 72
     1
  1
\A1;%%c22.23 [0.88]
  7
SLDTEXTSTYLE0
 11
-3.516746948643917E-15
 21
1.0
 31
0.0
 73
     1
 44
1.0
  0
POINT
  5
2B4
330
2A8
100
AcDbEntity
  8
Defpoints
 62
     0
100
AcDbPoint
 10
-32.28722246415003
 20
142.2387445735437
 30
0.0
  0
POINT
  5
2B5
330
2A8
100
AcDbEntity
  8
Defpoints
 62
     0
100
AcDbPoint
 10
-32.28722246415003
 20
120.0137445735437
 30
0.0
  0
POINT
  5
2B6
330
2A8
100
AcDbEntity
  8
Defpoints
 62
     0
100
AcDbPoint
 10
-55.9422542780719
 20
120.0137445735436
 30
0.0
  0
ENDBLK
  5
2AA
330
2A8
100
AcDbEntity
  8
0
100
AcDbBlockEnd
  0
ENDSEC
  0
SECTION
  2
ENTITIES
  0
LINE
  5
96
330
1F
100
AcDbEntity
  8
외형선
  6
Continuous
370
    15
100
AcDbLine
 10
35.05267870144623
 20
2.452869049987847
 30
0.0
 11
34.97934934892163
 21
2.493989906793454
 31
0.0
  0
LINE
  5
97
330
1F
100
AcDbEntity
  8
0
  6
Continuous
 62
     1
370
    15
100
AcDbLine
 10
14.7824322256608
 20
12.65398161372425
 30
0.0
 11
12.0
 21
12.65398161372425
 31
0.0
  0
LINE
  5
98
330
1F
100
AcDbEntity
  8
0
  6
Continuous
 62
     1
370
    15
100
AcDbLine
 10
46.32080210213273
 20
-12.74601838627575
 30
0.0
 11
56.24444823008578
 21
-12.74601838627575
 31
0.0
  0
LINE
  5
99
330
1F
100
AcDbEntity
  8
0
  6
Continuous
 62
     1
370
    15
100
AcDbLine
 10
42.42487554876787
 20
12.65398161372425
 30
0.0
 11
32.49767901337559
 21
12.65398161372425
 31
0.0
  0
LINE
  5
9A
330
1F
100
AcDbEntity
  8
0
  6
Continuous
 62
     1
370
    15
100
AcDbLine
 10
18.67788101719742
 20
-12.74601838627575
 30
0.0
 11
28.60172170245098
 21
-12.74601838627575
 31
0.0
  0
LINE
  5
9B
330
1F
100
AcDbEntity
  8
0
  6
Continuous
 62
     1
370
    15
100
AcDbLine
 10
62.8
 20
12.65398161372425
 30
0.0
 11
60.13985244330929
 21
12.65398161372425
 31
0.0
  0
LINE
  5
9C
330
1F
100
AcDbEntity
  8
외형선
  6
Continuous
370
    15
100
AcDbLine
 10
-36.26
 20
-12.74601838627575
 30
0.0
 11
11.00015860018459
 21
-12.74601838627575
 31
0.0
  0
LINE
  5
9D
330
1F
100
AcDbEntity
  8
외형선
  6
Continuous
370
    15
100
AcDbLine
 10
12.0
 20
12.65398161372425
 30
0.0
 11
-36.26
 21
12.65398161372425
 31
0.0
  0
LINE
  5
9E
330
1F
100
AcDbEntity
  8
외형선
  6
Continuous
370
    15
100
AcDbLine
 10
-36.26
 20
12.65398161372425
 30
0.0
 11
-38.8
 21
10.11398161372426
 31
0.0
  0
LINE
  5
9F
330
1F
100
AcDbEntity
  8
외형선
  6
Continuous
370
    15
100
AcDbLine
 10
-38.8
 20
-10.20601838627575
 30
0.0
 11
-36.26
 21
-12.74601838627575
 31
0.0
  0
LINE
  5
A0
330
1F
100
AcDbEntity
  8
0
  6
Continuous
 62
     1
370
    15
100
AcDbLine
 10
62.8
 20
-12.18628833371998
 30
0.0
 11
62.8
 21
-11.1457360897973
 31
0.0
  0
SPLINE
  5
A1
330
1F
100
AcDbEntity
  8
0
  6
Continuous
 62
     1
370
    15
100
AcDbSpline
210
0.0
220
0.0
230
1.0
 70
     8
 71
     3
 72
    56
 73
    52
 74
     0
 42
0.000000001
 43
0.00000001
 40
0.0
 40
0.0
 40
0.0
 40
0.0
 40
0.0624999999999986
 40
0.0624999999999986
 40
0.0937499999999979
 40
0.0937499999999979
 40
0.1249999999999972
 40
0.1249999999999972
 40
0.1562499999999965
 40
0.1562499999999965
 40
0.1874999999999958
 40
0.1874999999999958
 40
0.2499999999999944
 40
0.2499999999999944
 40
0.312499999999993
 40
0.312499999999993
 40
0.3437499999999926
 40
0.3437499999999926
 40
0.3749999999999922
 40
0.3749999999999922
 40
0.4062499999999918
 40
0.4062499999999918
 40
0.4374999999999915
 40
0.4374999999999915
 40
0.4999999999999912
 40
0.4999999999999912
 40
0.562499999999991
 40
0.562499999999991
 40
0.5937499999999913
 40
0.5937499999999913
 40
0.6249999999999916
 40
0.6249999999999916
 40
0.6562499999999917
 40
0.6562499999999917
 40
0.6874999999999919
 40
0.6874999999999919
 40
0.749999999999993
 40
0.749999999999993
 40
0.7812499999999939
 40
0.7812499999999939
 40
0.8124999999999948
 40
0.8124999999999948
 40
0.8437499999999957
 40
0.8437499999999957
 40
0.8749999999999964
 40
0.8749999999999964
 40
0.9062499999999973
 40
0.9062499999999973
 40
0.9374999999999982
 40
0.9374999999999982
 40
1.0
 40
1.0
 40
1.0
 40
1.0
 10
62.8
 20
-12.18628833371998
 30
0.0
 10
61.74528912215175
 20
-12.36548403208581
 30
0.0
 10
60.68110882236266
 20
-12.50293625649224
 30
0.0
 10
59.09543758912761
 20
-12.6431497538662
 30
0.0
 10
58.56822103010498
 20
-12.6789748271989
 30
0.0
 10
57.50887528262035
 20
-12.72873826334526
 30
0.0
 10
56.97829775907445
 20
-12.74262518177409
 30
0.0
 10
55.91947631308986
 20
-12.74831187646606
 30
0.0
 10
55.39270709619743
 20
-12.74014101990617
 30
0.0
 10
54.33476471075393
 20
-12.70178183948489
 30
0.0
 10
53.80428678841712
 20
-12.67156997434977
 30
0.0
 10
52.21454330703867
 20
-12.54813278408755
 30
0.0
 10
51.16027887898491
 20
-12.42227787751802
 30
0.0
 10
49.04000976528003
 20
-12.08513022990001
 30
0.0
 10
47.98563384410384
 20
-11.87445207321108
 30
0.0
 10
46.39602762568659
 20
-11.49748436631813
 30
0.0
 10
45.86551676490477
 20
-11.36170643599794
 30
0.0
 10
44.80735197164358
 20
-11.07099591194974
 30
0.0
 10
44.28064102976572
 20
-10.91617837487419
 30
0.0
 10
43.22200239901494
 20
-10.58744437518908
 30
0.0
 10
42.69143785047207
 20
-10.41364163359342
 30
0.0
 10
41.63196085106455
 20
-10.04850741420703
 30
0.0
 10
41.10453460006818
 20
-9.857367182442971
 30
0.0
 10
39.5192739448344
 20
-9.258589270228743
 30
0.0
 10
38.45505332313989
 20
-8.824967493275087
 30
0.0
 10
36.34492697067658
 20
-7.902432676547043
 30
0.0
 10
35.28149501270769
 20
-7.410994903137923
 30
0.0
 10
33.69543091793712
 20
-6.639467302349217
 30
0.0
 10
33.1683891596893
 20
-6.376622720446056
 30
0.0
 10
32.10918655858821
 20
-5.839551798930227
 30
0.0
 10
31.57860204116264
 20
-5.565578605859532
 30
0.0
 10
30.51960965477143
 20
-5.008898035394459
 30
0.0
 10
29.99274725495196
 20
-4.726474720465794
 30
0.0
 10
28.93503911926214
 20
-4.153295837771016
 30
0.0
 10
28.40460011274679
 20
-3.862602844010265
 30
0.0
 10
26.8147372372574
 20
-2.98159570286919
 30
0.0
 10
25.76055526008914
 20
-2.383080672571475
 30
0.0
 10
24.17037131084235
 20
-1.47458749145244
 30
0.0
 10
23.64019362414655
 20
-1.170228330019732
 30
0.0
 10
22.58373803972805
 20
-0.5608362591556362
 30
0.0
 10
22.05597651148657
 20
-0.2555192162959442
 30
0.0
 10
20.99634245031991
 20
0.355739595847049
 30
0.0
 10
20.4658046297085
 20
0.6614235130211474
 30
0.0
 10
19.40742927888423
 20
1.270514773138824
 30
0.0
 10
18.88074170193068
 20
1.573704037594909
 30
0.0
 10
17.82229775439796
 20
2.177715427438637
 30
0.0
 10
17.29175216149346
 20
2.478302122684803
 30
0.0
 10
16.23215580954036
 20
3.074286059669919
 30
0.0
 10
15.70448498320485
 20
3.369428540401023
 30
0.0
 10
14.1196526071009
 20
4.24555253150835
 30
0.0
 10
13.0554037401746
 20
4.818115008307029
 30
0.0
 10
12.00000000000001
 20
5.370276289949216
 30
0.0
  0
SPLINE
  5
A2
330
1F
100
AcDbEntity
  8
외형선
  6
Continuous
370
    15
100
AcDbSpline
210
0.0
220
0.0
230
1.0
 70
    24
 71
     3
 72
    16
 73
    12
 74
     0
 42
0.000000001
 43
0.00000001
 40
0.0
 40
0.0
 40
0.0
 40
0.0
 40
0.1463052719212864
 40
0.2622125267970847
 40
0.3814810999163955
 40
0.4973883547921927
 40
0.6166569279115027
 40
0.7325641827873002
 40
0.8518327559066122
 40
0.967740010782421
 40
1.0
 40
1.0
 40
1.0
 40
1.0
 10
12.0
 20
11.99008942808351
 30
0.0
 10
12.0
 20
11.67179510230185
 30
0.0
 10
12.0
 20
11.10133883416898
 30
0.0
 10
11.99999999999998
 20
10.19193189966063
 30
0.0
 10
11.99999999999994
 20
9.338881847468286
 30
0.0
 10
12.00000000000002
 20
8.479236809191352
 30
0.0
 10
12.0
 20
7.655517323692848
 30
0.0
 10
11.99999999999999
 20
6.872617305581205
 30
0.0
 10
12.00000000000002
 20
6.178427478221082
 30
0.0
 10
11.99999999999997
 20
5.694488995664453
 30
0.0
 10
11.99999999999999
 20
5.489307234235999
 30
0.0
 10
11.99999999999999
 20
5.444633653028307
 30
0.0
  0
SPLINE
  5
A3
330
1F
100
AcDbEntity
  8
0
  6
Continuous
 62
     1
370
    15
100
AcDbSpline
210
0.0
220
0.0
230
1.0
 70
     8
 71
     3
 72
    56
 73
    52
 74
     0
 42
0.000000001
 43
0.00000001
 40
0.0
 40
0.0
 40
0.0
 40
0.0
 40
0.0624999999999991
 40
0.0624999999999991
 40
0.0937499999999989
 40
0.0937499999999989
 40
0.1249999999999987
 40
0.1249999999999987
 40
0.1562499999999986
 40
0.1562499999999986
 40
0.1874999999999984
 40
0.1874999999999984
 40
0.2499999999999987
 40
0.2499999999999987
 40
0.3124999999999989
 40
0.3124999999999989
 40
0.3437499999999991
 40
0.3437499999999991
 40
0.3749999999999993
 40
0.3749999999999993
 40
0.4062499999999995
 40
0.4062499999999995
 40
0.4374999999999997
 40
0.4374999999999997
 40
0.4999999999999994
 40
0.4999999999999994
 40
0.5624999999999991
 40
0.5624999999999991
 40
0.593749999999999
 40
0.593749999999999
 40
0.6249999999999989
 40
0.6249999999999989
 40
0.6562499999999988
 40
0.6562499999999988
 40
0.6874999999999986
 40
0.6874999999999986
 40
0.7499999999999984
 40
0.7499999999999984
 40
0.7812499999999987
 40
0.7812499999999987
 40
0.8124999999999988
 40
0.8124999999999988
 40
0.843749999999999
 40
0.843749999999999
 40
0.8749999999999992
 40
0.8749999999999992
 40
0.9062499999999994
 40
0.9062499999999994
 40
0.9374999999999996
 40
0.9374999999999996
 40
1.0
 40
1.0
 40
1.0
 40
1.0
 10
62.8
 20
-11.1457360897973
 30
0.0
 10
61.74528912215172
 20
-10.84915441374162
 30
0.0
 10
60.68110882236269
 20
-10.51303791168034
 30
0.0
 10
59.09543758912756
 20
-9.957270798434255
 30
0.0
 10
58.56822103010495
 20
-9.763423981382997
 30
0.0
 10
57.50887528262035
 20
-9.358593787289875
 30
0.0
 10
56.97829775907442
 20
-9.14778823498143
 30
0.0
 10
55.9194763130898
 20
-8.711050187239152
 30
0.0
 10
55.39270709619746
 20
-8.485343118554082
 30
0.0
 10
54.33476471075393
 20
-8.0190622056596
 30
0.0
 10
53.80428678841709
 20
-7.778569745916418
 30
0.0
 10
52.21454330703867
 20
-7.03781625707184
 30
0.0
 10
51.16027887898488
 20
-6.51884684442533
 30
0.0
 10
49.04000976528006
 20
-5.437694321225323
 30
0.0
 10
47.98563384410387
 20
-4.877489621220178
 30
0.0
 10
46.39602762568664
 20
-4.01355410894176
 30
0.0
 10
45.8655167649048
 20
-3.72175766810677
 30
0.0
 10
44.80735197164367
 20
-3.132816945387509
 30
0.0
 10
44.28064102976577
 20
-2.835856291216774
 30
0.0
 10
43.22200239901497
 20
-2.23663394384207
 30
0.0
 10
42.69143785047211
 20
-1.934623298994278
 30
0.0
 10
41.63196085106458
 20
-1.328158444618338
 30
0.0
 10
41.10453460006816
 20
-1.023991820177806
 30
0.0
 10
39.51927394483437
 20
-0.1091708319708892
 30
0.0
 10
38.45505332313989
 20
0.5044631333954556
 30
0.0
 10
36.34492697067657
 20
1.720168025249712
 30
0.0
 10
35.28149501270769
 20
2.325584642251159
 30
0.0
 10
33.69543091793712
 20
3.216517283962633
 30
0.0
 10
33.16838915968926
 20
3.510617877138892
 30
0.0
 10
32.10918655858821
 20
4.09308291330108
 30
0.0
 10
31.57860204116267
 20
4.381148961063724
 30
0.0
 10
30.51960965477145
 20
4.948700211679094
 30
0.0
 10
29.99274725495196
 20
5.227920351590607
 30
0.0
 10
28.93503911926214
 20
5.777434803212881
 30
0.0
 10
28.40460011274675
 20
6.047645306798856
 30
0.0
 10
26.81473723725737
 20
6.841440386487903
 30
0.0
 10
25.76055526008912
 20
7.347599942896834
 30
0.0
 10
24.17037131084238
 20
8.067161698572077
 30
0.0
 10
23.64019362414654
 20
8.300181649222814
 30
0.0
 10
22.58373803972804
 20
8.750784866593284
 30
0.0
 10
22.05597651148655
 20
8.968593575494541
 30
0.0
 10
20.99634245031988
 20
9.38873711398256
 30
0.0
 10
20.46580462970853
 20
9.590879371128544
 30
0.0
 10
19.4074292788843
 20
9.977746212208777
 30
0.0
 10
18.88074170193069
 20
10.16235607669886
 30
0.0
 10
17.82229775439798
 20
10.51413808573054
 30
0.0
 10
17.29175216149347
 20
10.68114911819684
 30
0.0
 10
16.23215580954034
 20
10.99608713882999
 30
0.0
 10
15.70448498320487
 20
11.14389596230438
 30
0.0
 10
14.1196526071009
 20
11.558034615741
 30
0.0
 10
13.05540374017463
 20
11.79529813560103
 30
0.0
 10
12.00000000000002
 20
11.9900894280835
 30
0.0
  0
LINE
  5
A4
330
1F
100
AcDbEntity
  8
0
  6
Continuous
 62
     1
370
    15
100
AcDbLine
 10
62.8
 20
-7.343854412118822
 30
0.0
 11
62.8
 21
2.35251323880797
 31
0.0
  0
SPLINE
  5
A5
330
1F
100
AcDbEntity
  8
0
  6
Continuous
 62
     1
370
    15
100
AcDbSpline
210
0.0
220
0.0
230
1.0
 70
     8
 71
     3
 72
    23
 73
    19
 74
     0
 42
0.000000001
 43
0.00000001
 40
0.0
 40
0.0
 40
0.0
 40
0.0
 40
0.0084324343650895
 40
0.074792248463542
 40
0.141140705325939
 40
0.2074827365999212
 40
0.2738232867272338
 40
0.338982202160855
 40
0.4041525679849217
 40
0.4693413665958276
 40
0.5345284085977392
 40
0.6010277189289565
 40
0.667518046945525
 40
0.7340041055194426
 40
0.8004906157678817
 40
0.8669822979354869
 40
0.9334838622802265
 40
1.0
 40
1.0
 40
1.0
 40
1.0
 10
14.78243222566082
 20
12.63922028697616
 30
0.0
 10
14.91740995483641
 20
12.64399162639321
 30
0.0
 10
16.11460727893783
 20
12.68631145809695
 30
0.0
 10
18.37370060848893
 20
12.51256520339354
 30
0.0
 10
21.55963826940993
 20
12.10271187458445
 30
0.0
 10
24.74518713619007
 20
11.41214077279798
 30
0.0
 10
27.91170324263917
 20
10.49418090654147
 30
0.0
 10
31.05943724449192
 20
9.36377608065438
 30
0.0
 10
34.18884727462003
 20
8.050459909692034
 30
0.0
 10
37.31895616845458
 20
6.573557435078249
 30
0.0
 10
40.47029366394653
 20
4.951970239209036
 30
0.0
 10
43.64228460575453
 20
3.215656054970919
 30
0.0
 10
46.83499489615188
 20
1.399204510270644
 30
0.0
 10
50.02745583127744
 20
-0.4473985024030254
 30
0.0
 10
53.21994282379225
 20
-2.286353055693834
 30
0.0
 10
56.41273098224283
 20
-4.075286328781112
 30
0.0
 10
59.60607512435426
 20
-5.790603774889745
 30
0.0
 10
61.73528061643712
 20
-6.82606638472984
 30
0.0
 10
62.8
 20
-7.343854412118822
 30
0.0
  0
SPLINE
  5
A6
330
1F
100
AcDbEntity
  8
0
  6
Continuous
 62
     1
370
    15
100
AcDbSpline
210
0.0
220
0.0
230
1.0
 70
     8
 71
     3
 72
    20
 73
    16
 74
     0
 42
0.000000001
 43
0.00000001
 40
0.0
 40
0.0
 40
0.0
 40
0.0
 40
0.0813848342867211
 40
0.1627513263941451
 40
0.2441055044078726
 40
0.3254534209101873
 40
0.4068011409536533
 40
0.4867019394243785
 40
0.566618824749826
 40
0.6465580052590502
 40
0.7264847669233829
 40
0.8080230617834765
 40
0.8895519078615312
 40
0.9710770879541001
 40
1.0
 40
1.0
 40
1.0
 40
1.0
 10
62.8
 20
2.393337248538154
 30
0.0
 10
61.73759977453011
 20
2.990206359252346
 30
0.0
 10
59.61303876298452
 20
4.183810060774885
 30
0.0
 10
56.42667253903704
 20
5.872099913699133
 30
0.0
 10
53.24086995173252
 20
7.439985542760805
 30
0.0
 10
50.0553691832023
 20
8.850079891485626
 30
0.0
 10
46.88882441320172
 20
10.06684397343759
 30
0.0
 10
43.74096899465628
 20
11.06879203938165
 30
0.0
 10
40.61137671472598
 20
11.84013112851824
 30
0.0
 10
37.48116756281054
 20
12.37152822137948
 30
0.0
 10
34.32998064551622
 20
12.65287159449003
 30
0.0
 10
31.15815667542305
 20
12.67777943974415
 30
0.0
 10
27.96554108266199
 20
12.41878224141099
 30
0.0
 10
25.45973326960811
 20
12.05782058834005
 30
0.0
 10
24.01807744596517
 20
11.70295222604032
 30
0.0
 10
23.64055273023346
 20
11.61002326518693
 30
0.0
  0
LINE
  5
A7
330
1F
100
AcDbEntity
  8
0
  6
Continuous
 62
     1
370
    15
100
AcDbLine
 10
62.8
 20
-11.1457360897973
 30
0.0
 11
62.8
 21
-7.343854412118822
 31
0.0
  0
LINE
  5
A8
330
1F
100
AcDbEntity
  8
외형선
  6
Continuous
370
    15
100
AcDbLine
 10
12.0
 20
11.99008942808351
 30
0.0
 11
12.0
 21
12.65398161372425
 31
0.0
  0
SPLINE
  5
A9
330
1F
100
AcDbEntity
  8
0
  6
Continuous
 62
     1
370
    15
100
AcDbSpline
210
0.0
220
0.0
230
1.0
 70
     8
 71
     3
 72
    18
 73
    14
 74
     0
 42
0.000000001
 43
0.00000001
 40
0.0
 40
0.0
 40
0.0
 40
0.0
 40
0.0751654322114606
 40
0.166349950698988
 40
0.257559907810518
 40
0.3487556951206728
 40
0.4417902287468747
 40
0.5348139813893457
 40
0.6278335511720876
 40
0.7208555442982763
 40
0.8138865622899633
 40
0.9069331892468867
 40
1.0
 40
1.0
 40
1.0
 40
1.0
 10
46.32080210213276
 20
-12.72744204892538
 30
0.0
 10
45.46092591660505
 20
-12.71809318285186
 30
0.0
 10
43.55791868493819
 20
-12.69740304159057
 30
0.0
 10
40.61137629295598
 20
-12.35754728735221
 30
0.0
 10
37.48116764883967
 20
-11.77533788110352
 30
0.0
 10
34.32998072306982
 20
-10.94311569270945
 30
0.0
 10
31.15815626778585
 20
-9.881685812987143
 30
0.0
 10
27.96554263221155
 20
-8.605787587370028
 30
0.0
 10
24.77310075441164
 20
-7.150014755040773
 30
0.0
 10
21.58055978072766
 20
-5.544783941363129
 30
0.0
 10
18.38764505006027
 20
-3.823787469076585
 30
0.0
 10
15.19411869671052
 20
-2.023401696571248
 30
0.0
 10
13.06478320692869
 20
-0.795003018382885
 30
0.0
 10
12.0
 20
-0.1807370700506344
 30
0.0
  0
LINE
  5
AA
330
1F
100
AcDbEntity
  8
외형선
  6
Continuous
370
    15
100
AcDbLine
 10
12.0
 20
-0.1807370700506219
 30
0.0
 11
12.0
 21
5.370276289949226
 31
0.0
  0
SPLINE
  5
AB
330
1F
100
AcDbEntity
  8
0
  6
Continuous
 62
     1
370
    15
100
AcDbSpline
210
0.0
220
0.0
230
1.0
 70
     8
 71
     3
 72
    16
 73
    12
 74
     0
 42
0.000000001
 43
0.00000001
 40
0.0
 40
0.0
 40
0.0
 40
0.0
 40
0.1252180748883035
 40
0.2504081315693644
 40
0.3755767624365515
 40
0.500733271211644
 40
0.6258869857529384
 40
0.7488115060704481
 40
0.8717576279407716
 40
0.9947385238932801
 40
1.0
 40
1.0
 40
1.0
 40
1.0
 10
12.0
 20
-9.297184414780885
 30
0.0
 10
13.06246531532886
 20
-9.698605228230297
 30
0.0
 10
15.18715821374692
 20
-10.50135703509673
 30
0.0
 10
18.3737080315378
 20
-11.434703812496
 30
0.0
 10
21.55963624941245
 20
-12.14322544565905
 30
0.0
 10
24.74518779441433
 20
-12.59518424215481
 30
0.0
 10
27.91170263716409
 20
-12.78225747379749
 30
0.0
 10
31.05943898510361
 20
-12.7139142288142
 30
0.0
 10
34.18884090160292
 20
-12.36350238376097
 30
0.0
 10
36.32016403421736
 20
-12.02308559761968
 30
0.0
 10
37.4082611002282
 20
-11.73883241778322
 30
0.0
 10
37.45290310600743
 20
-11.72717019343449
 30
0.0
  0
SPLINE
  5
AC
330
1F
100
AcDbEntity
  8
외형선
  6
Continuous
370
    15
100
AcDbSpline
210
0.0
220
0.0
230
1.0
 70
    24
 71
     3
 72
    22
 73
    18
 74
     0
 42
0.000000001
 43
0.00000001
 40
0.0
 40
0.0
 40
0.0
 40
0.0
 40
0.0160720893309684
 40
0.087326810961552
 40
0.1565733774722297
 40
0.2278280991028125
 40
0.2970746656134907
 40
0.3683293872440743
 40
0.4375759537547589
 40
0.5088306753853351
 40
0.578077241896013
 40
0.6493319635265964
 40
0.7185785300372729
 40
0.7898332516678574
 40
0.8590798181785355
 40
0.9303345398091191
 40
1.0
 40
1.0
 40
1.0
 40
1.0
 10
12.0
 20
-0.119590899350916
 30
0.0
 10
12.0
 20
-0.1239959872344405
 30
0.0
 10
12.00000000000001
 20
-0.1479307892973154
 30
0.0
 10
11.99999999999996
 20
-0.3318894934747464
 30
0.0
 10
11.99999999999994
 20
-0.6738107284897239
 30
0.0
 10
12.00000000000002
 20
-1.15061008390457
 30
0.0
 10
11.99999999999999
 20
-1.742548395143162
 30
0.0
 10
12.00000000000001
 20
-2.426181450593718
 30
0.0
 10
11.99999999999994
 20
-3.19339799927201
 30
0.0
 10
12.00000000000007
 20
-4.008962025162218
 30
0.0
 10
11.99999999999992
 20
-4.864376607099574
 30
0.0
 10
12.00000000000002
 20
-5.720108761596308
 30
0.0
 10
11.99999999999997
 20
-6.56712771293182
 30
0.0
 10
12.00000000000005
 20
-7.366980846853968
 30
0.0
 10
11.99999999999996
 20
-8.108560969229933
 30
0.0
 10
12.00000000000004
 20
-8.769512561679244
 30
0.0
 10
12.00000000000002
 20
-9.122621219850696
 30
0.0
 10
12.0
 20
-9.297184414780888
 30
0.0
  0
SPLINE
  5
AD
330
1F
100
AcDbEntity
  8
0
  6
Continuous
 62
     1
370
    15
100
AcDbSpline
210
0.0
220
0.0
230
1.0
 70
     8
 71
     3
 72
    14
 73
    10
 74
     0
 42
0.000000001
 43
0.00000001
 40
0.0
 40
0.0
 40
0.0
 40
0.0
 40
0.0597555710115036
 40
0.2164510695844076
 40
0.3731365065067722
 40
0.5298230078751471
 40
0.6865216977298244
 40
0.8432436765758374
 40
1.0
 40
1.0
 40
1.0
 40
1.0
 10
42.42487554876789
 20
12.62243145854977
 30
0.0
 10
42.8307239288291
 20
12.63056063240801
 30
0.0
 10
44.30081808852576
 20
12.66000673001311
 30
0.0
 10
46.83499001666772
 20
12.43264093243531
 30
0.0
 10
50.02745713866958
 20
11.94752747102068
 30
0.0
 10
53.21994247356854
 20
11.19382962638672
 30
0.0
 10
56.41273107565372
 20
10.20520409971624
 30
0.0
 10
59.60607510099416
 20
9.011150804710306
 30
0.0
 10
61.73528060864983
 20
8.059712249916188
 30
0.0
 10
62.8
 20
7.583940852873908
 30
0.0
  0
LINE
  5
AE
330
1F
100
AcDbEntity
  8
0
  6
Continuous
 62
     1
370
    15
100
AcDbLine
 10
62.8
 20
2.393337248538153
 30
0.0
 11
62.8
 21
7.583940852873907
 31
0.0
  0
SPLINE
  5
AF
330
1F
100
AcDbEntity
  8
0
  6
Continuous
 62
     1
370
    15
100
AcDbSpline
210
0.0
220
0.0
230
1.0
 70
     8
 71
     3
 72
    11
 73
     7
 74
     0
 42
0.000000001
 43
0.00000001
 40
0.0
 40
0.0
 40
0.0
 40
0.0
 40
0.2766981791222364
 40
0.5533339971466454
 40
0.8299279488045103
 40
0.9999999999999999
 40
0.9999999999999999
 40
0.9999999999999999
 40
0.9999999999999999
 10
62.8
 20
12.56130401020934
 30
0.0
 10
61.73759973804985
 20
12.61030123919451
 30
0.0
 10
59.61303865355191
 20
12.70828465437087
 30
0.0
 10
56.4266729766247
 20
12.50756875823564
 30
0.0
 10
53.64974894757285
 20
12.15416701116374
 30
0.0
 10
51.93492317074991
 20
11.75919038653665
 30
0.0
 10
51.28198801238973
 20
11.60879952559026
 30
0.0
  0
LINE
  5
B0
330
1F
100
AcDbEntity
  8
0
  6
Continuous
 62
     1
370
    15
100
AcDbLine
 10
62.8
 20
7.582396263920828
 30
0.0
 11
62.8
 21
12.56130401020934
 31
0.0
  0
SPLINE
  5
B1
330
1F
100
AcDbEntity
  8
0
  6
Continuous
 62
     1
370
    15
100
AcDbSpline
210
0.0
220
0.0
230
1.0
 70
     8
 71
     3
 72
    10
 73
     6
 74
     0
 42
0.000000001
 43
0.00000001
 40
0.0
 40
0.0
 40
0.0
 40
0.0
 40
0.0434403066379765
 40
0.5216682843993347
 40
1.0
 40
1.0
 40
1.0
 40
1.0
 10
18.67788101719742
 20
-12.73498159241216
 30
0.0
 10
18.58118982720109
 20
-12.73857792363842
 30
0.0
 10
17.42003947846441
 20
-12.78176573896781
 30
0.0
 10
15.19411343093363
 20
-12.62696629090678
 30
0.0
 10
13.06478145154282
 20
-12.31925783793426
 30
0.0
 10
12.0
 20
-12.16538692612754
 30
0.0
  0
LINE
  5
B2
330
1F
100
AcDbEntity
  8
외형선
  6
Continuous
370
    15
100
AcDbLine
 10
12.0
 20
-12.16538692612753
 30
0.0
 11
12.0
 21
-9.297184414780888
 31
0.0
  0
LINE
  5
B3
330
1F
100
AcDbEntity
  8
0
  6
Continuous
 62
     1
370
    15
100
AcDbLine
 10
62.8
 20
12.56130401020934
 30
0.0
 11
62.8
 21
12.65398161372425
 31
0.0
  0
SPLINE
  5
B4
330
1F
100
AcDbEntity
  8
외형선
  6
Continuous
370
    15
100
AcDbSpline
210
0.0
220
0.0
230
1.0
 70
    24
 71
     3
 72
    22
 73
    18
 74
     0
 42
0.000000001
 43
0.00000001
 40
0.0
 40
0.0
 40
0.0
 40
0.0
 40
0.0622922914768183
 40
0.1260328787330535
 40
0.1952610495630991
 40
0.2664968420370654
 40
0.3357250128671113
 40
0.4069608053410774
 40
0.4761889761711227
 40
0.5474247686450892
 40
0.6166529394751341
 40
0.6878887319490999
 40
0.7571169027791446
 40
0.8283526952531101
 40
0.897580866083156
 40
0.9688166585571228
 40
1.0
 40
1.0
 40
1.0
 40
1.0
 10
12.0
 20
-9.297184414780887
 30
0.0
 10
12.0
 20
-9.142146703846604
 30
0.0
 10
12.00000000000001
 20
-8.828466655192395
 30
0.0
 10
12.00000000000001
 20
-8.229606191805694
 30
0.0
 10
11.99999999999996
 20
-7.529763940070617
 30
0.0
 10
12.0
 20
-6.741406955750536
 30
0.0
 10
11.99999999999998
 20
-5.900966932578713
 30
0.0
 10
11.99999999999997
 20
-5.046657605501437
 30
0.0
 10
11.99999999999995
 20
-4.187475863405877
 30
0.0
 10
12.00000000000005
 20
-3.36314011783724
 30
0.0
 10
11.99999999999995
 20
-2.582212841875236
 30
0.0
 10
12.00000000000005
 20
-1.880653137406356
 30
0.0
 10
11.99999999999999
 20
-1.266428202899278
 30
0.0
 10
12.00000000000006
 20
-0.765238719639229
 30
0.0
 10
11.99999999999999
 20
-0.3924958429523652
 30
0.0
 10
12.00000000000002
 20
-0.1754103760591856
 30
0.0
 10
11.99999999999999
 20
-0.1360228801128208
 30
0.0
 10
11.99999999999999
 20
-0.1240306508515125
 30
0.0
  0
SPLINE
  5
B5
330
1F
100
AcDbEntity
  8
외형선
  6
Continuous
370
    15
100
AcDbSpline
210
0.0
220
0.0
230
1.0
 70
     8
 71
     3
 72
     8
 73
     4
 74
     0
 42
0.000000001
 43
0.00000001
 40
0.0
 40
0.0
 40
0.0
 40
0.0
 40
1.0
 40
1.0
 40
1.0
 40
1.0
 10
12.0
 20
-9.297184414780885
 30
0.0
 10
11.66712494818574
 20
-9.165272921248802
 30
0.0
 10
11.3340704570722
 20
-9.030149046523974
 30
0.0
 10
11.00015860018459
 20
-8.891851490218992
 30
0.0
  0
SPLINE
  5
B6
330
1F
100
AcDbEntity
  8
외형선
  6
Continuous
370
    15
100
AcDbSpline
210
0.0
220
0.0
230
1.0
 70
     8
 71
     3
 72
     8
 73
     4
 74
     0
 42
0.000000001
 43
0.00000001
 40
0.0
 40
0.0
 40
0.0
 40
0.0
 40
1.0
 40
1.0
 40
1.0
 40
1.0
 10
11.99999999999999
 20
-0.1807370700506211
 30
0.0
 10
11.66712494818574
 20
0.0117922963200852
 30
0.0
 10
11.33407045707219
 20
0.2044027846674734
 30
0.0
 10
11.00015860018461
 20
0.3970252322641166
 30
0.0
  0
SPLINE
  5
B7
330
1F
100
AcDbEntity
  8
외형선
  6
Continuous
370
    15
100
AcDbSpline
210
0.0
220
0.0
230
1.0
 70
     8
 71
     3
 72
     8
 73
     4
 74
     0
 42
0.000000001
 43
0.00000001
 40
0.0
 40
0.0
 40
0.0
 40
0.0
 40
1.0
 40
1.0
 40
1.0
 40
1.0
 10
11.99999999999999
 20
11.99008942808351
 30
0.0
 10
11.66712494818574
 20
12.05152673317336
 30
0.0
 10
11.33407045707219
 20
12.10882660253576
 30
0.0
 10
11.00015860018461
 20
12.16195550883262
 30
0.0
  0
LINE
  5
B8
330
1F
100
AcDbEntity
  8
외형선
  6
Continuous
370
    15
100
AcDbLine
 10
11.00015860018459
 20
5.887112191064806
 30
0.0
 11
11.00015860018459
 21
12.16197142633718
 31
0.0
  0
SPLINE
  5
B9
330
1F
100
AcDbEntity
  8
외형선
  6
Continuous
370
    15
100
AcDbSpline
210
0.0
220
0.0
230
1.0
 70
     8
 71
     3
 72
     8
 73
     4
 74
     0
 42
0.000000001
 43
0.00000001
 40
0.0
 40
0.0
 40
0.0
 40
0.0
 40
1.0
 40
1.0
 40
1.0
 40
1.0
 10
12.0
 20
5.37027628994922
 30
0.0
 10
11.66712494818574
 20
5.544428330765435
 30
0.0
 10
11.3340704570722
 20
5.716744905637364
 30
0.0
 10
11.00015860018459
 20
5.88715820059483
 30
0.0
  0
SPLINE
  5
BA
330
1F
100
AcDbEntity
  8
외형선
  6
Continuous
370
    15
100
AcDbSpline
210
0.0
220
0.0
230
1.0
 70
     8
 71
     3
 72
     8
 73
     4
 74
     0
 42
0.000000001
 43
0.00000001
 40
0.0
 40
0.0
 40
0.0
 40
0.0
 40
1.0
 40
1.0
 40
1.0
 40
1.0
 10
11.99999999999999
 20
-12.16538692612753
 30
0.0
 10
11.66712494818574
 20
-12.1078345389678
 30
0.0
 10
11.33407045707219
 20
-12.0460945799418
 30
0.0
 10
11.00015860018461
 20
-11.98017626662774
 30
0.0
  0
LINE
  5
BB
330
1F
100
AcDbEntity
  8
외형선
  6
Continuous
370
    15
100
AcDbLine
 10
11.00015860018459
 20
-12.74601838627575
 30
0.0
 11
11.00015860018459
 21
-11.98015651711663
 31
0.0
  0
LINE
  5
BC
330
1F
100
AcDbEntity
  8
외형선
  6
Continuous
370
    15
100
AcDbLine
 10
-36.26
 20
-0.0460183862757476
 30
0.0
 11
-36.26
 21
12.65398161372425
 31
0.0
  0
LINE
  5
BD
330
1F
100
AcDbEntity
  8
외형선
  6
Continuous
370
    15
100
AcDbLine
 10
-36.26
 20
-12.74601838627575
 30
0.0
 11
-36.26
 21
-0.0460183862757476
 31
0.0
  0
LINE
  5
BE
330
1F
100
AcDbEntity
  8
외형선
  6
Continuous
370
    15
100
AcDbLine
 10
11.00015860018459
 20
-8.891888828773059
 30
0.0
 11
11.00015860018459
 21
0.3970829427077425
 31
0.0
  0
LINE
  5
BF
330
1F
100
AcDbEntity
  8
외형선
  6
Continuous
370
    15
100
AcDbLine
 10
-38.8
 20
-0.0460183862757476
 30
0.0
 11
-38.8
 21
10.11398161372426
 31
0.0
  0
LINE
  5
C0
330
1F
100
AcDbEntity
  8
외형선
  6
Continuous
370
    15
100
AcDbLine
 10
-38.8
 20
-10.20601838627575
 30
0.0
 11
-38.8
 21
-0.0460183862757476
 31
0.0
  0
SPLINE
  5
C1
330
1F
100
AcDbEntity
  8
외형선
  6
Continuous
370
    15
100
AcDbSpline
210
0.0
220
0.0
230
1.0
 70
    24
 71
     3
 72
    17
 73
    13
 74
     0
 42
0.000000001
 43
0.00000001
 40
0.0
 40
0.0
 40
0.0
 40
0.0
 40
0.005299771095902
 40
0.1231130983552248
 40
0.2409264256145477
 40
0.3587397528738698
 40
0.4765530801331919
 40
0.5943664073925164
 40
0.7121797346518407
 40
0.8299930619111645
 40
0.9478063891704881
 40
0.9999999999999999
 40
0.9999999999999999
 40
0.9999999999999999
 40
0.9999999999999999
 10
12.00000000000001
 20
5.444633653028307
 30
0.0
 10
12.0
 20
5.451716462034141
 30
0.0
 10
11.99999999999999
 20
5.61624933448987
 30
0.0
 10
12.00000000000005
 20
6.046895675982906
 30
0.0
 10
12.00000000000002
 20
6.722441520822271
 30
0.0
 10
12.00000000000005
 20
7.490220227051894
 30
0.0
 10
12.00000000000005
 20
8.30856965348304
 30
0.0
 10
12.00000000000002
 20
9.160573351580318
 30
0.0
 10
11.99999999999999
 20
10.02030885532018
 30
0.0
 10
12.00000000000002
 20
10.86233251864474
 30
0.0
 10
12.0
 20
11.5186416100843
 30
0.0
 10
12.00000000000002
 20
11.87934908986718
 30
0.0
 10
12.00000000000002
 20
11.99008942808352
 30
0.0
  0
LINE
  5
C2
330
1F
100
AcDbEntity
  8
중심선
 62
     1
100
AcDbLine
 10
-41.80000000000001
 20
-0.000000000000002
 30
0.0
 11
65.8
 21
0.0000000000000068
 31
0.0
  0
LINE
  5
C3
330
1F
100
AcDbEntity
  8
참조1
100
AcDbLine
 10
29.05000000000001
 20
0.0010749287238892
 30
0.0
 11
29.05000000000001
 21
-39.99892507127611
 31
0.0
  0
LINE
  5
C4
330
1F
100
AcDbEntity
  8
참조1
100
AcDbLine
 10
29.05000000000001
 20
-39.99892507127611
 30
0.0
 11
-17.85885681430866
 21
-39.9989250712761
 31
0.0
  0
CIRCLE
  5
C5
330
1F
100
AcDbEntity
  8
해칭선
100
AcDbCircle
 10
0.0
 20
0.0
 30
0.0
 40
3.000000000000001
  0
INSERT
  5
C6
330
1F
100
AcDbEntity
  8
0
  6
Continuous
 62
     7
100
AcDbBlockReference
 66
     1
  2
블럭10
 10
-1.940272932125218
 20
-52.04717430164393
 30
0.0
  0
ATTRIB
  5
C7
330
C6
100
AcDbEntity
  8
FORMAT
 62
     2
100
AcDbText
 10
-11.1215682208665
 20
-49.97180738881175
 30
0.0
 40
4.233333333333333
  1
E5067064 [ 5 FLUTE ]
 41
0.75
  7
SLDTEXTSTYLE0
 11
-11.1215682208665
 21
-52.08847405547841
 31
0.0
100
AcDbAttribute
  2
AUTOATTR0
 70
     0
 74
     1
  0
SEQEND
  5
C8
330
C6
100
AcDbEntity
  8
0
  6
Continuous
 62
     7
  0
HATCH
  5
C9
330
1F
100
AcDbEntity
  8
중심선
100
AcDbHatch
 10
0.0
 20
0.0
 30
0.0
210
0.0
220
0.0
230
1.0
  2
SOLID
 70
     1
 71
     0
 91
        1
 92
        0
 93
        4
 72
     1
 10
3.774636372255635
 20
-35.8
 11
0.3283611284183543
 21
-35.8
 72
     1
 10
0.3283611284183543
 20
-35.8
 11
-1.79986873078567
 21
-38.33632558057257
 72
     1
 10
-1.79986873078567
 20
-38.33632558057257
 11
1.646439598164761
 21
-38.33628615127008
 72
     1
 10
1.646439598164761
 20
-38.33628615127008
 11
3.774636372255635
 21
-35.8
 97
        0
 75
     0
 76
     1
 98
        1
 10
-17.05000000000001
 20
-0.0010749287238951
  0
HATCH
  5
CA
330
1F
100
AcDbEntity
  8
중심선
100
AcDbHatch
 10
0.0
 20
0.0
 30
0.0
210
0.0
220
0.0
230
1.0
  2
SOLID
 70
     1
 71
     0
 91
        1
 92
        0
 93
        4
 72
     1
 10
8.787400363291614
 20
-35.79999999999998
 11
5.341125119454333
 21
-35.8
 72
     1
 10
5.341125119454333
 20
-35.8
 11
0.8099871110969161
 21
-41.20000000000002
 72
     1
 10
0.8099871110969161
 20
-41.20000000000002
 11
4.256262354934197
 21
-41.20000000000002
 72
     1
 10
4.256262354934197
 20
-41.20000000000002
 11
8.787400363291614
 21
-35.79999999999998
 97
        0
 75
     0
 76
     1
 98
        1
 10
-17.05000000000001
 20
-0.0010749287238951
  0
HATCH
  5
CB
330
1F
100
AcDbEntity
  8
중심선
100
AcDbHatch
 10
0.0
 20
0.0
 30
0.0
210
0.0
220
0.0
230
1.0
  2
SOLID
 70
     1
 71
     0
 91
        1
 92
        0
 93
        4
 72
     1
 10
13.80016435432745
 20
-35.8
 11
10.35388911049034
 21
-35.80000000000003
 72
     1
 10
10.35388911049034
 20
-35.80000000000003
 11
3.305452208601118
 21
-44.20000000000002
 72
     1
 10
3.305452208601118
 20
-44.20000000000002
 11
6.751727452438399
 21
-44.20000000000002
 72
     1
 10
6.751727452438399
 20
-44.20000000000002
 11
13.80016435432745
 21
-35.8
 97
        0
 75
     0
 76
     1
 98
        1
 10
-17.05000000000001
 20
-0.0010749287238951
  0
HATCH
  5
CC
330
1F
100
AcDbEntity
  8
중심선
100
AcDbHatch
 10
0.0
 20
0.0
 30
0.0
210
0.0
220
0.0
230
1.0
  2
SOLID
 70
     1
 71
     0
 91
        1
 92
        0
 93
        6
 72
     3
 10
18.60005478533968
 20
-40.00000000005127
 11
3.960054785062283
 21
1.540882976769353E-10
 40
0.3939339440162628
 50
17.09539180608439
 51
320.0019657685075
 73
     0
 72
     1
 10
20.28305444104025
 20
-38.5878940046383
 11
22.58835631474131
 21
-36.65356729459035
 72
     3
 10
18.60005478528683
 20
-40.00000000000015
 11
6.600054785286829
 21
-1.278976924368180E-13
 40
0.636358354079598
 50
39.99873849337429
 51
368.4976242363725
 73
     1
 72
     1
 10
25.02538727718744
 20
-39.03999999993002
 11
17.28012209212276
 21
-39.03999999993002
 72
     1
 10
17.28012209212276
 20
-39.03999999993002
 11
17.28009704767682
 21
-40.95999999992991
 72
     1
 10
17.28009704767682
 20
-40.95999999992991
 11
21.72147681714886
 21
-40.95999999992988
 97
        0
 75
     0
 76
     1
 98
        1
 10
-17.05000000000001
 20
-0.0010749287238951
  0
DIMENSION
  5
CD
330
1F
100
AcDbEntity
  8
치수문자_일반주서
100
AcDbDimension
  2
_D
 10
82.1929977554018
 20
-12.74601838627567
 30
0.0
 11
82.19299775540163
 21
36.27898161372433
 31
0.0
 70
   160
  1
%%c<>
 71
     2
 42
25.4
 52
-270.0
  3
SLDDIMSTYLE2
100
AcDbAlignedDimension
 13
62.8
 23
12.65398161372425
 33
0.0
 14
62.80000000000001
 24
-12.74601838627575
 34
0.0
 50
90.0000000000002
100
AcDbRotatedDimension
1001
ACAD
1000
DSTYLE
1002
{
1070
   171
1070
     6
1070
   273
1070
     5
1070
    41
1040
4.0
1070
   140
1040
4.0
1002
}
  0
DIMENSION
  5
E2
330
1F
100
AcDbEntity
  8
치수문자_일반주서
100
AcDbDimension
  2
_D_1
 10
12.0
 20
38.95572817130187
 30
0.0
 11
37.40000000000001
 21
38.95572817130187
 31
0.0
 70
   160
  1
<>
 71
     2
 42
50.8
  3
SLDDIMSTYLE2
100
AcDbAlignedDimension
 13
62.8
 23
12.65398161372425
 33
0.0
 14
12.0
 24
12.65398161372425
 34
0.0
 50
0.0000000000000481
100
AcDbRotatedDimension
1001
ACAD
1000
DSTYLE
1002
{
1070
   171
1070
     6
1070
   273
1070
     5
1070
    41
1040
4.0
1070
   140
1040
4.0
1002
}
  0
DIMENSION
  5
F7
330
1F
100
AcDbEntity
  8
치수문자_일반주서
100
AcDbDimension
  2
_D_2
 10
-38.8
 20
56.1710687011412
 30
0.0
 11
12.0
 21
56.1710687011412
 31
0.0
 70
   160
  1
<>
 71
     2
 42
101.6
  3
SLDDIMSTYLE2
100
AcDbAlignedDimension
 13
62.8
 23
12.65398161372425
 33
0.0
 14
-38.8
 24
10.11398161372426
 34
0.0
100
AcDbRotatedDimension
1001
ACAD
1000
DSTYLE
1002
{
1070
   171
1070
     6
1070
   273
1070
     5
1070
    41
1040
4.0
1070
   140
1040
4.0
1002
}
  0
DIMENSION
  5
10A
330
1F
100
AcDbEntity
  8
치수문자_일반주서
100
AcDbDimension
  2
_D_3
 10
-56.85010880483045
 20
-12.74601838627581
 30
0.0
 11
-56.85010880483061
 21
36.27898161372417
 31
0.0
 70
   160
  1
%%c<>
 71
     2
 42
25.39999999999998
 52
-270.0
  3
SLDDIMSTYLE2
100
AcDbAlignedDimension
 13
-36.26000000000001
 23
12.65398161372424
 33
0.0
 14
-36.26000000000001
 24
-12.74601838627574
 34
0.0
 50
90.0000000000002
100
AcDbRotatedDimension
1001
ACAD
1000
DSTYLE
1002
{
1070
   171
1070
     6
1070
   273
1070
     5
1070
    41
1040
4.0
1070
   140
1040
4.0
1002
}
  0
LINE
  5
11F
330
1F
100
AcDbEntity
  8
참조1
100
AcDbLine
 10
80.1134838153456
 20
7.441074928723896
 30
0.0
 11
80.1134838153456
 21
-7.438925071276109
 31
0.0
  0
LINE
  5
120
330
1F
100
AcDbEntity
  8
참조1
100
AcDbLine
 10
92.8134838153456
 20
5.441074928723896
 30
0.0
 11
80.1134838153456
 21
5.441074928723896
 31
0.0
  0
SOLID
  5
121
330
1F
100
AcDbEntity
  8
참조1
100
AcDbTrace
 10
80.1134838153456
 20
5.441074928723896
 30
0.0
 11
86.4634838153456
 21
4.425074928723896
 31
0.0
 12
86.4634838153456
 22
6.457074928723896
 32
0.0
 13
86.4634838153456
 23
6.457074928723896
 33
0.0
  0
LINE
  5
122
330
1F
100
AcDbEntity
  8
참조1
100
AcDbLine
 10
92.8134838153456
 20
-5.438925071276109
 30
0.0
 11
80.1134838153456
 21
-5.438925071276109
 31
0.0
  0
SOLID
  5
123
330
1F
100
AcDbEntity
  8
참조1
100
AcDbTrace
 10
80.1134838153456
 20
-5.438925071276109
 30
0.0
 11
86.4634838153456
 21
-6.454925071276109
 31
0.0
 12
86.4634838153456
 22
-4.422925071276109
 32
0.0
 13
86.4634838153456
 23
-4.422925071276109
 33
0.0
  0
MTEXT
  5
124
330
1F
100
AcDbEntity
  8
참조1
100
AcDbMText
 10
89.4978339479716
 20
11.01136670591222
 30
0.0
 40
3.5
 41
0.0
 71
     1
 72
     1
  1
A
  7
SLDTEXTSTYLE0
 73
     1
 44
1.0
  0
MTEXT
  5
125
330
1F
100
AcDbEntity
  8
참조1
100
AcDbMText
 10
89.4978339479716
 20
0.1313667059122201
 30
0.0
 40
3.5
 41
0.0
 71
     1
 72
     1
  1
A
  7
SLDTEXTSTYLE0
 73
     1
 44
1.0
  0
INSERT
  5
12C
330
1F
100
AcDbEntity
  8
해칭선
100
AcDbBlockReference
  2
SW_DOWELSYMBOL_0
 10
0.0
 20
0.0
 30
0.0
  0
ENDSEC
  0
SECTION
  2
OBJECTS
  0
DICTIONARY
  5
C
330
0
100
AcDbDictionary
281
     1
  3
ACAD_GROUP
350
D
  3
ACAD_IMAGE_VARS
350
150
  3
ACAD_LAYOUT
350
1A
  3
ACAD_MLINESTYLE
350
17
  3
ACAD_PLOTSETTINGS
350
19
  3
ACAD_PLOTSTYLENAME
350
E
  3
ACAD_SCALELIST
350
47
  3
APPDATA
350
14E
  3
DWGPROPS
350
2BE
  0
DICTIONARY
  5
20A
330
2
100
AcDbDictionary
280
     1
281
     1
  3
ACAD_LAYERSTATES
360
20B
  0
DICTIONARY
  5
D
102
{ACAD_REACTORS
330
C
102
}
330
C
100
AcDbDictionary
281
     1
  0
RASTERVARIABLES
  5
150
102
{ACAD_REACTORS
330
C
102
}
330
C
100
AcDbRasterVariables
 90
        0
 70
     1
 71
     1
 72
     1
  0
DICTIONARY
  5
1A
102
{ACAD_REACTORS
330
C
102
}
330
C
100
AcDbDictionary
281
     1
  3
Layout1
350
1E
  3
Layout2
350
26
  3
Model
350
22
  0
DICTIONARY
  5
17
102
{ACAD_REACTORS
330
C
102
}
330
C
100
AcDbDictionary
281
     1
  3
Standard
350
18
  0
DICTIONARY
  5
19
102
{ACAD_REACTORS
330
C
102
}
330
C
100
AcDbDictionary
281
     1
  0
ACDBDICTIONARYWDFLT
  5
E
102
{ACAD_REACTORS
330
C
102
}
330
C
100
AcDbDictionary
281
     1
  3
Normal
350
F
100
AcDbDictionaryWithDefault
340
F
  0
DICTIONARY
  5
47
102
{ACAD_REACTORS
330
C
102
}
330
C
100
AcDbDictionary
281
     1
  3
A0
350
48
  3
A1
350
49
  3
A2
350
4A
  3
A3
350
4B
  3
A4
350
4C
  3
A5
350
4D
  3
A6
350
4E
  3
A7
350
4F
  3
A8
350
50
  3
A9
350
51
  3
B0
350
52
  3
B1
350
53
  3
B2
350
54
  3
B3
350
55
  3
B4
350
56
  3
B5
350
57
  3
B6
350
58
  3
B7
350
59
  3
B8
350
5A
  3
B9
350
5B
  3
C0
350
5C
  3
C1
350
5D
  3
C2
350
5E
  3
C3
350
5F
  3
C4
350
60
  3
C5
350
61
  3
C6
350
62
  3
C7
350
63
  3
C8
350
64
  3
C9
350
65
  3
D0
350
66
  3
D1
350
67
  3
D2
350
68
  0
DICTIONARY
  5
14E
102
{ACAD_REACTORS
330
C
102
}
330
C
100
AcDbDictionary
281
     1
  0
XRECORD
  5
2BE
102
{ACAD_REACTORS
330
C
102
}
330
C
100
AcDbXrecord
280
     1
  1
DWGPROPS COOKIE
  2

  3

  4

  6

  7

  8
12014074
  9

300
=
301
=
302
=
303
=
304
=
305
=
306
=
307
=
308
=
309
=
 40
0.0
 41
2458316.072505475
 42
2458323.34595081
  1

 90
        0
  0
DICTIONARY
  5
20B
102
{ACAD_REACTORS
330
20A
102
}
330
20A
100
AcDbDictionary
281
     1
  0
LAYOUT
  5
1E
102
{ACAD_REACTORS
330
1A
102
}
330
1A
100
AcDbPlotSettings
  1

  2
none_device
  4

  6

 40
0.0
 41
0.0
 42
0.0
 43
0.0
 44
0.0
 45
0.0
 46
0.0
 47
0.0
 48
0.0
 49
0.0
140
0.0
141
0.0
142
1.0
143
1.0
 70
   688
 72
     1
 73
     0
 74
     5
  7

 75
    16
147
1.0
148
0.0
149
0.0
100
AcDbLayout
  1
Layout1
 70
     1
 71
     1
 10
0.0
 20
0.0
 11
420.0
 21
297.0
 12
0.0
 22
0.0
 32
0.0
 14
1.000000000000000E+20
 24
1.000000000000000E+20
 34
1.000000000000000E+20
 15
-1.000000000000000E+20
 25
-1.000000000000000E+20
 35
-1.000000000000000E+20
146
0.0
 13
0.0
 23
0.0
 33
0.0
 16
1.0
 26
0.0
 36
0.0
 17
0.0
 27
1.0
 37
0.0
 76
     0
330
1B
  0
LAYOUT
  5
26
102
{ACAD_REACTORS
330
1A
102
}
330
1A
100
AcDbPlotSettings
  1

  2
none_device
  4

  6

 40
0.0
 41
0.0
 42
0.0
 43
0.0
 44
0.0
 45
0.0
 46
0.0
 47
0.0
 48
0.0
 49
0.0
140
0.0
141
0.0
142
1.0
143
1.0
 70
   688
 72
     1
 73
     0
 74
     5
  7

 75
    16
147
1.0
148
0.0
149
0.0
100
AcDbLayout
  1
Layout2
 70
     1
 71
     2
 10
0.0
 20
0.0
 11
0.0
 21
0.0
 12
0.0
 22
0.0
 32
0.0
 14
0.0
 24
0.0
 34
0.0
 15
0.0
 25
0.0
 35
0.0
146
0.0
 13
0.0
 23
0.0
 33
0.0
 16
1.0
 26
0.0
 36
0.0
 17
0.0
 27
1.0
 37
0.0
 76
     0
330
23
  0
LAYOUT
  5
22
102
{ACAD_REACTORS
330
1A
102
}
330
1A
100
AcDbPlotSettings
  1

  2
none_device
  4
ANSI_A_(11.00_x_8.50_Inches)
  6

 40
6.35
 41
19.05
 42
6.35000508
 43
19.05000254
 44
279.4
 45
215.9
 46
44.40961614806415
 47
77.896587206098
 48
0.0
 49
0.0
140
0.0
141
0.0
142
0.0533164870051414
143
1.0
 70
  1696
 72
     0
 73
     0
 74
     0
  7

 75
     0
147
0.0235690232323232
148
0.0
149
0.0
100
AcDbLayout
  1
Model
 70
     1
 71
     0
 10
0.0
 20
0.0
 11
420.0
 21
297.0
 12
0.0
 22
0.0
 32
0.0
 14
1.000000000000000E+20
 24
1.000000000000000E+20
 34
1.000000000000000E+20
 15
-1.000000000000000E+20
 25
-1.000000000000000E+20
 35
-1.000000000000000E+20
146
0.0
 13
0.0
 23
0.0
 33
0.0
 16
1.0
 26
0.0
 36
0.0
 17
0.0
 27
1.0
 37
0.0
 76
     0
330
1F
331
29
  0
MLINESTYLE
  5
18
102
{ACAD_REACTORS
330
17
102
}
330
17
100
AcDbMlineStyle
  2
Standard
 70
     0
  3

 62
   256
 51
90.0
 52
90.0
 71
     2
 49
0.5
 62
   256
  6
BYLAYER
 49
-0.5
 62
   256
  6
BYLAYER
  0
ACDBPLACEHOLDER
  5
F
102
{ACAD_REACTORS
330
E
102
}
330
E
  0
SCALE
  5
48
102
{ACAD_REACTORS
330
47
102
}
330
47
100
AcDbScale
 70
     0
300
1:1
140
1.0
141
1.0
290
     1
  0
SCALE
  5
49
102
{ACAD_REACTORS
330
47
102
}
330
47
100
AcDbScale
 70
     0
300
1:2
140
1.0
141
2.0
290
     0
  0
SCALE
  5
4A
102
{ACAD_REACTORS
330
47
102
}
330
47
100
AcDbScale
 70
     0
300
1:4
140
1.0
141
4.0
290
     0
  0
SCALE
  5
4B
102
{ACAD_REACTORS
330
47
102
}
330
47
100
AcDbScale
 70
     0
300
1:5
140
1.0
141
5.0
290
     0
  0
SCALE
  5
4C
102
{ACAD_REACTORS
330
47
102
}
330
47
100
AcDbScale
 70
     0
300
1:8
140
1.0
141
8.0
290
     0
  0
SCALE
  5
4D
102
{ACAD_REACTORS
330
47
102
}
330
47
100
AcDbScale
 70
     0
300
1:10
140
1.0
141
10.0
290
     0
  0
SCALE
  5
4E
102
{ACAD_REACTORS
330
47
102
}
330
47
100
AcDbScale
 70
     0
300
1:16
140
1.0
141
16.0
290
     0
  0
SCALE
  5
4F
102
{ACAD_REACTORS
330
47
102
}
330
47
100
AcDbScale
 70
     0
300
1:20
140
1.0
141
20.0
290
     0
  0
SCALE
  5
50
102
{ACAD_REACTORS
330
47
102
}
330
47
100
AcDbScale
 70
     0
300
1:30
140
1.0
141
30.0
290
     0
  0
SCALE
  5
51
102
{ACAD_REACTORS
330
47
102
}
330
47
100
AcDbScale
 70
     0
300
1:40
140
1.0
141
40.0
290
     0
  0
SCALE
  5
52
102
{ACAD_REACTORS
330
47
102
}
330
47
100
AcDbScale
 70
     0
300
1:50
140
1.0
141
50.0
290
     0
  0
SCALE
  5
53
102
{ACAD_REACTORS
330
47
102
}
330
47
100
AcDbScale
 70
     0
300
1:100
140
1.0
141
100.0
290
     0
  0
SCALE
  5
54
102
{ACAD_REACTORS
330
47
102
}
330
47
100
AcDbScale
 70
     0
300
2:1
140
2.0
141
1.0
290
     0
  0
SCALE
  5
55
102
{ACAD_REACTORS
330
47
102
}
330
47
100
AcDbScale
 70
     0
300
4:1
140
4.0
141
1.0
290
     0
  0
SCALE
  5
56
102
{ACAD_REACTORS
330
47
102
}
330
47
100
AcDbScale
 70
     0
300
8:1
140
8.0
141
1.0
290
     0
  0
SCALE
  5
57
102
{ACAD_REACTORS
330
47
102
}
330
47
100
AcDbScale
 70
     0
300
10:1
140
10.0
141
1.0
290
     0
  0
SCALE
  5
58
102
{ACAD_REACTORS
330
47
102
}
330
47
100
AcDbScale
 70
     0
300
100:1
140
100.0
141
1.0
290
     0
  0
SCALE
  5
59
102
{ACAD_REACTORS
330
47
102
}
330
47
100
AcDbScale
 70
     0
300
1/128" = 1'-0"
140
0.0078125
141
12.0
290
     0
  0
SCALE
  5
5A
102
{ACAD_REACTORS
330
47
102
}
330
47
100
AcDbScale
 70
     0
300
1/64" = 1'-0"
140
0.015625
141
12.0
290
     0
  0
SCALE
  5
5B
102
{ACAD_REACTORS
330
47
102
}
330
47
100
AcDbScale
 70
     0
300
1/32" = 1'-0"
140
0.03125
141
12.0
290
     0
  0
SCALE
  5
5C
102
{ACAD_REACTORS
330
47
102
}
330
47
100
AcDbScale
 70
     0
300
1/16" = 1'-0"
140
0.0625
141
12.0
290
     0
  0
SCALE
  5
5D
102
{ACAD_REACTORS
330
47
102
}
330
47
100
AcDbScale
 70
     0
300
3/32" = 1'-0"
140
0.09375
141
12.0
290
     0
  0
SCALE
  5
5E
102
{ACAD_REACTORS
330
47
102
}
330
47
100
AcDbScale
 70
     0
300
1/8" = 1'-0"
140
0.125
141
12.0
290
     0
  0
SCALE
  5
5F
102
{ACAD_REACTORS
330
47
102
}
330
47
100
AcDbScale
 70
     0
300
3/16" = 1'-0"
140
0.1875
141
12.0
290
     0
  0
SCALE
  5
60
102
{ACAD_REACTORS
330
47
102
}
330
47
100
AcDbScale
 70
     0
300
1/4" = 1'-0"
140
0.25
141
12.0
290
     0
  0
SCALE
  5
61
102
{ACAD_REACTORS
330
47
102
}
330
47
100
AcDbScale
 70
     0
300
3/8" = 1'-0"
140
0.375
141
12.0
290
     0
  0
SCALE
  5
62
102
{ACAD_REACTORS
330
47
102
}
330
47
100
AcDbScale
 70
     0
300
1/2" = 1'-0"
140
0.5
141
12.0
290
     0
  0
SCALE
  5
63
102
{ACAD_REACTORS
330
47
102
}
330
47
100
AcDbScale
 70
     0
300
3/4" = 1'-0"
140
0.75
141
12.0
290
     0
  0
SCALE
  5
64
102
{ACAD_REACTORS
330
47
102
}
330
47
100
AcDbScale
 70
     0
300
1" = 1'-0"
140
1.0
141
12.0
290
     0
  0
SCALE
  5
65
102
{ACAD_REACTORS
330
47
102
}
330
47
100
AcDbScale
 70
     0
300
1-1/2" = 1'-0"
140
1.5
141
12.0
290
     0
  0
SCALE
  5
66
102
{ACAD_REACTORS
330
47
102
}
330
47
100
AcDbScale
 70
     0
300
3" = 1'-0"
140
3.0
141
12.0
290
     0
  0
SCALE
  5
67
102
{ACAD_REACTORS
330
47
102
}
330
47
100
AcDbScale
 70
     0
300
6" = 1'-0"
140
6.0
141
12.0
290
     0
  0
SCALE
  5
68
102
{ACAD_REACTORS
330
47
102
}
330
47
100
AcDbScale
 70
     0
300
1'-0" = 1'-0"
140
12.0
141
12.0
290
     0
  0
ENDSEC
  0
EOF
