  0
SECTION
  2
HEADER
  9
$ACADVER
  1
AC1015
  9
$ACADMAINTVER
 70
     6
  9
$DWGCODEPAGE
  3
ANSI_949
  9
$INSBASE
 10
0.0
 20
0.0
 30
0.0
  9
$EXTMIN
 10
1.000000000000000E+20
 20
1.000000000000000E+20
 30
1.000000000000000E+20
  9
$EXTMAX
 10
-1.000000000000000E+20
 20
-1.000000000000000E+20
 30
-1.000000000000000E+20
  9
$LIMMIN
 10
0.0
 20
0.0
  9
$LIMMAX
 10
420.0
 20
297.0
  9
$ORTHOMODE
 70
     0
  9
$REGENMODE
 70
     1
  9
$FILLMODE
 70
     1
  9
$QTEXTMODE
 70
     0
  9
$MIRRTEXT
 70
     1
  9
$LTSCALE
 40
1.0
  9
$ATTMODE
 70
     1
  9
$TEXTSIZE
 40
3.5
  9
$TRACEWID
 40
1.0
  9
$TEXTSTYLE
  7
Standard
  9
$CLAYER
  8
0
  9
$CELTYPE
  6
ByLayer
  9
$CECOLOR
 62
   256
  9
$CELTSCALE
 40
1.0
  9
$DISPSILH
 70
     0
  9
$DIMSCALE
 40
1.0
  9
$DIMASZ
 40
3.302
  9
$DIMEXO
 40
1.0
  9
$DIMDLI
 40
3.75
  9
$DIMRND
 40
0.0
  9
$DIMDLE
 40
0.0
  9
$DIMEXE
 40
1.0
  9
$DIMTP
 40
0.0
  9
$DIMTM
 40
0.0
  9
$DIMTXT
 40
3.5
  9
$DIMCEN
 40
2.5
  9
$DIMTSZ
 40
0.0
  9
$DIMTOL
 70
     0
  9
$DIMLIM
 70
     0
  9
$DIMTIH
 70
     1
  9
$DIMTOH
 70
     1
  9
$DIMSE1
 70
     0
  9
$DIMSE2
 70
     0
  9
$DIMTAD
 70
     1
  9
$DIMZIN
 70
     0
  9
$DIMBLK
  1

  9
$DIMASO
 70
     1
  9
$DIMSHO
 70
     1
  9
$DIMPOST
  1

  9
$DIMAPOST
  1

  9
$DIMALT
 70
     0
  9
$DIMALTD
 70
     3
  9
$DIMALTF
 40
0.0393700787401575
  9
$DIMLFAC
 40
1.0
  9
$DIMTOFL
 70
     1
  9
$DIMTVP
 40
0.0
  9
$DIMTIX
 70
     0
  9
$DIMSOXD
 70
     0
  9
$DIMSAH
 70
     0
  9
$DIMBLK1
  1

  9
$DIMBLK2
  1

  9
$DIMSTYLE
  2
ISO-25
  9
$DIMCLRD
 70
     0
  9
$DIMCLRE
 70
     0
  9
$DIMCLRT
 70
     0
  9
$DIMTFAC
 40
1.0
  9
$DIMGAP
 40
1.524
  9
$DIMJUST
 70
     0
  9
$DIMSD1
 70
     0
  9
$DIMSD2
 70
     0
  9
$DIMTOLJ
 70
     0
  9
$DIMTZIN
 70
     0
  9
$DIMALTZ
 70
     0
  9
$DIMALTTZ
 70
     0
  9
$DIMUPT
 70
     0
  9
$DIMDEC
 70
     2
  9
$DIMTDEC
 70
     2
  9
$DIMALTU
 70
     2
  9
$DIMALTTD
 70
     3
  9
$DIMTXSTY
  7
Standard
  9
$DIMAUNIT
 70
     0
  9
$DIMADEC
 70
     2
  9
$DIMALTRND
 40
0.0
  9
$DIMAZIN
 70
     0
  9
$DIMDSEP
 70
    44
  9
$DIMATFIT
 70
     3
  9
$DIMFRAC
 70
     0
  9
$DIMLDRBLK
  1

  9
$DIMLUNIT
 70
     2
  9
$DIMLWD
 70
    -2
  9
$DIMLWE
 70
    -2
  9
$DIMTMOVE
 70
     0
  9
$LUNITS
 70
     2
  9
$LUPREC
 70
     2
  9
$SKETCHINC
 40
1.0
  9
$FILLETRAD
 40
10.0
  9
$AUNITS
 70
     0
  9
$AUPREC
 70
     2
  9
$MENU
  1
.
  9
$ELEVATION
 40
0.0
  9
$PELEVATION
 40
0.0
  9
$THICKNESS
 40
0.0
  9
$LIMCHECK
 70
     0
  9
$CHAMFERA
 40
0.0
  9
$CHAMFERB
 40
0.0
  9
$CHAMFERC
 40
0.0
  9
$CHAMFERD
 40
0.0
  9
$SKPOLY
 70
     0
  9
$TDCREATE
 40
2458316.446870278
  9
$TDUCREATE
 40
2458316.071870278
  9
$TDUPDATE
 40
2458323.717061343
  9
$TDUUPDATE
 40
2458323.342061343
  9
$TDINDWG
 40
0.0009709491
  9
$TDUSRTIMER
 40
2458323.34109066
  9
$USRTIMER
 70
     1
  9
$ANGBASE
 50
0.0
  9
$ANGDIR
 70
     0
  9
$PDMODE
 70
     0
  9
$PDSIZE
 40
-1.0
  9
$PLINEWID
 40
0.0
  9
$SPLFRAME
 70
     0
  9
$SPLINETYPE
 70
     6
  9
$SPLINESEGS
 70
     8
  9
$HANDSEED
  5
2CE
  9
$SURFTAB1
 70
     6
  9
$SURFTAB2
 70
     6
  9
$SURFTYPE
 70
     6
  9
$SURFU
 70
     6
  9
$SURFV
 70
     6
  9
$UCSBASE
  2

  9
$UCSNAME
  2

  9
$UCSORG
 10
0.0
 20
0.0
 30
0.0
  9
$UCSXDIR
 10
1.0
 20
0.0
 30
0.0
  9
$UCSYDIR
 10
0.0
 20
1.0
 30
0.0
  9
$UCSORTHOREF
  2

  9
$UCSORTHOVIEW
 70
     0
  9
$UCSORGTOP
 10
0.0
 20
0.0
 30
0.0
  9
$UCSORGBOTTOM
 10
0.0
 20
0.0
 30
0.0
  9
$UCSORGLEFT
 10
0.0
 20
0.0
 30
0.0
  9
$UCSORGRIGHT
 10
0.0
 20
0.0
 30
0.0
  9
$UCSORGFRONT
 10
0.0
 20
0.0
 30
0.0
  9
$UCSORGBACK
 10
0.0
 20
0.0
 30
0.0
  9
$PUCSBASE
  2

  9
$PUCSNAME
  2

  9
$PUCSORG
 10
0.0
 20
0.0
 30
0.0
  9
$PUCSXDIR
 10
1.0
 20
0.0
 30
0.0
  9
$PUCSYDIR
 10
0.0
 20
1.0
 30
0.0
  9
$PUCSORTHOREF
  2

  9
$PUCSORTHOVIEW
 70
     0
  9
$PUCSORGTOP
 10
0.0
 20
0.0
 30
0.0
  9
$PUCSORGBOTTOM
 10
0.0
 20
0.0
 30
0.0
  9
$PUCSORGLEFT
 10
0.0
 20
0.0
 30
0.0
  9
$PUCSORGRIGHT
 10
0.0
 20
0.0
 30
0.0
  9
$PUCSORGFRONT
 10
0.0
 20
0.0
 30
0.0
  9
$PUCSORGBACK
 10
0.0
 20
0.0
 30
0.0
  9
$USERI1
 70
     0
  9
$USERI2
 70
     0
  9
$USERI3
 70
     0
  9
$USERI4
 70
     0
  9
$USERI5
 70
     0
  9
$USERR1
 40
0.0
  9
$USERR2
 40
0.0
  9
$USERR3
 40
0.0
  9
$USERR4
 40
0.0
  9
$USERR5
 40
0.0
  9
$WORLDVIEW
 70
     1
  9
$SHADEDGE
 70
     3
  9
$SHADEDIF
 70
    70
  9
$TILEMODE
 70
     1
  9
$MAXACTVP
 70
    64
  9
$PINSBASE
 10
0.0
 20
0.0
 30
0.0
  9
$PLIMCHECK
 70
     0
  9
$PEXTMIN
 10
1.000000000000000E+20
 20
1.000000000000000E+20
 30
1.000000000000000E+20
  9
$PEXTMAX
 10
-1.000000000000000E+20
 20
-1.000000000000000E+20
 30
-1.000000000000000E+20
  9
$PLIMMIN
 10
0.0
 20
0.0
  9
$PLIMMAX
 10
0.0
 20
0.0
  9
$UNITMODE
 70
     0
  9
$VISRETAIN
 70
     1
  9
$PLINEGEN
 70
     0
  9
$PSLTSCALE
 70
     1
  9
$TREEDEPTH
 70
  3020
  9
$CMLSTYLE
  2
Standard
  9
$CMLJUST
 70
     0
  9
$CMLSCALE
 40
20.0
  9
$PROXYGRAPHICS
 70
     1
  9
$MEASUREMENT
 70
     1
  9
$CELWEIGHT
370
    -1
  9
$ENDCAPS
280
     0
  9
$JOINSTYLE
280
     0
  9
$LWDISPLAY
290
     1
  9
$INSUNITS
 70
     4
  9
$HYPERLINKBASE
  1

  9
$STYLESHEET
  1

  9
$XEDIT
290
     1
  9
$CEPSNTYPE
380
     0
  9
$PSTYLEMODE
290
     1
  9
$FINGERPRINTGUID
  2
{CAA6E547-660E-44D0-948F-4B69726E671F}
  9
$VERSIONGUID
  2
{FAEB1C32-E019-11D5-929B-00C0DF256EC4}
  9
$EXTNAMES
290
     1
  9
$PSVPSCALE
 40
0.0
  9
$OLESTARTUP
290
     0
  0
ENDSEC
  0
SECTION
  2
CLASSES
  0
CLASS
  1
ACDBDICTIONARYWDFLT
  2
AcDbDictionaryWithDefault
  3
ObjectDBX Classes
 90
        0
280
     0
281
     0
  0
CLASS
  1
VISUALSTYLE
  2
AcDbVisualStyle
  3
ObjectDBX Classes
 90
     4095
280
     0
281
     0
  0
CLASS
  1
MATERIAL
  2
AcDbMaterial
  3
ObjectDBX Classes
 90
     1153
280
     0
281
     0
  0
CLASS
  1
SCALE
  2
AcDbScale
  3
ObjectDBX Classes
 90
     1153
280
     0
281
     0
  0
CLASS
  1
SUN
  2
AcDbSun
  3
SCENEOE
 90
     1153
280
     0
281
     0
  0
CLASS
  1
ACDBPLACEHOLDER
  2
AcDbPlaceHolder
  3
ObjectDBX Classes
 90
        0
280
     0
281
     0
  0
CLASS
  1
LAYOUT
  2
AcDbLayout
  3
ObjectDBX Classes
 90
        0
280
     0
281
     0
  0
CLASS
  1
TABLESTYLE
  2
AcDbTableStyle
  3
ObjectDBX Classes
 90
     4095
280
     0
281
     0
  0
CLASS
  1
MLEADERSTYLE
  2
AcDbMLeaderStyle
  3
ACDB_MLEADERSTYLE_CLASS
 90
     4095
280
     0
281
     0
  0
CLASS
  1
RASTERVARIABLES
  2
AcDbRasterVariables
  3
ISM
 90
        0
280
     0
281
     0
  0
ENDSEC
  0
SECTION
  2
TABLES
  0
TABLE
  2
VPORT
  5
8
330
0
100
AcDbSymbolTable
 70
     1
  0
VPORT
  5
29
330
8
100
AcDbSymbolTableRecord
100
AcDbViewportTableRecord
  2
*Active
 70
     0
 10
0.0
 20
0.0
 11
1.0
 21
1.0
 12
33.89813439795621
 22
-2.511260050008826
 13
0.0
 23
0.0
 14
10.0
 24
10.0
 15
10.0
 25
10.0
 16
0.0
 26
0.0
 36
1.0
 17
0.0
 27
0.0
 37
0.0
 40
145.7639651818248
 41
1.970186335403727
 42
50.0
 43
0.0
 44
0.0
 50
0.0
 51
0.0
 71
    16
 72
  2000
 73
     1
 74
     3
 75
     0
 76
     0
 77
     0
 78
     0
281
     0
 65
     1
110
0.0
120
0.0
130
0.0
111
1.0
121
0.0
131
0.0
112
0.0
122
1.0
132
0.0
 79
     0
146
0.0
  0
ENDTAB
  0
TABLE
  2
LTYPE
  5
5
330
0
100
AcDbSymbolTable
 70
     6
  0
LTYPE
  5
14
330
5
100
AcDbSymbolTableRecord
100
AcDbLinetypeTableRecord
  2
ByBlock
 70
     0
  3

 72
    65
 73
     0
 40
0.0
  0
LTYPE
  5
15
330
5
100
AcDbSymbolTableRecord
100
AcDbLinetypeTableRecord
  2
ByLayer
 70
     0
  3

 72
    65
 73
     0
 40
0.0
  0
LTYPE
  5
16
330
5
100
AcDbSymbolTableRecord
100
AcDbLinetypeTableRecord
  2
Continuous
 70
     0
  3
Solid line
 72
    65
 73
     0
 40
0.0
  0
LTYPE
  5
6A
330
5
100
AcDbSymbolTableRecord
100
AcDbLinetypeTableRecord
  2
HIDDEN
 70
     0
  3
Hidden __ __ __ __ __ __ __ __ __ __ __ __ __ __
 72
    65
 73
     2
 40
1.905
 49
1.27
 74
     0
 49
-0.635
 74
     0
  0
LTYPE
  5
6B
330
5
100
AcDbSymbolTableRecord
100
AcDbLinetypeTableRecord
  2
PHANTOM
 70
     0
  3
Phantom ______  __  __  ______  __  __  ______
 72
    65
 73
     6
 40
12.7
 49
6.35
 74
     0
 49
-1.27
 74
     0
 49
1.27
 74
     0
 49
-1.27
 74
     0
 49
1.27
 74
     0
 49
-1.27
 74
     0
  0
LTYPE
  5
6C
330
5
100
AcDbSymbolTableRecord
100
AcDbLinetypeTableRecord
  2
CENTER
 70
     0
  3
Center ____ _ ____ _ ____ _ ____ _ ____ _ ____
 72
    65
 73
     4
 40
10.16
 49
6.35
 74
     0
 49
-1.27
 74
     0
 49
1.27
 74
     0
 49
-1.27
 74
     0
  0
LTYPE
  5
6D
330
5
100
AcDbSymbolTableRecord
100
AcDbLinetypeTableRecord
  2
CENTERX2
 70
     0
  3
Center (2x) ________  __  ________  __  _____
 72
    65
 73
     4
 40
20.32
 49
12.7
 74
     0
 49
-2.54
 74
     0
 49
2.54
 74
     0
 49
-2.54
 74
     0
  0
LTYPE
  5
6E
330
5
100
AcDbSymbolTableRecord
100
AcDbLinetypeTableRecord
  2
DOT2
 70
     0
  3
Dot (.5x) ........................................
 72
    65
 73
     2
 40
0.635
 49
0.0
 74
     0
 49
-0.635
 74
     0
  0
ENDTAB
  0
TABLE
  2
LAYER
  5
2
102
{ACAD_XDICTIONARY
360
211
102
}
330
0
100
AcDbSymbolTable
 70
    18
  0
LAYER
  5
10
330
2
100
AcDbSymbolTableRecord
100
AcDbLayerTableRecord
  2
0
 70
     0
 62
     7
  6
Continuous
370
    -3
390
F
  0
LAYER
  5
6F
330
2
100
AcDbSymbolTableRecord
100
AcDbLayerTableRecord
  2
FORMAT
 70
     0
 62
     2
  6
Continuous
370
    -3
390
F
  0
LAYER
  5
70
330
2
100
AcDbSymbolTableRecord
100
AcDbLayerTableRecord
  2
외형선
 70
     0
 62
     4
  6
Continuous
370
    30
390
F
  0
LAYER
  5
71
330
2
100
AcDbSymbolTableRecord
100
AcDbLayerTableRecord
  2
숨은선
 70
     0
 62
     2
  6
HIDDEN
370
    15
390
F
  0
LAYER
  5
72
330
2
100
AcDbSymbolTableRecord
100
AcDbLayerTableRecord
  2
중심선
 70
     0
 62
     1
  6
CENTERX2
370
    -3
390
F
  0
LAYER
  5
73
330
2
100
AcDbSymbolTableRecord
100
AcDbLayerTableRecord
  2
파단선
 70
     0
 62
     4
  6
Continuous
370
    -3
390
F
  0
LAYER
  5
74
330
2
100
AcDbSymbolTableRecord
100
AcDbLayerTableRecord
  2
해칭선
 70
     0
 62
   100
  6
Continuous
370
    -3
390
F
  0
LAYER
  5
75
330
2
100
AcDbSymbolTableRecord
100
AcDbLayerTableRecord
  2
가는실선
 70
     0
 62
     4
  6
Continuous
370
    -3
390
F
  0
LAYER
  5
76
330
2
100
AcDbSymbolTableRecord
100
AcDbLayerTableRecord
  2
치수_보조선
 70
     0
 62
     4
  6
Continuous
370
    -3
390
F
  0
LAYER
  5
77
330
2
100
AcDbSymbolTableRecord
100
AcDbLayerTableRecord
  2
치수문자_일반주서
 70
     0
 62
     7
  6
Continuous
370
    15
390
F
  0
LAYER
  5
78
330
2
100
AcDbSymbolTableRecord
100
AcDbLayerTableRecord
  2
개별주서
 70
     0
 62
   100
  6
Continuous
370
    30
390
F
  0
LAYER
  5
79
330
2
100
AcDbSymbolTableRecord
100
AcDbLayerTableRecord
  2
중간선
 70
     0
 62
     2
  6
Continuous
370
    15
390
F
  0
LAYER
  5
7A
330
2
100
AcDbSymbolTableRecord
100
AcDbLayerTableRecord
  2
윤곽선
 70
     0
 62
     3
  6
Continuous
370
    40
390
F
  0
LAYER
  5
7B
330
2
100
AcDbSymbolTableRecord
100
AcDbLayerTableRecord
  2
중심마크
 70
     0
 62
   100
  6
Continuous
370
    30
390
F
  0
LAYER
  5
7C
330
2
100
AcDbSymbolTableRecord
100
AcDbLayerTableRecord
  2
가상선
 70
     0
 62
     4
  6
PHANTOM
370
    -3
390
F
  0
LAYER
  5
7D
330
2
100
AcDbSymbolTableRecord
100
AcDbLayerTableRecord
  2
특수지정선
 70
     0
 62
     5
  6
CENTERX2
370
    60
390
F
  0
LAYER
  5
7E
330
2
100
AcDbSymbolTableRecord
100
AcDbLayerTableRecord
  2
참조1
 70
     0
 62
    -4
  6
Continuous
370
    -3
390
F
  0
LAYER
  5
159
330
2
100
AcDbSymbolTableRecord
100
AcDbLayerTableRecord
  2
Defpoints
 70
     0
 62
     7
  6
Continuous
290
     0
370
    -3
390
F
  0
ENDTAB
  0
TABLE
  2
STYLE
  5
3
330
0
100
AcDbSymbolTable
 70
     2
  0
STYLE
  5
11
330
3
100
AcDbSymbolTableRecord
100
AcDbTextStyleTableRecord
  2
Standard
 70
     0
 40
0.0
 41
1.0
 50
0.0
 71
     0
 42
3.5
  3
txt
  4

  0
STYLE
  5
94
330
3
100
AcDbSymbolTableRecord
100
AcDbTextStyleTableRecord
  2
SLDTEXTSTYLE0
 70
     0
 40
0.0
 41
0.75
 50
0.0
 71
     0
 42
3.5
  3
TXT
  4

  0
ENDTAB
  0
TABLE
  2
VIEW
  5
6
330
0
100
AcDbSymbolTable
 70
     0
  0
ENDTAB
  0
TABLE
  2
UCS
  5
7
330
0
100
AcDbSymbolTable
 70
     0
  0
ENDTAB
  0
TABLE
  2
APPID
  5
9
330
0
100
AcDbSymbolTable
 70
     3
  0
APPID
  5
12
330
9
100
AcDbSymbolTableRecord
100
AcDbRegAppTableRecord
  2
ACAD
 70
     0
  0
APPID
  5
165
330
9
100
AcDbSymbolTableRecord
100
AcDbRegAppTableRecord
  2
PE_URL
 70
     0
  0
APPID
  5
166
330
9
100
AcDbSymbolTableRecord
100
AcDbRegAppTableRecord
  2
ACAD_DSTYLE_DIMRADIAL_EXTENSION
 70
     0
  0
ENDTAB
  0
TABLE
  2
DIMSTYLE
  5
A
330
0
100
AcDbSymbolTable
 70
     4
100
AcDbDimStyleTable
  0
DIMSTYLE
105
27
330
A
100
AcDbSymbolTableRecord
100
AcDbDimStyleTableRecord
  2
ISO-25
 70
     0
 41
2.5
 42
0.625
 43
3.75
 44
1.25
 73
     0
 74
     0
 77
     1
 78
     8
140
2.5
141
2.5
143
0.03937007874016
147
0.625
171
     3
172
     1
178
     0
271
     2
272
     2
274
     3
278
    44
283
     0
284
     8
340
11
  0
DIMSTYLE
105
D5
102
{ACAD_REACTORS
330
D4
330
112
330
1C5
330
1D2
330
E9
330
FE
102
}
330
A
100
AcDbSymbolTableRecord
100
AcDbDimStyleTableRecord
  2
SLDDIMSTYLE0
 70
     0
 41
3.302
 44
0.0
 45
0.000000001
 73
     0
 74
     0
 77
     1
 78
    12
 79
     3
140
3.5
143
0.0393700787401575
147
0.875
148
0.000000001
170
     1
172
     1
173
     1
178
     0
271
     2
272
     2
276
     2
284
    12
289
     0
340
94
  0
DIMSTYLE
105
EA
102
{ACAD_REACTORS
330
208
102
}
330
A
100
AcDbSymbolTableRecord
100
AcDbDimStyleTableRecord
  2
SLDDIMSTYLE1
 70
     0
 41
3.302
 44
0.0
 45
0.000000001
 73
     0
 74
     0
 77
     1
 78
    12
 79
     3
140
3.5
143
0.0393700787401575
147
0.875
148
0.000000001
170
     1
173
     1
178
     0
271
     2
272
     2
276
     2
284
    12
340
94
  0
DIMSTYLE
105
FF
102
{ACAD_REACTORS
330
1DF
330
1EE
102
}
330
A
100
AcDbSymbolTableRecord
100
AcDbDimStyleTableRecord
  2
SLDDIMSTYLE2
 70
     0
 41
3.302
 44
0.0
 45
0.000000001
 73
     0
 74
     0
 77
     1
 78
     4
 79
     1
140
3.5
143
0.0393700787401575
147
0.875
148
0.000000001
170
     1
173
     1
178
     0
271
     2
272
     2
276
     2
284
    12
340
94
  0
ENDTAB
  0
TABLE
  2
BLOCK_RECORD
  5
1
330
0
100
AcDbSymbolTable
 70
    18
  0
BLOCK_RECORD
  5
1F
330
1
100
AcDbSymbolTableRecord
100
AcDbBlockTableRecord
  2
*Model_Space
340
22
  0
BLOCK_RECORD
  5
1B
330
1
100
AcDbSymbolTableRecord
100
AcDbBlockTableRecord
  2
*Paper_Space
340
1E
  0
BLOCK_RECORD
  5
23
330
1
100
AcDbSymbolTableRecord
100
AcDbBlockTableRecord
  2
*Paper_Space0
340
26
  0
BLOCK_RECORD
  5
7F
330
1
100
AcDbSymbolTableRecord
100
AcDbBlockTableRecord
  2
블럭10
340
0
102
{BLKREFS
331
CD
102
}
  0
BLOCK_RECORD
  5
D6
330
1
100
AcDbSymbolTableRecord
100
AcDbBlockTableRecord
  2
_D
340
0
  0
BLOCK_RECORD
  5
EB
330
1
100
AcDbSymbolTableRecord
100
AcDbBlockTableRecord
  2
_D_1
340
0
  0
BLOCK_RECORD
  5
100
330
1
100
AcDbSymbolTableRecord
100
AcDbBlockTableRecord
  2
_D_2
340
0
  0
BLOCK_RECORD
  5
113
330
1
100
AcDbSymbolTableRecord
100
AcDbBlockTableRecord
  2
_D_3
340
0
  0
BLOCK_RECORD
  5
12D
330
1
100
AcDbSymbolTableRecord
100
AcDbBlockTableRecord
  2
SW_DOWELSYMBOL_0
340
0
102
{BLKREFS
331
133
331
1FD
331
0
102
}
  0
BLOCK_RECORD
  5
1EF
330
1
100
AcDbSymbolTableRecord
100
AcDbBlockTableRecord
  2
_D_4
340
0
  0
BLOCK_RECORD
  5
209
330
1
100
AcDbSymbolTableRecord
100
AcDbBlockTableRecord
  2
*D9
340
0
  0
BLOCK_RECORD
  5
215
330
1
100
AcDbSymbolTableRecord
100
AcDbBlockTableRecord
  2
*D10
340
0
  0
BLOCK_RECORD
  5
221
330
1
100
AcDbSymbolTableRecord
100
AcDbBlockTableRecord
  2
*D11
340
0
  0
BLOCK_RECORD
  5
22D
330
1
100
AcDbSymbolTableRecord
100
AcDbBlockTableRecord
  2
*D12
340
0
  0
BLOCK_RECORD
  5
288
330
1
100
AcDbSymbolTableRecord
100
AcDbBlockTableRecord
  2
*D13
340
0
  0
BLOCK_RECORD
  5
294
330
1
100
AcDbSymbolTableRecord
100
AcDbBlockTableRecord
  2
*D14
340
0
  0
BLOCK_RECORD
  5
2A0
330
1
100
AcDbSymbolTableRecord
100
AcDbBlockTableRecord
  2
*D15
340
0
  0
BLOCK_RECORD
  5
2AE
330
1
100
AcDbSymbolTableRecord
100
AcDbBlockTableRecord
  2
*D16
340
0
  0
BLOCK_RECORD
  5
2BC
330
1
100
AcDbSymbolTableRecord
100
AcDbBlockTableRecord
  2
*D17
340
0
  0
ENDTAB
  0
ENDSEC
  0
SECTION
  2
BLOCKS
  0
BLOCK
  5
20
330
1F
100
AcDbEntity
  8
0
100
AcDbBlockBegin
  2
*Model_Space
 70
     0
 10
0.0
 20
0.0
 30
0.0
  3
*Model_Space
  1
*Model_Space
  0
ENDBLK
  5
21
330
1F
100
AcDbEntity
  8
0
100
AcDbBlockEnd
  0
BLOCK
  5
1C
330
1B
100
AcDbEntity
 67
     1
  8
0
100
AcDbBlockBegin
  2
*Paper_Space
 70
     0
 10
0.0
 20
0.0
 30
0.0
  3
*Paper_Space
  1
*Paper_Space
  0
ENDBLK
  5
1D
330
1B
100
AcDbEntity
 67
     1
  8
0
100
AcDbBlockEnd
  0
BLOCK
  5
24
330
23
100
AcDbEntity
  8
0
100
AcDbBlockBegin
  2
*Paper_Space0
 70
     0
 10
0.0
 20
0.0
 30
0.0
  3
*Paper_Space0
  1
*Paper_Space0
  0
ENDBLK
  5
25
330
23
100
AcDbEntity
  8
0
100
AcDbBlockEnd
  0
BLOCK
  5
80
330
7F
100
AcDbEntity
  8
0
100
AcDbBlockBegin
  2
블럭10
 70
     2
 10
0.0
 20
0.0
 30
0.0
  3
블럭10
  1
블럭10
  0
ELLIPSE
  5
82
330
7F
100
AcDbEntity
  8
중심선
100
AcDbEllipse
 10
20.54032771741204
 20
12.0471743016438
 30
0.0
 11
6.600054785286829
 21
-1.261213355974178E-13
 31
0.0
210
0.0
220
0.0
230
1.0
 40
0.636358354079598
 41
0.9219305317359503
 42
6.513795318482858
  0
ELLIPSE
  5
83
330
7F
100
AcDbEntity
  8
중심선
100
AcDbEllipse
 10
20.54032771746488
 20
12.04717430159265
 30
0.0
 11
3.960054785062283
 21
1.540847449632565E-10
 31
0.0
210
0.0
220
0.0
230
1.0
 40
0.3939339440162632
 41
1.131841032648279
 42
5.62031148352944
  0
LINE
  5
84
330
7F
100
AcDbEntity
  8
중심선
100
AcDbLine
 10
2.268634060543552
 20
16.24717430164393
 30
0.0
 11
5.714909304380834
 21
16.24717430164393
 31
0.0
  0
LINE
  5
85
330
7F
100
AcDbEntity
  8
중심선
100
AcDbLine
 10
5.245725140726316
 20
7.84717430164391
 30
0.0
 11
8.692000384563599
 21
7.84717430164391
 31
0.0
  0
LINE
  5
86
330
7F
100
AcDbEntity
  8
중심선
100
AcDbLine
 10
15.74043728645272
 20
16.24717430164393
 30
0.0
 11
8.692000384563599
 21
7.84717430164391
 31
0.0
  0
LINE
  5
87
330
7F
100
AcDbEntity
  8
중심선
100
AcDbLine
 10
0.1404042013395286
 20
13.71084872107135
 30
0.0
 11
3.58671253028996
 21
13.71088815037384
 31
0.0
  0
LINE
  5
88
330
7F
100
AcDbEntity
  8
중심선
100
AcDbLine
 10
2.750260043222114
 20
10.84717430164391
 30
0.0
 11
6.196535287059397
 21
10.84717430164391
 31
0.0
  0
LINE
  5
89
330
7F
100
AcDbEntity
  8
중심선
100
AcDbLine
 10
12.29416204261559
 20
16.24717430164393
 30
0.0
 11
5.245725140726316
 21
7.84717430164391
 31
0.0
  0
LINE
  5
8A
330
7F
100
AcDbEntity
  8
중심선
100
AcDbLine
 10
10.72767329541681
 20
16.24717430164393
 30
0.0
 11
6.196535287059397
 21
10.84717430164391
 31
0.0
  0
LINE
  5
8B
330
7F
100
AcDbEntity
  8
중심선
100
AcDbLine
 10
7.28139805157953
 20
16.24717430164393
 30
0.0
 11
2.750260043222114
 21
10.84717430164391
 31
0.0
  0
LINE
  5
8C
330
7F
100
AcDbEntity
  8
중심선
100
AcDbLine
 10
5.714909304380834
 20
16.24717430164393
 30
0.0
 11
3.58671253028996
 21
13.71088815037384
 31
0.0
  0
LINE
  5
8D
330
7F
100
AcDbEntity
  8
중심선
100
AcDbLine
 10
2.268634060543552
 20
16.24717430164393
 30
0.0
 11
0.1404042013395286
 21
13.71084872107135
 31
0.0
  0
LINE
  5
8E
330
7F
100
AcDbEntity
  8
중심선
100
AcDbLine
 10
7.28139805157953
 20
16.24717430164393
 30
0.0
 11
10.72767329541681
 21
16.24717430164393
 31
0.0
  0
LINE
  5
8F
330
7F
100
AcDbEntity
  8
중심선
100
AcDbLine
 10
12.29416204261559
 20
16.24717430164393
 30
0.0
 11
15.74043728645272
 21
16.24717430164393
 31
0.0
  0
LINE
  5
90
330
7F
100
AcDbEntity
  8
중심선
100
AcDbLine
 10
19.22036997980202
 20
11.08717430171403
 30
0.0
 11
23.66174974927406
 21
11.08717430171406
 31
0.0
  0
LINE
  5
91
330
7F
100
AcDbEntity
  8
중심선
100
AcDbLine
 10
19.22039502424796
 20
13.00717430171391
 30
0.0
 11
19.22036997980202
 21
11.08717430171403
 31
0.0
  0
LINE
  5
92
330
7F
100
AcDbEntity
  8
중심선
100
AcDbLine
 10
19.22039502424796
 20
13.00717430171391
 30
0.0
 11
26.96566020931264
 21
13.00717430171391
 31
0.0
  0
LINE
  5
93
330
7F
100
AcDbEntity
  8
중심선
100
AcDbLine
 10
22.22332737316547
 20
13.45928029700563
 30
0.0
 11
24.52862924686651
 21
15.39360700705356
 31
0.0
  0
ATTDEF
  5
95
330
7F
100
AcDbEntity
  8
FORMAT
 62
     2
100
AcDbText
 10
4.408487351596664
 20
2.075366912832191
 30
0.0
 40
4.233333333333333
  1
E5067040
 41
0.75
  7
SLDTEXTSTYLE0
 11
4.408487351596664
 21
-0.0412997538344756
 31
0.0
100
AcDbAttributeDefinition
  3

  2
AUTOATTR0
 70
     0
 74
     1
  0
ENDBLK
  5
81
330
7F
100
AcDbEntity
  8
0
100
AcDbBlockEnd
  0
BLOCK
  5
D7
330
D6
100
AcDbEntity
  8
0
100
AcDbBlockBegin
  2
_D
 70
     0
 10
0.0
 20
0.0
 30
0.0
  3
_D
  1
_D
  0
LINE
  5
D9
330
D6
100
AcDbEntity
  8
치수문자_일반주서
 62
     0
370
    -2
100
AcDbLine
 10
53.3375
 20
7.891481613724255
 30
0.0
 11
76.11759857054618
 21
7.891481613724341
 31
0.0
  0
LINE
  5
DA
330
D6
100
AcDbEntity
  8
치수문자_일반주서
 62
     0
370
    -2
100
AcDbLine
 10
53.33750000000001
 20
-7.983518386275752
 30
0.0
 11
76.11759857054624
 21
-7.983518386275669
 31
0.0
  0
LINE
  5
DB
330
D6
100
AcDbEntity
  8
치수문자_일반주서
 62
     0
370
    -2
100
AcDbLine
 10
76.11759857054618
 20
7.891481613724341
 30
0.0
 11
76.11759857054605
 21
42.71423161372434
 31
0.0
  0
LINE
  5
DC
330
D6
100
AcDbEntity
  8
치수문자_일반주서
 62
     0
370
    -2
100
AcDbLine
 10
76.11759857054618
 20
7.891481613724341
 30
0.0
 11
76.11759857054624
 21
-7.983518386275669
 31
0.0
  0
LINE
  5
DD
330
D6
100
AcDbEntity
  8
치수문자_일반주서
 62
     0
370
    -2
100
AcDbLine
 10
76.11759857054616
 20
11.19348161372434
 30
0.0
 11
76.11759857054615
 21
14.49548161372434
 31
0.0
  0
LINE
  5
DE
330
D6
100
AcDbEntity
  8
치수문자_일반주서
 62
     0
370
    -2
100
AcDbLine
 10
76.11759857054625
 20
-11.28551838627567
 30
0.0
 11
76.11759857054626
 21
-14.58751838627567
 31
0.0
  0
SOLID
  5
DF
330
D6
100
AcDbEntity
  8
치수문자_일반주서
 62
     0
100
AcDbTrace
 10
75.56726523721284
 20
11.19348161372434
 30
0.0
 11
76.66793190387949
 21
11.19348161372434
 31
0.0
 12
76.11759857054618
 22
7.891481613724341
 32
0.0
 13
76.11759857054618
 23
7.891481613724341
 33
0.0
  0
SOLID
  5
E0
330
D6
100
AcDbEntity
  8
치수문자_일반주서
 62
     0
100
AcDbTrace
 10
76.66793190387958
 20
-11.28551838627567
 30
0.0
 11
75.56726523721292
 21
-11.28551838627567
 31
0.0
 12
76.11759857054624
 22
-7.983518386275669
 32
0.0
 13
76.11759857054624
 23
-7.983518386275669
 33
0.0
  0
MTEXT
  5
E1
330
D6
100
AcDbEntity
  8
치수문자_일반주서
 62
     0
100
AcDbMText
 10
71.74259857054611
 20
28.71423161372432
 30
0.0
 40
3.5
 41
0.0
 71
     2
 72
     1
  1
\A1;%%c15.88 [5/8]
  7
SLDTEXTSTYLE0
 11
-3.580687802255621E-15
 21
1.0
 31
0.0
 73
     1
 44
1.0
  0
POINT
  5
E2
330
D6
100
AcDbEntity
  8
Defpoints
 62
     0
100
AcDbPoint
 10
53.275
 20
7.891481613724255
 30
0.0
  0
POINT
  5
E3
330
D6
100
AcDbEntity
  8
Defpoints
 62
     0
100
AcDbPoint
 10
53.27500000000001
 20
-7.983518386275752
 30
0.0
  0
POINT
  5
E4
330
D6
100
AcDbEntity
  8
Defpoints
 62
     0
100
AcDbPoint
 10
76.11759857054622
 20
-7.983518386275667
 30
0.0
  0
ENDBLK
  5
D8
330
D6
100
AcDbEntity
  8
0
100
AcDbBlockEnd
  0
BLOCK
  5
EC
330
EB
100
AcDbEntity
  8
0
100
AcDbBlockBegin
  2
_D_1
 70
     0
 10
0.0
 20
0.0
 30
0.0
  3
_D_1
  1
_D_1
  0
LINE
  5
EE
330
EB
100
AcDbEntity
  8
치수문자_일반주서
 62
     0
370
    -2
100
AcDbLine
 10
53.275
 20
7.896058111527433
 30
0.0
 11
53.275
 21
34.2279822726199
 31
0.0
  0
LINE
  5
EF
330
EB
100
AcDbEntity
  8
치수문자_일반주서
 62
     0
370
    -2
100
AcDbLine
 10
12.00000000000001
 20
7.422216236172987
 30
0.0
 11
12.00000000000001
 21
34.2279822726199
 31
0.0
  0
LINE
  5
F0
330
EB
100
AcDbEntity
  8
치수문자_일반주서
 62
     0
370
    -2
100
AcDbLine
 10
49.973
 20
34.2279822726199
 30
0.0
 11
15.30200000000001
 21
34.2279822726199
 31
0.0
  0
SOLID
  5
F1
330
EB
100
AcDbEntity
  8
치수문자_일반주서
 62
     0
100
AcDbTrace
 10
49.973
 20
33.67764893928657
 30
0.0
 11
49.973
 21
34.77831560595324
 31
0.0
 12
53.275
 22
34.2279822726199
 32
0.0
 13
53.275
 23
34.2279822726199
 33
0.0
  0
SOLID
  5
F2
330
EB
100
AcDbEntity
  8
치수문자_일반주서
 62
     0
100
AcDbTrace
 10
15.30200000000001
 20
34.77831560595324
 30
0.0
 11
15.30200000000001
 21
33.67764893928657
 31
0.0
 12
12.00000000000001
 22
34.2279822726199
 32
0.0
 13
12.00000000000001
 23
34.2279822726199
 33
0.0
  0
MTEXT
  5
F3
330
EB
100
AcDbEntity
  8
치수문자_일반주서
 62
     0
100
AcDbMText
 10
32.6375
 20
38.6029822726199
 30
0.0
 40
3.5
 41
0.0
 71
     2
 72
     1
  1
\A1;41.28 [1 5/8]
  7
SLDTEXTSTYLE0
 73
     1
 44
1.0
  0
POINT
  5
F4
330
EB
100
AcDbEntity
  8
Defpoints
 62
     0
100
AcDbPoint
 10
53.275
 20
7.833558111527433
 30
0.0
  0
POINT
  5
F5
330
EB
100
AcDbEntity
  8
Defpoints
 62
     0
100
AcDbPoint
 10
12.00000000000001
 20
7.359716236172987
 30
0.0
  0
POINT
  5
F6
330
EB
100
AcDbEntity
  8
Defpoints
 62
     0
100
AcDbPoint
 10
12.00000000000001
 20
34.2279822726199
 30
0.0
  0
ENDBLK
  5
ED
330
EB
100
AcDbEntity
  8
0
100
AcDbBlockEnd
  0
BLOCK
  5
101
330
100
100
AcDbEntity
  8
0
100
AcDbBlockBegin
  2
_D_2
 70
     0
 10
0.0
 20
0.0
 30
0.0
  3
_D_2
  1
_D_2
  0
LINE
  5
103
330
100
100
AcDbEntity
  8
치수문자_일반주서
 62
     0
370
    -2
100
AcDbLine
 10
53.275
 20
7.896058111527433
 30
0.0
 11
53.275
 21
51.4433228024593
 31
0.0
  0
LINE
  5
104
330
100
100
AcDbEntity
  8
치수문자_일반주서
 62
     0
370
    -2
100
AcDbLine
 10
-35.62500000000001
 20
6.366481613724257
 30
0.0
 11
-35.62500000000001
 21
51.4433228024593
 31
0.0
  0
LINE
  5
105
330
100
100
AcDbEntity
  8
치수문자_일반주서
 62
     0
370
    -2
100
AcDbLine
 10
49.973
 20
51.4433228024593
 30
0.0
 11
-32.32300000000001
 21
51.4433228024593
 31
0.0
  0
SOLID
  5
106
330
100
100
AcDbEntity
  8
치수문자_일반주서
 62
     0
100
AcDbTrace
 10
49.973
 20
50.89298946912596
 30
0.0
 11
49.973
 21
51.99365613579263
 31
0.0
 12
53.275
 22
51.4433228024593
 32
0.0
 13
53.275
 23
51.4433228024593
 33
0.0
  0
SOLID
  5
107
330
100
100
AcDbEntity
  8
치수문자_일반주서
 62
     0
100
AcDbTrace
 10
-32.32300000000001
 20
51.99365613579263
 30
0.0
 11
-32.32300000000001
 21
50.89298946912596
 31
0.0
 12
-35.62500000000001
 22
51.4433228024593
 32
0.0
 13
-35.62500000000001
 23
51.4433228024593
 33
0.0
  0
MTEXT
  5
108
330
100
100
AcDbEntity
  8
치수문자_일반주서
 62
     0
100
AcDbMText
 10
8.824999999999996
 20
55.8183228024593
 30
0.0
 40
3.5
 41
0.0
 71
     2
 72
     1
  1
\A1;88.9 [3 1/2]
  7
SLDTEXTSTYLE0
 73
     1
 44
1.0
  0
POINT
  5
109
330
100
100
AcDbEntity
  8
Defpoints
 62
     0
100
AcDbPoint
 10
53.275
 20
7.833558111527433
 30
0.0
  0
POINT
  5
10A
330
100
100
AcDbEntity
  8
Defpoints
 62
     0
100
AcDbPoint
 10
-35.62500000000001
 20
6.303981613724257
 30
0.0
  0
POINT
  5
10B
330
100
100
AcDbEntity
  8
Defpoints
 62
     0
100
AcDbPoint
 10
-35.62500000000001
 20
51.4433228024593
 30
0.0
  0
ENDBLK
  5
102
330
100
100
AcDbEntity
  8
0
100
AcDbBlockEnd
  0
BLOCK
  5
114
330
113
100
AcDbEntity
  8
0
100
AcDbBlockBegin
  2
_D_3
 70
     0
 10
0.0
 20
0.0
 30
0.0
  3
_D_3
  1
_D_3
  0
LINE
  5
116
330
113
100
AcDbEntity
  8
치수문자_일반주서
 62
     0
370
    -2
100
AcDbLine
 10
-34.10000000000002
 20
7.891481613724237
 30
0.0
 11
-50.19909970379072
 21
7.891481613724178
 31
0.0
  0
LINE
  5
117
330
113
100
AcDbEntity
  8
치수문자_일반주서
 62
     0
370
    -2
100
AcDbLine
 10
-34.10000000000002
 20
-7.983518386275735
 30
0.0
 11
-50.19909970379067
 21
-7.983518386275797
 31
0.0
  0
LINE
  5
118
330
113
100
AcDbEntity
  8
치수문자_일반주서
 62
     0
370
    -2
100
AcDbLine
 10
-50.19909970379072
 20
7.891481613724178
 30
0.0
 11
-50.19909970379084
 21
42.71423161372418
 31
0.0
  0
LINE
  5
119
330
113
100
AcDbEntity
  8
치수문자_일반주서
 62
     0
370
    -2
100
AcDbLine
 10
-50.19909970379072
 20
7.891481613724178
 30
0.0
 11
-50.19909970379067
 21
-7.983518386275797
 31
0.0
  0
LINE
  5
11A
330
113
100
AcDbEntity
  8
치수문자_일반주서
 62
     0
370
    -2
100
AcDbLine
 10
-50.19909970379074
 20
11.19348161372418
 30
0.0
 11
-50.19909970379075
 21
14.49548161372418
 31
0.0
  0
LINE
  5
11B
330
113
100
AcDbEntity
  8
치수문자_일반주서
 62
     0
370
    -2
100
AcDbLine
 10
-50.19909970379065
 20
-11.2855183862758
 30
0.0
 11
-50.19909970379064
 21
-14.5875183862758
 31
0.0
  0
SOLID
  5
11C
330
113
100
AcDbEntity
  8
치수문자_일반주서
 62
     0
100
AcDbTrace
 10
-50.74943303712407
 20
11.19348161372418
 30
0.0
 11
-49.6487663704574
 21
11.19348161372418
 31
0.0
 12
-50.19909970379072
 22
7.891481613724178
 32
0.0
 13
-50.19909970379072
 23
7.891481613724178
 33
0.0
  0
SOLID
  5
11D
330
113
100
AcDbEntity
  8
치수문자_일반주서
 62
     0
100
AcDbTrace
 10
-49.64876637045732
 20
-11.2855183862758
 30
0.0
 11
-50.74943303712399
 21
-11.2855183862758
 31
0.0
 12
-50.19909970379067
 22
-7.983518386275797
 32
0.0
 13
-50.19909970379067
 23
-7.983518386275797
 33
0.0
  0
MTEXT
  5
11E
330
113
100
AcDbEntity
  8
치수문자_일반주서
 62
     0
100
AcDbMText
 10
-54.57409970379079
 20
28.71423161372416
 30
0.0
 40
3.5
 41
0.0
 71
     2
 72
     1
  1
\A1;%%c15.88 [5/8]
  7
SLDTEXTSTYLE0
 11
-3.580687802255629E-15
 21
1.0
 31
0.0
 73
     1
 44
1.0
  0
POINT
  5
2C6
330
113
100
AcDbEntity
  8
Defpoints
 62
     0
100
AcDbPoint
 10
-34.03750000000002
 20
7.891481613724237
 30
0.0
  0
POINT
  5
2C7
330
113
100
AcDbEntity
  8
Defpoints
 62
     0
100
AcDbPoint
 10
-34.03750000000002
 20
-7.983518386275735
 30
0.0
  0
POINT
  5
2C8
330
113
100
AcDbEntity
  8
Defpoints
 62
     0
100
AcDbPoint
 10
-50.19909970379067
 20
-7.983518386275795
 30
0.0
  0
ENDBLK
  5
115
330
113
100
AcDbEntity
  8
0
100
AcDbBlockEnd
  0
BLOCK
  5
12E
330
12D
100
AcDbEntity
  8
0
100
AcDbBlockBegin
  2
SW_DOWELSYMBOL_0
 70
     0
 10
0.0
 20
0.0
 30
0.0
  3
SW_DOWELSYMBOL_0
  1
SW_DOWELSYMBOL_0
  0
CIRCLE
  5
130
330
12D
100
AcDbEntity
  8
해칭선
 62
     0
100
AcDbCircle
 10
0.0
 20
0.0
 30
0.0
 40
3.000000000000001
  0
HATCH
  5
131
330
12D
100
AcDbEntity
  8
0
  6
Continuous
 62
     0
370
     0
100
AcDbHatch
 10
0.0
 20
0.0
 30
0.0
210
0.0
220
0.0
230
1.0
  2
SOLID
 70
     1
 71
     0
 91
        1
 92
        0
 93
        3
 72
     2
 10
0.0
 20
0.0
 40
3.000000000000001
 50
0.0
 51
90.0
 73
     1
 72
     1
 10
0.0
 20
3.000000000000001
 11
0.0
 21
0.0
 72
     1
 10
0.0
 20
0.0
 11
3.000000000000003
 21
0.0
 97
        0
 75
     0
 76
     1
 98
        1
 10
0.0
 20
0.0
  0
HATCH
  5
132
330
12D
100
AcDbEntity
  8
0
  6
Continuous
 62
     0
370
     0
100
AcDbHatch
 10
0.0
 20
0.0
 30
0.0
210
0.0
220
0.0
230
1.0
  2
SOLID
 70
     1
 71
     0
 91
        1
 92
        0
 93
        3
 72
     2
 10
0.0
 20
0.0
 40
3.000000000000001
 50
180.0
 51
270.0000000000008
 73
     1
 72
     1
 10
0.0
 20
-3.000000000000001
 11
0.0
 21
0.0
 72
     1
 10
0.0
 20
0.0
 11
-3.000000000000001
 21
0.0
 97
        0
 75
     0
 76
     1
 98
        1
 10
0.0
 20
0.0
  0
ENDBLK
  5
12F
330
12D
100
AcDbEntity
  8
0
100
AcDbBlockEnd
  0
BLOCK
  5
1F0
330
1EF
100
AcDbEntity
  8
0
100
AcDbBlockBegin
  2
_D_4
 70
     0
 10
0.0
 20
0.0
 30
0.0
  3
_D_4
  1
_D_4
  0
LINE
  5
1F1
330
1EF
100
AcDbEntity
  8
치수문자_일반주서
 62
     0
370
    -2
100
AcDbLine
 10
102.4375000000001
 20
36.22143424691529
 30
0.0
 11
117.3750000000001
 21
36.22143424691535
 31
0.0
  0
LINE
  5
1F2
330
1EF
100
AcDbEntity
  8
치수문자_일반주서
 62
     0
370
    -2
100
AcDbLine
 10
102.4375000000001
 20
22.22143424691529
 30
0.0
 11
117.3750000000001
 21
22.22143424691535
 31
0.0
  0
LINE
  5
1F3
330
1EF
100
AcDbEntity
  8
치수문자_일반주서
 62
     0
370
    -2
100
AcDbLine
 10
117.3750000000001
 20
36.22143424691535
 30
0.0
 11
117.3750000000001
 21
22.22143424691535
 31
0.0
  0
LINE
  5
1F4
330
1EF
100
AcDbEntity
  8
치수문자_일반주서
 62
     0
370
    -2
100
AcDbLine
 10
117.3750000000001
 20
39.52343424691535
 30
0.0
 11
117.375
 21
42.82543424691535
 31
0.0
  0
LINE
  5
1F5
330
1EF
100
AcDbEntity
  8
치수문자_일반주서
 62
     0
370
    -2
100
AcDbLine
 10
117.3750000000001
 20
18.91943424691535
 30
0.0
 11
117.3750000000001
 21
15.61743424691535
 31
0.0
  0
SOLID
  5
1F6
330
1EF
100
AcDbEntity
  8
치수문자_일반주서
 62
     0
100
AcDbTrace
 10
116.8246666666667
 20
39.52343424691535
 30
0.0
 11
117.9253333333334
 21
39.52343424691535
 31
0.0
 12
117.3750000000001
 22
36.22143424691535
 32
0.0
 13
117.3750000000001
 23
36.22143424691535
 33
0.0
  0
SOLID
  5
1F7
330
1EF
100
AcDbEntity
  8
치수문자_일반주서
 62
     0
100
AcDbTrace
 10
117.9253333333335
 20
18.91943424691535
 30
0.0
 11
116.8246666666668
 21
18.91943424691535
 31
0.0
 12
117.3750000000001
 22
22.22143424691535
 32
0.0
 13
117.3750000000001
 23
22.22143424691535
 33
0.0
  0
MTEXT
  5
1F8
330
1EF
100
AcDbEntity
  8
치수문자_일반주서
 62
     0
100
AcDbMText
 10
113.0000000000001
 20
29.28713862862833
 30
0.0
 40
3.5
 41
0.0
 71
     2
 72
     1
  1
\A1;%%c14.00 [0.55]
  7
SLDTEXTSTYLE0
 11
-3.045183153257572E-15
 21
1.0
 31
0.0
 73
     1
 44
1.0
  0
POINT
  5
1F9
330
1EF
100
AcDbEntity
  8
Defpoints
 62
     0
100
AcDbPoint
 10
102.3750000000001
 20
36.22143424691529
 30
0.0
  0
POINT
  5
1FA
330
1EF
100
AcDbEntity
  8
Defpoints
 62
     0
100
AcDbPoint
 10
102.3750000000001
 20
22.22143424691529
 30
0.0
  0
POINT
  5
1FB
330
1EF
100
AcDbEntity
  8
Defpoints
 62
     0
100
AcDbPoint
 10
117.3750000000001
 20
22.22143424691535
 30
0.0
  0
ENDBLK
  5
1FC
330
1EF
100
AcDbEntity
  8
0
100
AcDbBlockEnd
  0
BLOCK
  5
20A
330
209
100
AcDbEntity
  8
0
100
AcDbBlockBegin
  2
*D9
 70
     1
 10
0.0
 20
0.0
 30
0.0
  3
*D9
  1
*D8
  0
LINE
  5
20B
330
209
100
AcDbEntity
  8
치수문자_일반주서
 62
     0
370
    -2
100
AcDbLine
 10
103.8657751816695
 20
19.48229575403651
 30
0.0
 11
119.6194267469468
 21
-6.150060756304035
 31
0.0
  0
MTEXT
  5
20C
330
209
100
AcDbEntity
  8
치수문자_일반주서
 62
     0
100
AcDbMText
 10
115.6706384014277
 20
5.288158154535728
 30
0.0
 40
3.5
 41
0.0
 71
     5
 72
     1
  1
\A1;R.5 [R0.02]
  7
SLDTEXTSTYLE0
 11
0.5236126201129557
 21
-0.8519564684057781
 31
0.0
 73
     1
 44
1.0
  0
SOLID
  5
20D
330
209
100
AcDbEntity
  8
치수문자_일반주서
 62
     0
100
AcDbTrace
 10
104.3346352247821
 20
19.77045723263868
 30
0.0
 11
103.3969151385569
 21
19.19413427543435
 31
0.0
 12
102.1368063100565
 22
22.29545601271239
 32
0.0
 13
102.1368063100565
 23
22.29545601271239
 33
0.0
  0
LINE
  5
20E
330
209
100
AcDbEntity
  8
치수문자_일반주서
 62
     0
100
AcDbLine
 10
101.785
 20
22.72143424691529
 30
0.0
 11
101.965
 21
22.72143424691529
 31
0.0
  0
LINE
  5
20F
330
209
100
AcDbEntity
  8
치수문자_일반주서
 62
     0
100
AcDbLine
 10
101.875
 20
22.63143424691529
 30
0.0
 11
101.875
 21
22.81143424691529
 31
0.0
  0
POINT
  5
23B
330
209
100
AcDbEntity
  8
Defpoints
 62
     0
100
AcDbPoint
 10
102.1368063100565
 20
22.29545601271239
 30
0.0
  0
POINT
  5
23C
330
209
100
AcDbEntity
  8
Defpoints
 62
     0
100
AcDbPoint
 10
101.875
 20
22.72143424691529
 30
0.0
  0
ENDBLK
  5
210
330
209
100
AcDbEntity
  8
0
100
AcDbBlockEnd
  0
BLOCK
  5
216
330
215
100
AcDbEntity
  8
0
100
AcDbBlockBegin
  2
*D10
 70
     1
 10
0.0
 20
0.0
 30
0.0
  3
*D10
  1
*D10
  0
LINE
  5
218
330
215
100
AcDbEntity
  8
치수문자_일반주서
 62
     0
370
    -2
100
AcDbLine
 10
19.37500000000004
 20
35.78393424691529
 30
0.0
 11
19.37500000000004
 21
70.88391841499404
 31
0.0
  0
LINE
  5
219
330
215
100
AcDbEntity
  8
치수문자_일반주서
 62
     0
370
    -2
100
AcDbLine
 10
102.3750000000001
 20
36.34643424691529
 30
0.0
 11
102.3750000000001
 21
70.88391841499404
 31
0.0
  0
LINE
  5
21A
330
215
100
AcDbEntity
  8
치수문자_일반주서
 62
     0
370
    -2
100
AcDbLine
 10
22.67700000000004
 20
70.88391841499404
 30
0.0
 11
99.07300000000006
 21
70.88391841499404
 31
0.0
  0
SOLID
  5
21B
330
215
100
AcDbEntity
  8
치수문자_일반주서
 62
     0
100
AcDbTrace
 10
22.67700000000004
 20
71.43425174832737
 30
0.0
 11
22.67700000000004
 21
70.33358508166071
 31
0.0
 12
19.37500000000004
 22
70.88391841499404
 32
0.0
 13
19.37500000000004
 23
70.88391841499404
 33
0.0
  0
SOLID
  5
21C
330
215
100
AcDbEntity
  8
치수문자_일반주서
 62
     0
100
AcDbTrace
 10
99.07300000000006
 20
70.33358508166071
 30
0.0
 11
99.07300000000006
 21
71.43425174832737
 31
0.0
 12
102.3750000000001
 22
70.88391841499404
 32
0.0
 13
102.3750000000001
 23
70.88391841499404
 33
0.0
  0
MTEXT
  5
21D
330
215
100
AcDbEntity
  8
치수문자_일반주서
 62
     0
100
AcDbMText
 10
60.87500000000005
 20
75.25891841499404
 30
0.0
 40
3.5
 41
0.0
 71
     2
 72
     1
  1
\A1;83 [3.27]
  7
SLDTEXTSTYLE0
 73
     1
 44
1.0
  0
POINT
  5
21E
330
215
100
AcDbEntity
  8
Defpoints
 62
     0
100
AcDbPoint
 10
19.37500000000004
 20
35.72143424691529
 30
0.0
  0
POINT
  5
21F
330
215
100
AcDbEntity
  8
Defpoints
 62
     0
100
AcDbPoint
 10
102.3750000000001
 20
36.28393424691529
 30
0.0
  0
POINT
  5
220
330
215
100
AcDbEntity
  8
Defpoints
 62
     0
100
AcDbPoint
 10
102.3750000000001
 20
70.88391841499404
 30
0.0
  0
ENDBLK
  5
217
330
215
100
AcDbEntity
  8
0
100
AcDbBlockEnd
  0
BLOCK
  5
222
330
221
100
AcDbEntity
  8
0
100
AcDbBlockBegin
  2
*D11
 70
     1
 10
0.0
 20
0.0
 30
0.0
  3
*D11
  1
*D11
  0
LINE
  5
224
330
221
100
AcDbEntity
  8
치수문자_일반주서
 62
     0
370
    -2
100
AcDbLine
 10
76.37504186422882
 20
28.62038676313042
 30
0.0
 11
76.37504186422882
 21
61.90091383617725
 31
0.0
  0
LINE
  5
225
330
221
100
AcDbEntity
  8
치수문자_일반주서
 62
     0
370
    -2
100
AcDbLine
 10
102.3750000000001
 20
36.28393424691529
 30
0.0
 11
102.3750000000001
 21
61.90091383617725
 31
0.0
  0
LINE
  5
226
330
221
100
AcDbEntity
  8
치수문자_일반주서
 62
     0
370
    -2
100
AcDbLine
 10
79.67704186422881
 20
61.90091383617725
 30
0.0
 11
99.07300000000006
 21
61.90091383617725
 31
0.0
  0
SOLID
  5
227
330
221
100
AcDbEntity
  8
치수문자_일반주서
 62
     0
100
AcDbTrace
 10
79.67704186422881
 20
62.45124716951059
 30
0.0
 11
79.67704186422881
 21
61.35058050284392
 31
0.0
 12
76.37504186422882
 22
61.90091383617725
 32
0.0
 13
76.37504186422882
 23
61.90091383617725
 33
0.0
  0
SOLID
  5
228
330
221
100
AcDbEntity
  8
치수문자_일반주서
 62
     0
100
AcDbTrace
 10
99.07300000000006
 20
61.35058050284392
 30
0.0
 11
99.07300000000006
 21
62.45124716951059
 31
0.0
 12
102.3750000000001
 22
61.90091383617725
 32
0.0
 13
102.3750000000001
 23
61.90091383617725
 33
0.0
  0
MTEXT
  5
229
330
221
100
AcDbEntity
  8
치수문자_일반주서
 62
     0
100
AcDbMText
 10
89.42159572693208
 20
66.27591383617725
 30
0.0
 40
3.5
 41
0.0
 71
     2
 72
     1
  1
\A1;26 [1.02]
  7
SLDTEXTSTYLE0
 73
     1
 44
1.0
  0
POINT
  5
22A
330
221
100
AcDbEntity
  8
Defpoints
 62
     0
100
AcDbPoint
 10
76.37504186422882
 20
28.55788676313042
 30
0.0
  0
POINT
  5
22B
330
221
100
AcDbEntity
  8
Defpoints
 62
     0
100
AcDbPoint
 10
102.3750000000001
 20
36.22143424691529
 30
0.0
  0
POINT
  5
22C
330
221
100
AcDbEntity
  8
Defpoints
 62
     0
100
AcDbPoint
 10
102.3750000000001
 20
61.90091383617725
 30
0.0
  0
ENDBLK
  5
223
330
221
100
AcDbEntity
  8
0
100
AcDbBlockEnd
  0
BLOCK
  5
22E
330
22D
100
AcDbEntity
  8
0
100
AcDbBlockBegin
  2
*D12
 70
     1
 10
0.0
 20
0.0
 30
0.0
  3
*D12
  1
*D12
  0
LINE
  5
230
330
22D
100
AcDbEntity
  8
치수문자_일반주서
 62
     0
370
    -2
100
AcDbLine
 10
19.81250000000005
 20
36.22143424691529
 30
0.0
 11
4.374999999999983
 21
36.22143424691524
 31
0.0
  0
LINE
  5
231
330
22D
100
AcDbEntity
  8
치수문자_일반주서
 62
     0
370
    -2
100
AcDbLine
 10
19.81250000000005
 20
22.22143424691529
 30
0.0
 11
4.375000000000032
 21
22.22143424691524
 31
0.0
  0
LINE
  5
232
330
22D
100
AcDbEntity
  8
치수문자_일반주서
 62
     0
370
    -2
100
AcDbLine
 10
4.374999999999983
 20
36.22143424691524
 30
0.0
 11
4.375000000000032
 21
22.22143424691524
 31
0.0
  0
LINE
  5
233
330
22D
100
AcDbEntity
  8
치수문자_일반주서
 62
     0
370
    -2
100
AcDbLine
 10
4.374999999999972
 20
39.52343424691524
 30
0.0
 11
4.37499999999996
 21
42.82543424691524
 31
0.0
  0
LINE
  5
234
330
22D
100
AcDbEntity
  8
치수문자_일반주서
 62
     0
370
    -2
100
AcDbLine
 10
4.375000000000044
 20
18.91943424691524
 30
0.0
 11
4.375000000000055
 21
15.61743424691524
 31
0.0
  0
SOLID
  5
235
330
22D
100
AcDbEntity
  8
치수문자_일반주서
 62
     0
100
AcDbTrace
 10
3.824666666666638
 20
39.52343424691524
 30
0.0
 11
4.925333333333305
 21
39.52343424691524
 31
0.0
 12
4.374999999999983
 22
36.22143424691524
 32
0.0
 13
4.374999999999983
 23
36.22143424691524
 33
0.0
  0
SOLID
  5
236
330
22D
100
AcDbEntity
  8
치수문자_일반주서
 62
     0
100
AcDbTrace
 10
4.925333333333377
 20
18.91943424691524
 30
0.0
 11
3.82466666666671
 21
18.91943424691523
 31
0.0
 12
4.375000000000032
 22
22.22143424691524
 32
0.0
 13
4.375000000000032
 23
22.22143424691524
 33
0.0
  0
MTEXT
  5
237
330
22D
100
AcDbEntity
  8
치수문자_일반주서
 62
     0
100
AcDbMText
 10
0.0000000000000071
 20
29.22143424691528
 30
0.0
 40
3.5
 41
0.0
 71
     2
 72
     1
  1
\A1;%%c14.00 [0.55]
  7
SLDTEXTSTYLE0
 11
-3.489272363107635E-15
 21
1.0
 31
0.0
 73
     1
 44
1.0
  0
POINT
  5
238
330
22D
100
AcDbEntity
  8
Defpoints
 62
     0
100
AcDbPoint
 10
19.87500000000005
 20
36.22143424691529
 30
0.0
  0
POINT
  5
239
330
22D
100
AcDbEntity
  8
Defpoints
 62
     0
100
AcDbPoint
 10
19.87500000000005
 20
22.22143424691529
 30
0.0
  0
POINT
  5
23A
330
22D
100
AcDbEntity
  8
Defpoints
 62
     0
100
AcDbPoint
 10
4.375000000000043
 20
22.22143424691524
 30
0.0
  0
ENDBLK
  5
22F
330
22D
100
AcDbEntity
  8
0
100
AcDbBlockEnd
  0
BLOCK
  5
289
330
288
100
AcDbEntity
  8
0
100
AcDbBlockBegin
  2
*D13
 70
     1
 10
0.0
 20
0.0
 30
0.0
  3
*D13
  1
*D13
  0
LINE
  5
28B
330
288
100
AcDbEntity
  8
치수문자_일반주서
 62
     0
370
    -2
100
AcDbLine
 10
-23.21197069227068
 20
113.9270229318555
 30
0.0
 11
-23.21197069227068
 21
149.0270070999343
 31
0.0
  0
LINE
  5
28C
330
288
100
AcDbEntity
  8
치수문자_일반주서
 62
     0
370
    -2
100
AcDbLine
 10
59.78802930772933
 20
114.4895229318555
 30
0.0
 11
59.78802930772933
 21
149.0270070999343
 31
0.0
  0
LINE
  5
28D
330
288
100
AcDbEntity
  8
치수문자_일반주서
 62
     0
370
    -2
100
AcDbLine
 10
-19.90997069227068
 20
149.0270070999343
 30
0.0
 11
56.48602930772933
 21
149.0270070999343
 31
0.0
  0
SOLID
  5
28E
330
288
100
AcDbEntity
  8
치수문자_일반주서
 62
     0
100
AcDbTrace
 10
-19.90997069227068
 20
149.5773404332676
 30
0.0
 11
-19.90997069227068
 21
148.476673766601
 31
0.0
 12
-23.21197069227068
 22
149.0270070999343
 32
0.0
 13
-23.21197069227068
 23
149.0270070999343
 33
0.0
  0
SOLID
  5
28F
330
288
100
AcDbEntity
  8
치수문자_일반주서
 62
     0
100
AcDbTrace
 10
56.48602930772933
 20
148.476673766601
 30
0.0
 11
56.48602930772933
 21
149.5773404332676
 31
0.0
 12
59.78802930772933
 22
149.0270070999343
 32
0.0
 13
59.78802930772933
 23
149.0270070999343
 33
0.0
  0
MTEXT
  5
290
330
288
100
AcDbEntity
  8
치수문자_일반주서
 62
     0
100
AcDbMText
 10
18.28802930772932
 20
153.4020070999343
 30
0.0
 40
3.5
 41
0.0
 71
     2
 72
     1
  1
\A1;83 [3.27]
  7
SLDTEXTSTYLE0
 73
     1
 44
1.0
  0
POINT
  5
291
330
288
100
AcDbEntity
  8
Defpoints
 62
     0
100
AcDbPoint
 10
-23.21197069227068
 20
113.8645229318555
 30
0.0
  0
POINT
  5
292
330
288
100
AcDbEntity
  8
Defpoints
 62
     0
100
AcDbPoint
 10
59.78802930772933
 20
114.4270229318555
 30
0.0
  0
POINT
  5
293
330
288
100
AcDbEntity
  8
Defpoints
 62
     0
100
AcDbPoint
 10
59.78802930772933
 20
149.0270070999343
 30
0.0
  0
ENDBLK
  5
28A
330
288
100
AcDbEntity
  8
0
100
AcDbBlockEnd
  0
BLOCK
  5
295
330
294
100
AcDbEntity
  8
0
100
AcDbBlockBegin
  2
*D14
 70
     1
 10
0.0
 20
0.0
 30
0.0
  3
*D14
  1
*D14
  0
LINE
  5
297
330
294
100
AcDbEntity
  8
치수문자_일반주서
 62
     0
370
    -2
100
AcDbLine
 10
33.78807117195809
 20
106.7634754480707
 30
0.0
 11
33.78807117195809
 21
140.0440025211175
 31
0.0
  0
LINE
  5
298
330
294
100
AcDbEntity
  8
치수문자_일반주서
 62
     0
370
    -2
100
AcDbLine
 10
59.78802930772933
 20
114.4270229318555
 30
0.0
 11
59.78802930772933
 21
140.0440025211175
 31
0.0
  0
LINE
  5
299
330
294
100
AcDbEntity
  8
치수문자_일반주서
 62
     0
370
    -2
100
AcDbLine
 10
37.09007117195809
 20
140.0440025211175
 30
0.0
 11
56.48602930772933
 21
140.0440025211175
 31
0.0
  0
SOLID
  5
29A
330
294
100
AcDbEntity
  8
치수문자_일반주서
 62
     0
100
AcDbTrace
 10
37.09007117195809
 20
140.5943358544508
 30
0.0
 11
37.09007117195809
 21
139.4936691877842
 31
0.0
 12
33.78807117195809
 22
140.0440025211175
 32
0.0
 13
33.78807117195809
 23
140.0440025211175
 33
0.0
  0
SOLID
  5
29B
330
294
100
AcDbEntity
  8
치수문자_일반주서
 62
     0
100
AcDbTrace
 10
56.48602930772933
 20
139.4936691877842
 30
0.0
 11
56.48602930772933
 21
140.5943358544508
 31
0.0
 12
59.78802930772933
 22
140.0440025211175
 32
0.0
 13
59.78802930772933
 23
140.0440025211175
 33
0.0
  0
MTEXT
  5
29C
330
294
100
AcDbEntity
  8
치수문자_일반주서
 62
     0
100
AcDbMText
 10
46.83462503466136
 20
144.4190025211175
 30
0.0
 40
3.5
 41
0.0
 71
     2
 72
     1
  1
\A1;26 [1.02]
  7
SLDTEXTSTYLE0
 73
     1
 44
1.0
  0
POINT
  5
29D
330
294
100
AcDbEntity
  8
Defpoints
 62
     0
100
AcDbPoint
 10
33.78807117195809
 20
106.7009754480707
 30
0.0
  0
POINT
  5
29E
330
294
100
AcDbEntity
  8
Defpoints
 62
     0
100
AcDbPoint
 10
59.78802930772933
 20
114.3645229318555
 30
0.0
  0
POINT
  5
29F
330
294
100
AcDbEntity
  8
Defpoints
 62
     0
100
AcDbPoint
 10
59.78802930772933
 20
140.0440025211175
 30
0.0
  0
ENDBLK
  5
296
330
294
100
AcDbEntity
  8
0
100
AcDbBlockEnd
  0
BLOCK
  5
2A1
330
2A0
100
AcDbEntity
  8
0
100
AcDbBlockBegin
  2
*D15
 70
     1
 10
0.0
 20
0.0
 30
0.0
  3
*D15
  1
*D15
  0
LINE
  5
2A3
330
2A0
100
AcDbEntity
  8
치수문자_일반주서
 62
     0
370
    -2
100
AcDbLine
 10
-22.77447069227068
 20
114.3645229318555
 30
0.0
 11
-38.21197069227074
 21
114.3645229318555
 31
0.0
  0
LINE
  5
2A4
330
2A0
100
AcDbEntity
  8
치수문자_일반주서
 62
     0
370
    -2
100
AcDbLine
 10
-22.77447069227068
 20
100.3645229318555
 30
0.0
 11
-38.21197069227069
 21
100.3645229318555
 31
0.0
  0
LINE
  5
2A5
330
2A0
100
AcDbEntity
  8
치수문자_일반주서
 62
     0
370
    -2
100
AcDbLine
 10
-38.21197069227074
 20
114.3645229318555
 30
0.0
 11
-38.21197069227069
 21
100.3645229318555
 31
0.0
  0
LINE
  5
2A6
330
2A0
100
AcDbEntity
  8
치수문자_일반주서
 62
     0
370
    -2
100
AcDbLine
 10
-38.21197069227075
 20
117.6665229318555
 30
0.0
 11
-38.21197069227077
 21
120.9685229318555
 31
0.0
  0
LINE
  5
2A7
330
2A0
100
AcDbEntity
  8
치수문자_일반주서
 62
     0
370
    -2
100
AcDbLine
 10
-38.21197069227068
 20
97.06252293185548
 30
0.0
 11
-38.21197069227066
 21
93.76052293185549
 31
0.0
  0
SOLID
  5
2A8
330
2A0
100
AcDbEntity
  8
치수문자_일반주서
 62
     0
100
AcDbTrace
 10
-38.76230402560409
 20
117.6665229318555
 30
0.0
 11
-37.66163735893742
 21
117.6665229318555
 31
0.0
 12
-38.21197069227074
 22
114.3645229318555
 32
0.0
 13
-38.21197069227074
 23
114.3645229318555
 33
0.0
  0
SOLID
  5
2A9
330
2A0
100
AcDbEntity
  8
치수문자_일반주서
 62
     0
100
AcDbTrace
 10
-37.66163735893734
 20
97.06252293185548
 30
0.0
 11
-38.76230402560401
 21
97.06252293185548
 31
0.0
 12
-38.21197069227069
 22
100.3645229318555
 32
0.0
 13
-38.21197069227069
 23
100.3645229318555
 33
0.0
  0
MTEXT
  5
2AA
330
2A0
100
AcDbEntity
  8
치수문자_일반주서
 62
     0
100
AcDbMText
 10
-42.58697069227072
 20
107.3645229318555
 30
0.0
 40
3.5
 41
0.0
 71
     2
 72
     1
  1
\A1;%%c14.00 [0.55]
  7
SLDTEXTSTYLE0
 11
-3.552713678800501E-15
 21
1.0
 31
0.0
 73
     1
 44
1.0
  0
POINT
  5
2AB
330
2A0
100
AcDbEntity
  8
Defpoints
 62
     0
100
AcDbPoint
 10
-22.71197069227068
 20
114.3645229318555
 30
0.0
  0
POINT
  5
2AC
330
2A0
100
AcDbEntity
  8
Defpoints
 62
     0
100
AcDbPoint
 10
-22.71197069227068
 20
100.3645229318555
 30
0.0
  0
POINT
  5
2AD
330
2A0
100
AcDbEntity
  8
Defpoints
 62
     0
100
AcDbPoint
 10
-38.2119706922707
 20
100.3645229318555
 30
0.0
  0
ENDBLK
  5
2A2
330
2A0
100
AcDbEntity
  8
0
100
AcDbBlockEnd
  0
BLOCK
  5
2AF
330
2AE
100
AcDbEntity
  8
0
100
AcDbBlockBegin
  2
*D16
 70
     1
 10
0.0
 20
0.0
 30
0.0
  3
*D16
  1
*D16
  0
LINE
  5
2B1
330
2AE
100
AcDbEntity
  8
치수문자_일반주서
 62
     0
370
    -2
100
AcDbLine
 10
59.85052930772935
 20
114.3645229318555
 30
0.0
 11
74.78802930772935
 21
114.3645229318556
 31
0.0
  0
LINE
  5
2B2
330
2AE
100
AcDbEntity
  8
치수문자_일반주서
 62
     0
370
    -2
100
AcDbLine
 10
59.85052930772933
 20
100.3645229318555
 30
0.0
 11
74.78802930772939
 21
100.3645229318556
 31
0.0
  0
LINE
  5
2B3
330
2AE
100
AcDbEntity
  8
치수문자_일반주서
 62
     0
370
    -2
100
AcDbLine
 10
74.78802930772935
 20
114.3645229318556
 30
0.0
 11
74.78802930772939
 21
100.3645229318556
 31
0.0
  0
LINE
  5
2B4
330
2AE
100
AcDbEntity
  8
치수문자_일반주서
 62
     0
370
    -2
100
AcDbLine
 10
74.78802930772933
 20
117.6665229318556
 30
0.0
 11
74.78802930772932
 21
120.9685229318556
 31
0.0
  0
LINE
  5
2B5
330
2AE
100
AcDbEntity
  8
치수문자_일반주서
 62
     0
370
    -2
100
AcDbLine
 10
74.7880293077294
 20
97.0625229318556
 30
0.0
 11
74.78802930772942
 21
93.7605229318556
 31
0.0
  0
SOLID
  5
2B6
330
2AE
100
AcDbEntity
  8
치수문자_일반주서
 62
     0
100
AcDbTrace
 10
74.237695974396
 20
117.6665229318556
 30
0.0
 11
75.33836264106266
 21
117.6665229318556
 31
0.0
 12
74.78802930772935
 22
114.3645229318556
 32
0.0
 13
74.78802930772935
 23
114.3645229318556
 33
0.0
  0
SOLID
  5
2B7
330
2AE
100
AcDbEntity
  8
치수문자_일반주서
 62
     0
100
AcDbTrace
 10
75.33836264106273
 20
97.0625229318556
 30
0.0
 11
74.23769597439608
 21
97.0625229318556
 31
0.0
 12
74.78802930772939
 22
100.3645229318556
 32
0.0
 13
74.78802930772939
 23
100.3645229318556
 33
0.0
  0
MTEXT
  5
2B8
330
2AE
100
AcDbEntity
  8
치수문자_일반주서
 62
     0
100
AcDbMText
 10
70.41302930772936
 20
107.4302273135686
 30
0.0
 40
3.5
 41
0.0
 71
     2
 72
     1
  1
\A1;%%c14.00 [0.55]
  7
SLDTEXTSTYLE0
 11
-3.045183153257572E-15
 21
1.0
 31
0.0
 73
     1
 44
1.0
  0
POINT
  5
2B9
330
2AE
100
AcDbEntity
  8
Defpoints
 62
     0
100
AcDbPoint
 10
59.78802930772935
 20
114.3645229318555
 30
0.0
  0
POINT
  5
2BA
330
2AE
100
AcDbEntity
  8
Defpoints
 62
     0
100
AcDbPoint
 10
59.78802930772933
 20
100.3645229318555
 30
0.0
  0
POINT
  5
2BB
330
2AE
100
AcDbEntity
  8
Defpoints
 62
     0
100
AcDbPoint
 10
74.78802930772939
 20
100.3645229318556
 30
0.0
  0
ENDBLK
  5
2B0
330
2AE
100
AcDbEntity
  8
0
100
AcDbBlockEnd
  0
BLOCK
  5
2BD
330
2BC
100
AcDbEntity
  8
0
100
AcDbBlockBegin
  2
*D17
 70
     1
 10
0.0
 20
0.0
 30
0.0
  3
*D17
  1
*D17
  0
LINE
  5
2BF
330
2BC
100
AcDbEntity
  8
치수문자_일반주서
 62
     0
370
    -2
100
AcDbLine
 10
61.27880448939878
 20
97.62538443897677
 30
0.0
 11
77.03245605467608
 21
71.99302792863621
 31
0.0
  0
MTEXT
  5
2C0
330
2BC
100
AcDbEntity
  8
치수문자_일반주서
 62
     0
100
AcDbMText
 10
73.08366770915696
 20
83.43124683947597
 30
0.0
 40
3.5
 41
0.0
 71
     5
 72
     1
  1
\A1;R.5 [R0.02]
  7
SLDTEXTSTYLE0
 11
0.5236126201129557
 21
-0.8519564684057781
 31
0.0
 73
     1
 44
1.0
  0
SOLID
  5
2C1
330
2BC
100
AcDbEntity
  8
치수문자_일반주서
 62
     0
100
AcDbTrace
 10
61.74766453251143
 20
97.91354591757893
 30
0.0
 11
60.80994444628613
 21
97.3372229603746
 31
0.0
 12
59.5498356177858
 22
100.4385446976526
 32
0.0
 13
59.5498356177858
 23
100.4385446976526
 33
0.0
  0
LINE
  5
2C2
330
2BC
100
AcDbEntity
  8
치수문자_일반주서
 62
     0
100
AcDbLine
 10
59.19802930772931
 20
100.8645229318555
 30
0.0
 11
59.37802930772932
 21
100.8645229318555
 31
0.0
  0
LINE
  5
2C3
330
2BC
100
AcDbEntity
  8
치수문자_일반주서
 62
     0
100
AcDbLine
 10
59.28802930772932
 20
100.7745229318555
 30
0.0
 11
59.28802930772932
 21
100.9545229318555
 31
0.0
  0
POINT
  5
2C4
330
2BC
100
AcDbEntity
  8
Defpoints
 62
     0
100
AcDbPoint
 10
59.5498356177858
 20
100.4385446976526
 30
0.0
  0
POINT
  5
2C5
330
2BC
100
AcDbEntity
  8
Defpoints
 62
     0
100
AcDbPoint
 10
59.28802930772932
 20
100.8645229318555
 30
0.0
  0
ENDBLK
  5
2BE
330
2BC
100
AcDbEntity
  8
0
100
AcDbBlockEnd
  0
ENDSEC
  0
SECTION
  2
ENTITIES
  0
LINE
  5
96
330
1F
100
AcDbEntity
  8
0
  6
Continuous
 62
     1
370
    15
100
AcDbLine
 10
30.27223941008921
 20
-1.589511256210912
 30
0.0
 11
30.3509253555429
 21
-1.63353893590887
 31
0.0
  0
LINE
  5
97
330
1F
100
AcDbEntity
  8
외형선
  6
Continuous
370
    15
100
AcDbLine
 10
36.00958759592028
 20
1.470559136575347
 30
0.0
 11
35.88772188574812
 21
1.541472656176692
 31
0.0
  0
LINE
  5
98
330
1F
100
AcDbEntity
  8
외형선
  6
Continuous
370
    15
100
AcDbLine
 10
18.70956251702867
 20
1.482544020123361
 30
0.0
 11
18.61009757193403
 21
1.541553079366973
 31
0.0
  0
LINE
  5
99
330
1F
100
AcDbEntity
  8
0
  6
Continuous
 62
     1
370
    15
100
AcDbLine
 10
23.26360218077031
 20
7.891481613724255
 30
0.0
 11
17.06013776992172
 21
7.891481613724255
 31
0.0
  0
LINE
  5
9A
330
1F
100
AcDbEntity
  8
0
  6
Continuous
 62
     1
370
    15
100
AcDbLine
 10
42.97459905920827
 20
-7.983518386275752
 30
0.0
 11
49.17838042423725
 21
-7.983518386275752
 31
0.0
  0
LINE
  5
9B
330
1F
100
AcDbEntity
  8
0
  6
Continuous
 62
     1
370
    15
100
AcDbLine
 10
25.69901265182322
 20
-7.983518386275752
 30
0.0
 11
31.90203520175574
 21
-7.983518386275752
 31
0.0
  0
LINE
  5
9C
330
1F
100
AcDbEntity
  8
0
  6
Continuous
 62
     1
370
    15
100
AcDbLine
 10
40.54053227656408
 20
7.891481613724255
 30
0.0
 11
34.33689933799528
 21
7.891481613724255
 31
0.0
  0
LINE
  5
9D
330
1F
100
AcDbEntity
  8
0
  6
Continuous
 62
     1
370
    15
100
AcDbLine
 10
12.0
 20
-7.983518386275752
 30
0.0
 11
14.62467514776947
 21
-7.983518386275752
 31
0.0
  0
LINE
  5
9E
330
1F
100
AcDbEntity
  8
0
  6
Continuous
 62
     1
370
    15
100
AcDbLine
 10
53.275
 20
7.891481613724255
 30
0.0
 11
51.61201677110203
 21
7.891481613724255
 31
0.0
  0
LINE
  5
9F
330
1F
100
AcDbEntity
  8
외형선
  6
Continuous
370
    15
100
AcDbLine
 10
-34.03750000000001
 20
-7.983518386275749
 30
0.0
 11
12.0
 21
-7.983518386275749
 31
0.0
  0
LINE
  5
A0
330
1F
100
AcDbEntity
  8
외형선
  6
Continuous
370
    15
100
AcDbLine
 10
10.99987382452623
 20
7.891481613724252
 30
0.0
 11
-34.03750000000001
 21
7.891481613724252
 31
0.0
  0
LINE
  5
A1
330
1F
100
AcDbEntity
  8
외형선
  6
Continuous
370
    15
100
AcDbLine
 10
-34.03750000000001
 20
7.891481613724252
 30
0.0
 11
-35.62500000000001
 21
6.303981613724257
 31
0.0
  0
LINE
  5
A2
330
1F
100
AcDbEntity
  8
외형선
  6
Continuous
370
    15
100
AcDbLine
 10
-35.62500000000001
 20
-6.396018386275753
 30
0.0
 11
-34.03750000000001
 21
-7.983518386275749
 31
0.0
  0
LINE
  5
A3
330
1F
100
AcDbEntity
  8
0
  6
Continuous
 62
     1
370
    15
100
AcDbLine
 10
53.275
 20
-7.633687103428401
 30
0.0
 11
53.275
 21
-6.983341950976721
 31
0.0
  0
SPLINE
  5
A4
330
1F
100
AcDbEntity
  8
0
  6
Continuous
 62
     1
370
    15
100
AcDbSpline
210
0.0
220
0.0
230
1.0
 70
     8
 71
     3
 72
    62
 73
    58
 74
     0
 42
0.000000001
 43
0.00000001
 40
0.0
 40
0.0
 40
0.0
 40
0.0
 40
0.0625000000000002
 40
0.0625000000000002
 40
0.1250000000000004
 40
0.1250000000000004
 40
0.1562500000000005
 40
0.1562500000000005
 40
0.1875000000000006
 40
0.1875000000000006
 40
0.2187500000000007
 40
0.2187500000000007
 40
0.2500000000000008
 40
0.2500000000000008
 40
0.2812500000000009
 40
0.2812500000000009
 40
0.3125000000000011
 40
0.3125000000000011
 40
0.3437500000000012
 40
0.3437500000000012
 40
0.3750000000000012
 40
0.3750000000000012
 40
0.4062500000000013
 40
0.4062500000000013
 40
0.4375000000000014
 40
0.4375000000000014
 40
0.4687500000000016
 40
0.4687500000000016
 40
0.5000000000000017
 40
0.5000000000000017
 40
0.5312500000000018
 40
0.5312500000000018
 40
0.5625000000000019
 40
0.5625000000000019
 40
0.593750000000002
 40
0.593750000000002
 40
0.6250000000000021
 40
0.6250000000000021
 40
0.6875000000000016
 40
0.6875000000000016
 40
0.7500000000000009
 40
0.7500000000000009
 40
0.7812500000000008
 40
0.7812500000000008
 40
0.8125000000000007
 40
0.8125000000000007
 40
0.8437500000000006
 40
0.8437500000000006
 40
0.8750000000000004
 40
0.8750000000000004
 40
0.9062500000000003
 40
0.9062500000000003
 40
0.9375000000000002
 40
0.9375000000000002
 40
0.9687500000000001
 40
0.9687500000000001
 40
1.0
 40
1.0
 40
1.0
 40
1.0
 10
53.275
 20
-7.633687103428401
 30
0.0
 10
52.41922148656898
 20
-7.779220588434463
 30
0.0
 10
51.55156863179584
 20
-7.880643826243268
 30
0.0
 10
49.83791154323656
 20
-7.989852629868398
 30
0.0
 10
48.9724020128784
 20
-7.998121781664251
 30
0.0
 10
47.68572844038333
 20
-7.94065099757989
 30
0.0
 10
47.25713610565067
 20
-7.909914155425528
 30
0.0
 10
46.39544813427968
 20
-7.825324681517088
 30
0.0
 10
45.96394505019253
 20
-7.771492584858849
 30
0.0
 10
45.10530538420466
 20
-7.641543697216427
 30
0.0
 10
44.677458018774
 20
-7.565432547074831
 30
0.0
 10
43.81606432525462
 20
-7.391025380560123
 30
0.0
 10
43.38444342084138
 20
-7.292819596913612
 30
0.0
 10
42.52504334720028
 20
-7.075748052238867
 30
0.0
 10
42.09768319824536
 20
-6.956962544710649
 30
0.0
 10
41.23668170152883
 20
-6.698889301372913
 30
0.0
 10
40.80499228633833
 20
-6.559754466089077
 30
0.0
 10
39.94492896908858
 20
-6.263144307841802
 30
0.0
 10
39.51779809970645
 20
-6.105854857751051
 30
0.0
 10
38.6572865700653
 20
-5.773211398481515
 30
0.0
 10
38.22557797979942
 20
-5.598033693403161
 30
0.0
 10
37.36494883389299
 20
-5.232274448840712
 30
0.0
 10
36.93778922053909
 20
-5.041978836163522
 30
0.0
 10
36.0778652426195
 20
-4.646483461491876
 30
0.0
 10
35.64618682030074
 20
-4.441418307584343
 30
0.0
 10
34.78508947493155
 20
-4.019339478146715
 30
0.0
 10
34.35764310492395
 20
-3.802675108311738
 30
0.0
 10
33.4984040409457
 20
-3.358254159178498
 30
0.0
 10
33.06680511807916
 20
-3.130509039096692
 30
0.0
 10
32.20533737984751
 20
-2.666928175954323
 30
0.0
 10
31.77734634886215
 20
-2.431445944856674
 30
0.0
 10
30.9188893019951
 20
-1.953741515572246
 30
0.0
 10
30.48741917973964
 20
-1.711321617193575
 30
0.0
 10
29.62567899567583
 20
-1.222521962455054
 30
0.0
 10
29.19688560515604
 20
-0.9764292282170037
 30
0.0
 10
28.33930738310231
 20
-0.4822464552261987
 30
0.0
 10
27.90801531346583
 20
-0.2336721457543091
 30
0.0
 10
26.61514344417971
 20
0.5115935874892835
 30
0.0
 10
25.75957526344975
 20
1.006856876844211
 30
0.0
 10
24.03559354656704
 20
1.981712698105975
 30
0.0
 10
23.18008356492674
 20
2.458865022194435
 30
0.0
 10
21.8871300771248
 20
3.150188853482982
 30
0.0
 10
21.45595792132407
 20
3.3762946665746
 30
0.0
 10
20.59890852875743
 20
3.816912371515312
 30
0.0
 10
20.16955936190624
 20
4.032028951043677
 30
0.0
 10
19.30771037380367
 20
4.450171768686033
 30
0.0
 10
18.87633288729572
 20
4.653002458931736
 30
0.0
 10
18.01835113867523
 20
5.043569837161249
 30
0.0
 10
17.58994707948562
 20
5.231601504964733
 30
0.0
 10
16.72831618680206
 20
5.592316636374229
 30
0.0
 10
16.29678258625572
 20
5.764737926351121
 30
0.0
 10
15.43796510986334
 20
6.091489632447743
 30
0.0
 10
15.01024861577649
 20
6.245908986711608
 30
0.0
 10
14.14893382742367
 20
6.536532979461549
 30
0.0
 10
13.71729338906816
 20
6.672479854881496
 30
0.0
 10
12.85773712874547
 20
6.92389045649776
 30
0.0
 10
12.43045039749491
 20
7.039336976120978
 30
0.0
 10
11.99999999999998
 20
7.144507138896123
 30
0.0
  0
LINE
  5
A5
330
1F
100
AcDbEntity
  8
외형선
  6
Continuous
370
    15
100
AcDbLine
 10
12.00000000000001
 20
7.359716236172987
 30
0.0
 11
12.0
 21
7.207947753444481
 31
0.0
  0
SPLINE
  5
A6
330
1F
100
AcDbEntity
  8
0
  6
Continuous
 62
     1
370
    15
100
AcDbSpline
210
0.0
220
0.0
230
1.0
 70
     8
 71
     3
 72
    62
 73
    58
 74
     0
 42
0.000000001
 43
0.00000001
 40
0.0
 40
0.0
 40
0.0
 40
0.0
 40
0.0624999999999994
 40
0.0624999999999994
 40
0.1249999999999989
 40
0.1249999999999989
 40
0.156249999999999
 40
0.156249999999999
 40
0.1874999999999991
 40
0.1874999999999991
 40
0.2187499999999992
 40
0.2187499999999992
 40
0.2499999999999993
 40
0.2499999999999993
 40
0.2812499999999994
 40
0.2812499999999994
 40
0.3124999999999995
 40
0.3124999999999995
 40
0.3437499999999996
 40
0.3437499999999996
 40
0.3749999999999997
 40
0.3749999999999997
 40
0.4062499999999998
 40
0.4062499999999998
 40
0.4374999999999999
 40
0.4374999999999999
 40
0.46875
 40
0.46875
 40
0.5000000000000001
 40
0.5000000000000001
 40
0.5312500000000001
 40
0.5312500000000001
 40
0.5625000000000002
 40
0.5625000000000002
 40
0.5937500000000002
 40
0.5937500000000002
 40
0.6250000000000003
 40
0.6250000000000003
 40
0.6875000000000004
 40
0.6875000000000004
 40
0.7500000000000004
 40
0.7500000000000004
 40
0.7812500000000004
 40
0.7812500000000004
 40
0.8125000000000003
 40
0.8125000000000003
 40
0.8437500000000003
 40
0.8437500000000003
 40
0.8750000000000002
 40
0.8750000000000002
 40
0.9062500000000002
 40
0.9062500000000002
 40
0.9375000000000001
 40
0.9375000000000001
 40
0.9687500000000001
 40
0.9687500000000001
 40
1.0
 40
1.0
 40
1.0
 40
1.0
 10
53.275
 20
-6.983341950976721
 30
0.0
 10
52.41922148656898
 20
-6.742473641642603
 30
0.0
 10
51.55156863179587
 20
-6.459567537220615
 30
0.0
 10
49.8379115432365
 20
-5.824389237419926
 30
0.0
 10
48.9724020128784
 20
-5.469798103412815
 30
0.0
 10
47.6857284403833
 20
-4.894995929031477
 30
0.0
 10
47.25713610565064
 20
-4.696060515885303
 30
0.0
 10
46.39544813427965
 20
-4.284420183328235
 30
0.0
 10
45.96394505019253
 20
-4.071952717041898
 30
0.0
 10
45.10530538420463
 20
-3.636566884578138
 30
0.0
 10
44.67745801877398
 20
-3.413548740759226
 30
0.0
 10
43.81606432525463
 20
-2.957296474182698
 30
0.0
 10
43.38444342084138
 20
-2.724387006309873
 30
0.0
 10
42.52504334720022
 20
-2.252091516154135
 30
0.0
 10
42.09768319824535
 20
-2.012797519702656
 30
0.0
 10
41.23668170152883
 20
-1.527976661524832
 30
0.0
 10
40.80499228633834
 20
-1.282806586388584
 30
0.0
 10
39.94492896908858
 20
-0.7901848229562142
 30
0.0
 10
39.5177980997064
 20
-0.5429774089282747
 30
0.0
 10
38.65728657006532
 20
-0.0466327013332174
 30
0.0
 10
38.22557797979945
 20
0.2021840554868043
 30
0.0
 10
37.36494883389299
 20
0.6978247469918748
 30
0.0
 10
36.93778922053907
 20
0.9443130896464176
 30
0.0
 10
36.07786524261953
 20
1.434737165621527
 30
0.0
 10
35.64618682030074
 20
1.678458037623324
 30
0.0
 10
34.78508947493154
 20
2.159696905975565
 30
0.0
 10
34.35764310492391
 20
2.396858114129361
 30
0.0
 10
33.49840404094569
 20
2.864132935481533
 30
0.0
 10
33.0668051180792
 20
3.094195160489656
 30
0.0
 10
32.20533737984756
 20
3.544112840720466
 30
0.0
 10
31.77734634886219
 20
3.763656949267754
 30
0.0
 10
30.9188893019951
 20
4.191377479898708
 30
0.0
 10
30.48741917973967
 20
4.399700177486879
 30
0.0
 10
29.62567899567586
 20
4.802475944112554
 30
0.0
 10
29.19688560515604
 20
4.996714192343321
 30
0.0
 10
28.33930738310231
 20
5.369877326750198
 30
0.0
 10
27.90801531346583
 20
5.549146511379344
 30
0.0
 10
26.61514344417976
 20
6.061351992628224
 30
0.0
 10
25.75957526344979
 20
6.368104982056473
 30
0.0
 10
24.03559354656704
 20
6.904422179218041
 30
0.0
 10
23.18008356492675
 20
7.132645406486839
 30
0.0
 10
21.88713007712477
 20
7.410777966622009
 30
0.0
 10
21.45595792132406
 20
7.492657028237614
 30
0.0
 10
20.5989085287574
 20
7.633798495186405
 30
0.0
 10
20.16955936190629
 20
7.693272107328247
 30
0.0
 10
19.30771037380367
 20
7.789445481625085
 30
0.0
 10
18.87633288729572
 20
7.826081737810807
 30
0.0
 10
18.01835113867521
 20
7.876073884955836
 30
0.0
 10
17.58994707948563
 20
7.889499700125929
 30
0.0
 10
16.72831618680206
 20
7.893056641331004
 30
0.0
 10
16.29678258625572
 20
7.883150254593796
 30
0.0
 10
15.43796510986335
 20
7.840174294141139
 30
0.0
 10
15.01024861577651
 20
7.807142278609263
 30
0.0
 10
14.14893382742367
 20
7.717976498998215
 30
0.0
 10
13.71729338906817
 20
7.661866338862848
 30
0.0
 10
12.85773712874546
 20
7.52737765600533
 30
0.0
 10
12.43045039749493
 20
7.449081148344973
 30
0.0
 10
12.0
 20
7.359716236172986
 30
0.0
  0
SPLINE
  5
A7
330
1F
100
AcDbEntity
  8
0
  6
Continuous
 62
     1
370
    15
100
AcDbSpline
210
0.0
220
0.0
230
1.0
 70
     8
 71
     3
 72
    20
 73
    16
 74
     0
 42
0.000000001
 43
0.00000001
 40
0.0
 40
0.0
 40
0.0
 40
0.0
 40
0.0847038394702883
 40
0.1694059042947472
 40
0.2541476640926054
 40
0.3389478822381817
 40
0.4236936714021003
 40
0.5083970643358324
 40
0.588255476395984
 40
0.6681890891416984
 40
0.7481333332876388
 40
0.8279955536840519
 40
0.9078519788839604
 40
0.9877792413320484
 40
1.0
 40
1.0
 40
1.0
 40
1.0
 10
11.99999999999998
 20
-1.02108044219682
 30
0.0
 10
12.71876896769059
 20
-1.430731797775382
 30
0.0
 10
14.15629184401004
 20
-2.250025926251082
 30
0.0
 10
16.31284533929573
 20
-3.418685707489689
 30
0.0
 10
18.47040300172721
 20
-4.506288578921334
 30
0.0
 10
20.62886011855545
 20
-5.483289815395604
 30
0.0
 10
22.78647502121546
 20
-6.327325365847275
 30
0.0
 10
24.90203285413097
 20
-7.003702688266048
 30
0.0
 10
26.97648441496069
 20
-7.506970499478835
 30
0.0
 10
29.01117332516522
 20
-7.837292175701724
 30
0.0
 10
31.04598248934716
 20
-7.996391979249023
 30
0.0
 10
33.07949224902494
 20
-7.985813309535011
 30
0.0
 10
35.11284288967757
 20
-7.786769599051019
 30
0.0
 10
36.57264663330977
 20
-7.562532579125175
 30
0.0
 10
37.35472365193096
 20
-7.360537219810998
 30
0.0
 10
37.45844345392523
 20
-7.333748402120423
 30
0.0
  0
SPLINE
  5
A8
330
1F
100
AcDbEntity
  8
외형선
  6
Continuous
370
    15
100
AcDbSpline
210
0.0
220
0.0
230
1.0
 70
    24
 71
     3
 72
    22
 73
    18
 74
     0
 42
0.000000001
 43
0.00000001
 40
0.0
 40
0.0
 40
0.0
 40
0.0
 40
0.0503144560638686
 40
0.1013866222872046
 40
0.1703761464943507
 40
0.2413663715771873
 40
0.3103558957843146
 40
0.3813461208671305
 40
0.4503356450742669
 40
0.5213258701570929
 40
0.5903153943642321
 40
0.6613056194470558
 40
0.7302951436541913
 40
0.801285368737016
 40
0.8702748929441505
 40
0.9412651180269822
 40
0.9999999999999999
 40
0.9999999999999999
 40
0.9999999999999999
 40
0.9999999999999999
 10
12.00000000000001
 20
4.959073970117316
 30
0.0
 10
12.00000000000001
 20
4.895743188963621
 30
0.0
 10
12.00000000000001
 20
4.768127897250385
 30
0.0
 10
12.0
 20
4.49756785747728
 30
0.0
 10
12.00000000000001
 20
4.14485818790468
 30
0.0
 10
11.99999999999997
 20
3.701172449531525
 30
0.0
 10
12.00000000000003
 20
3.209373441714923
 30
0.0
 10
11.99999999999997
 20
2.691826754998891
 30
0.0
 10
12.00000000000002
 20
2.153976664863935
 30
0.0
 10
11.99999999999995
 20
1.620694083447665
 30
0.0
 10
12.0
 20
1.09749849484772
 30
0.0
 10
12.00000000000004
 20
0.6085564935718815
 30
0.0
 10
12.0
 20
0.159120821383123
 30
0.0
 10
12.00000000000001
 20
-0.230791076317046
 30
0.0
 10
12.0
 20
-0.5541960082193345
 30
0.0
 10
11.99999999999998
 20
-0.7947482002729381
 30
0.0
 10
11.99999999999998
 20
-0.8852469911177455
 30
0.0
 10
11.99999999999999
 20
-0.926221602121012
 30
0.0
  0
SPLINE
  5
A9
330
1F
100
AcDbEntity
  8
0
  6
Continuous
 62
     1
370
    15
100
AcDbSpline
210
0.0
220
0.0
230
1.0
 70
     8
 71
     3
 72
    23
 73
    19
 74
     0
 42
0.000000001
 43
0.00000001
 40
0.0
 40
0.0
 40
0.0
 40
0.0
 40
0.0157036267650684
 40
0.0853831201556516
 40
0.15102712918777
 40
0.2166586881718898
 40
0.2823408120910668
 40
0.3480598504677513
 40
0.4137064746814536
 40
0.4793370457027525
 40
0.5450145892715151
 40
0.6107363230380769
 40
0.6763857678309272
 40
0.742015556858451
 40
0.8065192799355541
 40
0.8710694664497689
 40
0.9355419238816022
 40
1.0
 40
1.0
 40
1.0
 40
1.0
 10
42.97459905920827
 20
-7.966467757325238
 30
0.0
 10
42.81244031838587
 20
-7.971691487941842
 30
0.0
 10
41.9307574142349
 20
-8.000093743393453
 30
0.0
 10
40.37111140427356
 20
-7.862398264756283
 30
0.0
 10
38.29652596104249
 20
-7.558268212083751
 30
0.0
 10
36.26325916701334
 20
-7.08100715639377
 30
0.0
 10
34.228845606052
 20
-6.454079799790411
 30
0.0
 10
32.1938334157937
 20
-5.686548255279636
 30
0.0
 10
30.16012805456786
 20
-4.795364732974897
 30
0.0
 10
28.12688515830167
 20
-3.800413937959895
 30
0.0
 10
26.09255383570444
 20
-2.723510529232548
 30
0.0
 10
24.05749836556718
 20
-1.588889576382339
 30
0.0
 10
22.02372604028039
 20
-0.4194817235241947
 30
0.0
 10
20.00258095108163
 20
0.750781526006319
 30
0.0
 10
17.99251855974144
 20
1.897282290042072
 30
0.0
 10
15.99381680472521
 20
2.993043749714161
 30
0.0
 10
13.99647731726782
 20
4.033497090666605
 30
0.0
 10
12.66544294984908
 20
4.650571287093265
 30
0.0
 10
12.00000000000001
 20
4.959073970117316
 30
0.0
  0
LINE
  5
AA
330
1F
100
AcDbEntity
  8
0
  6
Continuous
 62
     1
370
    15
100
AcDbLine
 10
53.275
 20
-4.607165902427672
 30
0.0
 11
53.275
 21
1.453470864393252
 31
0.0
  0
SPLINE
  5
AB
330
1F
100
AcDbEntity
  8
0
  6
Continuous
 62
     1
370
    15
100
AcDbSpline
210
0.0
220
0.0
230
1.0
 70
     8
 71
     3
 72
    22
 73
    18
 74
     0
 42
0.000000001
 43
0.00000001
 40
0.0
 40
0.0
 40
0.0
 40
0.0
 40
0.0559647068543282
 40
0.1237071821796633
 40
0.1915134489135024
 40
0.2593287340756935
 40
0.3270744399451696
 40
0.3948152298521814
 40
0.4626161097411132
 40
0.5304362045583139
 40
0.5981841570473857
 40
0.6659234739763255
 40
0.7337191773246394
 40
0.8003336387415635
 40
0.8668695201004885
 40
0.9333995656305802
 40
1.0
 40
1.0
 40
1.0
 40
1.0
 10
23.26360218077031
 20
7.874673093465459
 30
0.0
 10
23.82344644245286
 20
7.870081932561479
 30
0.0
 10
25.06095414980974
 20
7.859933401276519
 30
0.0
 10
26.97648133086086
 20
7.628025442706045
 30
0.0
 10
29.01117402713915
 20
7.235255142780001
 30
0.0
 10
31.04598276740587
 20
6.677941104450064
 30
0.0
 10
33.07949043785861
 20
5.974818100769321
 30
0.0
 10
35.11284985902837
 20
5.139704920709179
 30
0.0
 10
37.14743867069969
 20
4.191687527963602
 30
0.0
 10
39.1823265021814
 20
3.151398982561906
 30
0.0
 10
41.21589461771124
 20
2.040485914746506
 30
0.0
 10
43.24921028710366
 20
0.884037547864794
 30
0.0
 10
45.27161189688751
 20
-0.2853202288662424
 30
0.0
 10
47.28230236597506
 20
-1.442321943021558
 30
0.0
 10
49.27954470577842
 20
-2.562116633471548
 30
0.0
 10
51.27663065333979
 20
-3.635667455008379
 30
0.0
 10
52.60864213043707
 20
-4.283218961994494
 30
0.0
 10
53.275
 20
-4.607165902427673
 30
0.0
  0
SPLINE
  5
AC
330
1F
100
AcDbEntity
  8
0
  6
Continuous
 62
     1
370
    15
100
AcDbSpline
210
0.0
220
0.0
230
1.0
 70
     8
 71
     3
 72
    19
 73
    15
 74
     0
 42
0.000000001
 43
0.00000001
 40
0.0
 40
0.0
 40
0.0
 40
0.0
 40
0.0882781402534446
 40
0.176492050125821
 40
0.2646847891994162
 40
0.3528995712337674
 40
0.4411794058743014
 40
0.5294558255321936
 40
0.612619720781307
 40
0.695767843159402
 40
0.7789800258687346
 40
0.862238975223228
 40
0.9454061836259788
 40
1.0
 40
1.0
 40
1.0
 40
1.0
 10
53.275
 20
1.47857888548294
 30
0.0
 10
52.55543607072037
 20
1.882449353312016
 30
0.0
 10
51.11683176040585
 20
2.689896436449303
 30
0.0
 10
48.95981610320285
 20
3.824306088998354
 30
0.0
 10
46.80337370123425
 20
4.866110958162866
 30
0.0
 10
44.64633179075685
 20
5.786628722827803
 30
0.0
 10
42.488152398662
 20
6.563734374202671
 30
0.0
 10
40.37112082015384
 20
7.166677975623999
 30
0.0
 10
38.29652357790624
 20
7.592349128514186
 30
0.0
 10
36.26325952327587
 20
7.842198653598357
 30
0.0
 10
34.22884656708323
 20
7.921299179683369
 30
0.0
 10
32.19382921447084
 20
7.820070670671925
 30
0.0
 10
30.39281296134648
 20
7.59911440594803
 30
0.0
 10
29.27021761145489
 20
7.344771609976322
 30
0.0
 10
28.82534022691436
 20
7.24397718047905
 30
0.0
  0
LINE
  5
AD
330
1F
100
AcDbEntity
  8
0
  6
Continuous
 62
     1
370
    15
100
AcDbLine
 10
53.275
 20
-6.983341950976721
 30
0.0
 11
53.275
 21
-4.607165902427672
 31
0.0
  0
LINE
  5
AE
330
1F
100
AcDbEntity
  8
외형선
  6
Continuous
370
    15
100
AcDbLine
 10
12.0
 20
4.959073970117317
 30
0.0
 11
12.0
 21
7.144507138896119
 31
0.0
  0
SPLINE
  5
AF
330
1F
100
AcDbEntity
  8
0
  6
Continuous
 62
     1
370
    15
100
AcDbSpline
210
0.0
220
0.0
230
1.0
 70
     8
 71
     3
 72
    14
 73
    10
 74
     0
 42
0.000000001
 43
0.00000001
 40
0.0
 40
0.0
 40
0.0
 40
0.0
 40
0.1198512438105971
 40
0.2682886156967084
 40
0.4166815447066206
 40
0.5625283703827066
 40
0.7084802527049753
 40
0.8542563848629547
 40
1.0
 40
1.0
 40
1.0
 40
1.0
 10
25.69901265182322
 20
-7.969966735218445
 30
0.0
 10
25.15161014182546
 20
-7.964527413047686
 30
0.0
 10
23.92624228608342
 20
-7.952351417462463
 30
0.0
 10
22.02372305804009
 20
-7.726520323743579
 30
0.0
 10
20.00258173478591
 20
-7.338644045487314
 30
0.0
 10
17.99251835118235
 20
-6.79246775730421
 30
0.0
 10
15.99381686028348
 20
-6.107551843924587
 30
0.0
 10
13.99647730338883
 20
-5.300258735205974
 30
0.0
 10
12.66544294522309
 20
-4.672353442658602
 30
0.0
 10
12.00000000000001
 20
-4.358435815641299
 30
0.0
  0
LINE
  5
B0
330
1F
100
AcDbEntity
  8
외형선
  6
Continuous
370
    15
100
AcDbLine
 10
12.00000000000001
 20
-4.3584358156413
 30
0.0
 11
12.0
 21
-1.021080442196825
 31
0.0
  0
SPLINE
  5
B1
330
1F
100
AcDbEntity
  8
0
  6
Continuous
 62
     1
370
    15
100
AcDbSpline
210
0.0
220
0.0
230
1.0
 70
     8
 71
     3
 72
    14
 73
    10
 74
     0
 42
0.000000001
 43
0.00000001
 40
0.0
 40
0.0
 40
0.0
 40
0.0
 40
0.0530447344512113
 40
0.2126852861506691
 40
0.3724587231448884
 40
0.5294483394251313
 40
0.6862527668906612
 40
0.843043441118383
 40
1.0
 40
1.0
 40
1.0
 40
1.0
 10
40.54053227656408
 20
7.872225886863504
 30
0.0
 10
40.7656832587969
 20
7.877550293379142
 30
0.0
 10
41.66843640816634
 20
7.8988987445511
 30
0.0
 10
43.24919695545867
 20
7.758649607444291
 30
0.0
 10
45.27161540115434
 20
7.454587086466669
 30
0.0
 10
47.28230143553822
 20
6.980762744510539
 30
0.0
 10
49.27954495373824
 20
6.362452906987436
 30
0.0
 10
51.27663059127558
 20
5.615337063232082
 30
0.0
 10
52.6086421097417
 20
5.020354639711921
 30
0.0
 10
53.275
 20
4.722706138192788
 30
0.0
  0
LINE
  5
B2
330
1F
100
AcDbEntity
  8
0
  6
Continuous
 62
     1
370
    15
100
AcDbLine
 10
53.275
 20
1.47857888548294
 30
0.0
 11
53.275
 21
4.722706138192788
 31
0.0
  0
SPLINE
  5
B3
330
1F
100
AcDbEntity
  8
0
  6
Continuous
 62
     1
370
    15
100
AcDbSpline
210
0.0
220
0.0
230
1.0
 70
     8
 71
     3
 72
    11
 73
     7
 74
     0
 42
0.000000001
 43
0.00000001
 40
0.0
 40
0.0
 40
0.0
 40
0.0
 40
0.2649489602105617
 40
0.529892369426385
 40
0.7949599423400229
 40
1.0
 40
1.0
 40
1.0
 40
1.0
 10
11.99999999999998
 20
-7.839165403147189
 30
0.0
 10
12.71876927994338
 20
-7.899774324037208
 30
0.0
 10
14.15629278076186
 20
-8.020990895988515
 30
0.0
 10
16.31284159164829
 20
-7.950262574578399
 30
0.0
 10
18.30706396613564
 20
-7.737729468042167
 30
0.0
 10
19.58271707125962
 20
-7.459221908783284
 30
0.0
 10
20.13910026782589
 20
-7.337749287844326
 30
0.0
  0
SPLINE
  5
B4
330
1F
100
AcDbEntity
  8
외형선
  6
Continuous
370
    15
100
AcDbSpline
210
0.0
220
0.0
230
1.0
 70
    24
 71
     3
 72
    15
 73
    11
 74
     0
 42
0.000000001
 43
0.00000001
 40
0.0
 40
0.0
 40
0.0
 40
0.0
 40
0.0132045385120124
 40
0.1564735879966704
 40
0.3038974496221181
 40
0.4471664991067739
 40
0.5945903607322361
 40
0.7378594102168959
 40
0.8852832718423459
 40
1.0
 40
1.0
 40
1.0
 40
1.0
 10
12.00000000000001
 20
-4.421886430189661
 30
0.0
 10
12.00000000000002
 20
-4.432644816653972
 30
0.0
 10
11.99999999999997
 20
-4.560131538707444
 30
0.0
 10
12.00000000000002
 20
-4.868114346366538
 30
0.0
 10
11.99999999999999
 20
-5.331788003430017
 30
0.0
 10
12.00000000000001
 20
-5.843632983148345
 30
0.0
 10
11.99999999999998
 20
-6.371242858878277
 30
0.0
 10
11.99999999999999
 20
-6.910794000797901
 30
0.0
 10
12.00000000000005
 20
-7.404774806798308
 30
0.0
 10
12.00000000000001
 20
-7.706935337328408
 30
0.0
 10
12.0
 20
-7.839165403147189
 30
0.0
  0
SPLINE
  5
B5
330
1F
100
AcDbEntity
  8
0
  6
Continuous
 62
     1
370
    15
100
AcDbSpline
210
0.0
220
0.0
230
1.0
 70
     8
 71
     3
 72
    11
 73
     7
 74
     0
 42
0.000000001
 43
0.00000001
 40
0.0
 40
0.0
 40
0.0
 40
0.0
 40
0.2999857568159762
 40
0.5997532466927078
 40
0.8994487942054914
 40
1.0
 40
1.0
 40
1.0
 40
1.0
 10
53.275
 20
7.833558111527433
 30
0.0
 10
52.55543690031315
 20
7.86557096470144
 30
0.0
 10
51.11683424858055
 20
7.929573378785334
 30
0.0
 10
48.95980615994617
 20
7.766134547309103
 30
0.0
 10
47.28114610931761
 20
7.536329481934708
 30
0.0
 10
46.32125459691947
 20
7.297335285518008
 30
0.0
 10
46.08010773387559
 20
7.237294437143808
 30
0.0
  0
LINE
  5
B6
330
1F
100
AcDbEntity
  8
0
  6
Continuous
 62
     1
370
    15
100
AcDbLine
 10
53.275
 20
4.720500936163609
 30
0.0
 11
53.275
 21
7.833558111527433
 31
0.0
  0
LINE
  5
B7
330
1F
100
AcDbEntity
  8
0
  6
Continuous
 62
     1
370
    15
100
AcDbLine
 10
53.275
 20
7.833558111527433
 30
0.0
 11
53.275
 21
7.891481613724255
 31
0.0
  0
LINE
  5
B8
330
1F
100
AcDbEntity
  8
외형선
  6
Continuous
370
    15
100
AcDbLine
 10
12.0
 20
-7.983518386275752
 30
0.0
 11
12.0
 21
-7.839165403147189
 31
0.0
  0
LINE
  5
B9
330
1F
100
AcDbEntity
  8
외형선
  6
Continuous
370
    15
100
AcDbLine
 10
12.00000000000001
 20
7.359716236172987
 30
0.0
 11
11.52466849354066
 21
7.255915710394182
 31
0.0
  0
LINE
  5
BA
330
1F
100
AcDbEntity
  8
외형선
  6
Continuous
370
    15
100
AcDbLine
 10
10.99987382452623
 20
7.369534199323502
 30
0.0
 11
10.99987382452623
 21
7.891481613724252
 31
0.0
  0
SPLINE
  5
BB
330
1F
100
AcDbEntity
  8
외형선
  6
Continuous
370
    15
100
AcDbSpline
210
0.0
220
0.0
230
1.0
 70
     8
 71
     3
 72
     8
 73
     4
 74
     0
 42
0.000000001
 43
0.00000001
 40
0.0
 40
0.0
 40
0.0
 40
0.0
 40
1.0
 40
1.0
 40
1.0
 40
1.0
 10
12.0
 20
7.144507138896113
 30
0.0
 10
11.66693200024605
 20
7.225884263770832
 30
0.0
 10
11.33311682443989
 20
7.30099305121402
 30
0.0
 10
10.99987382452622
 20
7.369533268944404
 30
0.0
  0
SPLINE
  5
BC
330
1F
100
AcDbEntity
  8
외형선
  6
Continuous
370
    15
100
AcDbSpline
210
0.0
220
0.0
230
1.0
 70
     8
 71
     3
 72
     8
 73
     4
 74
     0
 42
0.000000001
 43
0.00000001
 40
0.0
 40
0.0
 40
0.0
 40
0.0
 40
1.0
 40
1.0
 40
1.0
 40
1.0
 10
12.00000000000001
 20
4.959073970117312
 30
0.0
 10
11.66693200024605
 20
5.108209507847191
 30
0.0
 10
11.33311682443991
 20
5.253050908442996
 30
0.0
 10
10.99987382452624
 20
5.393023286245771
 30
0.0
  0
SPLINE
  5
BD
330
1F
100
AcDbEntity
  8
외형선
  6
Continuous
370
    15
100
AcDbSpline
210
0.0
220
0.0
230
1.0
 70
     8
 71
     3
 72
     8
 73
     4
 74
     0
 42
0.000000001
 43
0.00000001
 40
0.0
 40
0.0
 40
0.0
 40
0.0
 40
1.0
 40
1.0
 40
1.0
 40
1.0
 10
12.0
 20
-1.021080442196831
 30
0.0
 10
11.66693200024605
 20
-0.8303850107119614
 30
0.0
 10
11.33311682443989
 20
-0.6386889666967267
 30
0.0
 10
10.99987382452622
 20
-0.4467496587596216
 30
0.0
  0
SPLINE
  5
BE
330
1F
100
AcDbEntity
  8
외형선
  6
Continuous
370
    15
100
AcDbSpline
210
0.0
220
0.0
230
1.0
 70
     8
 71
     3
 72
     8
 73
     4
 74
     0
 42
0.000000001
 43
0.00000001
 40
0.0
 40
0.0
 40
0.0
 40
0.0
 40
1.0
 40
1.0
 40
1.0
 40
1.0
 10
12.00000000000001
 20
-4.358435815641299
 30
0.0
 10
11.66693200024605
 20
-4.197117429371071
 30
0.0
 10
11.33311682443991
 20
-4.031882826898912
 30
0.0
 10
10.99987382452624
 20
-3.863383211527101
 30
0.0
  0
LINE
  5
BF
330
1F
100
AcDbEntity
  8
외형선
  6
Continuous
370
    15
100
AcDbLine
 10
10.99987382452623
 20
-7.709234908383811
 30
0.0
 11
10.99987382452623
 21
-3.863381264374482
 31
0.0
  0
SPLINE
  5
C0
330
1F
100
AcDbEntity
  8
외형선
  6
Continuous
370
    15
100
AcDbSpline
210
0.0
220
0.0
230
1.0
 70
     8
 71
     3
 72
     8
 73
     4
 74
     0
 42
0.000000001
 43
0.00000001
 40
0.0
 40
0.0
 40
0.0
 40
0.0
 40
1.0
 40
1.0
 40
1.0
 40
1.0
 10
12.0
 20
-7.839165403147187
 30
0.0
 10
11.66693200024605
 20
-7.802686269864932
 30
0.0
 10
11.33311682443989
 20
-7.759320386597808
 30
0.0
 10
10.99987382452622
 20
-7.70923558824593
 30
0.0
  0
LINE
  5
C1
330
1F
100
AcDbEntity
  8
외형선
  6
Continuous
370
    15
100
AcDbLine
 10
-34.03750000000001
 20
-0.0460183862757485
 30
0.0
 11
-34.03750000000001
 21
7.891481613724252
 31
0.0
  0
LINE
  5
C2
330
1F
100
AcDbEntity
  8
외형선
  6
Continuous
370
    15
100
AcDbLine
 10
-34.03750000000001
 20
-7.983518386275749
 30
0.0
 11
-34.03750000000001
 21
-0.0460183862757485
 31
0.0
  0
LINE
  5
C3
330
1F
100
AcDbEntity
  8
외형선
  6
Continuous
370
    15
100
AcDbLine
 10
10.99987382452623
 20
-0.4467470533346054
 30
0.0
 11
10.99987382452623
 21
5.393024903742194
 31
0.0
  0
LINE
  5
C4
330
1F
100
AcDbEntity
  8
외형선
  6
Continuous
370
    15
100
AcDbLine
 10
-35.62500000000001
 20
-0.0460183862757485
 30
0.0
 11
-35.62500000000001
 21
6.303981613724257
 31
0.0
  0
LINE
  5
C5
330
1F
100
AcDbEntity
  8
외형선
  6
Continuous
370
    15
100
AcDbLine
 10
-35.62500000000001
 20
-6.396018386275753
 30
0.0
 11
-35.62500000000001
 21
-0.0460183862757485
 31
0.0
  0
SPLINE
  5
C6
330
1F
100
AcDbEntity
  8
외형선
  6
Continuous
370
    15
100
AcDbSpline
210
0.0
220
0.0
230
1.0
 70
    24
 71
     3
 72
    22
 73
    18
 74
     0
 42
0.000000001
 43
0.00000001
 40
0.0
 40
0.0
 40
0.0
 40
0.0
 40
0.0633134921217432
 40
0.1343850159903983
 40
0.2034535477587365
 40
0.2745250716273914
 40
0.3435936033956932
 40
0.4146651272643845
 40
0.4837336590327231
 40
0.554805182901378
 40
0.623873714669715
 40
0.6949452385383685
 40
0.764013770306708
 40
0.8350852941753646
 40
0.9041538259437031
 40
0.975225349812358
 40
1.0
 40
1.0
 40
1.0
 40
1.0
 10
12.0
 20
-0.926221602121012
 30
0.0
 10
12.0
 20
-0.8801893280882391
 30
0.0
 10
11.99999999999999
 20
-0.7824842785851464
 30
0.0
 10
12.0
 20
-0.5311403462856064
 30
0.0
 10
12.00000000000002
 20
-0.2016881301034905
 30
0.0
 10
12.0
 20
0.193088017785509
 30
0.0
 10
12.00000000000001
 20
0.646547408391329
 30
0.0
 10
12.0
 20
1.138381258360129
 30
0.0
 10
11.99999999999999
 20
1.663335358182805
 30
0.0
 10
12.0
 20
2.197153580999036
 30
0.0
 10
11.99999999999999
 20
2.734315082328833
 30
0.0
 10
11.99999999999999
 20
3.249972332048519
 30
0.0
 10
12.0
 20
3.738730445469848
 30
0.0
 10
12.00000000000001
 20
4.178253696753683
 30
0.0
 10
12.00000000000003
 20
4.562908576485711
 30
0.0
 10
12.00000000000002
 20
4.812072473075194
 30
0.0
 10
12.00000000000002
 20
4.928880919371991
 30
0.0
 10
12.00000000000001
 20
4.959073970106237
 30
0.0
  0
SPLINE
  5
C7
330
1F
100
AcDbEntity
  8
외형선
  6
Continuous
370
    15
100
AcDbSpline
210
0.0
220
0.0
230
1.0
 70
    24
 71
     3
 72
    14
 73
    10
 74
     0
 42
0.000000001
 43
0.00000001
 40
0.0
 40
0.0
 40
0.0
 40
0.0
 40
0.1370159606815287
 40
0.2740319213630574
 40
0.4195032978780207
 40
0.5649746743929838
 40
0.710446050907947
 40
0.8559174274229097
 40
1.0
 40
1.0
 40
1.0
 40
1.0
 10
12.0
 20
-7.839165403147185
 30
0.0
 10
12.0
 20
-7.680833069047669
 30
0.0
 10
12.0
 20
-7.364168400848635
 30
0.0
 10
12.00000000000001
 20
-6.852261131114282
 30
0.0
 10
11.99999999999999
 20
-6.325811868165477
 30
0.0
 10
11.99999999999999
 20
-5.796327760417279
 30
0.0
 10
12.0
 20
-5.292230273222724
 30
0.0
 10
12.0
 20
-4.822145888451304
 30
0.0
 10
12.0
 20
-4.554872269766058
 30
0.0
 10
12.00000000000001
 20
-4.421876430189663
 30
0.0
  0
LINE
  5
C8
330
1F
100
AcDbEntity
  8
외형선
  6
Continuous
370
    15
100
AcDbLine
 10
12.00000000000001
 20
7.207947753444481
 30
0.0
 11
12.00000000000001
 21
7.35971623614937
 31
0.0
  0
LINE
  5
C9
330
1F
100
AcDbEntity
  8
중심선
 62
     1
100
AcDbLine
 10
-38.62500000000001
 20
-0.0000000000000029
 30
0.0
 11
56.275
 21
0.0000000000000044
 31
0.0
  0
LINE
  5
CA
330
1F
100
AcDbEntity
  8
참조1
100
AcDbLine
 10
22.70000000000001
 20
0.0010749287238892
 30
0.0
 11
22.70000000000002
 21
-39.99892507127611
 31
0.0
  0
LINE
  5
CB
330
1F
100
AcDbEntity
  8
참조1
100
AcDbLine
 10
22.70000000000002
 20
-39.99892507127611
 30
0.0
 11
-17.85885681430866
 21
-39.9989250712761
 31
0.0
  0
CIRCLE
  5
CC
330
1F
100
AcDbEntity
  8
해칭선
100
AcDbCircle
 10
0.0
 20
0.0
 30
0.0
 40
3.0
  0
INSERT
  5
CD
330
1F
100
AcDbEntity
  8
0
  6
Continuous
 62
     7
100
AcDbBlockReference
 66
     1
  2
블럭10
 10
-5.115272932125214
 20
-52.04717430164393
 30
0.0
  0
ATTRIB
  5
CE
330
CD
100
AcDbEntity
  8
FORMAT
 62
     2
100
AcDbText
 10
-14.29656822086649
 20
-49.97180738881175
 30
0.0
 40
4.233333333333333
  1
E5067040 [ 5 FLUTE ]
 41
0.75
  7
SLDTEXTSTYLE0
 11
-14.29656822086649
 21
-52.08847405547841
 31
0.0
100
AcDbAttribute
  2
AUTOATTR0
 70
     0
 74
     1
  0
SEQEND
  5
CF
330
CD
100
AcDbEntity
  8
0
  6
Continuous
 62
     7
  0
HATCH
  5
D0
330
1F
100
AcDbEntity
  8
중심선
100
AcDbHatch
 10
0.0
 20
0.0
 30
0.0
210
0.0
220
0.0
230
1.0
  2
SOLID
 70
     1
 71
     0
 91
        1
 92
        0
 93
        4
 72
     1
 10
0.5996363722556346
 20
-35.8
 11
-2.846638871581648
 21
-35.8
 72
     1
 10
-2.846638871581648
 20
-35.8
 11
-4.974868730785671
 21
-38.3363255805726
 72
     1
 10
-4.974868730785671
 20
-38.3363255805726
 11
-1.528560401835239
 21
-38.33628615127011
 72
     1
 10
-1.528560401835239
 20
-38.33628615127011
 11
0.5996363722556346
 21
-35.8
 97
        0
 75
     0
 76
     1
 98
        1
 10
-13.87500000000002
 20
-0.001074928723896
  0
HATCH
  5
D1
330
1F
100
AcDbEntity
  8
중심선
100
AcDbHatch
 10
0.0
 20
0.0
 30
0.0
210
0.0
220
0.0
230
1.0
  2
SOLID
 70
     1
 71
     0
 91
        1
 92
        0
 93
        4
 72
     1
 10
5.612400363291641
 20
-35.8
 11
2.16612511945436
 21
-35.79999999999998
 72
     1
 10
2.16612511945436
 20
-35.79999999999998
 11
-2.365012888903085
 21
-41.20000000000002
 72
     1
 10
-2.365012888903085
 20
-41.20000000000002
 11
1.081262354934198
 21
-41.20000000000002
 72
     1
 10
1.081262354934198
 20
-41.20000000000002
 11
5.612400363291641
 21
-35.8
 97
        0
 75
     0
 76
     1
 98
        1
 10
-13.87500000000002
 20
-0.001074928723896
  0
HATCH
  5
D2
330
1F
100
AcDbEntity
  8
중심선
100
AcDbHatch
 10
0.0
 20
0.0
 30
0.0
210
0.0
220
0.0
230
1.0
  2
SOLID
 70
     1
 71
     0
 91
        1
 92
        0
 93
        4
 72
     1
 10
10.62516435432748
 20
-35.8
 11
7.17888911049042
 21
-35.79999999999998
 72
     1
 10
7.17888911049042
 20
-35.79999999999998
 11
0.1304522086011168
 21
-44.20000000000002
 72
     1
 10
0.1304522086011168
 20
-44.20000000000002
 11
3.576727452438398
 21
-44.20000000000002
 72
     1
 10
3.576727452438398
 20
-44.20000000000002
 11
10.62516435432748
 21
-35.8
 97
        0
 75
     0
 76
     1
 98
        1
 10
-13.87500000000002
 20
-0.001074928723896
  0
HATCH
  5
D3
330
1F
100
AcDbEntity
  8
중심선
100
AcDbHatch
 10
0.0
 20
0.0
 30
0.0
210
0.0
220
0.0
230
1.0
  2
SOLID
 70
     1
 71
     0
 91
        1
 92
        0
 93
        6
 72
     3
 10
15.42505478533968
 20
-40.00000000005127
 11
3.960054785062283
 21
1.540882976769353E-10
 40
0.3939339440162628
 50
17.09539180608439
 51
320.0019657685079
 73
     0
 72
     1
 10
17.10805444104028
 20
-38.5878940046383
 11
19.41335631474134
 21
-36.65356729459038
 72
     3
 10
15.42505478528683
 20
-40.00000000000015
 11
6.600054785286829
 21
-1.278976924368180E-13
 40
0.636358354079598
 50
39.99873849337386
 51
368.4976242363725
 73
     1
 72
     1
 10
21.85038727718744
 20
-39.03999999993002
 11
14.10512209212276
 21
-39.03999999993
 72
     1
 10
14.10512209212276
 20
-39.03999999993
 11
14.10509704767682
 21
-40.95999999992991
 72
     1
 10
14.10509704767682
 20
-40.95999999992991
 11
18.54647681714886
 21
-40.95999999992988
 97
        0
 75
     0
 76
     1
 98
        1
 10
-13.87500000000002
 20
-0.001074928723896
  0
DIMENSION
  5
D4
330
1F
100
AcDbEntity
  8
치수문자_일반주서
100
AcDbDimension
  2
_D
 10
76.11759857054624
 20
-7.983518386275669
 30
0.0
 11
76.11759857054611
 21
28.71423161372434
 31
0.0
 70
   160
  1
%%c<>
 71
     2
 42
15.87500000000001
 52
-270.0
  3
SLDDIMSTYLE0
100
AcDbAlignedDimension
 13
53.275
 23
7.891481613724255
 33
0.0
 14
53.27500000000001
 24
-7.983518386275752
 34
0.0
 50
90.0000000000002
100
AcDbRotatedDimension
1001
ACAD
1000
DSTYLE
1002
{
1070
   171
1070
     6
1070
   273
1070
     5
1002
}
  0
DIMENSION
  5
E9
330
1F
100
AcDbEntity
  8
치수문자_일반주서
100
AcDbDimension
  2
_D_1
 10
12.00000000000001
 20
34.2279822726199
 30
0.0
 11
32.6375
 21
34.2279822726199
 31
0.0
 70
   160
  1
<>
 71
     2
 42
41.27499999999999
  3
SLDDIMSTYLE0
100
AcDbAlignedDimension
 13
53.275
 23
7.833558111527433
 33
0.0
 14
12.00000000000001
 24
7.359716236172987
 34
0.0
100
AcDbRotatedDimension
1001
ACAD
1000
DSTYLE
1002
{
1070
   171
1070
     6
1070
   273
1070
     5
1002
}
  0
DIMENSION
  5
FE
330
1F
100
AcDbEntity
  8
치수문자_일반주서
100
AcDbDimension
  2
_D_2
 10
-35.62500000000001
 20
51.4433228024593
 30
0.0
 11
8.824999999999996
 21
51.4433228024593
 31
0.0
 70
   160
  1
<>
 71
     2
 42
88.9
  3
SLDDIMSTYLE0
100
AcDbAlignedDimension
 13
53.275
 23
7.833558111527433
 33
0.0
 14
-35.62500000000001
 24
6.303981613724257
 34
0.0
 50
-0.0000000000000046
100
AcDbRotatedDimension
1001
ACAD
1000
DSTYLE
1002
{
1070
   171
1070
     6
1070
   273
1070
     5
1002
}
  0
DIMENSION
  5
112
330
1F
100
AcDbEntity
  8
치수문자_일반주서
100
AcDbDimension
  2
_D_3
 10
-50.19909970379067
 20
-7.983518386275797
 30
0.0
 11
-50.19909970379079
 21
28.71423161372418
 31
0.0
 70
   160
  1
%%c<>
 71
     2
 42
15.87499999999997
 52
-270.0
  3
SLDDIMSTYLE0
100
AcDbAlignedDimension
 13
-34.03750000000002
 23
7.891481613724237
 33
0.0
 14
-34.03750000000002
 24
-7.983518386275735
 34
0.0
 50
90.0000000000002
100
AcDbRotatedDimension
1001
ACAD
1000
DSTYLE
1002
{
1070
   171
1070
     6
1070
   273
1070
     5
1002
}
  0
LINE
  5
126
330
1F
100
AcDbEntity
  8
참조1
100
AcDbLine
 10
80.1134838153456
 20
7.441074928723896
 30
0.0
 11
80.1134838153456
 21
-7.438925071276109
 31
0.0
  0
LINE
  5
127
330
1F
100
AcDbEntity
  8
참조1
100
AcDbLine
 10
92.8134838153456
 20
5.441074928723896
 30
0.0
 11
80.1134838153456
 21
5.441074928723896
 31
0.0
  0
SOLID
  5
128
330
1F
100
AcDbEntity
  8
참조1
100
AcDbTrace
 10
80.1134838153456
 20
5.441074928723896
 30
0.0
 11
86.4634838153456
 21
4.425074928723896
 31
0.0
 12
86.4634838153456
 22
6.457074928723896
 32
0.0
 13
86.4634838153456
 23
6.457074928723896
 33
0.0
  0
LINE
  5
129
330
1F
100
AcDbEntity
  8
참조1
100
AcDbLine
 10
92.8134838153456
 20
-5.438925071276109
 30
0.0
 11
80.1134838153456
 21
-5.438925071276109
 31
0.0
  0
SOLID
  5
12A
330
1F
100
AcDbEntity
  8
참조1
100
AcDbTrace
 10
80.1134838153456
 20
-5.438925071276109
 30
0.0
 11
86.4634838153456
 21
-6.454925071276109
 31
0.0
 12
86.4634838153456
 22
-4.422925071276109
 32
0.0
 13
86.4634838153456
 23
-4.422925071276109
 33
0.0
  0
MTEXT
  5
12B
330
1F
100
AcDbEntity
  8
참조1
100
AcDbMText
 10
89.4978339479716
 20
11.01136670591222
 30
0.0
 40
3.5
 41
0.0
 71
     1
 72
     1
  1
A
  7
SLDTEXTSTYLE0
 73
     1
 44
1.0
  0
MTEXT
  5
12C
330
1F
100
AcDbEntity
  8
참조1
100
AcDbMText
 10
89.4978339479716
 20
0.1313667059122201
 30
0.0
 40
3.5
 41
0.0
 71
     1
 72
     1
  1
A
  7
SLDTEXTSTYLE0
 73
     1
 44
1.0
  0
INSERT
  5
133
330
1F
100
AcDbEntity
  8
해칭선
100
AcDbBlockReference
  2
SW_DOWELSYMBOL_0
 10
0.0
 20
0.0
 30
0.0
  0
ENDSEC
  0
SECTION
  2
OBJECTS
  0
DICTIONARY
  5
C
330
0
100
AcDbDictionary
281
     1
  3
ACAD_GROUP
350
D
  3
ACAD_IMAGE_VARS
350
157
  3
ACAD_LAYOUT
350
1A
  3
ACAD_MLINESTYLE
350
17
  3
ACAD_PLOTSETTINGS
350
19
  3
ACAD_PLOTSTYLENAME
350
E
  3
ACAD_SCALELIST
350
47
  3
APPDATA
350
155
  3
DWGPROPS
350
2CD
  0
DICTIONARY
  5
211
330
2
100
AcDbDictionary
280
     1
281
     1
  3
ACAD_LAYERSTATES
360
212
  0
DICTIONARY
  5
D
102
{ACAD_REACTORS
330
C
102
}
330
C
100
AcDbDictionary
281
     1
  0
RASTERVARIABLES
  5
157
102
{ACAD_REACTORS
330
C
102
}
330
C
100
AcDbRasterVariables
 90
        0
 70
     1
 71
     1
 72
     1
  0
DICTIONARY
  5
1A
102
{ACAD_REACTORS
330
C
102
}
330
C
100
AcDbDictionary
281
     1
  3
Layout1
350
1E
  3
Layout2
350
26
  3
Model
350
22
  0
DICTIONARY
  5
17
102
{ACAD_REACTORS
330
C
102
}
330
C
100
AcDbDictionary
281
     1
  3
Standard
350
18
  0
DICTIONARY
  5
19
102
{ACAD_REACTORS
330
C
102
}
330
C
100
AcDbDictionary
281
     1
  0
ACDBDICTIONARYWDFLT
  5
E
102
{ACAD_REACTORS
330
C
102
}
330
C
100
AcDbDictionary
281
     1
  3
Normal
350
F
100
AcDbDictionaryWithDefault
340
F
  0
DICTIONARY
  5
47
102
{ACAD_REACTORS
330
C
102
}
330
C
100
AcDbDictionary
281
     1
  3
A0
350
48
  3
A1
350
49
  3
A2
350
4A
  3
A3
350
4B
  3
A4
350
4C
  3
A5
350
4D
  3
A6
350
4E
  3
A7
350
4F
  3
A8
350
50
  3
A9
350
51
  3
B0
350
52
  3
B1
350
53
  3
B2
350
54
  3
B3
350
55
  3
B4
350
56
  3
B5
350
57
  3
B6
350
58
  3
B7
350
59
  3
B8
350
5A
  3
B9
350
5B
  3
C0
350
5C
  3
C1
350
5D
  3
C2
350
5E
  3
C3
350
5F
  3
C4
350
60
  3
C5
350
61
  3
C6
350
62
  3
C7
350
63
  3
C8
350
64
  3
C9
350
65
  3
D0
350
66
  3
D1
350
67
  3
D2
350
68
  0
DICTIONARY
  5
155
102
{ACAD_REACTORS
330
C
102
}
330
C
100
AcDbDictionary
281
     1
  0
XRECORD
  5
2CD
102
{ACAD_REACTORS
330
C
102
}
330
C
100
AcDbXrecord
280
     1
  1
DWGPROPS COOKIE
  2

  3

  4

  6

  7

  8
12014074
  9

300
=
301
=
302
=
303
=
304
=
305
=
306
=
307
=
308
=
309
=
 40
0.0
 41
2458316.071870278
 42
2458323.342061343
  1

 90
        0
  0
DICTIONARY
  5
212
102
{ACAD_REACTORS
330
211
102
}
330
211
100
AcDbDictionary
281
     1
  0
LAYOUT
  5
1E
102
{ACAD_REACTORS
330
1A
102
}
330
1A
100
AcDbPlotSettings
  1

  2
none_device
  4

  6

 40
0.0
 41
0.0
 42
0.0
 43
0.0
 44
0.0
 45
0.0
 46
0.0
 47
0.0
 48
0.0
 49
0.0
140
0.0
141
0.0
142
1.0
143
1.0
 70
   688
 72
     1
 73
     0
 74
     5
  7

 75
    16
147
1.0
148
0.0
149
0.0
100
AcDbLayout
  1
Layout1
 70
     1
 71
     1
 10
0.0
 20
0.0
 11
420.0
 21
297.0
 12
0.0
 22
0.0
 32
0.0
 14
1.000000000000000E+20
 24
1.000000000000000E+20
 34
1.000000000000000E+20
 15
-1.000000000000000E+20
 25
-1.000000000000000E+20
 35
-1.000000000000000E+20
146
0.0
 13
0.0
 23
0.0
 33
0.0
 16
1.0
 26
0.0
 36
0.0
 17
0.0
 27
1.0
 37
0.0
 76
     0
330
1B
  0
LAYOUT
  5
26
102
{ACAD_REACTORS
330
1A
102
}
330
1A
100
AcDbPlotSettings
  1

  2
none_device
  4

  6

 40
0.0
 41
0.0
 42
0.0
 43
0.0
 44
0.0
 45
0.0
 46
0.0
 47
0.0
 48
0.0
 49
0.0
140
0.0
141
0.0
142
1.0
143
1.0
 70
   688
 72
     1
 73
     0
 74
     5
  7

 75
    16
147
1.0
148
0.0
149
0.0
100
AcDbLayout
  1
Layout2
 70
     1
 71
     2
 10
0.0
 20
0.0
 11
0.0
 21
0.0
 12
0.0
 22
0.0
 32
0.0
 14
0.0
 24
0.0
 34
0.0
 15
0.0
 25
0.0
 35
0.0
146
0.0
 13
0.0
 23
0.0
 33
0.0
 16
1.0
 26
0.0
 36
0.0
 17
0.0
 27
1.0
 37
0.0
 76
     0
330
23
  0
LAYOUT
  5
22
102
{ACAD_REACTORS
330
1A
102
}
330
1A
100
AcDbPlotSettings
  1

  2
none_device
  4
ANSI_A_(11.00_x_8.50_Inches)
  6

 40
6.35
 41
19.05
 42
6.35000508
 43
19.05000254
 44
279.4
 45
215.9
 46
53.33217139807148
 47
79.92215645781239
 48
0.0
 49
0.0
140
0.0
141
0.0
142
0.0613505514999631
143
1.0
 70
  1696
 72
     0
 73
     0
 74
     0
  7

 75
     0
147
0.0235690232323232
148
0.0
149
0.0
100
AcDbLayout
  1
Model
 70
     1
 71
     0
 10
0.0
 20
0.0
 11
420.0
 21
297.0
 12
0.0
 22
0.0
 32
0.0
 14
1.000000000000000E+20
 24
1.000000000000000E+20
 34
1.000000000000000E+20
 15
-1.000000000000000E+20
 25
-1.000000000000000E+20
 35
-1.000000000000000E+20
146
0.0
 13
0.0
 23
0.0
 33
0.0
 16
1.0
 26
0.0
 36
0.0
 17
0.0
 27
1.0
 37
0.0
 76
     0
330
1F
331
29
  0
MLINESTYLE
  5
18
102
{ACAD_REACTORS
330
17
102
}
330
17
100
AcDbMlineStyle
  2
Standard
 70
     0
  3

 62
   256
 51
90.0
 52
90.0
 71
     2
 49
0.5
 62
   256
  6
BYLAYER
 49
-0.5
 62
   256
  6
BYLAYER
  0
ACDBPLACEHOLDER
  5
F
102
{ACAD_REACTORS
330
E
102
}
330
E
  0
SCALE
  5
48
102
{ACAD_REACTORS
330
47
102
}
330
47
100
AcDbScale
 70
     0
300
1:1
140
1.0
141
1.0
290
     1
  0
SCALE
  5
49
102
{ACAD_REACTORS
330
47
102
}
330
47
100
AcDbScale
 70
     0
300
1:2
140
1.0
141
2.0
290
     0
  0
SCALE
  5
4A
102
{ACAD_REACTORS
330
47
102
}
330
47
100
AcDbScale
 70
     0
300
1:4
140
1.0
141
4.0
290
     0
  0
SCALE
  5
4B
102
{ACAD_REACTORS
330
47
102
}
330
47
100
AcDbScale
 70
     0
300
1:5
140
1.0
141
5.0
290
     0
  0
SCALE
  5
4C
102
{ACAD_REACTORS
330
47
102
}
330
47
100
AcDbScale
 70
     0
300
1:8
140
1.0
141
8.0
290
     0
  0
SCALE
  5
4D
102
{ACAD_REACTORS
330
47
102
}
330
47
100
AcDbScale
 70
     0
300
1:10
140
1.0
141
10.0
290
     0
  0
SCALE
  5
4E
102
{ACAD_REACTORS
330
47
102
}
330
47
100
AcDbScale
 70
     0
300
1:16
140
1.0
141
16.0
290
     0
  0
SCALE
  5
4F
102
{ACAD_REACTORS
330
47
102
}
330
47
100
AcDbScale
 70
     0
300
1:20
140
1.0
141
20.0
290
     0
  0
SCALE
  5
50
102
{ACAD_REACTORS
330
47
102
}
330
47
100
AcDbScale
 70
     0
300
1:30
140
1.0
141
30.0
290
     0
  0
SCALE
  5
51
102
{ACAD_REACTORS
330
47
102
}
330
47
100
AcDbScale
 70
     0
300
1:40
140
1.0
141
40.0
290
     0
  0
SCALE
  5
52
102
{ACAD_REACTORS
330
47
102
}
330
47
100
AcDbScale
 70
     0
300
1:50
140
1.0
141
50.0
290
     0
  0
SCALE
  5
53
102
{ACAD_REACTORS
330
47
102
}
330
47
100
AcDbScale
 70
     0
300
1:100
140
1.0
141
100.0
290
     0
  0
SCALE
  5
54
102
{ACAD_REACTORS
330
47
102
}
330
47
100
AcDbScale
 70
     0
300
2:1
140
2.0
141
1.0
290
     0
  0
SCALE
  5
55
102
{ACAD_REACTORS
330
47
102
}
330
47
100
AcDbScale
 70
     0
300
4:1
140
4.0
141
1.0
290
     0
  0
SCALE
  5
56
102
{ACAD_REACTORS
330
47
102
}
330
47
100
AcDbScale
 70
     0
300
8:1
140
8.0
141
1.0
290
     0
  0
SCALE
  5
57
102
{ACAD_REACTORS
330
47
102
}
330
47
100
AcDbScale
 70
     0
300
10:1
140
10.0
141
1.0
290
     0
  0
SCALE
  5
58
102
{ACAD_REACTORS
330
47
102
}
330
47
100
AcDbScale
 70
     0
300
100:1
140
100.0
141
1.0
290
     0
  0
SCALE
  5
59
102
{ACAD_REACTORS
330
47
102
}
330
47
100
AcDbScale
 70
     0
300
1/128" = 1'-0"
140
0.0078125
141
12.0
290
     0
  0
SCALE
  5
5A
102
{ACAD_REACTORS
330
47
102
}
330
47
100
AcDbScale
 70
     0
300
1/64" = 1'-0"
140
0.015625
141
12.0
290
     0
  0
SCALE
  5
5B
102
{ACAD_REACTORS
330
47
102
}
330
47
100
AcDbScale
 70
     0
300
1/32" = 1'-0"
140
0.03125
141
12.0
290
     0
  0
SCALE
  5
5C
102
{ACAD_REACTORS
330
47
102
}
330
47
100
AcDbScale
 70
     0
300
1/16" = 1'-0"
140
0.0625
141
12.0
290
     0
  0
SCALE
  5
5D
102
{ACAD_REACTORS
330
47
102
}
330
47
100
AcDbScale
 70
     0
300
3/32" = 1'-0"
140
0.09375
141
12.0
290
     0
  0
SCALE
  5
5E
102
{ACAD_REACTORS
330
47
102
}
330
47
100
AcDbScale
 70
     0
300
1/8" = 1'-0"
140
0.125
141
12.0
290
     0
  0
SCALE
  5
5F
102
{ACAD_REACTORS
330
47
102
}
330
47
100
AcDbScale
 70
     0
300
3/16" = 1'-0"
140
0.1875
141
12.0
290
     0
  0
SCALE
  5
60
102
{ACAD_REACTORS
330
47
102
}
330
47
100
AcDbScale
 70
     0
300
1/4" = 1'-0"
140
0.25
141
12.0
290
     0
  0
SCALE
  5
61
102
{ACAD_REACTORS
330
47
102
}
330
47
100
AcDbScale
 70
     0
300
3/8" = 1'-0"
140
0.375
141
12.0
290
     0
  0
SCALE
  5
62
102
{ACAD_REACTORS
330
47
102
}
330
47
100
AcDbScale
 70
     0
300
1/2" = 1'-0"
140
0.5
141
12.0
290
     0
  0
SCALE
  5
63
102
{ACAD_REACTORS
330
47
102
}
330
47
100
AcDbScale
 70
     0
300
3/4" = 1'-0"
140
0.75
141
12.0
290
     0
  0
SCALE
  5
64
102
{ACAD_REACTORS
330
47
102
}
330
47
100
AcDbScale
 70
     0
300
1" = 1'-0"
140
1.0
141
12.0
290
     0
  0
SCALE
  5
65
102
{ACAD_REACTORS
330
47
102
}
330
47
100
AcDbScale
 70
     0
300
1-1/2" = 1'-0"
140
1.5
141
12.0
290
     0
  0
SCALE
  5
66
102
{ACAD_REACTORS
330
47
102
}
330
47
100
AcDbScale
 70
     0
300
3" = 1'-0"
140
3.0
141
12.0
290
     0
  0
SCALE
  5
67
102
{ACAD_REACTORS
330
47
102
}
330
47
100
AcDbScale
 70
     0
300
6" = 1'-0"
140
6.0
141
12.0
290
     0
  0
SCALE
  5
68
102
{ACAD_REACTORS
330
47
102
}
330
47
100
AcDbScale
 70
     0
300
1'-0" = 1'-0"
140
12.0
141
12.0
290
     0
  0
ENDSEC
  0
EOF
