  0
SECTION
  2
HEADER
  9
$ACADVER
  1
AC1015
  9
$ACADMAINTVER
 70
     6
  9
$DWGCODEPAGE
  3
ANSI_949
  9
$INSBASE
 10
0.0
 20
0.0
 30
0.0
  9
$EXTMIN
 10
1.000000000000000E+20
 20
1.000000000000000E+20
 30
1.000000000000000E+20
  9
$EXTMAX
 10
-1.000000000000000E+20
 20
-1.000000000000000E+20
 30
-1.000000000000000E+20
  9
$LIMMIN
 10
0.0
 20
0.0
  9
$LIMMAX
 10
420.0
 20
297.0
  9
$ORTHOMODE
 70
     1
  9
$REGENMODE
 70
     1
  9
$FILLMODE
 70
     1
  9
$QTEXTMODE
 70
     0
  9
$MIRRTEXT
 70
     1
  9
$LTSCALE
 40
1.0
  9
$ATTMODE
 70
     1
  9
$TEXTSIZE
 40
3.5
  9
$TRACEWID
 40
1.0
  9
$TEXTSTYLE
  7
Standard
  9
$CLAYER
  8
0
  9
$CELTYPE
  6
ByLayer
  9
$CECOLOR
 62
   256
  9
$CELTSCALE
 40
1.0
  9
$DISPSILH
 70
     0
  9
$DIMSCALE
 40
1.0
  9
$DIMASZ
 40
3.302
  9
$DIMEXO
 40
1.0
  9
$DIMDLI
 40
3.75
  9
$DIMRND
 40
0.0
  9
$DIMDLE
 40
0.0
  9
$DIMEXE
 40
1.0
  9
$DIMTP
 40
0.0
  9
$DIMTM
 40
0.0
  9
$DIMTXT
 40
3.5
  9
$DIMCEN
 40
2.5
  9
$DIMTSZ
 40
0.0
  9
$DIMTOL
 70
     0
  9
$DIMLIM
 70
     0
  9
$DIMTIH
 70
     1
  9
$DIMTOH
 70
     1
  9
$DIMSE1
 70
     0
  9
$DIMSE2
 70
     0
  9
$DIMTAD
 70
     1
  9
$DIMZIN
 70
     0
  9
$DIMBLK
  1

  9
$DIMASO
 70
     1
  9
$DIMSHO
 70
     1
  9
$DIMPOST
  1

  9
$DIMAPOST
  1

  9
$DIMALT
 70
     0
  9
$DIMALTD
 70
     3
  9
$DIMALTF
 40
0.0393700787401575
  9
$DIMLFAC
 40
1.0
  9
$DIMTOFL
 70
     1
  9
$DIMTVP
 40
0.0
  9
$DIMTIX
 70
     0
  9
$DIMSOXD
 70
     0
  9
$DIMSAH
 70
     0
  9
$DIMBLK1
  1

  9
$DIMBLK2
  1

  9
$DIMSTYLE
  2
ISO-25
  9
$DIMCLRD
 70
     0
  9
$DIMCLRE
 70
     0
  9
$DIMCLRT
 70
     0
  9
$DIMTFAC
 40
1.0
  9
$DIMGAP
 40
1.524
  9
$DIMJUST
 70
     0
  9
$DIMSD1
 70
     0
  9
$DIMSD2
 70
     0
  9
$DIMTOLJ
 70
     0
  9
$DIMTZIN
 70
     0
  9
$DIMALTZ
 70
     0
  9
$DIMALTTZ
 70
     0
  9
$DIMUPT
 70
     0
  9
$DIMDEC
 70
     2
  9
$DIMTDEC
 70
     2
  9
$DIMALTU
 70
     2
  9
$DIMALTTD
 70
     3
  9
$DIMTXSTY
  7
Standard
  9
$DIMAUNIT
 70
     0
  9
$DIMADEC
 70
     2
  9
$DIMALTRND
 40
0.0
  9
$DIMAZIN
 70
     0
  9
$DIMDSEP
 70
    44
  9
$DIMATFIT
 70
     3
  9
$DIMFRAC
 70
     0
  9
$DIMLDRBLK
  1

  9
$DIMLUNIT
 70
     2
  9
$DIMLWD
 70
    -2
  9
$DIMLWE
 70
    -2
  9
$DIMTMOVE
 70
     0
  9
$LUNITS
 70
     2
  9
$LUPREC
 70
     2
  9
$SKETCHINC
 40
1.0
  9
$FILLETRAD
 40
10.0
  9
$AUNITS
 70
     0
  9
$AUPREC
 70
     2
  9
$MENU
  1
.
  9
$ELEVATION
 40
0.0
  9
$PELEVATION
 40
0.0
  9
$THICKNESS
 40
0.0
  9
$LIMCHECK
 70
     0
  9
$CHAMFERA
 40
0.0
  9
$CHAMFERB
 40
0.0
  9
$CHAMFERC
 40
0.0
  9
$CHAMFERD
 40
0.0
  9
$SKPOLY
 70
     0
  9
$TDCREATE
 40
2458316.446023114
  9
$TDUCREATE
 40
2458316.071023114
  9
$TDUPDATE
 40
2458323.71241515
  9
$TDUUPDATE
 40
2458323.33741515
  9
$TDINDWG
 40
0.0014346412
  9
$TDUSRTIMER
 40
2458323.335980706
  9
$USRTIMER
 70
     1
  9
$ANGBASE
 50
0.0
  9
$ANGDIR
 70
     0
  9
$PDMODE
 70
     0
  9
$PDSIZE
 40
-1.0
  9
$PLINEWID
 40
0.0
  9
$SPLFRAME
 70
     0
  9
$SPLINETYPE
 70
     6
  9
$SPLINESEGS
 70
     8
  9
$HANDSEED
  5
2CB
  9
$SURFTAB1
 70
     6
  9
$SURFTAB2
 70
     6
  9
$SURFTYPE
 70
     6
  9
$SURFU
 70
     6
  9
$SURFV
 70
     6
  9
$UCSBASE
  2

  9
$UCSNAME
  2

  9
$UCSORG
 10
0.0
 20
0.0
 30
0.0
  9
$UCSXDIR
 10
1.0
 20
0.0
 30
0.0
  9
$UCSYDIR
 10
0.0
 20
1.0
 30
0.0
  9
$UCSORTHOREF
  2

  9
$UCSORTHOVIEW
 70
     0
  9
$UCSORGTOP
 10
0.0
 20
0.0
 30
0.0
  9
$UCSORGBOTTOM
 10
0.0
 20
0.0
 30
0.0
  9
$UCSORGLEFT
 10
0.0
 20
0.0
 30
0.0
  9
$UCSORGRIGHT
 10
0.0
 20
0.0
 30
0.0
  9
$UCSORGFRONT
 10
0.0
 20
0.0
 30
0.0
  9
$UCSORGBACK
 10
0.0
 20
0.0
 30
0.0
  9
$PUCSBASE
  2

  9
$PUCSNAME
  2

  9
$PUCSORG
 10
0.0
 20
0.0
 30
0.0
  9
$PUCSXDIR
 10
1.0
 20
0.0
 30
0.0
  9
$PUCSYDIR
 10
0.0
 20
1.0
 30
0.0
  9
$PUCSORTHOREF
  2

  9
$PUCSORTHOVIEW
 70
     0
  9
$PUCSORGTOP
 10
0.0
 20
0.0
 30
0.0
  9
$PUCSORGBOTTOM
 10
0.0
 20
0.0
 30
0.0
  9
$PUCSORGLEFT
 10
0.0
 20
0.0
 30
0.0
  9
$PUCSORGRIGHT
 10
0.0
 20
0.0
 30
0.0
  9
$PUCSORGFRONT
 10
0.0
 20
0.0
 30
0.0
  9
$PUCSORGBACK
 10
0.0
 20
0.0
 30
0.0
  9
$USERI1
 70
     0
  9
$USERI2
 70
     0
  9
$USERI3
 70
     0
  9
$USERI4
 70
     0
  9
$USERI5
 70
     0
  9
$USERR1
 40
0.0
  9
$USERR2
 40
0.0
  9
$USERR3
 40
0.0
  9
$USERR4
 40
0.0
  9
$USERR5
 40
0.0
  9
$WORLDVIEW
 70
     1
  9
$SHADEDGE
 70
     3
  9
$SHADEDIF
 70
    70
  9
$TILEMODE
 70
     1
  9
$MAXACTVP
 70
    64
  9
$PINSBASE
 10
0.0
 20
0.0
 30
0.0
  9
$PLIMCHECK
 70
     0
  9
$PEXTMIN
 10
1.000000000000000E+20
 20
1.000000000000000E+20
 30
1.000000000000000E+20
  9
$PEXTMAX
 10
-1.000000000000000E+20
 20
-1.000000000000000E+20
 30
-1.000000000000000E+20
  9
$PLIMMIN
 10
0.0
 20
0.0
  9
$PLIMMAX
 10
0.0
 20
0.0
  9
$UNITMODE
 70
     0
  9
$VISRETAIN
 70
     1
  9
$PLINEGEN
 70
     0
  9
$PSLTSCALE
 70
     1
  9
$TREEDEPTH
 70
  3020
  9
$CMLSTYLE
  2
Standard
  9
$CMLJUST
 70
     0
  9
$CMLSCALE
 40
20.0
  9
$PROXYGRAPHICS
 70
     1
  9
$MEASUREMENT
 70
     1
  9
$CELWEIGHT
370
    -1
  9
$ENDCAPS
280
     0
  9
$JOINSTYLE
280
     0
  9
$LWDISPLAY
290
     1
  9
$INSUNITS
 70
     4
  9
$HYPERLINKBASE
  1

  9
$STYLESHEET
  1

  9
$XEDIT
290
     1
  9
$CEPSNTYPE
380
     0
  9
$PSTYLEMODE
290
     1
  9
$FINGERPRINTGUID
  2
{54881573-A2C9-4CBC-BD74-61BEABCD8E71}
  9
$VERSIONGUID
  2
{FAEB1C32-E019-11D5-929B-00C0DF256EC4}
  9
$EXTNAMES
290
     1
  9
$PSVPSCALE
 40
0.0
  9
$OLESTARTUP
290
     0
  0
ENDSEC
  0
SECTION
  2
CLASSES
  0
CLASS
  1
ACDBDICTIONARYWDFLT
  2
AcDbDictionaryWithDefault
  3
ObjectDBX Classes
 90
        0
280
     0
281
     0
  0
CLASS
  1
VISUALSTYLE
  2
AcDbVisualStyle
  3
ObjectDBX Classes
 90
     4095
280
     0
281
     0
  0
CLASS
  1
MATERIAL
  2
AcDbMaterial
  3
ObjectDBX Classes
 90
     1153
280
     0
281
     0
  0
CLASS
  1
SCALE
  2
AcDbScale
  3
ObjectDBX Classes
 90
     1153
280
     0
281
     0
  0
CLASS
  1
SUN
  2
AcDbSun
  3
SCENEOE
 90
     1153
280
     0
281
     0
  0
CLASS
  1
ACDBPLACEHOLDER
  2
AcDbPlaceHolder
  3
ObjectDBX Classes
 90
        0
280
     0
281
     0
  0
CLASS
  1
LAYOUT
  2
AcDbLayout
  3
ObjectDBX Classes
 90
        0
280
     0
281
     0
  0
CLASS
  1
TABLESTYLE
  2
AcDbTableStyle
  3
ObjectDBX Classes
 90
     4095
280
     0
281
     0
  0
CLASS
  1
MLEADERSTYLE
  2
AcDbMLeaderStyle
  3
ACDB_MLEADERSTYLE_CLASS
 90
     4095
280
     0
281
     0
  0
CLASS
  1
RASTERVARIABLES
  2
AcDbRasterVariables
  3
ISM
 90
        0
280
     0
281
     0
  0
ENDSEC
  0
SECTION
  2
TABLES
  0
TABLE
  2
VPORT
  5
8
330
0
100
AcDbSymbolTable
 70
     1
  0
VPORT
  5
29
330
8
100
AcDbSymbolTableRecord
100
AcDbViewportTableRecord
  2
*Active
 70
     0
 10
0.0
 20
0.0
 11
1.0
 21
1.0
 12
13.36777988613997
 22
-0.9543986220320235
 13
0.0
 23
0.0
 14
10.0
 24
10.0
 15
10.0
 25
10.0
 16
0.0
 26
0.0
 36
1.0
 17
0.0
 27
0.0
 37
0.0
 40
112.5925881315802
 41
1.970186335403727
 42
50.0
 43
0.0
 44
0.0
 50
0.0
 51
0.0
 71
    16
 72
  2000
 73
     1
 74
     3
 75
     0
 76
     0
 77
     0
 78
     0
281
     0
 65
     1
110
0.0
120
0.0
130
0.0
111
1.0
121
0.0
131
0.0
112
0.0
122
1.0
132
0.0
 79
     0
146
0.0
  0
ENDTAB
  0
TABLE
  2
LTYPE
  5
5
330
0
100
AcDbSymbolTable
 70
     6
  0
LTYPE
  5
14
330
5
100
AcDbSymbolTableRecord
100
AcDbLinetypeTableRecord
  2
ByBlock
 70
     0
  3

 72
    65
 73
     0
 40
0.0
  0
LTYPE
  5
15
330
5
100
AcDbSymbolTableRecord
100
AcDbLinetypeTableRecord
  2
ByLayer
 70
     0
  3

 72
    65
 73
     0
 40
0.0
  0
LTYPE
  5
16
330
5
100
AcDbSymbolTableRecord
100
AcDbLinetypeTableRecord
  2
Continuous
 70
     0
  3
Solid line
 72
    65
 73
     0
 40
0.0
  0
LTYPE
  5
6A
330
5
100
AcDbSymbolTableRecord
100
AcDbLinetypeTableRecord
  2
HIDDEN
 70
     0
  3
Hidden __ __ __ __ __ __ __ __ __ __ __ __ __ __
 72
    65
 73
     2
 40
1.905
 49
1.27
 74
     0
 49
-0.635
 74
     0
  0
LTYPE
  5
6B
330
5
100
AcDbSymbolTableRecord
100
AcDbLinetypeTableRecord
  2
PHANTOM
 70
     0
  3
Phantom ______  __  __  ______  __  __  ______
 72
    65
 73
     6
 40
12.7
 49
6.35
 74
     0
 49
-1.27
 74
     0
 49
1.27
 74
     0
 49
-1.27
 74
     0
 49
1.27
 74
     0
 49
-1.27
 74
     0
  0
LTYPE
  5
6C
330
5
100
AcDbSymbolTableRecord
100
AcDbLinetypeTableRecord
  2
CENTER
 70
     0
  3
Center ____ _ ____ _ ____ _ ____ _ ____ _ ____
 72
    65
 73
     4
 40
10.16
 49
6.35
 74
     0
 49
-1.27
 74
     0
 49
1.27
 74
     0
 49
-1.27
 74
     0
  0
LTYPE
  5
6D
330
5
100
AcDbSymbolTableRecord
100
AcDbLinetypeTableRecord
  2
CENTERX2
 70
     0
  3
Center (2x) ________  __  ________  __  _____
 72
    65
 73
     4
 40
20.32
 49
12.7
 74
     0
 49
-2.54
 74
     0
 49
2.54
 74
     0
 49
-2.54
 74
     0
  0
LTYPE
  5
6E
330
5
100
AcDbSymbolTableRecord
100
AcDbLinetypeTableRecord
  2
DOT2
 70
     0
  3
Dot (.5x) ........................................
 72
    65
 73
     2
 40
0.635
 49
0.0
 74
     0
 49
-0.635
 74
     0
  0
ENDTAB
  0
TABLE
  2
LAYER
  5
2
102
{ACAD_XDICTIONARY
360
20E
102
}
330
0
100
AcDbSymbolTable
 70
    18
  0
LAYER
  5
10
330
2
100
AcDbSymbolTableRecord
100
AcDbLayerTableRecord
  2
0
 70
     0
 62
     7
  6
Continuous
370
    -3
390
F
  0
LAYER
  5
6F
330
2
100
AcDbSymbolTableRecord
100
AcDbLayerTableRecord
  2
FORMAT
 70
     0
 62
     2
  6
Continuous
370
    -3
390
F
  0
LAYER
  5
70
330
2
100
AcDbSymbolTableRecord
100
AcDbLayerTableRecord
  2
외형선
 70
     0
 62
     4
  6
Continuous
370
    30
390
F
  0
LAYER
  5
71
330
2
100
AcDbSymbolTableRecord
100
AcDbLayerTableRecord
  2
숨은선
 70
     0
 62
     2
  6
HIDDEN
370
    15
390
F
  0
LAYER
  5
72
330
2
100
AcDbSymbolTableRecord
100
AcDbLayerTableRecord
  2
중심선
 70
     0
 62
     1
  6
CENTERX2
370
    -3
390
F
  0
LAYER
  5
73
330
2
100
AcDbSymbolTableRecord
100
AcDbLayerTableRecord
  2
파단선
 70
     0
 62
     4
  6
Continuous
370
    -3
390
F
  0
LAYER
  5
74
330
2
100
AcDbSymbolTableRecord
100
AcDbLayerTableRecord
  2
해칭선
 70
     0
 62
   100
  6
Continuous
370
    -3
390
F
  0
LAYER
  5
75
330
2
100
AcDbSymbolTableRecord
100
AcDbLayerTableRecord
  2
가는실선
 70
     0
 62
     4
  6
Continuous
370
    -3
390
F
  0
LAYER
  5
76
330
2
100
AcDbSymbolTableRecord
100
AcDbLayerTableRecord
  2
치수_보조선
 70
     0
 62
     4
  6
Continuous
370
    -3
390
F
  0
LAYER
  5
77
330
2
100
AcDbSymbolTableRecord
100
AcDbLayerTableRecord
  2
치수문자_일반주서
 70
     0
 62
     7
  6
Continuous
370
    15
390
F
  0
LAYER
  5
78
330
2
100
AcDbSymbolTableRecord
100
AcDbLayerTableRecord
  2
개별주서
 70
     0
 62
   100
  6
Continuous
370
    30
390
F
  0
LAYER
  5
79
330
2
100
AcDbSymbolTableRecord
100
AcDbLayerTableRecord
  2
중간선
 70
     0
 62
     2
  6
Continuous
370
    15
390
F
  0
LAYER
  5
7A
330
2
100
AcDbSymbolTableRecord
100
AcDbLayerTableRecord
  2
윤곽선
 70
     0
 62
     3
  6
Continuous
370
    40
390
F
  0
LAYER
  5
7B
330
2
100
AcDbSymbolTableRecord
100
AcDbLayerTableRecord
  2
중심마크
 70
     0
 62
   100
  6
Continuous
370
    30
390
F
  0
LAYER
  5
7C
330
2
100
AcDbSymbolTableRecord
100
AcDbLayerTableRecord
  2
가상선
 70
     0
 62
     4
  6
PHANTOM
370
    -3
390
F
  0
LAYER
  5
7D
330
2
100
AcDbSymbolTableRecord
100
AcDbLayerTableRecord
  2
특수지정선
 70
     0
 62
     5
  6
CENTERX2
370
    60
390
F
  0
LAYER
  5
7E
330
2
100
AcDbSymbolTableRecord
100
AcDbLayerTableRecord
  2
참조1
 70
     0
 62
    -4
  6
Continuous
370
    -3
390
F
  0
LAYER
  5
156
330
2
100
AcDbSymbolTableRecord
100
AcDbLayerTableRecord
  2
Defpoints
 70
     0
 62
     7
  6
Continuous
290
     0
370
    -3
390
F
  0
ENDTAB
  0
TABLE
  2
STYLE
  5
3
330
0
100
AcDbSymbolTable
 70
     2
  0
STYLE
  5
11
330
3
100
AcDbSymbolTableRecord
100
AcDbTextStyleTableRecord
  2
Standard
 70
     0
 40
0.0
 41
1.0
 50
0.0
 71
     0
 42
3.5
  3
txt
  4

  0
STYLE
  5
94
330
3
100
AcDbSymbolTableRecord
100
AcDbTextStyleTableRecord
  2
SLDTEXTSTYLE0
 70
     0
 40
0.0
 41
0.75
 50
0.0
 71
     0
 42
3.5
  3
TXT
  4

  0
ENDTAB
  0
TABLE
  2
VIEW
  5
6
330
0
100
AcDbSymbolTable
 70
     0
  0
ENDTAB
  0
TABLE
  2
UCS
  5
7
330
0
100
AcDbSymbolTable
 70
     0
  0
ENDTAB
  0
TABLE
  2
APPID
  5
9
330
0
100
AcDbSymbolTable
 70
     3
  0
APPID
  5
12
330
9
100
AcDbSymbolTableRecord
100
AcDbRegAppTableRecord
  2
ACAD
 70
     0
  0
APPID
  5
162
330
9
100
AcDbSymbolTableRecord
100
AcDbRegAppTableRecord
  2
PE_URL
 70
     0
  0
APPID
  5
163
330
9
100
AcDbSymbolTableRecord
100
AcDbRegAppTableRecord
  2
ACAD_DSTYLE_DIMRADIAL_EXTENSION
 70
     0
  0
ENDTAB
  0
TABLE
  2
DIMSTYLE
  5
A
330
0
100
AcDbSymbolTable
 70
     4
100
AcDbDimStyleTable
  0
DIMSTYLE
105
27
330
A
100
AcDbSymbolTableRecord
100
AcDbDimStyleTableRecord
  2
ISO-25
 70
     0
 41
2.5
 42
0.625
 43
3.75
 44
1.25
 73
     0
 74
     0
 77
     1
 78
     8
140
2.5
141
2.5
143
0.03937007874016
147
0.625
171
     3
172
     1
178
     0
271
     2
272
     2
274
     3
278
    44
283
     0
284
     8
340
11
  0
DIMSTYLE
105
D2
102
{ACAD_REACTORS
330
D1
330
10F
330
1C2
330
1CF
330
E6
330
FB
102
}
330
A
100
AcDbSymbolTableRecord
100
AcDbDimStyleTableRecord
  2
SLDDIMSTYLE0
 70
     0
 41
3.302
 44
0.0
 45
0.000000001
 73
     0
 74
     0
 77
     1
 78
    12
 79
     3
140
3.5
143
0.0393700787401575
147
0.875
148
0.000000001
170
     1
172
     1
173
     1
178
     0
271
     2
272
     2
276
     2
284
    12
289
     0
340
94
  0
DIMSTYLE
105
E7
102
{ACAD_REACTORS
330
205
102
}
330
A
100
AcDbSymbolTableRecord
100
AcDbDimStyleTableRecord
  2
SLDDIMSTYLE1
 70
     0
 41
3.302
 44
0.0
 45
0.000000001
 73
     0
 74
     0
 77
     1
 78
    12
 79
     3
140
3.5
143
0.0393700787401575
147
0.875
148
0.000000001
170
     1
173
     1
178
     0
271
     2
272
     2
276
     2
284
    12
340
94
  0
DIMSTYLE
105
FC
102
{ACAD_REACTORS
330
1DC
330
1EB
102
}
330
A
100
AcDbSymbolTableRecord
100
AcDbDimStyleTableRecord
  2
SLDDIMSTYLE2
 70
     0
 41
3.302
 44
0.0
 45
0.000000001
 73
     0
 74
     0
 77
     1
 78
     4
 79
     1
140
3.5
143
0.0393700787401575
147
0.875
148
0.000000001
170
     1
173
     1
178
     0
271
     2
272
     2
276
     2
284
    12
340
94
  0
ENDTAB
  0
TABLE
  2
BLOCK_RECORD
  5
1
330
0
100
AcDbSymbolTable
 70
    18
  0
BLOCK_RECORD
  5
1F
330
1
100
AcDbSymbolTableRecord
100
AcDbBlockTableRecord
  2
*Model_Space
340
22
  0
BLOCK_RECORD
  5
1B
330
1
100
AcDbSymbolTableRecord
100
AcDbBlockTableRecord
  2
*Paper_Space
340
1E
  0
BLOCK_RECORD
  5
23
330
1
100
AcDbSymbolTableRecord
100
AcDbBlockTableRecord
  2
*Paper_Space0
340
26
  0
BLOCK_RECORD
  5
7F
330
1
100
AcDbSymbolTableRecord
100
AcDbBlockTableRecord
  2
블럭10
340
0
102
{BLKREFS
331
CA
102
}
  0
BLOCK_RECORD
  5
D3
330
1
100
AcDbSymbolTableRecord
100
AcDbBlockTableRecord
  2
_D
340
0
  0
BLOCK_RECORD
  5
E8
330
1
100
AcDbSymbolTableRecord
100
AcDbBlockTableRecord
  2
_D_1
340
0
  0
BLOCK_RECORD
  5
FD
330
1
100
AcDbSymbolTableRecord
100
AcDbBlockTableRecord
  2
_D_2
340
0
  0
BLOCK_RECORD
  5
110
330
1
100
AcDbSymbolTableRecord
100
AcDbBlockTableRecord
  2
_D_3
340
0
  0
BLOCK_RECORD
  5
12A
330
1
100
AcDbSymbolTableRecord
100
AcDbBlockTableRecord
  2
SW_DOWELSYMBOL_0
340
0
102
{BLKREFS
331
130
331
1FA
331
0
102
}
  0
BLOCK_RECORD
  5
1EC
330
1
100
AcDbSymbolTableRecord
100
AcDbBlockTableRecord
  2
_D_4
340
0
  0
BLOCK_RECORD
  5
206
330
1
100
AcDbSymbolTableRecord
100
AcDbBlockTableRecord
  2
*D9
340
0
  0
BLOCK_RECORD
  5
212
330
1
100
AcDbSymbolTableRecord
100
AcDbBlockTableRecord
  2
*D10
340
0
  0
BLOCK_RECORD
  5
21E
330
1
100
AcDbSymbolTableRecord
100
AcDbBlockTableRecord
  2
*D11
340
0
  0
BLOCK_RECORD
  5
22A
330
1
100
AcDbSymbolTableRecord
100
AcDbBlockTableRecord
  2
*D12
340
0
  0
BLOCK_RECORD
  5
285
330
1
100
AcDbSymbolTableRecord
100
AcDbBlockTableRecord
  2
*D13
340
0
  0
BLOCK_RECORD
  5
291
330
1
100
AcDbSymbolTableRecord
100
AcDbBlockTableRecord
  2
*D14
340
0
  0
BLOCK_RECORD
  5
29D
330
1
100
AcDbSymbolTableRecord
100
AcDbBlockTableRecord
  2
*D15
340
0
  0
BLOCK_RECORD
  5
2AB
330
1
100
AcDbSymbolTableRecord
100
AcDbBlockTableRecord
  2
*D16
340
0
  0
BLOCK_RECORD
  5
2B9
330
1
100
AcDbSymbolTableRecord
100
AcDbBlockTableRecord
  2
*D17
340
0
  0
ENDTAB
  0
ENDSEC
  0
SECTION
  2
BLOCKS
  0
BLOCK
  5
20
330
1F
100
AcDbEntity
  8
0
100
AcDbBlockBegin
  2
*Model_Space
 70
     0
 10
0.0
 20
0.0
 30
0.0
  3
*Model_Space
  1
*Model_Space
  0
ENDBLK
  5
21
330
1F
100
AcDbEntity
  8
0
100
AcDbBlockEnd
  0
BLOCK
  5
1C
330
1B
100
AcDbEntity
 67
     1
  8
0
100
AcDbBlockBegin
  2
*Paper_Space
 70
     0
 10
0.0
 20
0.0
 30
0.0
  3
*Paper_Space
  1
*Paper_Space
  0
ENDBLK
  5
1D
330
1B
100
AcDbEntity
 67
     1
  8
0
100
AcDbBlockEnd
  0
BLOCK
  5
24
330
23
100
AcDbEntity
  8
0
100
AcDbBlockBegin
  2
*Paper_Space0
 70
     0
 10
0.0
 20
0.0
 30
0.0
  3
*Paper_Space0
  1
*Paper_Space0
  0
ENDBLK
  5
25
330
23
100
AcDbEntity
  8
0
100
AcDbBlockEnd
  0
BLOCK
  5
80
330
7F
100
AcDbEntity
  8
0
100
AcDbBlockBegin
  2
블럭10
 70
     2
 10
0.0
 20
0.0
 30
0.0
  3
블럭10
  1
블럭10
  0
ELLIPSE
  5
82
330
7F
100
AcDbEntity
  8
중심선
100
AcDbEllipse
 10
20.54032771741204
 20
12.0471743016438
 30
0.0
 11
6.600054785286829
 21
-1.261213355974178E-13
 31
0.0
210
0.0
220
0.0
230
1.0
 40
0.636358354079598
 41
0.9219305317359503
 42
6.513795318482858
  0
ELLIPSE
  5
83
330
7F
100
AcDbEntity
  8
중심선
100
AcDbEllipse
 10
20.54032771746488
 20
12.04717430159265
 30
0.0
 11
3.960054785062283
 21
1.540847449632565E-10
 31
0.0
210
0.0
220
0.0
230
1.0
 40
0.3939339440162632
 41
1.131841032648279
 42
5.62031148352944
  0
LINE
  5
84
330
7F
100
AcDbEntity
  8
중심선
100
AcDbLine
 10
2.268634060543552
 20
16.24717430164393
 30
0.0
 11
5.714909304380834
 21
16.24717430164393
 31
0.0
  0
LINE
  5
85
330
7F
100
AcDbEntity
  8
중심선
100
AcDbLine
 10
5.245725140726316
 20
7.84717430164391
 30
0.0
 11
8.692000384563599
 21
7.84717430164391
 31
0.0
  0
LINE
  5
86
330
7F
100
AcDbEntity
  8
중심선
100
AcDbLine
 10
15.74043728645272
 20
16.24717430164393
 30
0.0
 11
8.692000384563599
 21
7.84717430164391
 31
0.0
  0
LINE
  5
87
330
7F
100
AcDbEntity
  8
중심선
100
AcDbLine
 10
0.1404042013395286
 20
13.71084872107135
 30
0.0
 11
3.58671253028996
 21
13.71088815037384
 31
0.0
  0
LINE
  5
88
330
7F
100
AcDbEntity
  8
중심선
100
AcDbLine
 10
2.750260043222114
 20
10.84717430164391
 30
0.0
 11
6.196535287059397
 21
10.84717430164391
 31
0.0
  0
LINE
  5
89
330
7F
100
AcDbEntity
  8
중심선
100
AcDbLine
 10
12.29416204261559
 20
16.24717430164393
 30
0.0
 11
5.245725140726316
 21
7.84717430164391
 31
0.0
  0
LINE
  5
8A
330
7F
100
AcDbEntity
  8
중심선
100
AcDbLine
 10
10.72767329541681
 20
16.24717430164393
 30
0.0
 11
6.196535287059397
 21
10.84717430164391
 31
0.0
  0
LINE
  5
8B
330
7F
100
AcDbEntity
  8
중심선
100
AcDbLine
 10
7.28139805157953
 20
16.24717430164393
 30
0.0
 11
2.750260043222114
 21
10.84717430164391
 31
0.0
  0
LINE
  5
8C
330
7F
100
AcDbEntity
  8
중심선
100
AcDbLine
 10
5.714909304380834
 20
16.24717430164393
 30
0.0
 11
3.58671253028996
 21
13.71088815037384
 31
0.0
  0
LINE
  5
8D
330
7F
100
AcDbEntity
  8
중심선
100
AcDbLine
 10
2.268634060543552
 20
16.24717430164393
 30
0.0
 11
0.1404042013395286
 21
13.71084872107135
 31
0.0
  0
LINE
  5
8E
330
7F
100
AcDbEntity
  8
중심선
100
AcDbLine
 10
7.28139805157953
 20
16.24717430164393
 30
0.0
 11
10.72767329541681
 21
16.24717430164393
 31
0.0
  0
LINE
  5
8F
330
7F
100
AcDbEntity
  8
중심선
100
AcDbLine
 10
12.29416204261559
 20
16.24717430164393
 30
0.0
 11
15.74043728645272
 21
16.24717430164393
 31
0.0
  0
LINE
  5
90
330
7F
100
AcDbEntity
  8
중심선
100
AcDbLine
 10
19.22036997980202
 20
11.08717430171403
 30
0.0
 11
23.66174974927406
 21
11.08717430171406
 31
0.0
  0
LINE
  5
91
330
7F
100
AcDbEntity
  8
중심선
100
AcDbLine
 10
19.22039502424796
 20
13.00717430171391
 30
0.0
 11
19.22036997980202
 21
11.08717430171403
 31
0.0
  0
LINE
  5
92
330
7F
100
AcDbEntity
  8
중심선
100
AcDbLine
 10
19.22039502424796
 20
13.00717430171391
 30
0.0
 11
26.96566020931264
 21
13.00717430171391
 31
0.0
  0
LINE
  5
93
330
7F
100
AcDbEntity
  8
중심선
100
AcDbLine
 10
22.22332737316547
 20
13.45928029700563
 30
0.0
 11
24.52862924686651
 21
15.39360700705356
 31
0.0
  0
ATTDEF
  5
95
330
7F
100
AcDbEntity
  8
FORMAT
 62
     2
100
AcDbText
 10
4.408487351596664
 20
2.075366912832191
 30
0.0
 40
4.233333333333333
  1
E5067020
 41
0.75
  7
SLDTEXTSTYLE0
 11
4.408487351596664
 21
-0.0412997538344756
 31
0.0
100
AcDbAttributeDefinition
  3

  2
AUTOATTR0
 70
     0
 74
     1
  0
ENDBLK
  5
81
330
7F
100
AcDbEntity
  8
0
100
AcDbBlockEnd
  0
BLOCK
  5
D4
330
D3
100
AcDbEntity
  8
0
100
AcDbBlockBegin
  2
_D
 70
     0
 10
0.0
 20
0.0
 30
0.0
  3
_D
  1
_D
  0
LINE
  5
D6
330
D3
100
AcDbEntity
  8
치수문자_일반주서
 62
     0
370
    -2
100
AcDbLine
 10
30.7
 20
3.922731613724254
 30
0.0
 11
46.53364345078221
 21
3.922731613724313
 31
0.0
  0
LINE
  5
D7
330
D3
100
AcDbEntity
  8
치수문자_일반주서
 62
     0
370
    -2
100
AcDbLine
 10
30.7
 20
-4.014768386275751
 30
0.0
 11
46.53364345078224
 21
-4.014768386275691
 31
0.0
  0
LINE
  5
D8
330
D3
100
AcDbEntity
  8
치수문자_일반주서
 62
     0
370
    -2
100
AcDbLine
 10
46.53364345078221
 20
3.922731613724313
 30
0.0
 11
46.53364345078209
 21
38.52673161372431
 31
0.0
  0
LINE
  5
D9
330
D3
100
AcDbEntity
  8
치수문자_일반주서
 62
     0
370
    -2
100
AcDbLine
 10
46.53364345078221
 20
3.922731613724313
 30
0.0
 11
46.53364345078224
 21
-4.014768386275691
 31
0.0
  0
LINE
  5
DA
330
D3
100
AcDbEntity
  8
치수문자_일반주서
 62
     0
370
    -2
100
AcDbLine
 10
46.53364345078219
 20
7.224731613724312
 30
0.0
 11
46.53364345078218
 21
10.52673161372431
 31
0.0
  0
LINE
  5
DB
330
D3
100
AcDbEntity
  8
치수문자_일반주서
 62
     0
370
    -2
100
AcDbLine
 10
46.53364345078225
 20
-7.31676838627569
 30
0.0
 11
46.53364345078226
 21
-10.61876838627569
 31
0.0
  0
SOLID
  5
DC
330
D3
100
AcDbEntity
  8
치수문자_일반주서
 62
     0
100
AcDbTrace
 10
45.98331011744886
 20
7.224731613724311
 30
0.0
 11
47.08397678411553
 21
7.224731613724314
 31
0.0
 12
46.53364345078221
 22
3.922731613724313
 32
0.0
 13
46.53364345078221
 23
3.922731613724313
 33
0.0
  0
SOLID
  5
DD
330
D3
100
AcDbEntity
  8
치수문자_일반주서
 62
     0
100
AcDbTrace
 10
47.08397678411558
 20
-7.316768386275688
 30
0.0
 11
45.98331011744892
 21
-7.316768386275692
 31
0.0
 12
46.53364345078224
 22
-4.014768386275691
 32
0.0
 13
46.53364345078224
 23
-4.014768386275691
 33
0.0
  0
MTEXT
  5
DE
330
D3
100
AcDbEntity
  8
치수문자_일반주서
 62
     0
100
AcDbMText
 10
42.15864345078214
 20
24.52673161372429
 30
0.0
 40
3.5
 41
0.0
 71
     2
 72
     1
  1
\A1;%%c7.94 [5/16]
  7
SLDTEXTSTYLE0
 11
-3.580687802255621E-15
 21
1.0
 31
0.0
 73
     1
 44
1.0
  0
POINT
  5
DF
330
D3
100
AcDbEntity
  8
Defpoints
 62
     0
100
AcDbPoint
 10
30.6375
 20
3.922731613724253
 30
0.0
  0
POINT
  5
E0
330
D3
100
AcDbEntity
  8
Defpoints
 62
     0
100
AcDbPoint
 10
30.6375
 20
-4.014768386275751
 30
0.0
  0
POINT
  5
E1
330
D3
100
AcDbEntity
  8
Defpoints
 62
     0
100
AcDbPoint
 10
46.53364345078224
 20
-4.014768386275692
 30
0.0
  0
ENDBLK
  5
D5
330
D3
100
AcDbEntity
  8
0
100
AcDbBlockEnd
  0
BLOCK
  5
E9
330
E8
100
AcDbEntity
  8
0
100
AcDbBlockBegin
  2
_D_1
 70
     0
 10
0.0
 20
0.0
 30
0.0
  3
_D_1
  1
_D_1
  0
LINE
  5
EB
330
E8
100
AcDbEntity
  8
치수문자_일반주서
 62
     0
370
    -2
100
AcDbLine
 10
30.6375
 20
3.956269862625843
 30
0.0
 11
30.6375
 21
20.64206749063194
 31
0.0
  0
LINE
  5
EC
330
E8
100
AcDbEntity
  8
치수문자_일반주서
 62
     0
370
    -2
100
AcDbLine
 10
9.999999999999986
 20
3.719363937283716
 30
0.0
 11
9.999999999999986
 21
20.64206749063194
 31
0.0
  0
LINE
  5
ED
330
E8
100
AcDbEntity
  8
치수문자_일반주서
 62
     0
370
    -2
100
AcDbLine
 10
9.999999999999986
 20
20.64206749063194
 30
0.0
 11
-25.91650000000001
 21
20.64206749063194
 31
0.0
  0
LINE
  5
EE
330
E8
100
AcDbEntity
  8
치수문자_일반주서
 62
     0
370
    -2
100
AcDbLine
 10
30.6375
 20
20.64206749063194
 30
0.0
 11
9.999999999999986
 21
20.64206749063194
 31
0.0
  0
LINE
  5
EF
330
E8
100
AcDbEntity
  8
치수문자_일반주서
 62
     0
370
    -2
100
AcDbLine
 10
33.9395
 20
20.64206749063194
 30
0.0
 11
37.2415
 21
20.64206749063194
 31
0.0
  0
LINE
  5
F0
330
E8
100
AcDbEntity
  8
치수문자_일반주서
 62
     0
370
    -2
100
AcDbLine
 10
6.697999999999986
 20
20.64206749063194
 30
0.0
 11
3.395999999999987
 21
20.64206749063194
 31
0.0
  0
SOLID
  5
F1
330
E8
100
AcDbEntity
  8
치수문자_일반주서
 62
     0
100
AcDbTrace
 10
33.9395
 20
21.19240082396528
 30
0.0
 11
33.9395
 21
20.09173415729861
 31
0.0
 12
30.6375
 22
20.64206749063194
 32
0.0
 13
30.6375
 23
20.64206749063194
 33
0.0
  0
SOLID
  5
F2
330
E8
100
AcDbEntity
  8
치수문자_일반주서
 62
     0
100
AcDbTrace
 10
6.697999999999986
 20
20.09173415729861
 30
0.0
 11
6.697999999999986
 21
21.19240082396528
 31
0.0
 12
9.999999999999986
 22
20.64206749063194
 32
0.0
 13
9.999999999999986
 23
20.64206749063194
 33
0.0
  0
MTEXT
  5
F3
330
E8
100
AcDbEntity
  8
치수문자_일반주서
 62
     0
100
AcDbMText
 10
-11.26025000000001
 20
25.01706749063194
 30
0.0
 40
3.5
 41
0.0
 71
     2
 72
     1
  1
\A1;20.64 [13/16]
  7
SLDTEXTSTYLE0
 73
     1
 44
1.0
  0
POINT
  5
F4
330
E8
100
AcDbEntity
  8
Defpoints
 62
     0
100
AcDbPoint
 10
30.6375
 20
3.893769862625843
 30
0.0
  0
POINT
  5
F5
330
E8
100
AcDbEntity
  8
Defpoints
 62
     0
100
AcDbPoint
 10
9.999999999999986
 20
3.656863937283716
 30
0.0
  0
POINT
  5
F6
330
E8
100
AcDbEntity
  8
Defpoints
 62
     0
100
AcDbPoint
 10
9.999999999999986
 20
20.64206749063194
 30
0.0
  0
ENDBLK
  5
EA
330
E8
100
AcDbEntity
  8
0
100
AcDbBlockEnd
  0
BLOCK
  5
FE
330
FD
100
AcDbEntity
  8
0
100
AcDbBlockBegin
  2
_D_2
 70
     0
 10
0.0
 20
0.0
 30
0.0
  3
_D_2
  1
_D_2
  0
LINE
  5
100
330
FD
100
AcDbEntity
  8
치수문자_일반주서
 62
     0
370
    -2
100
AcDbLine
 10
30.6375
 20
3.956269862625843
 30
0.0
 11
30.6375
 21
47.50353455355771
 31
0.0
  0
LINE
  5
101
330
FD
100
AcDbEntity
  8
치수문자_일반주서
 62
     0
370
    -2
100
AcDbLine
 10
-32.8625
 20
3.191481613724255
 30
0.0
 11
-32.8625
 21
47.50353455355771
 31
0.0
  0
LINE
  5
102
330
FD
100
AcDbEntity
  8
치수문자_일반주서
 62
     0
370
    -2
100
AcDbLine
 10
27.3355
 20
47.50353455355771
 30
0.0
 11
-29.5605
 21
47.50353455355771
 31
0.0
  0
SOLID
  5
103
330
FD
100
AcDbEntity
  8
치수문자_일반주서
 62
     0
100
AcDbTrace
 10
27.3355
 20
46.95320122022438
 30
0.0
 11
27.3355
 21
48.05386788689105
 31
0.0
 12
30.6375
 22
47.50353455355771
 32
0.0
 13
30.6375
 23
47.50353455355771
 33
0.0
  0
SOLID
  5
104
330
FD
100
AcDbEntity
  8
치수문자_일반주서
 62
     0
100
AcDbTrace
 10
-29.5605
 20
48.05386788689105
 30
0.0
 11
-29.5605
 21
46.95320122022438
 31
0.0
 12
-32.8625
 22
47.50353455355771
 32
0.0
 13
-32.8625
 23
47.50353455355771
 33
0.0
  0
MTEXT
  5
105
330
FD
100
AcDbEntity
  8
치수문자_일반주서
 62
     0
100
AcDbMText
 10
-1.112499999999999
 20
51.87853455355771
 30
0.0
 40
3.5
 41
0.0
 71
     2
 72
     1
  1
\A1;63.5 [2 1/2]
  7
SLDTEXTSTYLE0
 73
     1
 44
1.0
  0
POINT
  5
106
330
FD
100
AcDbEntity
  8
Defpoints
 62
     0
100
AcDbPoint
 10
30.6375
 20
3.893769862625843
 30
0.0
  0
POINT
  5
107
330
FD
100
AcDbEntity
  8
Defpoints
 62
     0
100
AcDbPoint
 10
-32.8625
 20
3.128981613724255
 30
0.0
  0
POINT
  5
108
330
FD
100
AcDbEntity
  8
Defpoints
 62
     0
100
AcDbPoint
 10
-32.8625
 20
47.50353455355771
 30
0.0
  0
ENDBLK
  5
FF
330
FD
100
AcDbEntity
  8
0
100
AcDbBlockEnd
  0
BLOCK
  5
111
330
110
100
AcDbEntity
  8
0
100
AcDbBlockBegin
  2
_D_3
 70
     0
 10
0.0
 20
0.0
 30
0.0
  3
_D_3
  1
_D_3
  0
LINE
  5
113
330
110
100
AcDbEntity
  8
치수문자_일반주서
 62
     0
370
    -2
100
AcDbLine
 10
-32.13124999999999
 20
3.922731613724245
 30
0.0
 11
-42.89132280062574
 21
3.922731613724203
 31
0.0
  0
LINE
  5
114
330
110
100
AcDbEntity
  8
치수문자_일반주서
 62
     0
370
    -2
100
AcDbLine
 10
-32.13124999999999
 20
-4.014768386275741
 30
0.0
 11
-42.89132280062572
 21
-4.014768386275783
 31
0.0
  0
LINE
  5
115
330
110
100
AcDbEntity
  8
치수문자_일반주서
 62
     0
370
    -2
100
AcDbLine
 10
-42.89132280062574
 20
3.922731613724203
 30
0.0
 11
-42.89132280062586
 21
38.52673161372421
 31
0.0
  0
LINE
  5
116
330
110
100
AcDbEntity
  8
치수문자_일반주서
 62
     0
370
    -2
100
AcDbLine
 10
-42.89132280062574
 20
3.922731613724203
 30
0.0
 11
-42.89132280062572
 21
-4.014768386275783
 31
0.0
  0
LINE
  5
117
330
110
100
AcDbEntity
  8
치수문자_일반주서
 62
     0
370
    -2
100
AcDbLine
 10
-42.89132280062576
 20
7.224731613724202
 30
0.0
 11
-42.89132280062577
 21
10.5267316137242
 31
0.0
  0
LINE
  5
118
330
110
100
AcDbEntity
  8
치수문자_일반주서
 62
     0
370
    -2
100
AcDbLine
 10
-42.8913228006257
 20
-7.316768386275783
 30
0.0
 11
-42.89132280062569
 21
-10.61876838627578
 31
0.0
  0
SOLID
  5
119
330
110
100
AcDbEntity
  8
치수문자_일반주서
 62
     0
100
AcDbTrace
 10
-43.44165613395909
 20
7.224731613724201
 30
0.0
 11
-42.34098946729242
 21
7.224731613724204
 31
0.0
 12
-42.89132280062574
 22
3.922731613724203
 32
0.0
 13
-42.89132280062574
 23
3.922731613724203
 33
0.0
  0
SOLID
  5
11A
330
110
100
AcDbEntity
  8
치수문자_일반주서
 62
     0
100
AcDbTrace
 10
-42.34098946729237
 20
-7.316768386275781
 30
0.0
 11
-43.44165613395904
 21
-7.316768386275784
 31
0.0
 12
-42.89132280062572
 22
-4.014768386275783
 32
0.0
 13
-42.89132280062572
 23
-4.014768386275783
 33
0.0
  0
MTEXT
  5
11B
330
110
100
AcDbEntity
  8
치수문자_일반주서
 62
     0
100
AcDbMText
 10
-47.26632280062582
 20
24.52673161372419
 30
0.0
 40
3.5
 41
0.0
 71
     2
 72
     1
  1
\A1;%%c7.94 [5/16]
  7
SLDTEXTSTYLE0
 11
-3.580687802255629E-15
 21
1.0
 31
0.0
 73
     1
 44
1.0
  0
POINT
  5
2C3
330
110
100
AcDbEntity
  8
Defpoints
 62
     0
100
AcDbPoint
 10
-32.06874999999999
 20
3.922731613724245
 30
0.0
  0
POINT
  5
2C4
330
110
100
AcDbEntity
  8
Defpoints
 62
     0
100
AcDbPoint
 10
-32.06874999999999
 20
-4.014768386275741
 30
0.0
  0
POINT
  5
2C5
330
110
100
AcDbEntity
  8
Defpoints
 62
     0
100
AcDbPoint
 10
-42.89132280062572
 20
-4.014768386275782
 30
0.0
  0
ENDBLK
  5
112
330
110
100
AcDbEntity
  8
0
100
AcDbBlockEnd
  0
BLOCK
  5
12B
330
12A
100
AcDbEntity
  8
0
100
AcDbBlockBegin
  2
SW_DOWELSYMBOL_0
 70
     0
 10
0.0
 20
0.0
 30
0.0
  3
SW_DOWELSYMBOL_0
  1
SW_DOWELSYMBOL_0
  0
CIRCLE
  5
12D
330
12A
100
AcDbEntity
  8
해칭선
 62
     0
100
AcDbCircle
 10
0.0
 20
0.0
 30
0.0
 40
3.0
  0
HATCH
  5
12E
330
12A
100
AcDbEntity
  8
0
  6
Continuous
 62
     0
370
     0
100
AcDbHatch
 10
0.0
 20
0.0
 30
0.0
210
0.0
220
0.0
230
1.0
  2
SOLID
 70
     1
 71
     0
 91
        1
 92
        0
 93
        3
 72
     2
 10
0.0
 20
0.0
 40
3.0
 50
0.0
 51
90.0
 73
     1
 72
     1
 10
0.0
 20
3.0
 11
0.0
 21
0.0
 72
     1
 10
0.0
 20
0.0
 11
2.999999999999999
 21
0.0
 97
        0
 75
     0
 76
     1
 98
        1
 10
0.0
 20
0.0
  0
HATCH
  5
12F
330
12A
100
AcDbEntity
  8
0
  6
Continuous
 62
     0
370
     0
100
AcDbHatch
 10
0.0
 20
0.0
 30
0.0
210
0.0
220
0.0
230
1.0
  2
SOLID
 70
     1
 71
     0
 91
        1
 92
        0
 93
        3
 72
     2
 10
0.0
 20
0.0
 40
3.0
 50
180.0
 51
270.0000000000008
 73
     1
 72
     1
 10
0.0
 20
-3.0
 11
0.0
 21
0.0
 72
     1
 10
0.0
 20
0.0
 11
-2.999999999999999
 21
0.0
 97
        0
 75
     0
 76
     1
 98
        1
 10
0.0
 20
0.0
  0
ENDBLK
  5
12C
330
12A
100
AcDbEntity
  8
0
100
AcDbBlockEnd
  0
BLOCK
  5
1ED
330
1EC
100
AcDbEntity
  8
0
100
AcDbBlockBegin
  2
_D_4
 70
     0
 10
0.0
 20
0.0
 30
0.0
  3
_D_4
  1
_D_4
  0
LINE
  5
1EE
330
1EC
100
AcDbEntity
  8
치수문자_일반주서
 62
     0
370
    -2
100
AcDbLine
 10
102.4375000000001
 20
36.22143424691529
 30
0.0
 11
117.3750000000001
 21
36.22143424691535
 31
0.0
  0
LINE
  5
1EF
330
1EC
100
AcDbEntity
  8
치수문자_일반주서
 62
     0
370
    -2
100
AcDbLine
 10
102.4375000000001
 20
22.22143424691529
 30
0.0
 11
117.3750000000001
 21
22.22143424691535
 31
0.0
  0
LINE
  5
1F0
330
1EC
100
AcDbEntity
  8
치수문자_일반주서
 62
     0
370
    -2
100
AcDbLine
 10
117.3750000000001
 20
36.22143424691535
 30
0.0
 11
117.3750000000001
 21
22.22143424691535
 31
0.0
  0
LINE
  5
1F1
330
1EC
100
AcDbEntity
  8
치수문자_일반주서
 62
     0
370
    -2
100
AcDbLine
 10
117.3750000000001
 20
39.52343424691535
 30
0.0
 11
117.375
 21
42.82543424691535
 31
0.0
  0
LINE
  5
1F2
330
1EC
100
AcDbEntity
  8
치수문자_일반주서
 62
     0
370
    -2
100
AcDbLine
 10
117.3750000000001
 20
18.91943424691535
 30
0.0
 11
117.3750000000001
 21
15.61743424691535
 31
0.0
  0
SOLID
  5
1F3
330
1EC
100
AcDbEntity
  8
치수문자_일반주서
 62
     0
100
AcDbTrace
 10
116.8246666666667
 20
39.52343424691535
 30
0.0
 11
117.9253333333334
 21
39.52343424691535
 31
0.0
 12
117.3750000000001
 22
36.22143424691535
 32
0.0
 13
117.3750000000001
 23
36.22143424691535
 33
0.0
  0
SOLID
  5
1F4
330
1EC
100
AcDbEntity
  8
치수문자_일반주서
 62
     0
100
AcDbTrace
 10
117.9253333333335
 20
18.91943424691535
 30
0.0
 11
116.8246666666668
 21
18.91943424691535
 31
0.0
 12
117.3750000000001
 22
22.22143424691535
 32
0.0
 13
117.3750000000001
 23
22.22143424691535
 33
0.0
  0
MTEXT
  5
1F5
330
1EC
100
AcDbEntity
  8
치수문자_일반주서
 62
     0
100
AcDbMText
 10
113.0000000000001
 20
29.28713862862833
 30
0.0
 40
3.5
 41
0.0
 71
     2
 72
     1
  1
\A1;%%c14.00 [0.55]
  7
SLDTEXTSTYLE0
 11
-3.045183153257572E-15
 21
1.0
 31
0.0
 73
     1
 44
1.0
  0
POINT
  5
1F6
330
1EC
100
AcDbEntity
  8
Defpoints
 62
     0
100
AcDbPoint
 10
102.3750000000001
 20
36.22143424691529
 30
0.0
  0
POINT
  5
1F7
330
1EC
100
AcDbEntity
  8
Defpoints
 62
     0
100
AcDbPoint
 10
102.3750000000001
 20
22.22143424691529
 30
0.0
  0
POINT
  5
1F8
330
1EC
100
AcDbEntity
  8
Defpoints
 62
     0
100
AcDbPoint
 10
117.3750000000001
 20
22.22143424691535
 30
0.0
  0
ENDBLK
  5
1F9
330
1EC
100
AcDbEntity
  8
0
100
AcDbBlockEnd
  0
BLOCK
  5
207
330
206
100
AcDbEntity
  8
0
100
AcDbBlockBegin
  2
*D9
 70
     1
 10
0.0
 20
0.0
 30
0.0
  3
*D9
  1
*D8
  0
LINE
  5
208
330
206
100
AcDbEntity
  8
치수문자_일반주서
 62
     0
370
    -2
100
AcDbLine
 10
103.8657751816695
 20
19.48229575403651
 30
0.0
 11
119.6194267469468
 21
-6.150060756304035
 31
0.0
  0
MTEXT
  5
209
330
206
100
AcDbEntity
  8
치수문자_일반주서
 62
     0
100
AcDbMText
 10
115.6706384014277
 20
5.288158154535728
 30
0.0
 40
3.5
 41
0.0
 71
     5
 72
     1
  1
\A1;R.5 [R0.02]
  7
SLDTEXTSTYLE0
 11
0.5236126201129557
 21
-0.8519564684057781
 31
0.0
 73
     1
 44
1.0
  0
SOLID
  5
20A
330
206
100
AcDbEntity
  8
치수문자_일반주서
 62
     0
100
AcDbTrace
 10
104.3346352247821
 20
19.77045723263868
 30
0.0
 11
103.3969151385569
 21
19.19413427543435
 31
0.0
 12
102.1368063100565
 22
22.29545601271239
 32
0.0
 13
102.1368063100565
 23
22.29545601271239
 33
0.0
  0
LINE
  5
20B
330
206
100
AcDbEntity
  8
치수문자_일반주서
 62
     0
100
AcDbLine
 10
101.785
 20
22.72143424691529
 30
0.0
 11
101.965
 21
22.72143424691529
 31
0.0
  0
LINE
  5
20C
330
206
100
AcDbEntity
  8
치수문자_일반주서
 62
     0
100
AcDbLine
 10
101.875
 20
22.63143424691529
 30
0.0
 11
101.875
 21
22.81143424691529
 31
0.0
  0
POINT
  5
238
330
206
100
AcDbEntity
  8
Defpoints
 62
     0
100
AcDbPoint
 10
102.1368063100565
 20
22.29545601271239
 30
0.0
  0
POINT
  5
239
330
206
100
AcDbEntity
  8
Defpoints
 62
     0
100
AcDbPoint
 10
101.875
 20
22.72143424691529
 30
0.0
  0
ENDBLK
  5
20D
330
206
100
AcDbEntity
  8
0
100
AcDbBlockEnd
  0
BLOCK
  5
213
330
212
100
AcDbEntity
  8
0
100
AcDbBlockBegin
  2
*D10
 70
     1
 10
0.0
 20
0.0
 30
0.0
  3
*D10
  1
*D10
  0
LINE
  5
215
330
212
100
AcDbEntity
  8
치수문자_일반주서
 62
     0
370
    -2
100
AcDbLine
 10
19.37500000000004
 20
35.78393424691529
 30
0.0
 11
19.37500000000004
 21
70.88391841499404
 31
0.0
  0
LINE
  5
216
330
212
100
AcDbEntity
  8
치수문자_일반주서
 62
     0
370
    -2
100
AcDbLine
 10
102.3750000000001
 20
36.34643424691529
 30
0.0
 11
102.3750000000001
 21
70.88391841499404
 31
0.0
  0
LINE
  5
217
330
212
100
AcDbEntity
  8
치수문자_일반주서
 62
     0
370
    -2
100
AcDbLine
 10
22.67700000000004
 20
70.88391841499404
 30
0.0
 11
99.07300000000006
 21
70.88391841499404
 31
0.0
  0
SOLID
  5
218
330
212
100
AcDbEntity
  8
치수문자_일반주서
 62
     0
100
AcDbTrace
 10
22.67700000000004
 20
71.43425174832737
 30
0.0
 11
22.67700000000004
 21
70.33358508166071
 31
0.0
 12
19.37500000000004
 22
70.88391841499404
 32
0.0
 13
19.37500000000004
 23
70.88391841499404
 33
0.0
  0
SOLID
  5
219
330
212
100
AcDbEntity
  8
치수문자_일반주서
 62
     0
100
AcDbTrace
 10
99.07300000000006
 20
70.33358508166071
 30
0.0
 11
99.07300000000006
 21
71.43425174832737
 31
0.0
 12
102.3750000000001
 22
70.88391841499404
 32
0.0
 13
102.3750000000001
 23
70.88391841499404
 33
0.0
  0
MTEXT
  5
21A
330
212
100
AcDbEntity
  8
치수문자_일반주서
 62
     0
100
AcDbMText
 10
60.87500000000005
 20
75.25891841499404
 30
0.0
 40
3.5
 41
0.0
 71
     2
 72
     1
  1
\A1;83 [3.27]
  7
SLDTEXTSTYLE0
 73
     1
 44
1.0
  0
POINT
  5
21B
330
212
100
AcDbEntity
  8
Defpoints
 62
     0
100
AcDbPoint
 10
19.37500000000004
 20
35.72143424691529
 30
0.0
  0
POINT
  5
21C
330
212
100
AcDbEntity
  8
Defpoints
 62
     0
100
AcDbPoint
 10
102.3750000000001
 20
36.28393424691529
 30
0.0
  0
POINT
  5
21D
330
212
100
AcDbEntity
  8
Defpoints
 62
     0
100
AcDbPoint
 10
102.3750000000001
 20
70.88391841499404
 30
0.0
  0
ENDBLK
  5
214
330
212
100
AcDbEntity
  8
0
100
AcDbBlockEnd
  0
BLOCK
  5
21F
330
21E
100
AcDbEntity
  8
0
100
AcDbBlockBegin
  2
*D11
 70
     1
 10
0.0
 20
0.0
 30
0.0
  3
*D11
  1
*D11
  0
LINE
  5
221
330
21E
100
AcDbEntity
  8
치수문자_일반주서
 62
     0
370
    -2
100
AcDbLine
 10
76.37504186422882
 20
28.62038676313042
 30
0.0
 11
76.37504186422882
 21
61.90091383617725
 31
0.0
  0
LINE
  5
222
330
21E
100
AcDbEntity
  8
치수문자_일반주서
 62
     0
370
    -2
100
AcDbLine
 10
102.3750000000001
 20
36.28393424691529
 30
0.0
 11
102.3750000000001
 21
61.90091383617725
 31
0.0
  0
LINE
  5
223
330
21E
100
AcDbEntity
  8
치수문자_일반주서
 62
     0
370
    -2
100
AcDbLine
 10
79.67704186422881
 20
61.90091383617725
 30
0.0
 11
99.07300000000006
 21
61.90091383617725
 31
0.0
  0
SOLID
  5
224
330
21E
100
AcDbEntity
  8
치수문자_일반주서
 62
     0
100
AcDbTrace
 10
79.67704186422881
 20
62.45124716951059
 30
0.0
 11
79.67704186422881
 21
61.35058050284392
 31
0.0
 12
76.37504186422882
 22
61.90091383617725
 32
0.0
 13
76.37504186422882
 23
61.90091383617725
 33
0.0
  0
SOLID
  5
225
330
21E
100
AcDbEntity
  8
치수문자_일반주서
 62
     0
100
AcDbTrace
 10
99.07300000000006
 20
61.35058050284392
 30
0.0
 11
99.07300000000006
 21
62.45124716951059
 31
0.0
 12
102.3750000000001
 22
61.90091383617725
 32
0.0
 13
102.3750000000001
 23
61.90091383617725
 33
0.0
  0
MTEXT
  5
226
330
21E
100
AcDbEntity
  8
치수문자_일반주서
 62
     0
100
AcDbMText
 10
89.42159572693208
 20
66.27591383617725
 30
0.0
 40
3.5
 41
0.0
 71
     2
 72
     1
  1
\A1;26 [1.02]
  7
SLDTEXTSTYLE0
 73
     1
 44
1.0
  0
POINT
  5
227
330
21E
100
AcDbEntity
  8
Defpoints
 62
     0
100
AcDbPoint
 10
76.37504186422882
 20
28.55788676313042
 30
0.0
  0
POINT
  5
228
330
21E
100
AcDbEntity
  8
Defpoints
 62
     0
100
AcDbPoint
 10
102.3750000000001
 20
36.22143424691529
 30
0.0
  0
POINT
  5
229
330
21E
100
AcDbEntity
  8
Defpoints
 62
     0
100
AcDbPoint
 10
102.3750000000001
 20
61.90091383617725
 30
0.0
  0
ENDBLK
  5
220
330
21E
100
AcDbEntity
  8
0
100
AcDbBlockEnd
  0
BLOCK
  5
22B
330
22A
100
AcDbEntity
  8
0
100
AcDbBlockBegin
  2
*D12
 70
     1
 10
0.0
 20
0.0
 30
0.0
  3
*D12
  1
*D12
  0
LINE
  5
22D
330
22A
100
AcDbEntity
  8
치수문자_일반주서
 62
     0
370
    -2
100
AcDbLine
 10
19.81250000000005
 20
36.22143424691529
 30
0.0
 11
4.374999999999983
 21
36.22143424691524
 31
0.0
  0
LINE
  5
22E
330
22A
100
AcDbEntity
  8
치수문자_일반주서
 62
     0
370
    -2
100
AcDbLine
 10
19.81250000000005
 20
22.22143424691529
 30
0.0
 11
4.375000000000032
 21
22.22143424691524
 31
0.0
  0
LINE
  5
22F
330
22A
100
AcDbEntity
  8
치수문자_일반주서
 62
     0
370
    -2
100
AcDbLine
 10
4.374999999999983
 20
36.22143424691524
 30
0.0
 11
4.375000000000032
 21
22.22143424691524
 31
0.0
  0
LINE
  5
230
330
22A
100
AcDbEntity
  8
치수문자_일반주서
 62
     0
370
    -2
100
AcDbLine
 10
4.374999999999972
 20
39.52343424691524
 30
0.0
 11
4.37499999999996
 21
42.82543424691524
 31
0.0
  0
LINE
  5
231
330
22A
100
AcDbEntity
  8
치수문자_일반주서
 62
     0
370
    -2
100
AcDbLine
 10
4.375000000000044
 20
18.91943424691524
 30
0.0
 11
4.375000000000055
 21
15.61743424691524
 31
0.0
  0
SOLID
  5
232
330
22A
100
AcDbEntity
  8
치수문자_일반주서
 62
     0
100
AcDbTrace
 10
3.824666666666638
 20
39.52343424691524
 30
0.0
 11
4.925333333333305
 21
39.52343424691524
 31
0.0
 12
4.374999999999983
 22
36.22143424691524
 32
0.0
 13
4.374999999999983
 23
36.22143424691524
 33
0.0
  0
SOLID
  5
233
330
22A
100
AcDbEntity
  8
치수문자_일반주서
 62
     0
100
AcDbTrace
 10
4.925333333333377
 20
18.91943424691524
 30
0.0
 11
3.82466666666671
 21
18.91943424691523
 31
0.0
 12
4.375000000000032
 22
22.22143424691524
 32
0.0
 13
4.375000000000032
 23
22.22143424691524
 33
0.0
  0
MTEXT
  5
234
330
22A
100
AcDbEntity
  8
치수문자_일반주서
 62
     0
100
AcDbMText
 10
0.0000000000000071
 20
29.22143424691528
 30
0.0
 40
3.5
 41
0.0
 71
     2
 72
     1
  1
\A1;%%c14.00 [0.55]
  7
SLDTEXTSTYLE0
 11
-3.489272363107635E-15
 21
1.0
 31
0.0
 73
     1
 44
1.0
  0
POINT
  5
235
330
22A
100
AcDbEntity
  8
Defpoints
 62
     0
100
AcDbPoint
 10
19.87500000000005
 20
36.22143424691529
 30
0.0
  0
POINT
  5
236
330
22A
100
AcDbEntity
  8
Defpoints
 62
     0
100
AcDbPoint
 10
19.87500000000005
 20
22.22143424691529
 30
0.0
  0
POINT
  5
237
330
22A
100
AcDbEntity
  8
Defpoints
 62
     0
100
AcDbPoint
 10
4.375000000000043
 20
22.22143424691524
 30
0.0
  0
ENDBLK
  5
22C
330
22A
100
AcDbEntity
  8
0
100
AcDbBlockEnd
  0
BLOCK
  5
286
330
285
100
AcDbEntity
  8
0
100
AcDbBlockBegin
  2
*D13
 70
     1
 10
0.0
 20
0.0
 30
0.0
  3
*D13
  1
*D13
  0
LINE
  5
288
330
285
100
AcDbEntity
  8
치수문자_일반주서
 62
     0
370
    -2
100
AcDbLine
 10
-49.41149957297749
 20
98.05964161440781
 30
0.0
 11
-49.41149957297749
 21
133.1596257824866
 31
0.0
  0
LINE
  5
289
330
285
100
AcDbEntity
  8
치수문자_일반주서
 62
     0
370
    -2
100
AcDbLine
 10
33.58850042702252
 20
98.62214161440781
 30
0.0
 11
33.58850042702252
 21
133.1596257824866
 31
0.0
  0
LINE
  5
28A
330
285
100
AcDbEntity
  8
치수문자_일반주서
 62
     0
370
    -2
100
AcDbLine
 10
-46.10949957297749
 20
133.1596257824866
 30
0.0
 11
30.28650042702252
 21
133.1596257824866
 31
0.0
  0
SOLID
  5
28B
330
285
100
AcDbEntity
  8
치수문자_일반주서
 62
     0
100
AcDbTrace
 10
-46.10949957297749
 20
133.7099591158199
 30
0.0
 11
-46.10949957297749
 21
132.6092924491532
 31
0.0
 12
-49.41149957297749
 22
133.1596257824866
 32
0.0
 13
-49.41149957297749
 23
133.1596257824866
 33
0.0
  0
SOLID
  5
28C
330
285
100
AcDbEntity
  8
치수문자_일반주서
 62
     0
100
AcDbTrace
 10
30.28650042702252
 20
132.6092924491532
 30
0.0
 11
30.28650042702252
 21
133.7099591158199
 31
0.0
 12
33.58850042702252
 22
133.1596257824866
 32
0.0
 13
33.58850042702252
 23
133.1596257824866
 33
0.0
  0
MTEXT
  5
28D
330
285
100
AcDbEntity
  8
치수문자_일반주서
 62
     0
100
AcDbMText
 10
-7.911499572977483
 20
137.5346257824866
 30
0.0
 40
3.5
 41
0.0
 71
     2
 72
     1
  1
\A1;83 [3.27]
  7
SLDTEXTSTYLE0
 73
     1
 44
1.0
  0
POINT
  5
28E
330
285
100
AcDbEntity
  8
Defpoints
 62
     0
100
AcDbPoint
 10
-49.41149957297749
 20
97.99714161440781
 30
0.0
  0
POINT
  5
28F
330
285
100
AcDbEntity
  8
Defpoints
 62
     0
100
AcDbPoint
 10
33.58850042702252
 20
98.55964161440781
 30
0.0
  0
POINT
  5
290
330
285
100
AcDbEntity
  8
Defpoints
 62
     0
100
AcDbPoint
 10
33.58850042702252
 20
133.1596257824866
 30
0.0
  0
ENDBLK
  5
287
330
285
100
AcDbEntity
  8
0
100
AcDbBlockEnd
  0
BLOCK
  5
292
330
291
100
AcDbEntity
  8
0
100
AcDbBlockBegin
  2
*D14
 70
     1
 10
0.0
 20
0.0
 30
0.0
  3
*D14
  1
*D14
  0
LINE
  5
294
330
291
100
AcDbEntity
  8
치수문자_일반주서
 62
     0
370
    -2
100
AcDbLine
 10
7.588542291251287
 20
90.89609413062294
 30
0.0
 11
7.588542291251287
 21
124.1766212036698
 31
0.0
  0
LINE
  5
295
330
291
100
AcDbEntity
  8
치수문자_일반주서
 62
     0
370
    -2
100
AcDbLine
 10
33.58850042702252
 20
98.55964161440781
 30
0.0
 11
33.58850042702252
 21
124.1766212036698
 31
0.0
  0
LINE
  5
296
330
291
100
AcDbEntity
  8
치수문자_일반주서
 62
     0
370
    -2
100
AcDbLine
 10
10.89054229125129
 20
124.1766212036698
 30
0.0
 11
30.28650042702252
 21
124.1766212036698
 31
0.0
  0
SOLID
  5
297
330
291
100
AcDbEntity
  8
치수문자_일반주서
 62
     0
100
AcDbTrace
 10
10.89054229125129
 20
124.7269545370031
 30
0.0
 11
10.89054229125129
 21
123.6262878703364
 31
0.0
 12
7.588542291251287
 22
124.1766212036698
 32
0.0
 13
7.588542291251287
 23
124.1766212036698
 33
0.0
  0
SOLID
  5
298
330
291
100
AcDbEntity
  8
치수문자_일반주서
 62
     0
100
AcDbTrace
 10
30.28650042702252
 20
123.6262878703364
 30
0.0
 11
30.28650042702252
 21
124.7269545370031
 31
0.0
 12
33.58850042702252
 22
124.1766212036698
 32
0.0
 13
33.58850042702252
 23
124.1766212036698
 33
0.0
  0
MTEXT
  5
299
330
291
100
AcDbEntity
  8
치수문자_일반주서
 62
     0
100
AcDbMText
 10
20.63509615395455
 20
128.5516212036698
 30
0.0
 40
3.5
 41
0.0
 71
     2
 72
     1
  1
\A1;26 [1.02]
  7
SLDTEXTSTYLE0
 73
     1
 44
1.0
  0
POINT
  5
29A
330
291
100
AcDbEntity
  8
Defpoints
 62
     0
100
AcDbPoint
 10
7.588542291251287
 20
90.83359413062294
 30
0.0
  0
POINT
  5
29B
330
291
100
AcDbEntity
  8
Defpoints
 62
     0
100
AcDbPoint
 10
33.58850042702252
 20
98.49714161440781
 30
0.0
  0
POINT
  5
29C
330
291
100
AcDbEntity
  8
Defpoints
 62
     0
100
AcDbPoint
 10
33.58850042702252
 20
124.1766212036698
 30
0.0
  0
ENDBLK
  5
293
330
291
100
AcDbEntity
  8
0
100
AcDbBlockEnd
  0
BLOCK
  5
29E
330
29D
100
AcDbEntity
  8
0
100
AcDbBlockBegin
  2
*D15
 70
     1
 10
0.0
 20
0.0
 30
0.0
  3
*D15
  1
*D15
  0
LINE
  5
2A0
330
29D
100
AcDbEntity
  8
치수문자_일반주서
 62
     0
370
    -2
100
AcDbLine
 10
-48.97399957297748
 20
98.49714161440781
 30
0.0
 11
-64.41149957297755
 21
98.49714161440775
 31
0.0
  0
LINE
  5
2A1
330
29D
100
AcDbEntity
  8
치수문자_일반주서
 62
     0
370
    -2
100
AcDbLine
 10
-48.97399957297748
 20
84.49714161440781
 30
0.0
 11
-64.4114995729775
 21
84.49714161440775
 31
0.0
  0
LINE
  5
2A2
330
29D
100
AcDbEntity
  8
치수문자_일반주서
 62
     0
370
    -2
100
AcDbLine
 10
-64.41149957297755
 20
98.49714161440775
 30
0.0
 11
-64.4114995729775
 21
84.49714161440775
 31
0.0
  0
LINE
  5
2A3
330
29D
100
AcDbEntity
  8
치수문자_일반주서
 62
     0
370
    -2
100
AcDbLine
 10
-64.41149957297756
 20
101.7991416144077
 30
0.0
 11
-64.41149957297758
 21
105.1011416144077
 31
0.0
  0
LINE
  5
2A4
330
29D
100
AcDbEntity
  8
치수문자_일반주서
 62
     0
370
    -2
100
AcDbLine
 10
-64.41149957297749
 20
81.19514161440776
 30
0.0
 11
-64.41149957297748
 21
77.89314161440777
 31
0.0
  0
SOLID
  5
2A5
330
29D
100
AcDbEntity
  8
치수문자_일반주서
 62
     0
100
AcDbTrace
 10
-64.96183290631089
 20
101.7991416144077
 30
0.0
 11
-63.86116623964423
 21
101.7991416144077
 31
0.0
 12
-64.41149957297755
 22
98.49714161440775
 32
0.0
 13
-64.41149957297755
 23
98.49714161440775
 33
0.0
  0
SOLID
  5
2A6
330
29D
100
AcDbEntity
  8
치수문자_일반주서
 62
     0
100
AcDbTrace
 10
-63.86116623964416
 20
81.19514161440776
 30
0.0
 11
-64.96183290631082
 21
81.19514161440776
 31
0.0
 12
-64.4114995729775
 22
84.49714161440775
 32
0.0
 13
-64.4114995729775
 23
84.49714161440775
 33
0.0
  0
MTEXT
  5
2A7
330
29D
100
AcDbEntity
  8
치수문자_일반주서
 62
     0
100
AcDbMText
 10
-68.78649957297753
 20
91.4971416144078
 30
0.0
 40
3.5
 41
0.0
 71
     2
 72
     1
  1
\A1;%%c14.00 [0.55]
  7
SLDTEXTSTYLE0
 11
-3.045183153257572E-15
 21
1.0
 31
0.0
 73
     1
 44
1.0
  0
POINT
  5
2A8
330
29D
100
AcDbEntity
  8
Defpoints
 62
     0
100
AcDbPoint
 10
-48.91149957297748
 20
98.49714161440781
 30
0.0
  0
POINT
  5
2A9
330
29D
100
AcDbEntity
  8
Defpoints
 62
     0
100
AcDbPoint
 10
-48.91149957297748
 20
84.49714161440781
 30
0.0
  0
POINT
  5
2AA
330
29D
100
AcDbEntity
  8
Defpoints
 62
     0
100
AcDbPoint
 10
-64.4114995729775
 20
84.49714161440775
 30
0.0
  0
ENDBLK
  5
29F
330
29D
100
AcDbEntity
  8
0
100
AcDbBlockEnd
  0
BLOCK
  5
2AC
330
2AB
100
AcDbEntity
  8
0
100
AcDbBlockBegin
  2
*D16
 70
     1
 10
0.0
 20
0.0
 30
0.0
  3
*D16
  1
*D16
  0
LINE
  5
2AE
330
2AB
100
AcDbEntity
  8
치수문자_일반주서
 62
     0
370
    -2
100
AcDbLine
 10
33.65100042702254
 20
98.49714161440781
 30
0.0
 11
48.58850042702253
 21
98.49714161440787
 31
0.0
  0
LINE
  5
2AF
330
2AB
100
AcDbEntity
  8
치수문자_일반주서
 62
     0
370
    -2
100
AcDbLine
 10
33.65100042702252
 20
84.49714161440781
 30
0.0
 11
48.58850042702258
 21
84.49714161440787
 31
0.0
  0
LINE
  5
2B0
330
2AB
100
AcDbEntity
  8
치수문자_일반주서
 62
     0
370
    -2
100
AcDbLine
 10
48.58850042702253
 20
98.49714161440787
 30
0.0
 11
48.58850042702258
 21
84.49714161440787
 31
0.0
  0
LINE
  5
2B1
330
2AB
100
AcDbEntity
  8
치수문자_일반주서
 62
     0
370
    -2
100
AcDbLine
 10
48.58850042702252
 20
101.7991416144079
 30
0.0
 11
48.5885004270225
 21
105.1011416144079
 31
0.0
  0
LINE
  5
2B2
330
2AB
100
AcDbEntity
  8
치수문자_일반주서
 62
     0
370
    -2
100
AcDbLine
 10
48.58850042702259
 20
81.19514161440787
 30
0.0
 11
48.58850042702261
 21
77.89314161440788
 31
0.0
  0
SOLID
  5
2B3
330
2AB
100
AcDbEntity
  8
치수문자_일반주서
 62
     0
100
AcDbTrace
 10
48.03816709368918
 20
101.7991416144079
 30
0.0
 11
49.13883376035585
 21
101.7991416144079
 31
0.0
 12
48.58850042702253
 22
98.49714161440787
 32
0.0
 13
48.58850042702253
 23
98.49714161440787
 33
0.0
  0
SOLID
  5
2B4
330
2AB
100
AcDbEntity
  8
치수문자_일반주서
 62
     0
100
AcDbTrace
 10
49.13883376035593
 20
81.19514161440787
 30
0.0
 11
48.03816709368926
 21
81.19514161440787
 31
0.0
 12
48.58850042702258
 22
84.49714161440787
 32
0.0
 13
48.58850042702258
 23
84.49714161440787
 33
0.0
  0
MTEXT
  5
2B5
330
2AB
100
AcDbEntity
  8
치수문자_일반주서
 62
     0
100
AcDbMText
 10
44.21350042702255
 20
91.56284599612084
 30
0.0
 40
3.5
 41
0.0
 71
     2
 72
     1
  1
\A1;%%c14.00 [0.55]
  7
SLDTEXTSTYLE0
 11
-3.552713678800501E-15
 21
1.0
 31
0.0
 73
     1
 44
1.0
  0
POINT
  5
2B6
330
2AB
100
AcDbEntity
  8
Defpoints
 62
     0
100
AcDbPoint
 10
33.58850042702254
 20
98.49714161440781
 30
0.0
  0
POINT
  5
2B7
330
2AB
100
AcDbEntity
  8
Defpoints
 62
     0
100
AcDbPoint
 10
33.58850042702252
 20
84.49714161440781
 30
0.0
  0
POINT
  5
2B8
330
2AB
100
AcDbEntity
  8
Defpoints
 62
     0
100
AcDbPoint
 10
48.58850042702258
 20
84.49714161440787
 30
0.0
  0
ENDBLK
  5
2AD
330
2AB
100
AcDbEntity
  8
0
100
AcDbBlockEnd
  0
BLOCK
  5
2BA
330
2B9
100
AcDbEntity
  8
0
100
AcDbBlockBegin
  2
*D17
 70
     1
 10
0.0
 20
0.0
 30
0.0
  3
*D17
  1
*D17
  0
LINE
  5
2BC
330
2B9
100
AcDbEntity
  8
치수문자_일반주서
 62
     0
370
    -2
100
AcDbLine
 10
35.07927560869197
 20
81.75800312152903
 30
0.0
 11
50.83292717396927
 21
56.12564661118847
 31
0.0
  0
MTEXT
  5
2BD
330
2B9
100
AcDbEntity
  8
치수문자_일반주서
 62
     0
100
AcDbMText
 10
46.88413882845015
 20
67.56386552202824
 30
0.0
 40
3.5
 41
0.0
 71
     5
 72
     1
  1
\A1;R.5 [R0.02]
  7
SLDTEXTSTYLE0
 11
0.5236126201129557
 21
-0.8519564684057781
 31
0.0
 73
     1
 44
1.0
  0
SOLID
  5
2BE
330
2B9
100
AcDbEntity
  8
치수문자_일반주서
 62
     0
100
AcDbTrace
 10
35.54813565180462
 20
82.04616460013119
 30
0.0
 11
34.61041556557932
 21
81.46984164292687
 31
0.0
 12
33.35030673707899
 22
84.57116338020491
 32
0.0
 13
33.35030673707899
 23
84.57116338020491
 33
0.0
  0
LINE
  5
2BF
330
2B9
100
AcDbEntity
  8
치수문자_일반주서
 62
     0
100
AcDbLine
 10
32.99850042702251
 20
84.99714161440781
 30
0.0
 11
33.17850042702251
 21
84.99714161440781
 31
0.0
  0
LINE
  5
2C0
330
2B9
100
AcDbEntity
  8
치수문자_일반주서
 62
     0
100
AcDbLine
 10
33.08850042702251
 20
84.9071416144078
 30
0.0
 11
33.08850042702251
 21
85.08714161440781
 31
0.0
  0
POINT
  5
2C1
330
2B9
100
AcDbEntity
  8
Defpoints
 62
     0
100
AcDbPoint
 10
33.35030673707899
 20
84.57116338020491
 30
0.0
  0
POINT
  5
2C2
330
2B9
100
AcDbEntity
  8
Defpoints
 62
     0
100
AcDbPoint
 10
33.08850042702251
 20
84.99714161440781
 30
0.0
  0
ENDBLK
  5
2BB
330
2B9
100
AcDbEntity
  8
0
100
AcDbBlockEnd
  0
ENDSEC
  0
SECTION
  2
ENTITIES
  0
LINE
  5
96
330
1F
100
AcDbEntity
  8
0
  6
Continuous
 62
     1
370
    15
100
AcDbLine
 10
15.6318565390961
 20
3.922731613724254
 30
0.0
 11
12.52957525257327
 21
3.922731613724254
 31
0.0
  0
LINE
  5
97
330
1F
100
AcDbEntity
  8
0
  6
Continuous
 62
     1
370
    15
100
AcDbLine
 10
25.48799450746424
 20
-4.014768386275749
 30
0.0
 11
28.58843337671805
 21
-4.014768386275749
 31
0.0
  0
LINE
  5
98
330
1F
100
AcDbEntity
  8
0
  6
Continuous
 62
     1
370
    15
100
AcDbLine
 10
16.84860671013231
 20
-4.014768386275749
 30
0.0
 11
19.95172935753811
 21
-4.014768386275749
 31
0.0
  0
LINE
  5
99
330
1F
100
AcDbEntity
  8
0
  6
Continuous
 62
     1
370
    15
100
AcDbLine
 10
24.26922717095899
 20
3.922731613724254
 30
0.0
 11
21.16902255962818
 21
3.922731613724254
 31
0.0
  0
LINE
  5
9A
330
1F
100
AcDbEntity
  8
0
  6
Continuous
 62
     1
370
    15
100
AcDbLine
 10
10.0
 20
-4.014768386275749
 30
0.0
 11
11.31202115573692
 21
-4.014768386275749
 31
0.0
  0
LINE
  5
9B
330
1F
100
AcDbEntity
  8
0
  6
Continuous
 62
     1
370
    15
100
AcDbLine
 10
30.6375
 20
3.922731613724254
 30
0.0
 11
29.80579227837431
 21
3.922731613724254
 31
0.0
  0
LINE
  5
9C
330
1F
100
AcDbEntity
  8
외형선
  6
Continuous
370
    15
100
AcDbLine
 10
-32.06875
 20
-4.014768386275748
 30
0.0
 11
10.0
 21
-4.014768386275748
 31
0.0
  0
LINE
  5
9D
330
1F
100
AcDbEntity
  8
외형선
  6
Continuous
370
    15
100
AcDbLine
 10
9.000038487161678
 20
3.922731613724252
 30
0.0
 11
-32.06875
 21
3.922731613724252
 31
0.0
  0
LINE
  5
9E
330
1F
100
AcDbEntity
  8
외형선
  6
Continuous
370
    15
100
AcDbLine
 10
-32.06875
 20
3.922731613724252
 30
0.0
 11
-32.8625
 21
3.128981613724255
 31
0.0
  0
LINE
  5
9F
330
1F
100
AcDbEntity
  8
외형선
  6
Continuous
370
    15
100
AcDbLine
 10
-32.8625
 20
-3.22101838627575
 30
0.0
 11
-32.06875
 21
-4.014768386275748
 31
0.0
  0
LINE
  5
A0
330
1F
100
AcDbEntity
  8
0
  6
Continuous
 62
     1
370
    15
100
AcDbLine
 10
30.6375
 20
-2.326592144351709
 30
0.0
 11
30.6375
 21
0.7038658595369901
 31
0.0
  0
SPLINE
  5
A1
330
1F
100
AcDbEntity
  8
0
  6
Continuous
 62
     1
370
    15
100
AcDbSpline
210
0.0
220
0.0
230
1.0
 70
     8
 71
     3
 72
    19
 73
    15
 74
     0
 42
0.000000001
 43
0.00000001
 40
0.0
 40
0.0
 40
0.0
 40
0.0
 40
0.0559591378029475
 40
0.1406258719654554
 40
0.2254095257834104
 40
0.3101975720636791
 40
0.3948660286375508
 40
0.4812500871663303
 40
0.5677063175106382
 40
0.6542576552190787
 40
0.7406998454462059
 40
0.827080803668688
 40
0.9134858526807853
 40
1.0
 40
1.0
 40
1.0
 40
1.0
 10
15.6318565390961
 20
3.906732055881466
 30
0.0
 10
15.91172192434718
 20
3.90734972648962
 30
0.0
 10
16.61502643151218
 20
3.908901938894408
 30
0.0
 10
17.7422439080979
 20
3.755134865207643
 30
0.0
 10
19.01418629128386
 20
3.472781073097488
 30
0.0
 10
20.28615794501643
 20
3.065053072714134
 30
0.0
 10
21.56557054220664
 20
2.548826803891803
 30
0.0
 10
22.85340372197184
 20
1.938107960747895
 30
0.0
 10
24.15082595333057
 20
1.252783881276762
 30
0.0
 10
25.44907043750686
 20
0.5221426602146059
 30
0.0
 10
26.74634868168312
 20
-0.2298502870959017
 30
0.0
 10
28.04276141767517
 20
-0.9735807442257525
 30
0.0
 10
29.33955485586559
 20
-1.690326233980357
 30
0.0
 10
30.20466967899408
 20
-2.114414318905294
 30
0.0
 10
30.63750000000003
 20
-2.32659214435171
 30
0.0
  0
SPLINE
  5
A2
330
1F
100
AcDbEntity
  8
0
  6
Continuous
 62
     1
370
    15
100
AcDbSpline
210
0.0
220
0.0
230
1.0
 70
     8
 71
     3
 72
    17
 73
    13
 74
     0
 42
0.000000001
 43
0.00000001
 40
0.0
 40
0.0
 40
0.0
 40
0.0
 40
0.1058626156601903
 40
0.2115901736730011
 40
0.3172893813430807
 40
0.4230673226749263
 40
0.528976776518699
 40
0.6328711549483399
 40
0.7366771599968449
 40
0.8405234093669304
 40
0.9445288869925955
 40
0.9999999999999999
 40
0.9999999999999999
 40
0.9999999999999999
 40
0.9999999999999999
 10
30.63749999999999
 20
0.7162802496035965
 30
0.0
 10
30.20561302528909
 20
0.9581711777447363
 30
0.0
 10
29.34239006960924
 20
1.4416444338713
 30
0.0
 10
28.0484375462795
 20
2.107617420935029
 30
0.0
 10
26.75484825336331
 20
2.699233485792334
 30
0.0
 10
25.46037201007189
 20
3.193311413967904
 30
0.0
 10
24.17266505213911
 20
3.570466317431596
 30
0.0
 10
22.89359125281414
 20
3.819978216983664
 30
0.0
 10
21.62311710398366
 20
3.937770046204223
 30
0.0
 10
20.35217202038546
 20
3.913259481482373
 30
0.0
 10
19.27774098913959
 20
3.798673645096503
 30
0.0
 10
18.62723071419165
 20
3.643355231497363
 30
0.0
 10
18.40096221402576
 20
3.589330466867725
 30
0.0
  0
LINE
  5
A3
330
1F
100
AcDbEntity
  8
0
  6
Continuous
 62
     1
370
    15
100
AcDbLine
 10
30.6375
 20
-3.839852744852074
 30
0.0
 11
30.6375
 21
-3.514680168626234
 31
0.0
  0
SPLINE
  5
A4
330
1F
100
AcDbEntity
  8
0
  6
Continuous
 62
     1
370
    15
100
AcDbSpline
210
0.0
220
0.0
230
1.0
 70
     8
 71
     3
 72
    52
 73
    48
 74
     0
 42
0.000000001
 43
0.00000001
 40
0.0
 40
0.0
 40
0.0
 40
0.0
 40
0.062499999999998
 40
0.062499999999998
 40
0.093749999999997
 40
0.093749999999997
 40
0.1249999999999961
 40
0.1249999999999961
 40
0.1874999999999948
 40
0.1874999999999948
 40
0.2187499999999942
 40
0.2187499999999942
 40
0.2499999999999936
 40
0.2499999999999936
 40
0.3124999999999923
 40
0.3124999999999923
 40
0.3437499999999921
 40
0.3437499999999921
 40
0.3749999999999918
 40
0.3749999999999918
 40
0.4374999999999921
 40
0.4374999999999921
 40
0.4687499999999927
 40
0.4687499999999927
 40
0.4999999999999932
 40
0.4999999999999932
 40
0.5624999999999942
 40
0.5624999999999942
 40
0.6249999999999952
 40
0.6249999999999952
 40
0.6562499999999962
 40
0.6562499999999962
 40
0.6874999999999971
 40
0.6874999999999971
 40
0.7499999999999981
 40
0.7499999999999981
 40
0.7812499999999987
 40
0.7812499999999987
 40
0.8124999999999992
 40
0.8124999999999992
 40
0.8749999999999994
 40
0.8749999999999994
 40
0.9062499999999997
 40
0.9062499999999997
 40
0.9374999999999998
 40
0.9374999999999998
 40
1.0
 40
1.0
 40
1.0
 40
1.0
 10
30.63750000000001
 20
-3.839852744852074
 30
0.0
 10
30.21067750316511
 20
-3.91255890676547
 30
0.0
 10
29.77654752443381
 20
-3.963325393361541
 30
0.0
 10
29.13142005295125
 20
-4.004315654203849
 30
0.0
 10
28.91851467281858
 20
-4.012164872242178
 30
0.0
 10
28.48910835503426
 20
-4.016280151112232
 30
0.0
 10
28.27317631716747
 20
-4.01251216824302
 30
0.0
 10
27.62596016358939
 20
-3.983722052100417
 30
0.0
 10
27.19977902290455
 20
-3.941385261673864
 30
0.0
 10
26.55330963648186
 20
-3.843825161243395
 30
0.0
 10
26.33719311914118
 20
-3.80563302767104
 30
0.0
 10
25.90655911022201
 20
-3.718417544868839
 30
0.0
 10
25.69321602336127
 20
-3.669498400159674
 30
0.0
 10
25.05031796884038
 20
-3.506860205748619
 30
0.0
 10
24.61594689674193
 20
-3.376868666920506
 30
0.0
 10
23.97279138603745
 20
-3.15462578540539
 30
0.0
 10
23.75957073167931
 20
-3.076029767881506
 30
0.0
 10
23.32903602991057
 20
-2.909678065394842
 30
0.0
 10
23.11292609728006
 20
-2.822057313172685
 30
0.0
 10
22.46634682602662
 20
-2.547580182124181
 30
0.0
 10
22.04023309863563
 20
-2.349550857053001
 30
0.0
 10
21.39305623224537
 20
-2.032781828192665
 30
0.0
 10
21.17709392806604
 20
-1.924070592656464
 30
0.0
 10
20.7475416772445
 20
-1.701863841964846
 30
0.0
 10
20.53467129444445
 20
-1.58850679094419
 30
0.0
 10
19.88973170915648
 20
-1.241042001368243
 30
0.0
 10
19.45555357059775
 20
-1.000211299519641
 30
0.0
 10
18.60147365892572
 20
-0.5128655228585316
 30
0.0
 10
18.16782715243529
 20
-0.2637624496668238
 30
0.0
 10
17.52251955838384
 20
0.1086522641016282
 30
0.0
 10
17.30956170526151
 20
0.2323331833615443
 30
0.0
 10
16.88030646896512
 20
0.4791597818103741
 30
0.0
 10
16.66440732112859
 20
0.6022263445479727
 30
0.0
 10
16.01715972825493
 20
0.9679382612097817
 30
0.0
 10
15.5908962152672
 20
1.206237645929332
 30
0.0
 10
14.9445445314015
 20
1.551883569718232
 30
0.0
 10
14.72842406056747
 20
1.665034654530678
 30
0.0
 10
14.29769594237197
 20
1.885716795110524
 30
0.0
 10
14.08421296490279
 20
1.993065939497287
 30
0.0
 10
13.4415800406143
 20
2.306072742344292
 30
0.0
 10
13.00721431678499
 20
2.503038196476106
 30
0.0
 10
12.36380903427078
 20
2.773166580136322
 30
0.0
 10
12.15069334940071
 20
2.85903452938357
 30
0.0
 10
11.72026314865229
 20
3.02255724429442
 30
0.0
 10
11.50416243168096
 20
3.100035705612077
 30
0.0
 10
10.85748109775903
 20
3.318066643061131
 30
0.0
 10
10.43141982193218
 20
3.443975643761922
 30
0.0
 10
10.0
 20
3.549226708425198
 30
0.0
  0
LINE
  5
A5
330
1F
100
AcDbEntity
  8
외형선
  6
Continuous
370
    15
100
AcDbLine
 10
9.999999999999986
 20
3.656863937283716
 30
0.0
 11
9.999999999999993
 21
3.593511991417259
 31
0.0
  0
SPLINE
  5
A6
330
1F
100
AcDbEntity
  8
0
  6
Continuous
 62
     1
370
    15
100
AcDbSpline
210
0.0
220
0.0
230
1.0
 70
     8
 71
     3
 72
    52
 73
    48
 74
     0
 42
0.000000001
 43
0.00000001
 40
0.0
 40
0.0
 40
0.0
 40
0.0
 40
0.0624999999999988
 40
0.0624999999999988
 40
0.093749999999999
 40
0.093749999999999
 40
0.1249999999999992
 40
0.1249999999999992
 40
0.1874999999999995
 40
0.1874999999999995
 40
0.2187499999999997
 40
0.2187499999999997
 40
0.2499999999999999
 40
0.2499999999999999
 40
0.3124999999999994
 40
0.3124999999999994
 40
0.3437499999999988
 40
0.3437499999999988
 40
0.3749999999999983
 40
0.3749999999999983
 40
0.4374999999999971
 40
0.4374999999999971
 40
0.4687499999999968
 40
0.4687499999999968
 40
0.4999999999999966
 40
0.4999999999999966
 40
0.5624999999999968
 40
0.5624999999999968
 40
0.6249999999999971
 40
0.6249999999999971
 40
0.6562499999999977
 40
0.6562499999999977
 40
0.6874999999999981
 40
0.6874999999999981
 40
0.7499999999999984
 40
0.7499999999999984
 40
0.7812499999999986
 40
0.7812499999999986
 40
0.8124999999999986
 40
0.8124999999999986
 40
0.8749999999999988
 40
0.8749999999999988
 40
0.9062499999999989
 40
0.9062499999999989
 40
0.9374999999999989
 40
0.9374999999999989
 40
1.0
 40
1.0
 40
1.0
 40
1.0
 10
30.63749999999999
 20
-3.514680168626234
 30
0.0
 10
30.21067750316505
 20
-3.394346279160705
 30
0.0
 10
29.77654752443379
 20
-3.25289658954857
 30
0.0
 10
29.13142005295125
 20
-3.014384126643992
 30
0.0
 10
28.91851467281858
 20
-2.930685862608668
 30
0.0
 10
28.48910835503422
 20
-2.754627458450259
 30
0.0
 10
28.27317631716742
 20
-2.662322132263474
 30
0.0
 10
27.62596016358937
 20
-2.374347517741036
 30
0.0
 10
27.19977902290448
 20
-2.168360305180567
 30
0.0
 10
26.55330963648182
 20
-1.841415161910571
 30
0.0
 10
26.33719311914117
 20
-1.729523752790403
 30
0.0
 10
25.90655911022195
 20
-1.501402507993757
 30
0.0
 10
25.69321602336126
 20
-1.385391342935904
 30
0.0
 10
25.05031796884038
 20
-1.031482176331971
 30
0.0
 10
24.61594689674189
 20
-0.7872816615532696
 30
0.0
 10
23.97279138603745
 20
-0.4181771233742532
 30
0.0
 10
23.7595707316793
 20
-0.2946408146573108
 30
0.0
 10
23.32903602991056
 20
-0.0464158773279868
 30
0.0
 10
23.11292609728004
 20
0.0780413419753112
 30
0.0
 10
22.4663468260266
 20
0.4499828988170357
 30
0.0
 10
22.04023309863562
 20
0.6955426474188338
 30
0.0
 10
21.39305623224535
 20
1.056727342411821
 30
0.0
 10
21.17709392806603
 20
1.17571792330921
 30
0.0
 10
20.74754167724446
 20
1.409335991994751
 30
0.0
 10
20.53467129444443
 20
1.523844260070511
 30
0.0
 10
19.88973170915645
 20
1.861092777367931
 30
0.0
 10
19.45555357059771
 20
2.076686483003269
 30
0.0
 10
18.60147365892572
 20
2.478270592740729
 30
0.0
 10
18.16782715243529
 20
2.666405075995096
 30
0.0
 10
17.52251955838386
 20
2.922347846141589
 30
0.0
 10
17.3095617052615
 20
3.003160792339146
 30
0.0
 10
16.88030646896509
 20
3.156050510491713
 30
0.0
 10
16.66440732112858
 20
3.228055439259469
 30
0.0
 10
16.01715972825491
 20
3.429252153399524
 30
0.0
 10
15.59089621526719
 20
3.543228506443805
 30
0.0
 10
14.94454453140144
 20
3.682303802581535
 30
0.0
 10
14.72842406056746
 20
3.723288548116891
 30
0.0
 10
14.29769594237195
 20
3.793974101206539
 30
0.0
 10
14.08421296490279
 20
3.823636373987744
 30
0.0
 10
13.44158004061429
 20
3.89564163692823
 30
0.0
 10
13.00721431678497
 20
3.920868729437359
 30
0.0
 10
12.36380903427077
 20
3.923512734850555
 30
0.0
 10
12.15069334940068
 20
3.918595587614965
 30
0.0
 10
11.72026314865229
 20
3.89711449857661
 30
0.0
 10
11.50416243168095
 20
3.880541549133136
 30
0.0
 10
10.85748109775901
 20
3.813625865947655
 30
0.0
 10
10.43141982193218
 20
3.746293145086033
 30
0.0
 10
9.999999999999986
 20
3.656863937283716
 30
0.0
  0
SPLINE
  5
A7
330
1F
100
AcDbEntity
  8
0
  6
Continuous
 62
     1
370
    15
100
AcDbSpline
210
0.0
220
0.0
230
1.0
 70
     8
 71
     3
 72
    17
 73
    13
 74
     0
 42
0.000000001
 43
0.00000001
 40
0.0
 40
0.0
 40
0.0
 40
0.0
 40
0.1016688951044358
 40
0.203405127004447
 40
0.3052758276929146
 40
0.4070408601801898
 40
0.5087158009109565
 40
0.6085867124738203
 40
0.7085955397444852
 40
0.8086095482615926
 40
0.9084824915408668
 40
0.9999999999999999
 40
0.9999999999999999
 40
0.9999999999999999
 40
0.9999999999999999
 10
9.999999999999986
 20
-0.5335908158572906
 30
0.0
 10
10.43104577650542
 20
-0.7790753582583901
 30
0.0
 10
11.29342281743575
 20
-1.270207031061881
 30
0.0
 10
12.58780560065475
 20
-1.959194985181037
 30
0.0
 10
13.88320851657706
 20
-2.581108303536232
 30
0.0
 10
15.17784601282699
 20
-3.113649986186916
 30
0.0
 10
16.4638051675442
 20
-3.535268536794234
 30
0.0
 10
17.74224767467696
 20
-3.833277398493816
 30
0.0
 10
19.01418470451375
 20
-4.000971941084536
 30
0.0
 10
20.28616052102566
 20
-4.030811211918215
 30
0.0
 10
21.52155983789661
 20
-3.9388563370486
 30
0.0
 10
22.3330319251494
 20
-3.770939940733427
 30
0.0
 10
22.72105495835174
 20
-3.690647062585017
 30
0.0
  0
SPLINE
  5
A8
330
1F
100
AcDbEntity
  8
외형선
  6
Continuous
370
    15
100
AcDbSpline
210
0.0
220
0.0
230
1.0
 70
    24
 71
     3
 72
    22
 73
    18
 74
     0
 42
0.000000001
 43
0.00000001
 40
0.0
 40
0.0
 40
0.0
 40
0.0
 40
0.0507867838611379
 40
0.102335770661011
 40
0.1720894181441403
 40
0.243865926129728
 40
0.3136195736128464
 40
0.385396081598423
 40
0.455149729081547
 40
0.5269262370671296
 40
0.5966798845502547
 40
0.6684563925358332
 40
0.7382100400189551
 40
0.8099865480045351
 40
0.8797401954876569
 40
0.9515167034732445
 40
0.9999999999999999
 40
0.9999999999999999
 40
0.9999999999999999
 40
0.9999999999999999
 10
9.999999999999986
 20
2.456495413151426
 30
0.0
 10
9.999999999999993
 20
2.424886876294243
 30
0.0
 10
10.0
 20
2.361195424841217
 30
0.0
 10
10.00000000000007
 20
2.226110259561126
 30
0.0
 10
9.99999999999995
 20
2.049907738988971
 30
0.0
 10
10.0
 20
1.828128689912224
 30
0.0
 10
10.00000000000002
 20
1.582276505841324
 30
0.0
 10
10.00000000000001
 20
1.323532012373105
 30
0.0
 10
9.999999999999979
 20
1.054617169931583
 30
0.0
 10
9.999999999999993
 20
0.7879662615807882
 30
0.0
 10
9.999999999999972
 20
0.5263418166031489
 30
0.0
 10
10.00000000000002
 20
0.2818183348842396
 30
0.0
 10
10.0
 20
0.0570602482763558
 30
0.0
 10
10.00000000000002
 20
-0.1380616200897101
 30
0.0
 10
9.999999999999986
 20
-0.2995312796936509
 30
0.0
 10
10.00000000000002
 20
-0.4144736548449575
 30
0.0
 10
10.00000000000001
 20
-0.4564983620908626
 30
0.0
 10
10.0
 20
-0.4734408172288482
 30
0.0
  0
SPLINE
  5
A9
330
1F
100
AcDbEntity
  8
0
  6
Continuous
 62
     1
370
    15
100
AcDbSpline
210
0.0
220
0.0
230
1.0
 70
     8
 71
     3
 72
    20
 73
    16
 74
     0
 42
0.000000001
 43
0.00000001
 40
0.0
 40
0.0
 40
0.0
 40
0.0
 40
0.0017552665249353
 40
0.0854304316647962
 40
0.1675135598152534
 40
0.249526867406808
 40
0.3315719705570397
 40
0.4137428740971059
 40
0.497536596814431
 40
0.5812406363254414
 40
0.6649374984021792
 40
0.7487097827636087
 40
0.8325647039825717
 40
0.9163092606811881
 40
1.0
 40
1.0
 40
1.0
 40
1.0
 10
25.48799450746424
 20
-4.013325651594458
 30
0.0
 10
25.47893279477602
 20
-4.013805345688679
 30
0.0
 10
25.037890927015
 20
-4.037152497220516
 30
0.0
 10
24.17263290191181
 20
-3.954925555685213
 30
0.0
 10
22.89359913838041
 20
-3.759535671434014
 30
0.0
 10
21.62311742175696
 20
-3.422381306885295
 30
0.0
 10
20.35216285331872
 20
-2.974245019451146
 30
0.0
 10
19.07136283753054
 20
-2.421919942450486
 30
0.0
 10
17.78229134113117
 20
-1.782727729377853
 30
0.0
 10
16.48568082713428
 20
-1.077320017458589
 30
0.0
 10
15.18918780849384
 20
-0.3354767540231425
 30
0.0
 10
13.89168252718314
 20
0.4171528316281703
 30
0.0
 10
12.5934547908752
 20
1.150968220193189
 30
0.0
 10
11.29625414879198
 20
1.849439225994051
 30
0.0
 10
10.43199211866752
 20
2.254186715675135
 30
0.0
 10
9.999999999999986
 20
2.456495413151425
 30
0.0
  0
LINE
  5
AA
330
1F
100
AcDbEntity
  8
0
  6
Continuous
 62
     1
370
    15
100
AcDbLine
 10
30.6375
 20
-3.514680168626234
 30
0.0
 11
30.6375
 21
-2.326592144351709
 31
0.0
  0
LINE
  5
AB
330
1F
100
AcDbEntity
  8
외형선
  6
Continuous
370
    15
100
AcDbLine
 10
10.00000000000002
 20
2.456495413151413
 30
0.0
 11
10.0
 21
3.549226708425198
 31
0.0
  0
SPLINE
  5
AC
330
1F
100
AcDbEntity
  8
0
  6
Continuous
 62
     1
370
    15
100
AcDbSpline
210
0.0
220
0.0
230
1.0
 70
     8
 71
     3
 72
    13
 73
     9
 74
     0
 42
0.000000001
 43
0.00000001
 40
0.0
 40
0.0
 40
0.0
 40
0.0
 40
0.0530036364889166
 40
0.2422785062576958
 40
0.4317239384915266
 40
0.6213562484655695
 40
0.8107389764397942
 40
1.0
 40
1.0
 40
1.0
 40
1.0
 10
16.84860671013231
 20
-4.000544879067009
 30
0.0
 10
16.72761875253081
 20
-4.004708198007221
 30
0.0
 10
16.1745853460589
 20
-4.023738641213133
 30
0.0
 10
15.18919461855761
 20
-3.915659217397929
 30
0.0
 10
13.89168070027719
 20
-3.67639002621745
 30
0.0
 10
12.5934552775471
 20
-3.29637277519178
 30
0.0
 10
11.29625402728189
 20
-2.80889319188457
 30
0.0
 10
10.43199207817283
 20
-2.404429145736075
 30
0.0
 10
9.999999999999986
 20
-2.202262124473594
 30
0.0
  0
LINE
  5
AD
330
1F
100
AcDbEntity
  8
외형선
  6
Continuous
370
    15
100
AcDbLine
 10
10.0
 20
-2.202262124473596
 30
0.0
 11
9.999999999999993
 21
-0.5335908158572942
 31
0.0
  0
SPLINE
  5
AE
330
1F
100
AcDbEntity
  8
0
  6
Continuous
 62
     1
370
    15
100
AcDbSpline
210
0.0
220
0.0
230
1.0
 70
     8
 71
     3
 72
    12
 73
     8
 74
     0
 42
0.000000001
 43
0.00000001
 40
0.0
 40
0.0
 40
0.0
 40
0.0
 40
0.1852989228613156
 40
0.388989753768629
 40
0.5925362986754144
 40
0.7961396106879554
 40
1.0
 40
1.0
 40
1.0
 40
1.0
 10
24.269227170959
 20
3.916867917101904
 30
0.0
 10
24.662679101246
 20
3.907981227433853
 30
0.0
 10
25.48863516790199
 20
3.889325796671419
 30
0.0
 10
26.74635400288898
 20
3.688391894437007
 30
0.0
 10
28.04275999872939
 20
3.359447182461443
 30
0.0
 10
29.3395552111659
 20
2.91218415769019
 30
0.0
 10
30.2046697974773
 20
2.529704408004502
 30
0.0
 10
30.63750000000001
 20
2.33834387595852
 30
0.0
  0
LINE
  5
AF
330
1F
100
AcDbEntity
  8
0
  6
Continuous
 62
     1
370
    15
100
AcDbLine
 10
30.6375
 20
0.7162802496035969
 30
0.0
 11
30.6375
 21
2.338343875958521
 31
0.0
  0
SPLINE
  5
B0
330
1F
100
AcDbEntity
  8
0
  6
Continuous
 62
     1
370
    15
100
AcDbSpline
210
0.0
220
0.0
230
1.0
 70
     8
 71
     3
 72
    11
 73
     7
 74
     0
 42
0.000000001
 43
0.00000001
 40
0.0
 40
0.0
 40
0.0
 40
0.0
 40
0.3168873347527787
 40
0.633984548620096
 40
0.9515008823759239
 40
1.0
 40
1.0
 40
1.0
 40
1.0
 10
10.0
 20
-3.942599814435452
 30
0.0
 10
10.43104769054787
 20
-3.97717822069404
 30
0.0
 10
11.29342856083075
 20
-4.046357934995201
 30
0.0
 10
12.58778259665931
 20
-3.960464577273206
 30
0.0
 10
13.51757913969072
 20
-3.839085090122193
 30
0.0
 10
14.01554224213223
 20
-3.706594560841626
 30
0.0
 10
14.08152516986578
 20
-3.689038816297431
 30
0.0
  0
SPLINE
  5
B1
330
1F
100
AcDbEntity
  8
외형선
  6
Continuous
370
    15
100
AcDbSpline
210
0.0
220
0.0
230
1.0
 70
    24
 71
     3
 72
    15
 73
    11
 74
     0
 42
0.000000001
 43
0.00000001
 40
0.0
 40
0.0
 40
0.0
 40
0.0
 40
0.0026076220521102
 40
0.1473628500001663
 40
0.2963159893651318
 40
0.4410712173131878
 40
0.5900243566781691
 40
0.7347795846262296
 40
0.8837327239911976
 40
1.0
 40
1.0
 40
1.0
 40
1.0
 10
10.00000000000002
 20
-2.246557407465657
 30
0.0
 10
10.00000000000001
 20
-2.247613963700796
 30
0.0
 10
9.99999999999995
 20
-2.307322439424661
 30
0.0
 10
10.00000000000003
 20
-2.45682756889682
 30
0.0
 10
10.00000000000002
 20
-2.688227124473393
 30
0.0
 10
9.999999999999993
 20
-2.944213439593891
 30
0.0
 10
10.00000000000002
 20
-3.207972426327815
 30
0.0
 10
10.0
 20
-3.477755584919374
 30
0.0
 10
10.0
 20
-3.724980755608097
 30
0.0
 10
10.00000000000001
 20
-3.876275328091588
 30
0.0
 10
10.0
 20
-3.942599814435454
 30
0.0
  0
SPLINE
  5
B2
330
1F
100
AcDbEntity
  8
0
  6
Continuous
 62
     1
370
    15
100
AcDbSpline
210
0.0
220
0.0
230
1.0
 70
     8
 71
     3
 72
    10
 73
     6
 74
     0
 42
0.000000001
 43
0.00000001
 40
0.0
 40
0.0
 40
0.0
 40
0.0
 40
0.3599472517004017
 40
0.7194352890814503
 40
1.0
 40
1.0
 40
1.0
 40
1.0
 10
30.6375
 20
3.893769862625844
 30
0.0
 10
30.20561244885284
 20
3.90955747884925
 30
0.0
 10
29.34238834103595
 20
3.941112569735312
 30
0.0
 10
28.14298938852454
 20
3.832643734288443
 30
0.0
 10
27.3752983731667
 20
3.666752440249858
 30
0.0
 10
27.03878390874039
 20
3.594034616477538
 30
0.0
  0
LINE
  5
B3
330
1F
100
AcDbEntity
  8
0
  6
Continuous
 62
     1
370
    15
100
AcDbLine
 10
30.6375
 20
2.335786963422095
 30
0.0
 11
30.6375
 21
3.893769862625843
 31
0.0
  0
LINE
  5
B4
330
1F
100
AcDbEntity
  8
0
  6
Continuous
 62
     1
370
    15
100
AcDbLine
 10
30.6375
 20
3.893769862625843
 30
0.0
 11
30.6375
 21
3.922731613724254
 31
0.0
  0
LINE
  5
B5
330
1F
100
AcDbEntity
  8
외형선
  6
Continuous
370
    15
100
AcDbLine
 10
10.0
 20
-4.014768386275749
 30
0.0
 11
10.0
 21
-3.942599814435454
 31
0.0
  0
SPLINE
  5
B6
330
1F
100
AcDbEntity
  8
외형선
  6
Continuous
370
    15
100
AcDbSpline
210
0.0
220
0.0
230
1.0
 70
    24
 71
     3
 72
    23
 73
    19
 74
     0
 42
0.000000001
 43
0.00000001
 40
0.0
 40
0.0
 40
0.0
 40
0.0
 40
0.0384488957110077
 40
0.1044747725894122
 40
0.1724154043702015
 40
0.2384412812486055
 40
0.3063819130293937
 40
0.372407789907763
 40
0.4403484216885863
 40
0.5063742985669908
 40
0.5743149303477797
 40
0.6403408072261826
 40
0.7082814390069696
 40
0.7743073158853275
 40
0.8422479476660646
 40
0.9082738245445162
 40
0.9762144563253572
 40
1.0
 40
1.0
 40
1.0
 40
1.0
 10
9.999999999999993
 20
-0.5055695066178884
 30
0.0
 10
9.999999999999986
 20
-0.5035455499370916
 30
0.0
 10
9.999999999999986
 20
-0.4980459794020518
 30
0.0
 10
10.00000000000007
 20
-0.4124597098029413
 30
0.0
 10
9.999999999999972
 20
-0.2902883365903055
 30
0.0
 10
9.999999999999957
 20
-0.1237623535122443
 30
0.0
 10
10.00000000000002
 20
0.0730787914956242
 30
0.0
 10
10.00000000000002
 20
0.2999053045938642
 30
0.0
 10
9.999999999999957
 20
0.5457601597853662
 30
0.0
 10
10.00000000000004
 20
0.8082311607244668
 30
0.0
 10
9.999999999999972
 20
1.075133231628103
 30
0.0
 10
10.00000000000003
 20
1.343721396001169
 30
0.0
 10
9.99999999999995
 20
1.601567462233854
 30
0.0
 10
10.00000000000006
 20
1.845974801765565
 30
0.0
 10
9.999999999999972
 20
2.065774358740106
 30
0.0
 10
9.999999999999964
 20
2.258147526411307
 30
0.0
 10
10.0
 20
2.382855362282029
 30
0.0
 10
10.0
 20
2.441331855203688
 30
0.0
 10
10.0
 20
2.456495413145805
 30
0.0
  0
SPLINE
  5
B7
330
1F
100
AcDbEntity
  8
외형선
  6
Continuous
370
    15
100
AcDbSpline
210
0.0
220
0.0
230
1.0
 70
     8
 71
     3
 72
     8
 73
     4
 74
     0
 42
0.000000001
 43
0.00000001
 40
0.0
 40
0.0
 40
0.0
 40
0.0
 40
1.0
 40
1.0
 40
1.0
 40
1.0
 10
9.999999999999993
 20
-0.5335908158572877
 30
0.0
 10
9.665602283693683
 20
-0.342421880134772
 30
0.0
 10
9.331232166655166
 20
-0.1495340592705524
 30
0.0
 10
9.000038487161685
 20
0.0424298623521256
 30
0.0
  0
SPLINE
  5
B8
330
1F
100
AcDbEntity
  8
외형선
  6
Continuous
370
    15
100
AcDbSpline
210
0.0
220
0.0
230
1.0
 70
     8
 71
     3
 72
     8
 73
     4
 74
     0
 42
0.000000001
 43
0.00000001
 40
0.0
 40
0.0
 40
0.0
 40
0.0
 40
1.0
 40
1.0
 40
1.0
 40
1.0
 10
9.999999999999993
 20
2.456495413151426
 30
0.0
 10
9.66560228369369
 20
2.606002731570023
 30
0.0
 10
9.331232166655354
 20
2.746624808318204
 30
0.0
 10
9.000038487161671
 20
2.876531551806885
 30
0.0
  0
LINE
  5
B9
330
1F
100
AcDbEntity
  8
외형선
  6
Continuous
370
    15
100
AcDbLine
 10
9.999999999999993
 20
3.656863937283716
 30
0.0
 11
9.764029336769138
 21
3.60281764248487
 31
0.0
  0
LINE
  5
BA
330
1F
100
AcDbEntity
  8
외형선
  6
Continuous
370
    15
100
AcDbLine
 10
9.000038487161678
 20
3.754875069429037
 30
0.0
 11
9.000038487161678
 21
3.922731613724252
 31
0.0
  0
SPLINE
  5
BB
330
1F
100
AcDbEntity
  8
외형선
  6
Continuous
370
    15
100
AcDbSpline
210
0.0
220
0.0
230
1.0
 70
     8
 71
     3
 72
     8
 73
     4
 74
     0
 42
0.000000001
 43
0.00000001
 40
0.0
 40
0.0
 40
0.0
 40
0.0
 40
1.0
 40
1.0
 40
1.0
 40
1.0
 10
9.999999999999993
 20
3.549226708425199
 30
0.0
 10
9.665602283693683
 20
3.630807836303319
 30
0.0
 10
9.331232166655166
 20
3.699631360579727
 30
0.0
 10
9.000038487161685
 20
3.754881709857196
 30
0.0
  0
SPLINE
  5
BC
330
1F
100
AcDbEntity
  8
외형선
  6
Continuous
370
    15
100
AcDbSpline
210
0.0
220
0.0
230
1.0
 70
     8
 71
     3
 72
     8
 73
     4
 74
     0
 42
0.000000001
 43
0.00000001
 40
0.0
 40
0.0
 40
0.0
 40
0.0
 40
1.0
 40
1.0
 40
1.0
 40
1.0
 10
9.999999999999993
 20
-2.202262124473595
 30
0.0
 10
9.66560228369369
 20
-2.040544067981395
 30
0.0
 10
9.331232166655354
 20
-1.87118637157634
 30
0.0
 10
9.000038487161671
 20
-1.696567837001703
 30
0.0
  0
LINE
  5
BD
330
1F
100
AcDbEntity
  8
외형선
  6
Continuous
370
    15
100
AcDbLine
 10
9.000038487161678
 20
-3.792262077076036
 30
0.0
 11
9.000038487161678
 21
-1.69654710493527
 31
0.0
  0
SPLINE
  5
BE
330
1F
100
AcDbEntity
  8
외형선
  6
Continuous
370
    15
100
AcDbSpline
210
0.0
220
0.0
230
1.0
 70
     8
 71
     3
 72
     8
 73
     4
 74
     0
 42
0.000000001
 43
0.00000001
 40
0.0
 40
0.0
 40
0.0
 40
0.0
 40
1.0
 40
1.0
 40
1.0
 40
1.0
 10
9.999999999999993
 20
-3.942599814435449
 30
0.0
 10
9.665602283693683
 20
-3.906032042443911
 30
0.0
 10
9.331232166655166
 20
-3.855644337410342
 30
0.0
 10
9.000038487161685
 20
-3.792254458511266
 30
0.0
  0
LINE
  5
BF
330
1F
100
AcDbEntity
  8
외형선
  6
Continuous
370
    15
100
AcDbLine
 10
-32.06875
 20
-0.0460183862757476
 30
0.0
 11
-32.06875
 21
3.922731613724252
 31
0.0
  0
LINE
  5
C0
330
1F
100
AcDbEntity
  8
외형선
  6
Continuous
370
    15
100
AcDbLine
 10
-32.06875
 20
-4.014768386275748
 30
0.0
 11
-32.06875
 21
-0.0460183862757476
 31
0.0
  0
LINE
  5
C1
330
1F
100
AcDbEntity
  8
외형선
  6
Continuous
370
    15
100
AcDbLine
 10
9.000038487161678
 20
0.0424067908169195
 30
0.0
 11
9.000038487161678
 21
2.87654697527431
 31
0.0
  0
LINE
  5
C2
330
1F
100
AcDbEntity
  8
외형선
  6
Continuous
370
    15
100
AcDbLine
 10
-32.8625
 20
-0.0460183862757476
 30
0.0
 11
-32.8625
 21
3.128981613724255
 31
0.0
  0
LINE
  5
C3
330
1F
100
AcDbEntity
  8
외형선
  6
Continuous
370
    15
100
AcDbLine
 10
-32.8625
 20
-3.22101838627575
 30
0.0
 11
-32.8625
 21
-0.0460183862757476
 31
0.0
  0
SPLINE
  5
C4
330
1F
100
AcDbEntity
  8
외형선
  6
Continuous
370
    15
100
AcDbSpline
210
0.0
220
0.0
230
1.0
 70
    24
 71
     3
 72
    13
 73
     9
 74
     0
 42
0.000000001
 43
0.00000001
 40
0.0
 40
0.0
 40
0.0
 40
0.0
 40
0.2756346299192565
 40
0.42253179912741
 40
0.5694289683355634
 40
0.716326137543715
 40
0.8632233067518666
 40
1.0
 40
1.0
 40
1.0
 40
1.0
 10
9.999999999999986
 20
-3.942599814435449
 30
0.0
 10
10.0
 20
-3.781522239590882
 30
0.0
 10
9.999999999999993
 20
-3.534599719303453
 30
0.0
 10
10.0
 20
-3.186054229438589
 30
0.0
 10
9.999999999999986
 20
-2.921638089637648
 30
0.0
 10
10.0
 20
-2.669536108526877
 30
0.0
 10
10.00000000000002
 20
-2.43891632465678
 30
0.0
 10
10.00000000000001
 20
-2.309126904674416
 30
0.0
 10
10.0
 20
-2.246547407465658
 30
0.0
  0
LINE
  5
C5
330
1F
100
AcDbEntity
  8
외형선
  6
Continuous
370
    15
100
AcDbLine
 10
10.0
 20
3.593511991417259
 30
0.0
 11
10.0
 21
3.656863937271732
 31
0.0
  0
LINE
  5
C6
330
1F
100
AcDbEntity
  8
중심선
 62
     1
100
AcDbLine
 10
-35.86250000000001
 20
-0.000000000000002
 30
0.0
 11
33.6375
 21
0.0000000000000026
 31
0.0
  0
LINE
  5
C7
330
1F
100
AcDbEntity
  8
참조1
100
AcDbLine
 10
10.00000000000001
 20
0.0010749287238892
 30
0.0
 11
10.00000000000002
 21
-39.99892507127611
 31
0.0
  0
LINE
  5
C8
330
1F
100
AcDbEntity
  8
참조1
100
AcDbLine
 10
10.00000000000002
 20
-39.99892507127611
 30
0.0
 11
-17.85885681430866
 21
-39.9989250712761
 31
0.0
  0
CIRCLE
  5
C9
330
1F
100
AcDbEntity
  8
해칭선
100
AcDbCircle
 10
0.0
 20
0.0
 30
0.0
 40
2.999999999999999
  0
INSERT
  5
CA
330
1F
100
AcDbEntity
  8
0
  6
Continuous
 62
     7
100
AcDbBlockReference
 66
     1
  2
블럭10
 10
-15.05277293212521
 20
-52.04717430164393
 30
0.0
  0
ATTRIB
  5
CB
330
CA
100
AcDbEntity
  8
FORMAT
 62
     2
100
AcDbText
 10
-24.23406822086649
 20
-49.97180738881175
 30
0.0
 40
4.233333333333333
  1
E5067020 [ 5 FLUTE ]
 41
0.75
  7
SLDTEXTSTYLE0
 11
-24.23406822086649
 21
-52.08847405547841
 31
0.0
100
AcDbAttribute
  2
AUTOATTR0
 70
     0
 74
     1
  0
SEQEND
  5
CC
330
CA
100
AcDbEntity
  8
0
  6
Continuous
 62
     7
  0
HATCH
  5
CD
330
1F
100
AcDbEntity
  8
중심선
100
AcDbHatch
 10
0.0
 20
0.0
 30
0.0
210
0.0
220
0.0
230
1.0
  2
SOLID
 70
     1
 71
     0
 91
        1
 92
        0
 93
        4
 72
     1
 10
-9.337863627744376
 20
-35.8
 11
-12.78413887158166
 21
-35.8
 72
     1
 10
-12.78413887158166
 20
-35.8
 11
-14.91236873078568
 21
-38.3363255805726
 72
     1
 10
-14.91236873078568
 20
-38.3363255805726
 11
-11.46606040183525
 21
-38.33628615127011
 72
     1
 10
-11.46606040183525
 20
-38.33628615127011
 11
-9.337863627744376
 21
-35.8
 97
        0
 75
     0
 76
     1
 98
        1
 10
-11.11250000000001
 20
-0.0010749287238951
  0
HATCH
  5
CE
330
1F
100
AcDbEntity
  8
중심선
100
AcDbHatch
 10
0.0
 20
0.0
 30
0.0
210
0.0
220
0.0
230
1.0
  2
SOLID
 70
     1
 71
     0
 91
        1
 92
        0
 93
        4
 72
     1
 10
-4.325099636708397
 20
-35.8
 11
-7.771374880545679
 21
-35.8
 72
     1
 10
-7.771374880545679
 20
-35.8
 11
-12.3025128889031
 21
-41.20000000000002
 72
     1
 10
-12.3025128889031
 20
-41.20000000000002
 11
-8.856237645065812
 21
-41.20000000000002
 72
     1
 10
-8.856237645065812
 20
-41.20000000000002
 11
-4.325099636708396
 21
-35.8
 97
        0
 75
     0
 76
     1
 98
        1
 10
-11.11250000000001
 20
-0.0010749287238951
  0
HATCH
  5
CF
330
1F
100
AcDbEntity
  8
중심선
100
AcDbHatch
 10
0.0
 20
0.0
 30
0.0
210
0.0
220
0.0
230
1.0
  2
SOLID
 70
     1
 71
     0
 91
        1
 92
        0
 93
        4
 72
     1
 10
0.6876643543275271
 20
-35.79999999999998
 11
-2.758610889509617
 21
-35.8
 72
     1
 10
-2.758610889509617
 20
-35.8
 11
-9.807047791398894
 21
-44.20000000000002
 72
     1
 10
-9.807047791398894
 20
-44.20000000000002
 11
-6.360772547561611
 21
-44.20000000000002
 72
     1
 10
-6.360772547561611
 20
-44.20000000000002
 11
0.6876643543275271
 21
-35.79999999999998
 97
        0
 75
     0
 76
     1
 98
        1
 10
-11.11250000000001
 20
-0.0010749287238951
  0
HATCH
  5
D0
330
1F
100
AcDbEntity
  8
중심선
100
AcDbHatch
 10
0.0
 20
0.0
 30
0.0
210
0.0
220
0.0
230
1.0
  2
SOLID
 70
     1
 71
     0
 91
        1
 92
        0
 93
        6
 72
     3
 10
5.487554785339672
 20
-40.00000000005127
 11
3.960054785062283
 21
1.540882976769353E-10
 40
0.3939339440162628
 50
17.09539180608437
 51
320.0019657685082
 73
     0
 72
     1
 10
7.170554441040238
 20
-38.58789400463833
 11
9.475856314741304
 21
-36.65356729459038
 72
     3
 10
5.487554785286825
 20
-40.00000000000015
 11
6.600054785286829
 21
-1.278976924368180E-13
 40
0.636358354079598
 50
39.99873849337411
 51
368.4976242363725
 73
     1
 72
     1
 10
11.91288727718743
 20
-39.03999999993002
 11
4.167622092122746
 21
-39.03999999993002
 72
     1
 10
4.167622092122746
 20
-39.03999999993002
 11
4.167597047676812
 21
-40.95999999992991
 72
     1
 10
4.167597047676812
 20
-40.95999999992991
 11
8.60897681714885
 21
-40.95999999992988
 97
        0
 75
     0
 76
     1
 98
        1
 10
-11.11250000000001
 20
-0.0010749287238951
  0
DIMENSION
  5
D1
330
1F
100
AcDbEntity
  8
치수문자_일반주서
100
AcDbDimension
  2
_D
 10
46.53364345078224
 20
-4.014768386275691
 30
0.0
 11
46.53364345078214
 21
24.52673161372431
 31
0.0
 70
   160
  1
%%c<>
 71
     2
 42
7.937500000000004
 52
-270.0
  3
SLDDIMSTYLE0
100
AcDbAlignedDimension
 13
30.6375
 23
3.922731613724253
 33
0.0
 14
30.6375
 24
-4.014768386275751
 34
0.0
 50
90.0000000000002
100
AcDbRotatedDimension
1001
ACAD
1000
DSTYLE
1002
{
1070
   171
1070
     6
1070
   273
1070
     5
1002
}
  0
DIMENSION
  5
E6
330
1F
100
AcDbEntity
  8
치수문자_일반주서
100
AcDbDimension
  2
_D_1
 10
9.999999999999986
 20
20.64206749063194
 30
0.0
 11
-11.26025000000001
 21
20.64206749063194
 31
0.0
 70
   160
  1
<>
 71
     2
 42
20.63750000000001
  3
SLDDIMSTYLE0
100
AcDbAlignedDimension
 13
30.6375
 23
3.893769862625843
 33
0.0
 14
9.999999999999986
 24
3.656863937283716
 34
0.0
100
AcDbRotatedDimension
1001
ACAD
1000
DSTYLE
1002
{
1070
   171
1070
     6
1070
   273
1070
     5
1002
}
  0
DIMENSION
  5
FB
330
1F
100
AcDbEntity
  8
치수문자_일반주서
100
AcDbDimension
  2
_D_2
 10
-32.8625
 20
47.50353455355771
 30
0.0
 11
-1.112499999999999
 21
47.50353455355771
 31
0.0
 70
   160
  1
<>
 71
     2
 42
63.5
  3
SLDDIMSTYLE0
100
AcDbAlignedDimension
 13
30.6375
 23
3.893769862625843
 33
0.0
 14
-32.8625
 24
3.128981613724255
 34
0.0
100
AcDbRotatedDimension
1001
ACAD
1000
DSTYLE
1002
{
1070
   171
1070
     6
1070
   273
1070
     5
1002
}
  0
DIMENSION
  5
10F
330
1F
100
AcDbEntity
  8
치수문자_일반주서
100
AcDbDimension
  2
_D_3
 10
-42.89132280062572
 20
-4.014768386275783
 30
0.0
 11
-42.89132280062582
 21
24.52673161372421
 31
0.0
 70
   160
  1
%%c<>
 71
     2
 42
7.937499999999987
 52
-270.0
  3
SLDDIMSTYLE0
100
AcDbAlignedDimension
 13
-32.06874999999999
 23
3.922731613724245
 33
0.0
 14
-32.06874999999999
 24
-4.014768386275741
 34
0.0
 50
90.0000000000002
100
AcDbRotatedDimension
1001
ACAD
1000
DSTYLE
1002
{
1070
   171
1070
     6
1070
   273
1070
     5
1002
}
  0
LINE
  5
123
330
1F
100
AcDbEntity
  8
참조1
100
AcDbLine
 10
80.1134838153456
 20
7.441074928723896
 30
0.0
 11
80.1134838153456
 21
-7.438925071276109
 31
0.0
  0
LINE
  5
124
330
1F
100
AcDbEntity
  8
참조1
100
AcDbLine
 10
92.8134838153456
 20
5.441074928723896
 30
0.0
 11
80.1134838153456
 21
5.441074928723896
 31
0.0
  0
SOLID
  5
125
330
1F
100
AcDbEntity
  8
참조1
100
AcDbTrace
 10
80.1134838153456
 20
5.441074928723896
 30
0.0
 11
86.4634838153456
 21
4.425074928723896
 31
0.0
 12
86.4634838153456
 22
6.457074928723896
 32
0.0
 13
86.4634838153456
 23
6.457074928723896
 33
0.0
  0
LINE
  5
126
330
1F
100
AcDbEntity
  8
참조1
100
AcDbLine
 10
92.8134838153456
 20
-5.438925071276109
 30
0.0
 11
80.1134838153456
 21
-5.438925071276109
 31
0.0
  0
SOLID
  5
127
330
1F
100
AcDbEntity
  8
참조1
100
AcDbTrace
 10
80.1134838153456
 20
-5.438925071276109
 30
0.0
 11
86.4634838153456
 21
-6.454925071276109
 31
0.0
 12
86.4634838153456
 22
-4.422925071276109
 32
0.0
 13
86.4634838153456
 23
-4.422925071276109
 33
0.0
  0
MTEXT
  5
128
330
1F
100
AcDbEntity
  8
참조1
100
AcDbMText
 10
89.4978339479716
 20
11.01136670591222
 30
0.0
 40
3.5
 41
0.0
 71
     1
 72
     1
  1
A
  7
SLDTEXTSTYLE0
 73
     1
 44
1.0
  0
MTEXT
  5
129
330
1F
100
AcDbEntity
  8
참조1
100
AcDbMText
 10
89.4978339479716
 20
0.1313667059122201
 30
0.0
 40
3.5
 41
0.0
 71
     1
 72
     1
  1
A
  7
SLDTEXTSTYLE0
 73
     1
 44
1.0
  0
INSERT
  5
130
330
1F
100
AcDbEntity
  8
해칭선
100
AcDbBlockReference
  2
SW_DOWELSYMBOL_0
 10
0.0
 20
0.0
 30
0.0
  0
ENDSEC
  0
SECTION
  2
OBJECTS
  0
DICTIONARY
  5
C
330
0
100
AcDbDictionary
281
     1
  3
ACAD_GROUP
350
D
  3
ACAD_IMAGE_VARS
350
154
  3
ACAD_LAYOUT
350
1A
  3
ACAD_MLINESTYLE
350
17
  3
ACAD_PLOTSETTINGS
350
19
  3
ACAD_PLOTSTYLENAME
350
E
  3
ACAD_SCALELIST
350
47
  3
APPDATA
350
152
  3
DWGPROPS
350
2CA
  0
DICTIONARY
  5
20E
330
2
100
AcDbDictionary
280
     1
281
     1
  3
ACAD_LAYERSTATES
360
20F
  0
DICTIONARY
  5
D
102
{ACAD_REACTORS
330
C
102
}
330
C
100
AcDbDictionary
281
     1
  0
RASTERVARIABLES
  5
154
102
{ACAD_REACTORS
330
C
102
}
330
C
100
AcDbRasterVariables
 90
        0
 70
     1
 71
     1
 72
     1
  0
DICTIONARY
  5
1A
102
{ACAD_REACTORS
330
C
102
}
330
C
100
AcDbDictionary
281
     1
  3
Layout1
350
1E
  3
Layout2
350
26
  3
Model
350
22
  0
DICTIONARY
  5
17
102
{ACAD_REACTORS
330
C
102
}
330
C
100
AcDbDictionary
281
     1
  3
Standard
350
18
  0
DICTIONARY
  5
19
102
{ACAD_REACTORS
330
C
102
}
330
C
100
AcDbDictionary
281
     1
  0
ACDBDICTIONARYWDFLT
  5
E
102
{ACAD_REACTORS
330
C
102
}
330
C
100
AcDbDictionary
281
     1
  3
Normal
350
F
100
AcDbDictionaryWithDefault
340
F
  0
DICTIONARY
  5
47
102
{ACAD_REACTORS
330
C
102
}
330
C
100
AcDbDictionary
281
     1
  3
A0
350
48
  3
A1
350
49
  3
A2
350
4A
  3
A3
350
4B
  3
A4
350
4C
  3
A5
350
4D
  3
A6
350
4E
  3
A7
350
4F
  3
A8
350
50
  3
A9
350
51
  3
B0
350
52
  3
B1
350
53
  3
B2
350
54
  3
B3
350
55
  3
B4
350
56
  3
B5
350
57
  3
B6
350
58
  3
B7
350
59
  3
B8
350
5A
  3
B9
350
5B
  3
C0
350
5C
  3
C1
350
5D
  3
C2
350
5E
  3
C3
350
5F
  3
C4
350
60
  3
C5
350
61
  3
C6
350
62
  3
C7
350
63
  3
C8
350
64
  3
C9
350
65
  3
D0
350
66
  3
D1
350
67
  3
D2
350
68
  0
DICTIONARY
  5
152
102
{ACAD_REACTORS
330
C
102
}
330
C
100
AcDbDictionary
281
     1
  0
XRECORD
  5
2CA
102
{ACAD_REACTORS
330
C
102
}
330
C
100
AcDbXrecord
280
     1
  1
DWGPROPS COOKIE
  2

  3

  4

  6

  7

  8
12014074
  9

300
=
301
=
302
=
303
=
304
=
305
=
306
=
307
=
308
=
309
=
 40
0.0
 41
2458316.071023114
 42
2458323.33741515
  1

 90
        0
  0
DICTIONARY
  5
20F
102
{ACAD_REACTORS
330
20E
102
}
330
20E
100
AcDbDictionary
281
     1
  0
LAYOUT
  5
1E
102
{ACAD_REACTORS
330
1A
102
}
330
1A
100
AcDbPlotSettings
  1

  2
none_device
  4

  6

 40
0.0
 41
0.0
 42
0.0
 43
0.0
 44
0.0
 45
0.0
 46
0.0
 47
0.0
 48
0.0
 49
0.0
140
0.0
141
0.0
142
1.0
143
1.0
 70
   688
 72
     1
 73
     0
 74
     5
  7

 75
    16
147
1.0
148
0.0
149
0.0
100
AcDbLayout
  1
Layout1
 70
     1
 71
     1
 10
0.0
 20
0.0
 11
420.0
 21
297.0
 12
0.0
 22
0.0
 32
0.0
 14
1.000000000000000E+20
 24
1.000000000000000E+20
 34
1.000000000000000E+20
 15
-1.000000000000000E+20
 25
-1.000000000000000E+20
 35
-1.000000000000000E+20
146
0.0
 13
0.0
 23
0.0
 33
0.0
 16
1.0
 26
0.0
 36
0.0
 17
0.0
 27
1.0
 37
0.0
 76
     0
330
1B
  0
LAYOUT
  5
26
102
{ACAD_REACTORS
330
1A
102
}
330
1A
100
AcDbPlotSettings
  1

  2
none_device
  4

  6

 40
0.0
 41
0.0
 42
0.0
 43
0.0
 44
0.0
 45
0.0
 46
0.0
 47
0.0
 48
0.0
 49
0.0
140
0.0
141
0.0
142
1.0
143
1.0
 70
   688
 72
     1
 73
     0
 74
     5
  7

 75
    16
147
1.0
148
0.0
149
0.0
100
AcDbLayout
  1
Layout2
 70
     1
 71
     2
 10
0.0
 20
0.0
 11
0.0
 21
0.0
 12
0.0
 22
0.0
 32
0.0
 14
0.0
 24
0.0
 34
0.0
 15
0.0
 25
0.0
 35
0.0
146
0.0
 13
0.0
 23
0.0
 33
0.0
 16
1.0
 26
0.0
 36
0.0
 17
0.0
 27
1.0
 37
0.0
 76
     0
330
23
  0
LAYOUT
  5
22
102
{ACAD_REACTORS
330
1A
102
}
330
1A
100
AcDbPlotSettings
  1

  2
none_device
  4
ANSI_A_(11.00_x_8.50_Inches)
  6

 40
6.35
 41
19.05
 42
6.35000508
 43
19.05000254
 44
279.4
 45
215.9
 46
79.80623740560263
 47
81.46617977972359
 48
0.0
 49
0.0
140
0.0
141
0.0
142
0.0771932023987647
143
1.0
 70
  1696
 72
     0
 73
     0
 74
     0
  7

 75
     0
147
0.0235690232323232
148
0.0
149
0.0
100
AcDbLayout
  1
Model
 70
     1
 71
     0
 10
0.0
 20
0.0
 11
420.0
 21
297.0
 12
0.0
 22
0.0
 32
0.0
 14
1.000000000000000E+20
 24
1.000000000000000E+20
 34
1.000000000000000E+20
 15
-1.000000000000000E+20
 25
-1.000000000000000E+20
 35
-1.000000000000000E+20
146
0.0
 13
0.0
 23
0.0
 33
0.0
 16
1.0
 26
0.0
 36
0.0
 17
0.0
 27
1.0
 37
0.0
 76
     0
330
1F
331
29
  0
MLINESTYLE
  5
18
102
{ACAD_REACTORS
330
17
102
}
330
17
100
AcDbMlineStyle
  2
Standard
 70
     0
  3

 62
   256
 51
90.0
 52
90.0
 71
     2
 49
0.5
 62
   256
  6
BYLAYER
 49
-0.5
 62
   256
  6
BYLAYER
  0
ACDBPLACEHOLDER
  5
F
102
{ACAD_REACTORS
330
E
102
}
330
E
  0
SCALE
  5
48
102
{ACAD_REACTORS
330
47
102
}
330
47
100
AcDbScale
 70
     0
300
1:1
140
1.0
141
1.0
290
     1
  0
SCALE
  5
49
102
{ACAD_REACTORS
330
47
102
}
330
47
100
AcDbScale
 70
     0
300
1:2
140
1.0
141
2.0
290
     0
  0
SCALE
  5
4A
102
{ACAD_REACTORS
330
47
102
}
330
47
100
AcDbScale
 70
     0
300
1:4
140
1.0
141
4.0
290
     0
  0
SCALE
  5
4B
102
{ACAD_REACTORS
330
47
102
}
330
47
100
AcDbScale
 70
     0
300
1:5
140
1.0
141
5.0
290
     0
  0
SCALE
  5
4C
102
{ACAD_REACTORS
330
47
102
}
330
47
100
AcDbScale
 70
     0
300
1:8
140
1.0
141
8.0
290
     0
  0
SCALE
  5
4D
102
{ACAD_REACTORS
330
47
102
}
330
47
100
AcDbScale
 70
     0
300
1:10
140
1.0
141
10.0
290
     0
  0
SCALE
  5
4E
102
{ACAD_REACTORS
330
47
102
}
330
47
100
AcDbScale
 70
     0
300
1:16
140
1.0
141
16.0
290
     0
  0
SCALE
  5
4F
102
{ACAD_REACTORS
330
47
102
}
330
47
100
AcDbScale
 70
     0
300
1:20
140
1.0
141
20.0
290
     0
  0
SCALE
  5
50
102
{ACAD_REACTORS
330
47
102
}
330
47
100
AcDbScale
 70
     0
300
1:30
140
1.0
141
30.0
290
     0
  0
SCALE
  5
51
102
{ACAD_REACTORS
330
47
102
}
330
47
100
AcDbScale
 70
     0
300
1:40
140
1.0
141
40.0
290
     0
  0
SCALE
  5
52
102
{ACAD_REACTORS
330
47
102
}
330
47
100
AcDbScale
 70
     0
300
1:50
140
1.0
141
50.0
290
     0
  0
SCALE
  5
53
102
{ACAD_REACTORS
330
47
102
}
330
47
100
AcDbScale
 70
     0
300
1:100
140
1.0
141
100.0
290
     0
  0
SCALE
  5
54
102
{ACAD_REACTORS
330
47
102
}
330
47
100
AcDbScale
 70
     0
300
2:1
140
2.0
141
1.0
290
     0
  0
SCALE
  5
55
102
{ACAD_REACTORS
330
47
102
}
330
47
100
AcDbScale
 70
     0
300
4:1
140
4.0
141
1.0
290
     0
  0
SCALE
  5
56
102
{ACAD_REACTORS
330
47
102
}
330
47
100
AcDbScale
 70
     0
300
8:1
140
8.0
141
1.0
290
     0
  0
SCALE
  5
57
102
{ACAD_REACTORS
330
47
102
}
330
47
100
AcDbScale
 70
     0
300
10:1
140
10.0
141
1.0
290
     0
  0
SCALE
  5
58
102
{ACAD_REACTORS
330
47
102
}
330
47
100
AcDbScale
 70
     0
300
100:1
140
100.0
141
1.0
290
     0
  0
SCALE
  5
59
102
{ACAD_REACTORS
330
47
102
}
330
47
100
AcDbScale
 70
     0
300
1/128" = 1'-0"
140
0.0078125
141
12.0
290
     0
  0
SCALE
  5
5A
102
{ACAD_REACTORS
330
47
102
}
330
47
100
AcDbScale
 70
     0
300
1/64" = 1'-0"
140
0.015625
141
12.0
290
     0
  0
SCALE
  5
5B
102
{ACAD_REACTORS
330
47
102
}
330
47
100
AcDbScale
 70
     0
300
1/32" = 1'-0"
140
0.03125
141
12.0
290
     0
  0
SCALE
  5
5C
102
{ACAD_REACTORS
330
47
102
}
330
47
100
AcDbScale
 70
     0
300
1/16" = 1'-0"
140
0.0625
141
12.0
290
     0
  0
SCALE
  5
5D
102
{ACAD_REACTORS
330
47
102
}
330
47
100
AcDbScale
 70
     0
300
3/32" = 1'-0"
140
0.09375
141
12.0
290
     0
  0
SCALE
  5
5E
102
{ACAD_REACTORS
330
47
102
}
330
47
100
AcDbScale
 70
     0
300
1/8" = 1'-0"
140
0.125
141
12.0
290
     0
  0
SCALE
  5
5F
102
{ACAD_REACTORS
330
47
102
}
330
47
100
AcDbScale
 70
     0
300
3/16" = 1'-0"
140
0.1875
141
12.0
290
     0
  0
SCALE
  5
60
102
{ACAD_REACTORS
330
47
102
}
330
47
100
AcDbScale
 70
     0
300
1/4" = 1'-0"
140
0.25
141
12.0
290
     0
  0
SCALE
  5
61
102
{ACAD_REACTORS
330
47
102
}
330
47
100
AcDbScale
 70
     0
300
3/8" = 1'-0"
140
0.375
141
12.0
290
     0
  0
SCALE
  5
62
102
{ACAD_REACTORS
330
47
102
}
330
47
100
AcDbScale
 70
     0
300
1/2" = 1'-0"
140
0.5
141
12.0
290
     0
  0
SCALE
  5
63
102
{ACAD_REACTORS
330
47
102
}
330
47
100
AcDbScale
 70
     0
300
3/4" = 1'-0"
140
0.75
141
12.0
290
     0
  0
SCALE
  5
64
102
{ACAD_REACTORS
330
47
102
}
330
47
100
AcDbScale
 70
     0
300
1" = 1'-0"
140
1.0
141
12.0
290
     0
  0
SCALE
  5
65
102
{ACAD_REACTORS
330
47
102
}
330
47
100
AcDbScale
 70
     0
300
1-1/2" = 1'-0"
140
1.5
141
12.0
290
     0
  0
SCALE
  5
66
102
{ACAD_REACTORS
330
47
102
}
330
47
100
AcDbScale
 70
     0
300
3" = 1'-0"
140
3.0
141
12.0
290
     0
  0
SCALE
  5
67
102
{ACAD_REACTORS
330
47
102
}
330
47
100
AcDbScale
 70
     0
300
6" = 1'-0"
140
6.0
141
12.0
290
     0
  0
SCALE
  5
68
102
{ACAD_REACTORS
330
47
102
}
330
47
100
AcDbScale
 70
     0
300
1'-0" = 1'-0"
140
12.0
141
12.0
290
     0
  0
ENDSEC
  0
EOF
