  0
SECTION
  2
HEADER
  9
$ACADVER
  1
AC1015
  9
$ACADMAINTVER
 70
     6
  9
$DWGCODEPAGE
  3
ANSI_949
  9
$INSBASE
 10
0.0
 20
0.0
 30
0.0
  9
$EXTMIN
 10
1.000000000000000E+20
 20
1.000000000000000E+20
 30
1.000000000000000E+20
  9
$EXTMAX
 10
-1.000000000000000E+20
 20
-1.000000000000000E+20
 30
-1.000000000000000E+20
  9
$LIMMIN
 10
0.0
 20
0.0
  9
$LIMMAX
 10
420.0
 20
297.0
  9
$ORTHOMODE
 70
     1
  9
$REGENMODE
 70
     1
  9
$FILLMODE
 70
     1
  9
$QTEXTMODE
 70
     0
  9
$MIRRTEXT
 70
     1
  9
$LTSCALE
 40
1.0
  9
$ATTMODE
 70
     1
  9
$TEXTSIZE
 40
3.5
  9
$TRACEWID
 40
1.0
  9
$TEXTSTYLE
  7
Standard
  9
$CLAYER
  8
0
  9
$CELTYPE
  6
ByLayer
  9
$CECOLOR
 62
   256
  9
$CELTSCALE
 40
1.0
  9
$DISPSILH
 70
     0
  9
$DIMSCALE
 40
1.0
  9
$DIMASZ
 40
3.302
  9
$DIMEXO
 40
1.0
  9
$DIMDLI
 40
3.75
  9
$DIMRND
 40
0.0
  9
$DIMDLE
 40
0.0
  9
$DIMEXE
 40
1.0
  9
$DIMTP
 40
0.0
  9
$DIMTM
 40
0.0
  9
$DIMTXT
 40
3.5
  9
$DIMCEN
 40
2.5
  9
$DIMTSZ
 40
0.0
  9
$DIMTOL
 70
     0
  9
$DIMLIM
 70
     0
  9
$DIMTIH
 70
     1
  9
$DIMTOH
 70
     1
  9
$DIMSE1
 70
     0
  9
$DIMSE2
 70
     0
  9
$DIMTAD
 70
     1
  9
$DIMZIN
 70
     0
  9
$DIMBLK
  1

  9
$DIMASO
 70
     1
  9
$DIMSHO
 70
     1
  9
$DIMPOST
  1

  9
$DIMAPOST
  1

  9
$DIMALT
 70
     0
  9
$DIMALTD
 70
     3
  9
$DIMALTF
 40
0.0393700787401575
  9
$DIMLFAC
 40
1.0
  9
$DIMTOFL
 70
     1
  9
$DIMTVP
 40
0.0
  9
$DIMTIX
 70
     0
  9
$DIMSOXD
 70
     0
  9
$DIMSAH
 70
     0
  9
$DIMBLK1
  1

  9
$DIMBLK2
  1

  9
$DIMSTYLE
  2
ISO-25
  9
$DIMCLRD
 70
     0
  9
$DIMCLRE
 70
     0
  9
$DIMCLRT
 70
     0
  9
$DIMTFAC
 40
1.0
  9
$DIMGAP
 40
1.524
  9
$DIMJUST
 70
     0
  9
$DIMSD1
 70
     0
  9
$DIMSD2
 70
     0
  9
$DIMTOLJ
 70
     0
  9
$DIMTZIN
 70
     0
  9
$DIMALTZ
 70
     0
  9
$DIMALTTZ
 70
     0
  9
$DIMUPT
 70
     0
  9
$DIMDEC
 70
     2
  9
$DIMTDEC
 70
     2
  9
$DIMALTU
 70
     2
  9
$DIMALTTD
 70
     3
  9
$DIMTXSTY
  7
Standard
  9
$DIMAUNIT
 70
     0
  9
$DIMADEC
 70
     2
  9
$DIMALTRND
 40
0.0
  9
$DIMAZIN
 70
     0
  9
$DIMDSEP
 70
    44
  9
$DIMATFIT
 70
     3
  9
$DIMFRAC
 70
     0
  9
$DIMLDRBLK
  1

  9
$DIMLUNIT
 70
     2
  9
$DIMLWD
 70
    -2
  9
$DIMLWE
 70
    -2
  9
$DIMTMOVE
 70
     0
  9
$LUNITS
 70
     2
  9
$LUPREC
 70
     2
  9
$SKETCHINC
 40
1.0
  9
$FILLETRAD
 40
10.0
  9
$AUNITS
 70
     0
  9
$AUPREC
 70
     2
  9
$MENU
  1
.
  9
$ELEVATION
 40
0.0
  9
$PELEVATION
 40
0.0
  9
$THICKNESS
 40
0.0
  9
$LIMCHECK
 70
     0
  9
$CHAMFERA
 40
0.0
  9
$CHAMFERB
 40
0.0
  9
$CHAMFERC
 40
0.0
  9
$CHAMFERD
 40
0.0
  9
$SKPOLY
 70
     0
  9
$TDCREATE
 40
2458316.445599699
  9
$TDUCREATE
 40
2458316.070599699
  9
$TDUPDATE
 40
2458330.425134386
  9
$TDUUPDATE
 40
2458330.050134386
  9
$TDINDWG
 40
0.0029845023
  9
$TDUSRTIMER
 40
2458330.047150185
  9
$USRTIMER
 70
     1
  9
$ANGBASE
 50
0.0
  9
$ANGDIR
 70
     0
  9
$PDMODE
 70
     0
  9
$PDSIZE
 40
-1.0
  9
$PLINEWID
 40
0.0
  9
$SPLFRAME
 70
     0
  9
$SPLINETYPE
 70
     6
  9
$SPLINESEGS
 70
     8
  9
$HANDSEED
  5
292
  9
$SURFTAB1
 70
     6
  9
$SURFTAB2
 70
     6
  9
$SURFTYPE
 70
     6
  9
$SURFU
 70
     6
  9
$SURFV
 70
     6
  9
$UCSBASE
  2

  9
$UCSNAME
  2

  9
$UCSORG
 10
0.0
 20
0.0
 30
0.0
  9
$UCSXDIR
 10
1.0
 20
0.0
 30
0.0
  9
$UCSYDIR
 10
0.0
 20
1.0
 30
0.0
  9
$UCSORTHOREF
  2

  9
$UCSORTHOVIEW
 70
     0
  9
$UCSORGTOP
 10
0.0
 20
0.0
 30
0.0
  9
$UCSORGBOTTOM
 10
0.0
 20
0.0
 30
0.0
  9
$UCSORGLEFT
 10
0.0
 20
0.0
 30
0.0
  9
$UCSORGRIGHT
 10
0.0
 20
0.0
 30
0.0
  9
$UCSORGFRONT
 10
0.0
 20
0.0
 30
0.0
  9
$UCSORGBACK
 10
0.0
 20
0.0
 30
0.0
  9
$PUCSBASE
  2

  9
$PUCSNAME
  2

  9
$PUCSORG
 10
0.0
 20
0.0
 30
0.0
  9
$PUCSXDIR
 10
1.0
 20
0.0
 30
0.0
  9
$PUCSYDIR
 10
0.0
 20
1.0
 30
0.0
  9
$PUCSORTHOREF
  2

  9
$PUCSORTHOVIEW
 70
     0
  9
$PUCSORGTOP
 10
0.0
 20
0.0
 30
0.0
  9
$PUCSORGBOTTOM
 10
0.0
 20
0.0
 30
0.0
  9
$PUCSORGLEFT
 10
0.0
 20
0.0
 30
0.0
  9
$PUCSORGRIGHT
 10
0.0
 20
0.0
 30
0.0
  9
$PUCSORGFRONT
 10
0.0
 20
0.0
 30
0.0
  9
$PUCSORGBACK
 10
0.0
 20
0.0
 30
0.0
  9
$USERI1
 70
     0
  9
$USERI2
 70
     0
  9
$USERI3
 70
     0
  9
$USERI4
 70
     0
  9
$USERI5
 70
     0
  9
$USERR1
 40
0.0
  9
$USERR2
 40
0.0
  9
$USERR3
 40
0.0
  9
$USERR4
 40
0.0
  9
$USERR5
 40
0.0
  9
$WORLDVIEW
 70
     1
  9
$SHADEDGE
 70
     3
  9
$SHADEDIF
 70
    70
  9
$TILEMODE
 70
     1
  9
$MAXACTVP
 70
    64
  9
$PINSBASE
 10
0.0
 20
0.0
 30
0.0
  9
$PLIMCHECK
 70
     0
  9
$PEXTMIN
 10
1.000000000000000E+20
 20
1.000000000000000E+20
 30
1.000000000000000E+20
  9
$PEXTMAX
 10
-1.000000000000000E+20
 20
-1.000000000000000E+20
 30
-1.000000000000000E+20
  9
$PLIMMIN
 10
0.0
 20
0.0
  9
$PLIMMAX
 10
0.0
 20
0.0
  9
$UNITMODE
 70
     0
  9
$VISRETAIN
 70
     1
  9
$PLINEGEN
 70
     0
  9
$PSLTSCALE
 70
     1
  9
$TREEDEPTH
 70
  3020
  9
$CMLSTYLE
  2
Standard
  9
$CMLJUST
 70
     0
  9
$CMLSCALE
 40
20.0
  9
$PROXYGRAPHICS
 70
     1
  9
$MEASUREMENT
 70
     1
  9
$CELWEIGHT
370
    -1
  9
$ENDCAPS
280
     0
  9
$JOINSTYLE
280
     0
  9
$LWDISPLAY
290
     1
  9
$INSUNITS
 70
     4
  9
$HYPERLINKBASE
  1

  9
$STYLESHEET
  1

  9
$XEDIT
290
     1
  9
$CEPSNTYPE
380
     0
  9
$PSTYLEMODE
290
     1
  9
$FINGERPRINTGUID
  2
{9833E700-FEE6-4880-93A5-1A98682B5A07}
  9
$VERSIONGUID
  2
{FAEB1C32-E019-11D5-929B-00C0DF256EC4}
  9
$EXTNAMES
290
     1
  9
$PSVPSCALE
 40
0.0
  9
$OLESTARTUP
290
     0
  0
ENDSEC
  0
SECTION
  2
CLASSES
  0
CLASS
  1
ACDBDICTIONARYWDFLT
  2
AcDbDictionaryWithDefault
  3
ObjectDBX Classes
 90
        0
280
     0
281
     0
  0
CLASS
  1
VISUALSTYLE
  2
AcDbVisualStyle
  3
ObjectDBX Classes
 90
     4095
280
     0
281
     0
  0
CLASS
  1
MATERIAL
  2
AcDbMaterial
  3
ObjectDBX Classes
 90
     1153
280
     0
281
     0
  0
CLASS
  1
SCALE
  2
AcDbScale
  3
ObjectDBX Classes
 90
     1153
280
     0
281
     0
  0
CLASS
  1
SUN
  2
AcDbSun
  3
SCENEOE
 90
     1153
280
     0
281
     0
  0
CLASS
  1
ACDBPLACEHOLDER
  2
AcDbPlaceHolder
  3
ObjectDBX Classes
 90
        0
280
     0
281
     0
  0
CLASS
  1
LAYOUT
  2
AcDbLayout
  3
ObjectDBX Classes
 90
        0
280
     0
281
     0
  0
CLASS
  1
TABLESTYLE
  2
AcDbTableStyle
  3
ObjectDBX Classes
 90
     4095
280
     0
281
     0
  0
CLASS
  1
MLEADERSTYLE
  2
AcDbMLeaderStyle
  3
ACDB_MLEADERSTYLE_CLASS
 90
     4095
280
     0
281
     0
  0
CLASS
  1
RASTERVARIABLES
  2
AcDbRasterVariables
  3
ISM
 90
        0
280
     0
281
     0
  0
ENDSEC
  0
SECTION
  2
TABLES
  0
TABLE
  2
VPORT
  5
8
330
0
100
AcDbSymbolTable
 70
     1
  0
VPORT
  5
29
330
8
100
AcDbSymbolTableRecord
100
AcDbViewportTableRecord
  2
*Active
 70
     0
 10
0.0
 20
0.0
 11
1.0
 21
1.0
 12
-28.84973114496423
 22
7.864578634322218
 13
0.0
 23
0.0
 14
10.0
 24
10.0
 15
10.0
 25
10.0
 16
0.0
 26
0.0
 36
1.0
 17
0.0
 27
0.0
 37
0.0
 40
138.7314431575358
 41
1.516441005802708
 42
50.0
 43
0.0
 44
0.0
 50
0.0
 51
0.0
 71
    16
 72
  2000
 73
     1
 74
     3
 75
     0
 76
     0
 77
     0
 78
     0
281
     0
 65
     1
110
0.0
120
0.0
130
0.0
111
1.0
121
0.0
131
0.0
112
0.0
122
1.0
132
0.0
 79
     0
146
0.0
  0
ENDTAB
  0
TABLE
  2
LTYPE
  5
5
330
0
100
AcDbSymbolTable
 70
     6
  0
LTYPE
  5
14
330
5
100
AcDbSymbolTableRecord
100
AcDbLinetypeTableRecord
  2
ByBlock
 70
     0
  3

 72
    65
 73
     0
 40
0.0
  0
LTYPE
  5
15
330
5
100
AcDbSymbolTableRecord
100
AcDbLinetypeTableRecord
  2
ByLayer
 70
     0
  3

 72
    65
 73
     0
 40
0.0
  0
LTYPE
  5
16
330
5
100
AcDbSymbolTableRecord
100
AcDbLinetypeTableRecord
  2
Continuous
 70
     0
  3
Solid line
 72
    65
 73
     0
 40
0.0
  0
LTYPE
  5
6A
330
5
100
AcDbSymbolTableRecord
100
AcDbLinetypeTableRecord
  2
HIDDEN
 70
     0
  3
Hidden __ __ __ __ __ __ __ __ __ __ __ __ __ __
 72
    65
 73
     2
 40
1.905
 49
1.27
 74
     0
 49
-0.635
 74
     0
  0
LTYPE
  5
6B
330
5
100
AcDbSymbolTableRecord
100
AcDbLinetypeTableRecord
  2
PHANTOM
 70
     0
  3
Phantom ______  __  __  ______  __  __  ______
 72
    65
 73
     6
 40
12.7
 49
6.35
 74
     0
 49
-1.27
 74
     0
 49
1.27
 74
     0
 49
-1.27
 74
     0
 49
1.27
 74
     0
 49
-1.27
 74
     0
  0
LTYPE
  5
6C
330
5
100
AcDbSymbolTableRecord
100
AcDbLinetypeTableRecord
  2
CENTER
 70
     0
  3
Center ____ _ ____ _ ____ _ ____ _ ____ _ ____
 72
    65
 73
     4
 40
10.16
 49
6.35
 74
     0
 49
-1.27
 74
     0
 49
1.27
 74
     0
 49
-1.27
 74
     0
  0
LTYPE
  5
6D
330
5
100
AcDbSymbolTableRecord
100
AcDbLinetypeTableRecord
  2
CENTERX2
 70
     0
  3
Center (2x) ________  __  ________  __  _____
 72
    65
 73
     4
 40
20.32
 49
12.7
 74
     0
 49
-2.54
 74
     0
 49
2.54
 74
     0
 49
-2.54
 74
     0
  0
LTYPE
  5
6E
330
5
100
AcDbSymbolTableRecord
100
AcDbLinetypeTableRecord
  2
DOT2
 70
     0
  3
Dot (.5x) ........................................
 72
    65
 73
     2
 40
0.635
 49
0.0
 74
     0
 49
-0.635
 74
     0
  0
ENDTAB
  0
TABLE
  2
LAYER
  5
2
102
{ACAD_XDICTIONARY
360
1D6
102
}
330
0
100
AcDbSymbolTable
 70
    18
  0
LAYER
  5
10
330
2
100
AcDbSymbolTableRecord
100
AcDbLayerTableRecord
  2
0
 70
     0
 62
     7
  6
Continuous
370
    -3
390
F
  0
LAYER
  5
6F
330
2
100
AcDbSymbolTableRecord
100
AcDbLayerTableRecord
  2
FORMAT
 70
     0
 62
     2
  6
Continuous
370
    -3
390
F
  0
LAYER
  5
70
330
2
100
AcDbSymbolTableRecord
100
AcDbLayerTableRecord
  2
외형선
 70
     0
 62
     4
  6
Continuous
370
    30
390
F
  0
LAYER
  5
71
330
2
100
AcDbSymbolTableRecord
100
AcDbLayerTableRecord
  2
숨은선
 70
     0
 62
     2
  6
HIDDEN
370
    15
390
F
  0
LAYER
  5
72
330
2
100
AcDbSymbolTableRecord
100
AcDbLayerTableRecord
  2
중심선
 70
     0
 62
     1
  6
CENTERX2
370
    -3
390
F
  0
LAYER
  5
73
330
2
100
AcDbSymbolTableRecord
100
AcDbLayerTableRecord
  2
파단선
 70
     0
 62
     4
  6
Continuous
370
    -3
390
F
  0
LAYER
  5
74
330
2
100
AcDbSymbolTableRecord
100
AcDbLayerTableRecord
  2
해칭선
 70
     0
 62
   100
  6
Continuous
370
    -3
390
F
  0
LAYER
  5
75
330
2
100
AcDbSymbolTableRecord
100
AcDbLayerTableRecord
  2
가는실선
 70
     0
 62
     4
  6
Continuous
370
    -3
390
F
  0
LAYER
  5
76
330
2
100
AcDbSymbolTableRecord
100
AcDbLayerTableRecord
  2
치수_보조선
 70
     0
 62
     4
  6
Continuous
370
    -3
390
F
  0
LAYER
  5
77
330
2
100
AcDbSymbolTableRecord
100
AcDbLayerTableRecord
  2
치수문자_일반주서
 70
     0
 62
     7
  6
Continuous
370
    15
390
F
  0
LAYER
  5
78
330
2
100
AcDbSymbolTableRecord
100
AcDbLayerTableRecord
  2
개별주서
 70
     0
 62
   100
  6
Continuous
370
    30
390
F
  0
LAYER
  5
79
330
2
100
AcDbSymbolTableRecord
100
AcDbLayerTableRecord
  2
중간선
 70
     0
 62
     2
  6
Continuous
370
    15
390
F
  0
LAYER
  5
7A
330
2
100
AcDbSymbolTableRecord
100
AcDbLayerTableRecord
  2
윤곽선
 70
     0
 62
     3
  6
Continuous
370
    40
390
F
  0
LAYER
  5
7B
330
2
100
AcDbSymbolTableRecord
100
AcDbLayerTableRecord
  2
중심마크
 70
     0
 62
   100
  6
Continuous
370
    30
390
F
  0
LAYER
  5
7C
330
2
100
AcDbSymbolTableRecord
100
AcDbLayerTableRecord
  2
가상선
 70
     0
 62
     4
  6
PHANTOM
370
    -3
390
F
  0
LAYER
  5
7D
330
2
100
AcDbSymbolTableRecord
100
AcDbLayerTableRecord
  2
특수지정선
 70
     0
 62
     5
  6
CENTERX2
370
    60
390
F
  0
LAYER
  5
7E
330
2
100
AcDbSymbolTableRecord
100
AcDbLayerTableRecord
  2
참조1
 70
     0
 62
    -4
  6
Continuous
370
    -3
390
F
  0
LAYER
  5
133
330
2
100
AcDbSymbolTableRecord
100
AcDbLayerTableRecord
  2
Defpoints
 70
     0
 62
     7
  6
Continuous
290
     0
370
    -3
390
F
  0
ENDTAB
  0
TABLE
  2
STYLE
  5
3
330
0
100
AcDbSymbolTable
 70
     2
  0
STYLE
  5
11
330
3
100
AcDbSymbolTableRecord
100
AcDbTextStyleTableRecord
  2
Standard
 70
     0
 40
0.0
 41
1.0
 50
0.0
 71
     0
 42
3.5
  3
txt
  4

  0
STYLE
  5
94
330
3
100
AcDbSymbolTableRecord
100
AcDbTextStyleTableRecord
  2
SLDTEXTSTYLE0
 70
     0
 40
0.0
 41
0.75
 50
0.0
 71
     0
 42
3.5
  3
TXT
  4

  0
ENDTAB
  0
TABLE
  2
VIEW
  5
6
330
0
100
AcDbSymbolTable
 70
     0
  0
ENDTAB
  0
TABLE
  2
UCS
  5
7
330
0
100
AcDbSymbolTable
 70
     0
  0
ENDTAB
  0
TABLE
  2
APPID
  5
9
330
0
100
AcDbSymbolTable
 70
     1
  0
APPID
  5
12
330
9
100
AcDbSymbolTableRecord
100
AcDbRegAppTableRecord
  2
ACAD
 70
     0
  0
ENDTAB
  0
TABLE
  2
DIMSTYLE
  5
A
330
0
100
AcDbSymbolTable
 70
     4
100
AcDbDimStyleTable
  0
DIMSTYLE
105
27
330
A
100
AcDbSymbolTableRecord
100
AcDbDimStyleTableRecord
  2
ISO-25
 70
     0
 41
2.5
 42
0.625
 43
3.75
 44
1.25
 73
     0
 74
     0
 77
     1
 78
     8
140
2.5
141
2.5
143
0.03937007874016
147
0.625
171
     3
172
     1
178
     0
271
     2
272
     2
274
     3
278
    44
283
     0
284
     8
340
11
  0
DIMSTYLE
105
B0
102
{ACAD_REACTORS
330
192
330
1A2
330
1B2
330
1BF
330
249
330
24A
330
24B
330
24C
102
}
330
A
100
AcDbSymbolTableRecord
100
AcDbDimStyleTableRecord
  2
SLDDIMSTYLE0
 70
     0
 41
3.302
 44
0.0
 45
0.000000001
 73
     0
 74
     0
 77
     1
 78
    12
 79
     3
140
3.5
143
0.0393700787401575
147
0.875
148
0.000000001
170
     1
172
     1
173
     1
178
     0
271
     2
272
     2
276
     2
284
    12
289
     0
340
94
  0
DIMSTYLE
105
C5
330
A
100
AcDbSymbolTableRecord
100
AcDbDimStyleTableRecord
  2
SLDDIMSTYLE1
 70
     0
 41
3.302
 44
0.0
 45
0.000000001
 73
     0
 74
     0
 77
     1
 78
    12
 79
     3
140
3.5
143
0.0393700787401575
147
0.875
148
0.000000001
170
     1
173
     1
178
     0
271
     2
272
     2
276
     2
284
    12
340
94
  0
DIMSTYLE
105
DA
330
A
100
AcDbSymbolTableRecord
100
AcDbDimStyleTableRecord
  2
SLDDIMSTYLE2
 70
     0
 41
3.302
 44
0.0
 45
0.000000001
 73
     0
 74
     0
 77
     1
 78
     4
 79
     1
140
3.5
143
0.0393700787401575
147
0.875
148
0.000000001
170
     1
173
     1
178
     0
271
     2
272
     2
276
     2
284
    12
340
94
  0
ENDTAB
  0
TABLE
  2
BLOCK_RECORD
  5
1
330
0
100
AcDbSymbolTable
 70
    16
  0
BLOCK_RECORD
  5
1F
330
1
100
AcDbSymbolTableRecord
100
AcDbBlockTableRecord
  2
*Model_Space
340
22
  0
BLOCK_RECORD
  5
1B
330
1
100
AcDbSymbolTableRecord
100
AcDbBlockTableRecord
  2
*Paper_Space
340
1E
  0
BLOCK_RECORD
  5
23
330
1
100
AcDbSymbolTableRecord
100
AcDbBlockTableRecord
  2
*Paper_Space0
340
26
  0
BLOCK_RECORD
  5
7F
330
1
100
AcDbSymbolTableRecord
100
AcDbBlockTableRecord
  2
블럭10
340
0
102
{BLKREFS
331
A8
102
}
  0
BLOCK_RECORD
  5
B1
330
1
100
AcDbSymbolTableRecord
100
AcDbBlockTableRecord
  2
_D
340
0
  0
BLOCK_RECORD
  5
C6
330
1
100
AcDbSymbolTableRecord
100
AcDbBlockTableRecord
  2
_D_1
340
0
  0
BLOCK_RECORD
  5
DB
330
1
100
AcDbSymbolTableRecord
100
AcDbBlockTableRecord
  2
_D_2
340
0
  0
BLOCK_RECORD
  5
EE
330
1
100
AcDbSymbolTableRecord
100
AcDbBlockTableRecord
  2
_D_3
340
0
  0
BLOCK_RECORD
  5
108
330
1
100
AcDbSymbolTableRecord
100
AcDbBlockTableRecord
  2
SW_DOWELSYMBOL_0
340
0
102
{BLKREFS
331
0
331
1CF
331
24D
102
}
  0
BLOCK_RECORD
  5
1DA
330
1
100
AcDbSymbolTableRecord
100
AcDbBlockTableRecord
  2
*D8
340
0
  0
BLOCK_RECORD
  5
1E9
330
1
100
AcDbSymbolTableRecord
100
AcDbBlockTableRecord
  2
*D9
340
0
  0
BLOCK_RECORD
  5
1F8
330
1
100
AcDbSymbolTableRecord
100
AcDbBlockTableRecord
  2
*D10
340
0
  0
BLOCK_RECORD
  5
204
330
1
100
AcDbSymbolTableRecord
100
AcDbBlockTableRecord
  2
*D11
340
0
  0
BLOCK_RECORD
  5
24E
330
1
100
AcDbSymbolTableRecord
100
AcDbBlockTableRecord
  2
*D12
340
0
  0
BLOCK_RECORD
  5
25D
330
1
100
AcDbSymbolTableRecord
100
AcDbBlockTableRecord
  2
*D13
340
0
  0
BLOCK_RECORD
  5
26C
330
1
100
AcDbSymbolTableRecord
100
AcDbBlockTableRecord
  2
*D14
340
0
  0
BLOCK_RECORD
  5
278
330
1
100
AcDbSymbolTableRecord
100
AcDbBlockTableRecord
  2
*D15
340
0
  0
ENDTAB
  0
ENDSEC
  0
SECTION
  2
BLOCKS
  0
BLOCK
  5
20
330
1F
100
AcDbEntity
  8
0
100
AcDbBlockBegin
  2
*Model_Space
 70
     0
 10
0.0
 20
0.0
 30
0.0
  3
*Model_Space
  1
*Model_Space
  0
ENDBLK
  5
21
330
1F
100
AcDbEntity
  8
0
100
AcDbBlockEnd
  0
BLOCK
  5
1C
330
1B
100
AcDbEntity
 67
     1
  8
0
100
AcDbBlockBegin
  2
*Paper_Space
 70
     0
 10
0.0
 20
0.0
 30
0.0
  3
*Paper_Space
  1
*Paper_Space
  0
ENDBLK
  5
1D
330
1B
100
AcDbEntity
 67
     1
  8
0
100
AcDbBlockEnd
  0
BLOCK
  5
24
330
23
100
AcDbEntity
  8
0
100
AcDbBlockBegin
  2
*Paper_Space0
 70
     0
 10
0.0
 20
0.0
 30
0.0
  3
*Paper_Space0
  1
*Paper_Space0
  0
ENDBLK
  5
25
330
23
100
AcDbEntity
  8
0
100
AcDbBlockEnd
  0
BLOCK
  5
80
330
7F
100
AcDbEntity
  8
0
100
AcDbBlockBegin
  2
블럭10
 70
     2
 10
0.0
 20
0.0
 30
0.0
  3
블럭10
  1
블럭10
  0
ELLIPSE
  5
82
330
7F
100
AcDbEntity
  8
중심선
100
AcDbEllipse
 10
20.54032771741204
 20
12.0471743016438
 30
0.0
 11
6.600054785286829
 21
-1.261213355974178E-13
 31
0.0
210
0.0
220
0.0
230
1.0
 40
0.636358354079598
 41
0.9219305317359503
 42
6.513795318482858
  0
ELLIPSE
  5
83
330
7F
100
AcDbEntity
  8
중심선
100
AcDbEllipse
 10
20.54032771746488
 20
12.04717430159265
 30
0.0
 11
3.960054785062283
 21
1.540847449632565E-10
 31
0.0
210
0.0
220
0.0
230
1.0
 40
0.3939339440162632
 41
1.131841032648279
 42
5.62031148352944
  0
LINE
  5
84
330
7F
100
AcDbEntity
  8
중심선
100
AcDbLine
 10
2.268634060543552
 20
16.24717430164393
 30
0.0
 11
5.714909304380834
 21
16.24717430164393
 31
0.0
  0
LINE
  5
85
330
7F
100
AcDbEntity
  8
중심선
100
AcDbLine
 10
5.245725140726316
 20
7.84717430164391
 30
0.0
 11
8.692000384563599
 21
7.84717430164391
 31
0.0
  0
LINE
  5
86
330
7F
100
AcDbEntity
  8
중심선
100
AcDbLine
 10
15.74043728645272
 20
16.24717430164393
 30
0.0
 11
8.692000384563599
 21
7.84717430164391
 31
0.0
  0
LINE
  5
87
330
7F
100
AcDbEntity
  8
중심선
100
AcDbLine
 10
0.1404042013395286
 20
13.71084872107135
 30
0.0
 11
3.58671253028996
 21
13.71088815037384
 31
0.0
  0
LINE
  5
88
330
7F
100
AcDbEntity
  8
중심선
100
AcDbLine
 10
2.750260043222114
 20
10.84717430164391
 30
0.0
 11
6.196535287059397
 21
10.84717430164391
 31
0.0
  0
LINE
  5
89
330
7F
100
AcDbEntity
  8
중심선
100
AcDbLine
 10
12.29416204261559
 20
16.24717430164393
 30
0.0
 11
5.245725140726316
 21
7.84717430164391
 31
0.0
  0
LINE
  5
8A
330
7F
100
AcDbEntity
  8
중심선
100
AcDbLine
 10
10.72767329541681
 20
16.24717430164393
 30
0.0
 11
6.196535287059397
 21
10.84717430164391
 31
0.0
  0
LINE
  5
8B
330
7F
100
AcDbEntity
  8
중심선
100
AcDbLine
 10
7.28139805157953
 20
16.24717430164393
 30
0.0
 11
2.750260043222114
 21
10.84717430164391
 31
0.0
  0
LINE
  5
8C
330
7F
100
AcDbEntity
  8
중심선
100
AcDbLine
 10
5.714909304380834
 20
16.24717430164393
 30
0.0
 11
3.58671253028996
 21
13.71088815037384
 31
0.0
  0
LINE
  5
8D
330
7F
100
AcDbEntity
  8
중심선
100
AcDbLine
 10
2.268634060543552
 20
16.24717430164393
 30
0.0
 11
0.1404042013395286
 21
13.71084872107135
 31
0.0
  0
LINE
  5
8E
330
7F
100
AcDbEntity
  8
중심선
100
AcDbLine
 10
7.28139805157953
 20
16.24717430164393
 30
0.0
 11
10.72767329541681
 21
16.24717430164393
 31
0.0
  0
LINE
  5
8F
330
7F
100
AcDbEntity
  8
중심선
100
AcDbLine
 10
12.29416204261559
 20
16.24717430164393
 30
0.0
 11
15.74043728645272
 21
16.24717430164393
 31
0.0
  0
LINE
  5
90
330
7F
100
AcDbEntity
  8
중심선
100
AcDbLine
 10
19.22036997980202
 20
11.08717430171403
 30
0.0
 11
23.66174974927406
 21
11.08717430171406
 31
0.0
  0
LINE
  5
91
330
7F
100
AcDbEntity
  8
중심선
100
AcDbLine
 10
19.22039502424796
 20
13.00717430171391
 30
0.0
 11
19.22036997980202
 21
11.08717430171403
 31
0.0
  0
LINE
  5
92
330
7F
100
AcDbEntity
  8
중심선
100
AcDbLine
 10
19.22039502424796
 20
13.00717430171391
 30
0.0
 11
26.96566020931264
 21
13.00717430171391
 31
0.0
  0
LINE
  5
93
330
7F
100
AcDbEntity
  8
중심선
100
AcDbLine
 10
22.22332737316547
 20
13.45928029700563
 30
0.0
 11
24.52862924686651
 21
15.39360700705356
 31
0.0
  0
ATTDEF
  5
95
330
7F
100
AcDbEntity
  8
FORMAT
 62
     2
100
AcDbText
 10
4.408487351596664
 20
2.075366912832191
 30
0.0
 40
4.233333333333333
  1
E5067014
 41
0.75
  7
SLDTEXTSTYLE0
 11
4.408487351596664
 21
-0.0412997538344756
 31
0.0
100
AcDbAttributeDefinition
  3

  2
AUTOATTR0
 70
     0
 74
     1
  0
ENDBLK
  5
81
330
7F
100
AcDbEntity
  8
0
100
AcDbBlockEnd
  0
BLOCK
  5
B2
330
B1
100
AcDbEntity
  8
0
100
AcDbBlockBegin
  2
_D
 70
     0
 10
0.0
 20
0.0
 30
0.0
  3
_D
  1
_D
  0
SOLID
  5
B4
330
B1
100
AcDbEntity
  8
치수문자_일반주서
100
AcDbTrace
 10
48.05
 20
1.542556542448147
 30
0.0
 11
48.55800000000001
 21
4.844556542448147
 31
0.0
 12
47.542
 22
4.844556542448147
 32
0.0
 13
47.542
 23
4.844556542448147
 33
0.0
  0
SOLID
  5
B5
330
B1
100
AcDbEntity
  8
치수문자_일반주서
100
AcDbTrace
 10
48.05
 20
-1.632443457551854
 30
0.0
 11
47.542
 21
-4.934443457551854
 31
0.0
 12
48.55800000000001
 22
-4.934443457551854
 32
0.0
 13
48.55800000000001
 23
-4.934443457551854
 33
0.0
  0
LINE
  5
B6
330
B1
100
AcDbEntity
  8
치수문자_일반주서
100
AcDbLine
 10
37.25711828395728
 20
12.52710338644911
 30
0.0
 11
37.25711828395728
 21
11.81616590088461
 31
0.0
  0
LINE
  5
B7
330
B1
100
AcDbEntity
  8
치수문자_일반주서
100
AcDbLine
 10
37.25711828395728
 20
11.81616590088461
 30
0.0
 11
42.81336827501659
 21
11.81616590088465
 31
0.0
  0
LINE
  5
B8
330
B1
100
AcDbEntity
  8
치수문자_일반주서
100
AcDbLine
 10
42.81336827501659
 20
11.81616590088465
 30
0.0
 11
42.81336827501658
 21
12.52710338644915
 31
0.0
  0
LINE
  5
B9
330
B1
100
AcDbEntity
  8
치수문자_일반주서
100
AcDbLine
 10
37.2571182839572
 20
23.35583624858637
 30
0.0
 11
37.2571182839572
 21
24.06677373415087
 31
0.0
  0
LINE
  5
BA
330
B1
100
AcDbEntity
  8
치수문자_일반주서
100
AcDbLine
 10
37.2571182839572
 20
24.06677373415087
 30
0.0
 11
42.8133682750165
 21
24.06677373415091
 31
0.0
  0
LINE
  5
BB
330
B1
100
AcDbEntity
  8
치수문자_일반주서
100
AcDbLine
 10
42.8133682750165
 20
24.06677373415091
 30
0.0
 11
42.81336827501651
 21
23.35583624858641
 31
0.0
  0
LINE
  5
BC
330
B1
100
AcDbEntity
  8
치수문자_일반주서
100
AcDbLine
 10
30.05000000000001
 20
1.542556542448148
 30
0.0
 11
49.05
 21
1.542556542448147
 31
0.0
  0
LINE
  5
BD
330
B1
100
AcDbEntity
  8
치수문자_일반주서
100
AcDbLine
 10
30.05000000000001
 20
-1.632443457551853
 30
0.0
 11
49.05
 21
-1.632443457551854
 31
0.0
  0
LINE
  5
BE
330
B1
100
AcDbEntity
  8
치수문자_일반주서
100
AcDbLine
 10
48.05
 20
1.542556542448147
 30
0.0
 11
48.05
 21
25.10638351282342
 31
0.0
  0
LINE
  5
BF
330
B1
100
AcDbEntity
  8
치수문자_일반주서
100
AcDbLine
 10
48.05
 20
1.542556542448147
 30
0.0
 11
48.05
 21
-1.632443457551854
 31
0.0
  0
LINE
  5
C0
330
B1
100
AcDbEntity
  8
치수문자_일반주서
100
AcDbLine
 10
48.05
 20
-1.632443457551854
 30
0.0
 11
48.05
 21
-7.982443457551854
 31
0.0
  0
MTEXT
  5
C1
330
B1
100
AcDbEntity
  8
치수문자_일반주서
100
AcDbMText
 10
38.30163136043768
 20
13.41577528706049
 30
0.0
 40
3.5
 41
0.0
 71
     1
 72
     1
  1
0.13
  7
SLDTEXTSTYLE0
 11
-7.044195017643634E-15
 21
1.0
 31
0.0
 73
     1
 44
1.0
  0
MTEXT
  5
C2
330
B1
100
AcDbEntity
  8
치수문자_일반주서
100
AcDbMText
 10
43.53826291079817
 20
10.7765561222122
 30
0.0
 40
3.5
 41
0.0
 71
     1
 72
     1
  1
%%c
  7
SLDTEXTSTYLE0
 11
-7.044195017643634E-15
 21
1.0
 31
0.0
 73
     1
 44
1.0
  0
MTEXT
  5
C3
330
B1
100
AcDbEntity
  8
치수문자_일반주서
100
AcDbMText
 10
43.53826291079813
 20
16.05499352058628
 30
0.0
 40
3.5
 41
0.0
 71
     1
 72
     1
  1
3.18
  7
SLDTEXTSTYLE0
 11
-7.044195017643634E-15
 21
1.0
 31
0.0
 73
     1
 44
1.0
  0
ENDBLK
  5
B3
330
B1
100
AcDbEntity
  8
0
100
AcDbBlockEnd
  0
BLOCK
  5
C7
330
C6
100
AcDbEntity
  8
0
100
AcDbBlockBegin
  2
_D_1
 70
     0
 10
0.0
 20
0.0
 30
0.0
  3
_D_1
  1
_D_1
  0
SOLID
  5
C9
330
C6
100
AcDbEntity
  8
치수문자_일반주서
100
AcDbTrace
 10
29.04999999999986
 20
28.71335365288157
 30
0.0
 11
25.74799999999986
 21
29.22135365288155
 31
0.0
 12
25.74799999999986
 22
28.20535365288155
 32
0.0
 13
25.74799999999986
 23
28.20535365288155
 33
0.0
  0
SOLID
  5
CA
330
C6
100
AcDbEntity
  8
치수문자_일반주서
100
AcDbTrace
 10
14.76249999999985
 20
28.71335365288148
 30
0.0
 11
18.06449999999985
 21
28.2053536528815
 31
0.0
 12
18.06449999999984
 22
29.2213536528815
 32
0.0
 13
18.06449999999984
 23
29.2213536528815
 33
0.0
  0
LINE
  5
CB
330
C6
100
AcDbEntity
  8
치수문자_일반주서
100
AcDbLine
 10
46.13563391817781
 20
39.50623536892449
 30
0.0
 11
45.42469643261331
 21
39.50623536892448
 31
0.0
  0
LINE
  5
CC
330
C6
100
AcDbEntity
  8
치수문자_일반주서
100
AcDbLine
 10
45.42469643261331
 20
39.50623536892448
 30
0.0
 11
45.42469643261337
 21
33.94998537786518
 31
0.0
  0
LINE
  5
CD
330
C6
100
AcDbEntity
  8
치수문자_일반주서
100
AcDbLine
 10
45.42469643261337
 20
33.94998537786518
 30
0.0
 11
46.13563391817787
 21
33.94998537786518
 31
0.0
  0
LINE
  5
CE
330
C6
100
AcDbEntity
  8
치수문자_일반주서
100
AcDbLine
 10
56.96436678031507
 20
39.50623536892464
 30
0.0
 11
57.67530426587957
 21
39.50623536892464
 31
0.0
  0
LINE
  5
CF
330
C6
100
AcDbEntity
  8
치수문자_일반주서
100
AcDbLine
 10
57.67530426587957
 20
39.50623536892464
 30
0.0
 11
57.67530426587963
 21
33.94998537786534
 31
0.0
  0
LINE
  5
D0
330
C6
100
AcDbEntity
  8
치수문자_일반주서
100
AcDbLine
 10
57.67530426587963
 20
33.94998537786534
 30
0.0
 11
56.96436678031513
 21
33.94998537786533
 31
0.0
  0
LINE
  5
D1
330
C6
100
AcDbEntity
  8
치수문자_일반주서
100
AcDbLine
 10
29.05000000000001
 20
3.318929491789103
 30
0.0
 11
29.04999999999985
 21
29.71335365288157
 31
0.0
  0
LINE
  5
D2
330
C6
100
AcDbEntity
  8
치수문자_일반주서
100
AcDbLine
 10
14.7625
 20
3.335581629727744
 30
0.0
 11
14.76249999999984
 21
29.71335365288148
 31
0.0
  0
LINE
  5
D3
330
C6
100
AcDbEntity
  8
치수문자_일반주서
100
AcDbLine
 10
29.04999999999986
 20
28.71335365288157
 30
0.0
 11
59.50156229287433
 21
28.71335365288175
 31
0.0
  0
LINE
  5
D4
330
C6
100
AcDbEntity
  8
치수문자_일반주서
100
AcDbLine
 10
29.04999999999986
 20
28.71335365288157
 30
0.0
 11
14.76249999999985
 21
28.71335365288148
 31
0.0
  0
MTEXT
  5
D5
330
C6
100
AcDbEntity
  8
치수문자_일반주서
100
AcDbMText
 10
44.91093770712669
 20
33.27856291874345
 30
0.0
 40
3.5
 41
0.0
 71
     1
 72
     1
  1

  7
SLDTEXTSTYLE0
 73
     1
 44
1.0
  0
MTEXT
  5
D6
330
C6
100
AcDbEntity
  8
치수문자_일반주서
100
AcDbMText
 10
47.0243058187892
 20
38.46172229244409
 30
0.0
 40
3.5
 41
0.0
 71
     1
 72
     1
  1
0.56
  7
SLDTEXTSTYLE0
 73
     1
 44
1.0
  0
MTEXT
  5
D7
330
C6
100
AcDbEntity
  8
치수문자_일반주서
100
AcDbMText
 10
45.73125010561253
 20
33.2250907420836
 30
0.0
 40
3.5
 41
0.0
 71
     1
 72
     1
  1
14.29
  7
SLDTEXTSTYLE0
 73
     1
 44
1.0
  0
MTEXT
  5
D8
330
C6
100
AcDbEntity
  8
치수문자_일반주서
100
AcDbMText
 10
59.52100751102026
 20
33.27856291874363
 30
0.0
 40
3.5
 41
0.0
 71
     1
 72
     1
  1

  7
SLDTEXTSTYLE0
 73
     1
 44
1.0
  0
ENDBLK
  5
C8
330
C6
100
AcDbEntity
  8
0
100
AcDbBlockEnd
  0
BLOCK
  5
DC
330
DB
100
AcDbEntity
  8
0
100
AcDbBlockBegin
  2
_D_2
 70
     0
 10
0.0
 20
0.0
 30
0.0
  3
_D_2
  1
_D_2
  0
SOLID
  5
DE
330
DB
100
AcDbEntity
  8
치수문자_일반주서
100
AcDbTrace
 10
29.05000000000001
 20
45.92869418272097
 30
0.0
 11
25.74800000000001
 21
46.43669418272097
 31
0.0
 12
25.74800000000001
 22
45.42069418272096
 32
0.0
 13
25.74800000000001
 23
45.42069418272096
 33
0.0
  0
SOLID
  5
DF
330
DB
100
AcDbEntity
  8
치수문자_일반주서
100
AcDbTrace
 10
-21.74999999999999
 20
45.92869418272097
 30
0.0
 11
-18.44799999999999
 21
45.42069418272096
 31
0.0
 12
-18.44799999999999
 22
46.43669418272097
 32
0.0
 13
-18.44799999999999
 23
46.43669418272097
 33
0.0
  0
LINE
  5
E0
330
DB
100
AcDbEntity
  8
치수문자_일반주서
100
AcDbLine
 10
-1.764366081822662
 20
56.72157589876371
 30
0.0
 11
-2.475303567387162
 21
56.72157589876372
 31
0.0
  0
LINE
  5
E1
330
DB
100
AcDbEntity
  8
치수문자_일반주서
100
AcDbLine
 10
-2.475303567387162
 20
56.72157589876372
 30
0.0
 11
-2.475303567387201
 21
51.16532590770441
 31
0.0
  0
LINE
  5
E2
330
DB
100
AcDbEntity
  8
치수문자_일반주서
100
AcDbLine
 10
-2.475303567387201
 20
51.16532590770441
 30
0.0
 11
-1.764366081822701
 21
51.16532590770441
 31
0.0
  0
LINE
  5
E3
330
DB
100
AcDbEntity
  8
치수문자_일반주서
100
AcDbLine
 10
9.064366780314597
 20
56.72157589876364
 30
0.0
 11
9.775304265879097
 21
56.72157589876363
 31
0.0
  0
LINE
  5
E4
330
DB
100
AcDbEntity
  8
치수문자_일반주서
100
AcDbLine
 10
9.775304265879097
 20
56.72157589876363
 30
0.0
 11
9.775304265879058
 21
51.16532590770433
 31
0.0
  0
LINE
  5
E5
330
DB
100
AcDbEntity
  8
치수문자_일반주서
100
AcDbLine
 10
9.775304265879058
 20
51.16532590770433
 30
0.0
 11
9.064366780314558
 21
51.16532590770434
 31
0.0
  0
LINE
  5
E6
330
DB
100
AcDbEntity
  8
치수문자_일반주서
100
AcDbLine
 10
29.05000000000001
 20
3.318929491789103
 30
0.0
 11
29.05000000000001
 21
46.92869418272097
 31
0.0
  0
LINE
  5
E7
330
DB
100
AcDbEntity
  8
치수문자_일반주서
100
AcDbLine
 10
-21.74999999999999
 20
2.86005654244815
 30
0.0
 11
-21.74999999999999
 21
46.92869418272097
 31
0.0
  0
LINE
  5
E8
330
DB
100
AcDbEntity
  8
치수문자_일반주서
100
AcDbLine
 10
29.05000000000001
 20
45.92869418272097
 30
0.0
 11
-21.74999999999999
 21
45.92869418272097
 31
0.0
  0
MTEXT
  5
E9
330
DB
100
AcDbEntity
  8
치수문자_일반주서
100
AcDbMText
 10
-2.989062292873902
 20
50.4939034485827
 30
0.0
 40
3.5
 41
0.0
 71
     1
 72
     1
  1

  7
SLDTEXTSTYLE0
 73
     1
 44
1.0
  0
MTEXT
  5
EA
330
DB
100
AcDbEntity
  8
치수문자_일반주서
100
AcDbMText
 10
-0.8756941812112984
 20
55.6770628222833
 30
0.0
 40
3.5
 41
0.0
 71
     1
 72
     1
  1
2.00
  7
SLDTEXTSTYLE0
 73
     1
 44
1.0
  0
MTEXT
  5
EB
330
DB
100
AcDbEntity
  8
치수문자_일반주서
100
AcDbMText
 10
-2.168749894388062
 20
50.44043127192284
 30
0.0
 40
3.5
 41
0.0
 71
     1
 72
     1
  1
50.80
  7
SLDTEXTSTYLE0
 73
     1
 44
1.0
  0
MTEXT
  5
EC
330
DB
100
AcDbEntity
  8
치수문자_일반주서
100
AcDbMText
 10
11.62100751101966
 20
50.49390344858259
 30
0.0
 40
3.5
 41
0.0
 71
     1
 72
     1
  1

  7
SLDTEXTSTYLE0
 73
     1
 44
1.0
  0
ENDBLK
  5
DD
330
DB
100
AcDbEntity
  8
0
100
AcDbBlockEnd
  0
BLOCK
  5
EF
330
EE
100
AcDbEntity
  8
0
100
AcDbBlockBegin
  2
_D_3
 70
     0
 10
0.0
 20
0.0
 30
0.0
  3
_D_3
  1
_D_3
  0
SOLID
  5
F1
330
EE
100
AcDbEntity
  8
치수문자_일반주서
100
AcDbTrace
 10
-27.88007280062574
 20
1.542556542448139
 30
0.0
 11
-27.37207280062574
 21
4.844556542448139
 31
0.0
 12
-28.38807280062574
 22
4.844556542448139
 32
0.0
 13
-28.38807280062574
 23
4.844556542448139
 33
0.0
  0
SOLID
  5
F2
330
EE
100
AcDbEntity
  8
치수문자_일반주서
100
AcDbTrace
 10
-27.88007280062574
 20
-1.632443457551845
 30
0.0
 11
-28.38807280062574
 21
-4.934443457551844
 31
0.0
 12
-27.37207280062574
 22
-4.934443457551844
 32
0.0
 13
-27.37207280062574
 23
-4.934443457551844
 33
0.0
  0
LINE
  5
F3
330
EE
100
AcDbEntity
  8
치수문자_일반주서
100
AcDbLine
 10
-38.67295451666845
 20
-5.459309888620556
 30
0.0
 11
-38.67295451666845
 21
-6.170247374185056
 31
0.0
  0
LINE
  5
F4
330
EE
100
AcDbEntity
  8
치수문자_일반주서
100
AcDbLine
 10
-38.67295451666845
 20
-6.170247374185056
 30
0.0
 11
-33.11670452560914
 21
-6.170247374185017
 31
0.0
  0
LINE
  5
F5
330
EE
100
AcDbEntity
  8
치수문자_일반주서
100
AcDbLine
 10
-33.11670452560914
 20
-6.170247374185017
 30
0.0
 11
-33.11670452560915
 21
-5.459309888620517
 31
0.0
  0
LINE
  5
F6
330
EE
100
AcDbEntity
  8
치수문자_일반주서
100
AcDbLine
 10
-38.67295451666853
 20
5.369422973516702
 30
0.0
 11
-38.67295451666853
 21
6.080360459081202
 31
0.0
  0
LINE
  5
F7
330
EE
100
AcDbEntity
  8
치수문자_일반주서
100
AcDbLine
 10
-38.67295451666853
 20
6.080360459081202
 30
0.0
 11
-33.11670452560923
 21
6.080360459081241
 31
0.0
  0
LINE
  5
F8
330
EE
100
AcDbEntity
  8
치수문자_일반주서
100
AcDbLine
 10
-33.11670452560923
 20
6.080360459081241
 30
0.0
 11
-33.11670452560922
 21
5.369422973516741
 31
0.0
  0
LINE
  5
F9
330
EE
100
AcDbEntity
  8
치수문자_일반주서
100
AcDbLine
 10
-22.43249999999999
 20
1.542556542448139
 30
0.0
 11
-28.88007280062574
 21
1.542556542448139
 31
0.0
  0
LINE
  5
FA
330
EE
100
AcDbEntity
  8
치수문자_일반주서
100
AcDbLine
 10
-22.43249999999999
 20
-1.632443457551844
 30
0.0
 11
-28.88007280062574
 21
-1.632443457551845
 31
0.0
  0
LINE
  5
FB
330
EE
100
AcDbEntity
  8
치수문자_일반주서
100
AcDbLine
 10
-27.88007280062574
 20
1.542556542448139
 30
0.0
 11
-27.88007280062574
 21
7.892556542448139
 31
0.0
  0
LINE
  5
FC
330
EE
100
AcDbEntity
  8
치수문자_일반주서
100
AcDbLine
 10
-27.88007280062574
 20
1.542556542448139
 30
0.0
 11
-27.88007280062574
 21
-1.632443457551845
 31
0.0
  0
LINE
  5
FD
330
EE
100
AcDbEntity
  8
치수문자_일반주서
100
AcDbLine
 10
-27.88007280062574
 20
-1.632443457551845
 30
0.0
 11
-27.88007280062574
 21
-7.982443457551844
 31
0.0
  0
MTEXT
  5
FE
330
EE
100
AcDbEntity
  8
치수문자_일반주서
100
AcDbMText
 10
-37.62844144018804
 20
-4.570637988009179
 30
0.0
 40
3.5
 41
0.0
 71
     1
 72
     1
  1
0.13
  7
SLDTEXTSTYLE0
 11
-7.044195017643634E-15
 21
1.0
 31
0.0
 73
     1
 44
1.0
  0
MTEXT
  5
FF
330
EE
100
AcDbEntity
  8
치수문자_일반주서
100
AcDbMText
 10
-32.39180988982756
 20
-7.20985715285747
 30
0.0
 40
3.5
 41
0.0
 71
     1
 72
     1
  1
%%c
  7
SLDTEXTSTYLE0
 11
-7.044195017643634E-15
 21
1.0
 31
0.0
 73
     1
 44
1.0
  0
MTEXT
  5
100
330
EE
100
AcDbEntity
  8
치수문자_일반주서
100
AcDbMText
 10
-32.3918098898276
 20
-1.931419754483389
 30
0.0
 40
3.5
 41
0.0
 71
     1
 72
     1
  1
3.18
  7
SLDTEXTSTYLE0
 11
-7.044195017643634E-15
 21
1.0
 31
0.0
 73
     1
 44
1.0
  0
ENDBLK
  5
F0
330
EE
100
AcDbEntity
  8
0
100
AcDbBlockEnd
  0
BLOCK
  5
109
330
108
100
AcDbEntity
  8
0
100
AcDbBlockBegin
  2
SW_DOWELSYMBOL_0
 70
     0
 10
0.0
 20
0.0
 30
0.0
  3
SW_DOWELSYMBOL_0
  1
SW_DOWELSYMBOL_0
  0
CIRCLE
  5
10B
330
108
100
AcDbEntity
  8
해칭선
 62
     0
100
AcDbCircle
 10
0.0
 20
0.0
 30
0.0
 40
2.999999999999999
  0
HATCH
  5
10C
330
108
100
AcDbEntity
  8
0
  6
Continuous
 62
     0
370
     0
100
AcDbHatch
 10
0.0
 20
0.0
 30
0.0
210
0.0
220
0.0
230
1.0
  2
SOLID
 70
     1
 71
     0
 91
        1
 92
        0
 93
        3
 72
     2
 10
0.0
 20
0.0
 40
2.999999999999999
 50
0.0
 51
90.0
 73
     1
 72
     1
 10
0.0
 20
2.999999999999999
 11
0.0
 21
0.0
 72
     1
 10
0.0
 20
0.0
 11
2.999999999999999
 21
0.0
 97
        0
 75
     0
 76
     1
 98
        1
 10
0.0
 20
0.0
  0
HATCH
  5
10D
330
108
100
AcDbEntity
  8
0
  6
Continuous
 62
     0
370
     0
100
AcDbHatch
 10
0.0
 20
0.0
 30
0.0
210
0.0
220
0.0
230
1.0
  2
SOLID
 70
     1
 71
     0
 91
        1
 92
        0
 93
        3
 72
     2
 10
0.0
 20
0.0
 40
2.999999999999999
 50
180.0
 51
270.0000000000008
 73
     1
 72
     1
 10
0.0
 20
-2.999999999999999
 11
0.0
 21
0.0
 72
     1
 10
0.0
 20
0.0
 11
-2.999999999999999
 21
0.0
 97
        0
 75
     0
 76
     1
 98
        1
 10
0.0
 20
0.0
  0
ENDBLK
  5
10A
330
108
100
AcDbEntity
  8
0
100
AcDbBlockEnd
  0
BLOCK
  5
1DB
330
1DA
100
AcDbEntity
  8
0
100
AcDbBlockBegin
  2
*D8
 70
     1
 10
0.0
 20
0.0
 30
0.0
  3
*D8
  1
*D8
  0
LINE
  5
1DD
330
1DA
100
AcDbEntity
  8
치수문자_일반주서
 62
     0
370
    -2
100
AcDbLine
 10
61.20882280062585
 20
11.36650000000003
 30
0.0
 11
80.36564388824115
 21
11.3665000000001
 31
0.0
  0
LINE
  5
1DE
330
1DA
100
AcDbEntity
  8
치수문자_일반주서
 62
     0
370
    -2
100
AcDbLine
 10
61.20882280062585
 20
6.604000000000026
 30
0.0
 11
80.36564388824117
 21
6.604000000000099
 31
0.0
  0
LINE
  5
1DF
330
1DA
100
AcDbEntity
  8
치수문자_일반주서
 62
     0
370
    -2
100
AcDbLine
 10
80.36564388824115
 20
11.3665000000001
 30
0.0
 11
80.36564388824105
 21
45.9705000000001
 31
0.0
  0
LINE
  5
1E0
330
1DA
100
AcDbEntity
  8
치수문자_일반주서
 62
     0
370
    -2
100
AcDbLine
 10
80.36564388824115
 20
11.3665000000001
 30
0.0
 11
80.36564388824117
 21
6.604000000000099
 31
0.0
  0
LINE
  5
1E1
330
1DA
100
AcDbEntity
  8
치수문자_일반주서
 62
     0
370
    -2
100
AcDbLine
 10
80.36564388824114
 20
14.6685000000001
 30
0.0
 11
80.36564388824112
 21
17.9705000000001
 31
0.0
  0
LINE
  5
1E2
330
1DA
100
AcDbEntity
  8
치수문자_일반주서
 62
     0
370
    -2
100
AcDbLine
 10
80.36564388824118
 20
3.302000000000099
 30
0.0
 11
80.3656438882412
 21
0.0000000000000995
 31
0.0
  0
SOLID
  5
1E3
330
1DA
100
AcDbEntity
  8
치수문자_일반주서
 62
     0
100
AcDbTrace
 10
79.81531055490781
 20
14.6685000000001
 30
0.0
 11
80.91597722157447
 21
14.6685000000001
 31
0.0
 12
80.36564388824115
 22
11.3665000000001
 32
0.0
 13
80.36564388824115
 23
11.3665000000001
 33
0.0
  0
SOLID
  5
1E4
330
1DA
100
AcDbEntity
  8
치수문자_일반주서
 62
     0
100
AcDbTrace
 10
80.91597722157451
 20
3.302000000000101
 30
0.0
 11
79.81531055490785
 21
3.302000000000097
 31
0.0
 12
80.36564388824117
 22
6.604000000000099
 32
0.0
 13
80.36564388824117
 23
6.604000000000099
 33
0.0
  0
MTEXT
  5
1E5
330
1DA
100
AcDbEntity
  8
치수문자_일반주서
 62
     0
100
AcDbMText
 10
75.9906438882411
 20
31.97050000000008
 30
0.0
 40
3.5
 41
0.0
 71
     2
 72
     1
  1
\A1;%%c4.76 [3/16]
  7
SLDTEXTSTYLE0
 11
-2.983906501879686E-15
 21
1.0
 31
0.0
 73
     1
 44
1.0
  0
POINT
  5
1E6
330
1DA
100
AcDbEntity
  8
Defpoints
 62
     0
100
AcDbPoint
 10
61.14632280062585
 20
11.36650000000003
 30
0.0
  0
POINT
  5
1E7
330
1DA
100
AcDbEntity
  8
Defpoints
 62
     0
100
AcDbPoint
 10
61.14632280062585
 20
6.604000000000026
 30
0.0
  0
POINT
  5
1E8
330
1DA
100
AcDbEntity
  8
Defpoints
 62
     0
100
AcDbPoint
 10
80.36564388824115
 20
6.604000000000098
 30
0.0
  0
ENDBLK
  5
1DC
330
1DA
100
AcDbEntity
  8
0
100
AcDbBlockEnd
  0
BLOCK
  5
1EA
330
1E9
100
AcDbEntity
  8
0
100
AcDbBlockBegin
  2
*D9
 70
     1
 10
0.0
 20
0.0
 30
0.0
  3
*D9
  1
*D9
  0
LINE
  5
1EC
330
1E9
100
AcDbEntity
  8
치수문자_일반주서
 62
     0
370
    -2
100
AcDbLine
 10
61.14632280062585
 20
11.41162294934098
 30
0.0
 11
61.14632280062585
 21
28.21496754266514
 31
0.0
  0
LINE
  5
1ED
330
1E9
100
AcDbEntity
  8
치수문자_일반주서
 62
     0
370
    -2
100
AcDbLine
 10
46.85882280062585
 20
11.42827508727962
 30
0.0
 11
46.85882280062585
 21
28.21496754266514
 31
0.0
  0
LINE
  5
1EE
330
1E9
100
AcDbEntity
  8
치수문자_일반주서
 62
     0
370
    -2
100
AcDbLine
 10
46.85882280062585
 20
28.21496754266514
 30
0.0
 11
13.12982280062585
 21
28.21496754266514
 31
0.0
  0
LINE
  5
1EF
330
1E9
100
AcDbEntity
  8
치수문자_일반주서
 62
     0
370
    -2
100
AcDbLine
 10
61.14632280062585
 20
28.21496754266514
 30
0.0
 11
46.85882280062585
 21
28.21496754266514
 31
0.0
  0
LINE
  5
1F0
330
1E9
100
AcDbEntity
  8
치수문자_일반주서
 62
     0
370
    -2
100
AcDbLine
 10
64.44832280062585
 20
28.21496754266514
 30
0.0
 11
67.75032280062584
 21
28.21496754266514
 31
0.0
  0
LINE
  5
1F1
330
1E9
100
AcDbEntity
  8
치수문자_일반주서
 62
     0
370
    -2
100
AcDbLine
 10
43.55682280062585
 20
28.21496754266514
 30
0.0
 11
40.25482280062585
 21
28.21496754266514
 31
0.0
  0
SOLID
  5
1F2
330
1E9
100
AcDbEntity
  8
치수문자_일반주서
 62
     0
100
AcDbTrace
 10
64.44832280062585
 20
28.76530087599848
 30
0.0
 11
64.44832280062585
 21
27.66463420933181
 31
0.0
 12
61.14632280062585
 22
28.21496754266514
 32
0.0
 13
61.14632280062585
 23
28.21496754266514
 33
0.0
  0
SOLID
  5
1F3
330
1E9
100
AcDbEntity
  8
치수문자_일반주서
 62
     0
100
AcDbTrace
 10
43.55682280062585
 20
27.66463420933181
 30
0.0
 11
43.55682280062585
 21
28.76530087599848
 31
0.0
 12
46.85882280062585
 22
28.21496754266514
 32
0.0
 13
46.85882280062585
 23
28.21496754266514
 33
0.0
  0
MTEXT
  5
1F4
330
1E9
100
AcDbEntity
  8
치수문자_일반주서
 62
     0
100
AcDbMText
 10
26.69232280062585
 20
32.58996754266514
 30
0.0
 40
3.5
 41
0.0
 71
     2
 72
     1
  1
\A1;14.29 [9/16]
  7
SLDTEXTSTYLE0
 73
     1
 44
1.0
  0
POINT
  5
1F5
330
1E9
100
AcDbEntity
  8
Defpoints
 62
     0
100
AcDbPoint
 10
61.14632280062585
 20
11.34912294934098
 30
0.0
  0
POINT
  5
1F6
330
1E9
100
AcDbEntity
  8
Defpoints
 62
     0
100
AcDbPoint
 10
46.85882280062585
 20
11.36577508727962
 30
0.0
  0
POINT
  5
1F7
330
1E9
100
AcDbEntity
  8
Defpoints
 62
     0
100
AcDbPoint
 10
46.85882280062585
 20
28.21496754266514
 30
0.0
  0
ENDBLK
  5
1EB
330
1E9
100
AcDbEntity
  8
0
100
AcDbBlockEnd
  0
BLOCK
  5
1F9
330
1F8
100
AcDbEntity
  8
0
100
AcDbBlockBegin
  2
*D10
 70
     1
 10
0.0
 20
0.0
 30
0.0
  3
*D10
  1
*D10
  0
LINE
  5
1FB
330
1F8
100
AcDbEntity
  8
치수문자_일반주서
 62
     0
370
    -2
100
AcDbLine
 10
61.14632280062585
 20
11.41162294934098
 30
0.0
 11
61.14632280062585
 21
54.95888764027285
 31
0.0
  0
LINE
  5
1FC
330
1F8
100
AcDbEntity
  8
치수문자_일반주서
 62
     0
370
    -2
100
AcDbLine
 10
10.34632280062587
 20
10.95275000000003
 30
0.0
 11
10.34632280062587
 21
54.95888764027285
 31
0.0
  0
LINE
  5
1FD
330
1F8
100
AcDbEntity
  8
치수문자_일반주서
 62
     0
370
    -2
100
AcDbLine
 10
57.84432280062585
 20
54.95888764027285
 30
0.0
 11
13.64832280062587
 21
54.95888764027285
 31
0.0
  0
SOLID
  5
1FE
330
1F8
100
AcDbEntity
  8
치수문자_일반주서
 62
     0
100
AcDbTrace
 10
57.84432280062585
 20
54.40855430693951
 30
0.0
 11
57.84432280062585
 21
55.50922097360618
 31
0.0
 12
61.14632280062585
 22
54.95888764027285
 32
0.0
 13
61.14632280062585
 23
54.95888764027285
 33
0.0
  0
SOLID
  5
1FF
330
1F8
100
AcDbEntity
  8
치수문자_일반주서
 62
     0
100
AcDbTrace
 10
13.64832280062587
 20
55.50922097360618
 30
0.0
 11
13.64832280062587
 21
54.40855430693951
 31
0.0
 12
10.34632280062587
 22
54.95888764027285
 32
0.0
 13
10.34632280062587
 23
54.95888764027285
 33
0.0
  0
MTEXT
  5
200
330
1F8
100
AcDbEntity
  8
치수문자_일반주서
 62
     0
100
AcDbMText
 10
35.74632280062585
 20
59.33388764027285
 30
0.0
 40
3.5
 41
0.0
 71
     2
 72
     1
  1
\A1;50.8 [2]
  7
SLDTEXTSTYLE0
 73
     1
 44
1.0
  0
POINT
  5
201
330
1F8
100
AcDbEntity
  8
Defpoints
 62
     0
100
AcDbPoint
 10
61.14632280062585
 20
11.34912294934098
 30
0.0
  0
POINT
  5
202
330
1F8
100
AcDbEntity
  8
Defpoints
 62
     0
100
AcDbPoint
 10
10.34632280062587
 20
10.89025000000003
 30
0.0
  0
POINT
  5
203
330
1F8
100
AcDbEntity
  8
Defpoints
 62
     0
100
AcDbPoint
 10
10.34632280062587
 20
54.95888764027285
 30
0.0
  0
ENDBLK
  5
1FA
330
1F8
100
AcDbEntity
  8
0
100
AcDbBlockEnd
  0
BLOCK
  5
205
330
204
100
AcDbEntity
  8
0
100
AcDbBlockBegin
  2
*D11
 70
     1
 10
0.0
 20
0.0
 30
0.0
  3
*D11
  1
*D11
  0
LINE
  5
207
330
204
100
AcDbEntity
  8
치수문자_일반주서
 62
     0
370
    -2
100
AcDbLine
 10
10.76007280062587
 20
11.36650000000003
 30
0.0
 11
4.375000000000115
 21
11.3665
 31
0.0
  0
LINE
  5
208
330
204
100
AcDbEntity
  8
치수문자_일반주서
 62
     0
370
    -2
100
AcDbLine
 10
10.76007280062587
 20
6.604000000000024
 30
0.0
 11
4.375000000000132
 21
6.603999999999999
 31
0.0
  0
LINE
  5
209
330
204
100
AcDbEntity
  8
치수문자_일반주서
 62
     0
370
    -2
100
AcDbLine
 10
4.375000000000115
 20
11.3665
 30
0.0
 11
4.374999999999993
 21
45.9705
 31
0.0
  0
LINE
  5
20A
330
204
100
AcDbEntity
  8
치수문자_일반주서
 62
     0
370
    -2
100
AcDbLine
 10
4.375000000000115
 20
11.3665
 30
0.0
 11
4.375000000000132
 21
6.603999999999999
 31
0.0
  0
LINE
  5
20B
330
204
100
AcDbEntity
  8
치수문자_일반주서
 62
     0
370
    -2
100
AcDbLine
 10
4.375000000000104
 20
14.6685
 30
0.0
 11
4.375000000000092
 21
17.9705
 31
0.0
  0
LINE
  5
20C
330
204
100
AcDbEntity
  8
치수문자_일반주서
 62
     0
370
    -2
100
AcDbLine
 10
4.375000000000144
 20
3.302
 30
0.0
 11
4.375000000000155
 21
0.0
 31
0.0
  0
SOLID
  5
20D
330
204
100
AcDbEntity
  8
치수문자_일반주서
 62
     0
100
AcDbTrace
 10
3.824666666666771
 20
14.6685
 30
0.0
 11
4.925333333333437
 21
14.6685
 31
0.0
 12
4.375000000000115
 22
11.3665
 32
0.0
 13
4.375000000000115
 23
11.3665
 33
0.0
  0
SOLID
  5
20E
330
204
100
AcDbEntity
  8
치수문자_일반주서
 62
     0
100
AcDbTrace
 10
4.925333333333477
 20
3.302000000000001
 30
0.0
 11
3.824666666666811
 21
3.301999999999998
 31
0.0
 12
4.375000000000132
 22
6.603999999999999
 32
0.0
 13
4.375000000000132
 23
6.603999999999999
 33
0.0
  0
MTEXT
  5
20F
330
204
100
AcDbEntity
  8
치수문자_일반주서
 62
     0
100
AcDbMText
 10
0.0000000000000426
 20
31.97049999999998
 30
0.0
 40
3.5
 41
0.0
 71
     2
 72
     1
  1
\A1;%%c4.76 [3/16]
  7
SLDTEXTSTYLE0
 11
-3.543388970982125E-15
 21
1.0
 31
0.0
 73
     1
 44
1.0
  0
POINT
  5
210
330
204
100
AcDbEntity
  8
Defpoints
 62
     0
100
AcDbPoint
 10
10.82257280062587
 20
11.36650000000003
 30
0.0
  0
POINT
  5
211
330
204
100
AcDbEntity
  8
Defpoints
 62
     0
100
AcDbPoint
 10
10.82257280062587
 20
6.604000000000024
 30
0.0
  0
POINT
  5
212
330
204
100
AcDbEntity
  8
Defpoints
 62
     0
100
AcDbPoint
 10
4.375000000000128
 20
6.604
 30
0.0
  0
ENDBLK
  5
206
330
204
100
AcDbEntity
  8
0
100
AcDbBlockEnd
  0
BLOCK
  5
24F
330
24E
100
AcDbEntity
  8
0
100
AcDbBlockBegin
  2
*D12
 70
     1
 10
0.0
 20
0.0
 30
0.0
  3
*D12
  1
*D12
  0
LINE
  5
251
330
24E
100
AcDbEntity
  8
치수문자_일반주서
 62
     0
370
    -2
100
AcDbLine
 10
22.20290510084605
 20
2.778124999999999
 30
0.0
 11
41.35972618846137
 21
2.77812500000007
 31
0.0
  0
LINE
  5
252
330
24E
100
AcDbEntity
  8
치수문자_일반주서
 62
     0
370
    -2
100
AcDbLine
 10
22.20290510084607
 20
-2.655684051003433
 30
0.0
 11
41.35972618846139
 21
-2.655684051003362
 31
0.0
  0
LINE
  5
253
330
24E
100
AcDbEntity
  8
치수문자_일반주서
 62
     0
370
    -2
100
AcDbLine
 10
41.35972618846137
 20
2.77812500000007
 30
0.0
 11
41.35972618846122
 21
38.69462500000007
 31
0.0
  0
LINE
  5
254
330
24E
100
AcDbEntity
  8
치수문자_일반주서
 62
     0
370
    -2
100
AcDbLine
 10
41.35972618846137
 20
2.77812500000007
 30
0.0
 11
41.35972618846139
 21
-2.655684051003362
 31
0.0
  0
LINE
  5
255
330
24E
100
AcDbEntity
  8
치수문자_일반주서
 62
     0
370
    -2
100
AcDbLine
 10
41.35972618846135
 20
6.08012500000007
 30
0.0
 11
41.35972618846134
 21
9.38212500000007
 31
0.0
  0
LINE
  5
256
330
24E
100
AcDbEntity
  8
치수문자_일반주서
 62
     0
370
    -2
100
AcDbLine
 10
41.3597261884614
 20
-5.957684051003362
 30
0.0
 11
41.35972618846142
 21
-9.259684051003362
 31
0.0
  0
SOLID
  5
257
330
24E
100
AcDbEntity
  8
치수문자_일반주서
 62
     0
100
AcDbTrace
 10
40.80939285512802
 20
6.080125000000068
 30
0.0
 11
41.91005952179469
 21
6.080125000000072
 31
0.0
 12
41.35972618846137
 22
2.77812500000007
 32
0.0
 13
41.35972618846137
 23
2.77812500000007
 33
0.0
  0
SOLID
  5
258
330
24E
100
AcDbEntity
  8
치수문자_일반주서
 62
     0
100
AcDbTrace
 10
41.91005952179474
 20
-5.95768405100336
 30
0.0
 11
40.80939285512807
 21
-5.957684051003364
 31
0.0
 12
41.35972618846139
 22
-2.655684051003362
 32
0.0
 13
41.35972618846139
 23
-2.655684051003362
 33
0.0
  0
MTEXT
  5
259
330
24E
100
AcDbEntity
  8
치수문자_일반주서
 62
     0
100
AcDbMText
 10
36.98472618846128
 20
24.25712500000005
 30
0.0
 40
3.5
 41
0.0
 71
     2
 72
     1
  1
\A1;%%c5.43 [7/32]
  7
SLDTEXTSTYLE0
 11
-3.922898628332669E-15
 21
1.0
 31
0.0
 73
     1
 44
1.0
  0
POINT
  5
25A
330
24E
100
AcDbEntity
  8
Defpoints
 62
     0
100
AcDbPoint
 10
22.14040510084605
 20
2.778124999999998
 30
0.0
  0
POINT
  5
25B
330
24E
100
AcDbEntity
  8
Defpoints
 62
     0
100
AcDbPoint
 10
22.14040510084607
 20
-2.655684051003434
 30
0.0
  0
POINT
  5
25C
330
24E
100
AcDbEntity
  8
Defpoints
 62
     0
100
AcDbPoint
 10
41.35972618846139
 20
-2.655684051003362
 30
0.0
  0
ENDBLK
  5
250
330
24E
100
AcDbEntity
  8
0
100
AcDbBlockEnd
  0
BLOCK
  5
25E
330
25D
100
AcDbEntity
  8
0
100
AcDbBlockBegin
  2
*D13
 70
     1
 10
0.0
 20
0.0
 30
0.0
  3
*D13
  1
*D13
  0
LINE
  5
260
330
25D
100
AcDbEntity
  8
치수문자_일반주서
 62
     0
370
    -2
100
AcDbLine
 10
22.14040510084605
 20
2.426372949340951
 30
0.0
 11
22.14040510084605
 21
19.22971754266511
 31
0.0
  0
LINE
  5
261
330
25D
100
AcDbEntity
  8
치수문자_일반주서
 62
     0
370
    -2
100
AcDbLine
 10
3.090405100846047
 20
2.840625
 30
0.0
 11
3.090405100846047
 21
19.22971754266511
 31
0.0
  0
LINE
  5
262
330
25D
100
AcDbEntity
  8
치수문자_일반주서
 62
     0
370
    -2
100
AcDbLine
 10
18.83840510084605
 20
19.22971754266511
 30
0.0
 11
6.392405100846046
 21
19.22971754266511
 31
0.0
  0
SOLID
  5
263
330
25D
100
AcDbEntity
  8
치수문자_일반주서
 62
     0
100
AcDbTrace
 10
18.83840510084605
 20
18.67938420933178
 30
0.0
 11
18.83840510084605
 21
19.78005087599845
 31
0.0
 12
22.14040510084605
 22
19.22971754266511
 32
0.0
 13
22.14040510084605
 23
19.22971754266511
 33
0.0
  0
SOLID
  5
264
330
25D
100
AcDbEntity
  8
치수문자_일반주서
 62
     0
100
AcDbTrace
 10
6.392405100846046
 20
19.78005087599845
 30
0.0
 11
6.392405100846046
 21
18.67938420933178
 31
0.0
 12
3.090405100846047
 22
19.22971754266511
 32
0.0
 13
3.090405100846047
 23
19.22971754266511
 33
0.0
  0
MTEXT
  5
265
330
25D
100
AcDbEntity
  8
치수문자_일반주서
 62
     0
100
AcDbMText
 10
12.61540510084605
 20
23.60471754266511
 30
0.0
 40
3.5
 41
0.0
 71
     2
 72
     1
  1
\A1;19.05 [3/4]
  7
SLDTEXTSTYLE0
 73
     1
 44
1.0
  0
POINT
  5
266
330
25D
100
AcDbEntity
  8
Defpoints
 62
     0
100
AcDbPoint
 10
22.14040510084605
 20
2.363872949340951
 30
0.0
  0
POINT
  5
267
330
25D
100
AcDbEntity
  8
Defpoints
 62
     0
100
AcDbPoint
 10
3.090405100846047
 20
2.778125
 30
0.0
  0
POINT
  5
268
330
25D
100
AcDbEntity
  8
Defpoints
 62
     0
100
AcDbPoint
 10
3.090405100846047
 20
19.22971754266511
 30
0.0
  0
ENDBLK
  5
25F
330
25D
100
AcDbEntity
  8
0
100
AcDbBlockEnd
  0
BLOCK
  5
26D
330
26C
100
AcDbEntity
  8
0
100
AcDbBlockBegin
  2
*D14
 70
     1
 10
0.0
 20
0.0
 30
0.0
  3
*D14
  1
*D14
  0
LINE
  5
26F
330
26C
100
AcDbEntity
  8
치수문자_일반주서
 62
     0
370
    -2
100
AcDbLine
 10
22.14040510084605
 20
2.426372949340951
 30
0.0
 11
22.14040510084605
 21
33.57978339880297
 31
0.0
  0
LINE
  5
270
330
26C
100
AcDbEntity
  8
치수문자_일반주서
 62
     0
370
    -2
100
AcDbLine
 10
-41.35959489915394
 20
2.761249999999997
 30
0.0
 11
-41.35959489915394
 21
33.57978339880297
 31
0.0
  0
LINE
  5
271
330
26C
100
AcDbEntity
  8
치수문자_일반주서
 62
     0
370
    -2
100
AcDbLine
 10
18.83840510084605
 20
33.57978339880297
 30
0.0
 11
-38.05759489915394
 21
33.57978339880297
 31
0.0
  0
SOLID
  5
272
330
26C
100
AcDbEntity
  8
치수문자_일반주서
 62
     0
100
AcDbTrace
 10
18.83840510084605
 20
33.02945006546964
 30
0.0
 11
18.83840510084605
 21
34.13011673213631
 31
0.0
 12
22.14040510084605
 22
33.57978339880297
 32
0.0
 13
22.14040510084605
 23
33.57978339880297
 33
0.0
  0
SOLID
  5
273
330
26C
100
AcDbEntity
  8
치수문자_일반주서
 62
     0
100
AcDbTrace
 10
-38.05759489915394
 20
34.13011673213631
 30
0.0
 11
-38.05759489915394
 21
33.02945006546964
 31
0.0
 12
-41.35959489915394
 22
33.57978339880297
 32
0.0
 13
-41.35959489915394
 23
33.57978339880297
 33
0.0
  0
MTEXT
  5
274
330
26C
100
AcDbEntity
  8
치수문자_일반주서
 62
     0
100
AcDbMText
 10
-8.01312617699122
 20
37.95478339880297
 30
0.0
 40
3.5
 41
0.0
 71
     2
 72
     1
  1
\A1;63.5 [2 1/2]
  7
SLDTEXTSTYLE0
 73
     1
 44
1.0
  0
POINT
  5
275
330
26C
100
AcDbEntity
  8
Defpoints
 62
     0
100
AcDbPoint
 10
22.14040510084605
 20
2.363872949340951
 30
0.0
  0
POINT
  5
276
330
26C
100
AcDbEntity
  8
Defpoints
 62
     0
100
AcDbPoint
 10
-41.35959489915394
 20
2.698749999999997
 30
0.0
  0
POINT
  5
277
330
26C
100
AcDbEntity
  8
Defpoints
 62
     0
100
AcDbPoint
 10
-41.35959489915394
 20
33.57978339880297
 30
0.0
  0
ENDBLK
  5
26E
330
26C
100
AcDbEntity
  8
0
100
AcDbBlockEnd
  0
BLOCK
  5
279
330
278
100
AcDbEntity
  8
0
100
AcDbBlockBegin
  2
*D15
 70
     1
 10
0.0
 20
0.0
 30
0.0
  3
*D15
  1
*D15
  0
LINE
  5
27B
330
278
100
AcDbEntity
  8
치수문자_일반주서
 62
     0
370
    -2
100
AcDbLine
 10
-40.94584489915393
 20
3.174999999999997
 30
0.0
 11
-47.26841769977969
 21
3.174999999999972
 31
0.0
  0
LINE
  5
27C
330
278
100
AcDbEntity
  8
치수문자_일반주서
 62
     0
370
    -2
100
AcDbLine
 10
-40.94584489915394
 20
-3.175000000000005
 30
0.0
 11
-47.26841769977967
 21
-3.175000000000029
 31
0.0
  0
LINE
  5
27D
330
278
100
AcDbEntity
  8
치수문자_일반주서
 62
     0
370
    -2
100
AcDbLine
 10
-47.26841769977969
 20
3.174999999999972
 30
0.0
 11
-47.2684176997798
 21
36.11024999999997
 31
0.0
  0
LINE
  5
27E
330
278
100
AcDbEntity
  8
치수문자_일반주서
 62
     0
370
    -2
100
AcDbLine
 10
-47.26841769977969
 20
3.174999999999972
 30
0.0
 11
-47.26841769977967
 21
-3.175000000000029
 31
0.0
  0
LINE
  5
27F
330
278
100
AcDbEntity
  8
치수문자_일반주서
 62
     0
370
    -2
100
AcDbLine
 10
-47.2684176997797
 20
6.476999999999972
 30
0.0
 11
-47.26841769977972
 21
9.778999999999971
 31
0.0
  0
LINE
  5
280
330
278
100
AcDbEntity
  8
치수문자_일반주서
 62
     0
370
    -2
100
AcDbLine
 10
-47.26841769977965
 20
-6.477000000000029
 30
0.0
 11
-47.26841769977964
 21
-9.779000000000028
 31
0.0
  0
SOLID
  5
281
330
278
100
AcDbEntity
  8
치수문자_일반주서
 62
     0
100
AcDbTrace
 10
-47.81875103311304
 20
6.47699999999997
 30
0.0
 11
-46.71808436644637
 21
6.476999999999974
 31
0.0
 12
-47.26841769977969
 22
3.174999999999972
 32
0.0
 13
-47.26841769977969
 23
3.174999999999972
 33
0.0
  0
SOLID
  5
282
330
278
100
AcDbEntity
  8
치수문자_일반주서
 62
     0
100
AcDbTrace
 10
-46.71808436644632
 20
-6.477000000000027
 30
0.0
 11
-47.81875103311299
 21
-6.477000000000031
 31
0.0
 12
-47.26841769977967
 22
-3.175000000000029
 32
0.0
 13
-47.26841769977967
 23
-3.175000000000029
 33
0.0
  0
MTEXT
  5
283
330
278
100
AcDbEntity
  8
치수문자_일반주서
 62
     0
100
AcDbMText
 10
-51.64341769977976
 20
23.42274999999996
 30
0.0
 40
3.5
 41
0.0
 71
     2
 72
     1
  1
\A1;%%c6.35 [1/4]
  7
SLDTEXTSTYLE0
 11
-3.356894814614646E-15
 21
1.0
 31
0.0
 73
     1
 44
1.0
  0
POINT
  5
284
330
278
100
AcDbEntity
  8
Defpoints
 62
     0
100
AcDbPoint
 10
-40.88334489915393
 20
3.174999999999997
 30
0.0
  0
POINT
  5
285
330
278
100
AcDbEntity
  8
Defpoints
 62
     0
100
AcDbPoint
 10
-40.88334489915394
 20
-3.175000000000004
 30
0.0
  0
POINT
  5
286
330
278
100
AcDbEntity
  8
Defpoints
 62
     0
100
AcDbPoint
 10
-47.26841769977967
 20
-3.175000000000028
 30
0.0
  0
ENDBLK
  5
27A
330
278
100
AcDbEntity
  8
0
100
AcDbBlockEnd
  0
ENDSEC
  0
SECTION
  2
ENTITIES
  0
LINE
  5
A5
330
1F
100
AcDbEntity
  8
참조1
100
AcDbLine
 10
1.502905100846068
 20
0.0470933149996331
 30
0.0
 11
1.502905100846075
 21
-39.95290668500037
 31
0.0
  0
LINE
  5
A6
330
1F
100
AcDbEntity
  8
참조1
100
AcDbLine
 10
1.502905100846075
 20
-39.95290668500037
 30
0.0
 11
-20.00595171346259
 21
-39.95290668500036
 31
0.0
  0
INSERT
  5
A8
330
1F
100
AcDbEntity
  8
0
  6
Continuous
 62
     7
100
AcDbBlockReference
 66
     1
  2
블럭10
 10
-12.43736783127914
 20
-52.00008098664429
 30
0.0
  0
ATTRIB
  5
A9
330
A8
100
AcDbEntity
  8
FORMAT
 62
     2
100
AcDbText
 10
-21.61866312002041
 20
-49.9247140738121
 30
0.0
 40
4.233333333333333
  1
E5067014 [ 5 FLUTE ]
 41
0.75
  7
SLDTEXTSTYLE0
 11
-21.61866312002041
 21
-52.04138074047877
 31
0.0
100
AcDbAttribute
  2
AUTOATTR0
 70
     0
 74
     1
  0
SEQEND
  5
AA
330
A8
100
AcDbEntity
  8
0
  6
Continuous
 62
     7
  0
HATCH
  5
AB
330
1F
100
AcDbEntity
  8
중심선
100
AcDbHatch
 10
0.0
 20
0.0
 30
0.0
210
0.0
220
0.0
230
1.0
  2
SOLID
 70
     1
 71
     0
 91
        1
 92
        0
 93
        4
 72
     1
 10
-6.722458526898295
 20
-35.75290668500035
 11
-10.16873377073558
 21
-35.75290668500035
 72
     1
 10
-10.16873377073558
 20
-35.75290668500035
 11
-12.2969636299396
 21
-38.28923226557296
 72
     1
 10
-12.2969636299396
 20
-38.28923226557296
 11
-8.85065530098917
 21
-38.28919283627047
 72
     1
 10
-8.85065530098917
 20
-38.28919283627047
 11
-6.722458526898295
 21
-35.75290668500036
 97
        0
 75
     0
 76
     1
 98
        1
 10
-2.14709489915394
 20
0.0460183862757439
  0
HATCH
  5
AC
330
1F
100
AcDbEntity
  8
중심선
100
AcDbHatch
 10
0.0
 20
0.0
 30
0.0
210
0.0
220
0.0
230
1.0
  2
SOLID
 70
     1
 71
     0
 91
        1
 92
        0
 93
        4
 72
     1
 10
-1.709694535862316
 20
-35.75290668500035
 11
-5.155969779699599
 21
-35.75290668500035
 72
     1
 10
-5.155969779699599
 20
-35.75290668500035
 11
-9.687107788057014
 21
-41.15290668500037
 72
     1
 10
-9.687107788057014
 20
-41.15290668500037
 11
-6.240832544219733
 21
-41.15290668500037
 72
     1
 10
-6.240832544219733
 20
-41.15290668500037
 11
-1.709694535862316
 21
-35.75290668500035
 97
        0
 75
     0
 76
     1
 98
        1
 10
-2.14709489915394
 20
0.0460183862757439
  0
HATCH
  5
AD
330
1F
100
AcDbEntity
  8
중심선
100
AcDbHatch
 10
0.0
 20
0.0
 30
0.0
210
0.0
220
0.0
230
1.0
  2
SOLID
 70
     1
 71
     0
 91
        1
 92
        0
 93
        4
 72
     1
 10
3.303069455173551
 20
-35.75290668500035
 11
-0.1432057886635643
 21
-35.75290668500035
 72
     1
 10
-0.1432057886635643
 20
-35.75290668500035
 11
-7.191642690552813
 21
-44.15290668500037
 72
     1
 10
-7.191642690552813
 20
-44.15290668500037
 11
-3.745367446715531
 21
-44.15290668500037
 72
     1
 10
-3.745367446715531
 20
-44.15290668500037
 11
3.303069455173551
 21
-35.75290668500035
 97
        0
 75
     0
 76
     1
 98
        1
 10
-2.14709489915394
 20
0.0460183862757439
  0
HATCH
  5
AE
330
1F
100
AcDbEntity
  8
중심선
100
AcDbHatch
 10
0.0
 20
0.0
 30
0.0
210
0.0
220
0.0
230
1.0
  2
SOLID
 70
     1
 71
     0
 91
        1
 92
        0
 93
        6
 72
     3
 10
8.10295988618575
 20
-39.95290668505163
 11
3.960054785062283
 21
1.540882976769353E-10
 40
0.3939339440162628
 50
17.09539180608437
 51
320.0019657685082
 73
     0
 72
     1
 10
9.785959541886346
 20
-38.54080068963866
 11
12.09126141558741
 21
-36.60647397959071
 72
     3
 10
8.102959886132904
 20
-39.95290668500051
 11
6.600054785286828
 21
-1.278976924368180E-13
 40
0.6363583540795982
 50
39.99873849337418
 51
368.4976242363725
 73
     1
 72
     1
 10
14.52829237803351
 20
-38.99290668493039
 11
6.783027192968827
 21
-38.99290668493039
 72
     1
 10
6.783027192968827
 20
-38.99290668493039
 11
6.783002148522893
 21
-40.91290668493028
 72
     1
 10
6.783002148522893
 20
-40.91290668493028
 11
11.22438191799493
 21
-40.91290668493025
 97
        0
 75
     0
 76
     1
 98
        1
 10
-2.14709489915394
 20
0.0460183862757439
  0
LINE
  5
101
330
1F
100
AcDbEntity
  8
참조1
100
AcDbLine
 10
77.96638891619166
 20
7.487093314999639
 30
0.0
 11
77.96638891619166
 21
-7.392906685000365
 31
0.0
  0
LINE
  5
102
330
1F
100
AcDbEntity
  8
참조1
100
AcDbLine
 10
90.66638891619166
 20
5.487093314999639
 30
0.0
 11
77.96638891619166
 21
5.487093314999639
 31
0.0
  0
SOLID
  5
103
330
1F
100
AcDbEntity
  8
참조1
100
AcDbTrace
 10
77.96638891619166
 20
5.487093314999639
 30
0.0
 11
84.31638891619166
 21
4.471093314999639
 31
0.0
 12
84.31638891619166
 22
6.503093314999639
 32
0.0
 13
84.31638891619166
 23
6.503093314999639
 33
0.0
  0
LINE
  5
104
330
1F
100
AcDbEntity
  8
참조1
100
AcDbLine
 10
90.66638891619166
 20
-5.392906685000365
 30
0.0
 11
77.96638891619166
 21
-5.392906685000365
 31
0.0
  0
SOLID
  5
105
330
1F
100
AcDbEntity
  8
참조1
100
AcDbTrace
 10
77.96638891619166
 20
-5.392906685000365
 30
0.0
 11
84.31638891619166
 21
-6.408906685000365
 31
0.0
 12
84.31638891619166
 22
-4.376906685000365
 32
0.0
 13
84.31638891619166
 23
-4.376906685000365
 33
0.0
  0
MTEXT
  5
106
330
1F
100
AcDbEntity
  8
참조1
100
AcDbMText
 10
87.35073904881766
 20
11.05738509218797
 30
0.0
 40
3.5
 41
0.0
 71
     1
 72
     1
  1
A
  7
SLDTEXTSTYLE0
 73
     1
 44
1.0
  0
MTEXT
  5
107
330
1F
100
AcDbEntity
  8
참조1
100
AcDbMText
 10
87.35073904881766
 20
0.1773850921879641
 30
0.0
 40
3.5
 41
0.0
 71
     1
 72
     1
  1
A
  7
SLDTEXTSTYLE0
 73
     1
 44
1.0
  0
LINE
  5
214
330
1F
100
AcDbEntity
  8
0
  6
Continuous
 62
     1
370
    15
100
AcDbLine
 10
14.07963602240241
 20
-0.5351841703140141
 30
0.0
 11
14.1160738965824
 21
-0.5556124223914887
 31
0.0
  0
SPLINE
  5
215
330
1F
100
AcDbEntity
  8
0
  6
Continuous
 62
     1
370
    15
100
AcDbSpline
210
0.0
220
0.0
230
1.0
 70
     8
 71
     3
 72
     9
 73
     5
 74
     0
 42
0.000000001
 43
0.00000001
 40
0.0
 40
0.0
 40
0.0
 40
0.0
 40
0.4856064919137917
 40
1.0
 40
1.0
 40
1.0
 40
1.0
 10
22.14040510084605
 20
0.4986443974040893
 30
0.0
 10
22.1159367931575
 20
0.5214462326746638
 30
0.0
 10
22.06554968323213
 20
0.5684016083754933
 30
0.0
 10
22.01913280519481
 20
0.599824914209714
 30
0.0
 10
21.99525626446681
 20
0.6159888587334454
 30
0.0
  0
LINE
  5
216
330
1F
100
AcDbEntity
  8
0
  6
Continuous
 62
     1
370
    15
100
AcDbLine
 10
20.09331457924958
 20
-0.5163633893380417
 30
0.0
 11
20.16405704701127
 21
-0.5556616026792575
 31
0.0
  0
LINE
  5
217
330
1F
100
AcDbEntity
  8
0
  6
Continuous
 62
     1
370
    15
100
AcDbLine
 10
18.53607650006749
 20
-2.778125000000006
 30
0.0
 11
20.70613997306847
 21
-2.778125000000006
 31
0.0
  0
LINE
  5
218
330
1F
100
AcDbEntity
  8
0
  6
Continuous
 62
     1
370
    15
100
AcDbLine
 10
5.590045829590462
 20
2.778124999999998
 30
0.0
 11
3.090405100846047
 21
2.778125
 31
0.0
  0
LINE
  5
219
330
1F
100
AcDbEntity
  8
0
  6
Continuous
 62
     1
370
    15
100
AcDbLine
 10
11.63634697672607
 20
2.778124999999998
 30
0.0
 11
9.465933459608534
 21
2.778124999999998
 31
0.0
  0
LINE
  5
21A
330
1F
100
AcDbEntity
  8
0
  6
Continuous
 62
     1
370
    15
100
AcDbLine
 10
12.48824345925672
 20
-2.778125000000006
 30
0.0
 11
14.66074904632709
 21
-2.778125000000006
 31
0.0
  0
LINE
  5
21B
330
1F
100
AcDbEntity
  8
0
  6
Continuous
 62
     1
370
    15
100
AcDbLine
 10
17.68357318077256
 20
2.778124999999998
 30
0.0
 11
15.51236226235019
 21
2.778124999999998
 31
0.0
  0
LINE
  5
21C
330
1F
100
AcDbEntity
  8
0
  6
Continuous
 62
     1
370
    15
100
AcDbLine
 10
6.442682134291307
 20
-2.778125000000006
 30
0.0
 11
8.61212897222833
 21
-2.778125000000006
 31
0.0
  0
LINE
  5
21D
330
1F
100
AcDbEntity
  8
0
  6
Continuous
 62
     1
370
    15
100
AcDbLine
 10
22.14040510084605
 20
2.778124999999998
 30
0.0
 11
21.55812550151626
 21
2.778124999999998
 31
0.0
  0
LINE
  5
21E
330
1F
100
AcDbEntity
  8
외형선
  6
Continuous
370
    15
100
AcDbLine
 10
-40.88334489915394
 20
-3.175000000000004
 30
0.0
 11
1.99999999999998
 21
-3.175000000000004
 31
0.0
  0
LINE
  5
21F
330
1F
100
AcDbEntity
  8
외형선
  6
Continuous
370
    15
100
AcDbLine
 10
2.0
 20
3.174999999999997
 30
0.0
 11
-40.88334489915393
 21
3.174999999999997
 31
0.0
  0
LINE
  5
220
330
1F
100
AcDbEntity
  8
외형선
  6
Continuous
370
    15
100
AcDbLine
 10
-40.88334489915394
 20
3.174999999999997
 30
0.0
 11
-41.35959489915394
 21
2.698749999999997
 31
0.0
  0
LINE
  5
221
330
1F
100
AcDbEntity
  8
외형선
  6
Continuous
370
    15
100
AcDbLine
 10
-41.35959489915394
 20
-2.698750000000004
 30
0.0
 11
-40.88334489915394
 21
-3.175000000000004
 31
0.0
  0
LINE
  5
222
330
1F
100
AcDbEntity
  8
0
  6
Continuous
 62
     1
370
    15
100
AcDbLine
 10
22.14040510084605
 20
-2.655684051003434
 30
0.0
 11
22.14040510084605
 21
-2.428063247645348
 31
0.0
  0
SPLINE
  5
223
330
1F
100
AcDbEntity
  8
0
  6
Continuous
 62
     1
370
    15
100
AcDbSpline
210
0.0
220
0.0
230
1.0
 70
     8
 71
     3
 72
    23
 73
    19
 74
     0
 42
0.000000001
 43
0.00000001
 40
0.0
 40
0.0
 40
0.0
 40
0.0
 40
0.0560025279183929
 40
0.1190950232391487
 40
0.1822403681891647
 40
0.2455222112298256
 40
0.308702204515081
 40
0.3706660780614352
 40
0.4326728713979371
 40
0.4948289970718314
 40
0.5568803099330708
 40
0.6201131230231828
 40
0.6833818723459639
 40
0.746789403994115
 40
0.8101310948802692
 40
0.8733708651581361
 40
0.9366226179578573
 40
1.0
 40
1.0
 40
1.0
 40
1.0
 10
5.590045829590462
 20
2.771557524499678
 30
0.0
 10
5.899005302638844
 20
2.764285192240322
 30
0.0
 10
6.556038779346764
 20
2.748819844306517
 30
0.0
 10
7.561094707868069
 20
2.566154426907767
 30
0.0
 10
8.606456511860781
 20
2.267613290067488
 30
0.0
 10
9.65309071517081
 20
1.859886326751049
 30
0.0
 10
10.69259204364937
 20
1.367948501544973
 30
0.0
 10
11.72472043299025
 20
0.8157631463754532
 30
0.0
 10
12.75127630611182
 20
0.229719219483991
 30
0.0
 10
13.77920812559637
 20
-0.3655194195087024
 30
0.0
 10
14.81321416159337
 20
-0.9491468898863048
 30
0.0
 10
15.85314031502123
 20
-1.492745646533381
 30
0.0
 10
16.90058511321242
 20
-1.969614048016327
 30
0.0
 10
17.94941390763916
 20
-2.352624487225232
 30
0.0
 10
18.99766179466216
 20
-2.625632597632297
 30
0.0
 10
20.04464803106322
 20
-2.772231638969268
 30
0.0
 10
21.091835962711
 20
-2.796765423647135
 30
0.0
 10
21.79065095580401
 20
-2.702742268793556
 30
0.0
 10
22.14040510084607
 20
-2.655684051003434
 30
0.0
  0
SPLINE
  5
224
330
1F
100
AcDbEntity
  8
0
  6
Continuous
 62
     1
370
    15
100
AcDbSpline
210
0.0
220
0.0
230
1.0
 70
     8
 71
     3
 72
    22
 73
    18
 74
     0
 42
0.000000001
 43
0.00000001
 40
0.0
 40
0.0
 40
0.0
 40
0.0
 40
0.0716240723785137
 40
0.1431047686557226
 40
0.2145735400774085
 40
0.286162096561927
 40
0.3578170018622837
 40
0.4280322694040931
 40
0.4982159714060497
 40
0.5685236265092547
 40
0.6389038806140913
 40
0.7105531359219047
 40
0.7821722794884157
 40
0.8538904340185118
 40
0.9257169847071178
 40
0.9973889430929586
 40
1.0
 40
1.0
 40
1.0
 40
1.0
 10
22.14040510084606
 20
-2.428063247645348
 30
0.0
 10
21.79141339891588
 20
-2.319208672433843
 30
0.0
 10
21.09412860193373
 20
-2.101717425630177
 30
0.0
 10
20.04923593571366
 20
-1.645554061683016
 30
0.0
 10
19.00451887735716
 20
-1.120173090314698
 30
0.0
 10
17.95852542665685
 20
-0.5401413182938911
 30
0.0
 10
16.91824833622779
 20
0.0605093658801544
 30
0.0
 10
15.88563867236831
 20
0.6557456502364215
 30
0.0
 10
14.85964067446668
 20
1.217484860864
 30
0.0
 10
13.83238144546969
 20
1.723682961318326
 30
0.0
 10
12.79758438980905
 20
2.154159178813409
 30
0.0
 10
11.75718607732143
 20
2.488587414141109
 30
0.0
 10
10.7102755073593
 20
2.706490140693477
 30
0.0
 10
9.662216778370311
 20
2.800114922360545
 30
0.0
 10
8.613297757942746
 20
2.748009283582495
 30
0.0
 10
7.901736279040389
 20
2.658781148696615
 30
0.0
 10
7.539991674837518
 20
2.557444611171742
 30
0.0
 10
7.527276308563478
 20
2.553882619709806
 30
0.0
  0
LINE
  5
225
330
1F
100
AcDbEntity
  8
0
  6
Continuous
 62
     1
370
    15
100
AcDbLine
 10
22.14040510084605
 20
-1.596401630653179
 30
0.0
 11
22.14040510084605
 21
0.5336090451155373
 31
0.0
  0
SPLINE
  5
226
330
1F
100
AcDbEntity
  8
0
  6
Continuous
 62
     1
370
    15
100
AcDbSpline
210
0.0
220
0.0
230
1.0
 70
     8
 71
     3
 72
    18
 73
    14
 74
     0
 42
0.000000001
 43
0.00000001
 40
0.0
 40
0.0
 40
0.0
 40
0.0
 40
0.0083942772326097
 40
0.1060948603086518
 40
0.2040307378685769
 40
0.3018014678316144
 40
0.4014338206113469
 40
0.5011227960721829
 40
0.6010304429620621
 40
0.7008343483021673
 40
0.8004776631275671
 40
0.9001398581322
 40
1.0
 40
1.0
 40
1.0
 40
1.0
 10
11.63634697672607
 20
2.773173263625396
 30
0.0
 10
11.66573001600815
 20
2.774796209189986
 30
0.0
 10
12.03710081562454
 20
2.795308538982351
 30
0.0
 10
12.75127164572667
 20
2.715894308289945
 30
0.0
 10
13.77920937247849
 20
2.52877059463512
 30
0.0
 10
14.81321382065411
 20
2.211111748845862
 30
0.0
 10
15.85314040715456
 20
1.792041938507151
 30
0.0
 10
16.90058508845822
 20
1.284276570333178
 30
0.0
 10
17.94941391427071
 20
0.7171189623967008
 30
0.0
 10
18.99766179288986
 20
0.1150765975753039
 30
0.0
 10
20.04464803153557
 20
-0.4911487879680612
 30
0.0
 10
21.09183596259265
 20
-1.079652209880868
 30
0.0
 10
21.79065095576453
 20
-1.424037934936701
 30
0.0
 10
22.14040510084607
 20
-1.596401630653179
 30
0.0
  0
SPLINE
  5
227
330
1F
100
AcDbEntity
  8
0
  6
Continuous
 62
     1
370
    15
100
AcDbSpline
210
0.0
220
0.0
230
1.0
 70
     8
 71
     3
 72
    16
 73
    12
 74
     0
 42
0.000000001
 43
0.00000001
 40
0.0
 40
0.0
 40
0.0
 40
0.0
 40
0.1222267635690622
 40
0.24420885525263
 40
0.366170597122955
 40
0.4883367526780613
 40
0.6106161327505295
 40
0.7304387652785527
 40
0.8502075310876309
 40
0.9701878233555772
 40
1.0
 40
1.0
 40
1.0
 40
1.0
 10
22.14040510084607
 20
0.5336090451155373
 30
0.0
 10
21.79141339933508
 20
0.728668197937356
 30
0.0
 10
21.09412860319051
 20
1.118396036801785
 30
0.0
 10
20.04923593069861
 20
1.644470871128769
 30
0.0
 10
19.00451889617462
 20
2.094814843077208
 30
0.0
 10
17.95852535624564
 20
2.446125985913396
 30
0.0
 10
16.9182485970352
 20
2.680318181676979
 30
0.0
 10
15.88563772097778
 20
2.792392833683183
 30
0.0
 10
14.85964422837029
 20
2.767782977861503
 30
0.0
 10
14.09012550009659
 20
2.680926486170497
 30
0.0
 10
13.66242963844404
 20
2.56829540615808
 30
0.0
 10
13.57730823901552
 20
2.545879208085086
 30
0.0
  0
SPLINE
  5
228
330
1F
100
AcDbEntity
  8
0
  6
Continuous
 62
     1
370
    15
100
AcDbSpline
210
0.0
220
0.0
230
1.0
 70
     8
 71
     3
 72
    18
 73
    14
 74
     0
 42
0.000000001
 43
0.00000001
 40
0.0037214007747933
 40
0.0037214007747933
 40
0.0037214007747933
 40
0.0037214007747933
 40
0.0939592757552658
 40
0.1878238556048018
 40
0.28176706141802
 40
0.3759133394962282
 40
0.4699080926672295
 40
0.562093588370154
 40
0.6543429371200845
 40
0.7468144520252136
 40
0.8391300337948295
 40
0.9332033685588618
 40
1.0
 40
1.0
 40
1.0
 40
1.0
 10
3.090405100846047
 20
1.92855054945941
 30
0.0
 10
5.847681182736167
 20
0.7141202179800455
 30
0.0
 10
6.530378003337818
 20
0.3337756626027824
 30
0.0
 10
7.561095731621998
 20
-0.2680222170010372
 30
0.0
 10
8.606456240668734
 20
-0.8622654202953609
 30
0.0
 10
9.653090773210453
 20
-1.415812162179603
 30
0.0
 10
10.69259208246159
 20
-1.900471066961764
 30
0.0
 10
11.7247202257085
 20
-2.29470690628979
 30
0.0
 10
12.75127709943842
 20
-2.582120044749403
 30
0.0
 10
13.7792051541713
 20
-2.753138145488945
 30
0.0
 10
14.81322531976206
 20
-2.795669403513605
 30
0.0
 10
15.7517847793141
 20
-2.73151409726188
 30
0.0
 10
16.3482733420121
 20
-2.598625949746898
 30
0.0
 10
16.5959480796979
 20
-2.543447964558951
 30
0.0
  0
SPLINE
  5
22A
330
1F
100
AcDbEntity
  8
0
  6
Continuous
 62
     1
370
    15
100
AcDbSpline
210
0.0
220
0.0
230
1.0
 70
     8
 71
     3
 72
    20
 73
    16
 74
     0
 42
0.000000001
 43
0.00000001
 40
0.0
 40
0.0
 40
0.0
 40
0.0
 40
0.0441828676186143
 40
0.1243311607984887
 40
0.2028691733051667
 40
0.2813718787504246
 40
0.3600132296862846
 40
0.4387357849171323
 40
0.5188777584004426
 40
0.5989860509423023
 40
0.679205090399592
 40
0.7595453744116739
 40
0.8397127420106583
 40
0.9198161060708591
 40
1.0
 40
1.0
 40
1.0
 40
1.0
 10
18.53607650006747
 20
-2.761914754320689
 30
0.0
 10
18.34365670960671
 20
-2.764358355070528
 30
0.0
 10
17.80218493110879
 20
-2.771234679178288
 30
0.0
 10
16.91823629523945
 20
-2.639489024593535
 30
0.0
 10
15.88564186904369
 20
-2.386605719179006
 30
0.0
 10
14.85963981710757
 20
-2.020803373651467
 30
0.0
 10
13.83238167309264
 20
-1.565129683070267
 30
0.0
 10
12.79758433660758
 20
-1.035028123434278
 30
0.0
 10
11.75718605719197
 20
-0.4522396980670776
 30
0.0
 10
10.71027564125413
 20
0.1556591858442329
 30
0.0
 10
9.662216261772143
 20
0.7560189248147637
 30
0.0
 10
8.613299691551713
 20
1.320491425038325
 30
0.0
 10
7.565677430424465
 20
1.821279754640889
 30
0.0
 10
6.518878032637998
 20
2.244386712540464
 30
0.0
 10
5.820846310739887
 20
2.434246510470451
 30
0.0
 10
3.090405100846047
 20
2.778125
 30
0.0
  0
LINE
  5
22C
330
1F
100
AcDbEntity
  8
0
  6
Continuous
 62
     1
370
    15
100
AcDbLine
 10
22.14040510084605
 20
-2.428063247645348
 30
0.0
 11
22.14040510084605
 21
-1.596401630653179
 31
0.0
  0
SPLINE
  5
22D
330
1F
100
AcDbEntity
  8
0
  6
Continuous
 62
     1
370
    15
100
AcDbSpline
210
0.0
220
0.0
230
1.0
 70
     8
 71
     3
 72
    14
 73
    10
 74
     0
 42
0.000000001
 43
0.00000001
 40
0.0
 40
0.0
 40
0.0
 40
0.0
 40
0.1042211825495151
 40
0.2533710354487509
 40
0.4027270828082768
 40
0.5523088696878735
 40
0.7015687116506705
 40
0.8507093884422761
 40
0.9858585886887347
 40
0.9858585886887347
 40
0.9858585886887347
 40
0.9858585886887347
 10
12.48824345925673
 20
-2.764281343985645
 30
0.0
 10
12.24450189896851
 20
-2.763591480342634
 30
0.0
 10
11.65194432092739
 20
-2.761914359998451
 30
0.0
 10
10.71028712772461
 20
-2.607912499267874
 30
0.0
 10
9.662213176852319
 20
-2.331319394698673
 30
0.0
 10
8.613300516435629
 20
-1.940488636798622
 30
0.0
 10
7.56567721085888
 20
-1.458321195745144
 30
0.0
 10
6.551943779433836
 20
-0.9253961937023024
 30
0.0
 10
5.886999416868921
 20
-0.5480312339118031
 30
0.0
 10
3.090405100846047
 20
0.9714968026769902
 30
0.0
  0
SPLINE
  5
22F
330
1F
100
AcDbEntity
  8
0
  6
Continuous
 62
     1
370
    15
100
AcDbSpline
210
0.0
220
0.0
230
1.0
 70
     8
 71
     3
 72
    12
 73
     8
 74
     0
 42
0.000000001
 43
0.00000001
 40
0.0181498270370498
 40
0.0181498270370498
 40
0.0181498270370498
 40
0.0181498270370498
 40
0.2057534540511885
 40
0.4112995415647797
 40
0.6170178054119556
 40
0.8231807599999629
 40
0.9999999999999999
 40
0.9999999999999999
 40
0.9999999999999999
 40
0.9999999999999999
 10
3.090405100846048
 20
-1.30050825650343
 30
0.0
 10
5.881551160620218
 20
-2.338286377985694
 30
0.0
 10
6.54730712550155
 20
-2.548409956202843
 30
0.0
 10
7.561097522432091
 20
-2.732813956199539
 30
0.0
 10
8.606449512487405
 20
-2.79837459625239
 30
0.0
 10
9.603957480385127
 20
-2.745120661245388
 30
0.0
 10
10.25245003925268
 20
-2.61049860029155
 30
0.0
 10
10.55185289146095
 20
-2.548344873978764
 30
0.0
  0
SPLINE
  5
231
330
1F
100
AcDbEntity
  8
0
  6
Continuous
 62
     1
370
    15
100
AcDbSpline
210
0.0
220
0.0
230
1.0
 70
     8
 71
     3
 72
    12
 73
     8
 74
     0
 42
0.000000001
 43
0.00000001
 40
0.0
 40
0.0
 40
0.0
 40
0.0
 40
0.059695139444344
 40
0.2949163377494896
 40
0.5297590509324732
 40
0.7646462615563901
 40
1.0
 40
1.0
 40
1.0
 40
1.0
 10
17.68357318077256
 20
2.765665632855139
 30
0.0
 10
17.77228572537062
 20
2.769395695792674
 30
0.0
 10
18.21055890822647
 20
2.787823603179318
 30
0.0
 10
18.99766488793065
 20
2.690240046333058
 30
0.0
 10
20.04464720663264
 20
2.470421079095034
 30
0.0
 10
21.09183616931261
 20
2.129068600561903
 30
0.0
 10
21.79065102471674
 20
1.822493307398289
 30
0.0
 10
22.14040510084607
 20
1.669053583563986
 30
0.0
  0
LINE
  5
232
330
1F
100
AcDbEntity
  8
0
  6
Continuous
 62
     1
370
    15
100
AcDbLine
 10
22.14040510084605
 20
0.5336090451155373
 30
0.0
 11
22.14040510084605
 21
1.669053583563986
 31
0.0
  0
SPLINE
  5
233
330
1F
100
AcDbEntity
  8
0
  6
Continuous
 62
     1
370
    15
100
AcDbSpline
210
0.0
220
0.0
230
1.0
 70
     8
 71
     3
 72
    10
 73
     6
 74
     0
 42
0.000000001
 43
0.00000001
 40
0.0
 40
0.0
 40
0.0
 40
0.0
 40
0.415392762732982
 40
0.8299539978405011
 40
1.0
 40
1.0
 40
1.0
 40
1.0
 10
22.14040510084607
 20
2.757851774231111
 30
0.0
 10
21.79141110100635
 20
2.768183586718794
 30
0.0
 10
21.0941217128051
 20
2.788826529611381
 30
0.0
 10
20.25450454554914
 20
2.699965832487107
 30
0.0
 10
19.76360448255342
 20
2.577051620661636
 30
0.0
 10
19.62081529375976
 20
2.541299291581314
 30
0.0
  0
LINE
  5
234
330
1F
100
AcDbEntity
  8
0
  6
Continuous
 62
     1
370
    15
100
AcDbLine
 10
6.442682134291307
 20
-2.773681494050781
 30
0.0
 11
3.090405100846047
 21
-2.778125000000001
 31
0.0
  0
LINE
  5
235
330
1F
100
AcDbEntity
  8
0
  6
Continuous
 62
     1
370
    15
100
AcDbLine
 10
22.14040510084605
 20
1.656735800309627
 30
0.0
 11
22.14040510084605
 21
2.757851774231111
 31
0.0
  0
LINE
  5
236
330
1F
100
AcDbEntity
  8
0
  6
Continuous
 62
     1
370
    15
100
AcDbLine
 10
22.14040510084605
 20
2.757851774231111
 30
0.0
 11
22.14040510084605
 21
2.778124999999998
 31
0.0
  0
LINE
  5
245
330
1F
100
AcDbEntity
  8
외형선
  6
Continuous
370
    15
100
AcDbLine
 10
-41.35959489915394
 20
-2.698750000000004
 30
0.0
 11
-41.35959489915394
 21
-0.0000000000000036
 31
0.0
  0
LINE
  5
247
330
1F
100
AcDbEntity
  8
중심선
 62
     1
100
AcDbLine
 10
-44.35959489915394
 20
-0.0000000000000046
 30
0.0
 11
25.14040510084605
 21
-0.0000000000000002
 31
0.0
  0
CIRCLE
  5
248
330
1F
100
AcDbEntity
  8
해칭선
100
AcDbCircle
 10
0.0
 20
0.0
 30
0.0
 40
2.999999999999999
  0
DIMENSION
  5
249
330
1F
100
AcDbEntity
  8
치수문자_일반주서
100
AcDbDimension
  2
*D12
 10
41.35972618846139
 20
-2.655684051003362
 30
0.0
 11
41.35972618846128
 21
24.25712500000007
 31
0.0
 70
   160
  1
%%c<>
 71
     2
 42
5.433809051003433
 52
-270.0
  3
SLDDIMSTYLE0
100
AcDbAlignedDimension
 13
22.14040510084605
 23
2.778124999999998
 33
0.0
 14
22.14040510084607
 24
-2.655684051003434
 34
0.0
 50
90.0000000000002
100
AcDbRotatedDimension
1001
ACAD
1000
DSTYLE
1002
{
1070
   171
1070
     6
1070
   273
1070
     5
1002
}
  0
DIMENSION
  5
24A
330
1F
100
AcDbEntity
  8
치수문자_일반주서
100
AcDbDimension
  2
*D13
 10
3.090405100846047
 20
19.22971754266511
 30
0.0
 11
12.61540510084605
 21
19.22971754266511
 31
0.0
 70
   160
  1
<>
 71
     2
 42
19.04999999999999
  3
SLDDIMSTYLE0
100
AcDbAlignedDimension
 13
22.14040510084605
 23
2.363872949340951
 33
0.0
 14
3.090405100846047
 24
2.778125
 34
0.0
 50
0.0000000000003419
100
AcDbRotatedDimension
1001
ACAD
1000
DSTYLE
1002
{
1070
   171
1070
     6
1070
   273
1070
     5
1002
}
  0
DIMENSION
  5
24B
330
1F
100
AcDbEntity
  8
치수문자_일반주서
100
AcDbDimension
  2
*D14
 10
-41.35959489915394
 20
33.57978339880297
 30
0.0
 11
-8.01312617699122
 21
33.57978339880297
 31
0.0
 70
   160
  1
<>
 71
     2
 42
63.49999999999999
  3
SLDDIMSTYLE0
100
AcDbAlignedDimension
 13
22.14040510084605
 23
2.363872949340951
 33
0.0
 14
-41.35959489915394
 24
2.698749999999997
 34
0.0
 50
0.000000000000008
100
AcDbRotatedDimension
1001
ACAD
1000
DSTYLE
1002
{
1070
   171
1070
     6
1070
   273
1070
     5
1002
}
  0
DIMENSION
  5
24C
330
1F
100
AcDbEntity
  8
치수문자_일반주서
100
AcDbDimension
  2
*D15
 10
-47.26841769977967
 20
-3.175000000000029
 30
0.0
 11
-47.26841769977976
 21
23.42274999999997
 31
0.0
 70
   160
  1
%%c<>
 71
     2
 42
6.350000000000001
 52
-270.0
  3
SLDDIMSTYLE0
100
AcDbAlignedDimension
 13
-40.88334489915393
 23
3.174999999999997
 33
0.0
 14
-40.88334489915394
 24
-3.175000000000004
 34
0.0
 50
90.0000000000002
100
AcDbRotatedDimension
1001
ACAD
1000
DSTYLE
1002
{
1070
   171
1070
     6
1070
   273
1070
     5
1002
}
  0
INSERT
  5
24D
330
1F
100
AcDbEntity
  8
해칭선
100
AcDbBlockReference
  2
SW_DOWELSYMBOL_0
 10
0.0
 20
0.0
 30
0.0
  0
LINE
  5
288
330
1F
100
AcDbEntity
  8
외형선
  6
Continuous
370
    15
100
AcDbLine
 10
3.090405100846047
 20
2.778125
 30
0.0
 11
3.090405100846047
 21
-2.778125000000001
 31
0.0
  0
LINE
  5
28A
330
1F
100
AcDbEntity
  8
외형선
  6
Continuous
370
    15
100
AcDbLine
 10
-41.35959489915394
 20
-0.0000000000000036
 30
0.0
 11
-41.35959489915394
 21
2.698749999999997
 31
0.0
  0
LINE
  5
28B
330
1F
100
AcDbEntity
  8
외형선
  6
Continuous
370
    15
100
AcDbLine
 10
-40.88334489915394
 20
3.174999999999997
 30
0.0
 11
-40.88334489915394
 21
-3.175000000000004
 31
0.0
  0
LINE
  5
28C
330
1F
100
AcDbEntity
  8
외형선
  6
Continuous
370
    15
100
AcDbLine
 10
3.090405100846047
 20
2.778125
 30
0.0
 11
2.0
 21
3.174999999999997
 31
0.0
  0
LINE
  5
28D
330
1F
100
AcDbEntity
  8
외형선
  6
Continuous
370
    15
100
AcDbLine
 10
3.090405100846047
 20
-2.778125000000001
 30
0.0
 11
2.0
 21
-3.174999999999998
 31
0.0
  0
LINE
  5
28E
330
1F
100
AcDbEntity
  8
외형선
  6
Continuous
370
    15
100
AcDbLine
 10
2.0
 20
-3.174999999999998
 30
0.0
 11
2.0
 21
3.174999999999998
 31
0.0
  0
ENDSEC
  0
SECTION
  2
OBJECTS
  0
DICTIONARY
  5
C
330
0
100
AcDbDictionary
281
     1
  3
ACAD_GROUP
350
D
  3
ACAD_IMAGE_VARS
350
132
  3
ACAD_LAYOUT
350
1A
  3
ACAD_MLINESTYLE
350
17
  3
ACAD_PLOTSETTINGS
350
19
  3
ACAD_PLOTSTYLENAME
350
E
  3
ACAD_SCALELIST
350
47
  3
APPDATA
350
130
  3
DWGPROPS
350
291
  0
DICTIONARY
  5
1D6
330
2
100
AcDbDictionary
280
     1
281
     1
  3
ACAD_LAYERSTATES
360
1D7
  0
DICTIONARY
  5
D
102
{ACAD_REACTORS
330
C
102
}
330
C
100
AcDbDictionary
281
     1
  0
RASTERVARIABLES
  5
132
102
{ACAD_REACTORS
330
C
102
}
330
C
100
AcDbRasterVariables
 90
        0
 70
     1
 71
     1
 72
     1
  0
DICTIONARY
  5
1A
102
{ACAD_REACTORS
330
C
102
}
330
C
100
AcDbDictionary
281
     1
  3
Layout1
350
1E
  3
Layout2
350
26
  3
Model
350
22
  0
DICTIONARY
  5
17
102
{ACAD_REACTORS
330
C
102
}
330
C
100
AcDbDictionary
281
     1
  3
Standard
350
18
  0
DICTIONARY
  5
19
102
{ACAD_REACTORS
330
C
102
}
330
C
100
AcDbDictionary
281
     1
  0
ACDBDICTIONARYWDFLT
  5
E
102
{ACAD_REACTORS
330
C
102
}
330
C
100
AcDbDictionary
281
     1
  3
Normal
350
F
100
AcDbDictionaryWithDefault
340
F
  0
DICTIONARY
  5
47
102
{ACAD_REACTORS
330
C
102
}
330
C
100
AcDbDictionary
281
     1
  3
A0
350
48
  3
A1
350
49
  3
A2
350
4A
  3
A3
350
4B
  3
A4
350
4C
  3
A5
350
4D
  3
A6
350
4E
  3
A7
350
4F
  3
A8
350
50
  3
A9
350
51
  3
B0
350
52
  3
B1
350
53
  3
B2
350
54
  3
B3
350
55
  3
B4
350
56
  3
B5
350
57
  3
B6
350
58
  3
B7
350
59
  3
B8
350
5A
  3
B9
350
5B
  3
C0
350
5C
  3
C1
350
5D
  3
C2
350
5E
  3
C3
350
5F
  3
C4
350
60
  3
C5
350
61
  3
C6
350
62
  3
C7
350
63
  3
C8
350
64
  3
C9
350
65
  3
D0
350
66
  3
D1
350
67
  3
D2
350
68
  0
DICTIONARY
  5
130
102
{ACAD_REACTORS
330
C
102
}
330
C
100
AcDbDictionary
281
     1
  0
XRECORD
  5
291
102
{ACAD_REACTORS
330
C
102
}
330
C
100
AcDbXrecord
280
     1
  1
DWGPROPS COOKIE
  2

  3

  4

  6

  7

  8
12016016
  9

300
=
301
=
302
=
303
=
304
=
305
=
306
=
307
=
308
=
309
=
 40
0.0
 41
2458316.070599699
 42
2458330.050134386
  1

 90
        0
  0
DICTIONARY
  5
1D7
102
{ACAD_REACTORS
330
1D6
102
}
330
1D6
100
AcDbDictionary
281
     1
  0
LAYOUT
  5
1E
102
{ACAD_REACTORS
330
1A
102
}
330
1A
100
AcDbPlotSettings
  1

  2
none_device
  4

  6

 40
0.0
 41
0.0
 42
0.0
 43
0.0
 44
0.0
 45
0.0
 46
0.0
 47
0.0
 48
0.0
 49
0.0
140
0.0
141
0.0
142
1.0
143
1.0
 70
   688
 72
     1
 73
     0
 74
     5
  7

 75
    16
147
1.0
148
0.0
149
0.0
100
AcDbLayout
  1
Layout1
 70
     1
 71
     1
 10
0.0
 20
0.0
 11
420.0
 21
297.0
 12
0.0
 22
0.0
 32
0.0
 14
1.000000000000000E+20
 24
1.000000000000000E+20
 34
1.000000000000000E+20
 15
-1.000000000000000E+20
 25
-1.000000000000000E+20
 35
-1.000000000000000E+20
146
0.0
 13
0.0
 23
0.0
 33
0.0
 16
1.0
 26
0.0
 36
0.0
 17
0.0
 27
1.0
 37
0.0
 76
     0
330
1B
  0
LAYOUT
  5
26
102
{ACAD_REACTORS
330
1A
102
}
330
1A
100
AcDbPlotSettings
  1

  2
none_device
  4

  6

 40
0.0
 41
0.0
 42
0.0
 43
0.0
 44
0.0
 45
0.0
 46
0.0
 47
0.0
 48
0.0
 49
0.0
140
0.0
141
0.0
142
1.0
143
1.0
 70
   688
 72
     1
 73
     0
 74
     5
  7

 75
    16
147
1.0
148
0.0
149
0.0
100
AcDbLayout
  1
Layout2
 70
     1
 71
     2
 10
0.0
 20
0.0
 11
0.0
 21
0.0
 12
0.0
 22
0.0
 32
0.0
 14
0.0
 24
0.0
 34
0.0
 15
0.0
 25
0.0
 35
0.0
146
0.0
 13
0.0
 23
0.0
 33
0.0
 16
1.0
 26
0.0
 36
0.0
 17
0.0
 27
1.0
 37
0.0
 76
     0
330
23
  0
LAYOUT
  5
22
102
{ACAD_REACTORS
330
1A
102
}
330
1A
100
AcDbPlotSettings
  1

  2
none_device
  4
ANSI_A_(11.00_x_8.50_Inches)
  6

 40
6.35
 41
19.05
 42
6.35000508
 43
19.05000254
 44
279.4
 45
215.9
 46
79.49457958498073
 47
82.92475406779607
 48
0.0
 49
0.0
140
0.0
141
0.0
142
0.0783255010539914
143
1.0
 70
  1696
 72
     0
 73
     0
 74
     0
  7

 75
     0
147
0.0235690232323232
148
0.0
149
0.0
100
AcDbLayout
  1
Model
 70
     1
 71
     0
 10
0.0
 20
0.0
 11
420.0
 21
297.0
 12
0.0
 22
0.0
 32
0.0
 14
1.000000000000000E+20
 24
1.000000000000000E+20
 34
1.000000000000000E+20
 15
-1.000000000000000E+20
 25
-1.000000000000000E+20
 35
-1.000000000000000E+20
146
0.0
 13
0.0
 23
0.0
 33
0.0
 16
1.0
 26
0.0
 36
0.0
 17
0.0
 27
1.0
 37
0.0
 76
     0
330
1F
331
29
  0
MLINESTYLE
  5
18
102
{ACAD_REACTORS
330
17
102
}
330
17
100
AcDbMlineStyle
  2
Standard
 70
     0
  3

 62
   256
 51
90.0
 52
90.0
 71
     2
 49
0.5
 62
   256
  6
BYLAYER
 49
-0.5
 62
   256
  6
BYLAYER
  0
ACDBPLACEHOLDER
  5
F
102
{ACAD_REACTORS
330
E
102
}
330
E
  0
SCALE
  5
48
102
{ACAD_REACTORS
330
47
102
}
330
47
100
AcDbScale
 70
     0
300
1:1
140
1.0
141
1.0
290
     1
  0
SCALE
  5
49
102
{ACAD_REACTORS
330
47
102
}
330
47
100
AcDbScale
 70
     0
300
1:2
140
1.0
141
2.0
290
     0
  0
SCALE
  5
4A
102
{ACAD_REACTORS
330
47
102
}
330
47
100
AcDbScale
 70
     0
300
1:4
140
1.0
141
4.0
290
     0
  0
SCALE
  5
4B
102
{ACAD_REACTORS
330
47
102
}
330
47
100
AcDbScale
 70
     0
300
1:5
140
1.0
141
5.0
290
     0
  0
SCALE
  5
4C
102
{ACAD_REACTORS
330
47
102
}
330
47
100
AcDbScale
 70
     0
300
1:8
140
1.0
141
8.0
290
     0
  0
SCALE
  5
4D
102
{ACAD_REACTORS
330
47
102
}
330
47
100
AcDbScale
 70
     0
300
1:10
140
1.0
141
10.0
290
     0
  0
SCALE
  5
4E
102
{ACAD_REACTORS
330
47
102
}
330
47
100
AcDbScale
 70
     0
300
1:16
140
1.0
141
16.0
290
     0
  0
SCALE
  5
4F
102
{ACAD_REACTORS
330
47
102
}
330
47
100
AcDbScale
 70
     0
300
1:20
140
1.0
141
20.0
290
     0
  0
SCALE
  5
50
102
{ACAD_REACTORS
330
47
102
}
330
47
100
AcDbScale
 70
     0
300
1:30
140
1.0
141
30.0
290
     0
  0
SCALE
  5
51
102
{ACAD_REACTORS
330
47
102
}
330
47
100
AcDbScale
 70
     0
300
1:40
140
1.0
141
40.0
290
     0
  0
SCALE
  5
52
102
{ACAD_REACTORS
330
47
102
}
330
47
100
AcDbScale
 70
     0
300
1:50
140
1.0
141
50.0
290
     0
  0
SCALE
  5
53
102
{ACAD_REACTORS
330
47
102
}
330
47
100
AcDbScale
 70
     0
300
1:100
140
1.0
141
100.0
290
     0
  0
SCALE
  5
54
102
{ACAD_REACTORS
330
47
102
}
330
47
100
AcDbScale
 70
     0
300
2:1
140
2.0
141
1.0
290
     0
  0
SCALE
  5
55
102
{ACAD_REACTORS
330
47
102
}
330
47
100
AcDbScale
 70
     0
300
4:1
140
4.0
141
1.0
290
     0
  0
SCALE
  5
56
102
{ACAD_REACTORS
330
47
102
}
330
47
100
AcDbScale
 70
     0
300
8:1
140
8.0
141
1.0
290
     0
  0
SCALE
  5
57
102
{ACAD_REACTORS
330
47
102
}
330
47
100
AcDbScale
 70
     0
300
10:1
140
10.0
141
1.0
290
     0
  0
SCALE
  5
58
102
{ACAD_REACTORS
330
47
102
}
330
47
100
AcDbScale
 70
     0
300
100:1
140
100.0
141
1.0
290
     0
  0
SCALE
  5
59
102
{ACAD_REACTORS
330
47
102
}
330
47
100
AcDbScale
 70
     0
300
1/128" = 1'-0"
140
0.0078125
141
12.0
290
     0
  0
SCALE
  5
5A
102
{ACAD_REACTORS
330
47
102
}
330
47
100
AcDbScale
 70
     0
300
1/64" = 1'-0"
140
0.015625
141
12.0
290
     0
  0
SCALE
  5
5B
102
{ACAD_REACTORS
330
47
102
}
330
47
100
AcDbScale
 70
     0
300
1/32" = 1'-0"
140
0.03125
141
12.0
290
     0
  0
SCALE
  5
5C
102
{ACAD_REACTORS
330
47
102
}
330
47
100
AcDbScale
 70
     0
300
1/16" = 1'-0"
140
0.0625
141
12.0
290
     0
  0
SCALE
  5
5D
102
{ACAD_REACTORS
330
47
102
}
330
47
100
AcDbScale
 70
     0
300
3/32" = 1'-0"
140
0.09375
141
12.0
290
     0
  0
SCALE
  5
5E
102
{ACAD_REACTORS
330
47
102
}
330
47
100
AcDbScale
 70
     0
300
1/8" = 1'-0"
140
0.125
141
12.0
290
     0
  0
SCALE
  5
5F
102
{ACAD_REACTORS
330
47
102
}
330
47
100
AcDbScale
 70
     0
300
3/16" = 1'-0"
140
0.1875
141
12.0
290
     0
  0
SCALE
  5
60
102
{ACAD_REACTORS
330
47
102
}
330
47
100
AcDbScale
 70
     0
300
1/4" = 1'-0"
140
0.25
141
12.0
290
     0
  0
SCALE
  5
61
102
{ACAD_REACTORS
330
47
102
}
330
47
100
AcDbScale
 70
     0
300
3/8" = 1'-0"
140
0.375
141
12.0
290
     0
  0
SCALE
  5
62
102
{ACAD_REACTORS
330
47
102
}
330
47
100
AcDbScale
 70
     0
300
1/2" = 1'-0"
140
0.5
141
12.0
290
     0
  0
SCALE
  5
63
102
{ACAD_REACTORS
330
47
102
}
330
47
100
AcDbScale
 70
     0
300
3/4" = 1'-0"
140
0.75
141
12.0
290
     0
  0
SCALE
  5
64
102
{ACAD_REACTORS
330
47
102
}
330
47
100
AcDbScale
 70
     0
300
1" = 1'-0"
140
1.0
141
12.0
290
     0
  0
SCALE
  5
65
102
{ACAD_REACTORS
330
47
102
}
330
47
100
AcDbScale
 70
     0
300
1-1/2" = 1'-0"
140
1.5
141
12.0
290
     0
  0
SCALE
  5
66
102
{ACAD_REACTORS
330
47
102
}
330
47
100
AcDbScale
 70
     0
300
3" = 1'-0"
140
3.0
141
12.0
290
     0
  0
SCALE
  5
67
102
{ACAD_REACTORS
330
47
102
}
330
47
100
AcDbScale
 70
     0
300
6" = 1'-0"
140
6.0
141
12.0
290
     0
  0
SCALE
  5
68
102
{ACAD_REACTORS
330
47
102
}
330
47
100
AcDbScale
 70
     0
300
1'-0" = 1'-0"
140
12.0
141
12.0
290
     0
  0
ENDSEC
  0
EOF
