  0
SECTION
  2
HEADER
  9
$ACADVER
  1
AC1015
  9
$ACADMAINTVER
 70
     6
  9
$DWGCODEPAGE
  3
ANSI_949
  9
$INSBASE
 10
0.0
 20
0.0
 30
0.0
  9
$EXTMIN
 10
1.000000000000000E+20
 20
1.000000000000000E+20
 30
1.000000000000000E+20
  9
$EXTMAX
 10
-1.000000000000000E+20
 20
-1.000000000000000E+20
 30
-1.000000000000000E+20
  9
$LIMMIN
 10
0.0
 20
0.0
  9
$LIMMAX
 10
420.0
 20
297.0
  9
$ORTHOMODE
 70
     1
  9
$REGENMODE
 70
     1
  9
$FILLMODE
 70
     1
  9
$QTEXTMODE
 70
     0
  9
$MIRRTEXT
 70
     1
  9
$LTSCALE
 40
1.0
  9
$ATTMODE
 70
     1
  9
$TEXTSIZE
 40
3.5
  9
$TRACEWID
 40
1.0
  9
$TEXTSTYLE
  7
Standard
  9
$CLAYER
  8
0
  9
$CELTYPE
  6
ByLayer
  9
$CECOLOR
 62
   256
  9
$CELTSCALE
 40
1.0
  9
$DISPSILH
 70
     0
  9
$DIMSCALE
 40
1.0
  9
$DIMASZ
 40
3.302
  9
$DIMEXO
 40
1.0
  9
$DIMDLI
 40
3.75
  9
$DIMRND
 40
0.0
  9
$DIMDLE
 40
0.0
  9
$DIMEXE
 40
1.0
  9
$DIMTP
 40
0.0
  9
$DIMTM
 40
0.0
  9
$DIMTXT
 40
3.5
  9
$DIMCEN
 40
2.5
  9
$DIMTSZ
 40
0.0
  9
$DIMTOL
 70
     0
  9
$DIMLIM
 70
     0
  9
$DIMTIH
 70
     1
  9
$DIMTOH
 70
     1
  9
$DIMSE1
 70
     0
  9
$DIMSE2
 70
     0
  9
$DIMTAD
 70
     1
  9
$DIMZIN
 70
     0
  9
$DIMBLK
  1

  9
$DIMASO
 70
     1
  9
$DIMSHO
 70
     1
  9
$DIMPOST
  1

  9
$DIMAPOST
  1

  9
$DIMALT
 70
     0
  9
$DIMALTD
 70
     3
  9
$DIMALTF
 40
0.0393700787401575
  9
$DIMLFAC
 40
1.0
  9
$DIMTOFL
 70
     1
  9
$DIMTVP
 40
0.0
  9
$DIMTIX
 70
     0
  9
$DIMSOXD
 70
     0
  9
$DIMSAH
 70
     0
  9
$DIMBLK1
  1

  9
$DIMBLK2
  1

  9
$DIMSTYLE
  2
ISO-25
  9
$DIMCLRD
 70
     0
  9
$DIMCLRE
 70
     0
  9
$DIMCLRT
 70
     0
  9
$DIMTFAC
 40
1.0
  9
$DIMGAP
 40
1.524
  9
$DIMJUST
 70
     0
  9
$DIMSD1
 70
     0
  9
$DIMSD2
 70
     0
  9
$DIMTOLJ
 70
     0
  9
$DIMTZIN
 70
     0
  9
$DIMALTZ
 70
     0
  9
$DIMALTTZ
 70
     0
  9
$DIMUPT
 70
     0
  9
$DIMDEC
 70
     2
  9
$DIMTDEC
 70
     2
  9
$DIMALTU
 70
     2
  9
$DIMALTTD
 70
     3
  9
$DIMTXSTY
  7
Standard
  9
$DIMAUNIT
 70
     0
  9
$DIMADEC
 70
     2
  9
$DIMALTRND
 40
0.0
  9
$DIMAZIN
 70
     0
  9
$DIMDSEP
 70
    44
  9
$DIMATFIT
 70
     3
  9
$DIMFRAC
 70
     0
  9
$DIMLDRBLK
  1

  9
$DIMLUNIT
 70
     2
  9
$DIMLWD
 70
    -2
  9
$DIMLWE
 70
    -2
  9
$DIMTMOVE
 70
     0
  9
$LUNITS
 70
     2
  9
$LUPREC
 70
     2
  9
$SKETCHINC
 40
1.0
  9
$FILLETRAD
 40
10.0
  9
$AUNITS
 70
     0
  9
$AUPREC
 70
     2
  9
$MENU
  1
.
  9
$ELEVATION
 40
0.0
  9
$PELEVATION
 40
0.0
  9
$THICKNESS
 40
0.0
  9
$LIMCHECK
 70
     0
  9
$CHAMFERA
 40
0.0
  9
$CHAMFERB
 40
0.0
  9
$CHAMFERC
 40
0.0
  9
$CHAMFERD
 40
0.0
  9
$SKPOLY
 70
     0
  9
$TDCREATE
 40
2458316.445175937
  9
$TDUCREATE
 40
2458316.070175937
  9
$TDUPDATE
 40
2458330.42167287
  9
$TDUUPDATE
 40
2458330.04667287
  9
$TDINDWG
 40
0.0003873148
  9
$TDUSRTIMER
 40
2458330.043839745
  9
$USRTIMER
 70
     1
  9
$ANGBASE
 50
0.0
  9
$ANGDIR
 70
     0
  9
$PDMODE
 70
     0
  9
$PDSIZE
 40
-1.0
  9
$PLINEWID
 40
0.0
  9
$SPLFRAME
 70
     0
  9
$SPLINETYPE
 70
     6
  9
$SPLINESEGS
 70
     8
  9
$HANDSEED
  5
2C3
  9
$SURFTAB1
 70
     6
  9
$SURFTAB2
 70
     6
  9
$SURFTYPE
 70
     6
  9
$SURFU
 70
     6
  9
$SURFV
 70
     6
  9
$UCSBASE
  2

  9
$UCSNAME
  2

  9
$UCSORG
 10
0.0
 20
0.0
 30
0.0
  9
$UCSXDIR
 10
1.0
 20
0.0
 30
0.0
  9
$UCSYDIR
 10
0.0
 20
1.0
 30
0.0
  9
$UCSORTHOREF
  2

  9
$UCSORTHOVIEW
 70
     0
  9
$UCSORGTOP
 10
0.0
 20
0.0
 30
0.0
  9
$UCSORGBOTTOM
 10
0.0
 20
0.0
 30
0.0
  9
$UCSORGLEFT
 10
0.0
 20
0.0
 30
0.0
  9
$UCSORGRIGHT
 10
0.0
 20
0.0
 30
0.0
  9
$UCSORGFRONT
 10
0.0
 20
0.0
 30
0.0
  9
$UCSORGBACK
 10
0.0
 20
0.0
 30
0.0
  9
$PUCSBASE
  2

  9
$PUCSNAME
  2

  9
$PUCSORG
 10
0.0
 20
0.0
 30
0.0
  9
$PUCSXDIR
 10
1.0
 20
0.0
 30
0.0
  9
$PUCSYDIR
 10
0.0
 20
1.0
 30
0.0
  9
$PUCSORTHOREF
  2

  9
$PUCSORTHOVIEW
 70
     0
  9
$PUCSORGTOP
 10
0.0
 20
0.0
 30
0.0
  9
$PUCSORGBOTTOM
 10
0.0
 20
0.0
 30
0.0
  9
$PUCSORGLEFT
 10
0.0
 20
0.0
 30
0.0
  9
$PUCSORGRIGHT
 10
0.0
 20
0.0
 30
0.0
  9
$PUCSORGFRONT
 10
0.0
 20
0.0
 30
0.0
  9
$PUCSORGBACK
 10
0.0
 20
0.0
 30
0.0
  9
$USERI1
 70
     0
  9
$USERI2
 70
     0
  9
$USERI3
 70
     0
  9
$USERI4
 70
     0
  9
$USERI5
 70
     0
  9
$USERR1
 40
0.0
  9
$USERR2
 40
0.0
  9
$USERR3
 40
0.0
  9
$USERR4
 40
0.0
  9
$USERR5
 40
0.0
  9
$WORLDVIEW
 70
     1
  9
$SHADEDGE
 70
     3
  9
$SHADEDIF
 70
    70
  9
$TILEMODE
 70
     1
  9
$MAXACTVP
 70
    64
  9
$PINSBASE
 10
0.0
 20
0.0
 30
0.0
  9
$PLIMCHECK
 70
     0
  9
$PEXTMIN
 10
1.000000000000000E+20
 20
1.000000000000000E+20
 30
1.000000000000000E+20
  9
$PEXTMAX
 10
-1.000000000000000E+20
 20
-1.000000000000000E+20
 30
-1.000000000000000E+20
  9
$PLIMMIN
 10
0.0
 20
0.0
  9
$PLIMMAX
 10
0.0
 20
0.0
  9
$UNITMODE
 70
     0
  9
$VISRETAIN
 70
     1
  9
$PLINEGEN
 70
     0
  9
$PSLTSCALE
 70
     1
  9
$TREEDEPTH
 70
  3020
  9
$CMLSTYLE
  2
Standard
  9
$CMLJUST
 70
     0
  9
$CMLSCALE
 40
20.0
  9
$PROXYGRAPHICS
 70
     1
  9
$MEASUREMENT
 70
     1
  9
$CELWEIGHT
370
    -1
  9
$ENDCAPS
280
     0
  9
$JOINSTYLE
280
     0
  9
$LWDISPLAY
290
     1
  9
$INSUNITS
 70
     4
  9
$HYPERLINKBASE
  1

  9
$STYLESHEET
  1

  9
$XEDIT
290
     1
  9
$CEPSNTYPE
380
     0
  9
$PSTYLEMODE
290
     1
  9
$FINGERPRINTGUID
  2
{7F39E522-3065-4E7B-B53C-9BB8541D340E}
  9
$VERSIONGUID
  2
{FAEB1C32-E019-11D5-929B-00C0DF256EC4}
  9
$EXTNAMES
290
     1
  9
$PSVPSCALE
 40
0.0
  9
$OLESTARTUP
290
     0
  0
ENDSEC
  0
SECTION
  2
CLASSES
  0
CLASS
  1
ACDBDICTIONARYWDFLT
  2
AcDbDictionaryWithDefault
  3
ObjectDBX Classes
 90
        0
280
     0
281
     0
  0
CLASS
  1
VISUALSTYLE
  2
AcDbVisualStyle
  3
ObjectDBX Classes
 90
     4095
280
     0
281
     0
  0
CLASS
  1
MATERIAL
  2
AcDbMaterial
  3
ObjectDBX Classes
 90
     1153
280
     0
281
     0
  0
CLASS
  1
SCALE
  2
AcDbScale
  3
ObjectDBX Classes
 90
     1153
280
     0
281
     0
  0
CLASS
  1
SUN
  2
AcDbSun
  3
SCENEOE
 90
     1153
280
     0
281
     0
  0
CLASS
  1
ACDBPLACEHOLDER
  2
AcDbPlaceHolder
  3
ObjectDBX Classes
 90
        0
280
     0
281
     0
  0
CLASS
  1
LAYOUT
  2
AcDbLayout
  3
ObjectDBX Classes
 90
        0
280
     0
281
     0
  0
CLASS
  1
TABLESTYLE
  2
AcDbTableStyle
  3
ObjectDBX Classes
 90
     4095
280
     0
281
     0
  0
CLASS
  1
MLEADERSTYLE
  2
AcDbMLeaderStyle
  3
ACDB_MLEADERSTYLE_CLASS
 90
     4095
280
     0
281
     0
  0
CLASS
  1
RASTERVARIABLES
  2
AcDbRasterVariables
  3
ISM
 90
        0
280
     0
281
     0
  0
ENDSEC
  0
SECTION
  2
TABLES
  0
TABLE
  2
VPORT
  5
8
330
0
100
AcDbSymbolTable
 70
     1
  0
VPORT
  5
29
330
8
100
AcDbSymbolTableRecord
100
AcDbViewportTableRecord
  2
*Active
 70
     0
 10
0.0
 20
0.0
 11
1.0
 21
1.0
 12
-0.2573680654455153
 22
25.79286771421243
 13
0.0
 23
0.0
 14
10.0
 24
10.0
 15
10.0
 25
10.0
 16
0.0
 26
0.0
 36
1.0
 17
0.0
 27
0.0
 37
0.0
 40
137.7234665582423
 41
1.516441005802708
 42
50.0
 43
0.0
 44
0.0
 50
0.0
 51
0.0
 71
    16
 72
  2000
 73
     1
 74
     3
 75
     0
 76
     0
 77
     0
 78
     0
281
     0
 65
     1
110
0.0
120
0.0
130
0.0
111
1.0
121
0.0
131
0.0
112
0.0
122
1.0
132
0.0
 79
     0
146
0.0
  0
ENDTAB
  0
TABLE
  2
LTYPE
  5
5
330
0
100
AcDbSymbolTable
 70
     6
  0
LTYPE
  5
14
330
5
100
AcDbSymbolTableRecord
100
AcDbLinetypeTableRecord
  2
ByBlock
 70
     0
  3

 72
    65
 73
     0
 40
0.0
  0
LTYPE
  5
15
330
5
100
AcDbSymbolTableRecord
100
AcDbLinetypeTableRecord
  2
ByLayer
 70
     0
  3

 72
    65
 73
     0
 40
0.0
  0
LTYPE
  5
16
330
5
100
AcDbSymbolTableRecord
100
AcDbLinetypeTableRecord
  2
Continuous
 70
     0
  3
Solid line
 72
    65
 73
     0
 40
0.0
  0
LTYPE
  5
6A
330
5
100
AcDbSymbolTableRecord
100
AcDbLinetypeTableRecord
  2
HIDDEN
 70
     0
  3
Hidden __ __ __ __ __ __ __ __ __ __ __ __ __ __
 72
    65
 73
     2
 40
1.905
 49
1.27
 74
     0
 49
-0.635
 74
     0
  0
LTYPE
  5
6B
330
5
100
AcDbSymbolTableRecord
100
AcDbLinetypeTableRecord
  2
PHANTOM
 70
     0
  3
Phantom ______  __  __  ______  __  __  ______
 72
    65
 73
     6
 40
12.7
 49
6.35
 74
     0
 49
-1.27
 74
     0
 49
1.27
 74
     0
 49
-1.27
 74
     0
 49
1.27
 74
     0
 49
-1.27
 74
     0
  0
LTYPE
  5
6C
330
5
100
AcDbSymbolTableRecord
100
AcDbLinetypeTableRecord
  2
CENTER
 70
     0
  3
Center ____ _ ____ _ ____ _ ____ _ ____ _ ____
 72
    65
 73
     4
 40
10.16
 49
6.35
 74
     0
 49
-1.27
 74
     0
 49
1.27
 74
     0
 49
-1.27
 74
     0
  0
LTYPE
  5
6D
330
5
100
AcDbSymbolTableRecord
100
AcDbLinetypeTableRecord
  2
CENTERX2
 70
     0
  3
Center (2x) ________  __  ________  __  _____
 72
    65
 73
     4
 40
20.32
 49
12.7
 74
     0
 49
-2.54
 74
     0
 49
2.54
 74
     0
 49
-2.54
 74
     0
  0
LTYPE
  5
6E
330
5
100
AcDbSymbolTableRecord
100
AcDbLinetypeTableRecord
  2
DOT2
 70
     0
  3
Dot (.5x) ........................................
 72
    65
 73
     2
 40
0.635
 49
0.0
 74
     0
 49
-0.635
 74
     0
  0
ENDTAB
  0
TABLE
  2
LAYER
  5
2
102
{ACAD_XDICTIONARY
360
203
102
}
330
0
100
AcDbSymbolTable
 70
    18
  0
LAYER
  5
10
330
2
100
AcDbSymbolTableRecord
100
AcDbLayerTableRecord
  2
0
 70
     0
 62
     7
  6
Continuous
370
    -3
390
F
  0
LAYER
  5
6F
330
2
100
AcDbSymbolTableRecord
100
AcDbLayerTableRecord
  2
FORMAT
 70
     0
 62
     2
  6
Continuous
370
    -3
390
F
  0
LAYER
  5
70
330
2
100
AcDbSymbolTableRecord
100
AcDbLayerTableRecord
  2
외형선
 70
     0
 62
     4
  6
Continuous
370
    30
390
F
  0
LAYER
  5
71
330
2
100
AcDbSymbolTableRecord
100
AcDbLayerTableRecord
  2
숨은선
 70
     0
 62
     2
  6
HIDDEN
370
    15
390
F
  0
LAYER
  5
72
330
2
100
AcDbSymbolTableRecord
100
AcDbLayerTableRecord
  2
중심선
 70
     0
 62
     1
  6
CENTERX2
370
    -3
390
F
  0
LAYER
  5
73
330
2
100
AcDbSymbolTableRecord
100
AcDbLayerTableRecord
  2
파단선
 70
     0
 62
     4
  6
Continuous
370
    -3
390
F
  0
LAYER
  5
74
330
2
100
AcDbSymbolTableRecord
100
AcDbLayerTableRecord
  2
해칭선
 70
     0
 62
   100
  6
Continuous
370
    -3
390
F
  0
LAYER
  5
75
330
2
100
AcDbSymbolTableRecord
100
AcDbLayerTableRecord
  2
가는실선
 70
     0
 62
     4
  6
Continuous
370
    -3
390
F
  0
LAYER
  5
76
330
2
100
AcDbSymbolTableRecord
100
AcDbLayerTableRecord
  2
치수_보조선
 70
     0
 62
     4
  6
Continuous
370
    -3
390
F
  0
LAYER
  5
77
330
2
100
AcDbSymbolTableRecord
100
AcDbLayerTableRecord
  2
치수문자_일반주서
 70
     0
 62
     7
  6
Continuous
370
    15
390
F
  0
LAYER
  5
78
330
2
100
AcDbSymbolTableRecord
100
AcDbLayerTableRecord
  2
개별주서
 70
     0
 62
   100
  6
Continuous
370
    30
390
F
  0
LAYER
  5
79
330
2
100
AcDbSymbolTableRecord
100
AcDbLayerTableRecord
  2
중간선
 70
     0
 62
     2
  6
Continuous
370
    15
390
F
  0
LAYER
  5
7A
330
2
100
AcDbSymbolTableRecord
100
AcDbLayerTableRecord
  2
윤곽선
 70
     0
 62
     3
  6
Continuous
370
    40
390
F
  0
LAYER
  5
7B
330
2
100
AcDbSymbolTableRecord
100
AcDbLayerTableRecord
  2
중심마크
 70
     0
 62
   100
  6
Continuous
370
    30
390
F
  0
LAYER
  5
7C
330
2
100
AcDbSymbolTableRecord
100
AcDbLayerTableRecord
  2
가상선
 70
     0
 62
     4
  6
PHANTOM
370
    -3
390
F
  0
LAYER
  5
7D
330
2
100
AcDbSymbolTableRecord
100
AcDbLayerTableRecord
  2
특수지정선
 70
     0
 62
     5
  6
CENTERX2
370
    60
390
F
  0
LAYER
  5
7E
330
2
100
AcDbSymbolTableRecord
100
AcDbLayerTableRecord
  2
참조1
 70
     0
 62
    -4
  6
Continuous
370
    -3
390
F
  0
LAYER
  5
15B
330
2
100
AcDbSymbolTableRecord
100
AcDbLayerTableRecord
  2
Defpoints
 70
     0
 62
     7
  6
Continuous
290
     0
370
    -3
390
F
  0
ENDTAB
  0
TABLE
  2
STYLE
  5
3
330
0
100
AcDbSymbolTable
 70
     2
  0
STYLE
  5
11
330
3
100
AcDbSymbolTableRecord
100
AcDbTextStyleTableRecord
  2
Standard
 70
     0
 40
0.0
 41
1.0
 50
0.0
 71
     0
 42
3.5
  3
txt
  4

  0
STYLE
  5
94
330
3
100
AcDbSymbolTableRecord
100
AcDbTextStyleTableRecord
  2
SLDTEXTSTYLE0
 70
     0
 40
0.0
 41
0.75
 50
0.0
 71
     0
 42
3.5
  3
TXT
  4

  0
ENDTAB
  0
TABLE
  2
VIEW
  5
6
330
0
100
AcDbSymbolTable
 70
     0
  0
ENDTAB
  0
TABLE
  2
UCS
  5
7
330
0
100
AcDbSymbolTable
 70
     0
  0
ENDTAB
  0
TABLE
  2
APPID
  5
9
330
0
100
AcDbSymbolTable
 70
     1
  0
APPID
  5
12
330
9
100
AcDbSymbolTableRecord
100
AcDbRegAppTableRecord
  2
ACAD
 70
     0
  0
ENDTAB
  0
TABLE
  2
DIMSTYLE
  5
A
330
0
100
AcDbSymbolTable
 70
     3
100
AcDbDimStyleTable
  0
DIMSTYLE
105
27
330
A
100
AcDbSymbolTableRecord
100
AcDbDimStyleTableRecord
  2
ISO-25
 70
     0
 41
2.5
 42
0.625
 43
3.75
 44
1.25
 73
     0
 74
     0
 77
     1
 78
     8
140
2.5
141
2.5
143
0.03937007874016
147
0.625
171
     3
172
     1
178
     0
271
     2
272
     2
274
     3
278
    44
283
     0
284
     8
340
11
  0
DIMSTYLE
105
D9
102
{ACAD_REACTORS
330
1C2
330
1D2
330
1DF
330
1EC
330
27B
330
27C
330
27D
330
27E
102
}
330
A
100
AcDbSymbolTableRecord
100
AcDbDimStyleTableRecord
  2
SLDDIMSTYLE0
 70
     0
 41
3.302
 44
0.0
 45
0.000000001
 73
     0
 74
     0
 77
     1
 78
    12
 79
     3
140
3.5
143
0.0393700787401575
147
0.875
148
0.000000001
170
     1
172
     1
173
     1
178
     0
271
     2
272
     2
276
     2
284
    12
289
     0
340
94
  0
DIMSTYLE
105
EE
330
A
100
AcDbSymbolTableRecord
100
AcDbDimStyleTableRecord
  2
SLDDIMSTYLE1
 70
     0
 41
3.302
 44
0.0
 45
0.000000001
 73
     0
 74
     0
 77
     1
 78
    12
 79
     3
140
3.5
143
0.0393700787401575
147
0.875
148
0.000000001
170
     1
173
     1
178
     0
271
     2
272
     2
276
     2
284
    12
340
94
  0
ENDTAB
  0
TABLE
  2
BLOCK_RECORD
  5
1
330
0
100
AcDbSymbolTable
 70
    16
  0
BLOCK_RECORD
  5
1F
330
1
100
AcDbSymbolTableRecord
100
AcDbBlockTableRecord
  2
*Model_Space
340
22
  0
BLOCK_RECORD
  5
1B
330
1
100
AcDbSymbolTableRecord
100
AcDbBlockTableRecord
  2
*Paper_Space
340
1E
  0
BLOCK_RECORD
  5
23
330
1
100
AcDbSymbolTableRecord
100
AcDbBlockTableRecord
  2
*Paper_Space0
340
26
  0
BLOCK_RECORD
  5
7F
330
1
100
AcDbSymbolTableRecord
100
AcDbBlockTableRecord
  2
블럭10
340
0
102
{BLKREFS
331
D1
102
}
  0
BLOCK_RECORD
  5
DA
330
1
100
AcDbSymbolTableRecord
100
AcDbBlockTableRecord
  2
_D
340
0
  0
BLOCK_RECORD
  5
EF
330
1
100
AcDbSymbolTableRecord
100
AcDbBlockTableRecord
  2
_D_1
340
0
  0
BLOCK_RECORD
  5
103
330
1
100
AcDbSymbolTableRecord
100
AcDbBlockTableRecord
  2
_D_2
340
0
  0
BLOCK_RECORD
  5
116
330
1
100
AcDbSymbolTableRecord
100
AcDbBlockTableRecord
  2
_D_3
340
0
  0
BLOCK_RECORD
  5
130
330
1
100
AcDbSymbolTableRecord
100
AcDbBlockTableRecord
  2
SW_DOWELSYMBOL_0
340
0
102
{BLKREFS
331
0
331
1FC
331
27F
102
}
  0
BLOCK_RECORD
  5
207
330
1
100
AcDbSymbolTableRecord
100
AcDbBlockTableRecord
  2
*D8
340
0
  0
BLOCK_RECORD
  5
216
330
1
100
AcDbSymbolTableRecord
100
AcDbBlockTableRecord
  2
*D9
340
0
  0
BLOCK_RECORD
  5
222
330
1
100
AcDbSymbolTableRecord
100
AcDbBlockTableRecord
  2
*D10
340
0
  0
BLOCK_RECORD
  5
22E
330
1
100
AcDbSymbolTableRecord
100
AcDbBlockTableRecord
  2
*D11
340
0
  0
BLOCK_RECORD
  5
280
330
1
100
AcDbSymbolTableRecord
100
AcDbBlockTableRecord
  2
*D12
340
0
  0
BLOCK_RECORD
  5
28F
330
1
100
AcDbSymbolTableRecord
100
AcDbBlockTableRecord
  2
*D13
340
0
  0
BLOCK_RECORD
  5
29B
330
1
100
AcDbSymbolTableRecord
100
AcDbBlockTableRecord
  2
*D14
340
0
  0
BLOCK_RECORD
  5
2A7
330
1
100
AcDbSymbolTableRecord
100
AcDbBlockTableRecord
  2
*D15
340
0
  0
ENDTAB
  0
ENDSEC
  0
SECTION
  2
BLOCKS
  0
BLOCK
  5
20
330
1F
100
AcDbEntity
  8
0
100
AcDbBlockBegin
  2
*Model_Space
 70
     0
 10
0.0
 20
0.0
 30
0.0
  3
*Model_Space
  1
*Model_Space
  0
ENDBLK
  5
21
330
1F
100
AcDbEntity
  8
0
100
AcDbBlockEnd
  0
BLOCK
  5
1C
330
1B
100
AcDbEntity
 67
     1
  8
0
100
AcDbBlockBegin
  2
*Paper_Space
 70
     0
 10
0.0
 20
0.0
 30
0.0
  3
*Paper_Space
  1
*Paper_Space
  0
ENDBLK
  5
1D
330
1B
100
AcDbEntity
 67
     1
  8
0
100
AcDbBlockEnd
  0
BLOCK
  5
24
330
23
100
AcDbEntity
  8
0
100
AcDbBlockBegin
  2
*Paper_Space0
 70
     0
 10
0.0
 20
0.0
 30
0.0
  3
*Paper_Space0
  1
*Paper_Space0
  0
ENDBLK
  5
25
330
23
100
AcDbEntity
  8
0
100
AcDbBlockEnd
  0
BLOCK
  5
80
330
7F
100
AcDbEntity
  8
0
100
AcDbBlockBegin
  2
블럭10
 70
     2
 10
0.0
 20
0.0
 30
0.0
  3
블럭10
  1
블럭10
  0
ELLIPSE
  5
82
330
7F
100
AcDbEntity
  8
중심선
100
AcDbEllipse
 10
20.54032771741204
 20
12.0471743016438
 30
0.0
 11
6.600054785286829
 21
-1.261213355974178E-13
 31
0.0
210
0.0
220
0.0
230
1.0
 40
0.636358354079598
 41
0.9219305317359503
 42
6.513795318482858
  0
ELLIPSE
  5
83
330
7F
100
AcDbEntity
  8
중심선
100
AcDbEllipse
 10
20.54032771746488
 20
12.04717430159265
 30
0.0
 11
3.960054785062283
 21
1.540847449632565E-10
 31
0.0
210
0.0
220
0.0
230
1.0
 40
0.3939339440162632
 41
1.131841032648279
 42
5.62031148352944
  0
LINE
  5
84
330
7F
100
AcDbEntity
  8
중심선
100
AcDbLine
 10
2.268634060543552
 20
16.24717430164393
 30
0.0
 11
5.714909304380834
 21
16.24717430164393
 31
0.0
  0
LINE
  5
85
330
7F
100
AcDbEntity
  8
중심선
100
AcDbLine
 10
5.245725140726316
 20
7.84717430164391
 30
0.0
 11
8.692000384563599
 21
7.84717430164391
 31
0.0
  0
LINE
  5
86
330
7F
100
AcDbEntity
  8
중심선
100
AcDbLine
 10
15.74043728645272
 20
16.24717430164393
 30
0.0
 11
8.692000384563599
 21
7.84717430164391
 31
0.0
  0
LINE
  5
87
330
7F
100
AcDbEntity
  8
중심선
100
AcDbLine
 10
0.1404042013395286
 20
13.71084872107135
 30
0.0
 11
3.58671253028996
 21
13.71088815037384
 31
0.0
  0
LINE
  5
88
330
7F
100
AcDbEntity
  8
중심선
100
AcDbLine
 10
2.750260043222114
 20
10.84717430164391
 30
0.0
 11
6.196535287059397
 21
10.84717430164391
 31
0.0
  0
LINE
  5
89
330
7F
100
AcDbEntity
  8
중심선
100
AcDbLine
 10
12.29416204261559
 20
16.24717430164393
 30
0.0
 11
5.245725140726316
 21
7.84717430164391
 31
0.0
  0
LINE
  5
8A
330
7F
100
AcDbEntity
  8
중심선
100
AcDbLine
 10
10.72767329541681
 20
16.24717430164393
 30
0.0
 11
6.196535287059397
 21
10.84717430164391
 31
0.0
  0
LINE
  5
8B
330
7F
100
AcDbEntity
  8
중심선
100
AcDbLine
 10
7.28139805157953
 20
16.24717430164393
 30
0.0
 11
2.750260043222114
 21
10.84717430164391
 31
0.0
  0
LINE
  5
8C
330
7F
100
AcDbEntity
  8
중심선
100
AcDbLine
 10
5.714909304380834
 20
16.24717430164393
 30
0.0
 11
3.58671253028996
 21
13.71088815037384
 31
0.0
  0
LINE
  5
8D
330
7F
100
AcDbEntity
  8
중심선
100
AcDbLine
 10
2.268634060543552
 20
16.24717430164393
 30
0.0
 11
0.1404042013395286
 21
13.71084872107135
 31
0.0
  0
LINE
  5
8E
330
7F
100
AcDbEntity
  8
중심선
100
AcDbLine
 10
7.28139805157953
 20
16.24717430164393
 30
0.0
 11
10.72767329541681
 21
16.24717430164393
 31
0.0
  0
LINE
  5
8F
330
7F
100
AcDbEntity
  8
중심선
100
AcDbLine
 10
12.29416204261559
 20
16.24717430164393
 30
0.0
 11
15.74043728645272
 21
16.24717430164393
 31
0.0
  0
LINE
  5
90
330
7F
100
AcDbEntity
  8
중심선
100
AcDbLine
 10
19.22036997980202
 20
11.08717430171403
 30
0.0
 11
23.66174974927406
 21
11.08717430171406
 31
0.0
  0
LINE
  5
91
330
7F
100
AcDbEntity
  8
중심선
100
AcDbLine
 10
19.22039502424796
 20
13.00717430171391
 30
0.0
 11
19.22036997980202
 21
11.08717430171403
 31
0.0
  0
LINE
  5
92
330
7F
100
AcDbEntity
  8
중심선
100
AcDbLine
 10
19.22039502424796
 20
13.00717430171391
 30
0.0
 11
26.96566020931264
 21
13.00717430171391
 31
0.0
  0
LINE
  5
93
330
7F
100
AcDbEntity
  8
중심선
100
AcDbLine
 10
22.22332737316547
 20
13.45928029700563
 30
0.0
 11
24.52862924686651
 21
15.39360700705356
 31
0.0
  0
ATTDEF
  5
95
330
7F
100
AcDbEntity
  8
FORMAT
 62
     2
100
AcDbText
 10
4.408487351596664
 20
2.075366912832191
 30
0.0
 40
4.233333333333333
  1
E5067010
 41
0.75
  7
SLDTEXTSTYLE0
 11
4.408487351596664
 21
-0.0412997538344756
 31
0.0
100
AcDbAttributeDefinition
  3

  2
AUTOATTR0
 70
     0
 74
     1
  0
ENDBLK
  5
81
330
7F
100
AcDbEntity
  8
0
100
AcDbBlockEnd
  0
BLOCK
  5
DB
330
DA
100
AcDbEntity
  8
0
100
AcDbBlockBegin
  2
_D
 70
     0
 10
0.0
 20
0.0
 30
0.0
  3
_D
  1
_D
  0
SOLID
  5
DD
330
DA
100
AcDbEntity
  8
치수문자_일반주서
100
AcDbTrace
 10
38.52500000000001
 20
1.542556542448147
 30
0.0
 11
39.03300000000002
 21
4.844556542448147
 31
0.0
 12
38.01700000000001
 22
4.844556542448147
 32
0.0
 13
38.01700000000001
 23
4.844556542448147
 33
0.0
  0
SOLID
  5
DE
330
DA
100
AcDbEntity
  8
치수문자_일반주서
100
AcDbTrace
 10
38.52500000000001
 20
-1.632443457551854
 30
0.0
 11
38.01700000000001
 21
-4.934443457551854
 31
0.0
 12
39.03300000000002
 22
-4.934443457551854
 32
0.0
 13
39.03300000000002
 23
-4.934443457551854
 33
0.0
  0
LINE
  5
DF
330
DA
100
AcDbEntity
  8
치수문자_일반주서
100
AcDbLine
 10
27.73211828395729
 20
12.52710338644915
 30
0.0
 11
27.7321182839573
 21
11.81616590088465
 31
0.0
  0
LINE
  5
E0
330
DA
100
AcDbEntity
  8
치수문자_일반주서
100
AcDbLine
 10
27.7321182839573
 20
11.81616590088465
 30
0.0
 11
33.28836827501661
 21
11.81616590088469
 31
0.0
  0
LINE
  5
E1
330
DA
100
AcDbEntity
  8
치수문자_일반주서
100
AcDbLine
 10
33.28836827501661
 20
11.81616590088469
 30
0.0
 11
33.2883682750166
 21
12.52710338644919
 31
0.0
  0
LINE
  5
E2
330
DA
100
AcDbEntity
  8
치수문자_일반주서
100
AcDbLine
 10
27.73211828395722
 20
23.35583624858641
 30
0.0
 11
27.73211828395721
 21
24.06677373415091
 31
0.0
  0
LINE
  5
E3
330
DA
100
AcDbEntity
  8
치수문자_일반주서
100
AcDbLine
 10
27.73211828395721
 20
24.06677373415091
 30
0.0
 11
33.28836827501652
 21
24.06677373415095
 31
0.0
  0
LINE
  5
E4
330
DA
100
AcDbEntity
  8
치수문자_일반주서
100
AcDbLine
 10
33.28836827501652
 20
24.06677373415095
 30
0.0
 11
33.28836827501652
 21
23.35583624858645
 31
0.0
  0
LINE
  5
E5
330
DA
100
AcDbEntity
  8
치수문자_일반주서
100
AcDbLine
 10
20.52500000000002
 20
1.542556542448148
 30
0.0
 11
39.52500000000001
 21
1.542556542448147
 31
0.0
  0
LINE
  5
E6
330
DA
100
AcDbEntity
  8
치수문자_일반주서
100
AcDbLine
 10
20.52500000000002
 20
-1.632443457551853
 30
0.0
 11
39.52500000000001
 21
-1.632443457551854
 31
0.0
  0
LINE
  5
E7
330
DA
100
AcDbEntity
  8
치수문자_일반주서
100
AcDbLine
 10
38.52500000000001
 20
1.542556542448147
 30
0.0
 11
38.52500000000001
 21
25.10638351282343
 31
0.0
  0
LINE
  5
E8
330
DA
100
AcDbEntity
  8
치수문자_일반주서
100
AcDbLine
 10
38.52500000000001
 20
1.542556542448147
 30
0.0
 11
38.52500000000001
 21
-1.632443457551854
 31
0.0
  0
LINE
  5
E9
330
DA
100
AcDbEntity
  8
치수문자_일반주서
100
AcDbLine
 10
38.52500000000001
 20
-1.632443457551854
 30
0.0
 11
38.52500000000001
 21
-7.982443457551853
 31
0.0
  0
MTEXT
  5
EA
330
DA
100
AcDbEntity
  8
치수문자_일반주서
100
AcDbMText
 10
28.7766313604377
 20
13.41577528706053
 30
0.0
 40
3.5
 41
0.0
 71
     1
 72
     1
  1
0.13
  7
SLDTEXTSTYLE0
 11
-7.044195017643634E-15
 21
1.0
 31
0.0
 73
     1
 44
1.0
  0
MTEXT
  5
EB
330
DA
100
AcDbEntity
  8
치수문자_일반주서
100
AcDbMText
 10
34.01326291079819
 20
10.77655612221224
 30
0.0
 40
3.5
 41
0.0
 71
     1
 72
     1
  1
%%c
  7
SLDTEXTSTYLE0
 11
-7.044195017643634E-15
 21
1.0
 31
0.0
 73
     1
 44
1.0
  0
MTEXT
  5
EC
330
DA
100
AcDbEntity
  8
치수문자_일반주서
100
AcDbMText
 10
34.01326291079815
 20
16.05499352058632
 30
0.0
 40
3.5
 41
0.0
 71
     1
 72
     1
  1
3.18
  7
SLDTEXTSTYLE0
 11
-7.044195017643634E-15
 21
1.0
 31
0.0
 73
     1
 44
1.0
  0
ENDBLK
  5
DC
330
DA
100
AcDbEntity
  8
0
100
AcDbBlockEnd
  0
BLOCK
  5
F0
330
EF
100
AcDbEntity
  8
0
100
AcDbBlockBegin
  2
_D_1
 70
     0
 10
0.0
 20
0.0
 30
0.0
  3
_D_1
  1
_D_1
  0
SOLID
  5
F2
330
EF
100
AcDbEntity
  8
치수문자_일반주서
100
AcDbTrace
 10
24.28750000000025
 20
27.92278377108273
 30
0.0
 11
20.98550000000025
 21
28.43078377108276
 31
0.0
 12
20.98550000000025
 22
27.41478377108276
 32
0.0
 13
20.98550000000025
 23
27.41478377108276
 33
0.0
  0
SOLID
  5
F3
330
EF
100
AcDbEntity
  8
치수문자_일반주서
100
AcDbTrace
 10
10.00000000000026
 20
27.92278377108286
 30
0.0
 11
13.30200000000025
 21
27.41478377108283
 31
0.0
 12
13.30200000000026
 22
28.43078377108283
 32
0.0
 13
13.30200000000026
 23
28.43078377108283
 33
0.0
  0
LINE
  5
F4
330
EF
100
AcDbEntity
  8
치수문자_일반주서
100
AcDbLine
 10
41.37313391817827
 20
38.71566548712525
 30
0.0
 11
40.66219643261377
 21
38.71566548712526
 31
0.0
  0
LINE
  5
F5
330
EF
100
AcDbEntity
  8
치수문자_일반주서
100
AcDbLine
 10
40.66219643261377
 20
38.71566548712526
 30
0.0
 11
40.66219643261368
 21
33.15941549606596
 31
0.0
  0
LINE
  5
F6
330
EF
100
AcDbEntity
  8
치수문자_일반주서
100
AcDbLine
 10
40.66219643261368
 20
33.15941549606596
 30
0.0
 11
41.37313391817818
 21
33.15941549606595
 31
0.0
  0
LINE
  5
F7
330
EF
100
AcDbEntity
  8
치수문자_일반주서
100
AcDbLine
 10
52.20186678031553
 20
38.71566548712509
 30
0.0
 11
52.91280426588003
 21
38.71566548712507
 31
0.0
  0
LINE
  5
F8
330
EF
100
AcDbEntity
  8
치수문자_일반주서
100
AcDbLine
 10
52.91280426588003
 20
38.71566548712507
 30
0.0
 11
52.91280426587993
 21
33.15941549606577
 31
0.0
  0
LINE
  5
F9
330
EF
100
AcDbEntity
  8
치수문자_일반주서
100
AcDbLine
 10
52.91280426587993
 20
33.15941549606577
 30
0.0
 11
52.20186678031543
 21
33.15941549606578
 31
0.0
  0
LINE
  5
FA
330
EF
100
AcDbEntity
  8
치수문자_일반주서
100
AcDbLine
 10
24.28750000000003
 20
2.528359609990277
 30
0.0
 11
24.28750000000026
 21
28.92278377108274
 31
0.0
  0
LINE
  5
FB
330
EF
100
AcDbEntity
  8
치수문자_일반주서
100
AcDbLine
 10
10.00000000000003
 20
2.491852810510791
 30
0.0
 11
10.00000000000027
 21
28.92278377108287
 31
0.0
  0
LINE
  5
FC
330
EF
100
AcDbEntity
  8
치수문자_일반주서
100
AcDbLine
 10
24.28750000000025
 20
27.92278377108273
 30
0.0
 11
54.73906229287478
 21
27.92278377108246
 31
0.0
  0
LINE
  5
FD
330
EF
100
AcDbEntity
  8
치수문자_일반주서
100
AcDbLine
 10
24.28750000000025
 20
27.92278377108273
 30
0.0
 11
10.00000000000026
 21
27.92278377108286
 31
0.0
  0
MTEXT
  5
FE
330
EF
100
AcDbEntity
  8
치수문자_일반주서
100
AcDbMText
 10
40.14843770712697
 20
32.48799303694425
 30
0.0
 40
3.5
 41
0.0
 71
     1
 72
     1
  1

  7
SLDTEXTSTYLE0
 73
     1
 44
1.0
  0
MTEXT
  5
FF
330
EF
100
AcDbEntity
  8
치수문자_일반주서
100
AcDbMText
 10
42.26180581878962
 20
37.67115241064483
 30
0.0
 40
3.5
 41
0.0
 71
     1
 72
     1
  1
0.56
  7
SLDTEXTSTYLE0
 73
     1
 44
1.0
  0
MTEXT
  5
100
330
EF
100
AcDbEntity
  8
치수문자_일반주서
100
AcDbMText
 10
40.96875010561281
 20
32.43452086028438
 30
0.0
 40
3.5
 41
0.0
 71
     1
 72
     1
  1
14.29
  7
SLDTEXTSTYLE0
 73
     1
 44
1.0
  0
MTEXT
  5
101
330
EF
100
AcDbEntity
  8
치수문자_일반주서
100
AcDbMText
 10
54.75850751102053
 20
32.48799303694402
 30
0.0
 40
3.5
 41
0.0
 71
     1
 72
     1
  1

  7
SLDTEXTSTYLE0
 73
     1
 44
1.0
  0
ENDBLK
  5
F1
330
EF
100
AcDbEntity
  8
0
100
AcDbBlockEnd
  0
BLOCK
  5
104
330
103
100
AcDbEntity
  8
0
100
AcDbBlockBegin
  2
_D_2
 70
     0
 10
0.0
 20
0.0
 30
0.0
  3
_D_2
  1
_D_2
  0
SOLID
  5
106
330
103
100
AcDbEntity
  8
치수문자_일반주서
100
AcDbTrace
 10
24.28749999999991
 20
45.13812430092214
 30
0.0
 11
20.98549999999991
 21
45.64612430092214
 31
0.0
 12
20.98549999999991
 22
44.63012430092213
 32
0.0
 13
20.98549999999991
 23
44.63012430092213
 33
0.0
  0
SOLID
  5
107
330
103
100
AcDbEntity
  8
치수문자_일반주서
100
AcDbTrace
 10
-21.75000000000009
 20
45.13812430092203
 30
0.0
 11
-18.44800000000009
 21
44.63012430092203
 31
0.0
 12
-18.44800000000009
 22
45.64612430092204
 32
0.0
 13
-18.44800000000009
 23
45.64612430092204
 33
0.0
  0
LINE
  5
108
330
103
100
AcDbEntity
  8
치수문자_일반주서
100
AcDbLine
 10
-4.145616081822745
 20
55.93100601696488
 30
0.0
 11
-4.856553567387245
 21
55.93100601696487
 31
0.0
  0
LINE
  5
109
330
103
100
AcDbEntity
  8
치수문자_일반주서
100
AcDbLine
 10
-4.856553567387245
 20
55.93100601696487
 30
0.0
 11
-4.856553567387192
 21
50.37475602590557
 31
0.0
  0
LINE
  5
10A
330
103
100
AcDbEntity
  8
치수문자_일반주서
100
AcDbLine
 10
-4.856553567387192
 20
50.37475602590557
 30
0.0
 11
-4.145616081822692
 21
50.37475602590558
 31
0.0
  0
LINE
  5
10B
330
103
100
AcDbEntity
  8
치수문자_일반주서
100
AcDbLine
 10
6.683116780314514
 20
55.93100601696498
 30
0.0
 11
7.394054265879014
 21
55.93100601696499
 31
0.0
  0
LINE
  5
10C
330
103
100
AcDbEntity
  8
치수문자_일반주서
100
AcDbLine
 10
7.394054265879014
 20
55.93100601696499
 30
0.0
 11
7.394054265879066
 21
50.37475602590568
 31
0.0
  0
LINE
  5
10D
330
103
100
AcDbEntity
  8
치수문자_일반주서
100
AcDbLine
 10
7.394054265879066
 20
50.37475602590568
 30
0.0
 11
6.683116780314566
 21
50.37475602590568
 31
0.0
  0
LINE
  5
10E
330
103
100
AcDbEntity
  8
치수문자_일반주서
100
AcDbLine
 10
24.28750000000002
 20
2.528359609990277
 30
0.0
 11
24.28749999999991
 21
46.13812430092214
 31
0.0
  0
LINE
  5
10F
330
103
100
AcDbEntity
  8
치수문자_일반주서
100
AcDbLine
 10
-21.74999999999999
 20
2.225056542448149
 30
0.0
 11
-21.75000000000009
 21
46.13812430092203
 31
0.0
  0
LINE
  5
110
330
103
100
AcDbEntity
  8
치수문자_일반주서
100
AcDbLine
 10
24.28749999999991
 20
45.13812430092214
 30
0.0
 11
-21.75000000000009
 21
45.13812430092203
 31
0.0
  0
MTEXT
  5
111
330
103
100
AcDbEntity
  8
치수문자_일반주서
100
AcDbMText
 10
-5.370312292873884
 20
49.70333356678384
 30
0.0
 40
3.5
 41
0.0
 71
     1
 72
     1
  1

  7
SLDTEXTSTYLE0
 73
     1
 44
1.0
  0
MTEXT
  5
112
330
103
100
AcDbEntity
  8
치수문자_일반주서
100
AcDbMText
 10
-3.256944181211364
 20
54.88649294048448
 30
0.0
 40
3.5
 41
0.0
 71
     1
 72
     1
  1
1.81
  7
SLDTEXTSTYLE0
 73
     1
 44
1.0
  0
MTEXT
  5
113
330
103
100
AcDbEntity
  8
치수문자_일반주서
100
AcDbMText
 10
-4.549999894388042
 20
49.64986139012399
 30
0.0
 40
3.5
 41
0.0
 71
     1
 72
     1
  1
46.04
  7
SLDTEXTSTYLE0
 73
     1
 44
1.0
  0
MTEXT
  5
114
330
103
100
AcDbEntity
  8
치수문자_일반주서
100
AcDbMText
 10
9.239757511019683
 20
49.70333356678398
 30
0.0
 40
3.5
 41
0.0
 71
     1
 72
     1
  1

  7
SLDTEXTSTYLE0
 73
     1
 44
1.0
  0
ENDBLK
  5
105
330
103
100
AcDbEntity
  8
0
100
AcDbBlockEnd
  0
BLOCK
  5
117
330
116
100
AcDbEntity
  8
0
100
AcDbBlockBegin
  2
_D_3
 70
     0
 10
0.0
 20
0.0
 30
0.0
  3
_D_3
  1
_D_3
  0
SOLID
  5
119
330
116
100
AcDbEntity
  8
치수문자_일반주서
100
AcDbTrace
 10
-27.88007280062574
 20
1.542556542448139
 30
0.0
 11
-27.37207280062574
 21
4.844556542448139
 31
0.0
 12
-28.38807280062574
 22
4.844556542448139
 32
0.0
 13
-28.38807280062574
 23
4.844556542448139
 33
0.0
  0
SOLID
  5
11A
330
116
100
AcDbEntity
  8
치수문자_일반주서
100
AcDbTrace
 10
-27.88007280062574
 20
-1.632443457551845
 30
0.0
 11
-28.38807280062574
 21
-4.934443457551844
 31
0.0
 12
-27.37207280062574
 22
-4.934443457551844
 32
0.0
 13
-27.37207280062574
 23
-4.934443457551844
 33
0.0
  0
LINE
  5
11B
330
116
100
AcDbEntity
  8
치수문자_일반주서
100
AcDbLine
 10
-38.67295451666845
 20
-5.459309888620556
 30
0.0
 11
-38.67295451666845
 21
-6.170247374185056
 31
0.0
  0
LINE
  5
11C
330
116
100
AcDbEntity
  8
치수문자_일반주서
100
AcDbLine
 10
-38.67295451666845
 20
-6.170247374185056
 30
0.0
 11
-33.11670452560914
 21
-6.170247374185017
 31
0.0
  0
LINE
  5
11D
330
116
100
AcDbEntity
  8
치수문자_일반주서
100
AcDbLine
 10
-33.11670452560914
 20
-6.170247374185017
 30
0.0
 11
-33.11670452560915
 21
-5.459309888620517
 31
0.0
  0
LINE
  5
11E
330
116
100
AcDbEntity
  8
치수문자_일반주서
100
AcDbLine
 10
-38.67295451666853
 20
5.369422973516702
 30
0.0
 11
-38.67295451666853
 21
6.080360459081202
 31
0.0
  0
LINE
  5
11F
330
116
100
AcDbEntity
  8
치수문자_일반주서
100
AcDbLine
 10
-38.67295451666853
 20
6.080360459081202
 30
0.0
 11
-33.11670452560923
 21
6.080360459081241
 31
0.0
  0
LINE
  5
120
330
116
100
AcDbEntity
  8
치수문자_일반주서
100
AcDbLine
 10
-33.11670452560923
 20
6.080360459081241
 30
0.0
 11
-33.11670452560922
 21
5.369422973516741
 31
0.0
  0
LINE
  5
121
330
116
100
AcDbEntity
  8
치수문자_일반주서
100
AcDbLine
 10
-22.43249999999999
 20
1.542556542448139
 30
0.0
 11
-28.88007280062574
 21
1.542556542448139
 31
0.0
  0
LINE
  5
122
330
116
100
AcDbEntity
  8
치수문자_일반주서
100
AcDbLine
 10
-22.43249999999999
 20
-1.632443457551844
 30
0.0
 11
-28.88007280062574
 21
-1.632443457551845
 31
0.0
  0
LINE
  5
123
330
116
100
AcDbEntity
  8
치수문자_일반주서
100
AcDbLine
 10
-27.88007280062574
 20
1.542556542448139
 30
0.0
 11
-27.88007280062574
 21
7.892556542448139
 31
0.0
  0
LINE
  5
124
330
116
100
AcDbEntity
  8
치수문자_일반주서
100
AcDbLine
 10
-27.88007280062574
 20
1.542556542448139
 30
0.0
 11
-27.88007280062574
 21
-1.632443457551845
 31
0.0
  0
LINE
  5
125
330
116
100
AcDbEntity
  8
치수문자_일반주서
100
AcDbLine
 10
-27.88007280062574
 20
-1.632443457551845
 30
0.0
 11
-27.88007280062574
 21
-7.982443457551844
 31
0.0
  0
MTEXT
  5
126
330
116
100
AcDbEntity
  8
치수문자_일반주서
100
AcDbMText
 10
-37.62844144018804
 20
-4.570637988009179
 30
0.0
 40
3.5
 41
0.0
 71
     1
 72
     1
  1
0.13
  7
SLDTEXTSTYLE0
 11
-7.044195017643634E-15
 21
1.0
 31
0.0
 73
     1
 44
1.0
  0
MTEXT
  5
127
330
116
100
AcDbEntity
  8
치수문자_일반주서
100
AcDbMText
 10
-32.39180988982756
 20
-7.20985715285747
 30
0.0
 40
3.5
 41
0.0
 71
     1
 72
     1
  1
%%c
  7
SLDTEXTSTYLE0
 11
-7.044195017643634E-15
 21
1.0
 31
0.0
 73
     1
 44
1.0
  0
MTEXT
  5
128
330
116
100
AcDbEntity
  8
치수문자_일반주서
100
AcDbMText
 10
-32.3918098898276
 20
-1.931419754483389
 30
0.0
 40
3.5
 41
0.0
 71
     1
 72
     1
  1
3.18
  7
SLDTEXTSTYLE0
 11
-7.044195017643634E-15
 21
1.0
 31
0.0
 73
     1
 44
1.0
  0
ENDBLK
  5
118
330
116
100
AcDbEntity
  8
0
100
AcDbBlockEnd
  0
BLOCK
  5
131
330
130
100
AcDbEntity
  8
0
100
AcDbBlockBegin
  2
SW_DOWELSYMBOL_0
 70
     0
 10
0.0
 20
0.0
 30
0.0
  3
SW_DOWELSYMBOL_0
  1
SW_DOWELSYMBOL_0
  0
CIRCLE
  5
133
330
130
100
AcDbEntity
  8
해칭선
 62
     0
100
AcDbCircle
 10
0.0
 20
0.0
 30
0.0
 40
3.0
  0
HATCH
  5
134
330
130
100
AcDbEntity
  8
0
  6
Continuous
 62
     0
370
     0
100
AcDbHatch
 10
0.0
 20
0.0
 30
0.0
210
0.0
220
0.0
230
1.0
  2
SOLID
 70
     1
 71
     0
 91
        1
 92
        0
 93
        3
 72
     2
 10
0.000000000000016
 20
0.0
 40
3.0
 50
0.0
 51
90.0
 73
     1
 72
     1
 10
0.000000000000016
 20
3.0
 11
0.000000000000016
 21
0.0
 72
     1
 10
0.000000000000016
 20
0.0
 11
3.000000000000016
 21
0.0
 97
        0
 75
     0
 76
     1
 98
        1
 10
0.0
 20
0.0
  0
HATCH
  5
135
330
130
100
AcDbEntity
  8
0
  6
Continuous
 62
     0
370
     0
100
AcDbHatch
 10
0.0
 20
0.0
 30
0.0
210
0.0
220
0.0
230
1.0
  2
SOLID
 70
     1
 71
     0
 91
        1
 92
        0
 93
        3
 72
     2
 10
0.000000000000016
 20
0.0
 40
3.0
 50
180.0
 51
270.0000000000008
 73
     1
 72
     1
 10
0.000000000000016
 20
-3.0
 11
0.000000000000016
 21
0.0
 72
     1
 10
0.000000000000016
 20
0.0
 11
-2.999999999999984
 21
0.0
 97
        0
 75
     0
 76
     1
 98
        1
 10
0.0
 20
0.0
  0
ENDBLK
  5
132
330
130
100
AcDbEntity
  8
0
100
AcDbBlockEnd
  0
BLOCK
  5
208
330
207
100
AcDbEntity
  8
0
100
AcDbBlockBegin
  2
*D8
 70
     1
 10
0.0
 20
0.0
 30
0.0
  3
*D8
  1
*D8
  0
LINE
  5
20A
330
207
100
AcDbEntity
  8
치수문자_일반주서
 62
     0
370
    -2
100
AcDbLine
 10
48.87203676300292
 20
9.779000000000014
 30
0.0
 11
64.66159099123877
 21
9.779000000000071
 31
0.0
  0
LINE
  5
20B
330
207
100
AcDbEntity
  8
치수문자_일반주서
 62
     0
370
    -2
100
AcDbLine
 10
48.87203676300291
 20
6.604000000000015
 30
0.0
 11
64.66159099123878
 21
6.60400000000007
 31
0.0
  0
LINE
  5
20C
330
207
100
AcDbEntity
  8
치수문자_일반주서
 62
     0
370
    -2
100
AcDbLine
 10
64.66159099123877
 20
9.779000000000071
 30
0.0
 11
64.66159099123863
 21
41.10175000000007
 31
0.0
  0
LINE
  5
20D
330
207
100
AcDbEntity
  8
치수문자_일반주서
 62
     0
370
    -2
100
AcDbLine
 10
64.66159099123877
 20
9.779000000000071
 30
0.0
 11
64.66159099123878
 21
6.60400000000007
 31
0.0
  0
LINE
  5
20E
330
207
100
AcDbEntity
  8
치수문자_일반주서
 62
     0
370
    -2
100
AcDbLine
 10
64.66159099123875
 20
13.08100000000007
 30
0.0
 11
64.66159099123874
 21
16.38300000000007
 31
0.0
  0
LINE
  5
20F
330
207
100
AcDbEntity
  8
치수문자_일반주서
 62
     0
370
    -2
100
AcDbLine
 10
64.6615909912388
 20
3.302000000000071
 30
0.0
 11
64.66159099123881
 21
0.0000000000000711
 31
0.0
  0
SOLID
  5
210
330
207
100
AcDbEntity
  8
치수문자_일반주서
 62
     0
100
AcDbTrace
 10
64.11125765790543
 20
13.08100000000007
 30
0.0
 11
65.21192432457208
 21
13.08100000000007
 31
0.0
 12
64.66159099123877
 22
9.779000000000071
 32
0.0
 13
64.66159099123877
 23
9.779000000000071
 33
0.0
  0
SOLID
  5
211
330
207
100
AcDbEntity
  8
치수문자_일반주서
 62
     0
100
AcDbTrace
 10
65.21192432457212
 20
3.302000000000073
 30
0.0
 11
64.11125765790547
 21
3.302000000000068
 31
0.0
 12
64.66159099123878
 22
6.60400000000007
 32
0.0
 13
64.66159099123878
 23
6.60400000000007
 33
0.0
  0
MTEXT
  5
212
330
207
100
AcDbEntity
  8
치수문자_일반주서
 62
     0
100
AcDbMText
 10
60.28659099123868
 20
28.85175000000006
 30
0.0
 40
3.5
 41
0.0
 71
     2
 72
     1
  1
\A1;%%c3.18 [1/8]
  7
SLDTEXTSTYLE0
 11
-4.475859752819532E-15
 21
1.0
 31
0.0
 73
     1
 44
1.0
  0
POINT
  5
213
330
207
100
AcDbEntity
  8
Defpoints
 62
     0
100
AcDbPoint
 10
48.80953676300292
 20
9.779000000000014
 30
0.0
  0
POINT
  5
214
330
207
100
AcDbEntity
  8
Defpoints
 62
     0
100
AcDbPoint
 10
48.80953676300291
 20
6.604000000000015
 30
0.0
  0
POINT
  5
215
330
207
100
AcDbEntity
  8
Defpoints
 62
     0
100
AcDbPoint
 10
64.66159099123878
 20
6.604000000000075
 30
0.0
  0
ENDBLK
  5
209
330
207
100
AcDbEntity
  8
0
100
AcDbBlockEnd
  0
BLOCK
  5
217
330
216
100
AcDbEntity
  8
0
100
AcDbBlockBegin
  2
*D9
 70
     1
 10
0.0
 20
0.0
 30
0.0
  3
*D9
  1
*D9
  0
LINE
  5
219
330
216
100
AcDbEntity
  8
치수문자_일반주서
 62
     0
370
    -2
100
AcDbLine
 10
48.80953676300292
 20
9.829915299560652
 30
0.0
 11
48.80953676300292
 21
34.1163479919156
 31
0.0
  0
LINE
  5
21A
330
216
100
AcDbEntity
  8
치수문자_일반주서
 62
     0
370
    -2
100
AcDbLine
 10
36.10953676300291
 20
9.836717429156296
 30
0.0
 11
36.10953676300291
 21
34.1163479919156
 31
0.0
  0
LINE
  5
21B
330
216
100
AcDbEntity
  8
치수문자_일반주서
 62
     0
370
    -2
100
AcDbLine
 10
45.50753676300292
 20
34.1163479919156
 30
0.0
 11
39.41153676300291
 21
34.1163479919156
 31
0.0
  0
SOLID
  5
21C
330
216
100
AcDbEntity
  8
치수문자_일반주서
 62
     0
100
AcDbTrace
 10
45.50753676300292
 20
33.56601465858227
 30
0.0
 11
45.50753676300292
 21
34.66668132524894
 31
0.0
 12
48.80953676300292
 22
34.1163479919156
 32
0.0
 13
48.80953676300292
 23
34.1163479919156
 33
0.0
  0
SOLID
  5
21D
330
216
100
AcDbEntity
  8
치수문자_일반주서
 62
     0
100
AcDbTrace
 10
39.41153676300291
 20
34.66668132524894
 30
0.0
 11
39.41153676300291
 21
33.56601465858227
 31
0.0
 12
36.10953676300291
 22
34.1163479919156
 32
0.0
 13
36.10953676300291
 23
34.1163479919156
 33
0.0
  0
MTEXT
  5
21E
330
216
100
AcDbEntity
  8
치수문자_일반주서
 62
     0
100
AcDbMText
 10
41.95627628187851
 20
38.4913479919156
 30
0.0
 40
3.5
 41
0.0
 71
     2
 72
     1
  1
\A1;12.7 [1/2]
  7
SLDTEXTSTYLE0
 73
     1
 44
1.0
  0
POINT
  5
21F
330
216
100
AcDbEntity
  8
Defpoints
 62
     0
100
AcDbPoint
 10
48.80953676300292
 20
9.767415299560652
 30
0.0
  0
POINT
  5
220
330
216
100
AcDbEntity
  8
Defpoints
 62
     0
100
AcDbPoint
 10
36.10953676300291
 20
9.774217429156296
 30
0.0
  0
POINT
  5
221
330
216
100
AcDbEntity
  8
Defpoints
 62
     0
100
AcDbPoint
 10
36.10953676300291
 20
34.1163479919156
 30
0.0
  0
ENDBLK
  5
218
330
216
100
AcDbEntity
  8
0
100
AcDbBlockEnd
  0
BLOCK
  5
223
330
222
100
AcDbEntity
  8
0
100
AcDbBlockBegin
  2
*D10
 70
     1
 10
0.0
 20
0.0
 30
0.0
  3
*D10
  1
*D10
  0
LINE
  5
225
330
222
100
AcDbEntity
  8
치수문자_일반주서
 62
     0
370
    -2
100
AcDbLine
 10
48.80953676300292
 20
9.829915299560652
 30
0.0
 11
48.80953676300292
 21
53.37717999049252
 31
0.0
  0
LINE
  5
226
330
222
100
AcDbEntity
  8
치수문자_일반주서
 62
     0
370
    -2
100
AcDbLine
 10
10.70953676300292
 20
9.524000000000015
 30
0.0
 11
10.70953676300292
 21
53.37717999049252
 31
0.0
  0
LINE
  5
227
330
222
100
AcDbEntity
  8
치수문자_일반주서
 62
     0
370
    -2
100
AcDbLine
 10
45.50753676300292
 20
53.37717999049252
 30
0.0
 11
14.01153676300292
 21
53.37717999049252
 31
0.0
  0
SOLID
  5
228
330
222
100
AcDbEntity
  8
치수문자_일반주서
 62
     0
100
AcDbTrace
 10
45.50753676300292
 20
52.82684665715919
 30
0.0
 11
45.50753676300292
 21
53.92751332382586
 31
0.0
 12
48.80953676300292
 22
53.37717999049252
 32
0.0
 13
48.80953676300292
 23
53.37717999049252
 33
0.0
  0
SOLID
  5
229
330
222
100
AcDbEntity
  8
치수문자_일반주서
 62
     0
100
AcDbTrace
 10
14.01153676300292
 20
53.92751332382586
 30
0.0
 11
14.01153676300292
 21
52.82684665715919
 31
0.0
 12
10.70953676300292
 22
53.37717999049252
 32
0.0
 13
10.70953676300292
 23
53.37717999049252
 33
0.0
  0
MTEXT
  5
22A
330
222
100
AcDbEntity
  8
치수문자_일반주서
 62
     0
100
AcDbMText
 10
29.75953676300291
 20
57.75217999049252
 30
0.0
 40
3.5
 41
0.0
 71
     2
 72
     1
  1
\A1;38.1 [1 1/2]
  7
SLDTEXTSTYLE0
 73
     1
 44
1.0
  0
POINT
  5
22B
330
222
100
AcDbEntity
  8
Defpoints
 62
     0
100
AcDbPoint
 10
48.80953676300292
 20
9.767415299560652
 30
0.0
  0
POINT
  5
22C
330
222
100
AcDbEntity
  8
Defpoints
 62
     0
100
AcDbPoint
 10
10.70953676300292
 20
9.461500000000015
 30
0.0
  0
POINT
  5
22D
330
222
100
AcDbEntity
  8
Defpoints
 62
     0
100
AcDbPoint
 10
10.70953676300292
 20
53.37717999049252
 30
0.0
  0
ENDBLK
  5
224
330
222
100
AcDbEntity
  8
0
100
AcDbBlockEnd
  0
BLOCK
  5
22F
330
22E
100
AcDbEntity
  8
0
100
AcDbBlockBegin
  2
*D11
 70
     1
 10
0.0
 20
0.0
 30
0.0
  3
*D11
  1
*D11
  0
LINE
  5
231
330
22E
100
AcDbEntity
  8
치수문자_일반주서
 62
     0
370
    -2
100
AcDbLine
 10
10.96453676300292
 20
9.779000000000007
 30
0.0
 11
4.375000000000103
 21
9.778999999999982
 31
0.0
  0
LINE
  5
232
330
22E
100
AcDbEntity
  8
치수문자_일반주서
 62
     0
370
    -2
100
AcDbLine
 10
10.96453676300292
 20
6.604000000000024
 30
0.0
 11
4.375000000000114
 21
6.603999999999999
 31
0.0
  0
LINE
  5
233
330
22E
100
AcDbEntity
  8
치수문자_일반주서
 62
     0
370
    -2
100
AcDbLine
 10
4.375000000000103
 20
9.778999999999982
 30
0.0
 11
4.374999999999998
 21
41.10174999999998
 31
0.0
  0
LINE
  5
234
330
22E
100
AcDbEntity
  8
치수문자_일반주서
 62
     0
370
    -2
100
AcDbLine
 10
4.375000000000103
 20
9.778999999999982
 30
0.0
 11
4.375000000000114
 21
6.603999999999999
 31
0.0
  0
LINE
  5
235
330
22E
100
AcDbEntity
  8
치수문자_일반주서
 62
     0
370
    -2
100
AcDbLine
 10
4.375000000000092
 20
13.08099999999998
 30
0.0
 11
4.375000000000082
 21
16.38299999999998
 31
0.0
  0
LINE
  5
236
330
22E
100
AcDbEntity
  8
치수문자_일반주서
 62
     0
370
    -2
100
AcDbLine
 10
4.375000000000124
 20
3.302
 30
0.0
 11
4.375000000000135
 21
0.0
 31
0.0
  0
SOLID
  5
237
330
22E
100
AcDbEntity
  8
치수문자_일반주서
 62
     0
100
AcDbTrace
 10
3.824666666666759
 20
13.08099999999998
 30
0.0
 11
4.925333333333426
 21
13.08099999999998
 31
0.0
 12
4.375000000000103
 22
9.778999999999982
 32
0.0
 13
4.375000000000103
 23
9.778999999999982
 33
0.0
  0
SOLID
  5
238
330
22E
100
AcDbEntity
  8
치수문자_일반주서
 62
     0
100
AcDbTrace
 10
4.925333333333458
 20
3.302000000000001
 30
0.0
 11
3.824666666666791
 21
3.301999999999998
 31
0.0
 12
4.375000000000114
 22
6.603999999999999
 32
0.0
 13
4.375000000000114
 23
6.603999999999999
 33
0.0
  0
MTEXT
  5
239
330
22E
100
AcDbEntity
  8
치수문자_일반주서
 62
     0
100
AcDbMText
 10
0.0000000000000391
 20
28.85174999999997
 30
0.0
 40
3.5
 41
0.0
 71
     2
 72
     1
  1
\A1;%%c3.18 [1/8]
  7
SLDTEXTSTYLE0
 11
-3.356894814614665E-15
 21
1.0
 31
0.0
 73
     1
 44
1.0
  0
POINT
  5
23A
330
22E
100
AcDbEntity
  8
Defpoints
 62
     0
100
AcDbPoint
 10
11.02703676300292
 20
9.779000000000007
 30
0.0
  0
POINT
  5
23B
330
22E
100
AcDbEntity
  8
Defpoints
 62
     0
100
AcDbPoint
 10
11.02703676300292
 20
6.604000000000024
 30
0.0
  0
POINT
  5
23C
330
22E
100
AcDbEntity
  8
Defpoints
 62
     0
100
AcDbPoint
 10
4.375000000000121
 20
6.603999999999999
 30
0.0
  0
ENDBLK
  5
230
330
22E
100
AcDbEntity
  8
0
100
AcDbBlockEnd
  0
BLOCK
  5
281
330
280
100
AcDbEntity
  8
0
100
AcDbBlockBegin
  2
*D12
 70
     1
 10
0.0
 20
0.0
 30
0.0
  3
*D12
  1
*D12
  0
LINE
  5
283
330
280
100
AcDbEntity
  8
치수문자_일반주서
 62
     0
370
    -2
100
AcDbLine
 10
17.44040510084605
 20
1.984375
 30
0.0
 11
33.22995932908187
 21
1.98437500000006
 31
0.0
  0
LINE
  5
284
330
280
100
AcDbEntity
  8
치수문자_일반주서
 62
     0
370
    -2
100
AcDbLine
 10
17.44040510084605
 20
-1.984375
 30
0.0
 11
33.22995932908189
 21
-1.98437499999994
 31
0.0
  0
LINE
  5
285
330
280
100
AcDbEntity
  8
치수문자_일반주서
 62
     0
370
    -2
100
AcDbLine
 10
33.22995932908187
 20
1.98437500000006
 30
0.0
 11
33.22995932908174
 21
37.46337500000006
 31
0.0
  0
LINE
  5
286
330
280
100
AcDbEntity
  8
치수문자_일반주서
 62
     0
370
    -2
100
AcDbLine
 10
33.22995932908187
 20
1.98437500000006
 30
0.0
 11
33.22995932908189
 21
-1.98437499999994
 31
0.0
  0
LINE
  5
287
330
280
100
AcDbEntity
  8
치수문자_일반주서
 62
     0
370
    -2
100
AcDbLine
 10
33.22995932908186
 20
5.28637500000006
 30
0.0
 11
33.22995932908184
 21
8.58837500000006
 31
0.0
  0
LINE
  5
288
330
280
100
AcDbEntity
  8
치수문자_일반주서
 62
     0
370
    -2
100
AcDbLine
 10
33.2299593290819
 20
-5.286374999999939
 30
0.0
 11
33.22995932908191
 21
-8.588374999999939
 31
0.0
  0
SOLID
  5
289
330
280
100
AcDbEntity
  8
치수문자_일반주서
 62
     0
100
AcDbTrace
 10
32.67962599574852
 20
5.286375000000058
 30
0.0
 11
33.78029266241519
 21
5.286375000000062
 31
0.0
 12
33.22995932908187
 22
1.98437500000006
 32
0.0
 13
33.22995932908187
 23
1.98437500000006
 33
0.0
  0
SOLID
  5
28A
330
280
100
AcDbEntity
  8
치수문자_일반주서
 62
     0
100
AcDbTrace
 10
33.78029266241523
 20
-5.286374999999937
 30
0.0
 11
32.67962599574857
 21
-5.286374999999941
 31
0.0
 12
33.22995932908189
 22
-1.98437499999994
 32
0.0
 13
33.22995932908189
 23
-1.98437499999994
 33
0.0
  0
MTEXT
  5
28B
330
280
100
AcDbEntity
  8
치수문자_일반주서
 62
     0
100
AcDbMText
 10
28.85495932908179
 20
23.02587500000005
 30
0.0
 40
3.5
 41
0.0
 71
     2
 72
     1
  1
\A1;%%c3.97 [5/32]
  7
SLDTEXTSTYLE0
 11
-3.580687802255624E-15
 21
1.0
 31
0.0
 73
     1
 44
1.0
  0
POINT
  5
28C
330
280
100
AcDbEntity
  8
Defpoints
 62
     0
100
AcDbPoint
 10
17.37790510084605
 20
1.984375
 30
0.0
  0
POINT
  5
28D
330
280
100
AcDbEntity
  8
Defpoints
 62
     0
100
AcDbPoint
 10
17.37790510084605
 20
-1.984375
 30
0.0
  0
POINT
  5
28E
330
280
100
AcDbEntity
  8
Defpoints
 62
     0
100
AcDbPoint
 10
33.22995932908189
 20
-1.984374999999941
 30
0.0
  0
ENDBLK
  5
282
330
280
100
AcDbEntity
  8
0
100
AcDbBlockEnd
  0
BLOCK
  5
290
330
28F
100
AcDbEntity
  8
0
100
AcDbBlockBegin
  2
*D13
 70
     1
 10
0.0
 20
0.0
 30
0.0
  3
*D13
  1
*D13
  0
LINE
  5
292
330
28F
100
AcDbEntity
  8
치수문자_일반주서
 62
     0
370
    -2
100
AcDbLine
 10
17.37790510084605
 20
1.638415299560634
 30
0.0
 11
17.37790510084605
 21
25.92484799191558
 31
0.0
  0
LINE
  5
293
330
28F
100
AcDbEntity
  8
치수문자_일반주서
 62
     0
370
    -2
100
AcDbLine
 10
3.090405100846047
 20
2.046875
 30
0.0
 11
3.090405100846047
 21
25.92484799191558
 31
0.0
  0
LINE
  5
294
330
28F
100
AcDbEntity
  8
치수문자_일반주서
 62
     0
370
    -2
100
AcDbLine
 10
14.07590510084605
 20
25.92484799191558
 30
0.0
 11
6.392405100846046
 21
25.92484799191558
 31
0.0
  0
SOLID
  5
295
330
28F
100
AcDbEntity
  8
치수문자_일반주서
 62
     0
100
AcDbTrace
 10
14.07590510084605
 20
25.37451465858225
 30
0.0
 11
14.07590510084605
 21
26.47518132524892
 31
0.0
 12
17.37790510084605
 22
25.92484799191558
 32
0.0
 13
17.37790510084605
 23
25.92484799191558
 33
0.0
  0
SOLID
  5
296
330
28F
100
AcDbEntity
  8
치수문자_일반주서
 62
     0
100
AcDbTrace
 10
6.392405100846046
 20
26.47518132524892
 30
0.0
 11
6.392405100846046
 21
25.37451465858225
 31
0.0
 12
3.090405100846047
 22
25.92484799191558
 32
0.0
 13
3.090405100846047
 23
25.92484799191558
 33
0.0
  0
MTEXT
  5
297
330
28F
100
AcDbEntity
  8
치수문자_일반주서
 62
     0
100
AcDbMText
 10
10.52464461972163
 20
30.29984799191558
 30
0.0
 40
3.5
 41
0.0
 71
     2
 72
     1
  1
\A1;14.29 [9/16]
  7
SLDTEXTSTYLE0
 73
     1
 44
1.0
  0
POINT
  5
298
330
28F
100
AcDbEntity
  8
Defpoints
 62
     0
100
AcDbPoint
 10
17.37790510084605
 20
1.575915299560634
 30
0.0
  0
POINT
  5
299
330
28F
100
AcDbEntity
  8
Defpoints
 62
     0
100
AcDbPoint
 10
3.090405100846047
 20
1.984375
 30
0.0
  0
POINT
  5
29A
330
28F
100
AcDbEntity
  8
Defpoints
 62
     0
100
AcDbPoint
 10
3.090405100846047
 20
25.92484799191558
 30
0.0
  0
ENDBLK
  5
291
330
28F
100
AcDbEntity
  8
0
100
AcDbBlockEnd
  0
BLOCK
  5
29C
330
29B
100
AcDbEntity
  8
0
100
AcDbBlockBegin
  2
*D14
 70
     1
 10
0.0
 20
0.0
 30
0.0
  3
*D14
  1
*D14
  0
LINE
  5
29E
330
29B
100
AcDbEntity
  8
치수문자_일반주서
 62
     0
370
    -2
100
AcDbLine
 10
17.37790510084605
 20
1.638415299560634
 30
0.0
 11
17.37790510084605
 21
45.18567999049251
 31
0.0
  0
LINE
  5
29F
330
29B
100
AcDbEntity
  8
치수문자_일반주서
 62
     0
370
    -2
100
AcDbLine
 10
-33.42209489915396
 20
2.126250000000001
 30
0.0
 11
-33.42209489915396
 21
45.18567999049251
 31
0.0
  0
LINE
  5
2A0
330
29B
100
AcDbEntity
  8
치수문자_일반주서
 62
     0
370
    -2
100
AcDbLine
 10
14.07590510084605
 20
45.18567999049251
 30
0.0
 11
-30.12009489915396
 21
45.18567999049251
 31
0.0
  0
SOLID
  5
2A1
330
29B
100
AcDbEntity
  8
치수문자_일반주서
 62
     0
100
AcDbTrace
 10
14.07590510084605
 20
44.63534665715918
 30
0.0
 11
14.07590510084605
 21
45.73601332382584
 31
0.0
 12
17.37790510084605
 22
45.18567999049251
 32
0.0
 13
17.37790510084605
 23
45.18567999049251
 33
0.0
  0
SOLID
  5
2A2
330
29B
100
AcDbEntity
  8
치수문자_일반주서
 62
     0
100
AcDbTrace
 10
-30.12009489915396
 20
45.73601332382584
 30
0.0
 11
-30.12009489915396
 21
44.63534665715918
 31
0.0
 12
-33.42209489915396
 22
45.18567999049251
 32
0.0
 13
-33.42209489915396
 23
45.18567999049251
 33
0.0
  0
MTEXT
  5
2A3
330
29B
100
AcDbEntity
  8
치수문자_일반주서
 62
     0
100
AcDbMText
 10
-8.022094899153956
 20
49.56067999049251
 30
0.0
 40
3.5
 41
0.0
 71
     2
 72
     1
  1
\A1;50.8 [2]
  7
SLDTEXTSTYLE0
 73
     1
 44
1.0
  0
POINT
  5
2A4
330
29B
100
AcDbEntity
  8
Defpoints
 62
     0
100
AcDbPoint
 10
17.37790510084605
 20
1.575915299560634
 30
0.0
  0
POINT
  5
2A5
330
29B
100
AcDbEntity
  8
Defpoints
 62
     0
100
AcDbPoint
 10
-33.42209489915396
 20
2.063750000000001
 30
0.0
  0
POINT
  5
2A6
330
29B
100
AcDbEntity
  8
Defpoints
 62
     0
100
AcDbPoint
 10
-33.42209489915396
 20
45.18567999049251
 30
0.0
  0
ENDBLK
  5
29D
330
29B
100
AcDbEntity
  8
0
100
AcDbBlockEnd
  0
BLOCK
  5
2A8
330
2A7
100
AcDbEntity
  8
0
100
AcDbBlockBegin
  2
*D15
 70
     1
 10
0.0
 20
0.0
 30
0.0
  3
*D15
  1
*D15
  0
LINE
  5
2AA
330
2A7
100
AcDbEntity
  8
치수문자_일반주서
 62
     0
370
    -2
100
AcDbLine
 10
-33.16709489915397
 20
2.381249999999999
 30
0.0
 11
-39.43913166215678
 21
2.381249999999977
 31
0.0
  0
LINE
  5
2AB
330
2A7
100
AcDbEntity
  8
치수문자_일반주서
 62
     0
370
    -2
100
AcDbLine
 10
-33.16709489915395
 20
-2.38125
 30
0.0
 11
-39.43913166215676
 21
-2.381250000000026
 31
0.0
  0
LINE
  5
2AC
330
2A7
100
AcDbEntity
  8
치수문자_일반주서
 62
     0
370
    -2
100
AcDbLine
 10
-39.43913166215678
 20
2.381249999999977
 30
0.0
 11
-39.43913166215688
 21
37.42274999999997
 31
0.0
  0
LINE
  5
2AD
330
2A7
100
AcDbEntity
  8
치수문자_일반주서
 62
     0
370
    -2
100
AcDbLine
 10
-39.43913166215678
 20
2.381249999999977
 30
0.0
 11
-39.43913166215676
 21
-2.381250000000026
 31
0.0
  0
LINE
  5
2AE
330
2A7
100
AcDbEntity
  8
치수문자_일반주서
 62
     0
370
    -2
100
AcDbLine
 10
-39.43913166215678
 20
5.683249999999976
 30
0.0
 11
-39.43913166215679
 21
8.985249999999976
 31
0.0
  0
LINE
  5
2AF
330
2A7
100
AcDbEntity
  8
치수문자_일반주서
 62
     0
370
    -2
100
AcDbLine
 10
-39.43913166215675
 20
-5.683250000000026
 30
0.0
 11
-39.43913166215675
 21
-8.985250000000025
 31
0.0
  0
SOLID
  5
2B0
330
2A7
100
AcDbEntity
  8
치수문자_일반주서
 62
     0
100
AcDbTrace
 10
-39.98946499549012
 20
5.683249999999974
 30
0.0
 11
-38.88879832882345
 21
5.683249999999978
 31
0.0
 12
-39.43913166215678
 22
2.381249999999977
 32
0.0
 13
-39.43913166215678
 23
2.381249999999977
 33
0.0
  0
SOLID
  5
2B1
330
2A7
100
AcDbEntity
  8
치수문자_일반주서
 62
     0
100
AcDbTrace
 10
-38.88879832882342
 20
-5.683250000000024
 30
0.0
 11
-39.98946499549009
 21
-5.683250000000028
 31
0.0
 12
-39.43913166215676
 22
-2.381250000000026
 32
0.0
 13
-39.43913166215676
 23
-2.381250000000026
 33
0.0
  0
MTEXT
  5
2B2
330
2A7
100
AcDbEntity
  8
치수문자_일반주서
 62
     0
100
AcDbMText
 10
-43.81413166215684
 20
23.42274999999996
 30
0.0
 40
3.5
 41
0.0
 71
     2
 72
     1
  1
\A1;%%c4.76 [3/16]
  7
SLDTEXTSTYLE0
 11
-2.983906501879687E-15
 21
1.0
 31
0.0
 73
     1
 44
1.0
  0
POINT
  5
2B3
330
2A7
100
AcDbEntity
  8
Defpoints
 62
     0
100
AcDbPoint
 10
-33.10459489915397
 20
2.38125
 30
0.0
  0
POINT
  5
2B4
330
2A7
100
AcDbEntity
  8
Defpoints
 62
     0
100
AcDbPoint
 10
-33.10459489915395
 20
-2.38125
 30
0.0
  0
POINT
  5
2B5
330
2A7
100
AcDbEntity
  8
Defpoints
 62
     0
100
AcDbPoint
 10
-39.43913166215675
 20
-2.381250000000023
 30
0.0
  0
ENDBLK
  5
2A9
330
2A7
100
AcDbEntity
  8
0
100
AcDbBlockEnd
  0
ENDSEC
  0
SECTION
  2
ENTITIES
  0
LINE
  5
CE
330
1F
100
AcDbEntity
  8
참조1
100
AcDbLine
 10
-4.053344899143019
 20
0.0470933149996349
 30
0.0
 11
-4.053344899143013
 21
-39.95290668500036
 31
0.0
  0
LINE
  5
CF
330
1F
100
AcDbEntity
  8
참조1
100
AcDbLine
 10
-4.053344899143013
 20
-39.95290668500036
 30
0.0
 11
-23.18095171345168
 21
-39.95290668500036
 31
0.0
  0
INSERT
  5
D1
330
1F
100
AcDbEntity
  8
0
  6
Continuous
 62
     7
100
AcDbBlockReference
 66
     1
  2
블럭10
 10
-17.99361783126822
 20
-52.00008098664429
 30
0.0
  0
ATTRIB
  5
D2
330
D1
100
AcDbEntity
  8
FORMAT
 62
     2
100
AcDbText
 10
-27.1749131200095
 20
-49.9247140738121
 30
0.0
 40
4.233333333333333
  1
E5067010 [ 5 FLUTE ]
 41
0.75
  7
SLDTEXTSTYLE0
 11
-27.1749131200095
 21
-52.04138074047877
 31
0.0
100
AcDbAttribute
  2
AUTOATTR0
 70
     0
 74
     1
  0
SEQEND
  5
D3
330
D1
100
AcDbEntity
  8
0
  6
Continuous
 62
     7
  0
HATCH
  5
D4
330
1F
100
AcDbEntity
  8
중심선
100
AcDbHatch
 10
0.0
 20
0.0
 30
0.0
210
0.0
220
0.0
230
1.0
  2
SOLID
 70
     1
 71
     0
 91
        1
 92
        0
 93
        4
 72
     1
 10
-12.27870852688739
 20
-35.75290668500035
 11
-15.72498377072467
 21
-35.75290668500035
 72
     1
 10
-15.72498377072467
 20
-35.75290668500035
 11
-17.85321362992869
 21
-38.28923226557296
 72
     1
 10
-17.85321362992869
 20
-38.28923226557296
 11
-14.40690530097826
 21
-38.28919283627047
 72
     1
 10
-14.40690530097826
 20
-38.28919283627047
 11
-12.27870852688739
 21
-35.75290668500035
 97
        0
 75
     0
 76
     1
 98
        1
 10
-5.322094899143028
 20
0.0460183862757457
  0
HATCH
  5
D5
330
1F
100
AcDbEntity
  8
중심선
100
AcDbHatch
 10
0.0
 20
0.0
 30
0.0
210
0.0
220
0.0
230
1.0
  2
SOLID
 70
     1
 71
     0
 91
        1
 92
        0
 93
        4
 72
     1
 10
-7.265944535851406
 20
-35.75290668500038
 11
-10.71221977968866
 21
-35.75290668500033
 72
     1
 10
-10.71221977968866
 20
-35.75290668500033
 11
-15.2433577880461
 21
-41.15290668500037
 72
     1
 10
-15.2433577880461
 20
-41.15290668500037
 11
-11.79708254420882
 21
-41.15290668500037
 72
     1
 10
-11.79708254420882
 20
-41.15290668500037
 11
-7.265944535851407
 21
-35.75290668500038
 97
        0
 75
     0
 76
     1
 98
        1
 10
-5.322094899143028
 20
0.0460183862757457
  0
HATCH
  5
D6
330
1F
100
AcDbEntity
  8
중심선
100
AcDbHatch
 10
0.0
 20
0.0
 30
0.0
210
0.0
220
0.0
230
1.0
  2
SOLID
 70
     1
 71
     0
 91
        1
 92
        0
 93
        4
 72
     1
 10
-2.253180544815566
 20
-35.75290668500035
 11
-5.699455788652682
 21
-35.75290668500038
 72
     1
 10
-5.699455788652682
 20
-35.75290668500038
 11
-12.7478926905419
 21
-44.15290668500037
 72
     1
 10
-12.7478926905419
 20
-44.15290668500037
 11
-9.301617446704622
 21
-44.15290668500037
 72
     1
 10
-9.301617446704622
 20
-44.15290668500037
 11
-2.253180544815567
 21
-35.75290668500035
 97
        0
 75
     0
 76
     1
 98
        1
 10
-5.322094899143028
 20
0.0460183862757457
  0
HATCH
  5
D7
330
1F
100
AcDbEntity
  8
중심선
100
AcDbHatch
 10
0.0
 20
0.0
 30
0.0
210
0.0
220
0.0
230
1.0
  2
SOLID
 70
     1
 71
     0
 91
        1
 92
        0
 93
        6
 72
     3
 10
2.546709886196661
 20
-39.95290668505163
 11
3.960054785062283
 21
1.540882976769353E-10
 40
0.3939339440162628
 50
17.09539180608437
 51
320.0019657685082
 73
     0
 72
     1
 10
4.229709541897229
 20
-38.54080068963869
 11
6.535011415598294
 21
-36.60647397959074
 72
     3
 10
2.546709886143814
 20
-39.95290668500051
 11
6.600054785286829
 21
-1.278976924368180E-13
 40
0.636358354079598
 50
39.9987384933741
 51
368.4976242363725
 73
     1
 72
     1
 10
8.972042378044424
 20
-38.99290668493038
 11
1.226777192979736
 21
-38.99290668493038
 72
     1
 10
1.226777192979736
 20
-38.99290668493038
 11
1.226752148533803
 21
-40.91290668493027
 72
     1
 10
1.226752148533803
 20
-40.91290668493027
 11
5.668131918005839
 21
-40.91290668493024
 97
        0
 75
     0
 76
     1
 98
        1
 10
-5.322094899143028
 20
0.0460183862757457
  0
LINE
  5
129
330
1F
100
AcDbEntity
  8
참조1
100
AcDbLine
 10
74.79138891620258
 20
7.487093314999641
 30
0.0
 11
74.79138891620258
 21
-7.392906685000363
 31
0.0
  0
LINE
  5
12A
330
1F
100
AcDbEntity
  8
참조1
100
AcDbLine
 10
87.49138891620258
 20
5.487093314999641
 30
0.0
 11
74.79138891620258
 21
5.487093314999641
 31
0.0
  0
SOLID
  5
12B
330
1F
100
AcDbEntity
  8
참조1
100
AcDbTrace
 10
74.79138891620258
 20
5.487093314999641
 30
0.0
 11
81.14138891620257
 21
4.471093314999641
 31
0.0
 12
81.14138891620257
 22
6.503093314999641
 32
0.0
 13
81.14138891620257
 23
6.503093314999641
 33
0.0
  0
LINE
  5
12C
330
1F
100
AcDbEntity
  8
참조1
100
AcDbLine
 10
87.49138891620258
 20
-5.392906685000363
 30
0.0
 11
74.79138891620258
 21
-5.392906685000363
 31
0.0
  0
SOLID
  5
12D
330
1F
100
AcDbEntity
  8
참조1
100
AcDbTrace
 10
74.79138891620258
 20
-5.392906685000363
 30
0.0
 11
81.14138891620257
 21
-6.408906685000363
 31
0.0
 12
81.14138891620257
 22
-4.376906685000363
 32
0.0
 13
81.14138891620257
 23
-4.376906685000363
 33
0.0
  0
MTEXT
  5
12E
330
1F
100
AcDbEntity
  8
참조1
100
AcDbMText
 10
84.17573904882858
 20
11.05738509218797
 30
0.0
 40
3.5
 41
0.0
 71
     1
 72
     1
  1
A
  7
SLDTEXTSTYLE0
 73
     1
 44
1.0
  0
MTEXT
  5
12F
330
1F
100
AcDbEntity
  8
참조1
100
AcDbMText
 10
84.17573904882858
 20
0.1773850921879658
 30
0.0
 40
3.5
 41
0.0
 71
     1
 72
     1
  1
A
  7
SLDTEXTSTYLE0
 73
     1
 44
1.0
  0
LINE
  5
23E
330
1F
100
AcDbEntity
  8
외형선
  6
Continuous
370
    15
100
AcDbLine
 10
7.297663560902453
 20
-0.3797111680619003
 30
0.0
 11
7.32862583692285
 21
-0.3969522896886923
 31
0.0
  0
LINE
  5
23F
330
1F
100
AcDbEntity
  8
외형선
  6
Continuous
370
    15
100
AcDbLine
 10
8.771726909242531
 20
0.3635013053102031
 30
0.0
 11
8.712078418025651
 21
0.3968989140014467
 31
0.0
  0
LINE
  5
240
330
1F
100
AcDbEntity
  8
외형선
  6
Continuous
370
    15
100
AcDbLine
 10
4.474670276510743
 20
0.3516211480074193
 30
0.0
 11
4.39312774773604
 21
0.3968082980313303
 31
0.0
  0
LINE
  5
241
330
1F
100
AcDbEntity
  8
외형선
  6
Continuous
370
    15
100
AcDbLine
 10
13.06552990319348
 20
0.3765946173471479
 30
0.0
 11
13.03130032709966
 21
0.3968350118922159
 31
0.0
  0
LINE
  5
242
330
1F
100
AcDbEntity
  8
외형선
  6
Continuous
370
    15
100
AcDbLine
 10
11.49210463807499
 20
-0.3106343631649155
 30
0.0
 11
11.64756795181779
 21
-0.3968576857397909
 31
0.0
  0
SPLINE
  5
243
330
1F
100
AcDbEntity
  8
0
  6
Continuous
 62
     1
370
    15
100
AcDbSpline
210
0.0
220
0.0
230
1.0
 70
     8
 71
     3
 72
     9
 73
     5
 74
     0
 42
0.000000001
 43
0.00000001
 40
0.0
 40
0.0
 40
0.0
 40
0.0
 40
0.5712146052866465
 40
1.0
 40
1.0
 40
1.0
 40
1.0
 10
17.37790510084605
 20
0.3561745869440024
 30
0.0
 10
17.35532309152106
 20
0.3752539385741204
 30
0.0
 10
17.31578977231675
 20
0.4086553107616208
 30
0.0
 10
17.278585517758
 20
0.4334914030092584
 30
0.0
 10
17.26263287678203
 20
0.4441407566267985
 30
0.0
  0
LINE
  5
244
330
1F
100
AcDbEntity
  8
0
  6
Continuous
 62
     1
370
    15
100
AcDbLine
 10
15.92381523936045
 20
-0.373025395781894
 30
0.0
 11
15.96686993545893
 21
-0.3969661885436093
 31
0.0
  0
LINE
  5
245
330
1F
100
AcDbEntity
  8
0
  6
Continuous
 62
     1
370
    15
100
AcDbLine
 10
6.165685317853868
 20
-1.984375000000002
 30
0.0
 11
7.715261736325814
 21
-1.984375000000002
 31
0.0
  0
LINE
  5
246
330
1F
100
AcDbEntity
  8
0
  6
Continuous
 62
     1
370
    15
100
AcDbLine
 10
17.37790510084605
 20
1.984374999999996
 30
0.0
 11
16.96204377534112
 21
1.984374999999996
 31
0.0
  0
LINE
  5
247
330
1F
100
AcDbEntity
  8
0
  6
Continuous
 62
     1
370
    15
100
AcDbLine
 10
10.48459451502957
 20
-1.984375000000002
 30
0.0
 11
12.03429720559797
 21
-1.984375000000002
 31
0.0
  0
LINE
  5
248
330
1F
100
AcDbEntity
  8
0
  6
Continuous
 62
     1
370
    15
100
AcDbLine
 10
9.875325104609004
 20
1.984374999999996
 30
0.0
 11
8.323376662520573
 21
1.984374999999996
 31
0.0
  0
LINE
  5
249
330
1F
100
AcDbEntity
  8
0
  6
Continuous
 62
     1
370
    15
100
AcDbLine
 10
14.80341602213895
 20
-1.984375000000002
 30
0.0
 11
16.35334388665439
 21
-1.984375000000002
 31
0.0
  0
LINE
  5
24A
330
1F
100
AcDbEntity
  8
0
  6
Continuous
 62
     1
370
    15
100
AcDbLine
 10
5.556143499002232
 20
1.984374999999996
 30
0.0
 11
4.004352102916492
 21
1.984374999999996
 31
0.0
  0
LINE
  5
24B
330
1F
100
AcDbEntity
  8
0
  6
Continuous
 62
     1
370
    15
100
AcDbLine
 10
3.090405100846047
 20
-1.984375000000002
 30
0.0
 11
3.396522131711569
 21
-1.984375000000002
 31
0.0
  0
LINE
  5
24C
330
1F
100
AcDbEntity
  8
0
  6
Continuous
 62
     1
370
    15
100
AcDbLine
 10
14.19447453319391
 20
1.984374999999996
 30
0.0
 11
12.64267267968508
 21
1.984374999999996
 31
0.0
  0
LINE
  5
24D
330
1F
100
AcDbEntity
  8
외형선
  6
Continuous
370
    15
100
AcDbLine
 10
-33.10459489915395
 20
-2.38125
 30
0.0
 11
1.999999999999996
 21
-2.38125
 31
0.0
  0
LINE
  5
24E
330
1F
100
AcDbEntity
  8
외형선
  6
Continuous
370
    15
100
AcDbLine
 10
2.0
 20
2.38125
 30
0.0
 11
-33.10459489915395
 21
2.38125
 31
0.0
  0
LINE
  5
24F
330
1F
100
AcDbEntity
  8
외형선
  6
Continuous
370
    15
100
AcDbLine
 10
-33.10459489915397
 20
2.38125
 30
0.0
 11
-33.42209489915396
 21
2.063750000000001
 31
0.0
  0
LINE
  5
250
330
1F
100
AcDbEntity
  8
외형선
  6
Continuous
370
    15
100
AcDbLine
 10
-33.42209489915396
 20
-2.06375
 30
0.0
 11
-33.10459489915395
 21
-2.38125
 31
0.0
  0
SPLINE
  5
252
330
1F
100
AcDbEntity
  8
0
  6
Continuous
 62
     1
370
    15
100
AcDbSpline
210
0.0
220
0.0
230
1.0
 70
     8
 71
     3
 72
    21
 73
    17
 74
     0
 42
0.000000001
 43
0.00000001
 40
0.0
 40
0.0
 40
0.0
 40
0.0
 40
0.0697033112726298
 40
0.1400998642224657
 40
0.2104399921464204
 40
0.2806589450897785
 40
0.3508539886447121
 40
0.4211228615901351
 40
0.4915348600348046
 40
0.5618475351433505
 40
0.6320554982642144
 40
0.7022562323860737
 40
0.7725473635928536
 40
0.8429640320699849
 40
0.9051454736142659
 40
0.9615019003420764
 40
0.9615019003420764
 40
0.9615019003420764
 40
0.9615019003420764
 10
14.80341602213894
 20
-1.983902651691236
 30
0.0
 10
14.52042758641463
 20
-1.972352700114474
 30
0.0
 10
13.95163622345575
 20
-1.94913792569219
 30
0.0
 10
13.09667012877064
 20
-1.761593567175123
 30
0.0
 10
12.23987303262943
 20
-1.47374653230896
 30
0.0
 10
11.38426404898418
 20
-1.092347358304072
 30
0.0
 10
10.52897140864275
 20
-0.6442438999137555
 30
0.0
 10
9.672767811287159
 20
-0.1559561969304401
 30
0.0
 10
8.815486096898248
 20
0.3411679740359785
 30
0.0
 10
7.958895429872562
 20
0.8178670298435441
 30
0.0
 10
7.103433995081229
 20
1.243987378964419
 30
0.0
 10
6.248062421803692
 20
1.593382303389377
 30
0.0
 10
5.391668596319818
 20
1.844046079708048
 30
0.0
 10
4.567234456270274
 20
1.976747779133079
 30
0.0
 10
3.800143753130859
 20
1.992915333031465
 30
0.0
 10
3.319193440157427
 20
1.954333753746596
 30
0.0
 10
3.090405100846047
 20
1.984375
 30
0.0
  0
SPLINE
  5
255
330
1F
100
AcDbEntity
  8
0
  6
Continuous
 62
     1
370
    15
100
AcDbSpline
210
0.0
220
0.0
230
1.0
 70
     8
 71
     3
 72
    16
 73
    12
 74
     0
 42
0.000000001
 43
0.00000001
 40
0.0
 40
0.0
 40
0.0
 40
0.0
 40
0.0903359813996571
 40
0.1858380682534357
 40
0.281205439631406
 40
0.3764307867299476
 40
0.4716463289016862
 40
0.5669844795839927
 40
0.6624929005549052
 40
0.746831615010249
 40
0.8232691259479392
 40
0.8232691259479392
 40
0.8232691259479392
 40
0.8232691259479392
 10
10.48459451502957
 20
-1.981344399557851
 30
0.0
 10
10.21417854637609
 20
-1.97187071060909
 30
0.0
 10
9.657882146416487
 20
-1.95238155439256
 30
0.0
 10
8.815483760604032
 20
-1.771946556361694
 30
0.0
 10
7.958896039513427
 20
-1.48874531647553
 30
0.0
 10
7.103433887580323
 20
-1.110905936353201
 30
0.0
 10
6.248062242586808
 20
-0.6652401554977548
 30
0.0
 10
5.391669422689617
 20
-0.1781058184449935
 30
0.0
 10
4.567231478700919
 20
0.2999843059117379
 30
0.0
 10
3.800154693330011
 20
0.7299221066080399
 30
0.0
 10
3.319178526628221
 20
0.9772587346204716
 30
0.0
 10
3.090405100846057
 20
1.08816800788485
 30
0.0
  0
LINE
  5
256
330
1F
100
AcDbEntity
  8
0
  6
Continuous
 62
     1
370
    15
100
AcDbLine
 10
17.37790510084605
 20
-1.896917179288165
 30
0.0
 11
17.37790510084605
 21
-1.734330891175245
 31
0.0
  0
SPLINE
  5
257
330
1F
100
AcDbEntity
  8
0
  6
Continuous
 62
     1
370
    15
100
AcDbSpline
210
0.0
220
0.0
230
1.0
 70
     8
 71
     3
 72
    21
 73
    17
 74
     0
 42
0.000000001
 43
0.00000001
 40
0.0
 40
0.0
 40
0.0
 40
0.0
 40
0.0585555706783729
 40
0.1308960479533944
 40
0.2032439745698607
 40
0.2756998048323513
 40
0.3482579858413076
 40
0.4206686788352846
 40
0.4930032920928912
 40
0.5653625435055218
 40
0.6378466633549255
 40
0.710388928084913
 40
0.7827795717244289
 40
0.8551112521264472
 40
0.9274847452819689
 40
1.0
 40
1.0
 40
1.0
 40
1.0
 10
5.556143499002232
 20
1.974863807261424
 30
0.0
 10
5.786909639342998
 20
1.970939223913212
 30
0.0
 10
6.302767915884807
 20
1.96216614828278
 30
0.0
 10
7.10342477229322
 20
1.802893512187726
 30
0.0
 10
7.95889790556814
 20
1.534864505883062
 30
0.0
 10
8.815485430721463
 20
1.168394770536309
 30
0.0
 10
9.672767994382138
 20
0.7313211145749253
 30
0.0
 10
10.52897134150623
 20
0.2481752777391754
 30
0.0
 10
11.38426413474152
 20
-0.2500198183049229
 30
0.0
 10
12.23987275639186
 20
-0.7328980737427181
 30
0.0
 10
13.09667115014869
 20
-1.170388357181721
 30
0.0
 10
13.95385110715404
 20
-1.535245850108965
 30
0.0
 10
14.80984850335153
 20
-1.806357918281087
 30
0.0
 10
15.66510532481031
 20
-1.963537554239704
 30
0.0
 10
16.52089819905383
 20
-2.007874979725669
 30
0.0
 10
17.09204985881851
 20
-1.933927230003715
 30
0.0
 10
17.37790510084605
 20
-1.896917179288165
 30
0.0
  0
SPLINE
  5
258
330
1F
100
AcDbEntity
  8
0
  6
Continuous
 62
     1
370
    15
100
AcDbSpline
210
0.0
220
0.0
230
1.0
 70
     8
 71
     3
 72
    20
 73
    16
 74
     0
 42
0.000000001
 43
0.00000001
 40
0.0
 40
0.0
 40
0.0
 40
0.0
 40
0.0821247456028848
 40
0.1640889438519374
 40
0.2460057884543985
 40
0.3279894099150287
 40
0.4101447448107354
 40
0.49223422965124
 40
0.5741822988869354
 40
0.6561024649976784
 40
0.7381087926894455
 40
0.820282153038779
 40
0.9023395994463032
 40
0.9842748431598723
 40
1.0
 40
1.0
 40
1.0
 40
1.0
 10
17.37790510084605
 20
-1.734330891175245
 30
0.0
 10
17.0920498588149
 20
-1.643839947213714
 30
0.0
 10
16.52089819904304
 20
-1.463034961897679
 30
0.0
 10
15.66510532485334
 20
-1.072462645750555
 30
0.0
 10
14.80984850319014
 20
-0.6234848572526196
 30
0.0
 10
13.95385110775756
 20
-0.1337127895754752
 30
0.0
 10
13.09667114789179
 20
0.3631191118133725
 30
0.0
 10
12.2398727648004
 20
0.8380757699857443
 30
0.0
 10
11.3842641034244
 20
1.261330235329951
 30
0.0
 10
10.52897145839792
 20
1.606816147190981
 30
0.0
 10
9.672767557242729
 20
1.852457987539979
 30
0.0
 10
8.815487064817177
 20
1.986125692211042
 30
0.0
 10
7.958891820874939
 20
1.987651083783639
 30
0.0
 10
7.333733492819231
 20
1.925518939673423
 30
0.0
 10
6.993997927640944
 20
1.831939767222788
 30
0.0
 10
6.939294127366637
 20
1.8168717646812
 30
0.0
  0
LINE
  5
259
330
1F
100
AcDbEntity
  8
0
  6
Continuous
 62
     1
370
    15
100
AcDbLine
 10
17.37790510084605
 20
-1.140286879037984
 30
0.0
 11
17.37790510084605
 21
0.3811493179396685
 31
0.0
  0
SPLINE
  5
25A
330
1F
100
AcDbEntity
  8
0
  6
Continuous
 62
     1
370
    15
100
AcDbSpline
210
0.0
220
0.0
230
1.0
 70
     8
 71
     3
 72
    16
 73
    12
 74
     0
 42
0.000000001
 43
0.00000001
 40
0.0
 40
0.0
 40
0.0
 40
0.0
 40
0.0871612362918444
 40
0.2011371884406624
 40
0.3151519623520033
 40
0.4293634885280425
 40
0.5436666322275425
 40
0.6577308701338945
 40
0.7717022010510073
 40
0.8857394153423149
 40
1.0
 40
1.0
 40
1.0
 40
1.0
 10
9.875325104609004
 20
1.973299222679743
 30
0.0
 10
10.09331074074982
 20
1.970813544610654
 30
0.0
 10
10.59634419735441
 20
1.965077482119401
 30
0.0
 10
11.38425509942089
 20
1.812247597593388
 30
0.0
 10
12.23987518234665
 20
1.549108745905896
 30
0.0
 10
13.0966704990161
 20
1.186428726950601
 30
0.0
 10
13.95385128127773
 20
0.7520285901920619
 30
0.0
 10
14.80984845679585
 20
0.26997232831659
 30
0.0
 10
15.66510533722809
 20
-0.2270998386439049
 30
0.0
 10
16.52089819594154
 20
-0.7153975159148261
 30
0.0
 10
17.09204985778039
 20
-0.9985647394886974
 30
0.0
 10
17.37790510084605
 20
-1.140286879037983
 30
0.0
  0
SPLINE
  5
25B
330
1F
100
AcDbEntity
  8
0
  6
Continuous
 62
     1
370
    15
100
AcDbSpline
210
0.0
220
0.0
230
1.0
 70
     8
 71
     3
 72
    15
 73
    11
 74
     0
 42
0.000000001
 43
0.00000001
 40
0.0
 40
0.0
 40
0.0
 40
0.0
 40
0.1400860300654405
 40
0.27989820307025
 40
0.419629601586062
 40
0.5594749061467875
 40
0.6996131145485195
 40
0.8396389978191946
 40
0.9794236584167084
 40
1.0
 40
1.0
 40
1.0
 40
1.0
 10
17.37790510084605
 20
0.3811493179396685
 30
0.0
 10
17.09204985958744
 20
0.5406068334643276
 30
0.0
 10
16.52089820135915
 20
0.8592101377377691
 30
0.0
 10
15.66510531561225
 20
1.278250941521153
 30
0.0
 10
14.80984853783605
 20
1.620086051210487
 30
0.0
 10
13.95385097817777
 20
1.86078220224066
 30
0.0
 10
13.0966716324533
 20
1.989316243121128
 30
0.0
 10
12.23987095944713
 20
1.98471160508642
 30
0.0
 10
11.62728003079174
 20
1.921570312886866
 30
0.0
 10
11.30024647280305
 20
1.830258598357737
 30
0.0
 10
11.25828393760519
 20
1.818542152319384
 30
0.0
  0
LINE
  5
25D
330
1F
100
AcDbEntity
  8
0
  6
Continuous
 62
     1
370
    15
100
AcDbLine
 10
17.37790510084605
 20
1.969894124450792
 30
0.0
 11
17.37790510084605
 21
1.984374999999996
 31
0.0
  0
SPLINE
  5
25E
330
1F
100
AcDbEntity
  8
0
  6
Continuous
 62
     1
370
    15
100
AcDbSpline
210
0.0
220
0.0
230
1.0
 70
     8
 71
     3
 72
    10
 73
     6
 74
     0
 42
0.000000001
 43
0.00000001
 40
0.0
 40
0.0
 40
0.0
 40
0.0
 40
0.4761322773702211
 40
0.9513337539611553
 40
1.0
 40
1.0
 40
1.0
 40
1.0
 10
17.37790510084605
 20
1.969894124450792
 30
0.0
 10
17.0920498970188
 20
1.975861451805931
 30
0.0
 10
16.52089831358
 20
1.987784440865259
 30
0.0
 10
15.92087234924242
 20
1.917463399252315
 30
0.0
 10
15.60654781148063
 20
1.828687237980844
 30
0.0
 10
15.57734770116658
 20
1.820440113143426
 30
0.0
  0
SPLINE
  5
25F
330
1F
100
AcDbEntity
  8
0
  6
Continuous
 62
     1
370
    15
100
AcDbSpline
210
0.0
220
0.0
230
1.0
 70
     8
 71
     3
 72
    11
 73
     7
 74
     0
 42
0.000000001
 43
0.00000001
 40
0.0
 40
0.0
 40
0.0
 40
0.0
 40
0.1659059025170379
 40
0.3498785465350216
 40
0.5123355962244182
 40
0.6595729987221709
 40
0.6595729987221709
 40
0.6595729987221709
 40
0.6595729987221709
 10
6.165685317853868
 20
-1.979022078276668
 30
0.0
 10
5.90784729487703
 20
-1.971483764729615
 30
0.0
 10
5.364093327405385
 20
-1.955586233977821
 30
0.0
 10
4.567228205141513
 20
-1.788799619007277
 30
0.0
 10
3.800155387913705
 20
-1.545016542516625
 30
0.0
 10
3.31917868616851
 20
-1.344849755126871
 30
0.0
 10
3.090405100846045
 20
-1.241781500908619
 30
0.0
  0
LINE
  5
262
330
1F
100
AcDbEntity
  8
0
  6
Continuous
 62
     1
370
    15
100
AcDbLine
 10
17.37790510084605
 20
-1.734330891175245
 30
0.0
 11
17.37790510084605
 21
-1.140286879037984
 31
0.0
  0
SPLINE
  5
263
330
1F
100
AcDbEntity
  8
0
  6
Continuous
 62
     1
370
    15
100
AcDbSpline
210
0.0
220
0.0
230
1.0
 70
     8
 71
     3
 72
    10
 73
     6
 74
     0
 42
0.000000001
 43
0.00000001
 40
0.4841868830592126
 40
0.4841868830592126
 40
0.4841868830592126
 40
0.4841868830592126
 40
0.6936017831593604
 40
0.9246633461501884
 40
1.0
 40
1.0
 40
1.0
 40
1.0
 10
3.090405100846054
 20
-1.976123676627246
 30
0.0
 10
3.319180469947595
 20
-1.986731037424395
 30
0.0
 10
3.800163153893573
 20
-1.981722558620894
 30
0.0
 10
4.363645666884949
 20
-1.925345988269883
 30
0.0
 10
4.698626112471253
 20
-1.835988217184495
 30
0.0
 10
4.780990514378715
 20
-1.814017085829799
 30
0.0
  0
SPLINE
  5
264
330
1F
100
AcDbEntity
  8
0
  6
Continuous
 62
     1
370
    15
100
AcDbSpline
210
0.0
220
0.0
230
1.0
 70
     8
 71
     3
 72
    11
 73
     7
 74
     0
 42
0.000000001
 43
0.00000001
 40
0.0
 40
0.0
 40
0.0
 40
0.0
 40
0.1933812338527758
 40
0.4619751744061694
 40
0.730724380980847
 40
0.9999999999999999
 40
0.9999999999999999
 40
0.9999999999999999
 40
0.9999999999999999
 10
14.19447453319391
 20
1.9719757248206
 30
0.0
 10
14.39968024788398
 20
1.970821464765026
 30
0.0
 10
14.88990333698297
 20
1.968064012659358
 30
0.0
 10
15.66509659892772
 20
1.82049143867494
 30
0.0
 10
16.52090038603664
 20
1.566409373254678
 30
0.0
 10
17.09205058828813
 20
1.317005218888254
 30
0.0
 10
17.37790510084605
 20
1.192181131117131
 30
0.0
  0
LINE
  5
265
330
1F
100
AcDbEntity
  8
0
  6
Continuous
 62
     1
370
    15
100
AcDbLine
 10
17.37790510084605
 20
0.3811493179396685
 30
0.0
 11
17.37790510084605
 21
1.192181131117131
 31
0.0
  0
LINE
  5
267
330
1F
100
AcDbEntity
  8
0
  6
Continuous
 62
     1
370
    15
100
AcDbLine
 10
17.37790510084605
 20
1.186084762584583
 30
0.0
 11
17.37790510084605
 21
1.969894124450792
 31
0.0
  0
LINE
  5
277
330
1F
100
AcDbEntity
  8
외형선
  6
Continuous
370
    15
100
AcDbLine
 10
-33.42209489915396
 20
-2.06375
 30
0.0
 11
-33.42209489915396
 21
-0.0000000000000018
 31
0.0
  0
LINE
  5
279
330
1F
100
AcDbEntity
  8
중심선
 62
     1
100
AcDbLine
 10
-36.42209489915396
 20
-0.0000000000000024
 30
0.0
 11
20.37790510084603
 21
-0.0000000000000001
 31
0.0
  0
CIRCLE
  5
27A
330
1F
100
AcDbEntity
  8
해칭선
100
AcDbCircle
 10
0.0
 20
0.0
 30
0.0
 40
3.0
  0
DIMENSION
  5
27B
330
1F
100
AcDbEntity
  8
치수문자_일반주서
100
AcDbDimension
  2
*D12
 10
33.22995932908189
 20
-1.98437499999994
 30
0.0
 11
33.22995932908179
 21
23.02587500000006
 31
0.0
 70
   160
  1
%%c<>
 71
     2
 42
3.96875
 52
-270.0
  3
SLDDIMSTYLE0
100
AcDbAlignedDimension
 13
17.37790510084605
 23
1.984375
 33
0.0
 14
17.37790510084605
 24
-1.984375
 34
0.0
 50
90.0000000000002
100
AcDbRotatedDimension
1001
ACAD
1000
DSTYLE
1002
{
1070
   171
1070
     6
1070
   273
1070
     5
1002
}
  0
DIMENSION
  5
27C
330
1F
100
AcDbEntity
  8
치수문자_일반주서
100
AcDbDimension
  2
*D13
 10
3.090405100846047
 20
25.92484799191558
 30
0.0
 11
10.52464461972163
 21
25.92484799191558
 31
0.0
 70
   160
  1
<>
 71
     2
 42
14.2875
  3
SLDDIMSTYLE0
100
AcDbAlignedDimension
 13
17.37790510084605
 23
1.575915299560634
 33
0.0
 14
3.090405100846047
 24
1.984375
 34
0.0
 50
0.0000000000001282
100
AcDbRotatedDimension
1001
ACAD
1000
DSTYLE
1002
{
1070
   171
1070
     6
1070
   273
1070
     5
1002
}
  0
DIMENSION
  5
27D
330
1F
100
AcDbEntity
  8
치수문자_일반주서
100
AcDbDimension
  2
*D14
 10
-33.42209489915396
 20
45.18567999049251
 30
0.0
 11
-8.022094899153956
 21
45.18567999049251
 31
0.0
 70
   160
  1
<>
 71
     2
 42
50.80000000000001
  3
SLDDIMSTYLE0
100
AcDbAlignedDimension
 13
17.37790510084605
 23
1.575915299560634
 33
0.0
 14
-33.42209489915396
 24
2.063750000000001
 34
0.0
100
AcDbRotatedDimension
1001
ACAD
1000
DSTYLE
1002
{
1070
   171
1070
     6
1070
   273
1070
     5
1002
}
  0
DIMENSION
  5
27E
330
1F
100
AcDbEntity
  8
치수문자_일반주서
100
AcDbDimension
  2
*D15
 10
-39.43913166215676
 20
-2.381250000000026
 30
0.0
 11
-39.43913166215684
 21
23.42274999999997
 31
0.0
 70
   160
  1
%%c<>
 71
     2
 42
4.762499999999999
 52
-270.0
  3
SLDDIMSTYLE0
100
AcDbAlignedDimension
 13
-33.10459489915397
 23
2.38125
 33
0.0
 14
-33.10459489915395
 24
-2.38125
 34
0.0
 50
90.0000000000002
100
AcDbRotatedDimension
1001
ACAD
1000
DSTYLE
1002
{
1070
   171
1070
     6
1070
   273
1070
     5
1002
}
  0
INSERT
  5
27F
330
1F
100
AcDbEntity
  8
해칭선
100
AcDbBlockReference
  2
SW_DOWELSYMBOL_0
 10
0.0
 20
0.0
 30
0.0
  0
LINE
  5
2B7
330
1F
100
AcDbEntity
  8
외형선
  6
Continuous
370
    15
100
AcDbLine
 10
3.090405100846047
 20
1.984375
 30
0.0
 11
3.090405100846047
 21
-1.984375
 31
0.0
  0
SPLINE
  5
2B8
330
1F
100
AcDbEntity
  8
0
  6
Continuous
 62
     1
370
    15
100
AcDbSpline
210
0.0
220
0.0
230
1.0
 70
     8
 71
     3
 72
    20
 73
    16
 74
     0
 42
0.000000001
 43
0.00000001
 40
0.1332045817749792
 40
0.1332045817749792
 40
0.1332045817749792
 40
0.1332045817749792
 40
0.1908166245588075
 40
0.2543839171836338
 40
0.3263699770044428
 40
0.3982277016789206
 40
0.4699930145693214
 40
0.5417657175729721
 40
0.6136454663027591
 40
0.685626752009096
 40
0.7574617223475879
 40
0.8292212178441806
 40
0.9010051556028505
 40
0.972912968994813
 40
1.0
 40
1.0
 40
1.0
 40
1.0
 10
3.090405100846045
 20
1.702775728289469
 30
0.0
 10
3.319178526764697
 20
1.634474668083373
 30
0.0
 10
3.800154693924293
 20
1.468503259889649
 30
0.0
 10
4.567231475899941
 20
1.13336162017553
 30
0.0
 10
5.391669434686047
 20
0.7105428368666188
 30
0.0
 10
6.248062198112464
 20
0.2261312333750376
 30
0.0
 10
7.103434053291039
 20
-0.2720585373608275
 30
0.0
 10
7.958895420595788
 20
-0.7535105882297654
 30
0.0
 10
8.815486075649396
 20
-1.188390482702073
 30
0.0
 10
9.67276790564567
 20
-1.549625403752339
 30
0.0
 10
10.52897105346334
 20
-1.815196434404635
 30
0.0
 10
11.38426537432824
 20
-1.970455074051606
 30
0.0
 10
12.23986808040954
 20
-1.996871691470075
 30
0.0
 10
12.91838352917753
 20
-1.941449766794116
 30
0.0
 10
13.31174488850785
 20
-1.840071536229653
 30
0.0
 10
13.41937666874155
 20
-1.812332361616338
 30
0.0
  0
SPLINE
  5
2BB
330
1F
100
AcDbEntity
  8
0
  6
Continuous
 62
     1
370
    15
100
AcDbSpline
210
0.0
220
0.0
230
1.0
 70
     8
 71
     3
 72
    15
 73
    11
 74
     0
 42
0.000000001
 43
0.00000001
 40
0.2089300258148768
 40
0.2089300258148768
 40
0.2089300258148768
 40
0.2089300258148768
 40
0.2992939264097466
 40
0.3989985755455879
 40
0.5119079750297872
 40
0.6246160821479223
 40
0.7371792423267282
 40
0.8497539938226758
 40
0.9624966454465853
 40
1.0
 40
1.0
 40
1.0
 40
1.0
 10
3.090405100846045
 20
-0.44263935400201
 30
0.0
 10
3.319178526799455
 20
-0.5715867107019567
 30
0.0
 10
3.800154694075607
 20
-0.8365697681241936
 30
0.0
 10
4.56723147518677
 20
-1.220012724252437
 30
0.0
 10
5.391669437740582
 20
-1.563652478238472
 30
0.0
 10
6.24806218678842
 20
-1.824485952906679
 30
0.0
 10
7.103434095484328
 20
-1.974600632334617
 30
0.0
 10
7.95889526300687
 20
-1.995086456851804
 30
0.0
 10
8.624528453351253
 20
-1.937690156853384
 30
0.0
 10
9.00517930808228
 20
-1.837957066724142
 30
0.0
 10
9.100194705358064
 20
-1.813062392083605
 30
0.0
  0
LINE
  5
2BC
330
1F
100
AcDbEntity
  8
외형선
  6
Continuous
370
    15
100
AcDbLine
 10
-33.42209489915396
 20
-2.06375
 30
0.0
 11
-33.42209489915396
 21
2.063750000000008
 31
0.0
  0
LINE
  5
2BD
330
1F
100
AcDbEntity
  8
외형선
  6
Continuous
370
    15
100
AcDbLine
 10
-33.10459489915395
 20
2.38125
 30
0.0
 11
-33.10459489915395
 21
-2.38125
 31
0.0
  0
LINE
  5
2BE
330
1F
100
AcDbEntity
  8
외형선
  6
Continuous
370
    15
100
AcDbLine
 10
3.090405100846047
 20
-1.984375000000002
 30
0.0
 11
2.0
 21
-2.38125
 31
0.0
  0
LINE
  5
2BF
330
1F
100
AcDbEntity
  8
외형선
  6
Continuous
370
    15
100
AcDbLine
 10
3.090405100846047
 20
1.984375000000002
 30
0.0
 11
2.0
 21
2.38125
 31
0.0
  0
LINE
  5
2C0
330
1F
100
AcDbEntity
  8
외형선
  6
Continuous
370
    15
100
AcDbLine
 10
2.0
 20
2.38125
 30
0.0
 11
2.0
 21
-2.38125
 31
0.0
  0
ENDSEC
  0
SECTION
  2
OBJECTS
  0
DICTIONARY
  5
C
330
0
100
AcDbDictionary
281
     1
  3
ACAD_GROUP
350
D
  3
ACAD_IMAGE_VARS
350
15A
  3
ACAD_LAYOUT
350
1A
  3
ACAD_MLINESTYLE
350
17
  3
ACAD_PLOTSETTINGS
350
19
  3
ACAD_PLOTSTYLENAME
350
E
  3
ACAD_SCALELIST
350
47
  3
APPDATA
350
158
  3
DWGPROPS
350
2C2
  0
DICTIONARY
  5
203
330
2
100
AcDbDictionary
280
     1
281
     1
  3
ACAD_LAYERSTATES
360
204
  0
DICTIONARY
  5
D
102
{ACAD_REACTORS
330
C
102
}
330
C
100
AcDbDictionary
281
     1
  0
RASTERVARIABLES
  5
15A
102
{ACAD_REACTORS
330
C
102
}
330
C
100
AcDbRasterVariables
 90
        0
 70
     1
 71
     1
 72
     1
  0
DICTIONARY
  5
1A
102
{ACAD_REACTORS
330
C
102
}
330
C
100
AcDbDictionary
281
     1
  3
Layout1
350
1E
  3
Layout2
350
26
  3
Model
350
22
  0
DICTIONARY
  5
17
102
{ACAD_REACTORS
330
C
102
}
330
C
100
AcDbDictionary
281
     1
  3
Standard
350
18
  0
DICTIONARY
  5
19
102
{ACAD_REACTORS
330
C
102
}
330
C
100
AcDbDictionary
281
     1
  0
ACDBDICTIONARYWDFLT
  5
E
102
{ACAD_REACTORS
330
C
102
}
330
C
100
AcDbDictionary
281
     1
  3
Normal
350
F
100
AcDbDictionaryWithDefault
340
F
  0
DICTIONARY
  5
47
102
{ACAD_REACTORS
330
C
102
}
330
C
100
AcDbDictionary
281
     1
  3
A0
350
48
  3
A1
350
49
  3
A2
350
4A
  3
A3
350
4B
  3
A4
350
4C
  3
A5
350
4D
  3
A6
350
4E
  3
A7
350
4F
  3
A8
350
50
  3
A9
350
51
  3
B0
350
52
  3
B1
350
53
  3
B2
350
54
  3
B3
350
55
  3
B4
350
56
  3
B5
350
57
  3
B6
350
58
  3
B7
350
59
  3
B8
350
5A
  3
B9
350
5B
  3
C0
350
5C
  3
C1
350
5D
  3
C2
350
5E
  3
C3
350
5F
  3
C4
350
60
  3
C5
350
61
  3
C6
350
62
  3
C7
350
63
  3
C8
350
64
  3
C9
350
65
  3
D0
350
66
  3
D1
350
67
  3
D2
350
68
  0
DICTIONARY
  5
158
102
{ACAD_REACTORS
330
C
102
}
330
C
100
AcDbDictionary
281
     1
  0
XRECORD
  5
2C2
102
{ACAD_REACTORS
330
C
102
}
330
C
100
AcDbXrecord
280
     1
  1
DWGPROPS COOKIE
  2

  3

  4

  6

  7

  8
12016016
  9

300
=
301
=
302
=
303
=
304
=
305
=
306
=
307
=
308
=
309
=
 40
0.0
 41
2458316.070175937
 42
2458330.04667287
  1

 90
        0
  0
DICTIONARY
  5
204
102
{ACAD_REACTORS
330
203
102
}
330
203
100
AcDbDictionary
281
     1
  0
LAYOUT
  5
1E
102
{ACAD_REACTORS
330
1A
102
}
330
1A
100
AcDbPlotSettings
  1

  2
none_device
  4

  6

 40
0.0
 41
0.0
 42
0.0
 43
0.0
 44
0.0
 45
0.0
 46
0.0
 47
0.0
 48
0.0
 49
0.0
140
0.0
141
0.0
142
1.0
143
1.0
 70
   688
 72
     1
 73
     0
 74
     5
  7

 75
    16
147
1.0
148
0.0
149
0.0
100
AcDbLayout
  1
Layout1
 70
     1
 71
     1
 10
0.0
 20
0.0
 11
420.0
 21
297.0
 12
0.0
 22
0.0
 32
0.0
 14
1.000000000000000E+20
 24
1.000000000000000E+20
 34
1.000000000000000E+20
 15
-1.000000000000000E+20
 25
-1.000000000000000E+20
 35
-1.000000000000000E+20
146
0.0
 13
0.0
 23
0.0
 33
0.0
 16
1.0
 26
0.0
 36
0.0
 17
0.0
 27
1.0
 37
0.0
 76
     0
330
1B
  0
LAYOUT
  5
26
102
{ACAD_REACTORS
330
1A
102
}
330
1A
100
AcDbPlotSettings
  1

  2
none_device
  4

  6

 40
0.0
 41
0.0
 42
0.0
 43
0.0
 44
0.0
 45
0.0
 46
0.0
 47
0.0
 48
0.0
 49
0.0
140
0.0
141
0.0
142
1.0
143
1.0
 70
   688
 72
     1
 73
     0
 74
     5
  7

 75
    16
147
1.0
148
0.0
149
0.0
100
AcDbLayout
  1
Layout2
 70
     1
 71
     2
 10
0.0
 20
0.0
 11
0.0
 21
0.0
 12
0.0
 22
0.0
 32
0.0
 14
0.0
 24
0.0
 34
0.0
 15
0.0
 25
0.0
 35
0.0
146
0.0
 13
0.0
 23
0.0
 33
0.0
 16
1.0
 26
0.0
 36
0.0
 17
0.0
 27
1.0
 37
0.0
 76
     0
330
23
  0
LAYOUT
  5
22
102
{ACAD_REACTORS
330
1A
102
}
330
1A
100
AcDbPlotSettings
  1

  2
none_device
  4
ANSI_A_(11.00_x_8.50_Inches)
  6

 40
6.35
 41
19.05
 42
6.35000508
 43
19.05000254
 44
279.4
 45
215.9
 46
79.09534670769699
 47
83.6726955875567
 48
0.0
 49
0.0
140
0.0
141
0.0
142
0.0789061318685743
143
1.0
 70
  1696
 72
     0
 73
     0
 74
     0
  7

 75
     0
147
0.0235690232323232
148
0.0
149
0.0
100
AcDbLayout
  1
Model
 70
     1
 71
     0
 10
0.0
 20
0.0
 11
420.0
 21
297.0
 12
0.0
 22
0.0
 32
0.0
 14
1.000000000000000E+20
 24
1.000000000000000E+20
 34
1.000000000000000E+20
 15
-1.000000000000000E+20
 25
-1.000000000000000E+20
 35
-1.000000000000000E+20
146
0.0
 13
0.0
 23
0.0
 33
0.0
 16
1.0
 26
0.0
 36
0.0
 17
0.0
 27
1.0
 37
0.0
 76
     0
330
1F
331
29
  0
MLINESTYLE
  5
18
102
{ACAD_REACTORS
330
17
102
}
330
17
100
AcDbMlineStyle
  2
Standard
 70
     0
  3

 62
   256
 51
90.0
 52
90.0
 71
     2
 49
0.5
 62
   256
  6
BYLAYER
 49
-0.5
 62
   256
  6
BYLAYER
  0
ACDBPLACEHOLDER
  5
F
102
{ACAD_REACTORS
330
E
102
}
330
E
  0
SCALE
  5
48
102
{ACAD_REACTORS
330
47
102
}
330
47
100
AcDbScale
 70
     0
300
1:1
140
1.0
141
1.0
290
     1
  0
SCALE
  5
49
102
{ACAD_REACTORS
330
47
102
}
330
47
100
AcDbScale
 70
     0
300
1:2
140
1.0
141
2.0
290
     0
  0
SCALE
  5
4A
102
{ACAD_REACTORS
330
47
102
}
330
47
100
AcDbScale
 70
     0
300
1:4
140
1.0
141
4.0
290
     0
  0
SCALE
  5
4B
102
{ACAD_REACTORS
330
47
102
}
330
47
100
AcDbScale
 70
     0
300
1:5
140
1.0
141
5.0
290
     0
  0
SCALE
  5
4C
102
{ACAD_REACTORS
330
47
102
}
330
47
100
AcDbScale
 70
     0
300
1:8
140
1.0
141
8.0
290
     0
  0
SCALE
  5
4D
102
{ACAD_REACTORS
330
47
102
}
330
47
100
AcDbScale
 70
     0
300
1:10
140
1.0
141
10.0
290
     0
  0
SCALE
  5
4E
102
{ACAD_REACTORS
330
47
102
}
330
47
100
AcDbScale
 70
     0
300
1:16
140
1.0
141
16.0
290
     0
  0
SCALE
  5
4F
102
{ACAD_REACTORS
330
47
102
}
330
47
100
AcDbScale
 70
     0
300
1:20
140
1.0
141
20.0
290
     0
  0
SCALE
  5
50
102
{ACAD_REACTORS
330
47
102
}
330
47
100
AcDbScale
 70
     0
300
1:30
140
1.0
141
30.0
290
     0
  0
SCALE
  5
51
102
{ACAD_REACTORS
330
47
102
}
330
47
100
AcDbScale
 70
     0
300
1:40
140
1.0
141
40.0
290
     0
  0
SCALE
  5
52
102
{ACAD_REACTORS
330
47
102
}
330
47
100
AcDbScale
 70
     0
300
1:50
140
1.0
141
50.0
290
     0
  0
SCALE
  5
53
102
{ACAD_REACTORS
330
47
102
}
330
47
100
AcDbScale
 70
     0
300
1:100
140
1.0
141
100.0
290
     0
  0
SCALE
  5
54
102
{ACAD_REACTORS
330
47
102
}
330
47
100
AcDbScale
 70
     0
300
2:1
140
2.0
141
1.0
290
     0
  0
SCALE
  5
55
102
{ACAD_REACTORS
330
47
102
}
330
47
100
AcDbScale
 70
     0
300
4:1
140
4.0
141
1.0
290
     0
  0
SCALE
  5
56
102
{ACAD_REACTORS
330
47
102
}
330
47
100
AcDbScale
 70
     0
300
8:1
140
8.0
141
1.0
290
     0
  0
SCALE
  5
57
102
{ACAD_REACTORS
330
47
102
}
330
47
100
AcDbScale
 70
     0
300
10:1
140
10.0
141
1.0
290
     0
  0
SCALE
  5
58
102
{ACAD_REACTORS
330
47
102
}
330
47
100
AcDbScale
 70
     0
300
100:1
140
100.0
141
1.0
290
     0
  0
SCALE
  5
59
102
{ACAD_REACTORS
330
47
102
}
330
47
100
AcDbScale
 70
     0
300
1/128" = 1'-0"
140
0.0078125
141
12.0
290
     0
  0
SCALE
  5
5A
102
{ACAD_REACTORS
330
47
102
}
330
47
100
AcDbScale
 70
     0
300
1/64" = 1'-0"
140
0.015625
141
12.0
290
     0
  0
SCALE
  5
5B
102
{ACAD_REACTORS
330
47
102
}
330
47
100
AcDbScale
 70
     0
300
1/32" = 1'-0"
140
0.03125
141
12.0
290
     0
  0
SCALE
  5
5C
102
{ACAD_REACTORS
330
47
102
}
330
47
100
AcDbScale
 70
     0
300
1/16" = 1'-0"
140
0.0625
141
12.0
290
     0
  0
SCALE
  5
5D
102
{ACAD_REACTORS
330
47
102
}
330
47
100
AcDbScale
 70
     0
300
3/32" = 1'-0"
140
0.09375
141
12.0
290
     0
  0
SCALE
  5
5E
102
{ACAD_REACTORS
330
47
102
}
330
47
100
AcDbScale
 70
     0
300
1/8" = 1'-0"
140
0.125
141
12.0
290
     0
  0
SCALE
  5
5F
102
{ACAD_REACTORS
330
47
102
}
330
47
100
AcDbScale
 70
     0
300
3/16" = 1'-0"
140
0.1875
141
12.0
290
     0
  0
SCALE
  5
60
102
{ACAD_REACTORS
330
47
102
}
330
47
100
AcDbScale
 70
     0
300
1/4" = 1'-0"
140
0.25
141
12.0
290
     0
  0
SCALE
  5
61
102
{ACAD_REACTORS
330
47
102
}
330
47
100
AcDbScale
 70
     0
300
3/8" = 1'-0"
140
0.375
141
12.0
290
     0
  0
SCALE
  5
62
102
{ACAD_REACTORS
330
47
102
}
330
47
100
AcDbScale
 70
     0
300
1/2" = 1'-0"
140
0.5
141
12.0
290
     0
  0
SCALE
  5
63
102
{ACAD_REACTORS
330
47
102
}
330
47
100
AcDbScale
 70
     0
300
3/4" = 1'-0"
140
0.75
141
12.0
290
     0
  0
SCALE
  5
64
102
{ACAD_REACTORS
330
47
102
}
330
47
100
AcDbScale
 70
     0
300
1" = 1'-0"
140
1.0
141
12.0
290
     0
  0
SCALE
  5
65
102
{ACAD_REACTORS
330
47
102
}
330
47
100
AcDbScale
 70
     0
300
1-1/2" = 1'-0"
140
1.5
141
12.0
290
     0
  0
SCALE
  5
66
102
{ACAD_REACTORS
330
47
102
}
330
47
100
AcDbScale
 70
     0
300
3" = 1'-0"
140
3.0
141
12.0
290
     0
  0
SCALE
  5
67
102
{ACAD_REACTORS
330
47
102
}
330
47
100
AcDbScale
 70
     0
300
6" = 1'-0"
140
6.0
141
12.0
290
     0
  0
SCALE
  5
68
102
{ACAD_REACTORS
330
47
102
}
330
47
100
AcDbScale
 70
     0
300
1'-0" = 1'-0"
140
12.0
141
12.0
290
     0
  0
ENDSEC
  0
EOF
