  0
SECTION
  2
HEADER
  9
$ACADVER
  1
AC1015
  9
$ACADMAINTVER
 70
     6
  9
$DWGCODEPAGE
  3
ANSI_949
  9
$INSBASE
 10
0.0
 20
0.0
 30
0.0
  9
$EXTMIN
 10
1.000000000000000E+20
 20
1.000000000000000E+20
 30
1.000000000000000E+20
  9
$EXTMAX
 10
-1.000000000000000E+20
 20
-1.000000000000000E+20
 30
-1.000000000000000E+20
  9
$LIMMIN
 10
0.0
 20
0.0
  9
$LIMMAX
 10
420.0
 20
297.0
  9
$ORTHOMODE
 70
     1
  9
$REGENMODE
 70
     1
  9
$FILLMODE
 70
     1
  9
$QTEXTMODE
 70
     0
  9
$MIRRTEXT
 70
     1
  9
$LTSCALE
 40
1.0
  9
$ATTMODE
 70
     1
  9
$TEXTSIZE
 40
3.5
  9
$TRACEWID
 40
1.0
  9
$TEXTSTYLE
  7
Standard
  9
$CLAYER
  8
0
  9
$CELTYPE
  6
ByLayer
  9
$CECOLOR
 62
   256
  9
$CELTSCALE
 40
1.0
  9
$DISPSILH
 70
     0
  9
$DIMSCALE
 40
1.0
  9
$DIMASZ
 40
3.302
  9
$DIMEXO
 40
1.0
  9
$DIMDLI
 40
3.75
  9
$DIMRND
 40
0.0
  9
$DIMDLE
 40
0.0
  9
$DIMEXE
 40
1.0
  9
$DIMTP
 40
0.0
  9
$DIMTM
 40
0.0
  9
$DIMTXT
 40
3.5
  9
$DIMCEN
 40
2.5
  9
$DIMTSZ
 40
0.0
  9
$DIMTOL
 70
     0
  9
$DIMLIM
 70
     0
  9
$DIMTIH
 70
     1
  9
$DIMTOH
 70
     1
  9
$DIMSE1
 70
     0
  9
$DIMSE2
 70
     0
  9
$DIMTAD
 70
     1
  9
$DIMZIN
 70
     0
  9
$DIMBLK
  1

  9
$DIMASO
 70
     1
  9
$DIMSHO
 70
     1
  9
$DIMPOST
  1

  9
$DIMAPOST
  1

  9
$DIMALT
 70
     0
  9
$DIMALTD
 70
     3
  9
$DIMALTF
 40
0.0393700787401575
  9
$DIMLFAC
 40
1.0
  9
$DIMTOFL
 70
     1
  9
$DIMTVP
 40
0.0
  9
$DIMTIX
 70
     0
  9
$DIMSOXD
 70
     0
  9
$DIMSAH
 70
     0
  9
$DIMBLK1
  1

  9
$DIMBLK2
  1

  9
$DIMSTYLE
  2
ISO-25
  9
$DIMCLRD
 70
     0
  9
$DIMCLRE
 70
     0
  9
$DIMCLRT
 70
     0
  9
$DIMTFAC
 40
1.0
  9
$DIMGAP
 40
1.524
  9
$DIMJUST
 70
     0
  9
$DIMSD1
 70
     0
  9
$DIMSD2
 70
     0
  9
$DIMTOLJ
 70
     0
  9
$DIMTZIN
 70
     0
  9
$DIMALTZ
 70
     0
  9
$DIMALTTZ
 70
     0
  9
$DIMUPT
 70
     0
  9
$DIMDEC
 70
     2
  9
$DIMTDEC
 70
     2
  9
$DIMALTU
 70
     2
  9
$DIMALTTD
 70
     3
  9
$DIMTXSTY
  7
Standard
  9
$DIMAUNIT
 70
     0
  9
$DIMADEC
 70
     2
  9
$DIMALTRND
 40
0.0
  9
$DIMAZIN
 70
     0
  9
$DIMDSEP
 70
    44
  9
$DIMATFIT
 70
     3
  9
$DIMFRAC
 70
     0
  9
$DIMLDRBLK
  1

  9
$DIMLUNIT
 70
     2
  9
$DIMLWD
 70
    -2
  9
$DIMLWE
 70
    -2
  9
$DIMTMOVE
 70
     0
  9
$LUNITS
 70
     2
  9
$LUPREC
 70
     2
  9
$SKETCHINC
 40
1.0
  9
$FILLETRAD
 40
10.0
  9
$AUNITS
 70
     0
  9
$AUPREC
 70
     2
  9
$MENU
  1
.
  9
$ELEVATION
 40
0.0
  9
$PELEVATION
 40
0.0
  9
$THICKNESS
 40
0.0
  9
$LIMCHECK
 70
     0
  9
$CHAMFERA
 40
0.0
  9
$CHAMFERB
 40
0.0
  9
$CHAMFERC
 40
0.0
  9
$CHAMFERD
 40
0.0
  9
$SKPOLY
 70
     0
  9
$TDCREATE
 40
2458316.444964143
  9
$TDUCREATE
 40
2458316.069964143
  9
$TDUPDATE
 40
2458323.678040694
  9
$TDUUPDATE
 40
2458323.303040694
  9
$TDINDWG
 40
0.0000993519
  9
$TDUSRTIMER
 40
2458323.282593507
  9
$USRTIMER
 70
     1
  9
$ANGBASE
 50
0.0
  9
$ANGDIR
 70
     0
  9
$PDMODE
 70
     0
  9
$PDSIZE
 40
-1.0
  9
$PLINEWID
 40
0.0
  9
$SPLFRAME
 70
     0
  9
$SPLINETYPE
 70
     6
  9
$SPLINESEGS
 70
     8
  9
$HANDSEED
  5
2D7
  9
$SURFTAB1
 70
     6
  9
$SURFTAB2
 70
     6
  9
$SURFTYPE
 70
     6
  9
$SURFU
 70
     6
  9
$SURFV
 70
     6
  9
$UCSBASE
  2

  9
$UCSNAME
  2

  9
$UCSORG
 10
0.0
 20
0.0
 30
0.0
  9
$UCSXDIR
 10
1.0
 20
0.0
 30
0.0
  9
$UCSYDIR
 10
0.0
 20
1.0
 30
0.0
  9
$UCSORTHOREF
  2

  9
$UCSORTHOVIEW
 70
     0
  9
$UCSORGTOP
 10
0.0
 20
0.0
 30
0.0
  9
$UCSORGBOTTOM
 10
0.0
 20
0.0
 30
0.0
  9
$UCSORGLEFT
 10
0.0
 20
0.0
 30
0.0
  9
$UCSORGRIGHT
 10
0.0
 20
0.0
 30
0.0
  9
$UCSORGFRONT
 10
0.0
 20
0.0
 30
0.0
  9
$UCSORGBACK
 10
0.0
 20
0.0
 30
0.0
  9
$PUCSBASE
  2

  9
$PUCSNAME
  2

  9
$PUCSORG
 10
0.0
 20
0.0
 30
0.0
  9
$PUCSXDIR
 10
1.0
 20
0.0
 30
0.0
  9
$PUCSYDIR
 10
0.0
 20
1.0
 30
0.0
  9
$PUCSORTHOREF
  2

  9
$PUCSORTHOVIEW
 70
     0
  9
$PUCSORGTOP
 10
0.0
 20
0.0
 30
0.0
  9
$PUCSORGBOTTOM
 10
0.0
 20
0.0
 30
0.0
  9
$PUCSORGLEFT
 10
0.0
 20
0.0
 30
0.0
  9
$PUCSORGRIGHT
 10
0.0
 20
0.0
 30
0.0
  9
$PUCSORGFRONT
 10
0.0
 20
0.0
 30
0.0
  9
$PUCSORGBACK
 10
0.0
 20
0.0
 30
0.0
  9
$USERI1
 70
     0
  9
$USERI2
 70
     0
  9
$USERI3
 70
     0
  9
$USERI4
 70
     0
  9
$USERI5
 70
     0
  9
$USERR1
 40
0.0
  9
$USERR2
 40
0.0
  9
$USERR3
 40
0.0
  9
$USERR4
 40
0.0
  9
$USERR5
 40
0.0
  9
$WORLDVIEW
 70
     1
  9
$SHADEDGE
 70
     3
  9
$SHADEDIF
 70
    70
  9
$TILEMODE
 70
     1
  9
$MAXACTVP
 70
    64
  9
$PINSBASE
 10
0.0
 20
0.0
 30
0.0
  9
$PLIMCHECK
 70
     0
  9
$PEXTMIN
 10
1.000000000000000E+20
 20
1.000000000000000E+20
 30
1.000000000000000E+20
  9
$PEXTMAX
 10
-1.000000000000000E+20
 20
-1.000000000000000E+20
 30
-1.000000000000000E+20
  9
$PLIMMIN
 10
0.0
 20
0.0
  9
$PLIMMAX
 10
0.0
 20
0.0
  9
$UNITMODE
 70
     0
  9
$VISRETAIN
 70
     1
  9
$PLINEGEN
 70
     0
  9
$PSLTSCALE
 70
     1
  9
$TREEDEPTH
 70
  3020
  9
$CMLSTYLE
  2
Standard
  9
$CMLJUST
 70
     0
  9
$CMLSCALE
 40
20.0
  9
$PROXYGRAPHICS
 70
     1
  9
$MEASUREMENT
 70
     1
  9
$CELWEIGHT
370
    -1
  9
$ENDCAPS
280
     0
  9
$JOINSTYLE
280
     0
  9
$LWDISPLAY
290
     1
  9
$INSUNITS
 70
     4
  9
$HYPERLINKBASE
  1

  9
$STYLESHEET
  1

  9
$XEDIT
290
     1
  9
$CEPSNTYPE
380
     0
  9
$PSTYLEMODE
290
     1
  9
$FINGERPRINTGUID
  2
{120FA869-3FE1-4AF6-BA82-3C764040AE2A}
  9
$VERSIONGUID
  2
{FAEB1C32-E019-11D5-929B-00C0DF256EC4}
  9
$EXTNAMES
290
     1
  9
$PSVPSCALE
 40
0.0
  9
$OLESTARTUP
290
     0
  0
ENDSEC
  0
SECTION
  2
CLASSES
  0
CLASS
  1
ACDBDICTIONARYWDFLT
  2
AcDbDictionaryWithDefault
  3
ObjectDBX Classes
 90
        0
280
     0
281
     0
  0
CLASS
  1
VISUALSTYLE
  2
AcDbVisualStyle
  3
ObjectDBX Classes
 90
     4095
280
     0
281
     0
  0
CLASS
  1
MATERIAL
  2
AcDbMaterial
  3
ObjectDBX Classes
 90
     1153
280
     0
281
     0
  0
CLASS
  1
SCALE
  2
AcDbScale
  3
ObjectDBX Classes
 90
     1153
280
     0
281
     0
  0
CLASS
  1
SUN
  2
AcDbSun
  3
SCENEOE
 90
     1153
280
     0
281
     0
  0
CLASS
  1
ACDBPLACEHOLDER
  2
AcDbPlaceHolder
  3
ObjectDBX Classes
 90
        0
280
     0
281
     0
  0
CLASS
  1
LAYOUT
  2
AcDbLayout
  3
ObjectDBX Classes
 90
        0
280
     0
281
     0
  0
CLASS
  1
TABLESTYLE
  2
AcDbTableStyle
  3
ObjectDBX Classes
 90
     4095
280
     0
281
     0
  0
CLASS
  1
MLEADERSTYLE
  2
AcDbMLeaderStyle
  3
ACDB_MLEADERSTYLE_CLASS
 90
     4095
280
     0
281
     0
  0
CLASS
  1
RASTERVARIABLES
  2
AcDbRasterVariables
  3
ISM
 90
        0
280
     0
281
     0
  0
ENDSEC
  0
SECTION
  2
TABLES
  0
TABLE
  2
VPORT
  5
8
330
0
100
AcDbSymbolTable
 70
     1
  0
VPORT
  5
29
330
8
100
AcDbSymbolTableRecord
100
AcDbViewportTableRecord
  2
*Active
 70
     0
 10
0.0
 20
0.0
 11
1.0
 21
1.0
 12
17.34466364253705
 22
7.697609335531112
 13
0.0
 23
0.0
 14
10.0
 24
10.0
 15
10.0
 25
10.0
 16
0.0
 26
0.0
 36
1.0
 17
0.0
 27
0.0
 37
0.0
 40
88.14515017860211
 41
1.970186335403727
 42
50.0
 43
0.0
 44
0.0
 50
0.0
 51
0.0
 71
    16
 72
  2000
 73
     1
 74
     3
 75
     0
 76
     0
 77
     0
 78
     0
281
     0
 65
     1
110
0.0
120
0.0
130
0.0
111
1.0
121
0.0
131
0.0
112
0.0
122
1.0
132
0.0
 79
     0
146
0.0
  0
ENDTAB
  0
TABLE
  2
LTYPE
  5
5
330
0
100
AcDbSymbolTable
 70
     6
  0
LTYPE
  5
14
330
5
100
AcDbSymbolTableRecord
100
AcDbLinetypeTableRecord
  2
ByBlock
 70
     0
  3

 72
    65
 73
     0
 40
0.0
  0
LTYPE
  5
15
330
5
100
AcDbSymbolTableRecord
100
AcDbLinetypeTableRecord
  2
ByLayer
 70
     0
  3

 72
    65
 73
     0
 40
0.0
  0
LTYPE
  5
16
330
5
100
AcDbSymbolTableRecord
100
AcDbLinetypeTableRecord
  2
Continuous
 70
     0
  3
Solid line
 72
    65
 73
     0
 40
0.0
  0
LTYPE
  5
6A
330
5
100
AcDbSymbolTableRecord
100
AcDbLinetypeTableRecord
  2
HIDDEN
 70
     0
  3
Hidden __ __ __ __ __ __ __ __ __ __ __ __ __ __
 72
    65
 73
     2
 40
1.905
 49
1.27
 74
     0
 49
-0.635
 74
     0
  0
LTYPE
  5
6B
330
5
100
AcDbSymbolTableRecord
100
AcDbLinetypeTableRecord
  2
PHANTOM
 70
     0
  3
Phantom ______  __  __  ______  __  __  ______
 72
    65
 73
     6
 40
12.7
 49
6.35
 74
     0
 49
-1.27
 74
     0
 49
1.27
 74
     0
 49
-1.27
 74
     0
 49
1.27
 74
     0
 49
-1.27
 74
     0
  0
LTYPE
  5
6C
330
5
100
AcDbSymbolTableRecord
100
AcDbLinetypeTableRecord
  2
CENTER
 70
     0
  3
Center ____ _ ____ _ ____ _ ____ _ ____ _ ____
 72
    65
 73
     4
 40
10.16
 49
6.35
 74
     0
 49
-1.27
 74
     0
 49
1.27
 74
     0
 49
-1.27
 74
     0
  0
LTYPE
  5
6D
330
5
100
AcDbSymbolTableRecord
100
AcDbLinetypeTableRecord
  2
CENTERX2
 70
     0
  3
Center (2x) ________  __  ________  __  _____
 72
    65
 73
     4
 40
20.32
 49
12.7
 74
     0
 49
-2.54
 74
     0
 49
2.54
 74
     0
 49
-2.54
 74
     0
  0
LTYPE
  5
6E
330
5
100
AcDbSymbolTableRecord
100
AcDbLinetypeTableRecord
  2
DOT2
 70
     0
  3
Dot (.5x) ........................................
 72
    65
 73
     2
 40
0.635
 49
0.0
 74
     0
 49
-0.635
 74
     0
  0
ENDTAB
  0
TABLE
  2
LAYER
  5
2
102
{ACAD_XDICTIONARY
360
218
102
}
330
0
100
AcDbSymbolTable
 70
    18
  0
LAYER
  5
10
330
2
100
AcDbSymbolTableRecord
100
AcDbLayerTableRecord
  2
0
 70
     0
 62
     7
  6
Continuous
370
    -3
390
F
  0
LAYER
  5
6F
330
2
100
AcDbSymbolTableRecord
100
AcDbLayerTableRecord
  2
FORMAT
 70
     0
 62
     2
  6
Continuous
370
    -3
390
F
  0
LAYER
  5
70
330
2
100
AcDbSymbolTableRecord
100
AcDbLayerTableRecord
  2
외형선
 70
     0
 62
     4
  6
Continuous
370
    30
390
F
  0
LAYER
  5
71
330
2
100
AcDbSymbolTableRecord
100
AcDbLayerTableRecord
  2
숨은선
 70
     0
 62
     2
  6
HIDDEN
370
    15
390
F
  0
LAYER
  5
72
330
2
100
AcDbSymbolTableRecord
100
AcDbLayerTableRecord
  2
중심선
 70
     0
 62
     1
  6
CENTERX2
370
    -3
390
F
  0
LAYER
  5
73
330
2
100
AcDbSymbolTableRecord
100
AcDbLayerTableRecord
  2
파단선
 70
     0
 62
     4
  6
Continuous
370
    -3
390
F
  0
LAYER
  5
74
330
2
100
AcDbSymbolTableRecord
100
AcDbLayerTableRecord
  2
해칭선
 70
     0
 62
   100
  6
Continuous
370
    -3
390
F
  0
LAYER
  5
75
330
2
100
AcDbSymbolTableRecord
100
AcDbLayerTableRecord
  2
가는실선
 70
     0
 62
     4
  6
Continuous
370
    -3
390
F
  0
LAYER
  5
76
330
2
100
AcDbSymbolTableRecord
100
AcDbLayerTableRecord
  2
치수_보조선
 70
     0
 62
     4
  6
Continuous
370
    -3
390
F
  0
LAYER
  5
77
330
2
100
AcDbSymbolTableRecord
100
AcDbLayerTableRecord
  2
치수문자_일반주서
 70
     0
 62
     7
  6
Continuous
370
    15
390
F
  0
LAYER
  5
78
330
2
100
AcDbSymbolTableRecord
100
AcDbLayerTableRecord
  2
개별주서
 70
     0
 62
   100
  6
Continuous
370
    30
390
F
  0
LAYER
  5
79
330
2
100
AcDbSymbolTableRecord
100
AcDbLayerTableRecord
  2
중간선
 70
     0
 62
     2
  6
Continuous
370
    15
390
F
  0
LAYER
  5
7A
330
2
100
AcDbSymbolTableRecord
100
AcDbLayerTableRecord
  2
윤곽선
 70
     0
 62
     3
  6
Continuous
370
    40
390
F
  0
LAYER
  5
7B
330
2
100
AcDbSymbolTableRecord
100
AcDbLayerTableRecord
  2
중심마크
 70
     0
 62
   100
  6
Continuous
370
    30
390
F
  0
LAYER
  5
7C
330
2
100
AcDbSymbolTableRecord
100
AcDbLayerTableRecord
  2
가상선
 70
     0
 62
     4
  6
PHANTOM
370
    -3
390
F
  0
LAYER
  5
7D
330
2
100
AcDbSymbolTableRecord
100
AcDbLayerTableRecord
  2
특수지정선
 70
     0
 62
     5
  6
CENTERX2
370
    60
390
F
  0
LAYER
  5
7E
330
2
100
AcDbSymbolTableRecord
100
AcDbLayerTableRecord
  2
참조1
 70
     0
 62
    -4
  6
Continuous
370
    -3
390
F
  0
LAYER
  5
160
330
2
100
AcDbSymbolTableRecord
100
AcDbLayerTableRecord
  2
Defpoints
 70
     0
 62
     7
  6
Continuous
290
     0
370
    -3
390
F
  0
ENDTAB
  0
TABLE
  2
STYLE
  5
3
330
0
100
AcDbSymbolTable
 70
     2
  0
STYLE
  5
11
330
3
100
AcDbSymbolTableRecord
100
AcDbTextStyleTableRecord
  2
Standard
 70
     0
 40
0.0
 41
1.0
 50
0.0
 71
     0
 42
3.5
  3
txt
  4

  0
STYLE
  5
94
330
3
100
AcDbSymbolTableRecord
100
AcDbTextStyleTableRecord
  2
SLDTEXTSTYLE0
 70
     0
 40
0.0
 41
0.75
 50
0.0
 71
     0
 42
3.5
  3
TXT
  4

  0
ENDTAB
  0
TABLE
  2
VIEW
  5
6
330
0
100
AcDbSymbolTable
 70
     0
  0
ENDTAB
  0
TABLE
  2
UCS
  5
7
330
0
100
AcDbSymbolTable
 70
     0
  0
ENDTAB
  0
TABLE
  2
APPID
  5
9
330
0
100
AcDbSymbolTable
 70
     3
  0
APPID
  5
12
330
9
100
AcDbSymbolTableRecord
100
AcDbRegAppTableRecord
  2
ACAD
 70
     0
  0
APPID
  5
16C
330
9
100
AcDbSymbolTableRecord
100
AcDbRegAppTableRecord
  2
PE_URL
 70
     0
  0
APPID
  5
16D
330
9
100
AcDbSymbolTableRecord
100
AcDbRegAppTableRecord
  2
ACAD_DSTYLE_DIMRADIAL_EXTENSION
 70
     0
  0
ENDTAB
  0
TABLE
  2
DIMSTYLE
  5
A
330
0
100
AcDbSymbolTable
 70
     4
100
AcDbDimStyleTable
  0
DIMSTYLE
105
27
330
A
100
AcDbSymbolTableRecord
100
AcDbDimStyleTableRecord
  2
ISO-25
 70
     0
 41
2.5
 42
0.625
 43
3.75
 44
1.25
 73
     0
 74
     0
 77
     1
 78
     8
140
2.5
141
2.5
143
0.03937007874016
147
0.625
171
     3
172
     1
178
     0
271
     2
272
     2
274
     3
278
    44
283
     0
284
     8
340
11
  0
DIMSTYLE
105
DD
102
{ACAD_REACTORS
330
DC
330
119
330
1CC
330
1D9
330
F1
330
106
102
}
330
A
100
AcDbSymbolTableRecord
100
AcDbDimStyleTableRecord
  2
SLDDIMSTYLE0
 70
     0
 41
3.302
 44
0.0
 45
0.000000001
 73
     0
 74
     0
 77
     1
 78
    12
 79
     3
140
3.5
143
0.0393700787401575
147
0.875
148
0.000000001
170
     1
172
     1
173
     1
178
     0
271
     2
272
     2
276
     2
284
    12
289
     0
340
94
  0
DIMSTYLE
105
F2
102
{ACAD_REACTORS
330
20F
102
}
330
A
100
AcDbSymbolTableRecord
100
AcDbDimStyleTableRecord
  2
SLDDIMSTYLE1
 70
     0
 41
3.302
 44
0.0
 45
0.000000001
 73
     0
 74
     0
 77
     1
 78
     4
 79
     1
140
3.5
143
0.0393700787401575
147
0.875
148
0.000000001
170
     1
173
     1
178
     0
271
     2
272
     2
276
     2
284
    12
340
94
  0
DIMSTYLE
105
16B
102
{ACAD_REACTORS
330
1E6
330
1F5
102
}
330
A
100
AcDbSymbolTableRecord
100
AcDbDimStyleTableRecord
  2
SLDDIMSTYLE2
 70
     0
 41
3.302
 44
0.0
 45
0.000000001
 73
     0
 74
     0
 77
     1
 78
    12
 79
     3
140
3.5
147
0.875
172
     1
173
     1
178
     0
271
     2
272
     2
276
     2
284
    12
289
     0
340
94
  0
ENDTAB
  0
TABLE
  2
BLOCK_RECORD
  5
1
330
0
100
AcDbSymbolTable
 70
    18
  0
BLOCK_RECORD
  5
1F
330
1
100
AcDbSymbolTableRecord
100
AcDbBlockTableRecord
  2
*Model_Space
340
22
  0
BLOCK_RECORD
  5
1B
330
1
100
AcDbSymbolTableRecord
100
AcDbBlockTableRecord
  2
*Paper_Space
340
1E
  0
BLOCK_RECORD
  5
23
330
1
100
AcDbSymbolTableRecord
100
AcDbBlockTableRecord
  2
*Paper_Space0
340
26
  0
BLOCK_RECORD
  5
7F
330
1
100
AcDbSymbolTableRecord
100
AcDbBlockTableRecord
  2
블럭10
340
0
102
{BLKREFS
331
D5
102
}
  0
BLOCK_RECORD
  5
DE
330
1
100
AcDbSymbolTableRecord
100
AcDbBlockTableRecord
  2
_D
340
0
  0
BLOCK_RECORD
  5
F3
330
1
100
AcDbSymbolTableRecord
100
AcDbBlockTableRecord
  2
_D_1
340
0
  0
BLOCK_RECORD
  5
107
330
1
100
AcDbSymbolTableRecord
100
AcDbBlockTableRecord
  2
_D_2
340
0
  0
BLOCK_RECORD
  5
11A
330
1
100
AcDbSymbolTableRecord
100
AcDbBlockTableRecord
  2
_D_3
340
0
  0
BLOCK_RECORD
  5
134
330
1
100
AcDbSymbolTableRecord
100
AcDbBlockTableRecord
  2
SW_DOWELSYMBOL_0
340
0
102
{BLKREFS
331
13A
331
204
331
0
102
}
  0
BLOCK_RECORD
  5
1F6
330
1
100
AcDbSymbolTableRecord
100
AcDbBlockTableRecord
  2
_D_4
340
0
  0
BLOCK_RECORD
  5
210
330
1
100
AcDbSymbolTableRecord
100
AcDbBlockTableRecord
  2
*D9
340
0
  0
BLOCK_RECORD
  5
21C
330
1
100
AcDbSymbolTableRecord
100
AcDbBlockTableRecord
  2
*D10
340
0
  0
BLOCK_RECORD
  5
228
330
1
100
AcDbSymbolTableRecord
100
AcDbBlockTableRecord
  2
*D11
340
0
  0
BLOCK_RECORD
  5
234
330
1
100
AcDbSymbolTableRecord
100
AcDbBlockTableRecord
  2
*D12
340
0
  0
BLOCK_RECORD
  5
28F
330
1
100
AcDbSymbolTableRecord
100
AcDbBlockTableRecord
  2
*D13
340
0
  0
BLOCK_RECORD
  5
29B
330
1
100
AcDbSymbolTableRecord
100
AcDbBlockTableRecord
  2
*D14
340
0
  0
BLOCK_RECORD
  5
2A7
330
1
100
AcDbSymbolTableRecord
100
AcDbBlockTableRecord
  2
*D15
340
0
  0
BLOCK_RECORD
  5
2B5
330
1
100
AcDbSymbolTableRecord
100
AcDbBlockTableRecord
  2
*D16
340
0
  0
BLOCK_RECORD
  5
2C3
330
1
100
AcDbSymbolTableRecord
100
AcDbBlockTableRecord
  2
*D17
340
0
  0
ENDTAB
  0
ENDSEC
  0
SECTION
  2
BLOCKS
  0
BLOCK
  5
20
330
1F
100
AcDbEntity
  8
0
100
AcDbBlockBegin
  2
*Model_Space
 70
     0
 10
0.0
 20
0.0
 30
0.0
  3
*Model_Space
  1
*Model_Space
  0
ENDBLK
  5
21
330
1F
100
AcDbEntity
  8
0
100
AcDbBlockEnd
  0
BLOCK
  5
1C
330
1B
100
AcDbEntity
 67
     1
  8
0
100
AcDbBlockBegin
  2
*Paper_Space
 70
     0
 10
0.0
 20
0.0
 30
0.0
  3
*Paper_Space
  1
*Paper_Space
  0
ENDBLK
  5
1D
330
1B
100
AcDbEntity
 67
     1
  8
0
100
AcDbBlockEnd
  0
BLOCK
  5
24
330
23
100
AcDbEntity
  8
0
100
AcDbBlockBegin
  2
*Paper_Space0
 70
     0
 10
0.0
 20
0.0
 30
0.0
  3
*Paper_Space0
  1
*Paper_Space0
  0
ENDBLK
  5
25
330
23
100
AcDbEntity
  8
0
100
AcDbBlockEnd
  0
BLOCK
  5
80
330
7F
100
AcDbEntity
  8
0
100
AcDbBlockBegin
  2
블럭10
 70
     2
 10
0.0
 20
0.0
 30
0.0
  3
블럭10
  1
블럭10
  0
ELLIPSE
  5
82
330
7F
100
AcDbEntity
  8
중심선
100
AcDbEllipse
 10
20.54032771741204
 20
12.0471743016438
 30
0.0
 11
6.600054785286829
 21
-1.261213355974178E-13
 31
0.0
210
0.0
220
0.0
230
1.0
 40
0.636358354079598
 41
0.9219305317359503
 42
6.513795318482858
  0
ELLIPSE
  5
83
330
7F
100
AcDbEntity
  8
중심선
100
AcDbEllipse
 10
20.54032771746488
 20
12.04717430159265
 30
0.0
 11
3.960054785062283
 21
1.540847449632565E-10
 31
0.0
210
0.0
220
0.0
230
1.0
 40
0.3939339440162632
 41
1.131841032648279
 42
5.62031148352944
  0
LINE
  5
84
330
7F
100
AcDbEntity
  8
중심선
100
AcDbLine
 10
2.268634060543552
 20
16.24717430164393
 30
0.0
 11
5.714909304380834
 21
16.24717430164393
 31
0.0
  0
LINE
  5
85
330
7F
100
AcDbEntity
  8
중심선
100
AcDbLine
 10
5.245725140726316
 20
7.84717430164391
 30
0.0
 11
8.692000384563599
 21
7.84717430164391
 31
0.0
  0
LINE
  5
86
330
7F
100
AcDbEntity
  8
중심선
100
AcDbLine
 10
15.74043728645272
 20
16.24717430164393
 30
0.0
 11
8.692000384563599
 21
7.84717430164391
 31
0.0
  0
LINE
  5
87
330
7F
100
AcDbEntity
  8
중심선
100
AcDbLine
 10
0.1404042013395286
 20
13.71084872107135
 30
0.0
 11
3.58671253028996
 21
13.71088815037384
 31
0.0
  0
LINE
  5
88
330
7F
100
AcDbEntity
  8
중심선
100
AcDbLine
 10
2.750260043222114
 20
10.84717430164391
 30
0.0
 11
6.196535287059397
 21
10.84717430164391
 31
0.0
  0
LINE
  5
89
330
7F
100
AcDbEntity
  8
중심선
100
AcDbLine
 10
12.29416204261559
 20
16.24717430164393
 30
0.0
 11
5.245725140726316
 21
7.84717430164391
 31
0.0
  0
LINE
  5
8A
330
7F
100
AcDbEntity
  8
중심선
100
AcDbLine
 10
10.72767329541681
 20
16.24717430164393
 30
0.0
 11
6.196535287059397
 21
10.84717430164391
 31
0.0
  0
LINE
  5
8B
330
7F
100
AcDbEntity
  8
중심선
100
AcDbLine
 10
7.28139805157953
 20
16.24717430164393
 30
0.0
 11
2.750260043222114
 21
10.84717430164391
 31
0.0
  0
LINE
  5
8C
330
7F
100
AcDbEntity
  8
중심선
100
AcDbLine
 10
5.714909304380834
 20
16.24717430164393
 30
0.0
 11
3.58671253028996
 21
13.71088815037384
 31
0.0
  0
LINE
  5
8D
330
7F
100
AcDbEntity
  8
중심선
100
AcDbLine
 10
2.268634060543552
 20
16.24717430164393
 30
0.0
 11
0.1404042013395286
 21
13.71084872107135
 31
0.0
  0
LINE
  5
8E
330
7F
100
AcDbEntity
  8
중심선
100
AcDbLine
 10
7.28139805157953
 20
16.24717430164393
 30
0.0
 11
10.72767329541681
 21
16.24717430164393
 31
0.0
  0
LINE
  5
8F
330
7F
100
AcDbEntity
  8
중심선
100
AcDbLine
 10
12.29416204261559
 20
16.24717430164393
 30
0.0
 11
15.74043728645272
 21
16.24717430164393
 31
0.0
  0
LINE
  5
90
330
7F
100
AcDbEntity
  8
중심선
100
AcDbLine
 10
19.22036997980202
 20
11.08717430171403
 30
0.0
 11
23.66174974927406
 21
11.08717430171406
 31
0.0
  0
LINE
  5
91
330
7F
100
AcDbEntity
  8
중심선
100
AcDbLine
 10
19.22039502424796
 20
13.00717430171391
 30
0.0
 11
19.22036997980202
 21
11.08717430171403
 31
0.0
  0
LINE
  5
92
330
7F
100
AcDbEntity
  8
중심선
100
AcDbLine
 10
19.22039502424796
 20
13.00717430171391
 30
0.0
 11
26.96566020931264
 21
13.00717430171391
 31
0.0
  0
LINE
  5
93
330
7F
100
AcDbEntity
  8
중심선
100
AcDbLine
 10
22.22332737316547
 20
13.45928029700563
 30
0.0
 11
24.52862924686651
 21
15.39360700705356
 31
0.0
  0
ATTDEF
  5
95
330
7F
100
AcDbEntity
  8
FORMAT
 62
     2
100
AcDbText
 10
4.408487351596664
 20
2.075366912832191
 30
0.0
 40
4.233333333333333
  1
E5067008
 41
0.75
  7
SLDTEXTSTYLE0
 11
4.408487351596664
 21
-0.0412997538344756
 31
0.0
100
AcDbAttributeDefinition
  3

  2
AUTOATTR0
 70
     0
 74
     1
  0
ENDBLK
  5
81
330
7F
100
AcDbEntity
  8
0
100
AcDbBlockEnd
  0
BLOCK
  5
DF
330
DE
100
AcDbEntity
  8
0
100
AcDbBlockBegin
  2
_D
 70
     0
 10
0.0
 20
0.0
 30
0.0
  3
_D
  1
_D
  0
LINE
  5
E1
330
DE
100
AcDbEntity
  8
치수문자_일반주서
 62
     0
370
    -2
100
AcDbLine
 10
22.76249999998907
 20
1.541481613724253
 30
0.0
 11
38.55205422822492
 21
1.541481613724311
 31
0.0
  0
LINE
  5
E2
330
DE
100
AcDbEntity
  8
치수문자_일반주서
 62
     0
370
    -2
100
AcDbLine
 10
22.76249999998906
 20
-1.633518386275747
 30
0.0
 11
38.55205422822493
 21
-1.633518386275686
 31
0.0
  0
LINE
  5
E3
330
DE
100
AcDbEntity
  8
치수문자_일반주서
 62
     0
370
    -2
100
AcDbLine
 10
38.55205422822492
 20
1.541481613724311
 30
0.0
 11
38.55205422822478
 21
32.86423161372431
 31
0.0
  0
LINE
  5
E4
330
DE
100
AcDbEntity
  8
치수문자_일반주서
 62
     0
370
    -2
100
AcDbLine
 10
38.55205422822492
 20
1.541481613724311
 30
0.0
 11
38.55205422822493
 21
-1.633518386275686
 31
0.0
  0
LINE
  5
E5
330
DE
100
AcDbEntity
  8
치수문자_일반주서
 62
     0
370
    -2
100
AcDbLine
 10
38.5520542282249
 20
4.843481613724311
 30
0.0
 11
38.55205422822489
 21
8.14548161372431
 31
0.0
  0
LINE
  5
E6
330
DE
100
AcDbEntity
  8
치수문자_일반주서
 62
     0
370
    -2
100
AcDbLine
 10
38.55205422822495
 20
-4.935518386275685
 30
0.0
 11
38.55205422822496
 21
-8.237518386275685
 31
0.0
  0
SOLID
  5
E7
330
DE
100
AcDbEntity
  8
치수문자_일반주서
 62
     0
100
AcDbTrace
 10
38.00172089489157
 20
4.843481613724308
 30
0.0
 11
39.10238756155824
 21
4.843481613724314
 31
0.0
 12
38.55205422822492
 22
1.541481613724311
 32
0.0
 13
38.55205422822492
 23
1.541481613724311
 33
0.0
  0
SOLID
  5
E8
330
DE
100
AcDbEntity
  8
치수문자_일반주서
 62
     0
100
AcDbTrace
 10
39.10238756155828
 20
-4.935518386275683
 30
0.0
 11
38.00172089489161
 21
-4.935518386275688
 31
0.0
 12
38.55205422822493
 22
-1.633518386275686
 32
0.0
 13
38.55205422822493
 23
-1.633518386275686
 33
0.0
  0
MTEXT
  5
E9
330
DE
100
AcDbEntity
  8
치수문자_일반주서
 62
     0
100
AcDbMText
 10
34.17705422822483
 20
20.61423161372429
 30
0.0
 40
3.5
 41
0.0
 71
     2
 72
     1
  1
\A1;%%c3.18 [1/8]
  7
SLDTEXTSTYLE0
 11
-4.475859752819529E-15
 21
1.0
 31
0.0
 73
     1
 44
1.0
  0
POINT
  5
EA
330
DE
100
AcDbEntity
  8
Defpoints
 62
     0
100
AcDbPoint
 10
22.69999999998907
 20
1.541481613724252
 30
0.0
  0
POINT
  5
EB
330
DE
100
AcDbEntity
  8
Defpoints
 62
     0
100
AcDbPoint
 10
22.69999999998906
 20
-1.633518386275748
 30
0.0
  0
POINT
  5
EC
330
DE
100
AcDbEntity
  8
Defpoints
 62
     0
100
AcDbPoint
 10
38.55205422822493
 20
-1.633518386275688
 30
0.0
  0
ENDBLK
  5
E0
330
DE
100
AcDbEntity
  8
0
100
AcDbBlockEnd
  0
BLOCK
  5
F4
330
F3
100
AcDbEntity
  8
0
100
AcDbBlockBegin
  2
_D_1
 70
     0
 10
0.0
 20
0.0
 30
0.0
  3
_D_1
  1
_D_1
  0
LINE
  5
F6
330
F3
100
AcDbEntity
  8
치수문자_일반주서
 62
     0
370
    -2
100
AcDbLine
 10
22.69999999998907
 20
1.592396913284888
 30
0.0
 11
22.69999999998907
 21
25.87882960563984
 31
0.0
  0
LINE
  5
F7
330
F3
100
AcDbEntity
  8
치수문자_일반주서
 62
     0
370
    -2
100
AcDbLine
 10
9.999999999989065
 20
1.599199042880534
 30
0.0
 11
9.999999999989065
 21
25.87882960563984
 31
0.0
  0
LINE
  5
F8
330
F3
100
AcDbEntity
  8
치수문자_일반주서
 62
     0
370
    -2
100
AcDbLine
 10
19.39799999998907
 20
25.87882960563984
 30
0.0
 11
13.30199999998906
 21
25.87882960563984
 31
0.0
  0
SOLID
  5
F9
330
F3
100
AcDbEntity
  8
치수문자_일반주서
 62
     0
100
AcDbTrace
 10
19.39799999998907
 20
25.32849627230651
 30
0.0
 11
19.39799999998907
 21
26.42916293897318
 31
0.0
 12
22.69999999998907
 22
25.87882960563984
 32
0.0
 13
22.69999999998907
 23
25.87882960563984
 33
0.0
  0
SOLID
  5
FA
330
F3
100
AcDbEntity
  8
치수문자_일반주서
 62
     0
100
AcDbTrace
 10
13.30199999998906
 20
26.42916293897318
 30
0.0
 11
13.30199999998906
 21
25.32849627230651
 31
0.0
 12
9.999999999989065
 22
25.87882960563984
 32
0.0
 13
9.999999999989065
 23
25.87882960563984
 33
0.0
  0
MTEXT
  5
FB
330
F3
100
AcDbEntity
  8
치수문자_일반주서
 62
     0
100
AcDbMText
 10
15.84673951886466
 20
30.25382960563984
 30
0.0
 40
3.5
 41
0.0
 71
     2
 72
     1
  1
\A1;12.7 [1/2]
  7
SLDTEXTSTYLE0
 73
     1
 44
1.0
  0
POINT
  5
FC
330
F3
100
AcDbEntity
  8
Defpoints
 62
     0
100
AcDbPoint
 10
22.69999999998907
 20
1.529896913284888
 30
0.0
  0
POINT
  5
FD
330
F3
100
AcDbEntity
  8
Defpoints
 62
     0
100
AcDbPoint
 10
9.999999999989065
 20
1.536699042880534
 30
0.0
  0
POINT
  5
FE
330
F3
100
AcDbEntity
  8
Defpoints
 62
     0
100
AcDbPoint
 10
9.999999999989065
 20
25.87882960563984
 30
0.0
  0
ENDBLK
  5
F5
330
F3
100
AcDbEntity
  8
0
100
AcDbBlockEnd
  0
BLOCK
  5
108
330
107
100
AcDbEntity
  8
0
100
AcDbBlockBegin
  2
_D_2
 70
     0
 10
0.0
 20
0.0
 30
0.0
  3
_D_2
  1
_D_2
  0
LINE
  5
10A
330
107
100
AcDbEntity
  8
치수문자_일반주서
 62
     0
370
    -2
100
AcDbLine
 10
22.69999999998907
 20
1.592396913284888
 30
0.0
 11
22.69999999998907
 21
45.13966160421676
 31
0.0
  0
LINE
  5
10B
330
107
100
AcDbEntity
  8
치수문자_일반주서
 62
     0
370
    -2
100
AcDbLine
 10
-15.40000000001093
 20
1.286481613724253
 30
0.0
 11
-15.40000000001093
 21
45.13966160421676
 31
0.0
  0
LINE
  5
10C
330
107
100
AcDbEntity
  8
치수문자_일반주서
 62
     0
370
    -2
100
AcDbLine
 10
19.39799999998907
 20
45.13966160421676
 30
0.0
 11
-12.09800000001093
 21
45.13966160421676
 31
0.0
  0
SOLID
  5
10D
330
107
100
AcDbEntity
  8
치수문자_일반주서
 62
     0
100
AcDbTrace
 10
19.39799999998907
 20
44.58932827088342
 30
0.0
 11
19.39799999998907
 21
45.68999493755009
 31
0.0
 12
22.69999999998907
 22
45.13966160421676
 32
0.0
 13
22.69999999998907
 23
45.13966160421676
 33
0.0
  0
SOLID
  5
10E
330
107
100
AcDbEntity
  8
치수문자_일반주서
 62
     0
100
AcDbTrace
 10
-12.09800000001093
 20
45.68999493755009
 30
0.0
 11
-12.09800000001093
 21
44.58932827088342
 31
0.0
 12
-15.40000000001093
 22
45.13966160421676
 32
0.0
 13
-15.40000000001093
 23
45.13966160421676
 33
0.0
  0
MTEXT
  5
10F
330
107
100
AcDbEntity
  8
치수문자_일반주서
 62
     0
100
AcDbMText
 10
3.649999999989063
 20
49.51466160421676
 30
0.0
 40
3.5
 41
0.0
 71
     2
 72
     1
  1
\A1;38.1 [1 1/2]
  7
SLDTEXTSTYLE0
 73
     1
 44
1.0
  0
POINT
  5
110
330
107
100
AcDbEntity
  8
Defpoints
 62
     0
100
AcDbPoint
 10
22.69999999998907
 20
1.529896913284888
 30
0.0
  0
POINT
  5
111
330
107
100
AcDbEntity
  8
Defpoints
 62
     0
100
AcDbPoint
 10
-15.40000000001093
 20
1.223981613724253
 30
0.0
  0
POINT
  5
112
330
107
100
AcDbEntity
  8
Defpoints
 62
     0
100
AcDbPoint
 10
-15.40000000001093
 20
45.13966160421676
 30
0.0
  0
ENDBLK
  5
109
330
107
100
AcDbEntity
  8
0
100
AcDbBlockEnd
  0
BLOCK
  5
11B
330
11A
100
AcDbEntity
  8
0
100
AcDbBlockBegin
  2
_D_3
 70
     0
 10
0.0
 20
0.0
 30
0.0
  3
_D_3
  1
_D_3
  0
LINE
  5
11D
330
11A
100
AcDbEntity
  8
치수문자_일반주서
 62
     0
370
    -2
100
AcDbLine
 10
-15.14500000001093
 20
1.541481613724244
 30
0.0
 11
-21.73453676301374
 21
1.541481613724219
 31
0.0
  0
LINE
  5
11E
330
11A
100
AcDbEntity
  8
치수문자_일반주서
 62
     0
370
    -2
100
AcDbLine
 10
-15.14500000001093
 20
-1.63351838627574
 30
0.0
 11
-21.73453676301373
 21
-1.633518386275764
 31
0.0
  0
LINE
  5
11F
330
11A
100
AcDbEntity
  8
치수문자_일반주서
 62
     0
370
    -2
100
AcDbLine
 10
-21.73453676301374
 20
1.541481613724219
 30
0.0
 11
-21.73453676301385
 21
32.86423161372422
 31
0.0
  0
LINE
  5
120
330
11A
100
AcDbEntity
  8
치수문자_일반주서
 62
     0
370
    -2
100
AcDbLine
 10
-21.73453676301374
 20
1.541481613724219
 30
0.0
 11
-21.73453676301373
 21
-1.633518386275764
 31
0.0
  0
LINE
  5
121
330
11A
100
AcDbEntity
  8
치수문자_일반주서
 62
     0
370
    -2
100
AcDbLine
 10
-21.73453676301375
 20
4.843481613724219
 30
0.0
 11
-21.73453676301376
 21
8.145481613724218
 31
0.0
  0
LINE
  5
122
330
11A
100
AcDbEntity
  8
치수문자_일반주서
 62
     0
370
    -2
100
AcDbLine
 10
-21.73453676301372
 20
-4.935518386275763
 30
0.0
 11
-21.73453676301371
 21
-8.237518386275763
 31
0.0
  0
SOLID
  5
123
330
11A
100
AcDbEntity
  8
치수문자_일반주서
 62
     0
100
AcDbTrace
 10
-22.28487009634709
 20
4.843481613724217
 30
0.0
 11
-21.18420342968042
 21
4.84348161372422
 31
0.0
 12
-21.73453676301374
 22
1.541481613724219
 32
0.0
 13
-21.73453676301374
 23
1.541481613724219
 33
0.0
  0
SOLID
  5
124
330
11A
100
AcDbEntity
  8
치수문자_일반주서
 62
     0
100
AcDbTrace
 10
-21.18420342968039
 20
-4.935518386275762
 30
0.0
 11
-22.28487009634706
 21
-4.935518386275765
 31
0.0
 12
-21.73453676301373
 22
-1.633518386275764
 32
0.0
 13
-21.73453676301373
 23
-1.633518386275764
 33
0.0
  0
MTEXT
  5
125
330
11A
100
AcDbEntity
  8
치수문자_일반주서
 62
     0
100
AcDbMText
 10
-26.10953676301381
 20
20.61423161372421
 30
0.0
 40
3.5
 41
0.0
 71
     2
 72
     1
  1
\A1;%%c3.18 [1/8]
  7
SLDTEXTSTYLE0
 11
-3.356894814614664E-15
 21
1.0
 31
0.0
 73
     1
 44
1.0
  0
POINT
  5
2CD
330
11A
100
AcDbEntity
  8
Defpoints
 62
     0
100
AcDbPoint
 10
-15.08250000001093
 20
1.541481613724244
 30
0.0
  0
POINT
  5
2CE
330
11A
100
AcDbEntity
  8
Defpoints
 62
     0
100
AcDbPoint
 10
-15.08250000001093
 20
-1.633518386275739
 30
0.0
  0
POINT
  5
2CF
330
11A
100
AcDbEntity
  8
Defpoints
 62
     0
100
AcDbPoint
 10
-21.73453676301373
 20
-1.633518386275764
 30
0.0
  0
ENDBLK
  5
11C
330
11A
100
AcDbEntity
  8
0
100
AcDbBlockEnd
  0
BLOCK
  5
135
330
134
100
AcDbEntity
  8
0
100
AcDbBlockBegin
  2
SW_DOWELSYMBOL_0
 70
     0
 10
0.0
 20
0.0
 30
0.0
  3
SW_DOWELSYMBOL_0
  1
SW_DOWELSYMBOL_0
  0
CIRCLE
  5
137
330
134
100
AcDbEntity
  8
해칭선
 62
     0
100
AcDbCircle
 10
0.0
 20
0.0
 30
0.0
 40
3.0
  0
HATCH
  5
138
330
134
100
AcDbEntity
  8
0
  6
Continuous
 62
     0
370
     0
100
AcDbHatch
 10
0.0
 20
0.0
 30
0.0
210
0.0
220
0.0
230
1.0
  2
SOLID
 70
     1
 71
     0
 91
        1
 92
        0
 93
        3
 72
     2
 10
0.0
 20
0.0
 40
3.0
 50
0.0
 51
90.0
 73
     1
 72
     1
 10
0.0
 20
3.0
 11
0.0
 21
0.0
 72
     1
 10
0.0
 20
0.0
 11
3.0
 21
0.0
 97
        0
 75
     0
 76
     1
 98
        1
 10
0.0
 20
0.0
  0
HATCH
  5
139
330
134
100
AcDbEntity
  8
0
  6
Continuous
 62
     0
370
     0
100
AcDbHatch
 10
0.0
 20
0.0
 30
0.0
210
0.0
220
0.0
230
1.0
  2
SOLID
 70
     1
 71
     0
 91
        1
 92
        0
 93
        3
 72
     2
 10
0.0
 20
0.0
 40
3.0
 50
180.0
 51
270.0000000000008
 73
     1
 72
     1
 10
0.0
 20
-3.0
 11
0.0
 21
0.0
 72
     1
 10
0.0
 20
0.0
 11
-2.999999999999999
 21
0.0
 97
        0
 75
     0
 76
     1
 98
        1
 10
0.0
 20
0.0
  0
ENDBLK
  5
136
330
134
100
AcDbEntity
  8
0
100
AcDbBlockEnd
  0
BLOCK
  5
1F7
330
1F6
100
AcDbEntity
  8
0
100
AcDbBlockBegin
  2
_D_4
 70
     0
 10
0.0
 20
0.0
 30
0.0
  3
_D_4
  1
_D_4
  0
LINE
  5
1F8
330
1F6
100
AcDbEntity
  8
치수문자_일반주서
 62
     0
370
    -2
100
AcDbLine
 10
102.4375000000001
 20
36.22143424691529
 30
0.0
 11
117.3750000000001
 21
36.22143424691535
 31
0.0
  0
LINE
  5
1F9
330
1F6
100
AcDbEntity
  8
치수문자_일반주서
 62
     0
370
    -2
100
AcDbLine
 10
102.4375000000001
 20
22.22143424691529
 30
0.0
 11
117.3750000000001
 21
22.22143424691535
 31
0.0
  0
LINE
  5
1FA
330
1F6
100
AcDbEntity
  8
치수문자_일반주서
 62
     0
370
    -2
100
AcDbLine
 10
117.3750000000001
 20
36.22143424691535
 30
0.0
 11
117.3750000000001
 21
22.22143424691535
 31
0.0
  0
LINE
  5
1FB
330
1F6
100
AcDbEntity
  8
치수문자_일반주서
 62
     0
370
    -2
100
AcDbLine
 10
117.3750000000001
 20
39.52343424691535
 30
0.0
 11
117.375
 21
42.82543424691535
 31
0.0
  0
LINE
  5
1FC
330
1F6
100
AcDbEntity
  8
치수문자_일반주서
 62
     0
370
    -2
100
AcDbLine
 10
117.3750000000001
 20
18.91943424691535
 30
0.0
 11
117.3750000000001
 21
15.61743424691535
 31
0.0
  0
SOLID
  5
1FD
330
1F6
100
AcDbEntity
  8
치수문자_일반주서
 62
     0
100
AcDbTrace
 10
116.8246666666667
 20
39.52343424691535
 30
0.0
 11
117.9253333333334
 21
39.52343424691535
 31
0.0
 12
117.3750000000001
 22
36.22143424691535
 32
0.0
 13
117.3750000000001
 23
36.22143424691535
 33
0.0
  0
SOLID
  5
1FE
330
1F6
100
AcDbEntity
  8
치수문자_일반주서
 62
     0
100
AcDbTrace
 10
117.9253333333335
 20
18.91943424691535
 30
0.0
 11
116.8246666666668
 21
18.91943424691535
 31
0.0
 12
117.3750000000001
 22
22.22143424691535
 32
0.0
 13
117.3750000000001
 23
22.22143424691535
 33
0.0
  0
MTEXT
  5
1FF
330
1F6
100
AcDbEntity
  8
치수문자_일반주서
 62
     0
100
AcDbMText
 10
113.0000000000001
 20
29.28713862862833
 30
0.0
 40
3.5
 41
0.0
 71
     2
 72
     1
  1
\A1;%%c14
  7
SLDTEXTSTYLE0
 11
-3.045183153257572E-15
 21
1.0
 31
0.0
 73
     1
 44
1.0
  0
POINT
  5
200
330
1F6
100
AcDbEntity
  8
Defpoints
 62
     0
100
AcDbPoint
 10
102.3750000000001
 20
36.22143424691529
 30
0.0
  0
POINT
  5
201
330
1F6
100
AcDbEntity
  8
Defpoints
 62
     0
100
AcDbPoint
 10
102.3750000000001
 20
22.22143424691529
 30
0.0
  0
POINT
  5
202
330
1F6
100
AcDbEntity
  8
Defpoints
 62
     0
100
AcDbPoint
 10
117.3750000000001
 20
22.22143424691535
 30
0.0
  0
ENDBLK
  5
203
330
1F6
100
AcDbEntity
  8
0
100
AcDbBlockEnd
  0
BLOCK
  5
211
330
210
100
AcDbEntity
  8
0
100
AcDbBlockBegin
  2
*D9
 70
     1
 10
0.0
 20
0.0
 30
0.0
  3
*D9
  1
*D8
  0
LINE
  5
212
330
210
100
AcDbEntity
  8
치수문자_일반주서
 62
     0
370
    -2
100
AcDbLine
 10
103.8657751816695
 20
19.48229575403651
 30
0.0
 11
120.1921280501954
 21
-7.081888143622854
 31
0.0
  0
MTEXT
  5
213
330
210
100
AcDbEntity
  8
치수문자_일반주서
 62
     0
100
AcDbMText
 10
115.6706384014277
 20
5.288158154535728
 30
0.0
 40
3.5
 41
0.0
 71
     5
 72
     1
  1
\A1;R.50 [R0.02]
  7
SLDTEXTSTYLE0
 11
0.5236126201129557
 21
-0.8519564684057781
 31
0.0
 73
     1
 44
1.0
  0
SOLID
  5
214
330
210
100
AcDbEntity
  8
치수문자_일반주서
 62
     0
100
AcDbTrace
 10
104.3346352247821
 20
19.77045723263868
 30
0.0
 11
103.3969151385569
 21
19.19413427543435
 31
0.0
 12
102.1368063100565
 22
22.29545601271239
 32
0.0
 13
102.1368063100565
 23
22.29545601271239
 33
0.0
  0
LINE
  5
215
330
210
100
AcDbEntity
  8
치수문자_일반주서
 62
     0
100
AcDbLine
 10
101.785
 20
22.72143424691529
 30
0.0
 11
101.965
 21
22.72143424691529
 31
0.0
  0
LINE
  5
216
330
210
100
AcDbEntity
  8
치수문자_일반주서
 62
     0
100
AcDbLine
 10
101.875
 20
22.63143424691529
 30
0.0
 11
101.875
 21
22.81143424691529
 31
0.0
  0
POINT
  5
242
330
210
100
AcDbEntity
  8
Defpoints
 62
     0
100
AcDbPoint
 10
102.1368063100565
 20
22.29545601271239
 30
0.0
  0
POINT
  5
243
330
210
100
AcDbEntity
  8
Defpoints
 62
     0
100
AcDbPoint
 10
101.875
 20
22.72143424691529
 30
0.0
  0
ENDBLK
  5
217
330
210
100
AcDbEntity
  8
0
100
AcDbBlockEnd
  0
BLOCK
  5
21D
330
21C
100
AcDbEntity
  8
0
100
AcDbBlockBegin
  2
*D10
 70
     1
 10
0.0
 20
0.0
 30
0.0
  3
*D10
  1
*D10
  0
LINE
  5
21F
330
21C
100
AcDbEntity
  8
치수문자_일반주서
 62
     0
370
    -2
100
AcDbLine
 10
19.37500000000004
 20
35.78393424691529
 30
0.0
 11
19.37500000000004
 21
70.88391841499404
 31
0.0
  0
LINE
  5
220
330
21C
100
AcDbEntity
  8
치수문자_일반주서
 62
     0
370
    -2
100
AcDbLine
 10
102.3750000000001
 20
36.34643424691529
 30
0.0
 11
102.3750000000001
 21
70.88391841499404
 31
0.0
  0
LINE
  5
221
330
21C
100
AcDbEntity
  8
치수문자_일반주서
 62
     0
370
    -2
100
AcDbLine
 10
22.67700000000004
 20
70.88391841499404
 30
0.0
 11
99.07300000000006
 21
70.88391841499404
 31
0.0
  0
SOLID
  5
222
330
21C
100
AcDbEntity
  8
치수문자_일반주서
 62
     0
100
AcDbTrace
 10
22.67700000000004
 20
71.43425174832737
 30
0.0
 11
22.67700000000004
 21
70.33358508166071
 31
0.0
 12
19.37500000000004
 22
70.88391841499404
 32
0.0
 13
19.37500000000004
 23
70.88391841499404
 33
0.0
  0
SOLID
  5
223
330
21C
100
AcDbEntity
  8
치수문자_일반주서
 62
     0
100
AcDbTrace
 10
99.07300000000006
 20
70.33358508166071
 30
0.0
 11
99.07300000000006
 21
71.43425174832737
 31
0.0
 12
102.3750000000001
 22
70.88391841499404
 32
0.0
 13
102.3750000000001
 23
70.88391841499404
 33
0.0
  0
MTEXT
  5
224
330
21C
100
AcDbEntity
  8
치수문자_일반주서
 62
     0
100
AcDbMText
 10
60.87500000000005
 20
75.25891841499404
 30
0.0
 40
3.5
 41
0.0
 71
     2
 72
     1
  1
\A1;83 [3.27]
  7
SLDTEXTSTYLE0
 73
     1
 44
1.0
  0
POINT
  5
225
330
21C
100
AcDbEntity
  8
Defpoints
 62
     0
100
AcDbPoint
 10
19.37500000000004
 20
35.72143424691529
 30
0.0
  0
POINT
  5
226
330
21C
100
AcDbEntity
  8
Defpoints
 62
     0
100
AcDbPoint
 10
102.3750000000001
 20
36.28393424691529
 30
0.0
  0
POINT
  5
227
330
21C
100
AcDbEntity
  8
Defpoints
 62
     0
100
AcDbPoint
 10
102.3750000000001
 20
70.88391841499404
 30
0.0
  0
ENDBLK
  5
21E
330
21C
100
AcDbEntity
  8
0
100
AcDbBlockEnd
  0
BLOCK
  5
229
330
228
100
AcDbEntity
  8
0
100
AcDbBlockBegin
  2
*D11
 70
     1
 10
0.0
 20
0.0
 30
0.0
  3
*D11
  1
*D11
  0
LINE
  5
22B
330
228
100
AcDbEntity
  8
치수문자_일반주서
 62
     0
370
    -2
100
AcDbLine
 10
76.37504186422882
 20
28.62038676313042
 30
0.0
 11
76.37504186422882
 21
61.90091383617725
 31
0.0
  0
LINE
  5
22C
330
228
100
AcDbEntity
  8
치수문자_일반주서
 62
     0
370
    -2
100
AcDbLine
 10
102.3750000000001
 20
36.28393424691529
 30
0.0
 11
102.3750000000001
 21
61.90091383617725
 31
0.0
  0
LINE
  5
22D
330
228
100
AcDbEntity
  8
치수문자_일반주서
 62
     0
370
    -2
100
AcDbLine
 10
79.67704186422881
 20
61.90091383617725
 30
0.0
 11
99.07300000000006
 21
61.90091383617725
 31
0.0
  0
SOLID
  5
22E
330
228
100
AcDbEntity
  8
치수문자_일반주서
 62
     0
100
AcDbTrace
 10
79.67704186422881
 20
62.45124716951059
 30
0.0
 11
79.67704186422881
 21
61.35058050284392
 31
0.0
 12
76.37504186422882
 22
61.90091383617725
 32
0.0
 13
76.37504186422882
 23
61.90091383617725
 33
0.0
  0
SOLID
  5
22F
330
228
100
AcDbEntity
  8
치수문자_일반주서
 62
     0
100
AcDbTrace
 10
99.07300000000006
 20
61.35058050284392
 30
0.0
 11
99.07300000000006
 21
62.45124716951059
 31
0.0
 12
102.3750000000001
 22
61.90091383617725
 32
0.0
 13
102.3750000000001
 23
61.90091383617725
 33
0.0
  0
MTEXT
  5
230
330
228
100
AcDbEntity
  8
치수문자_일반주서
 62
     0
100
AcDbMText
 10
89.42159572693208
 20
66.27591383617725
 30
0.0
 40
3.5
 41
0.0
 71
     2
 72
     1
  1
\A1;26 [1.02]
  7
SLDTEXTSTYLE0
 73
     1
 44
1.0
  0
POINT
  5
231
330
228
100
AcDbEntity
  8
Defpoints
 62
     0
100
AcDbPoint
 10
76.37504186422882
 20
28.55788676313042
 30
0.0
  0
POINT
  5
232
330
228
100
AcDbEntity
  8
Defpoints
 62
     0
100
AcDbPoint
 10
102.3750000000001
 20
36.22143424691529
 30
0.0
  0
POINT
  5
233
330
228
100
AcDbEntity
  8
Defpoints
 62
     0
100
AcDbPoint
 10
102.3750000000001
 20
61.90091383617725
 30
0.0
  0
ENDBLK
  5
22A
330
228
100
AcDbEntity
  8
0
100
AcDbBlockEnd
  0
BLOCK
  5
235
330
234
100
AcDbEntity
  8
0
100
AcDbBlockBegin
  2
*D12
 70
     1
 10
0.0
 20
0.0
 30
0.0
  3
*D12
  1
*D12
  0
LINE
  5
237
330
234
100
AcDbEntity
  8
치수문자_일반주서
 62
     0
370
    -2
100
AcDbLine
 10
19.81250000000005
 20
36.22143424691529
 30
0.0
 11
4.374999999999983
 21
36.22143424691524
 31
0.0
  0
LINE
  5
238
330
234
100
AcDbEntity
  8
치수문자_일반주서
 62
     0
370
    -2
100
AcDbLine
 10
19.81250000000005
 20
22.22143424691529
 30
0.0
 11
4.375000000000032
 21
22.22143424691524
 31
0.0
  0
LINE
  5
239
330
234
100
AcDbEntity
  8
치수문자_일반주서
 62
     0
370
    -2
100
AcDbLine
 10
4.374999999999983
 20
36.22143424691524
 30
0.0
 11
4.375000000000032
 21
22.22143424691524
 31
0.0
  0
LINE
  5
23A
330
234
100
AcDbEntity
  8
치수문자_일반주서
 62
     0
370
    -2
100
AcDbLine
 10
4.374999999999972
 20
39.52343424691524
 30
0.0
 11
4.37499999999996
 21
42.82543424691524
 31
0.0
  0
LINE
  5
23B
330
234
100
AcDbEntity
  8
치수문자_일반주서
 62
     0
370
    -2
100
AcDbLine
 10
4.375000000000044
 20
18.91943424691524
 30
0.0
 11
4.375000000000055
 21
15.61743424691524
 31
0.0
  0
SOLID
  5
23C
330
234
100
AcDbEntity
  8
치수문자_일반주서
 62
     0
100
AcDbTrace
 10
3.824666666666638
 20
39.52343424691524
 30
0.0
 11
4.925333333333305
 21
39.52343424691524
 31
0.0
 12
4.374999999999983
 22
36.22143424691524
 32
0.0
 13
4.374999999999983
 23
36.22143424691524
 33
0.0
  0
SOLID
  5
23D
330
234
100
AcDbEntity
  8
치수문자_일반주서
 62
     0
100
AcDbTrace
 10
4.925333333333377
 20
18.91943424691524
 30
0.0
 11
3.82466666666671
 21
18.91943424691523
 31
0.0
 12
4.375000000000032
 22
22.22143424691524
 32
0.0
 13
4.375000000000032
 23
22.22143424691524
 33
0.0
  0
MTEXT
  5
23E
330
234
100
AcDbEntity
  8
치수문자_일반주서
 62
     0
100
AcDbMText
 10
0.0000000000000071
 20
29.22143424691528
 30
0.0
 40
3.5
 41
0.0
 71
     2
 72
     1
  1
\A1;%%c14
  7
SLDTEXTSTYLE0
 11
-3.489272363107635E-15
 21
1.0
 31
0.0
 73
     1
 44
1.0
  0
POINT
  5
23F
330
234
100
AcDbEntity
  8
Defpoints
 62
     0
100
AcDbPoint
 10
19.87500000000005
 20
36.22143424691529
 30
0.0
  0
POINT
  5
240
330
234
100
AcDbEntity
  8
Defpoints
 62
     0
100
AcDbPoint
 10
19.87500000000005
 20
22.22143424691529
 30
0.0
  0
POINT
  5
241
330
234
100
AcDbEntity
  8
Defpoints
 62
     0
100
AcDbPoint
 10
4.375000000000043
 20
22.22143424691524
 30
0.0
  0
ENDBLK
  5
236
330
234
100
AcDbEntity
  8
0
100
AcDbBlockEnd
  0
BLOCK
  5
290
330
28F
100
AcDbEntity
  8
0
100
AcDbBlockBegin
  2
*D13
 70
     1
 10
0.0
 20
0.0
 30
0.0
  3
*D13
  1
*D13
  0
LINE
  5
292
330
28F
100
AcDbEntity
  8
치수문자_일반주서
 62
     0
370
    -2
100
AcDbLine
 10
-38.01344815978652
 20
101.1287368670732
 30
0.0
 11
-38.01344815978652
 21
136.228721035152
 31
0.0
  0
LINE
  5
293
330
28F
100
AcDbEntity
  8
치수문자_일반주서
 62
     0
370
    -2
100
AcDbLine
 10
44.98655184021349
 20
101.6912368670732
 30
0.0
 11
44.98655184021349
 21
136.228721035152
 31
0.0
  0
LINE
  5
294
330
28F
100
AcDbEntity
  8
치수문자_일반주서
 62
     0
370
    -2
100
AcDbLine
 10
-34.71144815978652
 20
136.228721035152
 30
0.0
 11
41.68455184021349
 21
136.228721035152
 31
0.0
  0
SOLID
  5
295
330
28F
100
AcDbEntity
  8
치수문자_일반주서
 62
     0
100
AcDbTrace
 10
-34.71144815978652
 20
136.7790543684853
 30
0.0
 11
-34.71144815978652
 21
135.6783877018187
 31
0.0
 12
-38.01344815978652
 22
136.228721035152
 32
0.0
 13
-38.01344815978652
 23
136.228721035152
 33
0.0
  0
SOLID
  5
296
330
28F
100
AcDbEntity
  8
치수문자_일반주서
 62
     0
100
AcDbTrace
 10
41.68455184021349
 20
135.6783877018187
 30
0.0
 11
41.68455184021349
 21
136.7790543684853
 31
0.0
 12
44.98655184021349
 22
136.228721035152
 32
0.0
 13
44.98655184021349
 23
136.228721035152
 33
0.0
  0
MTEXT
  5
297
330
28F
100
AcDbEntity
  8
치수문자_일반주서
 62
     0
100
AcDbMText
 10
3.486551840213487
 20
140.603721035152
 30
0.0
 40
3.5
 41
0.0
 71
     2
 72
     1
  1
\A1;83 [3.27]
  7
SLDTEXTSTYLE0
 73
     1
 44
1.0
  0
POINT
  5
298
330
28F
100
AcDbEntity
  8
Defpoints
 62
     0
100
AcDbPoint
 10
-38.01344815978652
 20
101.0662368670732
 30
0.0
  0
POINT
  5
299
330
28F
100
AcDbEntity
  8
Defpoints
 62
     0
100
AcDbPoint
 10
44.98655184021349
 20
101.6287368670732
 30
0.0
  0
POINT
  5
29A
330
28F
100
AcDbEntity
  8
Defpoints
 62
     0
100
AcDbPoint
 10
44.98655184021349
 20
136.228721035152
 30
0.0
  0
ENDBLK
  5
291
330
28F
100
AcDbEntity
  8
0
100
AcDbBlockEnd
  0
BLOCK
  5
29C
330
29B
100
AcDbEntity
  8
0
100
AcDbBlockBegin
  2
*D14
 70
     1
 10
0.0
 20
0.0
 30
0.0
  3
*D14
  1
*D14
  0
LINE
  5
29E
330
29B
100
AcDbEntity
  8
치수문자_일반주서
 62
     0
370
    -2
100
AcDbLine
 10
18.98659370444226
 20
93.96518938328835
 30
0.0
 11
18.98659370444226
 21
127.2457164563352
 31
0.0
  0
LINE
  5
29F
330
29B
100
AcDbEntity
  8
치수문자_일반주서
 62
     0
370
    -2
100
AcDbLine
 10
44.98655184021349
 20
101.6287368670732
 30
0.0
 11
44.98655184021349
 21
127.2457164563352
 31
0.0
  0
LINE
  5
2A0
330
29B
100
AcDbEntity
  8
치수문자_일반주서
 62
     0
370
    -2
100
AcDbLine
 10
22.28859370444226
 20
127.2457164563352
 30
0.0
 11
41.68455184021349
 21
127.2457164563352
 31
0.0
  0
SOLID
  5
2A1
330
29B
100
AcDbEntity
  8
치수문자_일반주서
 62
     0
100
AcDbTrace
 10
22.28859370444226
 20
127.7960497896685
 30
0.0
 11
22.28859370444226
 21
126.6953831230018
 31
0.0
 12
18.98659370444226
 22
127.2457164563352
 32
0.0
 13
18.98659370444226
 23
127.2457164563352
 33
0.0
  0
SOLID
  5
2A2
330
29B
100
AcDbEntity
  8
치수문자_일반주서
 62
     0
100
AcDbTrace
 10
41.68455184021349
 20
126.6953831230018
 30
0.0
 11
41.68455184021349
 21
127.7960497896685
 31
0.0
 12
44.98655184021349
 22
127.2457164563352
 32
0.0
 13
44.98655184021349
 23
127.2457164563352
 33
0.0
  0
MTEXT
  5
2A3
330
29B
100
AcDbEntity
  8
치수문자_일반주서
 62
     0
100
AcDbMText
 10
32.03314756714552
 20
131.6207164563352
 30
0.0
 40
3.5
 41
0.0
 71
     2
 72
     1
  1
\A1;26 [1.02]
  7
SLDTEXTSTYLE0
 73
     1
 44
1.0
  0
POINT
  5
2A4
330
29B
100
AcDbEntity
  8
Defpoints
 62
     0
100
AcDbPoint
 10
18.98659370444226
 20
93.90268938328835
 30
0.0
  0
POINT
  5
2A5
330
29B
100
AcDbEntity
  8
Defpoints
 62
     0
100
AcDbPoint
 10
44.98655184021349
 20
101.5662368670732
 30
0.0
  0
POINT
  5
2A6
330
29B
100
AcDbEntity
  8
Defpoints
 62
     0
100
AcDbPoint
 10
44.98655184021349
 20
127.2457164563352
 30
0.0
  0
ENDBLK
  5
29D
330
29B
100
AcDbEntity
  8
0
100
AcDbBlockEnd
  0
BLOCK
  5
2A8
330
2A7
100
AcDbEntity
  8
0
100
AcDbBlockBegin
  2
*D15
 70
     1
 10
0.0
 20
0.0
 30
0.0
  3
*D15
  1
*D15
  0
LINE
  5
2AA
330
2A7
100
AcDbEntity
  8
치수문자_일반주서
 62
     0
370
    -2
100
AcDbLine
 10
-37.57594815978651
 20
101.5662368670732
 30
0.0
 11
-53.01344815978658
 21
101.5662368670732
 31
0.0
  0
LINE
  5
2AB
330
2A7
100
AcDbEntity
  8
치수문자_일반주서
 62
     0
370
    -2
100
AcDbLine
 10
-37.57594815978651
 20
87.56623686707321
 30
0.0
 11
-53.01344815978653
 21
87.56623686707316
 31
0.0
  0
LINE
  5
2AC
330
2A7
100
AcDbEntity
  8
치수문자_일반주서
 62
     0
370
    -2
100
AcDbLine
 10
-53.01344815978658
 20
101.5662368670732
 30
0.0
 11
-53.01344815978653
 21
87.56623686707316
 31
0.0
  0
LINE
  5
2AD
330
2A7
100
AcDbEntity
  8
치수문자_일반주서
 62
     0
370
    -2
100
AcDbLine
 10
-53.01344815978659
 20
104.8682368670732
 30
0.0
 11
-53.01344815978661
 21
108.1702368670732
 31
0.0
  0
LINE
  5
2AE
330
2A7
100
AcDbEntity
  8
치수문자_일반주서
 62
     0
370
    -2
100
AcDbLine
 10
-53.01344815978651
 20
84.26423686707315
 30
0.0
 11
-53.0134481597865
 21
80.96223686707314
 31
0.0
  0
SOLID
  5
2AF
330
2A7
100
AcDbEntity
  8
치수문자_일반주서
 62
     0
100
AcDbTrace
 10
-53.56378149311993
 20
104.8682368670732
 30
0.0
 11
-52.46311482645326
 21
104.8682368670732
 31
0.0
 12
-53.01344815978658
 22
101.5662368670732
 32
0.0
 13
-53.01344815978658
 23
101.5662368670732
 33
0.0
  0
SOLID
  5
2B0
330
2A7
100
AcDbEntity
  8
치수문자_일반주서
 62
     0
100
AcDbTrace
 10
-52.46311482645318
 20
84.26423686707315
 30
0.0
 11
-53.56378149311985
 21
84.26423686707315
 31
0.0
 12
-53.01344815978653
 22
87.56623686707316
 32
0.0
 13
-53.01344815978653
 23
87.56623686707316
 33
0.0
  0
MTEXT
  5
2B1
330
2A7
100
AcDbEntity
  8
치수문자_일반주서
 62
     0
100
AcDbMText
 10
-57.38844815978656
 20
94.5662368670732
 30
0.0
 40
3.5
 41
0.0
 71
     2
 72
     1
  1
\A1;%%c14
  7
SLDTEXTSTYLE0
 11
-3.552713678800501E-15
 21
1.0
 31
0.0
 73
     1
 44
1.0
  0
POINT
  5
2B2
330
2A7
100
AcDbEntity
  8
Defpoints
 62
     0
100
AcDbPoint
 10
-37.51344815978651
 20
101.5662368670732
 30
0.0
  0
POINT
  5
2B3
330
2A7
100
AcDbEntity
  8
Defpoints
 62
     0
100
AcDbPoint
 10
-37.51344815978651
 20
87.56623686707321
 30
0.0
  0
POINT
  5
2B4
330
2A7
100
AcDbEntity
  8
Defpoints
 62
     0
100
AcDbPoint
 10
-53.01344815978653
 20
87.56623686707316
 30
0.0
  0
ENDBLK
  5
2A9
330
2A7
100
AcDbEntity
  8
0
100
AcDbBlockEnd
  0
BLOCK
  5
2B6
330
2B5
100
AcDbEntity
  8
0
100
AcDbBlockBegin
  2
*D16
 70
     1
 10
0.0
 20
0.0
 30
0.0
  3
*D16
  1
*D16
  0
LINE
  5
2B8
330
2B5
100
AcDbEntity
  8
치수문자_일반주서
 62
     0
370
    -2
100
AcDbLine
 10
45.04905184021351
 20
101.5662368670732
 30
0.0
 11
59.9865518402135
 21
101.5662368670733
 31
0.0
  0
LINE
  5
2B9
330
2B5
100
AcDbEntity
  8
치수문자_일반주서
 62
     0
370
    -2
100
AcDbLine
 10
45.04905184021349
 20
87.56623686707321
 30
0.0
 11
59.98655184021355
 21
87.56623686707327
 31
0.0
  0
LINE
  5
2BA
330
2B5
100
AcDbEntity
  8
치수문자_일반주서
 62
     0
370
    -2
100
AcDbLine
 10
59.9865518402135
 20
101.5662368670733
 30
0.0
 11
59.98655184021355
 21
87.56623686707327
 31
0.0
  0
LINE
  5
2BB
330
2B5
100
AcDbEntity
  8
치수문자_일반주서
 62
     0
370
    -2
100
AcDbLine
 10
59.98655184021349
 20
104.8682368670733
 30
0.0
 11
59.98655184021347
 21
108.1702368670733
 31
0.0
  0
LINE
  5
2BC
330
2B5
100
AcDbEntity
  8
치수문자_일반주서
 62
     0
370
    -2
100
AcDbLine
 10
59.98655184021356
 20
84.26423686707327
 30
0.0
 11
59.98655184021358
 21
80.96223686707326
 31
0.0
  0
SOLID
  5
2BD
330
2B5
100
AcDbEntity
  8
치수문자_일반주서
 62
     0
100
AcDbTrace
 10
59.43621850688015
 20
104.8682368670733
 30
0.0
 11
60.53688517354682
 21
104.8682368670733
 31
0.0
 12
59.9865518402135
 22
101.5662368670733
 32
0.0
 13
59.9865518402135
 23
101.5662368670733
 33
0.0
  0
SOLID
  5
2BE
330
2B5
100
AcDbEntity
  8
치수문자_일반주서
 62
     0
100
AcDbTrace
 10
60.5368851735469
 20
84.26423686707327
 30
0.0
 11
59.43621850688023
 21
84.26423686707327
 31
0.0
 12
59.98655184021355
 22
87.56623686707327
 32
0.0
 13
59.98655184021355
 23
87.56623686707327
 33
0.0
  0
MTEXT
  5
2BF
330
2B5
100
AcDbEntity
  8
치수문자_일반주서
 62
     0
100
AcDbMText
 10
55.61155184021352
 20
94.63194124878625
 30
0.0
 40
3.5
 41
0.0
 71
     2
 72
     1
  1
\A1;%%c14
  7
SLDTEXTSTYLE0
 11
-3.552713678800501E-15
 21
1.0
 31
0.0
 73
     1
 44
1.0
  0
POINT
  5
2C0
330
2B5
100
AcDbEntity
  8
Defpoints
 62
     0
100
AcDbPoint
 10
44.98655184021351
 20
101.5662368670732
 30
0.0
  0
POINT
  5
2C1
330
2B5
100
AcDbEntity
  8
Defpoints
 62
     0
100
AcDbPoint
 10
44.98655184021349
 20
87.56623686707321
 30
0.0
  0
POINT
  5
2C2
330
2B5
100
AcDbEntity
  8
Defpoints
 62
     0
100
AcDbPoint
 10
59.98655184021355
 20
87.56623686707327
 30
0.0
  0
ENDBLK
  5
2B7
330
2B5
100
AcDbEntity
  8
0
100
AcDbBlockEnd
  0
BLOCK
  5
2C4
330
2C3
100
AcDbEntity
  8
0
100
AcDbBlockBegin
  2
*D17
 70
     1
 10
0.0
 20
0.0
 30
0.0
  3
*D17
  1
*D17
  0
LINE
  5
2C6
330
2C3
100
AcDbEntity
  8
치수문자_일반주서
 62
     0
370
    -2
100
AcDbLine
 10
46.47732702188294
 20
84.82709837419443
 30
0.0
 11
62.80367989040878
 21
58.26291447653506
 31
0.0
  0
MTEXT
  5
2C7
330
2C3
100
AcDbEntity
  8
치수문자_일반주서
 62
     0
100
AcDbMText
 10
58.28219024164112
 20
70.63296077469364
 30
0.0
 40
3.5
 41
0.0
 71
     5
 72
     1
  1
\A1;R.50 [R0.02]
  7
SLDTEXTSTYLE0
 11
0.5236126201129557
 21
-0.8519564684057781
 31
0.0
 73
     1
 44
1.0
  0
SOLID
  5
2C8
330
2C3
100
AcDbEntity
  8
치수문자_일반주서
 62
     0
100
AcDbTrace
 10
46.94618706499559
 20
85.1152598527966
 30
0.0
 11
46.00846697877029
 21
84.53893689559227
 31
0.0
 12
44.74835815026996
 22
87.64025863287031
 32
0.0
 13
44.74835815026996
 23
87.64025863287031
 33
0.0
  0
LINE
  5
2C9
330
2C3
100
AcDbEntity
  8
치수문자_일반주서
 62
     0
100
AcDbLine
 10
44.39655184021348
 20
88.06623686707321
 30
0.0
 11
44.57655184021348
 21
88.06623686707321
 31
0.0
  0
LINE
  5
2CA
330
2C3
100
AcDbEntity
  8
치수문자_일반주서
 62
     0
100
AcDbLine
 10
44.48655184021348
 20
87.97623686707321
 30
0.0
 11
44.48655184021348
 21
88.15623686707322
 31
0.0
  0
POINT
  5
2CB
330
2C3
100
AcDbEntity
  8
Defpoints
 62
     0
100
AcDbPoint
 10
44.74835815026996
 20
87.64025863287031
 30
0.0
  0
POINT
  5
2CC
330
2C3
100
AcDbEntity
  8
Defpoints
 62
     0
100
AcDbPoint
 10
44.48655184021348
 20
88.06623686707321
 30
0.0
  0
ENDBLK
  5
2C5
330
2C3
100
AcDbEntity
  8
0
100
AcDbBlockEnd
  0
ENDSEC
  0
SECTION
  2
ENTITIES
  0
LINE
  5
96
330
1F
100
AcDbEntity
  8
외형선
  6
Continuous
370
    15
100
AcDbLine
 10
14.6358067680342
 20
-0.3497873207252662
 30
0.0
 11
14.66057658885052
 21
-0.3635802180266993
 31
0.0
  0
LINE
  5
97
330
1F
100
AcDbEntity
  8
외형선
  6
Continuous
370
    15
100
AcDbLine
 10
15.81505744670626
 20
0.244782657972416
 30
0.0
 11
15.76733865373276
 21
0.2715007449254125
 31
0.0
  0
LINE
  5
98
330
1F
100
AcDbEntity
  8
외형선
  6
Continuous
370
    15
100
AcDbLine
 10
12.37741214052083
 20
0.2352785321301894
 30
0.0
 11
12.31217811750107
 21
0.271428252149318
 31
0.0
  0
LINE
  5
99
330
1F
100
AcDbEntity
  8
외형선
  6
Continuous
370
    15
100
AcDbLine
 10
19.25009984186702
 20
0.255257307601973
 30
0.0
 11
19.22271618099197
 21
0.2714496232380263
 31
0.0
  0
LINE
  5
9A
330
1F
100
AcDbEntity
  8
외형선
  6
Continuous
370
    15
100
AcDbLine
 10
17.99135962977223
 20
-0.2945258768076784
 30
0.0
 11
18.11573028076647
 21
-0.3635045348675784
 31
0.0
  0
SPLINE
  5
9B
330
1F
100
AcDbEntity
  8
0
  6
Continuous
 62
     1
370
    15
100
AcDbSpline
210
0.0
220
0.0
230
1.0
 70
     8
 71
     3
 72
     9
 73
     5
 74
     0
 42
0.000000001
 43
0.00000001
 40
0.0
 40
0.0
 40
0.0
 40
0.0
 40
0.5712146052866465
 40
1.0
 40
1.0
 40
1.0
 40
1.0
 10
22.69999999998907
 20
0.2389212832794569
 30
0.0
 10
22.68193439252909
 20
0.25418476458355
 30
0.0
 10
22.65030773716564
 20
0.2809058623335517
 30
0.0
 10
22.62054433351864
 20
0.3007747361316613
 30
0.0
 10
22.60778222073786
 20
0.3092942190256937
 30
0.0
  0
LINE
  5
9C
330
1F
100
AcDbEntity
  8
0
  6
Continuous
 62
     1
370
    15
100
AcDbLine
 10
21.5367281108006
 20
-0.3444387029012606
 30
0.0
 11
21.57117186767938
 21
-0.363591337110633
 31
0.0
  0
LINE
  5
9D
330
1F
100
AcDbEntity
  8
0
  6
Continuous
 62
     1
370
    15
100
AcDbLine
 10
13.73022417359533
 20
-1.633518386275748
 30
0.0
 11
14.96988530837289
 21
-1.633518386275748
 31
0.0
  0
LINE
  5
9E
330
1F
100
AcDbEntity
  8
0
  6
Continuous
 62
     1
370
    15
100
AcDbLine
 10
22.69999999998907
 20
1.541481613724252
 30
0.0
 11
22.36731093958513
 21
1.541481613724252
 31
0.0
  0
LINE
  5
9F
330
1F
100
AcDbEntity
  8
0
  6
Continuous
 62
     1
370
    15
100
AcDbLine
 10
17.1853515313359
 20
-1.633518386275748
 30
0.0
 11
18.42511368379061
 21
-1.633518386275748
 31
0.0
  0
LINE
  5
A0
330
1F
100
AcDbEntity
  8
0
  6
Continuous
 62
     1
370
    15
100
AcDbLine
 10
16.69793600299944
 20
1.541481613724252
 30
0.0
 11
15.4563772493287
 21
1.541481613724252
 31
0.0
  0
LINE
  5
A1
330
1F
100
AcDbEntity
  8
0
  6
Continuous
 62
     1
370
    15
100
AcDbLine
 10
20.6404087370234
 20
-1.633518386275748
 30
0.0
 11
21.88035102863575
 21
-1.633518386275748
 31
0.0
  0
LINE
  5
A2
330
1F
100
AcDbEntity
  8
0
  6
Continuous
 62
     1
370
    15
100
AcDbLine
 10
13.24259071851402
 20
1.541481613724252
 30
0.0
 11
12.00115760164543
 21
1.541481613724252
 31
0.0
  0
LINE
  5
A3
330
1F
100
AcDbEntity
  8
0
  6
Continuous
 62
     1
370
    15
100
AcDbLine
 10
10.27371738776529
 20
-1.633518386275748
 30
0.0
 11
11.51489362468149
 21
-1.633518386275748
 31
0.0
  0
LINE
  5
A4
330
1F
100
AcDbEntity
  8
0
  6
Continuous
 62
     1
370
    15
100
AcDbLine
 10
20.15325554586737
 20
1.541481613724252
 30
0.0
 11
18.9118140630603
 21
1.541481613724252
 31
0.0
  0
LINE
  5
A5
330
1F
100
AcDbEntity
  8
외형선
  6
Continuous
370
    15
100
AcDbLine
 10
-15.08250000001093
 20
-1.633518386275748
 30
0.0
 11
8.99987468008134
 21
-1.633518386275748
 31
0.0
  0
LINE
  5
A6
330
1F
100
AcDbEntity
  8
외형선
  6
Continuous
370
    15
100
AcDbLine
 10
9.787088529113689
 20
1.541481613724252
 30
0.0
 11
-15.08250000001093
 21
1.541481613724252
 31
0.0
  0
LINE
  5
A7
330
1F
100
AcDbEntity
  8
외형선
  6
Continuous
370
    15
100
AcDbLine
 10
-15.08250000001093
 20
1.541481613724252
 30
0.0
 11
-15.40000000001093
 21
1.223981613724253
 31
0.0
  0
LINE
  5
A8
330
1F
100
AcDbEntity
  8
외형선
  6
Continuous
370
    15
100
AcDbLine
 10
-15.40000000001093
 20
-1.316018386275748
 30
0.0
 11
-15.08250000001093
 21
-1.633518386275748
 31
0.0
  0
SPLINE
  5
A9
330
1F
100
AcDbEntity
  8
0
  6
Continuous
 62
     1
370
    15
100
AcDbSpline
210
0.0
220
0.0
230
1.0
 70
     8
 71
     3
 72
    22
 73
    18
 74
     0
 42
0.000000001
 43
0.00000001
 40
0.0
 40
0.0
 40
0.0
 40
0.0
 40
0.0636718175799685
 40
0.1273452112567015
 40
0.1908166245588075
 40
0.2543839171836338
 40
0.3263699770044428
 40
0.3982277016789206
 40
0.4699930145693214
 40
0.5417657175729721
 40
0.6136454663027591
 40
0.685626752009096
 40
0.7574617223475879
 40
0.8292212178441806
 40
0.9010051556028505
 40
0.972912968994813
 40
1.0
 40
1.0
 40
1.0
 40
1.0
 10
9.999999999999837
 20
1.536699042880055
 30
0.0
 10
10.20234633311402
 20
1.520196360437411
 30
0.0
 10
10.60704400811097
 20
1.487190587053901
 30
0.0
 10
11.21363125172802
 20
1.343186373569312
 30
0.0
 10
11.81918521371465
 20
1.136917020125499
 30
0.0
 10
12.45146110003219
 20
0.8606709098646792
 30
0.0
 10
13.11101146706108
 20
0.5224158832175495
 30
0.0
 10
13.79612567780221
 20
0.1348866004242845
 30
0.0
 10
14.48042316194507
 20
-0.2636652161644079
 30
0.0
 10
15.16479225578887
 20
-0.6488268568595584
 30
0.0
 10
15.85006477983175
 20
-0.9967307724374037
 30
0.0
 10
16.53589024382877
 20
-1.285718709277617
 30
0.0
 10
17.22085276208291
 20
-1.498175533799454
 30
0.0
 10
17.90508821877483
 20
-1.622382445517031
 30
0.0
 10
18.58957038363987
 20
-1.643515739451806
 30
0.0
 10
19.13238274265426
 20
-1.599178199711039
 30
0.0
 10
19.44707183011852
 20
-1.518075615259469
 30
0.0
 10
19.53317725430548
 20
-1.495884275568816
 30
0.0
  0
SPLINE
  5
AA
330
1F
100
AcDbEntity
  8
0
  6
Continuous
 62
     1
370
    15
100
AcDbSpline
210
0.0
220
0.0
230
1.0
 70
     8
 71
     3
 72
    22
 73
    18
 74
     0
 42
0.000000001
 43
0.00000001
 40
0.0
 40
0.0
 40
0.0
 40
0.0
 40
0.0697033112726298
 40
0.1400998642224657
 40
0.2104399921464204
 40
0.2806589450897785
 40
0.3508539886447121
 40
0.4211228615901351
 40
0.4915348600348046
 40
0.5618475351433505
 40
0.6320554982642144
 40
0.7022562323860737
 40
0.7725473635928536
 40
0.8429640320699849
 40
0.9051454736142659
 40
0.9672331261319149
 40
1.0
 40
1.0
 40
1.0
 40
1.0
 10
20.64040873702339
 20
-1.633140507628735
 30
0.0
 10
20.41401798844394
 20
-1.623900546367326
 30
0.0
 10
19.95898489807683
 20
-1.605328726829498
 30
0.0
 10
19.27501202232875
 20
-1.455293240015845
 30
0.0
 10
18.58957434541578
 20
-1.225015612122914
 30
0.0
 10
17.90508715849958
 20
-0.9198962729190037
 30
0.0
 10
17.22085304622644
 20
-0.5614135062067502
 30
0.0
 10
16.53589016834196
 20
-0.1707833438200983
 30
0.0
 10
15.85006479683084
 20
0.2269159929530378
 30
0.0
 10
15.16479226321029
 20
0.6082752375990902
 30
0.0
 10
14.48042311537722
 20
0.9491715168957899
 30
0.0
 10
13.79612585675519
 20
1.228687456435755
 30
0.0
 10
13.11101079636809
 20
1.429218477490692
 30
0.0
 10
12.45146348432846
 20
1.535379837030718
 30
0.0
 10
11.81917747078637
 20
1.548706185741894
 30
0.0
 10
11.30947080901687
 20
1.505319968730201
 30
0.0
 10
11.00125295096055
 20
1.431227810349484
 30
0.0
 10
10.89478111388918
 20
1.405633160301869
 30
0.0
  0
SPLINE
  5
AB
330
1F
100
AcDbEntity
  8
0
  6
Continuous
 62
     1
370
    15
100
AcDbSpline
210
0.0
220
0.0
230
1.0
 70
     8
 71
     3
 72
    17
 73
    13
 74
     0
 42
0.000000001
 43
0.00000001
 40
0.0
 40
0.0
 40
0.0
 40
0.0
 40
0.0998685954602495
 40
0.1997396630121749
 40
0.2992939264097466
 40
0.3989985755455879
 40
0.5119079750297872
 40
0.6246160821479223
 40
0.7371792423267282
 40
0.8497539938226758
 40
0.9624966454465853
 40
1.0
 40
1.0
 40
1.0
 40
1.0
 10
9.999999999999847
 20
0.325961546999724
 30
0.0
 10
10.20234633311724
 20
0.2107313026636327
 30
0.0
 10
10.60704400812065
 20
-0.0197320383539393
 30
0.0
 10
11.2136312516894
 20
-0.3708572879276215
 30
0.0
 10
11.81918521385911
 20
-0.7059692863017124
 30
0.0
 10
12.45146109946165
 20
-1.022028565677695
 30
0.0
 10
13.1110114695047
 20
-1.296940368866523
 30
0.0
 10
13.79612566874297
 20
-1.505607148601089
 30
0.0
 10
14.4804231956997
 20
-1.62569889214344
 30
0.0
 10
15.16479212971773
 20
-1.642087551757189
 30
0.0
 10
15.69729868199324
 20
-1.596170511758453
 30
0.0
 10
16.00181936577806
 20
-1.51638403965506
 30
0.0
 10
16.07783168359869
 20
-1.49646829994263
 30
0.0
  0
SPLINE
  5
AC
330
1F
100
AcDbEntity
  8
외형선
  6
Continuous
370
    15
100
AcDbSpline
210
0.0
220
0.0
230
1.0
 70
    24
 71
     3
 72
    18
 73
    14
 74
     0
 42
0.000000001
 43
0.00000001
 40
0.0
 40
0.0
 40
0.0
 40
0.0
 40
0.1480446317752134
 40
0.2369602995750516
 40
0.3258759673744598
 40
0.4173701955636254
 40
0.5062858633630334
 40
0.5977800915521999
 40
0.6866957593516991
 40
0.7781899875407835
 40
0.8671056553401262
 40
0.9585998835292215
 40
1.0
 40
1.0
 40
1.0
 40
1.0
 10
9.999999999989068
 20
1.324611772562062
 30
0.0
 10
9.999999999989075
 20
1.277782562560714
 30
0.0
 10
9.9999999999891
 20
1.202827709434858
 30
0.0
 10
9.999999999989043
 20
1.081183269248454
 30
0.0
 10
9.999999999989093
 20
0.9766336092192041
 30
0.0
 10
9.999999999989026
 20
0.8696344527715156
 30
0.0
 10
9.999999999989072
 20
0.7626338608843748
 30
0.0
 10
9.999999999989086
 20
0.6604738520565331
 30
0.0
 10
9.99999999998909
 20
0.5643137772417638
 30
0.0
 10
9.999999999989072
 20
0.4782937285448066
 30
0.0
 10
9.9999999999891
 20
0.4044461228900043
 30
0.0
 10
9.999999999989043
 20
0.3529578265472039
 30
0.0
 10
9.999999999989068
 20
0.3323739660238929
 30
0.0
 10
9.999999999989072
 20
0.32596154700588
 30
0.0
  0
SPLINE
  5
AD
330
1F
100
AcDbEntity
  8
0
  6
Continuous
 62
     1
370
    15
100
AcDbSpline
210
0.0
220
0.0
230
1.0
 70
     8
 71
     3
 72
    18
 73
    14
 74
     0
 42
0.000000001
 43
0.00000001
 40
0.0
 40
0.0
 40
0.0
 40
0.0
 40
0.0903359813996571
 40
0.1858380682534357
 40
0.281205439631406
 40
0.3764307867299476
 40
0.4716463289016862
 40
0.5669844795839927
 40
0.6624929005549052
 40
0.746831615010249
 40
0.8310431203540036
 40
0.9155226057302214
 40
1.0
 40
1.0
 40
1.0
 40
1.0
 10
17.1853515313359
 20
-1.631093905922027
 30
0.0
 10
16.96901875641311
 20
-1.623514954763018
 30
0.0
 10
16.52398163644543
 20
-1.607923629789794
 30
0.0
 10
15.85006292779546
 20
-1.463575631365101
 30
0.0
 10
15.16479275092298
 20
-1.23701463945617
 30
0.0
 10
14.4804230293765
 20
-0.9347431353583064
 30
0.0
 10
13.79612571338168
 20
-0.57821051067395
 30
0.0
 10
13.11101145746393
 20
-0.1885030410317413
 30
0.0
 10
12.45146110227297
 20
0.1939690584536438
 30
0.0
 10
11.81918521314732
 20
0.5483524922744677
 30
0.0
 10
11.21363125187986
 20
0.8583969537789384
 30
0.0
 10
10.60704400807311
 20
1.128575304756195
 30
0.0
 10
10.2023463331015
 20
1.259266822461256
 30
0.0
 10
10.0
 20
1.324611772557508
 30
0.0
  0
LINE
  5
AE
330
1F
100
AcDbEntity
  8
0
  6
Continuous
 62
     1
370
    15
100
AcDbLine
 10
22.69999999998907
 20
-1.563552129706278
 30
0.0
 11
22.69999999998907
 21
-1.433483099215942
 31
0.0
  0
SPLINE
  5
AF
330
1F
100
AcDbEntity
  8
0
  6
Continuous
 62
     1
370
    15
100
AcDbSpline
210
0.0
220
0.0
230
1.0
 70
     8
 71
     3
 72
    21
 73
    17
 74
     0
 42
0.000000001
 43
0.00000001
 40
0.0
 40
0.0
 40
0.0
 40
0.0
 40
0.0585555706783729
 40
0.1308960479533944
 40
0.2032439745698607
 40
0.2756998048323513
 40
0.3482579858413076
 40
0.4206686788352846
 40
0.4930032920928912
 40
0.5653625435055218
 40
0.6378466633549255
 40
0.710388928084913
 40
0.7827795717244289
 40
0.8551112521264472
 40
0.9274847452819689
 40
1.0
 40
1.0
 40
1.0
 40
1.0
 10
13.24259071851402
 20
1.533872659533394
 30
0.0
 10
13.42720363078664
 20
1.530732992854825
 30
0.0
 10
13.83989025202008
 20
1.523714532350479
 30
0.0
 10
14.48041573714681
 20
1.396296423474435
 30
0.0
 10
15.16479424376675
 20
1.181873218430704
 30
0.0
 10
15.85006426388941
 20
0.8886974301533016
 30
0.0
 10
16.53589031481795
 20
0.5390385053841938
 30
0.0
 10
17.22085299251722
 20
0.1525218359155953
 30
0.0
 10
17.90508722710545
 20
-0.2460342409196845
 30
0.0
 10
18.58957412442573
 20
-0.6323368452699206
 30
0.0
 10
19.27501283943119
 20
-0.9823290720211227
 30
0.0
 10
19.96075680503547
 20
-1.274215066362918
 30
0.0
 10
20.64555472199346
 20
-1.491104720900616
 30
0.0
 10
21.32976017916049
 20
-1.61684842966751
 30
0.0
 10
22.0143944785553
 20
-1.652318370056281
 30
0.0
 10
22.47131580636704
 20
-1.593160170278718
 30
0.0
 10
22.69999999998907
 20
-1.563552129706278
 30
0.0
  0
SPLINE
  5
B0
330
1F
100
AcDbEntity
  8
0
  6
Continuous
 62
     1
370
    15
100
AcDbSpline
210
0.0
220
0.0
230
1.0
 70
     8
 71
     3
 72
    20
 73
    16
 74
     0
 42
0.000000001
 43
0.00000001
 40
0.0
 40
0.0
 40
0.0
 40
0.0
 40
0.0821247456028848
 40
0.1640889438519374
 40
0.2460057884543985
 40
0.3279894099150287
 40
0.4101447448107354
 40
0.49223422965124
 40
0.5741822988869354
 40
0.6561024649976784
 40
0.7381087926894455
 40
0.820282153038779
 40
0.9023395994463032
 40
0.9842748431598723
 40
1.0
 40
1.0
 40
1.0
 40
1.0
 10
22.69999999998907
 20
-1.433483099215942
 30
0.0
 10
22.47131580636416
 20
-1.361090344046717
 30
0.0
 10
22.01439447854667
 20
-1.216446355793889
 30
0.0
 10
21.32976017919491
 20
-0.9039885028761893
 30
0.0
 10
20.64555472186435
 20
-0.5448062720778413
 30
0.0
 10
19.96075680551829
 20
-0.1529886179361259
 30
0.0
 10
19.27501283762567
 20
0.2444769031749525
 30
0.0
 10
18.58957413115256
 20
0.6244422297128494
 30
0.0
 10
17.90508720205176
 20
0.9630458019882148
 30
0.0
 10
17.22085308603057
 20
1.23943453147704
 30
0.0
 10
16.53588996510642
 20
1.435948003756238
 30
0.0
 10
15.85006557116598
 20
1.542882167493089
 30
0.0
 10
15.16478937601219
 20
1.544102480751165
 30
0.0
 10
14.66466271356762
 20
1.494396765462993
 30
0.0
 10
14.39287426142499
 20
1.419533427502485
 30
0.0
 10
14.34911122120555
 20
1.407479025469215
 30
0.0
  0
LINE
  5
B1
330
1F
100
AcDbEntity
  8
0
  6
Continuous
 62
     1
370
    15
100
AcDbLine
 10
22.69999999998907
 20
-0.9582478895061324
 30
0.0
 11
22.69999999998907
 21
0.2589010680759898
 31
0.0
  0
SPLINE
  5
B2
330
1F
100
AcDbEntity
  8
0
  6
Continuous
 62
     1
370
    15
100
AcDbSpline
210
0.0
220
0.0
230
1.0
 70
     8
 71
     3
 72
    16
 73
    12
 74
     0
 42
0.000000001
 43
0.00000001
 40
0.0
 40
0.0
 40
0.0
 40
0.0
 40
0.0871612362918444
 40
0.2011371884406624
 40
0.3151519623520033
 40
0.4293634885280425
 40
0.5436666322275425
 40
0.6577308701338945
 40
0.7717022010510073
 40
0.8857394153423149
 40
1.0
 40
1.0
 40
1.0
 40
1.0
 10
16.69793600299944
 20
1.532620991868048
 30
0.0
 10
16.8723245119121
 20
1.530632449412777
 30
0.0
 10
17.27475127719577
 20
1.526043599419775
 30
0.0
 10
17.90507999884895
 20
1.403779691798965
 30
0.0
 10
18.58957606518956
 20
1.193268610448971
 30
0.0
 10
19.27501231852512
 20
0.903124595284735
 30
0.0
 10
19.96075694433442
 20
0.5556044858779033
 30
0.0
 10
20.64555468474892
 20
0.169959476377527
 30
0.0
 10
21.32976018909471
 20
-0.2276982571908691
 30
0.0
 10
22.01439447606547
 20
-0.6183363990076064
 30
0.0
 10
22.47131580553655
 20
-0.8448701778667035
 30
0.0
 10
22.69999999998907
 20
-0.9582478895061323
 30
0.0
  0
SPLINE
  5
B3
330
1F
100
AcDbEntity
  8
0
  6
Continuous
 62
     1
370
    15
100
AcDbSpline
210
0.0
220
0.0
230
1.0
 70
     8
 71
     3
 72
    15
 73
    11
 74
     0
 42
0.000000001
 43
0.00000001
 40
0.0
 40
0.0
 40
0.0
 40
0.0
 40
0.1400860300654405
 40
0.27989820307025
 40
0.419629601586062
 40
0.5594749061467875
 40
0.6996131145485195
 40
0.8396389978191946
 40
0.9794236584167084
 40
1.0
 40
1.0
 40
1.0
 40
1.0
 10
22.69999999998907
 20
0.25890106807599
 30
0.0
 10
22.47131580698219
 20
0.386467080495716
 30
0.0
 10
22.01439448039956
 20
0.6413497239144698
 30
0.0
 10
21.32976017180204
 20
0.976582366941177
 30
0.0
 10
20.64555474958108
 20
1.250050454692644
 30
0.0
 10
19.96075670185445
 20
1.442607375516783
 30
0.0
 10
19.27501322527488
 20
1.545434608221158
 30
0.0
 10
18.58957268686994
 20
1.54175089779339
 30
0.0
 10
18.09949994394563
 20
1.491237864033748
 30
0.0
 10
17.83787309755468
 20
1.418188492410444
 30
0.0
 10
17.80430306939639
 20
1.408815335579762
 30
0.0
  0
LINE
  5
B4
330
1F
100
AcDbEntity
  8
0
  6
Continuous
 62
     1
370
    15
100
AcDbLine
 10
10.27371738776529
 20
-1.623967719452188
 30
0.0
 11
10.0
 21
-1.62567112668403
 31
0.0
  0
LINE
  5
B5
330
1F
100
AcDbEntity
  8
0
  6
Continuous
 62
     1
370
    15
100
AcDbLine
 10
22.69999999998907
 20
1.529896913284888
 30
0.0
 11
22.69999999998907
 21
1.541481613724252
 31
0.0
  0
SPLINE
  5
B6
330
1F
100
AcDbEntity
  8
0
  6
Continuous
 62
     1
370
    15
100
AcDbSpline
210
0.0
220
0.0
230
1.0
 70
     8
 71
     3
 72
    10
 73
     6
 74
     0
 42
0.000000001
 43
0.00000001
 40
0.0
 40
0.0
 40
0.0
 40
0.0
 40
0.4761322773702211
 40
0.9513337539611553
 40
1.0
 40
1.0
 40
1.0
 40
1.0
 10
22.69999999998907
 20
1.529896913284888
 30
0.0
 10
22.47131583692727
 20
1.534670775168999
 30
0.0
 10
22.01439457017624
 20
1.544209166416462
 30
0.0
 10
21.53437379870617
 20
1.487952333126107
 30
0.0
 10
21.28291416849675
 20
1.416931404108929
 30
0.0
 10
21.2595540802455
 20
1.410333704238995
 30
0.0
  0
SPLINE
  5
B7
330
1F
100
AcDbEntity
  8
0
  6
Continuous
 62
     1
370
    15
100
AcDbSpline
210
0.0
220
0.0
230
1.0
 70
     8
 71
     3
 72
    13
 73
     9
 74
     0
 42
0.000000001
 43
0.00000001
 40
0.0
 40
0.0
 40
0.0
 40
0.0
 40
0.1659059025170379
 40
0.3498785465350216
 40
0.5123355962244182
 40
0.6745476099644785
 40
0.8372758189741817
 40
1.0
 40
1.0
 40
1.0
 40
1.0
 10
13.73022417359533
 20
-1.629236048897081
 30
0.0
 10
13.52395375521386
 20
-1.623205398059438
 30
0.0
 10
13.08895058123655
 20
-1.610487373458003
 30
0.0
 10
12.45145848342545
 20
-1.477058081481568
 30
0.0
 10
11.8191858762527
 20
-1.276115800780777
 30
0.0
 10
11.21363107453621
 20
-1.021222260766567
 30
0.0
 10
10.60704405246641
 20
-0.7216223114491862
 30
0.0
 10
10.20234634789915
 20
-0.4966891943032618
 30
0.0
 10
10.0
 20
-0.3842240276803955
 30
0.0
  0
LINE
  5
B8
330
1F
100
AcDbEntity
  8
외형선
  6
Continuous
370
    15
100
AcDbLine
 10
9.999999999989072
 20
-0.3842240276746071
 30
0.0
 11
9.999999999989072
 21
0.3259615470057607
 31
0.0
  0
LINE
  5
B9
330
1F
100
AcDbEntity
  8
외형선
  6
Continuous
370
    15
100
AcDbLine
 10
9.999999999989072
 20
1.324611772560684
 30
0.0
 11
9.999999999989065
 21
1.536699042880535
 31
0.0
  0
LINE
  5
BA
330
1F
100
AcDbEntity
  8
0
  6
Continuous
 62
     1
370
    15
100
AcDbLine
 10
22.69999999998907
 20
-1.433483099215942
 30
0.0
 11
22.69999999998907
 21
-0.9582478895061324
 31
0.0
  0
SPLINE
  5
BB
330
1F
100
AcDbEntity
  8
0
  6
Continuous
 62
     1
370
    15
100
AcDbSpline
210
0.0
220
0.0
230
1.0
 70
     8
 71
     3
 72
    12
 73
     8
 74
     0
 42
0.000000001
 43
0.00000001
 40
0.0
 40
0.0
 40
0.0
 40
0.0
 40
0.2314415020838646
 40
0.4628887331419729
 40
0.6936017831593604
 40
0.9246633461501884
 40
1.0
 40
1.0
 40
1.0
 40
1.0
 10
9.99999999999985
 20
-1.398839573534393
 30
0.0
 10
10.20234651334785
 20
-1.453473494225919
 30
0.0
 10
10.6070445488169
 20
-1.562742687986662
 30
0.0
 10
11.21362909170058
 20
-1.636938653820639
 30
0.0
 10
11.81919329027058
 20
-1.633258683832975
 30
0.0
 10
12.2885924528202
 20
-1.586295176891652
 30
0.0
 10
12.55657680928924
 20
-1.514808960023342
 30
0.0
 10
12.62246833081521
 20
-1.497232054939585
 30
0.0
  0
SPLINE
  5
BC
330
1F
100
AcDbEntity
  8
0
  6
Continuous
 62
     1
370
    15
100
AcDbSpline
210
0.0
220
0.0
230
1.0
 70
     8
 71
     3
 72
    11
 73
     7
 74
     0
 42
0.000000001
 43
0.00000001
 40
0.0
 40
0.0
 40
0.0
 40
0.0
 40
0.1933812338527758
 40
0.4619751744061694
 40
0.730724380980847
 40
0.9999999999999999
 40
0.9999999999999999
 40
0.9999999999999999
 40
0.9999999999999999
 10
20.15325554586737
 20
1.531562193580734
 30
0.0
 10
20.31742011761942
 20
1.530638785536275
 30
0.0
 10
20.70959858889862
 20
1.528432823851741
 30
0.0
 10
21.32975319845441
 20
1.410374764664207
 30
0.0
 10
22.01439622814155
 20
1.207109112327997
 30
0.0
 10
22.47131638994274
 20
1.007585788834858
 30
0.0
 10
22.69999999998907
 20
0.9077265186179599
 30
0.0
  0
LINE
  5
BD
330
1F
100
AcDbEntity
  8
0
  6
Continuous
 62
     1
370
    15
100
AcDbLine
 10
22.69999999998907
 20
0.2589010680759898
 30
0.0
 11
22.69999999998907
 21
0.9077265186179599
 31
0.0
  0
LINE
  5
BE
330
1F
100
AcDbEntity
  8
외형선
  6
Continuous
370
    15
100
AcDbLine
 10
9.999999999989075
 20
-1.625671126683405
 30
0.0
 11
9.999999999989072
 21
-1.398839573531144
 31
0.0
  0
LINE
  5
BF
330
1F
100
AcDbEntity
  8
0
  6
Continuous
 62
     1
370
    15
100
AcDbLine
 10
22.69999999998907
 20
0.9028494237919212
 30
0.0
 11
22.69999999998907
 21
1.529896913284888
 31
0.0
  0
SPLINE
  5
C0
330
1F
100
AcDbEntity
  8
외형선
  6
Continuous
370
    15
100
AcDbSpline
210
0.0
220
0.0
230
1.0
 70
    24
 71
     3
 72
    13
 73
     9
 74
     0
 42
0.000000001
 43
0.00000001
 40
0.0
 40
0.0
 40
0.0
 40
0.0
 40
0.1557312079672566
 40
0.3314522655639804
 40
0.5071733231605634
 40
0.6828943807574168
 40
0.8586154383541353
 40
0.9999999999999999
 40
0.9999999999999999
 40
0.9999999999999999
 40
0.9999999999999999
 10
9.999999999989054
 20
-0.3842240276744244
 30
0.0
 10
9.999999999989065
 20
-0.41283188436323
 30
0.0
 10
9.999999999989079
 20
-0.4737197374544869
 30
0.0
 10
9.999999999989079
 20
-0.6382912092003505
 30
0.0
 10
9.999999999989065
 20
-0.8403587579943516
 30
0.0
 10
9.999999999989043
 20
-1.057238351237937
 30
0.0
 10
9.99999999998909
 20
-1.252908496633824
 30
0.0
 10
9.999999999989075
 20
-1.353838824992416
 30
0.0
 10
9.999999999989075
 20
-1.398839573531144
 30
0.0
  0
SPLINE
  5
C1
330
1F
100
AcDbEntity
  8
외형선
  6
Continuous
370
    15
100
AcDbSpline
210
0.0
220
0.0
230
1.0
 70
    24
 71
     3
 72
    14
 73
    10
 74
     0
 42
0.000000001
 43
0.00000001
 40
0.0
 40
0.0
 40
0.0
 40
0.0
 40
0.0283349206279527
 40
0.2022734342743143
 40
0.3762119479204505
 40
0.5501504615670464
 40
0.7240889752134139
 40
0.8980274888597818
 40
1.0
 40
1.0
 40
1.0
 40
1.0
 10
9.999999999989065
 20
-1.398839573531143
 30
0.0
 10
9.999999999989072
 20
-1.390249162228682
 30
0.0
 10
9.99999999998913
 20
-1.328925115523455
 30
0.0
 10
9.999999999989015
 20
-1.192707164644956
 30
0.0
 10
9.999999999989106
 20
-0.9798788699386218
 30
0.0
 10
9.999999999989079
 20
-0.7641719890770695
 30
0.0
 10
9.999999999989047
 20
-0.5741666515862628
 30
0.0
 10
9.999999999989097
 20
-0.4388687649614755
 30
0.0
 10
9.999999999989075
 20
-0.3989700024311577
 30
0.0
 10
9.999999999989079
 20
-0.3842240276744378
 30
0.0
  0
SPLINE
  5
C2
330
1F
100
AcDbEntity
  8
외형선
  6
Continuous
370
    15
100
AcDbSpline
210
0.0
220
0.0
230
1.0
 70
     8
 71
     3
 72
    10
 73
     6
 74
     0
 42
0.000000001
 43
0.00000001
 40
0.0
 40
0.0
 40
0.0
 40
0.0
 40
0.5
 40
0.5
 40
1.0
 40
1.0
 40
1.0
 40
1.0
 10
9.999999999999837
 20
-1.398839573534389
 30
0.0
 10
9.832787658021363
 20
-1.348430255944366
 30
0.0
 10
9.668913060799522
 20
-1.290927971588835
 30
0.0
 10
9.33468711550521
 20
-1.162134167867068
 30
0.0
 10
9.165993609058251
 20
-1.090965813310764
 30
0.0
 10
8.999874680081337
 20
-1.014814925456902
 30
0.0
  0
SPLINE
  5
C3
330
1F
100
AcDbEntity
  8
외형선
  6
Continuous
370
    15
100
AcDbSpline
210
0.0
220
0.0
230
1.0
 70
     8
 71
     3
 72
    10
 73
     6
 74
     0
 42
0.000000001
 43
0.00000001
 40
0.0
 40
0.0
 40
0.0
 40
0.0
 40
0.5
 40
0.5
 40
1.0
 40
1.0
 40
1.0
 40
1.0
 10
9.99999999999984
 20
-0.3842240276803067
 30
0.0
 10
9.832787658021363
 20
-0.2900992786669314
 30
0.0
 10
9.668913060799522
 20
-0.1947432259646367
 30
0.0
 10
9.33468711550521
 20
-0.0022138652198945
 30
0.0
 10
9.165993609058251
 20
0.0946406676388884
 30
0.0
 10
8.999874680081337
 20
0.1897012876359227
 30
0.0
  0
LINE
  5
C4
330
1F
100
AcDbEntity
  8
외형선
  6
Continuous
370
    15
100
AcDbLine
 10
8.99987468008134
 20
-1.633518386275748
 30
0.0
 11
8.99987468008134
 21
-1.466239640929007
 31
0.0
  0
LINE
  5
C5
330
1F
100
AcDbEntity
  8
외형선
  6
Continuous
370
    15
100
AcDbLine
 10
8.999874680081337
 20
-1.541453663375846
 30
0.0
 11
9.166792993366467
 21
-1.501149164812682
 31
0.0
  0
LINE
  5
C6
330
1F
100
AcDbEntity
  8
외형선
  6
Continuous
370
    15
100
AcDbLine
 10
9.787088529113689
 20
1.5350776509158
 30
0.0
 11
9.999999999999837
 21
1.536699042880053
 31
0.0
  0
SPLINE
  5
C7
330
1F
100
AcDbEntity
  8
외형선
  6
Continuous
370
    15
100
AcDbSpline
210
0.0
220
0.0
230
1.0
 70
     8
 71
     3
 72
    10
 73
     6
 74
     0
 42
0.000000001
 43
0.00000001
 40
0.0
 40
0.0
 40
0.0
 40
0.0
 40
0.5
 40
0.5
 40
1.0
 40
1.0
 40
1.0
 40
1.0
 10
9.99999999999984
 20
1.324611772557554
 30
0.0
 10
9.832787658021363
 20
1.373217193727779
 30
0.0
 10
9.668913060799522
 20
1.413973638281551
 30
0.0
 10
9.33468711550521
 20
1.479522677944547
 30
0.0
 10
9.165993609058251
 20
1.504087938102678
 30
0.0
 10
8.999874680081337
 20
1.519888585202591
 30
0.0
  0
LINE
  5
C8
330
1F
100
AcDbEntity
  8
외형선
  6
Continuous
370
    15
100
AcDbLine
 10
8.99987468008134
 20
0.8506563174586821
 30
0.0
 11
8.99987468008134
 21
1.519889669166863
 31
0.0
  0
SPLINE
  5
C9
330
1F
100
AcDbEntity
  8
외형선
  6
Continuous
370
    15
100
AcDbSpline
210
0.0
220
0.0
230
1.0
 70
     8
 71
     3
 72
    10
 73
     6
 74
     0
 42
0.000000001
 43
0.00000001
 40
0.0
 40
0.0
 40
0.0
 40
0.0
 40
0.5
 40
0.5
 40
1.0
 40
1.0
 40
1.0
 40
1.0
 10
9.999999999999837
 20
0.3259615469997267
 30
0.0
 10
9.832787658021363
 20
0.4196158997942032
 30
0.0
 10
9.668913060799522
 20
0.51060519416238
 30
0.0
 10
9.33468711550521
 20
0.6866424229022561
 30
0.0
 10
9.165993609058251
 20
0.7713444179804296
 30
0.0
 10
8.999874680081337
 20
0.8506677014271254
 30
0.0
  0
LINE
  5
CA
330
1F
100
AcDbEntity
  8
외형선
  6
Continuous
370
    15
100
AcDbLine
 10
8.99987468008134
 20
-1.014825854074411
 30
0.0
 11
8.99987468008134
 21
0.1897078091136425
 31
0.0
  0
SPLINE
  5
CB
330
1F
100
AcDbEntity
  8
외형선
  6
Continuous
370
    15
100
AcDbSpline
210
0.0
220
0.0
230
1.0
 70
     8
 71
     3
 72
    10
 73
     6
 74
     0
 42
0.000000001
 43
0.00000001
 40
0.0
 40
0.0
 40
0.0
 40
0.0
 40
0.5
 40
0.5
 40
1.0
 40
1.0
 40
1.0
 40
1.0
 10
9.99999999999984
 20
-1.625671126684021
 30
0.0
 10
9.832787658021363
 20
-1.616104253781425
 30
0.0
 10
9.668913060799522
 20
-1.597927416732153
 30
0.0
 10
9.33468711550521
 20
-1.544486767622606
 30
0.0
 10
9.165993609058251
 20
-1.509192634509515
 30
0.0
 10
8.999874680081337
 20
-1.466242587459623
 30
0.0
  0
LINE
  5
CC
330
1F
100
AcDbEntity
  8
외형선
  6
Continuous
370
    15
100
AcDbLine
 10
-15.08250000001093
 20
-0.0460183862757476
 30
0.0
 11
-15.08250000001093
 21
1.541481613724252
 31
0.0
  0
LINE
  5
CD
330
1F
100
AcDbEntity
  8
외형선
  6
Continuous
370
    15
100
AcDbLine
 10
-15.08250000001093
 20
-1.633518386275749
 30
0.0
 11
-15.08250000001093
 21
-0.0460183862757476
 31
0.0
  0
LINE
  5
CE
330
1F
100
AcDbEntity
  8
외형선
  6
Continuous
370
    15
100
AcDbLine
 10
-15.40000000001093
 20
-0.0460183862757476
 30
0.0
 11
-15.40000000001093
 21
1.223981613724253
 31
0.0
  0
LINE
  5
CF
330
1F
100
AcDbEntity
  8
외형선
  6
Continuous
370
    15
100
AcDbLine
 10
-15.40000000001093
 20
-1.316018386275748
 30
0.0
 11
-15.40000000001093
 21
-0.0460183862757476
 31
0.0
  0
SPLINE
  5
D0
330
1F
100
AcDbEntity
  8
외형선
  6
Continuous
370
    15
100
AcDbSpline
210
0.0
220
0.0
230
1.0
 70
    24
 71
     3
 72
    13
 73
     9
 74
     0
 42
0.000000001
 43
0.00000001
 40
0.0
 40
0.0
 40
0.0
 40
0.0
 40
0.1159983205003029
 40
0.2943474611635194
 40
0.4726966018267366
 40
0.6510457424899404
 40
0.8293948831528657
 40
1.0
 40
1.0
 40
1.0
 40
1.0
 10
9.99999999998909
 20
0.3259615470058683
 30
0.0
 10
9.999999999989086
 20
0.3442474905489409
 30
0.0
 10
9.999999999989072
 20
0.3906483438860271
 30
0.0
 10
9.999999999989047
 20
0.534838069620754
 30
0.0
 10
9.999999999989086
 20
0.7299459315107538
 30
0.0
 10
9.999999999989083
 20
0.9460193949196138
 30
0.0
 10
9.999999999989054
 20
1.156620653426571
 30
0.0
 10
9.999999999989072
 20
1.269449367792965
 30
0.0
 10
9.999999999989072
 20
1.324611772560688
 30
0.0
  0
LINE
  5
D1
330
1F
100
AcDbEntity
  8
중심선
 62
     1
100
AcDbLine
 10
-18.40000000001094
 20
-0.000000000000002
 30
0.0
 11
25.69999999998906
 21
-0.0000000000000001
 31
0.0
  0
LINE
  5
D2
330
1F
100
AcDbEntity
  8
참조1
100
AcDbLine
 10
-2.699999999999994
 20
0.0010749287238892
 30
0.0
 11
-2.69999999999999
 21
-39.99892507127611
 31
0.0
  0
LINE
  5
D3
330
1F
100
AcDbEntity
  8
참조1
100
AcDbLine
 10
-2.69999999999999
 20
-39.99892507127611
 30
0.0
 11
-17.85885681430866
 21
-39.9989250712761
 31
0.0
  0
CIRCLE
  5
D4
330
1F
100
AcDbEntity
  8
해칭선
100
AcDbCircle
 10
0.0
 20
0.0
 30
0.0
 40
3.0
  0
INSERT
  5
D5
330
1F
100
AcDbEntity
  8
0
  6
Continuous
 62
     7
100
AcDbBlockReference
 66
     1
  2
블럭10
 10
-10.29027293213615
 20
-26.59765743621874
 30
0.0
  0
ATTRIB
  5
D6
330
D5
100
AcDbEntity
  8
FORMAT
 62
     2
100
AcDbText
 10
-19.47156822087743
 20
-24.52229052338655
 30
0.0
 40
4.233333333333333
  1
E5067008 [ 5 FLUTE ]
 41
0.75
  7
SLDTEXTSTYLE0
 11
-19.47156822087743
 21
-26.63895719005322
 31
0.0
100
AcDbAttribute
  2
AUTOATTR0
 70
     0
 74
     1
  0
SEQEND
  5
D7
330
D5
100
AcDbEntity
  8
0
  6
Continuous
 62
     7
  0
HATCH
  5
D8
330
1F
100
AcDbEntity
  8
중심선
100
AcDbHatch
 10
0.0
 20
0.0
 30
0.0
210
0.0
220
0.0
230
1.0
  2
SOLID
 70
     1
 71
     0
 91
        1
 92
        0
 93
        4
 72
     1
 10
-4.575363627755296
 20
-10.3504831345748
 11
-8.021638871592579
 21
-10.3504831345748
 72
     1
 10
-8.021638871592579
 20
-10.3504831345748
 11
-10.1498687307966
 21
-12.8868087151474
 72
     1
 10
-10.1498687307966
 20
-12.8868087151474
 11
-6.70356040184617
 21
-12.88676928584491
 72
     1
 10
-6.70356040184617
 20
-12.88676928584491
 11
-4.575363627755296
 21
-10.3504831345748
 97
        0
 75
     0
 76
     1
 98
        1
 10
6.349999999989054
 20
25.4484419367013
  0
HATCH
  5
D9
330
1F
100
AcDbEntity
  8
중심선
100
AcDbHatch
 10
0.0
 20
0.0
 30
0.0
210
0.0
220
0.0
230
1.0
  2
SOLID
 70
     1
 71
     0
 91
        1
 92
        0
 93
        4
 72
     1
 10
0.4374003632806822
 20
-10.3504831345748
 11
-3.008874880556599
 21
-10.3504831345748
 72
     1
 10
-3.008874880556599
 20
-10.3504831345748
 11
-7.540012888914015
 21
-15.75048313457482
 72
     1
 10
-7.540012888914015
 20
-15.75048313457482
 11
-4.093737645076734
 21
-15.75048313457482
 72
     1
 10
-4.093737645076734
 20
-15.75048313457482
 11
0.4374003632806822
 21
-10.3504831345748
 97
        0
 75
     0
 76
     1
 98
        1
 10
6.349999999989054
 20
25.4484419367013
  0
HATCH
  5
DA
330
1F
100
AcDbEntity
  8
중심선
100
AcDbHatch
 10
0.0
 20
0.0
 30
0.0
210
0.0
220
0.0
230
1.0
  2
SOLID
 70
     1
 71
     0
 91
        1
 92
        0
 93
        4
 72
     1
 10
5.45016435431655
 20
-10.3504831345748
 11
2.003889110479435
 21
-10.3504831345748
 72
     1
 10
2.003889110479435
 20
-10.3504831345748
 11
-5.044547791409814
 21
-18.75048313457482
 72
     1
 10
-5.044547791409814
 20
-18.75048313457482
 11
-1.598272547572532
 21
-18.75048313457482
 72
     1
 10
-1.598272547572532
 20
-18.75048313457482
 11
5.45016435431655
 21
-10.3504831345748
 97
        0
 75
     0
 76
     1
 98
        1
 10
6.349999999989054
 20
25.4484419367013
  0
HATCH
  5
DB
330
1F
100
AcDbEntity
  8
중심선
100
AcDbHatch
 10
0.0
 20
0.0
 30
0.0
210
0.0
220
0.0
230
1.0
  2
SOLID
 70
     1
 71
     0
 91
        1
 92
        0
 93
        6
 72
     3
 10
10.25005478532875
 20
-14.55048313462608
 11
3.960054785062283
 21
1.540882976769353E-10
 40
0.3939339440162628
 50
17.09539180608439
 51
320.0019657685076
 73
     0
 72
     1
 10
11.93305444102934
 20
-13.13837713921308
 11
14.23835631473038
 21
-11.20405042916519
 72
     3
 10
10.2500547852759
 20
-14.55048313457495
 11
6.600054785286829
 21
-1.278976924368180E-13
 40
0.636358354079598
 50
39.99873849337411
 51
368.4976242363725
 73
     1
 72
     1
 10
16.67538727717651
 20
-13.59048313450483
 11
8.930122092111823
 21
-13.5904831345048
 72
     1
 10
8.930122092111827
 20
-13.5904831345048
 11
8.930097047665893
 21
-15.51048313450472
 72
     1
 10
8.930097047665893
 20
-15.51048313450472
 11
13.37147681713793
 21
-15.51048313450469
 97
        0
 75
     0
 76
     1
 98
        1
 10
6.349999999989054
 20
25.4484419367013
  0
DIMENSION
  5
DC
330
1F
100
AcDbEntity
  8
치수문자_일반주서
100
AcDbDimension
  2
_D
 10
38.55205422822493
 20
-1.633518386275686
 30
0.0
 11
38.55205422822483
 21
20.61423161372431
 31
0.0
 70
   160
  1
%%c<>
 71
     2
 42
3.175
 52
-270.0
  3
SLDDIMSTYLE0
100
AcDbAlignedDimension
 13
22.69999999998907
 23
1.541481613724252
 33
0.0
 14
22.69999999998906
 24
-1.633518386275748
 34
0.0
 50
90.0000000000002
100
AcDbRotatedDimension
1001
ACAD
1000
DSTYLE
1002
{
1070
   171
1070
     6
1070
   273
1070
     5
1002
}
  0
DIMENSION
  5
F1
330
1F
100
AcDbEntity
  8
치수문자_일반주서
100
AcDbDimension
  2
_D_1
 10
9.999999999989065
 20
25.87882960563984
 30
0.0
 11
15.84673951886466
 21
25.87882960563984
 31
0.0
 70
   160
  1
<>
 71
     2
 42
12.7
  3
SLDDIMSTYLE0
100
AcDbAlignedDimension
 13
22.69999999998907
 23
1.529896913284888
 33
0.0
 14
9.999999999989065
 24
1.536699042880534
 34
0.0
 50
0.0000000000001282
100
AcDbRotatedDimension
1001
ACAD
1000
DSTYLE
1002
{
1070
   171
1070
     6
1070
   273
1070
     5
1002
}
  0
DIMENSION
  5
106
330
1F
100
AcDbEntity
  8
치수문자_일반주서
100
AcDbDimension
  2
_D_2
 10
-15.40000000001093
 20
45.13966160421676
 30
0.0
 11
3.649999999989063
 21
45.13966160421676
 31
0.0
 70
   160
  1
<>
 71
     2
 42
38.1
  3
SLDDIMSTYLE0
100
AcDbAlignedDimension
 13
22.69999999998907
 23
1.529896913284888
 33
0.0
 14
-15.40000000001093
 24
1.223981613724253
 34
0.0
100
AcDbRotatedDimension
1001
ACAD
1000
DSTYLE
1002
{
1070
   171
1070
     6
1070
   273
1070
     5
1002
}
  0
DIMENSION
  5
119
330
1F
100
AcDbEntity
  8
치수문자_일반주서
100
AcDbDimension
  2
_D_3
 10
-21.73453676301373
 20
-1.633518386275764
 30
0.0
 11
-21.73453676301381
 21
20.61423161372422
 31
0.0
 70
   160
  1
%%c<>
 71
     2
 42
3.174999999999983
 52
-270.0
  3
SLDDIMSTYLE0
100
AcDbAlignedDimension
 13
-15.08250000001093
 23
1.541481613724244
 33
0.0
 14
-15.08250000001093
 24
-1.633518386275739
 34
0.0
 50
90.0000000000002
100
AcDbRotatedDimension
1001
ACAD
1000
DSTYLE
1002
{
1070
   171
1070
     6
1070
   273
1070
     5
1002
}
  0
LINE
  5
12D
330
1F
100
AcDbEntity
  8
참조1
100
AcDbLine
 10
80.1134838153456
 20
7.441074928723896
 30
0.0
 11
80.1134838153456
 21
-7.438925071276109
 31
0.0
  0
LINE
  5
12E
330
1F
100
AcDbEntity
  8
참조1
100
AcDbLine
 10
92.8134838153456
 20
5.441074928723896
 30
0.0
 11
80.1134838153456
 21
5.441074928723896
 31
0.0
  0
SOLID
  5
12F
330
1F
100
AcDbEntity
  8
참조1
100
AcDbTrace
 10
80.1134838153456
 20
5.441074928723896
 30
0.0
 11
86.4634838153456
 21
4.425074928723896
 31
0.0
 12
86.4634838153456
 22
6.457074928723896
 32
0.0
 13
86.4634838153456
 23
6.457074928723896
 33
0.0
  0
LINE
  5
130
330
1F
100
AcDbEntity
  8
참조1
100
AcDbLine
 10
92.8134838153456
 20
-5.438925071276109
 30
0.0
 11
80.1134838153456
 21
-5.438925071276109
 31
0.0
  0
SOLID
  5
131
330
1F
100
AcDbEntity
  8
참조1
100
AcDbTrace
 10
80.1134838153456
 20
-5.438925071276109
 30
0.0
 11
86.4634838153456
 21
-6.454925071276109
 31
0.0
 12
86.4634838153456
 22
-4.422925071276109
 32
0.0
 13
86.4634838153456
 23
-4.422925071276109
 33
0.0
  0
MTEXT
  5
132
330
1F
100
AcDbEntity
  8
참조1
100
AcDbMText
 10
89.4978339479716
 20
11.01136670591222
 30
0.0
 40
3.5
 41
0.0
 71
     1
 72
     1
  1
A
  7
SLDTEXTSTYLE0
 73
     1
 44
1.0
  0
MTEXT
  5
133
330
1F
100
AcDbEntity
  8
참조1
100
AcDbMText
 10
89.4978339479716
 20
0.1313667059122201
 30
0.0
 40
3.5
 41
0.0
 71
     1
 72
     1
  1
A
  7
SLDTEXTSTYLE0
 73
     1
 44
1.0
  0
INSERT
  5
13A
330
1F
100
AcDbEntity
  8
해칭선
100
AcDbBlockReference
  2
SW_DOWELSYMBOL_0
 10
0.0
 20
0.0
 30
0.0
  0
ENDSEC
  0
SECTION
  2
OBJECTS
  0
DICTIONARY
  5
C
330
0
100
AcDbDictionary
281
     1
  3
ACAD_GROUP
350
D
  3
ACAD_IMAGE_VARS
350
15E
  3
ACAD_LAYOUT
350
1A
  3
ACAD_MLINESTYLE
350
17
  3
ACAD_PLOTSETTINGS
350
19
  3
ACAD_PLOTSTYLENAME
350
E
  3
ACAD_SCALELIST
350
47
  3
APPDATA
350
15C
  3
DWGPROPS
350
2D6
  0
DICTIONARY
  5
218
330
2
100
AcDbDictionary
280
     1
281
     1
  3
ACAD_LAYERSTATES
360
219
  0
DICTIONARY
  5
D
102
{ACAD_REACTORS
330
C
102
}
330
C
100
AcDbDictionary
281
     1
  0
RASTERVARIABLES
  5
15E
102
{ACAD_REACTORS
330
C
102
}
330
C
100
AcDbRasterVariables
 90
        0
 70
     1
 71
     1
 72
     1
  0
DICTIONARY
  5
1A
102
{ACAD_REACTORS
330
C
102
}
330
C
100
AcDbDictionary
281
     1
  3
Layout1
350
1E
  3
Layout2
350
26
  3
Model
350
22
  0
DICTIONARY
  5
17
102
{ACAD_REACTORS
330
C
102
}
330
C
100
AcDbDictionary
281
     1
  3
Standard
350
18
  0
DICTIONARY
  5
19
102
{ACAD_REACTORS
330
C
102
}
330
C
100
AcDbDictionary
281
     1
  0
ACDBDICTIONARYWDFLT
  5
E
102
{ACAD_REACTORS
330
C
102
}
330
C
100
AcDbDictionary
281
     1
  3
Normal
350
F
100
AcDbDictionaryWithDefault
340
F
  0
DICTIONARY
  5
47
102
{ACAD_REACTORS
330
C
102
}
330
C
100
AcDbDictionary
281
     1
  3
A0
350
48
  3
A1
350
49
  3
A2
350
4A
  3
A3
350
4B
  3
A4
350
4C
  3
A5
350
4D
  3
A6
350
4E
  3
A7
350
4F
  3
A8
350
50
  3
A9
350
51
  3
B0
350
52
  3
B1
350
53
  3
B2
350
54
  3
B3
350
55
  3
B4
350
56
  3
B5
350
57
  3
B6
350
58
  3
B7
350
59
  3
B8
350
5A
  3
B9
350
5B
  3
C0
350
5C
  3
C1
350
5D
  3
C2
350
5E
  3
C3
350
5F
  3
C4
350
60
  3
C5
350
61
  3
C6
350
62
  3
C7
350
63
  3
C8
350
64
  3
C9
350
65
  3
D0
350
66
  3
D1
350
67
  3
D2
350
68
  0
DICTIONARY
  5
15C
102
{ACAD_REACTORS
330
C
102
}
330
C
100
AcDbDictionary
281
     1
  0
XRECORD
  5
2D6
102
{ACAD_REACTORS
330
C
102
}
330
C
100
AcDbXrecord
280
     1
  1
DWGPROPS COOKIE
  2

  3

  4

  6

  7

  8
12014074
  9

300
=
301
=
302
=
303
=
304
=
305
=
306
=
307
=
308
=
309
=
 40
0.0
 41
2458316.069964143
 42
2458323.303040694
  1

 90
        0
  0
DICTIONARY
  5
219
102
{ACAD_REACTORS
330
218
102
}
330
218
100
AcDbDictionary
281
     1
  0
LAYOUT
  5
1E
102
{ACAD_REACTORS
330
1A
102
}
330
1A
100
AcDbPlotSettings
  1

  2
none_device
  4

  6

 40
0.0
 41
0.0
 42
0.0
 43
0.0
 44
0.0
 45
0.0
 46
0.0
 47
0.0
 48
0.0
 49
0.0
140
0.0
141
0.0
142
1.0
143
1.0
 70
   688
 72
     1
 73
     0
 74
     5
  7

 75
    16
147
1.0
148
0.0
149
0.0
100
AcDbLayout
  1
Layout1
 70
     1
 71
     1
 10
0.0
 20
0.0
 11
420.0
 21
297.0
 12
0.0
 22
0.0
 32
0.0
 14
1.000000000000000E+20
 24
1.000000000000000E+20
 34
1.000000000000000E+20
 15
-1.000000000000000E+20
 25
-1.000000000000000E+20
 35
-1.000000000000000E+20
146
0.0
 13
0.0
 23
0.0
 33
0.0
 16
1.0
 26
0.0
 36
0.0
 17
0.0
 27
1.0
 37
0.0
 76
     0
330
1B
  0
LAYOUT
  5
26
102
{ACAD_REACTORS
330
1A
102
}
330
1A
100
AcDbPlotSettings
  1

  2
none_device
  4

  6

 40
0.0
 41
0.0
 42
0.0
 43
0.0
 44
0.0
 45
0.0
 46
0.0
 47
0.0
 48
0.0
 49
0.0
140
0.0
141
0.0
142
1.0
143
1.0
 70
   688
 72
     1
 73
     0
 74
     5
  7

 75
    16
147
1.0
148
0.0
149
0.0
100
AcDbLayout
  1
Layout2
 70
     1
 71
     2
 10
0.0
 20
0.0
 11
0.0
 21
0.0
 12
0.0
 22
0.0
 32
0.0
 14
0.0
 24
0.0
 34
0.0
 15
0.0
 25
0.0
 35
0.0
146
0.0
 13
0.0
 23
0.0
 33
0.0
 16
1.0
 26
0.0
 36
0.0
 17
0.0
 27
1.0
 37
0.0
 76
     0
330
23
  0
LAYOUT
  5
22
102
{ACAD_REACTORS
330
1A
102
}
330
1A
100
AcDbPlotSettings
  1

  2
none_device
  4
ANSI_A_(11.00_x_8.50_Inches)
  6

 40
6.35
 41
19.05
 42
6.35000508
 43
19.05000254
 44
279.4
 45
215.9
 46
79.09667561508688
 47
83.67020595038163
 48
0.0
 49
0.0
140
0.0
141
0.0
142
0.0789041991505439
143
1.0
 70
  1696
 72
     0
 73
     0
 74
     0
  7

 75
     0
147
0.0235690232323232
148
0.0
149
0.0
100
AcDbLayout
  1
Model
 70
     1
 71
     0
 10
0.0
 20
0.0
 11
420.0
 21
297.0
 12
0.0
 22
0.0
 32
0.0
 14
1.000000000000000E+20
 24
1.000000000000000E+20
 34
1.000000000000000E+20
 15
-1.000000000000000E+20
 25
-1.000000000000000E+20
 35
-1.000000000000000E+20
146
0.0
 13
0.0
 23
0.0
 33
0.0
 16
1.0
 26
0.0
 36
0.0
 17
0.0
 27
1.0
 37
0.0
 76
     0
330
1F
331
29
  0
MLINESTYLE
  5
18
102
{ACAD_REACTORS
330
17
102
}
330
17
100
AcDbMlineStyle
  2
Standard
 70
     0
  3

 62
   256
 51
90.0
 52
90.0
 71
     2
 49
0.5
 62
   256
  6
BYLAYER
 49
-0.5
 62
   256
  6
BYLAYER
  0
ACDBPLACEHOLDER
  5
F
102
{ACAD_REACTORS
330
E
102
}
330
E
  0
SCALE
  5
48
102
{ACAD_REACTORS
330
47
102
}
330
47
100
AcDbScale
 70
     0
300
1:1
140
1.0
141
1.0
290
     1
  0
SCALE
  5
49
102
{ACAD_REACTORS
330
47
102
}
330
47
100
AcDbScale
 70
     0
300
1:2
140
1.0
141
2.0
290
     0
  0
SCALE
  5
4A
102
{ACAD_REACTORS
330
47
102
}
330
47
100
AcDbScale
 70
     0
300
1:4
140
1.0
141
4.0
290
     0
  0
SCALE
  5
4B
102
{ACAD_REACTORS
330
47
102
}
330
47
100
AcDbScale
 70
     0
300
1:5
140
1.0
141
5.0
290
     0
  0
SCALE
  5
4C
102
{ACAD_REACTORS
330
47
102
}
330
47
100
AcDbScale
 70
     0
300
1:8
140
1.0
141
8.0
290
     0
  0
SCALE
  5
4D
102
{ACAD_REACTORS
330
47
102
}
330
47
100
AcDbScale
 70
     0
300
1:10
140
1.0
141
10.0
290
     0
  0
SCALE
  5
4E
102
{ACAD_REACTORS
330
47
102
}
330
47
100
AcDbScale
 70
     0
300
1:16
140
1.0
141
16.0
290
     0
  0
SCALE
  5
4F
102
{ACAD_REACTORS
330
47
102
}
330
47
100
AcDbScale
 70
     0
300
1:20
140
1.0
141
20.0
290
     0
  0
SCALE
  5
50
102
{ACAD_REACTORS
330
47
102
}
330
47
100
AcDbScale
 70
     0
300
1:30
140
1.0
141
30.0
290
     0
  0
SCALE
  5
51
102
{ACAD_REACTORS
330
47
102
}
330
47
100
AcDbScale
 70
     0
300
1:40
140
1.0
141
40.0
290
     0
  0
SCALE
  5
52
102
{ACAD_REACTORS
330
47
102
}
330
47
100
AcDbScale
 70
     0
300
1:50
140
1.0
141
50.0
290
     0
  0
SCALE
  5
53
102
{ACAD_REACTORS
330
47
102
}
330
47
100
AcDbScale
 70
     0
300
1:100
140
1.0
141
100.0
290
     0
  0
SCALE
  5
54
102
{ACAD_REACTORS
330
47
102
}
330
47
100
AcDbScale
 70
     0
300
2:1
140
2.0
141
1.0
290
     0
  0
SCALE
  5
55
102
{ACAD_REACTORS
330
47
102
}
330
47
100
AcDbScale
 70
     0
300
4:1
140
4.0
141
1.0
290
     0
  0
SCALE
  5
56
102
{ACAD_REACTORS
330
47
102
}
330
47
100
AcDbScale
 70
     0
300
8:1
140
8.0
141
1.0
290
     0
  0
SCALE
  5
57
102
{ACAD_REACTORS
330
47
102
}
330
47
100
AcDbScale
 70
     0
300
10:1
140
10.0
141
1.0
290
     0
  0
SCALE
  5
58
102
{ACAD_REACTORS
330
47
102
}
330
47
100
AcDbScale
 70
     0
300
100:1
140
100.0
141
1.0
290
     0
  0
SCALE
  5
59
102
{ACAD_REACTORS
330
47
102
}
330
47
100
AcDbScale
 70
     0
300
1/128" = 1'-0"
140
0.0078125
141
12.0
290
     0
  0
SCALE
  5
5A
102
{ACAD_REACTORS
330
47
102
}
330
47
100
AcDbScale
 70
     0
300
1/64" = 1'-0"
140
0.015625
141
12.0
290
     0
  0
SCALE
  5
5B
102
{ACAD_REACTORS
330
47
102
}
330
47
100
AcDbScale
 70
     0
300
1/32" = 1'-0"
140
0.03125
141
12.0
290
     0
  0
SCALE
  5
5C
102
{ACAD_REACTORS
330
47
102
}
330
47
100
AcDbScale
 70
     0
300
1/16" = 1'-0"
140
0.0625
141
12.0
290
     0
  0
SCALE
  5
5D
102
{ACAD_REACTORS
330
47
102
}
330
47
100
AcDbScale
 70
     0
300
3/32" = 1'-0"
140
0.09375
141
12.0
290
     0
  0
SCALE
  5
5E
102
{ACAD_REACTORS
330
47
102
}
330
47
100
AcDbScale
 70
     0
300
1/8" = 1'-0"
140
0.125
141
12.0
290
     0
  0
SCALE
  5
5F
102
{ACAD_REACTORS
330
47
102
}
330
47
100
AcDbScale
 70
     0
300
3/16" = 1'-0"
140
0.1875
141
12.0
290
     0
  0
SCALE
  5
60
102
{ACAD_REACTORS
330
47
102
}
330
47
100
AcDbScale
 70
     0
300
1/4" = 1'-0"
140
0.25
141
12.0
290
     0
  0
SCALE
  5
61
102
{ACAD_REACTORS
330
47
102
}
330
47
100
AcDbScale
 70
     0
300
3/8" = 1'-0"
140
0.375
141
12.0
290
     0
  0
SCALE
  5
62
102
{ACAD_REACTORS
330
47
102
}
330
47
100
AcDbScale
 70
     0
300
1/2" = 1'-0"
140
0.5
141
12.0
290
     0
  0
SCALE
  5
63
102
{ACAD_REACTORS
330
47
102
}
330
47
100
AcDbScale
 70
     0
300
3/4" = 1'-0"
140
0.75
141
12.0
290
     0
  0
SCALE
  5
64
102
{ACAD_REACTORS
330
47
102
}
330
47
100
AcDbScale
 70
     0
300
1" = 1'-0"
140
1.0
141
12.0
290
     0
  0
SCALE
  5
65
102
{ACAD_REACTORS
330
47
102
}
330
47
100
AcDbScale
 70
     0
300
1-1/2" = 1'-0"
140
1.5
141
12.0
290
     0
  0
SCALE
  5
66
102
{ACAD_REACTORS
330
47
102
}
330
47
100
AcDbScale
 70
     0
300
3" = 1'-0"
140
3.0
141
12.0
290
     0
  0
SCALE
  5
67
102
{ACAD_REACTORS
330
47
102
}
330
47
100
AcDbScale
 70
     0
300
6" = 1'-0"
140
6.0
141
12.0
290
     0
  0
SCALE
  5
68
102
{ACAD_REACTORS
330
47
102
}
330
47
100
AcDbScale
 70
     0
300
1'-0" = 1'-0"
140
12.0
141
12.0
290
     0
  0
ENDSEC
  0
EOF
