  0
SECTION
  2
HEADER
  9
$ACADVER
  1
AC1015
  9
$ACADMAINTVER
 70
     6
  9
$DWGCODEPAGE
  3
ANSI_949
  9
$INSBASE
 10
0.0
 20
0.0
 30
0.0
  9
$EXTMIN
 10
-53.16892670490603
 20
-49.97073246008785
 30
0.0
  9
$EXTMAX
 10
92.8134838153456
 20
50.34863764027281
 30
0.0
  9
$LIMMIN
 10
0.0
 20
0.0
  9
$LIMMAX
 10
420.0
 20
297.0
  9
$ORTHOMODE
 70
     0
  9
$REGENMODE
 70
     1
  9
$FILLMODE
 70
     1
  9
$QTEXTMODE
 70
     0
  9
$MIRRTEXT
 70
     1
  9
$LTSCALE
 40
1.0
  9
$ATTMODE
 70
     1
  9
$TEXTSIZE
 40
3.5
  9
$TRACEWID
 40
1.0
  9
$TEXTSTYLE
  7
Standard
  9
$CLAYER
  8
0
  9
$CELTYPE
  6
ByLayer
  9
$CECOLOR
 62
   256
  9
$CELTSCALE
 40
1.0
  9
$DISPSILH
 70
     0
  9
$DIMSCALE
 40
1.0
  9
$DIMASZ
 40
3.302
  9
$DIMEXO
 40
1.0
  9
$DIMDLI
 40
3.75
  9
$DIMRND
 40
0.0
  9
$DIMDLE
 40
0.0
  9
$DIMEXE
 40
1.0
  9
$DIMTP
 40
0.0
  9
$DIMTM
 40
0.0
  9
$DIMTXT
 40
3.5
  9
$DIMCEN
 40
2.5
  9
$DIMTSZ
 40
0.0
  9
$DIMTOL
 70
     0
  9
$DIMLIM
 70
     0
  9
$DIMTIH
 70
     1
  9
$DIMTOH
 70
     1
  9
$DIMSE1
 70
     0
  9
$DIMSE2
 70
     0
  9
$DIMTAD
 70
     1
  9
$DIMZIN
 70
     0
  9
$DIMBLK
  1

  9
$DIMASO
 70
     1
  9
$DIMSHO
 70
     1
  9
$DIMPOST
  1

  9
$DIMAPOST
  1

  9
$DIMALT
 70
     0
  9
$DIMALTD
 70
     3
  9
$DIMALTF
 40
0.0393700787401575
  9
$DIMLFAC
 40
1.0
  9
$DIMTOFL
 70
     1
  9
$DIMTVP
 40
0.0
  9
$DIMTIX
 70
     0
  9
$DIMSOXD
 70
     0
  9
$DIMSAH
 70
     0
  9
$DIMBLK1
  1

  9
$DIMBLK2
  1

  9
$DIMSTYLE
  2
ISO-25
  9
$DIMCLRD
 70
     0
  9
$DIMCLRE
 70
     0
  9
$DIMCLRT
 70
     0
  9
$DIMTFAC
 40
1.0
  9
$DIMGAP
 40
1.524
  9
$DIMJUST
 70
     0
  9
$DIMSD1
 70
     0
  9
$DIMSD2
 70
     0
  9
$DIMTOLJ
 70
     0
  9
$DIMTZIN
 70
     0
  9
$DIMALTZ
 70
     0
  9
$DIMALTTZ
 70
     0
  9
$DIMUPT
 70
     0
  9
$DIMDEC
 70
     2
  9
$DIMTDEC
 70
     2
  9
$DIMALTU
 70
     2
  9
$DIMALTTD
 70
     3
  9
$DIMTXSTY
  7
Standard
  9
$DIMAUNIT
 70
     0
  9
$DIMADEC
 70
     2
  9
$DIMALTRND
 40
0.0
  9
$DIMAZIN
 70
     0
  9
$DIMDSEP
 70
    44
  9
$DIMATFIT
 70
     3
  9
$DIMFRAC
 70
     0
  9
$DIMLDRBLK
  1

  9
$DIMLUNIT
 70
     2
  9
$DIMLWD
 70
    -2
  9
$DIMLWE
 70
    -2
  9
$DIMTMOVE
 70
     0
  9
$LUNITS
 70
     2
  9
$LUPREC
 70
     2
  9
$SKETCHINC
 40
1.0
  9
$FILLETRAD
 40
10.0
  9
$AUNITS
 70
     0
  9
$AUPREC
 70
     2
  9
$MENU
  1
.
  9
$ELEVATION
 40
0.0
  9
$PELEVATION
 40
0.0
  9
$THICKNESS
 40
0.0
  9
$LIMCHECK
 70
     0
  9
$CHAMFERA
 40
0.0
  9
$CHAMFERB
 40
0.0
  9
$CHAMFERC
 40
0.0
  9
$CHAMFERD
 40
0.0
  9
$SKPOLY
 70
     0
  9
$TDCREATE
 40
2458316.443058021
  9
$TDUCREATE
 40
2458316.068058021
  9
$TDUPDATE
 40
2458330.414343102
  9
$TDUUPDATE
 40
2458330.039343102
  9
$TDINDWG
 40
0.0001145139
  9
$TDUSRTIMER
 40
2458330.039289121
  9
$USRTIMER
 70
     1
  9
$ANGBASE
 50
0.0
  9
$ANGDIR
 70
     0
  9
$PDMODE
 70
     0
  9
$PDSIZE
 40
-1.0
  9
$PLINEWID
 40
0.0
  9
$SPLFRAME
 70
     0
  9
$SPLINETYPE
 70
     6
  9
$SPLINESEGS
 70
     8
  9
$HANDSEED
  5
281
  9
$SURFTAB1
 70
     6
  9
$SURFTAB2
 70
     6
  9
$SURFTYPE
 70
     6
  9
$SURFU
 70
     6
  9
$SURFV
 70
     6
  9
$UCSBASE
  2

  9
$UCSNAME
  2

  9
$UCSORG
 10
0.0
 20
0.0
 30
0.0
  9
$UCSXDIR
 10
1.0
 20
0.0
 30
0.0
  9
$UCSYDIR
 10
0.0
 20
1.0
 30
0.0
  9
$UCSORTHOREF
  2

  9
$UCSORTHOVIEW
 70
     0
  9
$UCSORGTOP
 10
0.0
 20
0.0
 30
0.0
  9
$UCSORGBOTTOM
 10
0.0
 20
0.0
 30
0.0
  9
$UCSORGLEFT
 10
0.0
 20
0.0
 30
0.0
  9
$UCSORGRIGHT
 10
0.0
 20
0.0
 30
0.0
  9
$UCSORGFRONT
 10
0.0
 20
0.0
 30
0.0
  9
$UCSORGBACK
 10
0.0
 20
0.0
 30
0.0
  9
$PUCSBASE
  2

  9
$PUCSNAME
  2

  9
$PUCSORG
 10
0.0
 20
0.0
 30
0.0
  9
$PUCSXDIR
 10
1.0
 20
0.0
 30
0.0
  9
$PUCSYDIR
 10
0.0
 20
1.0
 30
0.0
  9
$PUCSORTHOREF
  2

  9
$PUCSORTHOVIEW
 70
     0
  9
$PUCSORGTOP
 10
0.0
 20
0.0
 30
0.0
  9
$PUCSORGBOTTOM
 10
0.0
 20
0.0
 30
0.0
  9
$PUCSORGLEFT
 10
0.0
 20
0.0
 30
0.0
  9
$PUCSORGRIGHT
 10
0.0
 20
0.0
 30
0.0
  9
$PUCSORGFRONT
 10
0.0
 20
0.0
 30
0.0
  9
$PUCSORGBACK
 10
0.0
 20
0.0
 30
0.0
  9
$USERI1
 70
     0
  9
$USERI2
 70
     0
  9
$USERI3
 70
     0
  9
$USERI4
 70
     0
  9
$USERI5
 70
     0
  9
$USERR1
 40
0.0
  9
$USERR2
 40
0.0
  9
$USERR3
 40
0.0
  9
$USERR4
 40
0.0
  9
$USERR5
 40
0.0
  9
$WORLDVIEW
 70
     1
  9
$SHADEDGE
 70
     3
  9
$SHADEDIF
 70
    70
  9
$TILEMODE
 70
     1
  9
$MAXACTVP
 70
    64
  9
$PINSBASE
 10
0.0
 20
0.0
 30
0.0
  9
$PLIMCHECK
 70
     0
  9
$PEXTMIN
 10
1.000000000000000E+20
 20
1.000000000000000E+20
 30
1.000000000000000E+20
  9
$PEXTMAX
 10
-1.000000000000000E+20
 20
-1.000000000000000E+20
 30
-1.000000000000000E+20
  9
$PLIMMIN
 10
0.0
 20
0.0
  9
$PLIMMAX
 10
0.0
 20
0.0
  9
$UNITMODE
 70
     0
  9
$VISRETAIN
 70
     1
  9
$PLINEGEN
 70
     0
  9
$PSLTSCALE
 70
     1
  9
$TREEDEPTH
 70
  3020
  9
$CMLSTYLE
  2
Standard
  9
$CMLJUST
 70
     0
  9
$CMLSCALE
 40
20.0
  9
$PROXYGRAPHICS
 70
     1
  9
$MEASUREMENT
 70
     1
  9
$CELWEIGHT
370
    -1
  9
$ENDCAPS
280
     0
  9
$JOINSTYLE
280
     0
  9
$LWDISPLAY
290
     1
  9
$INSUNITS
 70
     4
  9
$HYPERLINKBASE
  1

  9
$STYLESHEET
  1

  9
$XEDIT
290
     1
  9
$CEPSNTYPE
380
     0
  9
$PSTYLEMODE
290
     1
  9
$FINGERPRINTGUID
  2
{5FBD25E9-E754-4F2B-A0F4-D1536BBF2FE2}
  9
$VERSIONGUID
  2
{FAEB1C32-E019-11D5-929B-00C0DF256EC4}
  9
$EXTNAMES
290
     1
  9
$PSVPSCALE
 40
0.0
  9
$OLESTARTUP
290
     0
  0
ENDSEC
  0
SECTION
  2
CLASSES
  0
CLASS
  1
ACDBDICTIONARYWDFLT
  2
AcDbDictionaryWithDefault
  3
ObjectDBX Classes
 90
        0
280
     0
281
     0
  0
CLASS
  1
VISUALSTYLE
  2
AcDbVisualStyle
  3
ObjectDBX Classes
 90
     4095
280
     0
281
     0
  0
CLASS
  1
MATERIAL
  2
AcDbMaterial
  3
ObjectDBX Classes
 90
     1153
280
     0
281
     0
  0
CLASS
  1
SCALE
  2
AcDbScale
  3
ObjectDBX Classes
 90
     1153
280
     0
281
     0
  0
CLASS
  1
SUN
  2
AcDbSun
  3
SCENEOE
 90
     1153
280
     0
281
     0
  0
CLASS
  1
ACDBPLACEHOLDER
  2
AcDbPlaceHolder
  3
ObjectDBX Classes
 90
        0
280
     0
281
     0
  0
CLASS
  1
LAYOUT
  2
AcDbLayout
  3
ObjectDBX Classes
 90
        0
280
     0
281
     0
  0
CLASS
  1
TABLESTYLE
  2
AcDbTableStyle
  3
ObjectDBX Classes
 90
     4095
280
     0
281
     0
  0
CLASS
  1
MLEADERSTYLE
  2
AcDbMLeaderStyle
  3
ACDB_MLEADERSTYLE_CLASS
 90
     4095
280
     0
281
     0
  0
CLASS
  1
RASTERVARIABLES
  2
AcDbRasterVariables
  3
ISM
 90
        0
280
     0
281
     0
  0
ENDSEC
  0
SECTION
  2
TABLES
  0
TABLE
  2
VPORT
  5
8
330
0
100
AcDbSymbolTable
 70
     1
  0
VPORT
  5
29
330
8
100
AcDbSymbolTableRecord
100
AcDbViewportTableRecord
  2
*Active
 70
     0
 10
0.0
 20
0.0
 11
1.0
 21
1.0
 12
11.91351241434309
 22
17.30156447675537
 13
0.0
 23
0.0
 14
10.0
 24
10.0
 15
10.0
 25
10.0
 16
0.0
 26
0.0
 36
1.0
 17
0.0
 27
0.0
 37
0.0
 40
166.7411179659017
 41
1.261704681872749
 42
50.0
 43
0.0
 44
0.0
 50
0.0
 51
0.0
 71
    16
 72
  2000
 73
     1
 74
     3
 75
     0
 76
     0
 77
     0
 78
     0
281
     0
 65
     1
110
0.0
120
0.0
130
0.0
111
1.0
121
0.0
131
0.0
112
0.0
122
1.0
132
0.0
 79
     0
146
0.0
  0
ENDTAB
  0
TABLE
  2
LTYPE
  5
5
330
0
100
AcDbSymbolTable
 70
     6
  0
LTYPE
  5
14
330
5
100
AcDbSymbolTableRecord
100
AcDbLinetypeTableRecord
  2
ByBlock
 70
     0
  3

 72
    65
 73
     0
 40
0.0
  0
LTYPE
  5
15
330
5
100
AcDbSymbolTableRecord
100
AcDbLinetypeTableRecord
  2
ByLayer
 70
     0
  3

 72
    65
 73
     0
 40
0.0
  0
LTYPE
  5
16
330
5
100
AcDbSymbolTableRecord
100
AcDbLinetypeTableRecord
  2
Continuous
 70
     0
  3
Solid line
 72
    65
 73
     0
 40
0.0
  0
LTYPE
  5
6A
330
5
100
AcDbSymbolTableRecord
100
AcDbLinetypeTableRecord
  2
HIDDEN
 70
     0
  3
Hidden __ __ __ __ __ __ __ __ __ __ __ __ __ __
 72
    65
 73
     2
 40
1.905
 49
1.27
 74
     0
 49
-0.635
 74
     0
  0
LTYPE
  5
6B
330
5
100
AcDbSymbolTableRecord
100
AcDbLinetypeTableRecord
  2
PHANTOM
 70
     0
  3
Phantom ______  __  __  ______  __  __  ______
 72
    65
 73
     6
 40
12.7
 49
6.35
 74
     0
 49
-1.27
 74
     0
 49
1.27
 74
     0
 49
-1.27
 74
     0
 49
1.27
 74
     0
 49
-1.27
 74
     0
  0
LTYPE
  5
6C
330
5
100
AcDbSymbolTableRecord
100
AcDbLinetypeTableRecord
  2
CENTER
 70
     0
  3
Center ____ _ ____ _ ____ _ ____ _ ____ _ ____
 72
    65
 73
     4
 40
10.16
 49
6.35
 74
     0
 49
-1.27
 74
     0
 49
1.27
 74
     0
 49
-1.27
 74
     0
  0
LTYPE
  5
6D
330
5
100
AcDbSymbolTableRecord
100
AcDbLinetypeTableRecord
  2
CENTERX2
 70
     0
  3
Center (2x) ________  __  ________  __  _____
 72
    65
 73
     4
 40
20.32
 49
12.7
 74
     0
 49
-2.54
 74
     0
 49
2.54
 74
     0
 49
-2.54
 74
     0
  0
LTYPE
  5
6E
330
5
100
AcDbSymbolTableRecord
100
AcDbLinetypeTableRecord
  2
DOT2
 70
     0
  3
Dot (.5x) ........................................
 72
    65
 73
     2
 40
0.635
 49
0.0
 74
     0
 49
-0.635
 74
     0
  0
ENDTAB
  0
TABLE
  2
LAYER
  5
2
102
{ACAD_XDICTIONARY
360
1C0
102
}
330
0
100
AcDbSymbolTable
 70
    18
  0
LAYER
  5
10
330
2
100
AcDbSymbolTableRecord
100
AcDbLayerTableRecord
  2
0
 70
     0
 62
     7
  6
Continuous
370
    -3
390
F
  0
LAYER
  5
6F
330
2
100
AcDbSymbolTableRecord
100
AcDbLayerTableRecord
  2
FORMAT
 70
     0
 62
     2
  6
Continuous
370
    -3
390
F
  0
LAYER
  5
70
330
2
100
AcDbSymbolTableRecord
100
AcDbLayerTableRecord
  2
외형선
 70
     0
 62
     4
  6
Continuous
370
    30
390
F
  0
LAYER
  5
71
330
2
100
AcDbSymbolTableRecord
100
AcDbLayerTableRecord
  2
숨은선
 70
     0
 62
     2
  6
HIDDEN
370
    15
390
F
  0
LAYER
  5
72
330
2
100
AcDbSymbolTableRecord
100
AcDbLayerTableRecord
  2
중심선
 70
     0
 62
     1
  6
CENTERX2
370
    -3
390
F
  0
LAYER
  5
73
330
2
100
AcDbSymbolTableRecord
100
AcDbLayerTableRecord
  2
파단선
 70
     0
 62
     4
  6
Continuous
370
    -3
390
F
  0
LAYER
  5
74
330
2
100
AcDbSymbolTableRecord
100
AcDbLayerTableRecord
  2
해칭선
 70
     0
 62
   100
  6
Continuous
370
    -3
390
F
  0
LAYER
  5
75
330
2
100
AcDbSymbolTableRecord
100
AcDbLayerTableRecord
  2
가는실선
 70
     0
 62
     4
  6
Continuous
370
    -3
390
F
  0
LAYER
  5
76
330
2
100
AcDbSymbolTableRecord
100
AcDbLayerTableRecord
  2
치수_보조선
 70
     0
 62
     4
  6
Continuous
370
    -3
390
F
  0
LAYER
  5
77
330
2
100
AcDbSymbolTableRecord
100
AcDbLayerTableRecord
  2
치수문자_일반주서
 70
     0
 62
     7
  6
Continuous
370
    15
390
F
  0
LAYER
  5
78
330
2
100
AcDbSymbolTableRecord
100
AcDbLayerTableRecord
  2
개별주서
 70
     0
 62
   100
  6
Continuous
370
    30
390
F
  0
LAYER
  5
79
330
2
100
AcDbSymbolTableRecord
100
AcDbLayerTableRecord
  2
중간선
 70
     0
 62
     2
  6
Continuous
370
    15
390
F
  0
LAYER
  5
7A
330
2
100
AcDbSymbolTableRecord
100
AcDbLayerTableRecord
  2
윤곽선
 70
     0
 62
     3
  6
Continuous
370
    40
390
F
  0
LAYER
  5
7B
330
2
100
AcDbSymbolTableRecord
100
AcDbLayerTableRecord
  2
중심마크
 70
     0
 62
   100
  6
Continuous
370
    30
390
F
  0
LAYER
  5
7C
330
2
100
AcDbSymbolTableRecord
100
AcDbLayerTableRecord
  2
가상선
 70
     0
 62
     4
  6
PHANTOM
370
    -3
390
F
  0
LAYER
  5
7D
330
2
100
AcDbSymbolTableRecord
100
AcDbLayerTableRecord
  2
특수지정선
 70
     0
 62
     5
  6
CENTERX2
370
    60
390
F
  0
LAYER
  5
7E
330
2
100
AcDbSymbolTableRecord
100
AcDbLayerTableRecord
  2
참조1
 70
     0
 62
    -4
  6
Continuous
370
    -3
390
F
  0
LAYER
  5
133
330
2
100
AcDbSymbolTableRecord
100
AcDbLayerTableRecord
  2
Defpoints
 70
     0
 62
     7
  6
Continuous
290
     0
370
    -3
390
F
  0
ENDTAB
  0
TABLE
  2
STYLE
  5
3
330
0
100
AcDbSymbolTable
 70
     2
  0
STYLE
  5
11
330
3
100
AcDbSymbolTableRecord
100
AcDbTextStyleTableRecord
  2
Standard
 70
     0
 40
0.0
 41
1.0
 50
0.0
 71
     0
 42
3.5
  3
txt
  4

  0
STYLE
  5
94
330
3
100
AcDbSymbolTableRecord
100
AcDbTextStyleTableRecord
  2
SLDTEXTSTYLE0
 70
     0
 40
0.0
 41
0.75
 50
0.0
 71
     0
 42
3.5
  3
TXT
  4

  0
ENDTAB
  0
TABLE
  2
VIEW
  5
6
330
0
100
AcDbSymbolTable
 70
     0
  0
ENDTAB
  0
TABLE
  2
UCS
  5
7
330
0
100
AcDbSymbolTable
 70
     0
  0
ENDTAB
  0
TABLE
  2
APPID
  5
9
330
0
100
AcDbSymbolTable
 70
     1
  0
APPID
  5
12
330
9
100
AcDbSymbolTableRecord
100
AcDbRegAppTableRecord
  2
ACAD
 70
     0
  0
ENDTAB
  0
TABLE
  2
DIMSTYLE
  5
A
330
0
100
AcDbSymbolTable
 70
     4
100
AcDbDimStyleTable
  0
DIMSTYLE
105
27
330
A
100
AcDbSymbolTableRecord
100
AcDbDimStyleTableRecord
  2
ISO-25
 70
     0
 41
2.5
 42
0.625
 43
3.75
 44
1.25
 73
     0
 74
     0
 77
     1
 78
     8
140
2.5
141
2.5
143
0.03937007874016
147
0.625
171
     3
172
     1
178
     0
271
     2
272
     2
274
     3
278
    44
283
     0
284
     8
340
11
  0
DIMSTYLE
105
B0
102
{ACAD_REACTORS
330
218
330
219
330
21A
330
21B
102
}
330
A
100
AcDbSymbolTableRecord
100
AcDbDimStyleTableRecord
  2
SLDDIMSTYLE0
 70
     0
 41
3.302
 44
0.0
 45
0.000000001
 73
     0
 74
     0
 77
     1
 78
    12
 79
     3
140
3.5
143
0.0393700787401575
147
0.875
148
0.000000001
170
     1
172
     1
173
     1
178
     0
271
     2
272
     2
276
     2
284
    12
289
     0
340
94
  0
DIMSTYLE
105
C5
330
A
100
AcDbSymbolTableRecord
100
AcDbDimStyleTableRecord
  2
SLDDIMSTYLE1
 70
     0
 41
3.302
 44
0.0
 45
0.000000001
 73
     0
 74
     0
 77
     1
 78
    12
 79
     3
140
3.5
143
0.0393700787401575
147
0.875
148
0.000000001
170
     1
173
     1
178
     0
271
     2
272
     2
276
     2
284
    12
340
94
  0
DIMSTYLE
105
DA
330
A
100
AcDbSymbolTableRecord
100
AcDbDimStyleTableRecord
  2
SLDDIMSTYLE2
 70
     0
 41
3.302
 44
0.0
 45
0.000000001
 73
     0
 74
     0
 77
     1
 78
     4
 79
     1
140
3.5
143
0.0393700787401575
147
0.875
148
0.000000001
170
     1
173
     1
178
     0
271
     2
272
     2
276
     2
284
    12
340
94
  0
ENDTAB
  0
TABLE
  2
BLOCK_RECORD
  5
1
330
0
100
AcDbSymbolTable
 70
    15
  0
BLOCK_RECORD
  5
1F
330
1
100
AcDbSymbolTableRecord
100
AcDbBlockTableRecord
  2
*Model_Space
340
22
  0
BLOCK_RECORD
  5
1B
330
1
100
AcDbSymbolTableRecord
100
AcDbBlockTableRecord
  2
*Paper_Space
340
1E
  0
BLOCK_RECORD
  5
23
330
1
100
AcDbSymbolTableRecord
100
AcDbBlockTableRecord
  2
*Paper_Space0
340
26
  0
BLOCK_RECORD
  5
7F
330
1
100
AcDbSymbolTableRecord
100
AcDbBlockTableRecord
  2
블럭10
340
0
102
{BLKREFS
331
A8
102
}
  0
BLOCK_RECORD
  5
B1
330
1
100
AcDbSymbolTableRecord
100
AcDbBlockTableRecord
  2
_D
340
0
  0
BLOCK_RECORD
  5
C6
330
1
100
AcDbSymbolTableRecord
100
AcDbBlockTableRecord
  2
_D_1
340
0
  0
BLOCK_RECORD
  5
DB
330
1
100
AcDbSymbolTableRecord
100
AcDbBlockTableRecord
  2
_D_2
340
0
  0
BLOCK_RECORD
  5
EE
330
1
100
AcDbSymbolTableRecord
100
AcDbBlockTableRecord
  2
_D_3
340
0
  0
BLOCK_RECORD
  5
108
330
1
100
AcDbSymbolTableRecord
100
AcDbBlockTableRecord
  2
SW_DOWELSYMBOL_0
340
0
102
{BLKREFS
331
21C
102
}
  0
BLOCK_RECORD
  5
1C4
330
1
100
AcDbSymbolTableRecord
100
AcDbBlockTableRecord
  2
*D7
340
0
  0
BLOCK_RECORD
  5
1D3
330
1
100
AcDbSymbolTableRecord
100
AcDbBlockTableRecord
  2
*D8
340
0
  0
BLOCK_RECORD
  5
1E2
330
1
100
AcDbSymbolTableRecord
100
AcDbBlockTableRecord
  2
*D9
340
0
  0
BLOCK_RECORD
  5
1EE
330
1
100
AcDbSymbolTableRecord
100
AcDbBlockTableRecord
  2
*D10
340
0
  0
BLOCK_RECORD
  5
222
330
1
100
AcDbSymbolTableRecord
100
AcDbBlockTableRecord
  2
*D11
340
0
  0
BLOCK_RECORD
  5
231
330
1
100
AcDbSymbolTableRecord
100
AcDbBlockTableRecord
  2
*D12
340
0
  0
BLOCK_RECORD
  5
240
330
1
100
AcDbSymbolTableRecord
100
AcDbBlockTableRecord
  2
*D13
340
0
  0
BLOCK_RECORD
  5
24C
330
1
100
AcDbSymbolTableRecord
100
AcDbBlockTableRecord
  2
*D14
340
0
  0
ENDTAB
  0
ENDSEC
  0
SECTION
  2
BLOCKS
  0
BLOCK
  5
20
330
1F
100
AcDbEntity
  8
0
100
AcDbBlockBegin
  2
*Model_Space
 70
     0
 10
0.0
 20
0.0
 30
0.0
  3
*Model_Space
  1
*Model_Space
  0
ENDBLK
  5
21
330
1F
100
AcDbEntity
  8
0
100
AcDbBlockEnd
  0
BLOCK
  5
1C
330
1B
100
AcDbEntity
 67
     1
  8
0
100
AcDbBlockBegin
  2
*Paper_Space
 70
     0
 10
0.0
 20
0.0
 30
0.0
  3
*Paper_Space
  1
*Paper_Space
  0
ENDBLK
  5
1D
330
1B
100
AcDbEntity
 67
     1
  8
0
100
AcDbBlockEnd
  0
BLOCK
  5
24
330
23
100
AcDbEntity
  8
0
100
AcDbBlockBegin
  2
*Paper_Space0
 70
     0
 10
0.0
 20
0.0
 30
0.0
  3
*Paper_Space0
  1
*Paper_Space0
  0
ENDBLK
  5
25
330
23
100
AcDbEntity
  8
0
100
AcDbBlockEnd
  0
BLOCK
  5
80
330
7F
100
AcDbEntity
  8
0
100
AcDbBlockBegin
  2
블럭10
 70
     2
 10
0.0
 20
0.0
 30
0.0
  3
블럭10
  1
블럭10
  0
ELLIPSE
  5
82
330
7F
100
AcDbEntity
  8
중심선
100
AcDbEllipse
 10
20.54032771741204
 20
12.0471743016438
 30
0.0
 11
6.600054785286829
 21
-1.261213355974178E-13
 31
0.0
210
0.0
220
0.0
230
1.0
 40
0.636358354079598
 41
0.9219305317359503
 42
6.513795318482858
  0
ELLIPSE
  5
83
330
7F
100
AcDbEntity
  8
중심선
100
AcDbEllipse
 10
20.54032771746488
 20
12.04717430159265
 30
0.0
 11
3.960054785062283
 21
1.540847449632565E-10
 31
0.0
210
0.0
220
0.0
230
1.0
 40
0.3939339440162632
 41
1.131841032648279
 42
5.62031148352944
  0
LINE
  5
84
330
7F
100
AcDbEntity
  8
중심선
100
AcDbLine
 10
2.268634060543552
 20
16.24717430164393
 30
0.0
 11
5.714909304380834
 21
16.24717430164393
 31
0.0
  0
LINE
  5
85
330
7F
100
AcDbEntity
  8
중심선
100
AcDbLine
 10
5.245725140726316
 20
7.84717430164391
 30
0.0
 11
8.692000384563599
 21
7.84717430164391
 31
0.0
  0
LINE
  5
86
330
7F
100
AcDbEntity
  8
중심선
100
AcDbLine
 10
15.74043728645272
 20
16.24717430164393
 30
0.0
 11
8.692000384563599
 21
7.84717430164391
 31
0.0
  0
LINE
  5
87
330
7F
100
AcDbEntity
  8
중심선
100
AcDbLine
 10
0.1404042013395286
 20
13.71084872107135
 30
0.0
 11
3.58671253028996
 21
13.71088815037384
 31
0.0
  0
LINE
  5
88
330
7F
100
AcDbEntity
  8
중심선
100
AcDbLine
 10
2.750260043222114
 20
10.84717430164391
 30
0.0
 11
6.196535287059397
 21
10.84717430164391
 31
0.0
  0
LINE
  5
89
330
7F
100
AcDbEntity
  8
중심선
100
AcDbLine
 10
12.29416204261559
 20
16.24717430164393
 30
0.0
 11
5.245725140726316
 21
7.84717430164391
 31
0.0
  0
LINE
  5
8A
330
7F
100
AcDbEntity
  8
중심선
100
AcDbLine
 10
10.72767329541681
 20
16.24717430164393
 30
0.0
 11
6.196535287059397
 21
10.84717430164391
 31
0.0
  0
LINE
  5
8B
330
7F
100
AcDbEntity
  8
중심선
100
AcDbLine
 10
7.28139805157953
 20
16.24717430164393
 30
0.0
 11
2.750260043222114
 21
10.84717430164391
 31
0.0
  0
LINE
  5
8C
330
7F
100
AcDbEntity
  8
중심선
100
AcDbLine
 10
5.714909304380834
 20
16.24717430164393
 30
0.0
 11
3.58671253028996
 21
13.71088815037384
 31
0.0
  0
LINE
  5
8D
330
7F
100
AcDbEntity
  8
중심선
100
AcDbLine
 10
2.268634060543552
 20
16.24717430164393
 30
0.0
 11
0.1404042013395286
 21
13.71084872107135
 31
0.0
  0
LINE
  5
8E
330
7F
100
AcDbEntity
  8
중심선
100
AcDbLine
 10
7.28139805157953
 20
16.24717430164393
 30
0.0
 11
10.72767329541681
 21
16.24717430164393
 31
0.0
  0
LINE
  5
8F
330
7F
100
AcDbEntity
  8
중심선
100
AcDbLine
 10
12.29416204261559
 20
16.24717430164393
 30
0.0
 11
15.74043728645272
 21
16.24717430164393
 31
0.0
  0
LINE
  5
90
330
7F
100
AcDbEntity
  8
중심선
100
AcDbLine
 10
19.22036997980202
 20
11.08717430171403
 30
0.0
 11
23.66174974927406
 21
11.08717430171406
 31
0.0
  0
LINE
  5
91
330
7F
100
AcDbEntity
  8
중심선
100
AcDbLine
 10
19.22039502424796
 20
13.00717430171391
 30
0.0
 11
19.22036997980202
 21
11.08717430171403
 31
0.0
  0
LINE
  5
92
330
7F
100
AcDbEntity
  8
중심선
100
AcDbLine
 10
19.22039502424796
 20
13.00717430171391
 30
0.0
 11
26.96566020931264
 21
13.00717430171391
 31
0.0
  0
LINE
  5
93
330
7F
100
AcDbEntity
  8
중심선
100
AcDbLine
 10
22.22332737316547
 20
13.45928029700563
 30
0.0
 11
24.52862924686651
 21
15.39360700705356
 31
0.0
  0
ATTDEF
  5
95
330
7F
100
AcDbEntity
  8
FORMAT
 62
     2
100
AcDbText
 10
4.408487351596664
 20
2.075366912832191
 30
0.0
 40
4.233333333333333
  1
E5066014
 41
0.75
  7
SLDTEXTSTYLE0
 11
4.408487351596664
 21
-0.0412997538344756
 31
0.0
100
AcDbAttributeDefinition
  3

  2
AUTOATTR0
 70
     0
 74
     1
  0
ENDBLK
  5
81
330
7F
100
AcDbEntity
  8
0
100
AcDbBlockEnd
  0
BLOCK
  5
B2
330
B1
100
AcDbEntity
  8
0
100
AcDbBlockBegin
  2
_D
 70
     0
 10
0.0
 20
0.0
 30
0.0
  3
_D
  1
_D
  0
SOLID
  5
B4
330
B1
100
AcDbEntity
  8
치수문자_일반주서
100
AcDbTrace
 10
38.52500000000001
 20
1.542556542448147
 30
0.0
 11
39.03300000000002
 21
4.844556542448147
 31
0.0
 12
38.01700000000001
 22
4.844556542448147
 32
0.0
 13
38.01700000000001
 23
4.844556542448147
 33
0.0
  0
SOLID
  5
B5
330
B1
100
AcDbEntity
  8
치수문자_일반주서
100
AcDbTrace
 10
38.52500000000001
 20
-1.632443457551854
 30
0.0
 11
38.01700000000001
 21
-4.934443457551854
 31
0.0
 12
39.03300000000002
 22
-4.934443457551854
 32
0.0
 13
39.03300000000002
 23
-4.934443457551854
 33
0.0
  0
LINE
  5
B6
330
B1
100
AcDbEntity
  8
치수문자_일반주서
100
AcDbLine
 10
27.73211828395729
 20
12.52710338644915
 30
0.0
 11
27.7321182839573
 21
11.81616590088465
 31
0.0
  0
LINE
  5
B7
330
B1
100
AcDbEntity
  8
치수문자_일반주서
100
AcDbLine
 10
27.7321182839573
 20
11.81616590088465
 30
0.0
 11
33.28836827501661
 21
11.81616590088469
 31
0.0
  0
LINE
  5
B8
330
B1
100
AcDbEntity
  8
치수문자_일반주서
100
AcDbLine
 10
33.28836827501661
 20
11.81616590088469
 30
0.0
 11
33.2883682750166
 21
12.52710338644919
 31
0.0
  0
LINE
  5
B9
330
B1
100
AcDbEntity
  8
치수문자_일반주서
100
AcDbLine
 10
27.73211828395722
 20
23.35583624858641
 30
0.0
 11
27.73211828395721
 21
24.06677373415091
 31
0.0
  0
LINE
  5
BA
330
B1
100
AcDbEntity
  8
치수문자_일반주서
100
AcDbLine
 10
27.73211828395721
 20
24.06677373415091
 30
0.0
 11
33.28836827501652
 21
24.06677373415095
 31
0.0
  0
LINE
  5
BB
330
B1
100
AcDbEntity
  8
치수문자_일반주서
100
AcDbLine
 10
33.28836827501652
 20
24.06677373415095
 30
0.0
 11
33.28836827501652
 21
23.35583624858645
 31
0.0
  0
LINE
  5
BC
330
B1
100
AcDbEntity
  8
치수문자_일반주서
100
AcDbLine
 10
20.52500000000002
 20
1.542556542448148
 30
0.0
 11
39.52500000000001
 21
1.542556542448147
 31
0.0
  0
LINE
  5
BD
330
B1
100
AcDbEntity
  8
치수문자_일반주서
100
AcDbLine
 10
20.52500000000002
 20
-1.632443457551853
 30
0.0
 11
39.52500000000001
 21
-1.632443457551854
 31
0.0
  0
LINE
  5
BE
330
B1
100
AcDbEntity
  8
치수문자_일반주서
100
AcDbLine
 10
38.52500000000001
 20
1.542556542448147
 30
0.0
 11
38.52500000000001
 21
25.10638351282343
 31
0.0
  0
LINE
  5
BF
330
B1
100
AcDbEntity
  8
치수문자_일반주서
100
AcDbLine
 10
38.52500000000001
 20
1.542556542448147
 30
0.0
 11
38.52500000000001
 21
-1.632443457551854
 31
0.0
  0
LINE
  5
C0
330
B1
100
AcDbEntity
  8
치수문자_일반주서
100
AcDbLine
 10
38.52500000000001
 20
-1.632443457551854
 30
0.0
 11
38.52500000000001
 21
-7.982443457551853
 31
0.0
  0
MTEXT
  5
C1
330
B1
100
AcDbEntity
  8
치수문자_일반주서
100
AcDbMText
 10
28.7766313604377
 20
13.41577528706053
 30
0.0
 40
3.5
 41
0.0
 71
     1
 72
     1
  1
0.13
  7
SLDTEXTSTYLE0
 11
-7.044195017643634E-15
 21
1.0
 31
0.0
 73
     1
 44
1.0
  0
MTEXT
  5
C2
330
B1
100
AcDbEntity
  8
치수문자_일반주서
100
AcDbMText
 10
34.01326291079819
 20
10.77655612221224
 30
0.0
 40
3.5
 41
0.0
 71
     1
 72
     1
  1
%%c
  7
SLDTEXTSTYLE0
 11
-7.044195017643634E-15
 21
1.0
 31
0.0
 73
     1
 44
1.0
  0
MTEXT
  5
C3
330
B1
100
AcDbEntity
  8
치수문자_일반주서
100
AcDbMText
 10
34.01326291079815
 20
16.05499352058632
 30
0.0
 40
3.5
 41
0.0
 71
     1
 72
     1
  1
3.18
  7
SLDTEXTSTYLE0
 11
-7.044195017643634E-15
 21
1.0
 31
0.0
 73
     1
 44
1.0
  0
ENDBLK
  5
B3
330
B1
100
AcDbEntity
  8
0
100
AcDbBlockEnd
  0
BLOCK
  5
C7
330
C6
100
AcDbEntity
  8
0
100
AcDbBlockBegin
  2
_D_1
 70
     0
 10
0.0
 20
0.0
 30
0.0
  3
_D_1
  1
_D_1
  0
SOLID
  5
C9
330
C6
100
AcDbEntity
  8
치수문자_일반주서
100
AcDbTrace
 10
29.05000000000005
 20
28.71335365288157
 30
0.0
 11
25.74800000000005
 21
29.22135365288157
 31
0.0
 12
25.74800000000005
 22
28.20535365288157
 32
0.0
 13
25.74800000000005
 23
28.20535365288157
 33
0.0
  0
SOLID
  5
CA
330
C6
100
AcDbEntity
  8
치수문자_일반주서
100
AcDbTrace
 10
21.11250000000006
 20
28.71335365288158
 30
0.0
 11
24.41450000000006
 21
28.20535365288158
 31
0.0
 12
24.41450000000006
 22
29.22135365288158
 32
0.0
 13
24.41450000000006
 23
29.22135365288158
 33
0.0
  0
LINE
  5
CB
330
C6
100
AcDbEntity
  8
치수문자_일반주서
100
AcDbLine
 10
36.13563391817775
 20
39.50623536892428
 30
0.0
 11
35.42469643261325
 21
39.50623536892429
 31
0.0
  0
LINE
  5
CC
330
C6
100
AcDbEntity
  8
치수문자_일반주서
100
AcDbLine
 10
35.42469643261325
 20
39.50623536892429
 30
0.0
 11
35.4246964326132
 21
33.94998537786498
 31
0.0
  0
LINE
  5
CD
330
C6
100
AcDbEntity
  8
치수문자_일반주서
100
AcDbLine
 10
35.4246964326132
 20
33.94998537786498
 30
0.0
 11
36.1356339181777
 21
33.94998537786498
 31
0.0
  0
LINE
  5
CE
330
C6
100
AcDbEntity
  8
치수문자_일반주서
100
AcDbLine
 10
46.964366780315
 20
39.50623536892419
 30
0.0
 11
47.6753042658795
 21
39.50623536892418
 31
0.0
  0
LINE
  5
CF
330
C6
100
AcDbEntity
  8
치수문자_일반주서
100
AcDbLine
 10
47.6753042658795
 20
39.50623536892418
 30
0.0
 11
47.67530426587945
 21
33.94998537786488
 31
0.0
  0
LINE
  5
D0
330
C6
100
AcDbEntity
  8
치수문자_일반주서
100
AcDbLine
 10
47.67530426587945
 20
33.94998537786488
 30
0.0
 11
46.96436678031495
 21
33.94998537786488
 31
0.0
  0
LINE
  5
D1
330
C6
100
AcDbEntity
  8
치수문자_일반주서
100
AcDbLine
 10
29.05000000000001
 20
3.318929491789101
 30
0.0
 11
29.05000000000005
 21
29.71335365288157
 31
0.0
  0
LINE
  5
D2
330
C6
100
AcDbEntity
  8
치수문자_일반주서
100
AcDbLine
 10
21.11250000000002
 20
3.257109325094611
 30
0.0
 11
21.11250000000006
 21
29.71335365288158
 31
0.0
  0
LINE
  5
D3
330
C6
100
AcDbEntity
  8
치수문자_일반주서
100
AcDbLine
 10
29.05000000000005
 20
28.71335365288157
 30
0.0
 11
49.50156229287428
 21
28.71335365288154
 31
0.0
  0
LINE
  5
D4
330
C6
100
AcDbEntity
  8
치수문자_일반주서
100
AcDbLine
 10
29.05000000000005
 20
28.71335365288157
 30
0.0
 11
21.11250000000006
 21
28.71335365288158
 31
0.0
  0
MTEXT
  5
D5
330
C6
100
AcDbEntity
  8
치수문자_일반주서
100
AcDbMText
 10
34.91093770712649
 20
33.27856291874327
 30
0.0
 40
3.5
 41
0.0
 71
     1
 72
     1
  1

  7
SLDTEXTSTYLE0
 73
     1
 44
1.0
  0
MTEXT
  5
D6
330
C6
100
AcDbEntity
  8
치수문자_일반주서
100
AcDbMText
 10
37.0243058187891
 20
38.46172229244387
 30
0.0
 40
3.5
 41
0.0
 71
     1
 72
     1
  1
0.31
  7
SLDTEXTSTYLE0
 73
     1
 44
1.0
  0
MTEXT
  5
D7
330
C6
100
AcDbEntity
  8
치수문자_일반주서
100
AcDbMText
 10
37.02430581878906
 20
33.2250907420834
 30
0.0
 40
3.5
 41
0.0
 71
     1
 72
     1
  1
7.94
  7
SLDTEXTSTYLE0
 73
     1
 44
1.0
  0
MTEXT
  5
D8
330
C6
100
AcDbEntity
  8
치수문자_일반주서
100
AcDbMText
 10
49.52100751102005
 20
33.27856291874314
 30
0.0
 40
3.5
 41
0.0
 71
     1
 72
     1
  1

  7
SLDTEXTSTYLE0
 73
     1
 44
1.0
  0
ENDBLK
  5
C8
330
C6
100
AcDbEntity
  8
0
100
AcDbBlockEnd
  0
BLOCK
  5
DC
330
DB
100
AcDbEntity
  8
0
100
AcDbBlockBegin
  2
_D_2
 70
     0
 10
0.0
 20
0.0
 30
0.0
  3
_D_2
  1
_D_2
  0
SOLID
  5
DE
330
DB
100
AcDbEntity
  8
치수문자_일반주서
100
AcDbTrace
 10
29.05000000000001
 20
45.92869418272097
 30
0.0
 11
25.74800000000001
 21
46.43669418272097
 31
0.0
 12
25.74800000000001
 22
45.42069418272096
 32
0.0
 13
25.74800000000001
 23
45.42069418272096
 33
0.0
  0
SOLID
  5
DF
330
DB
100
AcDbEntity
  8
치수문자_일반주서
100
AcDbTrace
 10
-21.74999999999999
 20
45.92869418272097
 30
0.0
 11
-18.44799999999999
 21
45.42069418272096
 31
0.0
 12
-18.44799999999999
 22
46.43669418272097
 32
0.0
 13
-18.44799999999999
 23
46.43669418272097
 33
0.0
  0
LINE
  5
E0
330
DB
100
AcDbEntity
  8
치수문자_일반주서
100
AcDbLine
 10
-1.764366081822662
 20
56.72157589876371
 30
0.0
 11
-2.475303567387162
 21
56.72157589876372
 31
0.0
  0
LINE
  5
E1
330
DB
100
AcDbEntity
  8
치수문자_일반주서
100
AcDbLine
 10
-2.475303567387162
 20
56.72157589876372
 30
0.0
 11
-2.475303567387201
 21
51.16532590770441
 31
0.0
  0
LINE
  5
E2
330
DB
100
AcDbEntity
  8
치수문자_일반주서
100
AcDbLine
 10
-2.475303567387201
 20
51.16532590770441
 30
0.0
 11
-1.764366081822701
 21
51.16532590770441
 31
0.0
  0
LINE
  5
E3
330
DB
100
AcDbEntity
  8
치수문자_일반주서
100
AcDbLine
 10
9.064366780314597
 20
56.72157589876364
 30
0.0
 11
9.775304265879097
 21
56.72157589876363
 31
0.0
  0
LINE
  5
E4
330
DB
100
AcDbEntity
  8
치수문자_일반주서
100
AcDbLine
 10
9.775304265879097
 20
56.72157589876363
 30
0.0
 11
9.775304265879058
 21
51.16532590770433
 31
0.0
  0
LINE
  5
E5
330
DB
100
AcDbEntity
  8
치수문자_일반주서
100
AcDbLine
 10
9.775304265879058
 20
51.16532590770433
 30
0.0
 11
9.064366780314558
 21
51.16532590770434
 31
0.0
  0
LINE
  5
E6
330
DB
100
AcDbEntity
  8
치수문자_일반주서
100
AcDbLine
 10
29.05000000000001
 20
3.318929491789101
 30
0.0
 11
29.05000000000001
 21
46.92869418272097
 31
0.0
  0
LINE
  5
E7
330
DB
100
AcDbEntity
  8
치수문자_일반주서
100
AcDbLine
 10
-21.74999999999999
 20
2.86005654244815
 30
0.0
 11
-21.74999999999999
 21
46.92869418272097
 31
0.0
  0
LINE
  5
E8
330
DB
100
AcDbEntity
  8
치수문자_일반주서
100
AcDbLine
 10
29.05000000000001
 20
45.92869418272097
 30
0.0
 11
-21.74999999999999
 21
45.92869418272097
 31
0.0
  0
MTEXT
  5
E9
330
DB
100
AcDbEntity
  8
치수문자_일반주서
100
AcDbMText
 10
-2.989062292873902
 20
50.4939034485827
 30
0.0
 40
3.5
 41
0.0
 71
     1
 72
     1
  1

  7
SLDTEXTSTYLE0
 73
     1
 44
1.0
  0
MTEXT
  5
EA
330
DB
100
AcDbEntity
  8
치수문자_일반주서
100
AcDbMText
 10
-0.8756941812112984
 20
55.6770628222833
 30
0.0
 40
3.5
 41
0.0
 71
     1
 72
     1
  1
2.00
  7
SLDTEXTSTYLE0
 73
     1
 44
1.0
  0
MTEXT
  5
EB
330
DB
100
AcDbEntity
  8
치수문자_일반주서
100
AcDbMText
 10
-2.168749894388062
 20
50.44043127192284
 30
0.0
 40
3.5
 41
0.0
 71
     1
 72
     1
  1
50.80
  7
SLDTEXTSTYLE0
 73
     1
 44
1.0
  0
MTEXT
  5
EC
330
DB
100
AcDbEntity
  8
치수문자_일반주서
100
AcDbMText
 10
11.62100751101966
 20
50.49390344858259
 30
0.0
 40
3.5
 41
0.0
 71
     1
 72
     1
  1

  7
SLDTEXTSTYLE0
 73
     1
 44
1.0
  0
ENDBLK
  5
DD
330
DB
100
AcDbEntity
  8
0
100
AcDbBlockEnd
  0
BLOCK
  5
EF
330
EE
100
AcDbEntity
  8
0
100
AcDbBlockBegin
  2
_D_3
 70
     0
 10
0.0
 20
0.0
 30
0.0
  3
_D_3
  1
_D_3
  0
SOLID
  5
F1
330
EE
100
AcDbEntity
  8
치수문자_일반주서
100
AcDbTrace
 10
-27.88007280062574
 20
1.542556542448139
 30
0.0
 11
-27.37207280062574
 21
4.844556542448139
 31
0.0
 12
-28.38807280062574
 22
4.844556542448139
 32
0.0
 13
-28.38807280062574
 23
4.844556542448139
 33
0.0
  0
SOLID
  5
F2
330
EE
100
AcDbEntity
  8
치수문자_일반주서
100
AcDbTrace
 10
-27.88007280062574
 20
-1.632443457551845
 30
0.0
 11
-28.38807280062574
 21
-4.934443457551844
 31
0.0
 12
-27.37207280062574
 22
-4.934443457551844
 32
0.0
 13
-27.37207280062574
 23
-4.934443457551844
 33
0.0
  0
LINE
  5
F3
330
EE
100
AcDbEntity
  8
치수문자_일반주서
100
AcDbLine
 10
-38.67295451666845
 20
-5.459309888620556
 30
0.0
 11
-38.67295451666845
 21
-6.170247374185056
 31
0.0
  0
LINE
  5
F4
330
EE
100
AcDbEntity
  8
치수문자_일반주서
100
AcDbLine
 10
-38.67295451666845
 20
-6.170247374185056
 30
0.0
 11
-33.11670452560914
 21
-6.170247374185017
 31
0.0
  0
LINE
  5
F5
330
EE
100
AcDbEntity
  8
치수문자_일반주서
100
AcDbLine
 10
-33.11670452560914
 20
-6.170247374185017
 30
0.0
 11
-33.11670452560915
 21
-5.459309888620517
 31
0.0
  0
LINE
  5
F6
330
EE
100
AcDbEntity
  8
치수문자_일반주서
100
AcDbLine
 10
-38.67295451666853
 20
5.369422973516702
 30
0.0
 11
-38.67295451666853
 21
6.080360459081202
 31
0.0
  0
LINE
  5
F7
330
EE
100
AcDbEntity
  8
치수문자_일반주서
100
AcDbLine
 10
-38.67295451666853
 20
6.080360459081202
 30
0.0
 11
-33.11670452560923
 21
6.080360459081241
 31
0.0
  0
LINE
  5
F8
330
EE
100
AcDbEntity
  8
치수문자_일반주서
100
AcDbLine
 10
-33.11670452560923
 20
6.080360459081241
 30
0.0
 11
-33.11670452560922
 21
5.369422973516741
 31
0.0
  0
LINE
  5
F9
330
EE
100
AcDbEntity
  8
치수문자_일반주서
100
AcDbLine
 10
-22.43249999999999
 20
1.542556542448139
 30
0.0
 11
-28.88007280062574
 21
1.542556542448139
 31
0.0
  0
LINE
  5
FA
330
EE
100
AcDbEntity
  8
치수문자_일반주서
100
AcDbLine
 10
-22.43249999999999
 20
-1.632443457551844
 30
0.0
 11
-28.88007280062574
 21
-1.632443457551845
 31
0.0
  0
LINE
  5
FB
330
EE
100
AcDbEntity
  8
치수문자_일반주서
100
AcDbLine
 10
-27.88007280062574
 20
1.542556542448139
 30
0.0
 11
-27.88007280062574
 21
7.892556542448139
 31
0.0
  0
LINE
  5
FC
330
EE
100
AcDbEntity
  8
치수문자_일반주서
100
AcDbLine
 10
-27.88007280062574
 20
1.542556542448139
 30
0.0
 11
-27.88007280062574
 21
-1.632443457551845
 31
0.0
  0
LINE
  5
FD
330
EE
100
AcDbEntity
  8
치수문자_일반주서
100
AcDbLine
 10
-27.88007280062574
 20
-1.632443457551845
 30
0.0
 11
-27.88007280062574
 21
-7.982443457551844
 31
0.0
  0
MTEXT
  5
FE
330
EE
100
AcDbEntity
  8
치수문자_일반주서
100
AcDbMText
 10
-37.62844144018804
 20
-4.570637988009179
 30
0.0
 40
3.5
 41
0.0
 71
     1
 72
     1
  1
0.13
  7
SLDTEXTSTYLE0
 11
-7.044195017643634E-15
 21
1.0
 31
0.0
 73
     1
 44
1.0
  0
MTEXT
  5
FF
330
EE
100
AcDbEntity
  8
치수문자_일반주서
100
AcDbMText
 10
-32.39180988982756
 20
-7.20985715285747
 30
0.0
 40
3.5
 41
0.0
 71
     1
 72
     1
  1
%%c
  7
SLDTEXTSTYLE0
 11
-7.044195017643634E-15
 21
1.0
 31
0.0
 73
     1
 44
1.0
  0
MTEXT
  5
100
330
EE
100
AcDbEntity
  8
치수문자_일반주서
100
AcDbMText
 10
-32.3918098898276
 20
-1.931419754483389
 30
0.0
 40
3.5
 41
0.0
 71
     1
 72
     1
  1
3.18
  7
SLDTEXTSTYLE0
 11
-7.044195017643634E-15
 21
1.0
 31
0.0
 73
     1
 44
1.0
  0
ENDBLK
  5
F0
330
EE
100
AcDbEntity
  8
0
100
AcDbBlockEnd
  0
BLOCK
  5
109
330
108
100
AcDbEntity
  8
0
100
AcDbBlockBegin
  2
SW_DOWELSYMBOL_0
 70
     0
 10
0.0
 20
0.0
 30
0.0
  3
SW_DOWELSYMBOL_0
  1
SW_DOWELSYMBOL_0
  0
CIRCLE
  5
10B
330
108
100
AcDbEntity
  8
해칭선
 62
     0
100
AcDbCircle
 10
0.0
 20
0.0
 30
0.0
 40
3.0
  0
HATCH
  5
10C
330
108
100
AcDbEntity
  8
0
  6
Continuous
 62
     0
370
     0
100
AcDbHatch
 10
0.0
 20
0.0
 30
0.0
210
0.0
220
0.0
230
1.0
  2
SOLID
 70
     1
 71
     0
 91
        1
 92
        0
 93
        3
 72
     2
 10
0.0
 20
0.0
 40
3.0
 50
0.0
 51
90.0
 73
     1
 72
     1
 10
0.0
 20
3.0
 11
0.0
 21
0.0
 72
     1
 10
0.0
 20
0.0
 11
2.999999999999999
 21
0.0
 97
        0
 75
     0
 76
     1
 98
        1
 10
0.0
 20
0.0
  0
HATCH
  5
10D
330
108
100
AcDbEntity
  8
0
  6
Continuous
 62
     0
370
     0
100
AcDbHatch
 10
0.0
 20
0.0
 30
0.0
210
0.0
220
0.0
230
1.0
  2
SOLID
 70
     1
 71
     0
 91
        1
 92
        0
 93
        3
 72
     2
 10
0.0
 20
0.0
 40
3.0
 50
180.0
 51
270.0000000000007
 73
     1
 72
     1
 10
0.0
 20
-3.0
 11
0.0
 21
0.0
 72
     1
 10
0.0
 20
0.0
 11
-2.999999999999999
 21
0.0
 97
        0
 75
     0
 76
     1
 98
        1
 10
0.0
 20
0.0
  0
ENDBLK
  5
10A
330
108
100
AcDbEntity
  8
0
100
AcDbBlockEnd
  0
BLOCK
  5
1C5
330
1C4
100
AcDbEntity
  8
0
100
AcDbBlockBegin
  2
*D7
 70
     1
 10
0.0
 20
0.0
 30
0.0
  3
*D7
  1
*D8
  0
LINE
  5
1C7
330
1C4
100
AcDbEntity
  8
치수문자_일반주서
 62
     0
370
    -2
100
AcDbLine
 10
65.84683180575207
 20
12.55712500000005
 30
0.0
 11
84.78433180575213
 21
12.55712500000012
 31
0.0
  0
LINE
  5
1C8
330
1C4
100
AcDbEntity
  8
치수문자_일반주서
 62
     0
370
    -2
100
AcDbLine
 10
65.84683180575207
 20
7.000875000000049
 30
0.0
 11
84.78433180575215
 21
7.000875000000121
 31
0.0
  0
LINE
  5
1C9
330
1C4
100
AcDbEntity
  8
치수문자_일반주서
 62
     0
370
    -2
100
AcDbLine
 10
84.78433180575213
 20
12.55712500000012
 30
0.0
 11
84.78433180575203
 21
48.47362500000012
 31
0.0
  0
LINE
  5
1CA
330
1C4
100
AcDbEntity
  8
치수문자_일반주서
 62
     0
370
    -2
100
AcDbLine
 10
84.78433180575213
 20
12.55712500000012
 30
0.0
 11
84.78433180575215
 21
7.000875000000121
 31
0.0
  0
LINE
  5
1CB
330
1C4
100
AcDbEntity
  8
치수문자_일반주서
 62
     0
370
    -2
100
AcDbLine
 10
84.78433180575212
 20
15.85912500000012
 30
0.0
 11
84.7843318057521
 21
19.16112500000012
 31
0.0
  0
LINE
  5
1CC
330
1C4
100
AcDbEntity
  8
치수문자_일반주서
 62
     0
370
    -2
100
AcDbLine
 10
84.78433180575216
 20
3.698875000000122
 30
0.0
 11
84.78433180575217
 21
0.3968750000001222
 31
0.0
  0
SOLID
  5
1CD
330
1C4
100
AcDbEntity
  8
치수문자_일반주서
 62
     0
100
AcDbTrace
 10
84.23399847241879
 20
15.85912500000012
 30
0.0
 11
85.33466513908544
 21
15.85912500000012
 31
0.0
 12
84.78433180575213
 22
12.55712500000012
 32
0.0
 13
84.78433180575213
 23
12.55712500000012
 33
0.0
  0
SOLID
  5
1CE
330
1C4
100
AcDbEntity
  8
치수문자_일반주서
 62
     0
100
AcDbTrace
 10
85.33466513908549
 20
3.698875000000123
 30
0.0
 11
84.23399847241883
 21
3.69887500000012
 31
0.0
 12
84.78433180575215
 22
7.000875000000121
 32
0.0
 13
84.78433180575215
 23
7.000875000000121
 33
0.0
  0
MTEXT
  5
1CF
330
1C4
100
AcDbEntity
  8
치수문자_일반주서
 62
     0
100
AcDbMText
 10
80.40933180575207
 20
34.0361250000001
 30
0.0
 40
3.5
 41
0.0
 71
     2
 72
     1
  1
\A1;%%c5.56 [7/32]
  7
SLDTEXTSTYLE0
 11
-2.557634144468302E-15
 21
1.0
 31
0.0
 73
     1
 44
1.0
  0
POINT
  5
1D0
330
1C4
100
AcDbEntity
  8
Defpoints
 62
     0
100
AcDbPoint
 10
65.78433180575207
 20
12.55712500000005
 30
0.0
  0
POINT
  5
1D1
330
1C4
100
AcDbEntity
  8
Defpoints
 62
     0
100
AcDbPoint
 10
65.78433180575207
 20
7.000875000000049
 30
0.0
  0
POINT
  5
1D2
330
1C4
100
AcDbEntity
  8
Defpoints
 62
     0
100
AcDbPoint
 10
84.78433180575216
 20
7.000875000000121
 30
0.0
  0
ENDBLK
  5
1C6
330
1C4
100
AcDbEntity
  8
0
100
AcDbBlockEnd
  0
BLOCK
  5
1D4
330
1D3
100
AcDbEntity
  8
0
100
AcDbBlockBegin
  2
*D8
 70
     1
 10
0.0
 20
0.0
 30
0.0
  3
*D8
  1
*D9
  0
LINE
  5
1D6
330
1D3
100
AcDbEntity
  8
치수문자_일반주서
 62
     0
370
    -2
100
AcDbLine
 10
65.78433180575207
 20
12.205372949341
 30
0.0
 11
65.78433180575207
 21
33.10576907215465
 31
0.0
  0
LINE
  5
1D7
330
1D3
100
AcDbEntity
  8
치수문자_일반주서
 62
     0
370
    -2
100
AcDbLine
 10
57.84683180575207
 20
12.14355278264651
 30
0.0
 11
57.84683180575207
 21
33.10576907215465
 31
0.0
  0
LINE
  5
1D8
330
1D3
100
AcDbEntity
  8
치수문자_일반주서
 62
     0
370
    -2
100
AcDbLine
 10
57.84683180575207
 20
33.10576907215465
 30
0.0
 11
25.60715517458932
 21
33.10576907215465
 31
0.0
  0
LINE
  5
1D9
330
1D3
100
AcDbEntity
  8
치수문자_일반주서
 62
     0
370
    -2
100
AcDbLine
 10
65.78433180575207
 20
33.10576907215465
 30
0.0
 11
57.84683180575207
 21
33.10576907215465
 31
0.0
  0
LINE
  5
1DA
330
1D3
100
AcDbEntity
  8
치수문자_일반주서
 62
     0
370
    -2
100
AcDbLine
 10
69.08633180575208
 20
33.10576907215465
 30
0.0
 11
72.38833180575207
 21
33.10576907215465
 31
0.0
  0
LINE
  5
1DB
330
1D3
100
AcDbEntity
  8
치수문자_일반주서
 62
     0
370
    -2
100
AcDbLine
 10
54.54483180575208
 20
33.10576907215465
 30
0.0
 11
51.24283180575208
 21
33.10576907215465
 31
0.0
  0
SOLID
  5
1DC
330
1D3
100
AcDbEntity
  8
치수문자_일반주서
 62
     0
100
AcDbTrace
 10
69.08633180575208
 20
33.65610240548799
 30
0.0
 11
69.08633180575208
 21
32.55543573882132
 31
0.0
 12
65.78433180575207
 22
33.10576907215465
 32
0.0
 13
65.78433180575207
 23
33.10576907215465
 33
0.0
  0
SOLID
  5
1DD
330
1D3
100
AcDbEntity
  8
치수문자_일반주서
 62
     0
100
AcDbTrace
 10
54.54483180575208
 20
32.55543573882132
 30
0.0
 11
54.54483180575208
 21
33.65610240548799
 31
0.0
 12
57.84683180575207
 22
33.10576907215465
 32
0.0
 13
57.84683180575207
 23
33.10576907215465
 33
0.0
  0
MTEXT
  5
1DE
330
1D3
100
AcDbEntity
  8
치수문자_일반주서
 62
     0
100
AcDbMText
 10
38.29465517458932
 20
37.48076907215465
 30
0.0
 40
3.5
 41
0.0
 71
     2
 72
     1
  1
\A1;7.94 [5/16]
  7
SLDTEXTSTYLE0
 73
     1
 44
1.0
  0
POINT
  5
1DF
330
1D3
100
AcDbEntity
  8
Defpoints
 62
     0
100
AcDbPoint
 10
65.78433180575207
 20
12.142872949341
 30
0.0
  0
POINT
  5
1E0
330
1D3
100
AcDbEntity
  8
Defpoints
 62
     0
100
AcDbPoint
 10
57.84683180575207
 20
12.08105278264651
 30
0.0
  0
POINT
  5
1E1
330
1D3
100
AcDbEntity
  8
Defpoints
 62
     0
100
AcDbPoint
 10
57.84683180575207
 20
33.10576907215465
 30
0.0
  0
ENDBLK
  5
1D5
330
1D3
100
AcDbEntity
  8
0
100
AcDbBlockEnd
  0
BLOCK
  5
1E3
330
1E2
100
AcDbEntity
  8
0
100
AcDbBlockBegin
  2
*D9
 70
     1
 10
0.0
 20
0.0
 30
0.0
  3
*D9
  1
*D10
  0
LINE
  5
1E5
330
1E2
100
AcDbEntity
  8
치수문자_일반주서
 62
     0
370
    -2
100
AcDbLine
 10
65.78433180575207
 20
12.205372949341
 30
0.0
 11
65.78433180575207
 21
55.75263764027287
 31
0.0
  0
LINE
  5
1E6
330
1E2
100
AcDbEntity
  8
치수문자_일반주서
 62
     0
370
    -2
100
AcDbLine
 10
14.98433180575208
 20
12.54025000000005
 30
0.0
 11
14.98433180575208
 21
55.75263764027287
 31
0.0
  0
LINE
  5
1E7
330
1E2
100
AcDbEntity
  8
치수문자_일반주서
 62
     0
370
    -2
100
AcDbLine
 10
62.48233180575208
 20
55.75263764027287
 30
0.0
 11
18.28633180575208
 21
55.75263764027287
 31
0.0
  0
SOLID
  5
1E8
330
1E2
100
AcDbEntity
  8
치수문자_일반주서
 62
     0
100
AcDbTrace
 10
62.48233180575208
 20
55.20230430693953
 30
0.0
 11
62.48233180575208
 21
56.3029709736062
 31
0.0
 12
65.78433180575207
 22
55.75263764027287
 32
0.0
 13
65.78433180575207
 23
55.75263764027287
 33
0.0
  0
SOLID
  5
1E9
330
1E2
100
AcDbEntity
  8
치수문자_일반주서
 62
     0
100
AcDbTrace
 10
18.28633180575208
 20
56.3029709736062
 30
0.0
 11
18.28633180575208
 21
55.20230430693953
 31
0.0
 12
14.98433180575208
 22
55.75263764027287
 32
0.0
 13
14.98433180575208
 23
55.75263764027287
 33
0.0
  0
MTEXT
  5
1EA
330
1E2
100
AcDbEntity
  8
치수문자_일반주서
 62
     0
100
AcDbMText
 10
40.38433180575208
 20
60.12763764027287
 30
0.0
 40
3.5
 41
0.0
 71
     2
 72
     1
  1
\A1;50.8 [2]
  7
SLDTEXTSTYLE0
 73
     1
 44
1.0
  0
POINT
  5
1EB
330
1E2
100
AcDbEntity
  8
Defpoints
 62
     0
100
AcDbPoint
 10
65.78433180575207
 20
12.142872949341
 30
0.0
  0
POINT
  5
1EC
330
1E2
100
AcDbEntity
  8
Defpoints
 62
     0
100
AcDbPoint
 10
14.98433180575208
 20
12.47775000000005
 30
0.0
  0
POINT
  5
1ED
330
1E2
100
AcDbEntity
  8
Defpoints
 62
     0
100
AcDbPoint
 10
14.98433180575208
 20
55.75263764027287
 30
0.0
  0
ENDBLK
  5
1E4
330
1E2
100
AcDbEntity
  8
0
100
AcDbBlockEnd
  0
BLOCK
  5
1EF
330
1EE
100
AcDbEntity
  8
0
100
AcDbBlockBegin
  2
*D10
 70
     1
 10
0.0
 20
0.0
 30
0.0
  3
*D10
  1
*D11
  0
LINE
  5
1F1
330
1EE
100
AcDbEntity
  8
치수문자_일반주서
 62
     0
370
    -2
100
AcDbLine
 10
15.39808180575208
 20
12.95400000000005
 30
0.0
 11
4.375000000000109
 21
12.954
 31
0.0
  0
LINE
  5
1F2
330
1EE
100
AcDbEntity
  8
치수문자_일반주서
 62
     0
370
    -2
100
AcDbLine
 10
15.39808180575208
 20
6.604000000000044
 30
0.0
 11
4.375000000000131
 21
6.603999999999999
 31
0.0
  0
LINE
  5
1F3
330
1EE
100
AcDbEntity
  8
치수문자_일반주서
 62
     0
370
    -2
100
AcDbLine
 10
4.375000000000109
 20
12.954
 30
0.0
 11
4.374999999999991
 21
46.683
 31
0.0
  0
LINE
  5
1F4
330
1EE
100
AcDbEntity
  8
치수문자_일반주서
 62
     0
370
    -2
100
AcDbLine
 10
4.375000000000109
 20
12.954
 30
0.0
 11
4.375000000000131
 21
6.603999999999999
 31
0.0
  0
LINE
  5
1F5
330
1EE
100
AcDbEntity
  8
치수문자_일반주서
 62
     0
370
    -2
100
AcDbLine
 10
4.375000000000098
 20
16.256
 30
0.0
 11
4.375000000000086
 21
19.558
 31
0.0
  0
LINE
  5
1F6
330
1EE
100
AcDbEntity
  8
치수문자_일반주서
 62
     0
370
    -2
100
AcDbLine
 10
4.375000000000143
 20
3.302
 30
0.0
 11
4.375000000000155
 21
0.0
 31
0.0
  0
SOLID
  5
1F7
330
1EE
100
AcDbEntity
  8
치수문자_일반주서
 62
     0
100
AcDbTrace
 10
3.824666666666765
 20
16.256
 30
0.0
 11
4.925333333333431
 21
16.256
 31
0.0
 12
4.375000000000109
 22
12.954
 32
0.0
 13
4.375000000000109
 23
12.954
 33
0.0
  0
SOLID
  5
1F8
330
1EE
100
AcDbEntity
  8
치수문자_일반주서
 62
     0
100
AcDbTrace
 10
4.925333333333477
 20
3.302000000000001
 30
0.0
 11
3.82466666666681
 21
3.301999999999998
 31
0.0
 12
4.375000000000131
 22
6.603999999999999
 32
0.0
 13
4.375000000000131
 23
6.603999999999999
 33
0.0
  0
MTEXT
  5
1F9
330
1EE
100
AcDbEntity
  8
치수문자_일반주서
 62
     0
100
AcDbMText
 10
0.0000000000000355
 20
33.99549999999999
 30
0.0
 40
3.5
 41
0.0
 71
     2
 72
     1
  1
\A1;%%c6.35 [1/4]
  7
SLDTEXTSTYLE0
 11
-3.496765431890256E-15
 21
1.0
 31
0.0
 73
     1
 44
1.0
  0
POINT
  5
1FA
330
1EE
100
AcDbEntity
  8
Defpoints
 62
     0
100
AcDbPoint
 10
15.46058180575208
 20
12.95400000000005
 30
0.0
  0
POINT
  5
1FB
330
1EE
100
AcDbEntity
  8
Defpoints
 62
     0
100
AcDbPoint
 10
15.46058180575208
 20
6.604000000000044
 30
0.0
  0
POINT
  5
1FC
330
1EE
100
AcDbEntity
  8
Defpoints
 62
     0
100
AcDbPoint
 10
4.375000000000128
 20
6.604000000000002
 30
0.0
  0
ENDBLK
  5
1F0
330
1EE
100
AcDbEntity
  8
0
100
AcDbBlockEnd
  0
BLOCK
  5
223
330
222
100
AcDbEntity
  8
0
100
AcDbBlockBegin
  2
*D11
 70
     1
 10
0.0
 20
0.0
 30
0.0
  3
*D11
  1
*D12
  0
LINE
  5
225
330
222
100
AcDbEntity
  8
치수문자_일반주서
 62
     0
370
    -2
100
AcDbLine
 10
12.67790510084604
 20
2.778125000000002
 30
0.0
 11
31.61540510084611
 21
2.77812500000007
 31
0.0
  0
LINE
  5
226
330
222
100
AcDbEntity
  8
치수문자_일반주서
 62
     0
370
    -2
100
AcDbLine
 10
12.67790510084604
 20
-2.778125
 30
0.0
 11
31.61540510084613
 21
-2.778124999999928
 31
0.0
  0
LINE
  5
227
330
222
100
AcDbEntity
  8
치수문자_일반주서
 62
     0
370
    -2
100
AcDbLine
 10
31.61540510084611
 20
2.77812500000007
 30
0.0
 11
31.61540510084599
 21
38.69462500000007
 31
0.0
  0
LINE
  5
228
330
222
100
AcDbEntity
  8
치수문자_일반주서
 62
     0
370
    -2
100
AcDbLine
 10
31.61540510084611
 20
2.77812500000007
 30
0.0
 11
31.61540510084613
 21
-2.778124999999928
 31
0.0
  0
LINE
  5
229
330
222
100
AcDbEntity
  8
치수문자_일반주서
 62
     0
370
    -2
100
AcDbLine
 10
31.6154051008461
 20
6.08012500000007
 30
0.0
 11
31.61540510084609
 21
9.38212500000007
 31
0.0
  0
LINE
  5
22A
330
222
100
AcDbEntity
  8
치수문자_일반주서
 62
     0
370
    -2
100
AcDbLine
 10
31.61540510084614
 20
-6.080124999999928
 30
0.0
 11
31.61540510084615
 21
-9.382124999999927
 31
0.0
  0
SOLID
  5
22B
330
222
100
AcDbEntity
  8
치수문자_일반주서
 62
     0
100
AcDbTrace
 10
31.06507176751276
 20
6.080125000000068
 30
0.0
 11
32.16573843417943
 21
6.080125000000072
 31
0.0
 12
31.61540510084611
 22
2.77812500000007
 32
0.0
 13
31.61540510084611
 23
2.77812500000007
 33
0.0
  0
SOLID
  5
22C
330
222
100
AcDbEntity
  8
치수문자_일반주서
 62
     0
100
AcDbTrace
 10
32.16573843417947
 20
-6.080124999999926
 30
0.0
 11
31.0650717675128
 21
-6.08012499999993
 31
0.0
 12
31.61540510084613
 22
-2.778124999999928
 32
0.0
 13
31.61540510084613
 23
-2.778124999999928
 33
0.0
  0
MTEXT
  5
22D
330
222
100
AcDbEntity
  8
치수문자_일반주서
 62
     0
100
AcDbMText
 10
27.24040510084604
 20
24.25712500000006
 30
0.0
 40
3.5
 41
0.0
 71
     2
 72
     1
  1
\A1;%%c5.56 [7/32]
  7
SLDTEXTSTYLE0
 11
-3.197042680585377E-15
 21
1.0
 31
0.0
 73
     1
 44
1.0
  0
POINT
  5
22E
330
222
100
AcDbEntity
  8
Defpoints
 62
     0
100
AcDbPoint
 10
12.61540510084604
 20
2.778125000000001
 30
0.0
  0
POINT
  5
22F
330
222
100
AcDbEntity
  8
Defpoints
 62
     0
100
AcDbPoint
 10
12.61540510084604
 20
-2.778125
 30
0.0
  0
POINT
  5
230
330
222
100
AcDbEntity
  8
Defpoints
 62
     0
100
AcDbPoint
 10
31.61540510084615
 20
-2.778124999999929
 30
0.0
  0
ENDBLK
  5
224
330
222
100
AcDbEntity
  8
0
100
AcDbBlockEnd
  0
BLOCK
  5
232
330
231
100
AcDbEntity
  8
0
100
AcDbBlockBegin
  2
*D12
 70
     1
 10
0.0
 20
0.0
 30
0.0
  3
*D12
  1
*D13
  0
LINE
  5
234
330
231
100
AcDbEntity
  8
치수문자_일반주서
 62
     0
370
    -2
100
AcDbLine
 10
12.61540510084604
 20
2.426372949340951
 30
0.0
 11
12.61540510084604
 21
23.3267690721546
 31
0.0
  0
LINE
  5
235
330
231
100
AcDbEntity
  8
치수문자_일반주서
 62
     0
370
    -2
100
AcDbLine
 10
3.090405100846041
 20
2.840624999999999
 30
0.0
 11
3.09040510084604
 21
23.3267690721546
 31
0.0
  0
LINE
  5
236
330
231
100
AcDbEntity
  8
치수문자_일반주서
 62
     0
370
    -2
100
AcDbLine
 10
3.09040510084604
 20
23.3267690721546
 30
0.0
 11
-27.13859489915396
 21
23.3267690721546
 31
0.0
  0
LINE
  5
237
330
231
100
AcDbEntity
  8
치수문자_일반주서
 62
     0
370
    -2
100
AcDbLine
 10
12.61540510084604
 20
23.3267690721546
 30
0.0
 11
3.09040510084604
 21
23.3267690721546
 31
0.0
  0
LINE
  5
238
330
231
100
AcDbEntity
  8
치수문자_일반주서
 62
     0
370
    -2
100
AcDbLine
 10
15.91740510084604
 20
23.3267690721546
 30
0.0
 11
19.21940510084604
 21
23.3267690721546
 31
0.0
  0
LINE
  5
239
330
231
100
AcDbEntity
  8
치수문자_일반주서
 62
     0
370
    -2
100
AcDbLine
 10
-0.2115948991539605
 20
23.3267690721546
 30
0.0
 11
-3.513594899153961
 21
23.3267690721546
 31
0.0
  0
SOLID
  5
23A
330
231
100
AcDbEntity
  8
치수문자_일반주서
 62
     0
100
AcDbTrace
 10
15.91740510084604
 20
23.87710240548794
 30
0.0
 11
15.91740510084604
 21
22.77643573882127
 31
0.0
 12
12.61540510084604
 22
23.3267690721546
 32
0.0
 13
12.61540510084604
 23
23.3267690721546
 33
0.0
  0
SOLID
  5
23B
330
231
100
AcDbEntity
  8
치수문자_일반주서
 62
     0
100
AcDbTrace
 10
-0.2115948991539605
 20
22.77643573882127
 30
0.0
 11
-0.2115948991539605
 21
23.87710240548794
 31
0.0
 12
3.09040510084604
 22
23.3267690721546
 32
0.0
 13
3.09040510084604
 23
23.3267690721546
 33
0.0
  0
MTEXT
  5
23C
330
231
100
AcDbEntity
  8
치수문자_일반주서
 62
     0
100
AcDbMText
 10
-15.32609489915396
 20
27.7017690721546
 30
0.0
 40
3.5
 41
0.0
 71
     2
 72
     1
  1
\A1;9.53 [3/8]
  7
SLDTEXTSTYLE0
 73
     1
 44
1.0
  0
POINT
  5
23D
330
231
100
AcDbEntity
  8
Defpoints
 62
     0
100
AcDbPoint
 10
12.61540510084604
 20
2.363872949340951
 30
0.0
  0
POINT
  5
23E
330
231
100
AcDbEntity
  8
Defpoints
 62
     0
100
AcDbPoint
 10
3.090405100846041
 20
2.778124999999999
 30
0.0
  0
POINT
  5
23F
330
231
100
AcDbEntity
  8
Defpoints
 62
     0
100
AcDbPoint
 10
3.090405100846041
 20
23.3267690721546
 30
0.0
  0
ENDBLK
  5
233
330
231
100
AcDbEntity
  8
0
100
AcDbBlockEnd
  0
BLOCK
  5
241
330
240
100
AcDbEntity
  8
0
100
AcDbBlockBegin
  2
*D13
 70
     1
 10
0.0
 20
0.0
 30
0.0
  3
*D13
  1
*D14
  0
LINE
  5
243
330
240
100
AcDbEntity
  8
치수문자_일반주서
 62
     0
370
    -2
100
AcDbLine
 10
12.61540510084604
 20
2.426372949340951
 30
0.0
 11
12.61540510084604
 21
45.97363764027281
 31
0.0
  0
LINE
  5
244
330
240
100
AcDbEntity
  8
치수문자_일반주서
 62
     0
370
    -2
100
AcDbLine
 10
-38.18459489915395
 20
2.76125
 30
0.0
 11
-38.18459489915395
 21
45.97363764027281
 31
0.0
  0
LINE
  5
245
330
240
100
AcDbEntity
  8
치수문자_일반주서
 62
     0
370
    -2
100
AcDbLine
 10
9.31340510084604
 20
45.97363764027281
 30
0.0
 11
-34.88259489915395
 21
45.97363764027281
 31
0.0
  0
SOLID
  5
246
330
240
100
AcDbEntity
  8
치수문자_일반주서
 62
     0
100
AcDbTrace
 10
9.31340510084604
 20
45.42330430693948
 30
0.0
 11
9.31340510084604
 21
46.52397097360615
 31
0.0
 12
12.61540510084604
 22
45.97363764027281
 32
0.0
 13
12.61540510084604
 23
45.97363764027281
 33
0.0
  0
SOLID
  5
247
330
240
100
AcDbEntity
  8
치수문자_일반주서
 62
     0
100
AcDbTrace
 10
-34.88259489915395
 20
46.52397097360615
 30
0.0
 11
-34.88259489915395
 21
45.42330430693948
 31
0.0
 12
-38.18459489915395
 22
45.97363764027281
 32
0.0
 13
-38.18459489915395
 23
45.97363764027281
 33
0.0
  0
MTEXT
  5
248
330
240
100
AcDbEntity
  8
치수문자_일반주서
 62
     0
100
AcDbMText
 10
-12.78459489915396
 20
50.34863764027281
 30
0.0
 40
3.5
 41
0.0
 71
     2
 72
     1
  1
\A1;50.8 [2]
  7
SLDTEXTSTYLE0
 73
     1
 44
1.0
  0
POINT
  5
249
330
240
100
AcDbEntity
  8
Defpoints
 62
     0
100
AcDbPoint
 10
12.61540510084604
 20
2.363872949340951
 30
0.0
  0
POINT
  5
24A
330
240
100
AcDbEntity
  8
Defpoints
 62
     0
100
AcDbPoint
 10
-38.18459489915395
 20
2.69875
 30
0.0
  0
POINT
  5
24B
330
240
100
AcDbEntity
  8
Defpoints
 62
     0
100
AcDbPoint
 10
-38.18459489915395
 20
45.97363764027281
 30
0.0
  0
ENDBLK
  5
242
330
240
100
AcDbEntity
  8
0
100
AcDbBlockEnd
  0
BLOCK
  5
24D
330
24C
100
AcDbEntity
  8
0
100
AcDbBlockBegin
  2
*D14
 70
     1
 10
0.0
 20
0.0
 30
0.0
  3
*D14
  1
*D15
  0
LINE
  5
24F
330
24C
100
AcDbEntity
  8
치수문자_일반주서
 62
     0
370
    -2
100
AcDbLine
 10
-37.77084489915396
 20
3.174999999999995
 30
0.0
 11
-48.79392670490593
 21
3.174999999999951
 31
0.0
  0
LINE
  5
250
330
24C
100
AcDbEntity
  8
치수문자_일반주서
 62
     0
370
    -2
100
AcDbLine
 10
-37.77084489915396
 20
-3.175000000000006
 30
0.0
 11
-48.79392670490591
 21
-3.17500000000005
 31
0.0
  0
LINE
  5
251
330
24C
100
AcDbEntity
  8
치수문자_일반주서
 62
     0
370
    -2
100
AcDbLine
 10
-48.79392670490593
 20
3.174999999999951
 30
0.0
 11
-48.79392670490604
 21
36.90399999999995
 31
0.0
  0
LINE
  5
252
330
24C
100
AcDbEntity
  8
치수문자_일반주서
 62
     0
370
    -2
100
AcDbLine
 10
-48.79392670490593
 20
3.174999999999951
 30
0.0
 11
-48.79392670490591
 21
-3.17500000000005
 31
0.0
  0
LINE
  5
253
330
24C
100
AcDbEntity
  8
치수문자_일반주서
 62
     0
370
    -2
100
AcDbLine
 10
-48.79392670490594
 20
6.476999999999951
 30
0.0
 11
-48.79392670490596
 21
9.77899999999995
 31
0.0
  0
LINE
  5
254
330
24C
100
AcDbEntity
  8
치수문자_일반주서
 62
     0
370
    -2
100
AcDbLine
 10
-48.79392670490589
 20
-6.47700000000005
 30
0.0
 11
-48.79392670490588
 21
-9.77900000000005
 31
0.0
  0
SOLID
  5
255
330
24C
100
AcDbEntity
  8
치수문자_일반주서
 62
     0
100
AcDbTrace
 10
-49.34426003823928
 20
6.476999999999949
 30
0.0
 11
-48.24359337157261
 21
6.476999999999952
 31
0.0
 12
-48.79392670490593
 22
3.174999999999951
 32
0.0
 13
-48.79392670490593
 23
3.174999999999951
 33
0.0
  0
SOLID
  5
256
330
24C
100
AcDbEntity
  8
치수문자_일반주서
 62
     0
100
AcDbTrace
 10
-48.24359337157256
 20
-6.477000000000048
 30
0.0
 11
-49.34426003823923
 21
-6.477000000000052
 31
0.0
 12
-48.79392670490591
 22
-3.17500000000005
 32
0.0
 13
-48.79392670490591
 23
-3.17500000000005
 33
0.0
  0
MTEXT
  5
257
330
24C
100
AcDbEntity
  8
치수문자_일반주서
 62
     0
100
AcDbMText
 10
-53.168926704906
 20
24.21649999999994
 30
0.0
 40
3.5
 41
0.0
 71
     2
 72
     1
  1
\A1;%%c6.35 [1/4]
  7
SLDTEXTSTYLE0
 11
-3.356894814614646E-15
 21
1.0
 31
0.0
 73
     1
 44
1.0
  0
POINT
  5
258
330
24C
100
AcDbEntity
  8
Defpoints
 62
     0
100
AcDbPoint
 10
-37.70834489915396
 20
3.174999999999995
 30
0.0
  0
POINT
  5
259
330
24C
100
AcDbEntity
  8
Defpoints
 62
     0
100
AcDbPoint
 10
-37.70834489915396
 20
-3.175000000000006
 30
0.0
  0
POINT
  5
25A
330
24C
100
AcDbEntity
  8
Defpoints
 62
     0
100
AcDbPoint
 10
-48.79392670490591
 20
-3.175000000000047
 30
0.0
  0
ENDBLK
  5
24E
330
24C
100
AcDbEntity
  8
0
100
AcDbBlockEnd
  0
ENDSEC
  0
SECTION
  2
ENTITIES
  0
LINE
  5
A5
330
1F
100
AcDbEntity
  8
참조1
100
AcDbLine
 10
3.650000000000007
 20
0.0010749287238892
 30
0.0
 11
3.650000000000015
 21
-39.99892507127611
 31
0.0
  0
LINE
  5
A6
330
1F
100
AcDbEntity
  8
참조1
100
AcDbLine
 10
3.650000000000015
 20
-39.99892507127611
 30
0.0
 11
-17.85885681430866
 21
-39.9989250712761
 31
0.0
  0
INSERT
  5
A8
330
1F
100
AcDbEntity
  8
0
  6
Continuous
 62
     7
100
AcDbBlockReference
 66
     1
  2
블럭10
 10
-10.2902729321252
 20
-52.04609937292004
 30
0.0
  0
ATTRIB
  5
A9
330
A8
100
AcDbEntity
  8
FORMAT
 62
     2
100
AcDbText
 10
-19.47156822086648
 20
-49.97073246008785
 30
0.0
 40
4.233333333333333
  1
E5066014 [ 5 FLUTE ]
 41
0.75
  7
SLDTEXTSTYLE0
 11
-19.47156822086648
 21
-52.08739912675452
 31
0.0
100
AcDbAttribute
  2
AUTOATTR0
 70
     0
 74
     1
  0
SEQEND
  5
AA
330
A8
100
AcDbEntity
  8
0
  6
Continuous
 62
     7
  0
HATCH
  5
AB
330
1F
100
AcDbEntity
  8
중심선
100
AcDbHatch
 10
0.0
 20
0.0
 30
0.0
210
0.0
220
0.0
230
1.0
  2
SOLID
 70
     1
 71
     0
 91
        1
 92
        0
 93
        4
 72
     1
 10
-4.575363627744355
 20
-35.7989250712761
 11
-8.021638871581638
 21
-35.7989250712761
 72
     1
 10
-8.021638871581638
 20
-35.7989250712761
 11
-10.14986873078566
 21
-38.3352506518487
 72
     1
 10
-10.14986873078566
 20
-38.3352506518487
 11
-6.703560401835229
 21
-38.33521122254621
 72
     1
 10
-6.703560401835229
 20
-38.33521122254621
 11
-4.575363627744355
 21
-35.7989250712761
 97
        0
 75
     0
 76
     1
 98
        1
 10
0.0
 20
0.0
  0
HATCH
  5
AC
330
1F
100
AcDbEntity
  8
중심선
100
AcDbHatch
 10
0.0
 20
0.0
 30
0.0
210
0.0
220
0.0
230
1.0
  2
SOLID
 70
     1
 71
     0
 91
        1
 92
        0
 93
        4
 72
     1
 10
0.4374003632916235
 20
-35.7989250712761
 11
-3.008874880545659
 21
-35.7989250712761
 72
     1
 10
-3.008874880545659
 20
-35.7989250712761
 11
-7.540012888903075
 21
-41.19892507127612
 72
     1
 10
-7.540012888903075
 20
-41.19892507127612
 11
-4.093737645065793
 21
-41.19892507127612
 72
     1
 10
-4.093737645065793
 20
-41.19892507127612
 11
0.4374003632916237
 21
-35.7989250712761
 97
        0
 75
     0
 76
     1
 98
        1
 10
0.0
 20
0.0
  0
HATCH
  5
AD
330
1F
100
AcDbEntity
  8
중심선
100
AcDbHatch
 10
0.0
 20
0.0
 30
0.0
210
0.0
220
0.0
230
1.0
  2
SOLID
 70
     1
 71
     0
 91
        1
 92
        0
 93
        4
 72
     1
 10
5.450164354327491
 20
-35.7989250712761
 11
2.003889110490376
 21
-35.7989250712761
 72
     1
 10
2.003889110490376
 20
-35.7989250712761
 11
-5.044547791398873
 21
-44.19892507127612
 72
     1
 10
-5.044547791398873
 20
-44.19892507127612
 11
-1.598272547561591
 21
-44.19892507127612
 72
     1
 10
-1.598272547561591
 20
-44.19892507127612
 11
5.450164354327491
 21
-35.7989250712761
 97
        0
 75
     0
 76
     1
 98
        1
 10
0.0
 20
0.0
  0
HATCH
  5
AE
330
1F
100
AcDbEntity
  8
중심선
100
AcDbHatch
 10
0.0
 20
0.0
 30
0.0
210
0.0
220
0.0
230
1.0
  2
SOLID
 70
     1
 71
     0
 91
        1
 92
        0
 93
        6
 72
     3
 10
10.25005478533969
 20
-39.99892507132738
 11
3.960054785062284
 21
1.540850780301639E-10
 40
0.3939339440162633
 50
17.09539180608434
 51
320.0019657685079
 73
     0
 72
     1
 10
11.93305444104029
 20
-38.58681907591441
 11
14.23835631474135
 21
-36.65249236586646
 72
     3
 10
10.25005478528684
 20
-39.99892507127625
 11
6.600054785286829
 21
-1.249000902703301E-13
 40
0.6363583540795982
 50
39.99873849337411
 51
368.4976242363724
 73
     1
 72
     1
 10
16.67538727718745
 20
-39.03892507120613
 11
8.930122092122767
 21
-39.03892507120613
 72
     1
 10
8.930122092122767
 20
-39.03892507120613
 11
8.930097047676833
 21
-40.95892507120602
 72
     1
 10
8.930097047676833
 20
-40.95892507120602
 11
13.37147681714887
 21
-40.95892507120599
 97
        0
 75
     0
 76
     1
 98
        1
 10
0.0
 20
0.0
  0
LINE
  5
101
330
1F
100
AcDbEntity
  8
참조1
100
AcDbLine
 10
80.1134838153456
 20
7.441074928723896
 30
0.0
 11
80.1134838153456
 21
-7.438925071276109
 31
0.0
  0
LINE
  5
102
330
1F
100
AcDbEntity
  8
참조1
100
AcDbLine
 10
92.8134838153456
 20
5.441074928723896
 30
0.0
 11
80.1134838153456
 21
5.441074928723896
 31
0.0
  0
SOLID
  5
103
330
1F
100
AcDbEntity
  8
참조1
100
AcDbTrace
 10
80.1134838153456
 20
5.441074928723896
 30
0.0
 11
86.4634838153456
 21
4.425074928723896
 31
0.0
 12
86.4634838153456
 22
6.457074928723896
 32
0.0
 13
86.4634838153456
 23
6.457074928723896
 33
0.0
  0
LINE
  5
104
330
1F
100
AcDbEntity
  8
참조1
100
AcDbLine
 10
92.8134838153456
 20
-5.438925071276109
 30
0.0
 11
80.1134838153456
 21
-5.438925071276109
 31
0.0
  0
SOLID
  5
105
330
1F
100
AcDbEntity
  8
참조1
100
AcDbTrace
 10
80.1134838153456
 20
-5.438925071276109
 30
0.0
 11
86.4634838153456
 21
-6.454925071276109
 31
0.0
 12
86.4634838153456
 22
-4.422925071276109
 32
0.0
 13
86.4634838153456
 23
-4.422925071276109
 33
0.0
  0
MTEXT
  5
106
330
1F
100
AcDbEntity
  8
참조1
100
AcDbMText
 10
89.4978339479716
 20
11.01136670591222
 30
0.0
 40
3.5
 41
0.0
 71
     1
 72
     1
  1
A
  7
SLDTEXTSTYLE0
 73
     1
 44
1.0
  0
MTEXT
  5
107
330
1F
100
AcDbEntity
  8
참조1
100
AcDbMText
 10
89.4978339479716
 20
0.1313667059122201
 30
0.0
 40
3.5
 41
0.0
 71
     1
 72
     1
  1
A
  7
SLDTEXTSTYLE0
 73
     1
 44
1.0
  0
LINE
  5
1FE
330
1F
100
AcDbEntity
  8
0
  6
Continuous
 62
     1
370
    15
100
AcDbLine
 10
9.01093143789182
 20
-2.778125000000003
 30
0.0
 11
11.18118153800678
 21
-2.778125000000003
 31
0.0
  0
LINE
  5
1FF
330
1F
100
AcDbEntity
  8
0
  6
Continuous
 62
     1
370
    15
100
AcDbLine
 10
8.157866257302949
 20
2.778124999999998
 30
0.0
 11
5.987458356118374
 21
2.778124999999998
 31
0.0
  0
LINE
  5
200
330
1F
100
AcDbEntity
  8
0
  6
Continuous
 62
     1
370
    15
100
AcDbLine
 10
3.090405100846041
 20
-2.778125
 30
0.0
 11
5.135688091133858
 21
-2.778125000000003
 31
0.0
  0
LINE
  5
201
330
1F
100
AcDbEntity
  8
0
  6
Continuous
 62
     1
370
    15
100
AcDbLine
 10
12.61540510084604
 20
2.778124999999998
 30
0.0
 11
12.0331186607416
 21
2.778124999999998
 31
0.0
  0
LINE
  5
202
330
1F
100
AcDbEntity
  8
외형선
  6
Continuous
370
    15
100
AcDbLine
 10
-37.70834489915396
 20
-3.175000000000004
 30
0.0
 11
1.999999999999972
 21
-3.175000000000004
 31
0.0
  0
LINE
  5
203
330
1F
100
AcDbEntity
  8
외형선
  6
Continuous
370
    15
100
AcDbLine
 10
2.0
 20
3.174999999999995
 30
0.0
 11
-37.70834489915396
 21
3.174999999999995
 31
0.0
  0
LINE
  5
204
330
1F
100
AcDbEntity
  8
외형선
  6
Continuous
370
    15
100
AcDbLine
 10
-37.70834489915396
 20
3.174999999999997
 30
0.0
 11
-38.18459489915395
 21
2.69875
 31
0.0
  0
LINE
  5
205
330
1F
100
AcDbEntity
  8
외형선
  6
Continuous
370
    15
100
AcDbLine
 10
-38.18459489915395
 20
-2.698750000000008
 30
0.0
 11
-37.70834489915396
 21
-3.175000000000006
 31
0.0
  0
LINE
  5
206
330
1F
100
AcDbEntity
  8
0
  6
Continuous
 62
     1
370
    15
100
AcDbLine
 10
12.61540510084604
 20
-2.65568405100343
 30
0.0
 11
12.61540510084604
 21
-2.428063247645342
 31
0.0
  0
SPLINE
  5
207
330
1F
100
AcDbEntity
  8
0
  6
Continuous
 62
     1
370
    15
100
AcDbSpline
210
0.0
220
0.0
230
1.0
 70
     8
 71
     3
 72
    30
 73
    26
 74
     0
 42
0.000000001
 43
0.00000001
 40
0.0
 40
0.0
 40
0.0
 40
0.0
 40
0.1249999999999988
 40
0.1249999999999988
 40
0.1874999999999983
 40
0.1874999999999983
 40
0.2499999999999977
 40
0.2499999999999977
 40
0.3124999999999971
 40
0.3124999999999971
 40
0.3749999999999965
 40
0.3749999999999965
 40
0.4999999999999972
 40
0.4999999999999972
 40
0.5624999999999977
 40
0.5624999999999977
 40
0.6249999999999979
 40
0.6249999999999979
 40
0.7499999999999987
 40
0.7499999999999987
 40
0.8749999999999993
 40
0.8749999999999993
 40
0.9374999999999997
 40
0.9374999999999997
 40
0.9906474415397669
 40
0.9906474415397669
 40
0.9906474415397669
 40
0.9906474415397669
 10
12.61540510084603
 20
-2.65568405100343
 30
0.0
 10
12.23353507242761
 20
-2.720859619459961
 30
0.0
 10
11.84173294777157
 20
-2.760788346330509
 30
0.0
 10
11.26424153610008
 20
-2.779935365786454
 30
0.0
 10
11.07382829258236
 20
-2.779647662175682
 30
0.0
 10
10.68738914821934
 20
-2.76568142621846
 30
0.0
 10
10.49298571468493
 20
-2.751968646021532
 30
0.0
 10
10.10602363097132
 20
-2.711362990406502
 30
0.0
 10
9.915014371769267
 20
-2.684567392605366
 30
0.0
 10
9.530929316018238
 20
-2.61814936606708
 30
0.0
 10
9.336923653128899
 20
-2.578431865820402
 30
0.0
 10
8.755293327692478
 20
-2.440864605785908
 30
0.0
 10
8.374061831307237
 20
-2.325226680170098
 30
0.0
 10
7.793020881886648
 20
-2.119030178498098
 30
0.0
 10
7.598684746436923
 20
-2.044914109840861
 30
0.0
 10
7.212908523551292
 20
-1.88756071724504
 30
0.0
 10
7.022696067186764
 20
-1.804531188875547
 30
0.0
 10
6.444015077897205
 20
-1.541872228931647
 30
0.0
 10
6.054740454972801
 20
-1.349535530701745
 30
0.0
 10
5.288641304490284
 20
-0.9447706265553304
 30
0.0
 10
4.896702095584189
 20
-0.7296851619841505
 30
0.0
 10
4.320597124617329
 20
-0.4017669057713373
 30
0.0
 10
4.129575531300844
 20
-0.2914263482374082
 30
0.0
 10
3.771559580178582
 20
-0.0855775554577711
 30
0.0
 10
3.606364154680129
 20
0.0094654791338336
 30
0.0
 10
3.090405100846034
 20
0.3186149645376641
 30
0.0
  0
SPLINE
  5
208
330
1F
100
AcDbEntity
  8
0
  6
Continuous
 62
     1
370
    15
100
AcDbSpline
210
0.0
220
0.0
230
1.0
 70
     8
 71
     3
 72
    30
 73
    26
 74
     0
 42
0.000000001
 43
0.00000001
 40
0.0
 40
0.0
 40
0.0
 40
0.0
 40
0.1250000000000015
 40
0.1250000000000015
 40
0.1875000000000022
 40
0.1875000000000022
 40
0.2500000000000029
 40
0.2500000000000029
 40
0.3125000000000037
 40
0.3125000000000037
 40
0.3750000000000044
 40
0.3750000000000044
 40
0.500000000000004
 40
0.500000000000004
 40
0.5625000000000038
 40
0.5625000000000038
 40
0.6250000000000034
 40
0.6250000000000034
 40
0.750000000000003
 40
0.750000000000003
 40
0.8750000000000027
 40
0.8750000000000027
 40
0.9375000000000013
 40
0.9375000000000013
 40
0.9911207183956428
 40
0.9911207183956428
 40
0.9911207183956428
 40
0.9911207183956428
 10
12.61540510084603
 20
-2.428063247645342
 30
0.0
 10
12.23353507242756
 20
-2.320193028064166
 30
0.0
 10
11.8417329477715
 20
-2.187812078436115
 30
0.0
 10
11.26424153609995
 20
-1.960703366373557
 30
0.0
 10
11.07382829258216
 20
-1.880392093777276
 30
0.0
 10
10.68738914821908
 20
-1.710318522935735
 30
0.0
 10
10.49298571468462
 20
-1.620760452264888
 30
0.0
 10
10.10602363097095
 20
-1.434531649043203
 30
0.0
 10
9.915014371768855
 20
-1.338135463218833
 30
0.0
 10
9.530929316017811
 20
-1.139052450160126
 30
0.0
 10
9.336923653128459
 20
-1.036184854733301
 30
0.0
 10
8.75529332769191
 20
-0.7208663886217792
 30
0.0
 10
8.374061831306612
 20
-0.5028508568163108
 30
0.0
 10
7.793020881885987
 20
-0.1700051843877741
 30
0.0
 10
7.59868474643617
 20
-0.0582512152095962
 30
0.0
 10
7.212908523550496
 20
0.1644444071052025
 30
0.0
 10
7.022696067186011
 20
0.2751507137155897
 30
0.0
 10
6.444015077896317
 20
0.6060270701260269
 30
0.0
 10
6.054740454971871
 20
0.8234913190417696
 30
0.0
 10
5.288641304489211
 20
1.23624880874644
 30
0.0
 10
4.896702095583073
 20
1.43416623471008
 30
0.0
 10
4.320597124616128
 20
1.705605434238965
 30
0.0
 10
4.129575531299622
 20
1.792056608000905
 30
0.0
 10
3.770094431779327
 20
1.944939551128511
 30
0.0
 10
3.603421978398636
 20
2.01228656092581
 30
0.0
 10
3.090405100846041
 20
2.172211024573873
 30
0.0
  0
LINE
  5
209
330
1F
100
AcDbEntity
  8
0
  6
Continuous
 62
     1
370
    15
100
AcDbLine
 10
12.61540510084604
 20
-1.596401630653176
 30
0.0
 11
12.61540510084604
 21
0.5004330222435875
 31
0.0
  0
SPLINE
  5
20A
330
1F
100
AcDbEntity
  8
0
  6
Continuous
 62
     1
370
    15
100
AcDbSpline
210
0.0
220
0.0
230
1.0
 70
     8
 71
     3
 72
    30
 73
    26
 74
     0
 42
0.000000001
 43
0.00000001
 40
0.0
 40
0.0
 40
0.0
 40
0.0
 40
0.1249999999999984
 40
0.1249999999999984
 40
0.1874999999999975
 40
0.1874999999999975
 40
0.2499999999999967
 40
0.2499999999999967
 40
0.3124999999999958
 40
0.3124999999999958
 40
0.3749999999999951
 40
0.3749999999999951
 40
0.4999999999999933
 40
0.4999999999999933
 40
0.5624999999999934
 40
0.5624999999999934
 40
0.6249999999999934
 40
0.6249999999999934
 40
0.7499999999999957
 40
0.7499999999999957
 40
0.8749999999999979
 40
0.8749999999999979
 40
0.9374999999999989
 40
0.9374999999999989
 40
1.0
 40
1.0
 40
1.0
 40
1.0
 10
12.61540510084603
 20
-1.596401630653176
 30
0.0
 10
12.23353507242762
 20
-1.414727645774363
 30
0.0
 10
11.84173294777158
 20
-1.215994055932795
 30
0.0
 10
11.26424153610009
 20
-0.9048956989937533
 30
0.0
 10
11.07382829258236
 20
-0.7991517567948687
 30
0.0
 10
10.68738914821934
 20
-0.5832965854709222
 30
0.0
 10
10.49298571468495
 20
-0.4734754092140498
 30
0.0
 10
10.10602363097133
 20
-0.2524222773035891
 30
0.0
 10
9.915014371769253
 20
-0.1414935839701013
 30
0.0
 10
9.530929316018252
 20
0.0809040774504766
 30
0.0
 10
9.336923653128913
 20
0.192553962735083
 30
0.0
 10
8.755293327692492
 20
0.5252255602302842
 30
0.0
 10
8.374061831307237
 20
0.7428300884879775
 30
0.0
 10
7.793020881886669
 20
1.057118784061613
 30
0.0
 10
7.598684746436909
 20
1.159688372267837
 30
0.0
 10
7.212908523551292
 20
1.35824081851397
 30
0.0
 10
7.022696067186835
 20
1.4540389407837
 30
0.0
 10
6.444015077897213
 20
1.731588868652706
 30
0.0
 10
6.054740454972801
 20
1.902088357402645
 30
0.0
 10
5.288641304490305
 20
2.201698397024348
 30
0.0
 10
4.896702095584224
 20
2.332663051309362
 30
0.0
 10
4.320597124617336
 20
2.492363941737558
 30
0.0
 10
4.129575531300844
 20
2.539659015479762
 30
0.0
 10
3.742606366272717
 20
2.622166989863699
 30
0.0
 10
3.54820344990155
 20
2.657229089772489
 30
0.0
 10
3.090405100846041
 20
2.778124999999999
 30
0.0
  0
SPLINE
  5
20B
330
1F
100
AcDbEntity
  8
0
  6
Continuous
 62
     1
370
    15
100
AcDbSpline
210
0.0
220
0.0
230
1.0
 70
     8
 71
     3
 72
    16
 73
    12
 74
     0
 42
0.000000001
 43
0.00000001
 40
0.0
 40
0.0
 40
0.0
 40
0.0
 40
0.1211529937858365
 40
0.2420547302058631
 40
0.3629473447692148
 40
0.4840731809651185
 40
0.6052519158180035
 40
0.7239958613232153
 40
0.8427242161754653
 40
0.9617212611665111
 40
1.0
 40
1.0
 40
1.0
 40
1.0
 10
12.61540510084603
 20
0.5336090451155382
 30
0.0
 10
12.26925383827889
 20
0.7270973978909474
 30
0.0
 10
11.57766919102522
 20
1.113672830866372
 30
0.0
 10
10.54132241161656
 20
1.636240070701065
 30
0.0
 10
9.5050531420843
 20
2.084703481420648
 30
0.0
 10
8.467441716182812
 20
2.436041919009252
 30
0.0
 10
7.435776369271643
 20
2.672801849026479
 30
0.0
 10
6.411728343358298
 20
2.789404684854631
 30
0.0
 10
5.393957916279412
 20
2.772603299724249
 30
0.0
 10
4.605317291579794
 20
2.687080987906342
 30
0.0
 10
4.15602479905241
 20
2.571224161584404
 30
0.0
 10
4.046673253867972
 20
2.543026221068638
 30
0.0
  0
LINE
  5
20C
330
1F
100
AcDbEntity
  8
0
  6
Continuous
 62
     1
370
    15
100
AcDbLine
 10
12.61540510084604
 20
-2.428063247645342
 30
0.0
 11
12.61540510084604
 21
-1.596401630653176
 31
0.0
  0
SPLINE
  5
20D
330
1F
100
AcDbEntity
  8
0
  6
Continuous
 62
     1
370
    15
100
AcDbSpline
210
0.0
220
0.0
230
1.0
 70
     8
 71
     3
 72
    13
 73
     9
 74
     0
 42
0.000000001
 43
0.00000001
 40
0.0
 40
0.0
 40
0.0
 40
0.0
 40
0.0960593758852016
 40
0.2796533237393197
 40
0.4595584016850734
 40
0.6394398587411526
 40
0.8197283994608041
 40
0.9756052322261489
 40
0.9756052322261489
 40
0.9756052322261489
 40
0.9756052322261489
 10
9.01093143789182
 20
-2.762036150079108
 30
0.0
 10
8.82981481291322
 20
-2.764847505478111
 30
0.0
 10
8.302538160395251
 20
-2.773032077512838
 30
0.0
 10
7.435764366592871
 20
-2.647029950450181
 30
0.0
 10
6.41173290398573
 20
-2.401866458564346
 30
0.0
 10
5.393951554923952
 20
-2.04356923086942
 30
0.0
 10
4.420735889111207
 20
-1.619838229993617
 30
0.0
 10
3.786885126359238
 20
-1.294581298465825
 30
0.0
 10
3.090405100846048
 20
-0.9436823834395973
 30
0.0
  0
SPLINE
  5
20E
330
1F
100
AcDbEntity
  8
0
  6
Continuous
 62
     1
370
    15
100
AcDbSpline
210
0.0
220
0.0
230
1.0
 70
     8
 71
     3
 72
    12
 73
     8
 74
     0
 42
0.000000001
 43
0.00000001
 40
0.0
 40
0.0
 40
0.0
 40
0.0
 40
0.0859295032425867
 40
0.3147614753279529
 40
0.5430296677624078
 40
0.7712602540034861
 40
1.0
 40
1.0
 40
1.0
 40
1.0
 10
8.157866257302949
 20
2.763110787009849
 30
0.0
 10
8.285553931735208
 20
2.767056387774009
 30
0.0
 10
8.75327641666604
 20
2.781509201658846
 30
0.0
 10
9.560556837733323
 20
2.676256698976582
 30
0.0
 10
10.57846458161124
 20
2.452789759659842
 30
0.0
 10
11.59624552840958
 20
2.116853801842872
 30
0.0
 10
12.27543299145341
 20
1.818431157902809
 30
0.0
 10
12.61540510084603
 20
1.669053583563986
 30
0.0
  0
LINE
  5
20F
330
1F
100
AcDbEntity
  8
0
  6
Continuous
 62
     1
370
    15
100
AcDbLine
 10
12.61540510084604
 20
0.53360904511554
 30
0.0
 11
12.61540510084604
 21
1.669053583563985
 31
0.0
  0
SPLINE
  5
210
330
1F
100
AcDbEntity
  8
0
  6
Continuous
 62
     1
370
    15
100
AcDbSpline
210
0.0
220
0.0
230
1.0
 70
     8
 71
     3
 72
    11
 73
     7
 74
     0
 42
0.000000001
 43
0.00000001
 40
0.025096786339727
 40
0.025096786339727
 40
0.025096786339727
 40
0.025096786339727
 40
0.2794953932832178
 40
0.5591044375357207
 40
0.8381006419648749
 40
1.0
 40
1.0
 40
1.0
 40
1.0
 10
3.090405100846034
 20
-2.535991722667121
 30
0.0
 10
3.763138322321815
 20
-2.661912102666718
 30
0.0
 10
4.424240278343426
 20
-2.773314824032509
 30
0.0
 10
5.431043661445521
 20
-2.789626379538007
 30
0.0
 10
6.322604858733136
 20
-2.717752467264321
 30
0.0
 10
6.868245034921621
 20
-2.589325680762363
 30
0.0
 10
7.068607210828624
 20
-2.542166634359247
 30
0.0
  0
SPLINE
  5
211
330
1F
100
AcDbEntity
  8
0
  6
Continuous
 62
     1
370
    15
100
AcDbSpline
210
0.0
220
0.0
230
1.0
 70
     8
 71
     3
 72
    10
 73
     6
 74
     0
 42
0.000000001
 43
0.00000001
 40
0.0
 40
0.0
 40
0.0
 40
0.0
 40
0.4121573555133057
 40
0.8234599441058001
 40
1.0
 40
1.0
 40
1.0
 40
1.0
 10
12.61540510084603
 20
2.75785177423111
 30
0.0
 10
12.26925090098101
 20
2.768253872792513
 30
0.0
 10
11.57766038522322
 20
2.789036497160062
 30
0.0
 10
10.73836630690188
 20
2.700906679332913
 30
0.0
 10
10.24492166899578
 20
2.57833738310152
 30
0.0
 10
10.09673108640765
 20
2.541527548683165
 30
0.0
  0
LINE
  5
212
330
1F
100
AcDbEntity
  8
0
  6
Continuous
 62
     1
370
    15
100
AcDbLine
 10
12.61540510084604
 20
1.656740712675486
 30
0.0
 11
12.61540510084604
 21
2.75785177423111
 31
0.0
  0
LINE
  5
213
330
1F
100
AcDbEntity
  8
0
  6
Continuous
 62
     1
370
    15
100
AcDbLine
 10
12.61540510084604
 20
2.75785177423111
 30
0.0
 11
12.61540510084604
 21
2.778124999999998
 31
0.0
  0
LINE
  5
214
330
1F
100
AcDbEntity
  8
외형선
  6
Continuous
370
    15
100
AcDbLine
 10
-38.18459489915395
 20
-0.0000000000000018
 30
0.0
 11
-38.18459489915395
 21
2.69875
 31
0.0
  0
LINE
  5
215
330
1F
100
AcDbEntity
  8
외형선
  6
Continuous
370
    15
100
AcDbLine
 10
-38.18459489915395
 20
-2.698750000000008
 30
0.0
 11
-38.18459489915395
 21
-0.0000000000000018
 31
0.0
  0
LINE
  5
216
330
1F
100
AcDbEntity
  8
중심선
 62
     1
100
AcDbLine
 10
-41.18459489915396
 20
-0.0000000000000018
 30
0.0
 11
15.61540510084604
 21
0.0000000000000018
 31
0.0
  0
CIRCLE
  5
217
330
1F
100
AcDbEntity
  8
해칭선
100
AcDbCircle
 10
0.0
 20
0.0
 30
0.0
 40
2.999999999999999
  0
DIMENSION
  5
218
330
1F
100
AcDbEntity
  8
치수문자_일반주서
100
AcDbDimension
  2
*D11
 10
31.61540510084613
 20
-2.778124999999928
 30
0.0
 11
31.61540510084604
 21
24.25712500000007
 31
0.0
 70
   160
  1
%%c<>
 71
     2
 42
5.556250000000001
 52
-270.0
  3
SLDDIMSTYLE0
100
AcDbAlignedDimension
 13
12.61540510084604
 23
2.778125000000001
 33
0.0
 14
12.61540510084604
 24
-2.778125
 34
0.0
 50
90.0000000000002
100
AcDbRotatedDimension
1001
ACAD
1000
DSTYLE
1002
{
1070
   171
1070
     6
1070
   273
1070
     5
1002
}
  0
DIMENSION
  5
219
330
1F
100
AcDbEntity
  8
치수문자_일반주서
100
AcDbDimension
  2
*D12
 10
3.09040510084604
 20
23.3267690721546
 30
0.0
 11
-15.32609489915396
 21
23.3267690721546
 31
0.0
 70
   160
  1
<>
 71
     2
 42
9.524999999999999
  3
SLDDIMSTYLE0
100
AcDbAlignedDimension
 13
12.61540510084604
 23
2.363872949340951
 33
0.0
 14
3.090405100846041
 24
2.778124999999999
 34
0.0
 50
-0.0000000000000513
100
AcDbRotatedDimension
1001
ACAD
1000
DSTYLE
1002
{
1070
   171
1070
     6
1070
   273
1070
     5
1002
}
  0
DIMENSION
  5
21A
330
1F
100
AcDbEntity
  8
치수문자_일반주서
100
AcDbDimension
  2
*D13
 10
-38.18459489915395
 20
45.97363764027281
 30
0.0
 11
-12.78459489915396
 21
45.97363764027281
 31
0.0
 70
   160
  1
<>
 71
     2
 42
50.79999999999999
  3
SLDDIMSTYLE0
100
AcDbAlignedDimension
 13
12.61540510084604
 23
2.363872949340951
 33
0.0
 14
-38.18459489915395
 24
2.69875
 34
0.0
100
AcDbRotatedDimension
1001
ACAD
1000
DSTYLE
1002
{
1070
   171
1070
     6
1070
   273
1070
     5
1002
}
  0
DIMENSION
  5
21B
330
1F
100
AcDbEntity
  8
치수문자_일반주서
100
AcDbDimension
  2
*D14
 10
-48.79392670490591
 20
-3.17500000000005
 30
0.0
 11
-48.793926704906
 21
24.21649999999995
 31
0.0
 70
   160
  1
%%c<>
 71
     2
 42
6.350000000000001
 52
-270.0
  3
SLDDIMSTYLE0
100
AcDbAlignedDimension
 13
-37.70834489915396
 23
3.174999999999995
 33
0.0
 14
-37.70834489915396
 24
-3.175000000000006
 34
0.0
 50
90.0000000000002
100
AcDbRotatedDimension
1001
ACAD
1000
DSTYLE
1002
{
1070
   171
1070
     6
1070
   273
1070
     5
1002
}
  0
INSERT
  5
21C
330
1F
100
AcDbEntity
  8
해칭선
100
AcDbBlockReference
  2
SW_DOWELSYMBOL_0
 10
0.0
 20
0.0
 30
0.0
  0
LINE
  5
21D
330
1F
100
AcDbEntity
  8
외형선
  6
Continuous
370
    15
100
AcDbLine
 10
3.090405100846041
 20
2.778124999999999
 30
0.0
 11
3.090405100846041
 21
-2.778125
 31
0.0
  0
LINE
  5
21E
330
1F
100
AcDbEntity
  8
외형선
  6
Continuous
370
    15
100
AcDbLine
 10
-37.70834489915396
 20
3.174999999999997
 30
0.0
 11
-37.70834489915396
 21
-3.175000000000004
 31
0.0
  0
LINE
  5
21F
330
1F
100
AcDbEntity
  8
외형선
  6
Continuous
370
    15
100
AcDbLine
 10
3.090405100846041
 20
2.778124999999999
 30
0.0
 11
2.0
 21
3.174999999999995
 31
0.0
  0
LINE
  5
220
330
1F
100
AcDbEntity
  8
외형선
  6
Continuous
370
    15
100
AcDbLine
 10
3.090405100846041
 20
-2.778125
 30
0.0
 11
2.0
 21
-3.174999999999995
 31
0.0
  0
LINE
  5
221
330
1F
100
AcDbEntity
  8
외형선
  6
Continuous
370
    15
100
AcDbLine
 10
2.0
 20
-3.174999999999995
 30
0.0
 11
2.0
 21
3.174999999999995
 31
0.0
  0
ENDSEC
  0
SECTION
  2
OBJECTS
  0
DICTIONARY
  5
C
330
0
100
AcDbDictionary
281
     1
  3
ACAD_GROUP
350
D
  3
ACAD_IMAGE_VARS
350
132
  3
ACAD_LAYOUT
350
1A
  3
ACAD_MLINESTYLE
350
17
  3
ACAD_PLOTSETTINGS
350
19
  3
ACAD_PLOTSTYLENAME
350
E
  3
ACAD_SCALELIST
350
47
  3
APPDATA
350
130
  3
DWGPROPS
350
280
  0
DICTIONARY
  5
1C0
330
2
100
AcDbDictionary
280
     1
281
     1
  3
ACAD_LAYERSTATES
360
1C1
  0
DICTIONARY
  5
D
102
{ACAD_REACTORS
330
C
102
}
330
C
100
AcDbDictionary
281
     1
  0
RASTERVARIABLES
  5
132
102
{ACAD_REACTORS
330
C
102
}
330
C
100
AcDbRasterVariables
 90
        0
 70
     1
 71
     1
 72
     1
  0
DICTIONARY
  5
1A
102
{ACAD_REACTORS
330
C
102
}
330
C
100
AcDbDictionary
281
     1
  3
Layout1
350
1E
  3
Layout2
350
26
  3
Model
350
22
  0
DICTIONARY
  5
17
102
{ACAD_REACTORS
330
C
102
}
330
C
100
AcDbDictionary
281
     1
  3
Standard
350
18
  0
DICTIONARY
  5
19
102
{ACAD_REACTORS
330
C
102
}
330
C
100
AcDbDictionary
281
     1
  0
ACDBDICTIONARYWDFLT
  5
E
102
{ACAD_REACTORS
330
C
102
}
330
C
100
AcDbDictionary
281
     1
  3
Normal
350
F
100
AcDbDictionaryWithDefault
340
F
  0
DICTIONARY
  5
47
102
{ACAD_REACTORS
330
C
102
}
330
C
100
AcDbDictionary
281
     1
  3
A0
350
48
  3
A1
350
49
  3
A2
350
4A
  3
A3
350
4B
  3
A4
350
4C
  3
A5
350
4D
  3
A6
350
4E
  3
A7
350
4F
  3
A8
350
50
  3
A9
350
51
  3
B0
350
52
  3
B1
350
53
  3
B2
350
54
  3
B3
350
55
  3
B4
350
56
  3
B5
350
57
  3
B6
350
58
  3
B7
350
59
  3
B8
350
5A
  3
B9
350
5B
  3
C0
350
5C
  3
C1
350
5D
  3
C2
350
5E
  3
C3
350
5F
  3
C4
350
60
  3
C5
350
61
  3
C6
350
62
  3
C7
350
63
  3
C8
350
64
  3
C9
350
65
  3
D0
350
66
  3
D1
350
67
  3
D2
350
68
  0
DICTIONARY
  5
130
102
{ACAD_REACTORS
330
C
102
}
330
C
100
AcDbDictionary
281
     1
  0
XRECORD
  5
280
102
{ACAD_REACTORS
330
C
102
}
330
C
100
AcDbXrecord
280
     1
  1
DWGPROPS COOKIE
  2

  3

  4

  6

  7

  8
12016016
  9

300
=
301
=
302
=
303
=
304
=
305
=
306
=
307
=
308
=
309
=
 40
0.0
 41
2458316.068058021
 42
2458330.039343102
  1

 90
        0
  0
DICTIONARY
  5
1C1
102
{ACAD_REACTORS
330
1C0
102
}
330
1C0
100
AcDbDictionary
281
     1
  0
LAYOUT
  5
1E
102
{ACAD_REACTORS
330
1A
102
}
330
1A
100
AcDbPlotSettings
  1

  2
none_device
  4

  6

 40
0.0
 41
0.0
 42
0.0
 43
0.0
 44
0.0
 45
0.0
 46
0.0
 47
0.0
 48
0.0
 49
0.0
140
0.0
141
0.0
142
1.0
143
1.0
 70
   688
 72
     1
 73
     0
 74
     5
  7

 75
    16
147
1.0
148
0.0
149
0.0
100
AcDbLayout
  1
Layout1
 70
     1
 71
     1
 10
0.0
 20
0.0
 11
420.0
 21
297.0
 12
0.0
 22
0.0
 32
0.0
 14
1.000000000000000E+20
 24
1.000000000000000E+20
 34
1.000000000000000E+20
 15
-1.000000000000000E+20
 25
-1.000000000000000E+20
 35
-1.000000000000000E+20
146
0.0
 13
0.0
 23
0.0
 33
0.0
 16
1.0
 26
0.0
 36
0.0
 17
0.0
 27
1.0
 37
0.0
 76
     0
330
1B
  0
LAYOUT
  5
26
102
{ACAD_REACTORS
330
1A
102
}
330
1A
100
AcDbPlotSettings
  1

  2
none_device
  4

  6

 40
0.0
 41
0.0
 42
0.0
 43
0.0
 44
0.0
 45
0.0
 46
0.0
 47
0.0
 48
0.0
 49
0.0
140
0.0
141
0.0
142
1.0
143
1.0
 70
   688
 72
     1
 73
     0
 74
     5
  7

 75
    16
147
1.0
148
0.0
149
0.0
100
AcDbLayout
  1
Layout2
 70
     1
 71
     2
 10
0.0
 20
0.0
 11
0.0
 21
0.0
 12
0.0
 22
0.0
 32
0.0
 14
0.0
 24
0.0
 34
0.0
 15
0.0
 25
0.0
 35
0.0
146
0.0
 13
0.0
 23
0.0
 33
0.0
 16
1.0
 26
0.0
 36
0.0
 17
0.0
 27
1.0
 37
0.0
 76
     0
330
23
  0
LAYOUT
  5
22
102
{ACAD_REACTORS
330
1A
102
}
330
1A
100
AcDbPlotSettings
  1

  2
none_device
  4
ANSI_A_(11.00_x_8.50_Inches)
  6

 40
6.35
 41
19.05
 42
6.35000508
 43
19.05000254
 44
279.4
 45
215.9
 46
79.49457958498073
 47
82.92475406779607
 48
0.0
 49
0.0
140
0.0
141
0.0
142
0.0783255010539914
143
1.0
 70
  1696
 72
     0
 73
     0
 74
     0
  7

 75
     0
147
0.0235690232323232
148
0.0
149
0.0
100
AcDbLayout
  1
Model
 70
     1
 71
     0
 10
0.0
 20
0.0
 11
420.0
 21
297.0
 12
0.0
 22
0.0
 32
0.0
 14
-53.16892670490603
 24
-49.97073246008785
 34
0.0
 15
92.8134838153456
 25
50.34863764027281
 35
0.0
146
0.0
 13
0.0
 23
0.0
 33
0.0
 16
1.0
 26
0.0
 36
0.0
 17
0.0
 27
1.0
 37
0.0
 76
     0
330
1F
331
29
  0
MLINESTYLE
  5
18
102
{ACAD_REACTORS
330
17
102
}
330
17
100
AcDbMlineStyle
  2
Standard
 70
     0
  3

 62
   256
 51
90.0
 52
90.0
 71
     2
 49
0.5
 62
   256
  6
BYLAYER
 49
-0.5
 62
   256
  6
BYLAYER
  0
ACDBPLACEHOLDER
  5
F
102
{ACAD_REACTORS
330
E
102
}
330
E
  0
SCALE
  5
48
102
{ACAD_REACTORS
330
47
102
}
330
47
100
AcDbScale
 70
     0
300
1:1
140
1.0
141
1.0
290
     1
  0
SCALE
  5
49
102
{ACAD_REACTORS
330
47
102
}
330
47
100
AcDbScale
 70
     0
300
1:2
140
1.0
141
2.0
290
     0
  0
SCALE
  5
4A
102
{ACAD_REACTORS
330
47
102
}
330
47
100
AcDbScale
 70
     0
300
1:4
140
1.0
141
4.0
290
     0
  0
SCALE
  5
4B
102
{ACAD_REACTORS
330
47
102
}
330
47
100
AcDbScale
 70
     0
300
1:5
140
1.0
141
5.0
290
     0
  0
SCALE
  5
4C
102
{ACAD_REACTORS
330
47
102
}
330
47
100
AcDbScale
 70
     0
300
1:8
140
1.0
141
8.0
290
     0
  0
SCALE
  5
4D
102
{ACAD_REACTORS
330
47
102
}
330
47
100
AcDbScale
 70
     0
300
1:10
140
1.0
141
10.0
290
     0
  0
SCALE
  5
4E
102
{ACAD_REACTORS
330
47
102
}
330
47
100
AcDbScale
 70
     0
300
1:16
140
1.0
141
16.0
290
     0
  0
SCALE
  5
4F
102
{ACAD_REACTORS
330
47
102
}
330
47
100
AcDbScale
 70
     0
300
1:20
140
1.0
141
20.0
290
     0
  0
SCALE
  5
50
102
{ACAD_REACTORS
330
47
102
}
330
47
100
AcDbScale
 70
     0
300
1:30
140
1.0
141
30.0
290
     0
  0
SCALE
  5
51
102
{ACAD_REACTORS
330
47
102
}
330
47
100
AcDbScale
 70
     0
300
1:40
140
1.0
141
40.0
290
     0
  0
SCALE
  5
52
102
{ACAD_REACTORS
330
47
102
}
330
47
100
AcDbScale
 70
     0
300
1:50
140
1.0
141
50.0
290
     0
  0
SCALE
  5
53
102
{ACAD_REACTORS
330
47
102
}
330
47
100
AcDbScale
 70
     0
300
1:100
140
1.0
141
100.0
290
     0
  0
SCALE
  5
54
102
{ACAD_REACTORS
330
47
102
}
330
47
100
AcDbScale
 70
     0
300
2:1
140
2.0
141
1.0
290
     0
  0
SCALE
  5
55
102
{ACAD_REACTORS
330
47
102
}
330
47
100
AcDbScale
 70
     0
300
4:1
140
4.0
141
1.0
290
     0
  0
SCALE
  5
56
102
{ACAD_REACTORS
330
47
102
}
330
47
100
AcDbScale
 70
     0
300
8:1
140
8.0
141
1.0
290
     0
  0
SCALE
  5
57
102
{ACAD_REACTORS
330
47
102
}
330
47
100
AcDbScale
 70
     0
300
10:1
140
10.0
141
1.0
290
     0
  0
SCALE
  5
58
102
{ACAD_REACTORS
330
47
102
}
330
47
100
AcDbScale
 70
     0
300
100:1
140
100.0
141
1.0
290
     0
  0
SCALE
  5
59
102
{ACAD_REACTORS
330
47
102
}
330
47
100
AcDbScale
 70
     0
300
1/128" = 1'-0"
140
0.0078125
141
12.0
290
     0
  0
SCALE
  5
5A
102
{ACAD_REACTORS
330
47
102
}
330
47
100
AcDbScale
 70
     0
300
1/64" = 1'-0"
140
0.015625
141
12.0
290
     0
  0
SCALE
  5
5B
102
{ACAD_REACTORS
330
47
102
}
330
47
100
AcDbScale
 70
     0
300
1/32" = 1'-0"
140
0.03125
141
12.0
290
     0
  0
SCALE
  5
5C
102
{ACAD_REACTORS
330
47
102
}
330
47
100
AcDbScale
 70
     0
300
1/16" = 1'-0"
140
0.0625
141
12.0
290
     0
  0
SCALE
  5
5D
102
{ACAD_REACTORS
330
47
102
}
330
47
100
AcDbScale
 70
     0
300
3/32" = 1'-0"
140
0.09375
141
12.0
290
     0
  0
SCALE
  5
5E
102
{ACAD_REACTORS
330
47
102
}
330
47
100
AcDbScale
 70
     0
300
1/8" = 1'-0"
140
0.125
141
12.0
290
     0
  0
SCALE
  5
5F
102
{ACAD_REACTORS
330
47
102
}
330
47
100
AcDbScale
 70
     0
300
3/16" = 1'-0"
140
0.1875
141
12.0
290
     0
  0
SCALE
  5
60
102
{ACAD_REACTORS
330
47
102
}
330
47
100
AcDbScale
 70
     0
300
1/4" = 1'-0"
140
0.25
141
12.0
290
     0
  0
SCALE
  5
61
102
{ACAD_REACTORS
330
47
102
}
330
47
100
AcDbScale
 70
     0
300
3/8" = 1'-0"
140
0.375
141
12.0
290
     0
  0
SCALE
  5
62
102
{ACAD_REACTORS
330
47
102
}
330
47
100
AcDbScale
 70
     0
300
1/2" = 1'-0"
140
0.5
141
12.0
290
     0
  0
SCALE
  5
63
102
{ACAD_REACTORS
330
47
102
}
330
47
100
AcDbScale
 70
     0
300
3/4" = 1'-0"
140
0.75
141
12.0
290
     0
  0
SCALE
  5
64
102
{ACAD_REACTORS
330
47
102
}
330
47
100
AcDbScale
 70
     0
300
1" = 1'-0"
140
1.0
141
12.0
290
     0
  0
SCALE
  5
65
102
{ACAD_REACTORS
330
47
102
}
330
47
100
AcDbScale
 70
     0
300
1-1/2" = 1'-0"
140
1.5
141
12.0
290
     0
  0
SCALE
  5
66
102
{ACAD_REACTORS
330
47
102
}
330
47
100
AcDbScale
 70
     0
300
3" = 1'-0"
140
3.0
141
12.0
290
     0
  0
SCALE
  5
67
102
{ACAD_REACTORS
330
47
102
}
330
47
100
AcDbScale
 70
     0
300
6" = 1'-0"
140
6.0
141
12.0
290
     0
  0
SCALE
  5
68
102
{ACAD_REACTORS
330
47
102
}
330
47
100
AcDbScale
 70
     0
300
1'-0" = 1'-0"
140
12.0
141
12.0
290
     0
  0
ENDSEC
  0
EOF
