  0
SECTION
  2
HEADER
  9
$ACADVER
  1
AC1015
  9
$ACADMAINTVER
 70
     6
  9
$DWGCODEPAGE
  3
ANSI_949
  9
$INSBASE
 10
0.0
 20
0.0
 30
0.0
  9
$EXTMIN
 10
1.000000000000000E+20
 20
1.000000000000000E+20
 30
1.000000000000000E+20
  9
$EXTMAX
 10
-1.000000000000000E+20
 20
-1.000000000000000E+20
 30
-1.000000000000000E+20
  9
$LIMMIN
 10
0.0
 20
0.0
  9
$LIMMAX
 10
420.0
 20
297.0
  9
$ORTHOMODE
 70
     0
  9
$REGENMODE
 70
     1
  9
$FILLMODE
 70
     1
  9
$QTEXTMODE
 70
     0
  9
$MIRRTEXT
 70
     1
  9
$LTSCALE
 40
1.0
  9
$ATTMODE
 70
     1
  9
$TEXTSIZE
 40
3.5
  9
$TRACEWID
 40
1.0
  9
$TEXTSTYLE
  7
Standard
  9
$CLAYER
  8
0
  9
$CELTYPE
  6
ByLayer
  9
$CECOLOR
 62
   256
  9
$CELTSCALE
 40
1.0
  9
$DISPSILH
 70
     0
  9
$DIMSCALE
 40
1.0
  9
$DIMASZ
 40
3.302
  9
$DIMEXO
 40
1.0
  9
$DIMDLI
 40
3.75
  9
$DIMRND
 40
0.0
  9
$DIMDLE
 40
0.0
  9
$DIMEXE
 40
1.0
  9
$DIMTP
 40
0.0
  9
$DIMTM
 40
0.0
  9
$DIMTXT
 40
3.5
  9
$DIMCEN
 40
2.5
  9
$DIMTSZ
 40
0.0
  9
$DIMTOL
 70
     0
  9
$DIMLIM
 70
     0
  9
$DIMTIH
 70
     1
  9
$DIMTOH
 70
     1
  9
$DIMSE1
 70
     0
  9
$DIMSE2
 70
     0
  9
$DIMTAD
 70
     1
  9
$DIMZIN
 70
     0
  9
$DIMBLK
  1

  9
$DIMASO
 70
     1
  9
$DIMSHO
 70
     1
  9
$DIMPOST
  1

  9
$DIMAPOST
  1

  9
$DIMALT
 70
     0
  9
$DIMALTD
 70
     3
  9
$DIMALTF
 40
0.0393700787401575
  9
$DIMLFAC
 40
1.0
  9
$DIMTOFL
 70
     1
  9
$DIMTVP
 40
0.0
  9
$DIMTIX
 70
     0
  9
$DIMSOXD
 70
     0
  9
$DIMSAH
 70
     0
  9
$DIMBLK1
  1

  9
$DIMBLK2
  1

  9
$DIMSTYLE
  2
ISO-25
  9
$DIMCLRD
 70
     0
  9
$DIMCLRE
 70
     0
  9
$DIMCLRT
 70
     0
  9
$DIMTFAC
 40
1.0
  9
$DIMGAP
 40
1.524
  9
$DIMJUST
 70
     0
  9
$DIMSD1
 70
     0
  9
$DIMSD2
 70
     0
  9
$DIMTOLJ
 70
     0
  9
$DIMTZIN
 70
     0
  9
$DIMALTZ
 70
     0
  9
$DIMALTTZ
 70
     0
  9
$DIMUPT
 70
     0
  9
$DIMDEC
 70
     2
  9
$DIMTDEC
 70
     2
  9
$DIMALTU
 70
     2
  9
$DIMALTTD
 70
     3
  9
$DIMTXSTY
  7
Standard
  9
$DIMAUNIT
 70
     0
  9
$DIMADEC
 70
     2
  9
$DIMALTRND
 40
0.0
  9
$DIMAZIN
 70
     0
  9
$DIMDSEP
 70
    44
  9
$DIMATFIT
 70
     3
  9
$DIMFRAC
 70
     0
  9
$DIMLDRBLK
  1

  9
$DIMLUNIT
 70
     2
  9
$DIMLWD
 70
    -2
  9
$DIMLWE
 70
    -2
  9
$DIMTMOVE
 70
     0
  9
$LUNITS
 70
     2
  9
$LUPREC
 70
     2
  9
$SKETCHINC
 40
1.0
  9
$FILLETRAD
 40
10.0
  9
$AUNITS
 70
     0
  9
$AUPREC
 70
     2
  9
$MENU
  1
.
  9
$ELEVATION
 40
0.0
  9
$PELEVATION
 40
0.0
  9
$THICKNESS
 40
0.0
  9
$LIMCHECK
 70
     0
  9
$CHAMFERA
 40
0.0
  9
$CHAMFERB
 40
0.0
  9
$CHAMFERC
 40
0.0
  9
$CHAMFERD
 40
0.0
  9
$SKPOLY
 70
     0
  9
$TDCREATE
 40
2458316.442634433
  9
$TDUCREATE
 40
2458316.067634433
  9
$TDUPDATE
 40
2458330.409623357
  9
$TDUUPDATE
 40
2458330.034623357
  9
$TDINDWG
 40
0.0055356134
  9
$TDUSRTIMER
 40
2458330.015725301
  9
$USRTIMER
 70
     1
  9
$ANGBASE
 50
0.0
  9
$ANGDIR
 70
     0
  9
$PDMODE
 70
     0
  9
$PDSIZE
 40
-1.0
  9
$PLINEWID
 40
0.0
  9
$SPLFRAME
 70
     0
  9
$SPLINETYPE
 70
     6
  9
$SPLINESEGS
 70
     8
  9
$HANDSEED
  5
51B
  9
$SURFTAB1
 70
     6
  9
$SURFTAB2
 70
     6
  9
$SURFTYPE
 70
     6
  9
$SURFU
 70
     6
  9
$SURFV
 70
     6
  9
$UCSBASE
  2

  9
$UCSNAME
  2

  9
$UCSORG
 10
0.0
 20
0.0
 30
0.0
  9
$UCSXDIR
 10
1.0
 20
0.0
 30
0.0
  9
$UCSYDIR
 10
0.0
 20
1.0
 30
0.0
  9
$UCSORTHOREF
  2

  9
$UCSORTHOVIEW
 70
     0
  9
$UCSORGTOP
 10
0.0
 20
0.0
 30
0.0
  9
$UCSORGBOTTOM
 10
0.0
 20
0.0
 30
0.0
  9
$UCSORGLEFT
 10
0.0
 20
0.0
 30
0.0
  9
$UCSORGRIGHT
 10
0.0
 20
0.0
 30
0.0
  9
$UCSORGFRONT
 10
0.0
 20
0.0
 30
0.0
  9
$UCSORGBACK
 10
0.0
 20
0.0
 30
0.0
  9
$PUCSBASE
  2

  9
$PUCSNAME
  2

  9
$PUCSORG
 10
0.0
 20
0.0
 30
0.0
  9
$PUCSXDIR
 10
1.0
 20
0.0
 30
0.0
  9
$PUCSYDIR
 10
0.0
 20
1.0
 30
0.0
  9
$PUCSORTHOREF
  2

  9
$PUCSORTHOVIEW
 70
     0
  9
$PUCSORGTOP
 10
0.0
 20
0.0
 30
0.0
  9
$PUCSORGBOTTOM
 10
0.0
 20
0.0
 30
0.0
  9
$PUCSORGLEFT
 10
0.0
 20
0.0
 30
0.0
  9
$PUCSORGRIGHT
 10
0.0
 20
0.0
 30
0.0
  9
$PUCSORGFRONT
 10
0.0
 20
0.0
 30
0.0
  9
$PUCSORGBACK
 10
0.0
 20
0.0
 30
0.0
  9
$USERI1
 70
     0
  9
$USERI2
 70
     0
  9
$USERI3
 70
     0
  9
$USERI4
 70
     0
  9
$USERI5
 70
     0
  9
$USERR1
 40
0.0
  9
$USERR2
 40
0.0
  9
$USERR3
 40
0.0
  9
$USERR4
 40
0.0
  9
$USERR5
 40
0.0
  9
$WORLDVIEW
 70
     1
  9
$SHADEDGE
 70
     3
  9
$SHADEDIF
 70
    70
  9
$TILEMODE
 70
     1
  9
$MAXACTVP
 70
    64
  9
$PINSBASE
 10
0.0
 20
0.0
 30
0.0
  9
$PLIMCHECK
 70
     0
  9
$PEXTMIN
 10
1.000000000000000E+20
 20
1.000000000000000E+20
 30
1.000000000000000E+20
  9
$PEXTMAX
 10
-1.000000000000000E+20
 20
-1.000000000000000E+20
 30
-1.000000000000000E+20
  9
$PLIMMIN
 10
0.0
 20
0.0
  9
$PLIMMAX
 10
0.0
 20
0.0
  9
$UNITMODE
 70
     0
  9
$VISRETAIN
 70
     1
  9
$PLINEGEN
 70
     0
  9
$PSLTSCALE
 70
     1
  9
$TREEDEPTH
 70
  3020
  9
$CMLSTYLE
  2
Standard
  9
$CMLJUST
 70
     0
  9
$CMLSCALE
 40
20.0
  9
$PROXYGRAPHICS
 70
     1
  9
$MEASUREMENT
 70
     1
  9
$CELWEIGHT
370
    -1
  9
$ENDCAPS
280
     0
  9
$JOINSTYLE
280
     0
  9
$LWDISPLAY
290
     1
  9
$INSUNITS
 70
     4
  9
$HYPERLINKBASE
  1

  9
$STYLESHEET
  1

  9
$XEDIT
290
     1
  9
$CEPSNTYPE
380
     0
  9
$PSTYLEMODE
290
     1
  9
$FINGERPRINTGUID
  2
{422A10D4-A57B-4213-AFEF-7FD43A3CBC2E}
  9
$VERSIONGUID
  2
{FAEB1C32-E019-11D5-929B-00C0DF256EC4}
  9
$EXTNAMES
290
     1
  9
$PSVPSCALE
 40
0.0
  9
$OLESTARTUP
290
     0
  0
ENDSEC
  0
SECTION
  2
CLASSES
  0
CLASS
  1
ACDBDICTIONARYWDFLT
  2
AcDbDictionaryWithDefault
  3
ObjectDBX Classes
 90
        0
280
     0
281
     0
  0
CLASS
  1
VISUALSTYLE
  2
AcDbVisualStyle
  3
ObjectDBX Classes
 90
     4095
280
     0
281
     0
  0
CLASS
  1
MATERIAL
  2
AcDbMaterial
  3
ObjectDBX Classes
 90
     1153
280
     0
281
     0
  0
CLASS
  1
SCALE
  2
AcDbScale
  3
ObjectDBX Classes
 90
     1153
280
     0
281
     0
  0
CLASS
  1
SUN
  2
AcDbSun
  3
SCENEOE
 90
     1153
280
     0
281
     0
  0
CLASS
  1
ACDBPLACEHOLDER
  2
AcDbPlaceHolder
  3
ObjectDBX Classes
 90
        0
280
     0
281
     0
  0
CLASS
  1
LAYOUT
  2
AcDbLayout
  3
ObjectDBX Classes
 90
        0
280
     0
281
     0
  0
CLASS
  1
TABLESTYLE
  2
AcDbTableStyle
  3
ObjectDBX Classes
 90
     4095
280
     0
281
     0
  0
CLASS
  1
MLEADERSTYLE
  2
AcDbMLeaderStyle
  3
ACDB_MLEADERSTYLE_CLASS
 90
     4095
280
     0
281
     0
  0
CLASS
  1
RASTERVARIABLES
  2
AcDbRasterVariables
  3
ISM
 90
        0
280
     0
281
     0
  0
ENDSEC
  0
SECTION
  2
TABLES
  0
TABLE
  2
VPORT
  5
8
330
0
100
AcDbSymbolTable
 70
     1
  0
VPORT
  5
29
330
8
100
AcDbSymbolTableRecord
100
AcDbViewportTableRecord
  2
*Active
 70
     0
 10
0.0
 20
0.0
 11
1.0
 21
1.0
 12
17.15314740825458
 22
19.36560799349552
 13
0.0
 23
0.0
 14
10.0
 24
10.0
 15
10.0
 25
10.0
 16
0.0
 26
0.0
 36
1.0
 17
0.0
 27
0.0
 37
0.0
 40
289.6033006049798
 41
1.516441005802708
 42
50.0
 43
0.0
 44
0.0
 50
0.0
 51
0.0
 71
    16
 72
  2000
 73
     1
 74
     3
 75
     0
 76
     0
 77
     0
 78
     0
281
     0
 65
     1
110
0.0
120
0.0
130
0.0
111
1.0
121
0.0
131
0.0
112
0.0
122
1.0
132
0.0
 79
     0
146
0.0
  0
ENDTAB
  0
TABLE
  2
LTYPE
  5
5
330
0
100
AcDbSymbolTable
 70
     6
  0
LTYPE
  5
14
330
5
100
AcDbSymbolTableRecord
100
AcDbLinetypeTableRecord
  2
ByBlock
 70
     0
  3

 72
    65
 73
     0
 40
0.0
  0
LTYPE
  5
15
330
5
100
AcDbSymbolTableRecord
100
AcDbLinetypeTableRecord
  2
ByLayer
 70
     0
  3

 72
    65
 73
     0
 40
0.0
  0
LTYPE
  5
16
330
5
100
AcDbSymbolTableRecord
100
AcDbLinetypeTableRecord
  2
Continuous
 70
     0
  3
Solid line
 72
    65
 73
     0
 40
0.0
  0
LTYPE
  5
6A
330
5
100
AcDbSymbolTableRecord
100
AcDbLinetypeTableRecord
  2
HIDDEN
 70
     0
  3
Hidden __ __ __ __ __ __ __ __ __ __ __ __ __ __
 72
    65
 73
     2
 40
1.905
 49
1.27
 74
     0
 49
-0.635
 74
     0
  0
LTYPE
  5
6B
330
5
100
AcDbSymbolTableRecord
100
AcDbLinetypeTableRecord
  2
PHANTOM
 70
     0
  3
Phantom ______  __  __  ______  __  __  ______
 72
    65
 73
     6
 40
12.7
 49
6.35
 74
     0
 49
-1.27
 74
     0
 49
1.27
 74
     0
 49
-1.27
 74
     0
 49
1.27
 74
     0
 49
-1.27
 74
     0
  0
LTYPE
  5
6C
330
5
100
AcDbSymbolTableRecord
100
AcDbLinetypeTableRecord
  2
CENTER
 70
     0
  3
Center ____ _ ____ _ ____ _ ____ _ ____ _ ____
 72
    65
 73
     4
 40
10.16
 49
6.35
 74
     0
 49
-1.27
 74
     0
 49
1.27
 74
     0
 49
-1.27
 74
     0
  0
LTYPE
  5
6D
330
5
100
AcDbSymbolTableRecord
100
AcDbLinetypeTableRecord
  2
CENTERX2
 70
     0
  3
Center (2x) ________  __  ________  __  _____
 72
    65
 73
     4
 40
20.32
 49
12.7
 74
     0
 49
-2.54
 74
     0
 49
2.54
 74
     0
 49
-2.54
 74
     0
  0
LTYPE
  5
6E
330
5
100
AcDbSymbolTableRecord
100
AcDbLinetypeTableRecord
  2
DOT2
 70
     0
  3
Dot (.5x) ........................................
 72
    65
 73
     2
 40
0.635
 49
0.0
 74
     0
 49
-0.635
 74
     0
  0
ENDTAB
  0
TABLE
  2
LAYER
  5
2
102
{ACAD_XDICTIONARY
360
20E
102
}
330
0
100
AcDbSymbolTable
 70
    18
  0
LAYER
  5
10
330
2
100
AcDbSymbolTableRecord
100
AcDbLayerTableRecord
  2
0
 70
     0
 62
     7
  6
Continuous
370
    -3
390
F
  0
LAYER
  5
6F
330
2
100
AcDbSymbolTableRecord
100
AcDbLayerTableRecord
  2
FORMAT
 70
     0
 62
     2
  6
Continuous
370
    -3
390
F
  0
LAYER
  5
70
330
2
100
AcDbSymbolTableRecord
100
AcDbLayerTableRecord
  2
외형선
 70
     0
 62
     4
  6
Continuous
370
    30
390
F
  0
LAYER
  5
71
330
2
100
AcDbSymbolTableRecord
100
AcDbLayerTableRecord
  2
숨은선
 70
     0
 62
     2
  6
HIDDEN
370
    15
390
F
  0
LAYER
  5
72
330
2
100
AcDbSymbolTableRecord
100
AcDbLayerTableRecord
  2
중심선
 70
     0
 62
     1
  6
CENTERX2
370
    -3
390
F
  0
LAYER
  5
73
330
2
100
AcDbSymbolTableRecord
100
AcDbLayerTableRecord
  2
파단선
 70
     0
 62
     4
  6
Continuous
370
    -3
390
F
  0
LAYER
  5
74
330
2
100
AcDbSymbolTableRecord
100
AcDbLayerTableRecord
  2
해칭선
 70
     0
 62
   100
  6
Continuous
370
    -3
390
F
  0
LAYER
  5
75
330
2
100
AcDbSymbolTableRecord
100
AcDbLayerTableRecord
  2
가는실선
 70
     0
 62
     4
  6
Continuous
370
    -3
390
F
  0
LAYER
  5
76
330
2
100
AcDbSymbolTableRecord
100
AcDbLayerTableRecord
  2
치수_보조선
 70
     0
 62
     4
  6
Continuous
370
    -3
390
F
  0
LAYER
  5
77
330
2
100
AcDbSymbolTableRecord
100
AcDbLayerTableRecord
  2
치수문자_일반주서
 70
     0
 62
     7
  6
Continuous
370
    15
390
F
  0
LAYER
  5
78
330
2
100
AcDbSymbolTableRecord
100
AcDbLayerTableRecord
  2
개별주서
 70
     0
 62
   100
  6
Continuous
370
    30
390
F
  0
LAYER
  5
79
330
2
100
AcDbSymbolTableRecord
100
AcDbLayerTableRecord
  2
중간선
 70
     0
 62
     2
  6
Continuous
370
    15
390
F
  0
LAYER
  5
7A
330
2
100
AcDbSymbolTableRecord
100
AcDbLayerTableRecord
  2
윤곽선
 70
     0
 62
     3
  6
Continuous
370
    40
390
F
  0
LAYER
  5
7B
330
2
100
AcDbSymbolTableRecord
100
AcDbLayerTableRecord
  2
중심마크
 70
     0
 62
   100
  6
Continuous
370
    30
390
F
  0
LAYER
  5
7C
330
2
100
AcDbSymbolTableRecord
100
AcDbLayerTableRecord
  2
가상선
 70
     0
 62
     4
  6
PHANTOM
370
    -3
390
F
  0
LAYER
  5
7D
330
2
100
AcDbSymbolTableRecord
100
AcDbLayerTableRecord
  2
특수지정선
 70
     0
 62
     5
  6
CENTERX2
370
    60
390
F
  0
LAYER
  5
7E
330
2
100
AcDbSymbolTableRecord
100
AcDbLayerTableRecord
  2
참조1
 70
     0
 62
    -4
  6
Continuous
370
    -3
390
F
  0
LAYER
  5
156
330
2
100
AcDbSymbolTableRecord
100
AcDbLayerTableRecord
  2
Defpoints
 70
     0
 62
     7
  6
Continuous
290
     0
370
    -3
390
F
  0
ENDTAB
  0
TABLE
  2
STYLE
  5
3
330
0
100
AcDbSymbolTable
 70
     2
  0
STYLE
  5
11
330
3
100
AcDbSymbolTableRecord
100
AcDbTextStyleTableRecord
  2
Standard
 70
     0
 40
0.0
 41
1.0
 50
0.0
 71
     0
 42
3.5
  3
txt
  4

  0
STYLE
  5
94
330
3
100
AcDbSymbolTableRecord
100
AcDbTextStyleTableRecord
  2
SLDTEXTSTYLE0
 70
     0
 40
0.0
 41
0.75
 50
0.0
 71
     0
 42
3.5
  3
TXT
  4

  0
ENDTAB
  0
TABLE
  2
VIEW
  5
6
330
0
100
AcDbSymbolTable
 70
     0
  0
ENDTAB
  0
TABLE
  2
UCS
  5
7
330
0
100
AcDbSymbolTable
 70
     0
  0
ENDTAB
  0
TABLE
  2
APPID
  5
9
330
0
100
AcDbSymbolTable
 70
     3
  0
APPID
  5
12
330
9
100
AcDbSymbolTableRecord
100
AcDbRegAppTableRecord
  2
ACAD
 70
     0
  0
APPID
  5
162
330
9
100
AcDbSymbolTableRecord
100
AcDbRegAppTableRecord
  2
PE_URL
 70
     0
  0
APPID
  5
163
330
9
100
AcDbSymbolTableRecord
100
AcDbRegAppTableRecord
  2
ACAD_DSTYLE_DIMRADIAL_EXTENSION
 70
     0
  0
ENDTAB
  0
TABLE
  2
DIMSTYLE
  5
A
330
0
100
AcDbSymbolTable
 70
     4
100
AcDbDimStyleTable
  0
DIMSTYLE
105
27
330
A
100
AcDbSymbolTableRecord
100
AcDbDimStyleTableRecord
  2
ISO-25
 70
     0
 41
2.5
 42
0.625
 43
3.75
 44
1.25
 73
     0
 74
     0
 77
     1
 78
     8
140
2.5
141
2.5
143
0.03937007874016
147
0.625
171
     3
172
     1
178
     0
271
     2
272
     2
274
     3
278
    44
283
     0
284
     8
340
11
  0
DIMSTYLE
105
D3
102
{ACAD_REACTORS
330
349
330
359
330
369
330
376
330
3F8
330
3F9
330
3FA
330
3FB
330
490
330
4A0
330
4B0
330
4BD
102
}
330
A
100
AcDbSymbolTableRecord
100
AcDbDimStyleTableRecord
  2
SLDDIMSTYLE0
 70
     0
 41
3.302
 44
0.0
 45
0.000000001
 73
     0
 74
     0
 77
     1
 78
    12
 79
     3
140
3.5
143
0.0393700787401575
147
0.875
148
0.000000001
170
     1
172
     1
173
     1
178
     0
271
     2
272
     2
276
     2
284
    12
289
     0
340
94
  0
DIMSTYLE
105
E8
102
{ACAD_REACTORS
102
}
330
A
100
AcDbSymbolTableRecord
100
AcDbDimStyleTableRecord
  2
SLDDIMSTYLE1
 70
     0
 41
3.302
 44
0.0
 45
0.000000001
 73
     0
 74
     0
 77
     1
 78
    12
 79
     3
140
3.5
143
0.0393700787401575
147
0.875
148
0.000000001
170
     1
173
     1
178
     0
271
     2
272
     2
276
     2
284
    12
340
94
  0
DIMSTYLE
105
161
102
{ACAD_REACTORS
102
}
330
A
100
AcDbSymbolTableRecord
100
AcDbDimStyleTableRecord
  2
SLDDIMSTYLE2
 70
     0
 41
3.302
 44
0.0
 45
0.000000001
 73
     0
 74
     0
 77
     1
 78
    12
 79
     3
140
3.5
147
0.875
172
     1
173
     1
178
     0
271
     2
272
     2
276
     2
284
    12
289
     0
340
94
  0
ENDTAB
  0
TABLE
  2
BLOCK_RECORD
  5
1
330
0
100
AcDbSymbolTable
 70
    31
  0
BLOCK_RECORD
  5
1F
330
1
100
AcDbSymbolTableRecord
100
AcDbBlockTableRecord
  2
*Model_Space
340
22
  0
BLOCK_RECORD
  5
1B
330
1
100
AcDbSymbolTableRecord
100
AcDbBlockTableRecord
  2
*Paper_Space
340
1E
  0
BLOCK_RECORD
  5
23
330
1
100
AcDbSymbolTableRecord
100
AcDbBlockTableRecord
  2
*Paper_Space0
340
26
  0
BLOCK_RECORD
  5
7F
330
1
100
AcDbSymbolTableRecord
100
AcDbBlockTableRecord
  2
블럭10
340
0
102
{BLKREFS
331
CB
102
}
  0
BLOCK_RECORD
  5
D4
330
1
100
AcDbSymbolTableRecord
100
AcDbBlockTableRecord
  2
_D
340
0
  0
BLOCK_RECORD
  5
E9
330
1
100
AcDbSymbolTableRecord
100
AcDbBlockTableRecord
  2
_D_1
340
0
  0
BLOCK_RECORD
  5
FD
330
1
100
AcDbSymbolTableRecord
100
AcDbBlockTableRecord
  2
_D_2
340
0
  0
BLOCK_RECORD
  5
110
330
1
100
AcDbSymbolTableRecord
100
AcDbBlockTableRecord
  2
_D_3
340
0
  0
BLOCK_RECORD
  5
12A
330
1
100
AcDbSymbolTableRecord
100
AcDbBlockTableRecord
  2
SW_DOWELSYMBOL_0
340
0
102
{BLKREFS
331
0
331
386
331
3FC
331
4CD
102
}
  0
BLOCK_RECORD
  5
1EC
330
1
100
AcDbSymbolTableRecord
100
AcDbBlockTableRecord
  2
_D_4
340
0
  0
BLOCK_RECORD
  5
206
330
1
100
AcDbSymbolTableRecord
100
AcDbBlockTableRecord
  2
*D8
340
0
  0
BLOCK_RECORD
  5
212
330
1
100
AcDbSymbolTableRecord
100
AcDbBlockTableRecord
  2
*D9
340
0
  0
BLOCK_RECORD
  5
21E
330
1
100
AcDbSymbolTableRecord
100
AcDbBlockTableRecord
  2
*D10
340
0
  0
BLOCK_RECORD
  5
22A
330
1
100
AcDbSymbolTableRecord
100
AcDbBlockTableRecord
  2
*D11
340
0
  0
BLOCK_RECORD
  5
285
330
1
100
AcDbSymbolTableRecord
100
AcDbBlockTableRecord
  2
*D12
340
0
  0
BLOCK_RECORD
  5
291
330
1
100
AcDbSymbolTableRecord
100
AcDbBlockTableRecord
  2
*D13
340
0
  0
BLOCK_RECORD
  5
29D
330
1
100
AcDbSymbolTableRecord
100
AcDbBlockTableRecord
  2
*D14
340
0
  0
BLOCK_RECORD
  5
2AB
330
1
100
AcDbSymbolTableRecord
100
AcDbBlockTableRecord
  2
*D15
340
0
  0
BLOCK_RECORD
  5
2B9
330
1
100
AcDbSymbolTableRecord
100
AcDbBlockTableRecord
  2
*D16
340
0
  0
BLOCK_RECORD
  5
38F
330
1
100
AcDbSymbolTableRecord
100
AcDbBlockTableRecord
  2
*D18
340
0
  0
BLOCK_RECORD
  5
39E
330
1
100
AcDbSymbolTableRecord
100
AcDbBlockTableRecord
  2
*D19
340
0
  0
BLOCK_RECORD
  5
3AD
330
1
100
AcDbSymbolTableRecord
100
AcDbBlockTableRecord
  2
*D20
340
0
  0
BLOCK_RECORD
  5
3B9
330
1
100
AcDbSymbolTableRecord
100
AcDbBlockTableRecord
  2
*D21
340
0
  0
BLOCK_RECORD
  5
3FD
330
1
100
AcDbSymbolTableRecord
100
AcDbBlockTableRecord
  2
*D22
340
0
  0
BLOCK_RECORD
  5
40C
330
1
100
AcDbSymbolTableRecord
100
AcDbBlockTableRecord
  2
*D23
340
0
  0
BLOCK_RECORD
  5
41B
330
1
100
AcDbSymbolTableRecord
100
AcDbBlockTableRecord
  2
*D24
340
0
  0
BLOCK_RECORD
  5
427
330
1
100
AcDbSymbolTableRecord
100
AcDbBlockTableRecord
  2
*D25
340
0
  0
BLOCK_RECORD
  5
4D6
330
1
100
AcDbSymbolTableRecord
100
AcDbBlockTableRecord
  2
*D27
340
0
  0
BLOCK_RECORD
  5
4E5
330
1
100
AcDbSymbolTableRecord
100
AcDbBlockTableRecord
  2
*D28
340
0
  0
BLOCK_RECORD
  5
4F4
330
1
100
AcDbSymbolTableRecord
100
AcDbBlockTableRecord
  2
*D29
340
0
  0
BLOCK_RECORD
  5
500
330
1
100
AcDbSymbolTableRecord
100
AcDbBlockTableRecord
  2
*D30
340
0
  0
ENDTAB
  0
ENDSEC
  0
SECTION
  2
BLOCKS
  0
BLOCK
  5
20
330
1F
100
AcDbEntity
  8
0
100
AcDbBlockBegin
  2
*Model_Space
 70
     0
 10
0.0
 20
0.0
 30
0.0
  3
*Model_Space
  1
*Model_Space
  0
ENDBLK
  5
21
330
1F
100
AcDbEntity
  8
0
100
AcDbBlockEnd
  0
BLOCK
  5
1C
330
1B
100
AcDbEntity
 67
     1
  8
0
100
AcDbBlockBegin
  2
*Paper_Space
 70
     0
 10
0.0
 20
0.0
 30
0.0
  3
*Paper_Space
  1
*Paper_Space
  0
ENDBLK
  5
1D
330
1B
100
AcDbEntity
 67
     1
  8
0
100
AcDbBlockEnd
  0
BLOCK
  5
24
330
23
100
AcDbEntity
  8
0
100
AcDbBlockBegin
  2
*Paper_Space0
 70
     0
 10
0.0
 20
0.0
 30
0.0
  3
*Paper_Space0
  1
*Paper_Space0
  0
ENDBLK
  5
25
330
23
100
AcDbEntity
  8
0
100
AcDbBlockEnd
  0
BLOCK
  5
80
330
7F
100
AcDbEntity
  8
0
100
AcDbBlockBegin
  2
블럭10
 70
     2
 10
0.0
 20
0.0
 30
0.0
  3
블럭10
  1
블럭10
  0
ELLIPSE
  5
82
330
7F
100
AcDbEntity
  8
중심선
100
AcDbEllipse
 10
20.54032771741204
 20
12.0471743016438
 30
0.0
 11
6.600054785286829
 21
-1.261213355974178E-13
 31
0.0
210
0.0
220
0.0
230
1.0
 40
0.636358354079598
 41
0.9219305317359503
 42
6.513795318482858
  0
ELLIPSE
  5
83
330
7F
100
AcDbEntity
  8
중심선
100
AcDbEllipse
 10
20.54032771746488
 20
12.04717430159265
 30
0.0
 11
3.960054785062283
 21
1.540847449632565E-10
 31
0.0
210
0.0
220
0.0
230
1.0
 40
0.3939339440162632
 41
1.131841032648279
 42
5.62031148352944
  0
LINE
  5
84
330
7F
100
AcDbEntity
  8
중심선
100
AcDbLine
 10
2.268634060543552
 20
16.24717430164393
 30
0.0
 11
5.714909304380834
 21
16.24717430164393
 31
0.0
  0
LINE
  5
85
330
7F
100
AcDbEntity
  8
중심선
100
AcDbLine
 10
5.245725140726316
 20
7.84717430164391
 30
0.0
 11
8.692000384563599
 21
7.84717430164391
 31
0.0
  0
LINE
  5
86
330
7F
100
AcDbEntity
  8
중심선
100
AcDbLine
 10
15.74043728645272
 20
16.24717430164393
 30
0.0
 11
8.692000384563599
 21
7.84717430164391
 31
0.0
  0
LINE
  5
87
330
7F
100
AcDbEntity
  8
중심선
100
AcDbLine
 10
0.1404042013395286
 20
13.71084872107135
 30
0.0
 11
3.58671253028996
 21
13.71088815037384
 31
0.0
  0
LINE
  5
88
330
7F
100
AcDbEntity
  8
중심선
100
AcDbLine
 10
2.750260043222114
 20
10.84717430164391
 30
0.0
 11
6.196535287059397
 21
10.84717430164391
 31
0.0
  0
LINE
  5
89
330
7F
100
AcDbEntity
  8
중심선
100
AcDbLine
 10
12.29416204261559
 20
16.24717430164393
 30
0.0
 11
5.245725140726316
 21
7.84717430164391
 31
0.0
  0
LINE
  5
8A
330
7F
100
AcDbEntity
  8
중심선
100
AcDbLine
 10
10.72767329541681
 20
16.24717430164393
 30
0.0
 11
6.196535287059397
 21
10.84717430164391
 31
0.0
  0
LINE
  5
8B
330
7F
100
AcDbEntity
  8
중심선
100
AcDbLine
 10
7.28139805157953
 20
16.24717430164393
 30
0.0
 11
2.750260043222114
 21
10.84717430164391
 31
0.0
  0
LINE
  5
8C
330
7F
100
AcDbEntity
  8
중심선
100
AcDbLine
 10
5.714909304380834
 20
16.24717430164393
 30
0.0
 11
3.58671253028996
 21
13.71088815037384
 31
0.0
  0
LINE
  5
8D
330
7F
100
AcDbEntity
  8
중심선
100
AcDbLine
 10
2.268634060543552
 20
16.24717430164393
 30
0.0
 11
0.1404042013395286
 21
13.71084872107135
 31
0.0
  0
LINE
  5
8E
330
7F
100
AcDbEntity
  8
중심선
100
AcDbLine
 10
7.28139805157953
 20
16.24717430164393
 30
0.0
 11
10.72767329541681
 21
16.24717430164393
 31
0.0
  0
LINE
  5
8F
330
7F
100
AcDbEntity
  8
중심선
100
AcDbLine
 10
12.29416204261559
 20
16.24717430164393
 30
0.0
 11
15.74043728645272
 21
16.24717430164393
 31
0.0
  0
LINE
  5
90
330
7F
100
AcDbEntity
  8
중심선
100
AcDbLine
 10
19.22036997980202
 20
11.08717430171403
 30
0.0
 11
23.66174974927406
 21
11.08717430171406
 31
0.0
  0
LINE
  5
91
330
7F
100
AcDbEntity
  8
중심선
100
AcDbLine
 10
19.22039502424796
 20
13.00717430171391
 30
0.0
 11
19.22036997980202
 21
11.08717430171403
 31
0.0
  0
LINE
  5
92
330
7F
100
AcDbEntity
  8
중심선
100
AcDbLine
 10
19.22039502424796
 20
13.00717430171391
 30
0.0
 11
26.96566020931264
 21
13.00717430171391
 31
0.0
  0
LINE
  5
93
330
7F
100
AcDbEntity
  8
중심선
100
AcDbLine
 10
22.22332737316547
 20
13.45928029700563
 30
0.0
 11
24.52862924686651
 21
15.39360700705356
 31
0.0
  0
ATTDEF
  5
95
330
7F
100
AcDbEntity
  8
FORMAT
 62
     2
100
AcDbText
 10
4.408487351596664
 20
2.075366912832191
 30
0.0
 40
4.233333333333333
  1
E5066010
 41
0.75
  7
SLDTEXTSTYLE0
 11
4.408487351596664
 21
-0.0412997538344756
 31
0.0
100
AcDbAttributeDefinition
  3

  2
AUTOATTR0
 70
     0
 74
     1
  0
ENDBLK
  5
81
330
7F
100
AcDbEntity
  8
0
100
AcDbBlockEnd
  0
BLOCK
  5
D5
330
D4
100
AcDbEntity
  8
0
100
AcDbBlockBegin
  2
_D
 70
     0
 10
0.0
 20
0.0
 30
0.0
  3
_D
  1
_D
  0
LINE
  5
D7
330
D4
100
AcDbEntity
  8
치수문자_일반주서
 62
     0
370
    -2
100
AcDbLine
 10
59.35080366712729
 20
80.99613995171434
 30
0.0
 11
72.89891903186098
 21
80.9961399517144
 31
0.0
  0
LINE
  5
D8
330
D4
100
AcDbEntity
  8
치수문자_일반주서
 62
     0
370
    -2
100
AcDbLine
 10
59.35080366712731
 20
77.82113995171434
 30
0.0
 11
72.898919031861
 21
77.8211399517144
 31
0.0
  0
LINE
  5
D9
330
D4
100
AcDbEntity
  8
치수문자_일반주서
 62
     0
370
    -2
100
AcDbLine
 10
72.89891903186098
 20
80.9961399517144
 30
0.0
 11
72.89891903186084
 21
112.3188899517144
 31
0.0
  0
LINE
  5
DA
330
D4
100
AcDbEntity
  8
치수문자_일반주서
 62
     0
370
    -2
100
AcDbLine
 10
72.89891903186098
 20
80.9961399517144
 30
0.0
 11
72.898919031861
 21
77.8211399517144
 31
0.0
  0
LINE
  5
DB
330
D4
100
AcDbEntity
  8
치수문자_일반주서
 62
     0
370
    -2
100
AcDbLine
 10
72.89891903186097
 20
84.2981399517144
 30
0.0
 11
72.89891903186096
 21
87.60013995171441
 31
0.0
  0
LINE
  5
DC
330
D4
100
AcDbEntity
  8
치수문자_일반주서
 62
     0
370
    -2
100
AcDbLine
 10
72.89891903186101
 20
74.5191399517144
 30
0.0
 11
72.89891903186103
 21
71.21713995171439
 31
0.0
  0
SOLID
  5
DD
330
D4
100
AcDbEntity
  8
치수문자_일반주서
 62
     0
100
AcDbTrace
 10
72.34858569852764
 20
84.2981399517144
 30
0.0
 11
73.4492523651943
 21
84.2981399517144
 31
0.0
 12
72.89891903186098
 22
80.9961399517144
 32
0.0
 13
72.89891903186098
 23
80.9961399517144
 33
0.0
  0
SOLID
  5
DE
330
D4
100
AcDbEntity
  8
치수문자_일반주서
 62
     0
100
AcDbTrace
 10
73.44925236519434
 20
74.5191399517144
 30
0.0
 11
72.34858569852769
 21
74.5191399517144
 31
0.0
 12
72.898919031861
 22
77.8211399517144
 32
0.0
 13
72.898919031861
 23
77.8211399517144
 33
0.0
  0
MTEXT
  5
DF
330
D4
100
AcDbEntity
  8
치수문자_일반주서
 62
     0
100
AcDbMText
 10
68.5239190318609
 20
100.0688899517144
 30
0.0
 40
3.5
 41
0.0
 71
     2
 72
     1
  1
\A1;%%c3.18 [1/8]
  7
SLDTEXTSTYLE0
 11
-4.475859752819533E-15
 21
1.0
 31
0.0
 73
     1
 44
1.0
  0
POINT
  5
E0
330
D4
100
AcDbEntity
  8
Defpoints
 62
     0
100
AcDbPoint
 10
59.28830366712729
 20
80.99613995171434
 30
0.0
  0
POINT
  5
E1
330
D4
100
AcDbEntity
  8
Defpoints
 62
     0
100
AcDbPoint
 10
59.28830366712731
 20
77.82113995171434
 30
0.0
  0
POINT
  5
E2
330
D4
100
AcDbEntity
  8
Defpoints
 62
     0
100
AcDbPoint
 10
72.89891903186097
 20
77.8211399517144
 30
0.0
  0
ENDBLK
  5
D6
330
D4
100
AcDbEntity
  8
0
100
AcDbBlockEnd
  0
BLOCK
  5
EA
330
E9
100
AcDbEntity
  8
0
100
AcDbBlockBegin
  2
_D_1
 70
     0
 10
0.0
 20
0.0
 30
0.0
  3
_D_1
  1
_D_1
  0
LINE
  5
EC
330
E9
100
AcDbEntity
  8
치수문자_일반주서
 62
     0
370
    -2
100
AcDbLine
 10
59.28830366712729
 20
81.05863995171434
 30
0.0
 11
59.28830366712729
 21
103.6524769324944
 31
0.0
  0
LINE
  5
ED
330
E9
100
AcDbEntity
  8
치수문자_일반주서
 62
     0
370
    -2
100
AcDbLine
 10
51.3508036671273
 20
80.96906302268658
 30
0.0
 11
51.3508036671273
 21
103.6524769324944
 31
0.0
  0
LINE
  5
EE
330
E9
100
AcDbEntity
  8
치수문자_일반주서
 62
     0
370
    -2
100
AcDbLine
 10
51.3508036671273
 20
103.6524769324944
 30
0.0
 11
19.3718036671273
 21
103.6524769324944
 31
0.0
  0
LINE
  5
EF
330
E9
100
AcDbEntity
  8
치수문자_일반주서
 62
     0
370
    -2
100
AcDbLine
 10
59.28830366712729
 20
103.6524769324944
 30
0.0
 11
51.3508036671273
 21
103.6524769324944
 31
0.0
  0
LINE
  5
F0
330
E9
100
AcDbEntity
  8
치수문자_일반주서
 62
     0
370
    -2
100
AcDbLine
 10
62.59030366712729
 20
103.6524769324944
 30
0.0
 11
65.8923036671273
 21
103.6524769324944
 31
0.0
  0
LINE
  5
F1
330
E9
100
AcDbEntity
  8
치수문자_일반주서
 62
     0
370
    -2
100
AcDbLine
 10
48.0488036671273
 20
103.6524769324944
 30
0.0
 11
44.7468036671273
 21
103.6524769324944
 31
0.0
  0
SOLID
  5
F2
330
E9
100
AcDbEntity
  8
치수문자_일반주서
 62
     0
100
AcDbTrace
 10
62.59030366712729
 20
104.2028102658277
 30
0.0
 11
62.59030366712729
 21
103.1021435991611
 31
0.0
 12
59.28830366712729
 22
103.6524769324944
 32
0.0
 13
59.28830366712729
 23
103.6524769324944
 33
0.0
  0
SOLID
  5
F3
330
E9
100
AcDbEntity
  8
치수문자_일반주서
 62
     0
100
AcDbTrace
 10
48.0488036671273
 20
103.1021435991611
 30
0.0
 11
48.0488036671273
 21
104.2028102658277
 31
0.0
 12
51.3508036671273
 22
103.6524769324944
 32
0.0
 13
51.3508036671273
 23
103.6524769324944
 33
0.0
  0
MTEXT
  5
F4
330
E9
100
AcDbEntity
  8
치수문자_일반주서
 62
     0
100
AcDbMText
 10
32.0593036671273
 20
108.0274769324944
 30
0.0
 40
3.5
 41
0.0
 71
     2
 72
     1
  1
\A1;7.94 [5/16]
  7
SLDTEXTSTYLE0
 73
     1
 44
1.0
  0
POINT
  5
F5
330
E9
100
AcDbEntity
  8
Defpoints
 62
     0
100
AcDbPoint
 10
59.28830366712729
 20
80.99613995171434
 30
0.0
  0
POINT
  5
F6
330
E9
100
AcDbEntity
  8
Defpoints
 62
     0
100
AcDbPoint
 10
51.3508036671273
 20
80.90656302268658
 30
0.0
  0
POINT
  5
F7
330
E9
100
AcDbEntity
  8
Defpoints
 62
     0
100
AcDbPoint
 10
51.3508036671273
 20
103.6524769324944
 30
0.0
  0
ENDBLK
  5
EB
330
E9
100
AcDbEntity
  8
0
100
AcDbBlockEnd
  0
BLOCK
  5
FE
330
FD
100
AcDbEntity
  8
0
100
AcDbBlockBegin
  2
_D_2
 70
     0
 10
0.0
 20
0.0
 30
0.0
  3
_D_2
  1
_D_2
  0
LINE
  5
100
330
FD
100
AcDbEntity
  8
치수문자_일반주서
 62
     0
370
    -2
100
AcDbLine
 10
59.28830366712729
 20
81.05863995171434
 30
0.0
 11
59.28830366712729
 21
124.5917077101883
 31
0.0
  0
LINE
  5
101
330
FD
100
AcDbEntity
  8
치수문자_일반주서
 62
     0
370
    -2
100
AcDbLine
 10
8.488303667127312
 20
80.74113995171433
 30
0.0
 11
8.488303667127312
 21
124.5917077101883
 31
0.0
  0
LINE
  5
102
330
FD
100
AcDbEntity
  8
치수문자_일반주서
 62
     0
370
    -2
100
AcDbLine
 10
55.9863036671273
 20
124.5917077101883
 30
0.0
 11
11.79030366712731
 21
124.5917077101883
 31
0.0
  0
SOLID
  5
103
330
FD
100
AcDbEntity
  8
치수문자_일반주서
 62
     0
100
AcDbTrace
 10
55.9863036671273
 20
124.041374376855
 30
0.0
 11
55.9863036671273
 21
125.1420410435217
 31
0.0
 12
59.28830366712729
 22
124.5917077101883
 32
0.0
 13
59.28830366712729
 23
124.5917077101883
 33
0.0
  0
SOLID
  5
104
330
FD
100
AcDbEntity
  8
치수문자_일반주서
 62
     0
100
AcDbTrace
 10
11.79030366712731
 20
125.1420410435217
 30
0.0
 11
11.79030366712731
 21
124.041374376855
 31
0.0
 12
8.488303667127312
 22
124.5917077101883
 32
0.0
 13
8.488303667127312
 23
124.5917077101883
 33
0.0
  0
MTEXT
  5
105
330
FD
100
AcDbEntity
  8
치수문자_일반주서
 62
     0
100
AcDbMText
 10
33.8883036671273
 20
128.9667077101883
 30
0.0
 40
3.5
 41
0.0
 71
     2
 72
     1
  1
\A1;50.8 [2]
  7
SLDTEXTSTYLE0
 73
     1
 44
1.0
  0
POINT
  5
106
330
FD
100
AcDbEntity
  8
Defpoints
 62
     0
100
AcDbPoint
 10
59.28830366712729
 20
80.99613995171434
 30
0.0
  0
POINT
  5
107
330
FD
100
AcDbEntity
  8
Defpoints
 62
     0
100
AcDbPoint
 10
8.488303667127312
 20
80.67863995171433
 30
0.0
  0
POINT
  5
108
330
FD
100
AcDbEntity
  8
Defpoints
 62
     0
100
AcDbPoint
 10
8.488303667127312
 20
124.5917077101883
 30
0.0
  0
ENDBLK
  5
FF
330
FD
100
AcDbEntity
  8
0
100
AcDbBlockEnd
  0
BLOCK
  5
111
330
110
100
AcDbEntity
  8
0
100
AcDbBlockBegin
  2
_D_3
 70
     0
 10
0.0
 20
0.0
 30
0.0
  3
_D_3
  1
_D_3
  0
LINE
  5
113
330
110
100
AcDbEntity
  8
치수문자_일반주서
 62
     0
370
    -2
100
AcDbLine
 10
8.7433036671273
 20
80.99613995171433
 30
0.0
 11
1.790757675352952
 21
80.9961399517143
 31
0.0
  0
LINE
  5
114
330
110
100
AcDbEntity
  8
치수문자_일반주서
 62
     0
370
    -2
100
AcDbLine
 10
8.7433036671273
 20
77.82113995171434
 30
0.0
 11
1.790757675352963
 21
77.82113995171431
 31
0.0
  0
LINE
  5
115
330
110
100
AcDbEntity
  8
치수문자_일반주서
 62
     0
370
    -2
100
AcDbLine
 10
1.790757675352952
 20
80.9961399517143
 30
0.0
 11
1.790757675352843
 21
112.3188899517143
 31
0.0
  0
LINE
  5
116
330
110
100
AcDbEntity
  8
치수문자_일반주서
 62
     0
370
    -2
100
AcDbLine
 10
1.790757675352952
 20
80.9961399517143
 30
0.0
 11
1.790757675352963
 21
77.82113995171431
 31
0.0
  0
LINE
  5
117
330
110
100
AcDbEntity
  8
치수문자_일반주서
 62
     0
370
    -2
100
AcDbLine
 10
1.790757675352941
 20
84.2981399517143
 30
0.0
 11
1.790757675352929
 21
87.60013995171431
 31
0.0
  0
LINE
  5
118
330
110
100
AcDbEntity
  8
치수문자_일반주서
 62
     0
370
    -2
100
AcDbLine
 10
1.790757675352975
 20
74.51913995171431
 30
0.0
 11
1.790757675352987
 21
71.2171399517143
 31
0.0
  0
SOLID
  5
119
330
110
100
AcDbEntity
  8
치수문자_일반주서
 62
     0
100
AcDbTrace
 10
1.240424342019607
 20
84.2981399517143
 30
0.0
 11
2.341091008686274
 21
84.2981399517143
 31
0.0
 12
1.790757675352952
 22
80.9961399517143
 32
0.0
 13
1.790757675352952
 23
80.9961399517143
 33
0.0
  0
SOLID
  5
11A
330
110
100
AcDbEntity
  8
치수문자_일반주서
 62
     0
100
AcDbTrace
 10
2.341091008686308
 20
74.51913995171431
 30
0.0
 11
1.240424342019642
 21
74.51913995171431
 31
0.0
 12
1.790757675352963
 22
77.82113995171431
 32
0.0
 13
1.790757675352963
 23
77.82113995171431
 33
0.0
  0
MTEXT
  5
11B
330
110
100
AcDbEntity
  8
치수문자_일반주서
 62
     0
100
AcDbMText
 10
-2.584242324647114
 20
100.0688899517143
 30
0.0
 40
3.5
 41
0.0
 71
     2
 72
     1
  1
\A1;%%c3.18 [1/8]
  7
SLDTEXTSTYLE0
 11
-3.496765431890275E-15
 21
1.0
 31
0.0
 73
     1
 44
1.0
  0
POINT
  5
2C3
330
110
100
AcDbEntity
  8
Defpoints
 62
     0
100
AcDbPoint
 10
8.8058036671273
 20
80.99613995171433
 30
0.0
  0
POINT
  5
2C4
330
110
100
AcDbEntity
  8
Defpoints
 62
     0
100
AcDbPoint
 10
8.8058036671273
 20
77.82113995171434
 30
0.0
  0
POINT
  5
2C5
330
110
100
AcDbEntity
  8
Defpoints
 62
     0
100
AcDbPoint
 10
1.790757675352992
 20
77.82113995171431
 30
0.0
  0
ENDBLK
  5
112
330
110
100
AcDbEntity
  8
0
100
AcDbBlockEnd
  0
BLOCK
  5
12B
330
12A
100
AcDbEntity
  8
0
100
AcDbBlockBegin
  2
SW_DOWELSYMBOL_0
 70
     0
 10
0.0
 20
0.0
 30
0.0
  3
SW_DOWELSYMBOL_0
  1
SW_DOWELSYMBOL_0
  0
CIRCLE
  5
12D
330
12A
100
AcDbEntity
  8
해칭선
 62
     0
100
AcDbCircle
 10
0.0
 20
0.0
 30
0.0
 40
3.000000000000001
  0
HATCH
  5
12E
330
12A
100
AcDbEntity
  8
0
  6
Continuous
 62
     0
370
     0
100
AcDbHatch
 10
0.0
 20
0.0
 30
0.0
210
0.0
220
0.0
230
1.0
  2
SOLID
 70
     1
 71
     0
 91
        1
 92
        0
 93
        3
 72
     2
 10
0.0000000000000069
 20
0.0
 40
3.000000000000001
 50
0.0
 51
90.0
 73
     1
 72
     1
 10
0.0000000000000069
 20
3.000000000000001
 11
0.0000000000000069
 21
0.0
 72
     1
 10
0.0000000000000069
 20
0.0
 11
3.000000000000008
 21
0.0
 97
        0
 75
     0
 76
     1
 98
        1
 10
0.0
 20
0.0
  0
HATCH
  5
12F
330
12A
100
AcDbEntity
  8
0
  6
Continuous
 62
     0
370
     0
100
AcDbHatch
 10
0.0
 20
0.0
 30
0.0
210
0.0
220
0.0
230
1.0
  2
SOLID
 70
     1
 71
     0
 91
        1
 92
        0
 93
        3
 72
     2
 10
0.0000000000000069
 20
0.0
 40
3.000000000000001
 50
180.0
 51
270.0000000000007
 73
     1
 72
     1
 10
0.0000000000000069
 20
-3.000000000000001
 11
0.0000000000000069
 21
0.0
 72
     1
 10
0.0000000000000069
 20
0.0
 11
-2.999999999999994
 21
0.0
 97
        0
 75
     0
 76
     1
 98
        1
 10
0.0
 20
0.0
  0
ENDBLK
  5
12C
330
12A
100
AcDbEntity
  8
0
100
AcDbBlockEnd
  0
BLOCK
  5
1ED
330
1EC
100
AcDbEntity
  8
0
100
AcDbBlockBegin
  2
_D_4
 70
     0
 10
0.0
 20
0.0
 30
0.0
  3
_D_4
  1
_D_4
  0
LINE
  5
1EE
330
1EC
100
AcDbEntity
  8
치수문자_일반주서
 62
     0
370
    -2
100
AcDbLine
 10
102.4375000000001
 20
36.22143424691529
 30
0.0
 11
117.3750000000001
 21
36.22143424691535
 31
0.0
  0
LINE
  5
1EF
330
1EC
100
AcDbEntity
  8
치수문자_일반주서
 62
     0
370
    -2
100
AcDbLine
 10
102.4375000000001
 20
22.22143424691529
 30
0.0
 11
117.3750000000001
 21
22.22143424691535
 31
0.0
  0
LINE
  5
1F0
330
1EC
100
AcDbEntity
  8
치수문자_일반주서
 62
     0
370
    -2
100
AcDbLine
 10
117.3750000000001
 20
36.22143424691535
 30
0.0
 11
117.3750000000001
 21
22.22143424691535
 31
0.0
  0
LINE
  5
1F1
330
1EC
100
AcDbEntity
  8
치수문자_일반주서
 62
     0
370
    -2
100
AcDbLine
 10
117.3750000000001
 20
39.52343424691535
 30
0.0
 11
117.375
 21
42.82543424691535
 31
0.0
  0
LINE
  5
1F2
330
1EC
100
AcDbEntity
  8
치수문자_일반주서
 62
     0
370
    -2
100
AcDbLine
 10
117.3750000000001
 20
18.91943424691535
 30
0.0
 11
117.3750000000001
 21
15.61743424691535
 31
0.0
  0
SOLID
  5
1F3
330
1EC
100
AcDbEntity
  8
치수문자_일반주서
 62
     0
100
AcDbTrace
 10
116.8246666666667
 20
39.52343424691535
 30
0.0
 11
117.9253333333334
 21
39.52343424691535
 31
0.0
 12
117.3750000000001
 22
36.22143424691535
 32
0.0
 13
117.3750000000001
 23
36.22143424691535
 33
0.0
  0
SOLID
  5
1F4
330
1EC
100
AcDbEntity
  8
치수문자_일반주서
 62
     0
100
AcDbTrace
 10
117.9253333333335
 20
18.91943424691535
 30
0.0
 11
116.8246666666668
 21
18.91943424691535
 31
0.0
 12
117.3750000000001
 22
22.22143424691535
 32
0.0
 13
117.3750000000001
 23
22.22143424691535
 33
0.0
  0
MTEXT
  5
1F5
330
1EC
100
AcDbEntity
  8
치수문자_일반주서
 62
     0
100
AcDbMText
 10
113.0000000000001
 20
29.28713862862833
 30
0.0
 40
3.5
 41
0.0
 71
     2
 72
     1
  1
\A1;%%c14
  7
SLDTEXTSTYLE0
 11
-3.045183153257572E-15
 21
1.0
 31
0.0
 73
     1
 44
1.0
  0
POINT
  5
1F6
330
1EC
100
AcDbEntity
  8
Defpoints
 62
     0
100
AcDbPoint
 10
102.3750000000001
 20
36.22143424691529
 30
0.0
  0
POINT
  5
1F7
330
1EC
100
AcDbEntity
  8
Defpoints
 62
     0
100
AcDbPoint
 10
102.3750000000001
 20
22.22143424691529
 30
0.0
  0
POINT
  5
1F8
330
1EC
100
AcDbEntity
  8
Defpoints
 62
     0
100
AcDbPoint
 10
117.3750000000001
 20
22.22143424691535
 30
0.0
  0
ENDBLK
  5
1F9
330
1EC
100
AcDbEntity
  8
0
100
AcDbBlockEnd
  0
BLOCK
  5
207
330
206
100
AcDbEntity
  8
0
100
AcDbBlockBegin
  2
*D8
 70
     1
 10
0.0
 20
0.0
 30
0.0
  3
*D8
  1
*D8
  0
LINE
  5
208
330
206
100
AcDbEntity
  8
치수문자_일반주서
 62
     0
370
    -2
100
AcDbLine
 10
103.8657751816695
 20
19.48229575403651
 30
0.0
 11
119.6194267469468
 21
-6.150060756304035
 31
0.0
  0
MTEXT
  5
209
330
206
100
AcDbEntity
  8
치수문자_일반주서
 62
     0
100
AcDbMText
 10
115.6706384014277
 20
5.288158154535728
 30
0.0
 40
3.5
 41
0.0
 71
     5
 72
     1
  1
\A1;R.5 [R0.02]
  7
SLDTEXTSTYLE0
 11
0.5236126201129557
 21
-0.8519564684057781
 31
0.0
 73
     1
 44
1.0
  0
SOLID
  5
20A
330
206
100
AcDbEntity
  8
치수문자_일반주서
 62
     0
100
AcDbTrace
 10
104.3346352247821
 20
19.77045723263868
 30
0.0
 11
103.3969151385569
 21
19.19413427543435
 31
0.0
 12
102.1368063100565
 22
22.29545601271239
 32
0.0
 13
102.1368063100565
 23
22.29545601271239
 33
0.0
  0
LINE
  5
20B
330
206
100
AcDbEntity
  8
치수문자_일반주서
 62
     0
100
AcDbLine
 10
101.785
 20
22.72143424691529
 30
0.0
 11
101.965
 21
22.72143424691529
 31
0.0
  0
LINE
  5
20C
330
206
100
AcDbEntity
  8
치수문자_일반주서
 62
     0
100
AcDbLine
 10
101.875
 20
22.63143424691529
 30
0.0
 11
101.875
 21
22.81143424691529
 31
0.0
  0
POINT
  5
238
330
206
100
AcDbEntity
  8
Defpoints
 62
     0
100
AcDbPoint
 10
102.1368063100565
 20
22.29545601271239
 30
0.0
  0
POINT
  5
239
330
206
100
AcDbEntity
  8
Defpoints
 62
     0
100
AcDbPoint
 10
101.875
 20
22.72143424691529
 30
0.0
  0
ENDBLK
  5
20D
330
206
100
AcDbEntity
  8
0
100
AcDbBlockEnd
  0
BLOCK
  5
213
330
212
100
AcDbEntity
  8
0
100
AcDbBlockBegin
  2
*D9
 70
     1
 10
0.0
 20
0.0
 30
0.0
  3
*D9
  1
*D10
  0
LINE
  5
215
330
212
100
AcDbEntity
  8
치수문자_일반주서
 62
     0
370
    -2
100
AcDbLine
 10
19.37500000000004
 20
35.78393424691529
 30
0.0
 11
19.37500000000004
 21
70.88391841499404
 31
0.0
  0
LINE
  5
216
330
212
100
AcDbEntity
  8
치수문자_일반주서
 62
     0
370
    -2
100
AcDbLine
 10
102.3750000000001
 20
36.34643424691529
 30
0.0
 11
102.3750000000001
 21
70.88391841499404
 31
0.0
  0
LINE
  5
217
330
212
100
AcDbEntity
  8
치수문자_일반주서
 62
     0
370
    -2
100
AcDbLine
 10
22.67700000000004
 20
70.88391841499404
 30
0.0
 11
99.07300000000006
 21
70.88391841499404
 31
0.0
  0
SOLID
  5
218
330
212
100
AcDbEntity
  8
치수문자_일반주서
 62
     0
100
AcDbTrace
 10
22.67700000000004
 20
71.43425174832737
 30
0.0
 11
22.67700000000004
 21
70.33358508166071
 31
0.0
 12
19.37500000000004
 22
70.88391841499404
 32
0.0
 13
19.37500000000004
 23
70.88391841499404
 33
0.0
  0
SOLID
  5
219
330
212
100
AcDbEntity
  8
치수문자_일반주서
 62
     0
100
AcDbTrace
 10
99.07300000000006
 20
70.33358508166071
 30
0.0
 11
99.07300000000006
 21
71.43425174832737
 31
0.0
 12
102.3750000000001
 22
70.88391841499404
 32
0.0
 13
102.3750000000001
 23
70.88391841499404
 33
0.0
  0
MTEXT
  5
21A
330
212
100
AcDbEntity
  8
치수문자_일반주서
 62
     0
100
AcDbMText
 10
60.87500000000005
 20
75.25891841499404
 30
0.0
 40
3.5
 41
0.0
 71
     2
 72
     1
  1
\A1;83 [3.27]
  7
SLDTEXTSTYLE0
 73
     1
 44
1.0
  0
POINT
  5
21B
330
212
100
AcDbEntity
  8
Defpoints
 62
     0
100
AcDbPoint
 10
19.37500000000004
 20
35.72143424691529
 30
0.0
  0
POINT
  5
21C
330
212
100
AcDbEntity
  8
Defpoints
 62
     0
100
AcDbPoint
 10
102.3750000000001
 20
36.28393424691529
 30
0.0
  0
POINT
  5
21D
330
212
100
AcDbEntity
  8
Defpoints
 62
     0
100
AcDbPoint
 10
102.3750000000001
 20
70.88391841499404
 30
0.0
  0
ENDBLK
  5
214
330
212
100
AcDbEntity
  8
0
100
AcDbBlockEnd
  0
BLOCK
  5
21F
330
21E
100
AcDbEntity
  8
0
100
AcDbBlockBegin
  2
*D10
 70
     1
 10
0.0
 20
0.0
 30
0.0
  3
*D10
  1
*D11
  0
LINE
  5
221
330
21E
100
AcDbEntity
  8
치수문자_일반주서
 62
     0
370
    -2
100
AcDbLine
 10
76.37504186422882
 20
28.62038676313042
 30
0.0
 11
76.37504186422882
 21
61.90091383617725
 31
0.0
  0
LINE
  5
222
330
21E
100
AcDbEntity
  8
치수문자_일반주서
 62
     0
370
    -2
100
AcDbLine
 10
102.3750000000001
 20
36.28393424691529
 30
0.0
 11
102.3750000000001
 21
61.90091383617725
 31
0.0
  0
LINE
  5
223
330
21E
100
AcDbEntity
  8
치수문자_일반주서
 62
     0
370
    -2
100
AcDbLine
 10
79.67704186422881
 20
61.90091383617725
 30
0.0
 11
99.07300000000006
 21
61.90091383617725
 31
0.0
  0
SOLID
  5
224
330
21E
100
AcDbEntity
  8
치수문자_일반주서
 62
     0
100
AcDbTrace
 10
79.67704186422881
 20
62.45124716951059
 30
0.0
 11
79.67704186422881
 21
61.35058050284392
 31
0.0
 12
76.37504186422882
 22
61.90091383617725
 32
0.0
 13
76.37504186422882
 23
61.90091383617725
 33
0.0
  0
SOLID
  5
225
330
21E
100
AcDbEntity
  8
치수문자_일반주서
 62
     0
100
AcDbTrace
 10
99.07300000000006
 20
61.35058050284392
 30
0.0
 11
99.07300000000006
 21
62.45124716951059
 31
0.0
 12
102.3750000000001
 22
61.90091383617725
 32
0.0
 13
102.3750000000001
 23
61.90091383617725
 33
0.0
  0
MTEXT
  5
226
330
21E
100
AcDbEntity
  8
치수문자_일반주서
 62
     0
100
AcDbMText
 10
89.42159572693208
 20
66.27591383617725
 30
0.0
 40
3.5
 41
0.0
 71
     2
 72
     1
  1
\A1;26 [1.02]
  7
SLDTEXTSTYLE0
 73
     1
 44
1.0
  0
POINT
  5
227
330
21E
100
AcDbEntity
  8
Defpoints
 62
     0
100
AcDbPoint
 10
76.37504186422882
 20
28.55788676313042
 30
0.0
  0
POINT
  5
228
330
21E
100
AcDbEntity
  8
Defpoints
 62
     0
100
AcDbPoint
 10
102.3750000000001
 20
36.22143424691529
 30
0.0
  0
POINT
  5
229
330
21E
100
AcDbEntity
  8
Defpoints
 62
     0
100
AcDbPoint
 10
102.3750000000001
 20
61.90091383617725
 30
0.0
  0
ENDBLK
  5
220
330
21E
100
AcDbEntity
  8
0
100
AcDbBlockEnd
  0
BLOCK
  5
22B
330
22A
100
AcDbEntity
  8
0
100
AcDbBlockBegin
  2
*D11
 70
     1
 10
0.0
 20
0.0
 30
0.0
  3
*D11
  1
*D12
  0
LINE
  5
22D
330
22A
100
AcDbEntity
  8
치수문자_일반주서
 62
     0
370
    -2
100
AcDbLine
 10
19.81250000000005
 20
36.22143424691529
 30
0.0
 11
4.374999999999983
 21
36.22143424691524
 31
0.0
  0
LINE
  5
22E
330
22A
100
AcDbEntity
  8
치수문자_일반주서
 62
     0
370
    -2
100
AcDbLine
 10
19.81250000000005
 20
22.22143424691529
 30
0.0
 11
4.375000000000032
 21
22.22143424691524
 31
0.0
  0
LINE
  5
22F
330
22A
100
AcDbEntity
  8
치수문자_일반주서
 62
     0
370
    -2
100
AcDbLine
 10
4.374999999999983
 20
36.22143424691524
 30
0.0
 11
4.375000000000032
 21
22.22143424691524
 31
0.0
  0
LINE
  5
230
330
22A
100
AcDbEntity
  8
치수문자_일반주서
 62
     0
370
    -2
100
AcDbLine
 10
4.374999999999972
 20
39.52343424691524
 30
0.0
 11
4.37499999999996
 21
42.82543424691524
 31
0.0
  0
LINE
  5
231
330
22A
100
AcDbEntity
  8
치수문자_일반주서
 62
     0
370
    -2
100
AcDbLine
 10
4.375000000000044
 20
18.91943424691524
 30
0.0
 11
4.375000000000055
 21
15.61743424691524
 31
0.0
  0
SOLID
  5
232
330
22A
100
AcDbEntity
  8
치수문자_일반주서
 62
     0
100
AcDbTrace
 10
3.824666666666638
 20
39.52343424691524
 30
0.0
 11
4.925333333333305
 21
39.52343424691524
 31
0.0
 12
4.374999999999983
 22
36.22143424691524
 32
0.0
 13
4.374999999999983
 23
36.22143424691524
 33
0.0
  0
SOLID
  5
233
330
22A
100
AcDbEntity
  8
치수문자_일반주서
 62
     0
100
AcDbTrace
 10
4.925333333333377
 20
18.91943424691524
 30
0.0
 11
3.82466666666671
 21
18.91943424691523
 31
0.0
 12
4.375000000000032
 22
22.22143424691524
 32
0.0
 13
4.375000000000032
 23
22.22143424691524
 33
0.0
  0
MTEXT
  5
234
330
22A
100
AcDbEntity
  8
치수문자_일반주서
 62
     0
100
AcDbMText
 10
0.0000000000000071
 20
29.22143424691528
 30
0.0
 40
3.5
 41
0.0
 71
     2
 72
     1
  1
\A1;%%c14
  7
SLDTEXTSTYLE0
 11
-3.489272363107635E-15
 21
1.0
 31
0.0
 73
     1
 44
1.0
  0
POINT
  5
235
330
22A
100
AcDbEntity
  8
Defpoints
 62
     0
100
AcDbPoint
 10
19.87500000000005
 20
36.22143424691529
 30
0.0
  0
POINT
  5
236
330
22A
100
AcDbEntity
  8
Defpoints
 62
     0
100
AcDbPoint
 10
19.87500000000005
 20
22.22143424691529
 30
0.0
  0
POINT
  5
237
330
22A
100
AcDbEntity
  8
Defpoints
 62
     0
100
AcDbPoint
 10
4.375000000000043
 20
22.22143424691524
 30
0.0
  0
ENDBLK
  5
22C
330
22A
100
AcDbEntity
  8
0
100
AcDbBlockEnd
  0
BLOCK
  5
286
330
285
100
AcDbEntity
  8
0
100
AcDbBlockBegin
  2
*D12
 70
     1
 10
0.0
 20
0.0
 30
0.0
  3
*D12
  1
*D13
  0
LINE
  5
288
330
285
100
AcDbEntity
  8
치수문자_일반주서
 62
     0
370
    -2
100
AcDbLine
 10
-30.62499999999995
 20
95.78393424691527
 30
0.0
 11
-30.62499999999995
 21
130.883918414994
 31
0.0
  0
LINE
  5
289
330
285
100
AcDbEntity
  8
치수문자_일반주서
 62
     0
370
    -2
100
AcDbLine
 10
52.37500000000006
 20
96.34643424691528
 30
0.0
 11
52.37500000000006
 21
130.883918414994
 31
0.0
  0
LINE
  5
28A
330
285
100
AcDbEntity
  8
치수문자_일반주서
 62
     0
370
    -2
100
AcDbLine
 10
-27.32299999999995
 20
130.883918414994
 30
0.0
 11
49.07300000000006
 21
130.883918414994
 31
0.0
  0
SOLID
  5
28B
330
285
100
AcDbEntity
  8
치수문자_일반주서
 62
     0
100
AcDbTrace
 10
-27.32299999999995
 20
131.4342517483273
 30
0.0
 11
-27.32299999999995
 21
130.3335850816607
 31
0.0
 12
-30.62499999999995
 22
130.883918414994
 32
0.0
 13
-30.62499999999995
 23
130.883918414994
 33
0.0
  0
SOLID
  5
28C
330
285
100
AcDbEntity
  8
치수문자_일반주서
 62
     0
100
AcDbTrace
 10
49.07300000000006
 20
130.3335850816607
 30
0.0
 11
49.07300000000006
 21
131.4342517483273
 31
0.0
 12
52.37500000000006
 22
130.883918414994
 32
0.0
 13
52.37500000000006
 23
130.883918414994
 33
0.0
  0
MTEXT
  5
28D
330
285
100
AcDbEntity
  8
치수문자_일반주서
 62
     0
100
AcDbMText
 10
10.87500000000006
 20
135.258918414994
 30
0.0
 40
3.5
 41
0.0
 71
     2
 72
     1
  1
\A1;83 [3.27]
  7
SLDTEXTSTYLE0
 73
     1
 44
1.0
  0
POINT
  5
28E
330
285
100
AcDbEntity
  8
Defpoints
 62
     0
100
AcDbPoint
 10
-30.62499999999995
 20
95.72143424691527
 30
0.0
  0
POINT
  5
28F
330
285
100
AcDbEntity
  8
Defpoints
 62
     0
100
AcDbPoint
 10
52.37500000000006
 20
96.28393424691528
 30
0.0
  0
POINT
  5
290
330
285
100
AcDbEntity
  8
Defpoints
 62
     0
100
AcDbPoint
 10
52.37500000000006
 20
130.883918414994
 30
0.0
  0
ENDBLK
  5
287
330
285
100
AcDbEntity
  8
0
100
AcDbBlockEnd
  0
BLOCK
  5
292
330
291
100
AcDbEntity
  8
0
100
AcDbBlockBegin
  2
*D13
 70
     1
 10
0.0
 20
0.0
 30
0.0
  3
*D13
  1
*D14
  0
LINE
  5
294
330
291
100
AcDbEntity
  8
치수문자_일반주서
 62
     0
370
    -2
100
AcDbLine
 10
26.37504186422883
 20
88.62038676313041
 30
0.0
 11
26.37504186422883
 21
121.9009138361772
 31
0.0
  0
LINE
  5
295
330
291
100
AcDbEntity
  8
치수문자_일반주서
 62
     0
370
    -2
100
AcDbLine
 10
52.37500000000006
 20
96.28393424691528
 30
0.0
 11
52.37500000000006
 21
121.9009138361772
 31
0.0
  0
LINE
  5
296
330
291
100
AcDbEntity
  8
치수문자_일반주서
 62
     0
370
    -2
100
AcDbLine
 10
29.67704186422883
 20
121.9009138361772
 30
0.0
 11
49.07300000000006
 21
121.9009138361772
 31
0.0
  0
SOLID
  5
297
330
291
100
AcDbEntity
  8
치수문자_일반주서
 62
     0
100
AcDbTrace
 10
29.67704186422883
 20
122.4512471695106
 30
0.0
 11
29.67704186422883
 21
121.3505805028439
 31
0.0
 12
26.37504186422883
 22
121.9009138361772
 32
0.0
 13
26.37504186422883
 23
121.9009138361772
 33
0.0
  0
SOLID
  5
298
330
291
100
AcDbEntity
  8
치수문자_일반주서
 62
     0
100
AcDbTrace
 10
49.07300000000006
 20
121.3505805028439
 30
0.0
 11
49.07300000000006
 21
122.4512471695106
 31
0.0
 12
52.37500000000006
 22
121.9009138361772
 32
0.0
 13
52.37500000000006
 23
121.9009138361772
 33
0.0
  0
MTEXT
  5
299
330
291
100
AcDbEntity
  8
치수문자_일반주서
 62
     0
100
AcDbMText
 10
39.42159572693209
 20
126.2759138361772
 30
0.0
 40
3.5
 41
0.0
 71
     2
 72
     1
  1
\A1;26 [1.02]
  7
SLDTEXTSTYLE0
 73
     1
 44
1.0
  0
POINT
  5
29A
330
291
100
AcDbEntity
  8
Defpoints
 62
     0
100
AcDbPoint
 10
26.37504186422883
 20
88.55788676313041
 30
0.0
  0
POINT
  5
29B
330
291
100
AcDbEntity
  8
Defpoints
 62
     0
100
AcDbPoint
 10
52.37500000000006
 20
96.22143424691528
 30
0.0
  0
POINT
  5
29C
330
291
100
AcDbEntity
  8
Defpoints
 62
     0
100
AcDbPoint
 10
52.37500000000006
 20
121.9009138361772
 30
0.0
  0
ENDBLK
  5
293
330
291
100
AcDbEntity
  8
0
100
AcDbBlockEnd
  0
BLOCK
  5
29E
330
29D
100
AcDbEntity
  8
0
100
AcDbBlockBegin
  2
*D14
 70
     1
 10
0.0
 20
0.0
 30
0.0
  3
*D14
  1
*D15
  0
LINE
  5
2A0
330
29D
100
AcDbEntity
  8
치수문자_일반주서
 62
     0
370
    -2
100
AcDbLine
 10
-30.18749999999994
 20
96.22143424691528
 30
0.0
 11
-45.62500000000001
 21
96.22143424691522
 31
0.0
  0
LINE
  5
2A1
330
29D
100
AcDbEntity
  8
치수문자_일반주서
 62
     0
370
    -2
100
AcDbLine
 10
-30.18749999999994
 20
82.22143424691528
 30
0.0
 11
-45.62499999999996
 21
82.22143424691522
 31
0.0
  0
LINE
  5
2A2
330
29D
100
AcDbEntity
  8
치수문자_일반주서
 62
     0
370
    -2
100
AcDbLine
 10
-45.62500000000001
 20
96.22143424691522
 30
0.0
 11
-45.62499999999996
 21
82.22143424691522
 31
0.0
  0
LINE
  5
2A3
330
29D
100
AcDbEntity
  8
치수문자_일반주서
 62
     0
370
    -2
100
AcDbLine
 10
-45.62500000000002
 20
99.52343424691523
 30
0.0
 11
-45.62500000000004
 21
102.8254342469152
 31
0.0
  0
LINE
  5
2A4
330
29D
100
AcDbEntity
  8
치수문자_일반주서
 62
     0
370
    -2
100
AcDbLine
 10
-45.62499999999994
 20
78.91943424691522
 30
0.0
 11
-45.62499999999993
 21
75.61743424691521
 31
0.0
  0
SOLID
  5
2A5
330
29D
100
AcDbEntity
  8
치수문자_일반주서
 62
     0
100
AcDbTrace
 10
-46.17533333333336
 20
99.52343424691523
 30
0.0
 11
-45.07466666666669
 21
99.52343424691523
 31
0.0
 12
-45.62500000000001
 22
96.22143424691522
 32
0.0
 13
-45.62500000000001
 23
96.22143424691522
 33
0.0
  0
SOLID
  5
2A6
330
29D
100
AcDbEntity
  8
치수문자_일반주서
 62
     0
100
AcDbTrace
 10
-45.07466666666661
 20
78.91943424691522
 30
0.0
 11
-46.17533333333328
 21
78.91943424691522
 31
0.0
 12
-45.62499999999996
 22
82.22143424691522
 32
0.0
 13
-45.62499999999996
 23
82.22143424691522
 33
0.0
  0
MTEXT
  5
2A7
330
29D
100
AcDbEntity
  8
치수문자_일반주서
 62
     0
100
AcDbMText
 10
-49.99999999999999
 20
89.22143424691527
 30
0.0
 40
3.5
 41
0.0
 71
     2
 72
     1
  1
\A1;%%c14
  7
SLDTEXTSTYLE0
 11
-3.552713678800501E-15
 21
1.0
 31
0.0
 73
     1
 44
1.0
  0
POINT
  5
2A8
330
29D
100
AcDbEntity
  8
Defpoints
 62
     0
100
AcDbPoint
 10
-30.12499999999994
 20
96.22143424691528
 30
0.0
  0
POINT
  5
2A9
330
29D
100
AcDbEntity
  8
Defpoints
 62
     0
100
AcDbPoint
 10
-30.12499999999994
 20
82.22143424691528
 30
0.0
  0
POINT
  5
2AA
330
29D
100
AcDbEntity
  8
Defpoints
 62
     0
100
AcDbPoint
 10
-45.62499999999996
 20
82.22143424691522
 30
0.0
  0
ENDBLK
  5
29F
330
29D
100
AcDbEntity
  8
0
100
AcDbBlockEnd
  0
BLOCK
  5
2AC
330
2AB
100
AcDbEntity
  8
0
100
AcDbBlockBegin
  2
*D15
 70
     1
 10
0.0
 20
0.0
 30
0.0
  3
*D15
  1
*D16
  0
LINE
  5
2AE
330
2AB
100
AcDbEntity
  8
치수문자_일반주서
 62
     0
370
    -2
100
AcDbLine
 10
52.43750000000008
 20
96.22143424691528
 30
0.0
 11
67.37500000000007
 21
96.22143424691534
 31
0.0
  0
LINE
  5
2AF
330
2AB
100
AcDbEntity
  8
치수문자_일반주서
 62
     0
370
    -2
100
AcDbLine
 10
52.43750000000006
 20
82.22143424691528
 30
0.0
 11
67.37500000000011
 21
82.22143424691534
 31
0.0
  0
LINE
  5
2B0
330
2AB
100
AcDbEntity
  8
치수문자_일반주서
 62
     0
370
    -2
100
AcDbLine
 10
67.37500000000007
 20
96.22143424691534
 30
0.0
 11
67.37500000000011
 21
82.22143424691534
 31
0.0
  0
LINE
  5
2B1
330
2AB
100
AcDbEntity
  8
치수문자_일반주서
 62
     0
370
    -2
100
AcDbLine
 10
67.37500000000006
 20
99.52343424691534
 30
0.0
 11
67.37500000000004
 21
102.8254342469153
 31
0.0
  0
LINE
  5
2B2
330
2AB
100
AcDbEntity
  8
치수문자_일반주서
 62
     0
370
    -2
100
AcDbLine
 10
67.37500000000013
 20
78.91943424691533
 30
0.0
 11
67.37500000000014
 21
75.61743424691532
 31
0.0
  0
SOLID
  5
2B3
330
2AB
100
AcDbEntity
  8
치수문자_일반주서
 62
     0
100
AcDbTrace
 10
66.82466666666673
 20
99.52343424691534
 30
0.0
 11
67.92533333333338
 21
99.52343424691534
 31
0.0
 12
67.37500000000007
 22
96.22143424691534
 32
0.0
 13
67.37500000000007
 23
96.22143424691534
 33
0.0
  0
SOLID
  5
2B4
330
2AB
100
AcDbEntity
  8
치수문자_일반주서
 62
     0
100
AcDbTrace
 10
67.92533333333346
 20
78.91943424691533
 30
0.0
 11
66.8246666666668
 21
78.91943424691533
 31
0.0
 12
67.37500000000011
 22
82.22143424691534
 32
0.0
 13
67.37500000000011
 23
82.22143424691534
 33
0.0
  0
MTEXT
  5
2B5
330
2AB
100
AcDbEntity
  8
치수문자_일반주서
 62
     0
100
AcDbMText
 10
63.00000000000009
 20
89.28713862862831
 30
0.0
 40
3.5
 41
0.0
 71
     2
 72
     1
  1
\A1;%%c14
  7
SLDTEXTSTYLE0
 11
-3.045183153257572E-15
 21
1.0
 31
0.0
 73
     1
 44
1.0
  0
POINT
  5
2B6
330
2AB
100
AcDbEntity
  8
Defpoints
 62
     0
100
AcDbPoint
 10
52.37500000000008
 20
96.22143424691528
 30
0.0
  0
POINT
  5
2B7
330
2AB
100
AcDbEntity
  8
Defpoints
 62
     0
100
AcDbPoint
 10
52.37500000000006
 20
82.22143424691528
 30
0.0
  0
POINT
  5
2B8
330
2AB
100
AcDbEntity
  8
Defpoints
 62
     0
100
AcDbPoint
 10
67.37500000000011
 20
82.22143424691534
 30
0.0
  0
ENDBLK
  5
2AD
330
2AB
100
AcDbEntity
  8
0
100
AcDbBlockEnd
  0
BLOCK
  5
2BA
330
2B9
100
AcDbEntity
  8
0
100
AcDbBlockBegin
  2
*D16
 70
     1
 10
0.0
 20
0.0
 30
0.0
  3
*D16
  1
*D17
  0
LINE
  5
2BC
330
2B9
100
AcDbEntity
  8
치수문자_일반주서
 62
     0
370
    -2
100
AcDbLine
 10
53.86577518166951
 20
79.4822957540365
 30
0.0
 11
69.6194267469468
 21
53.84993924369595
 31
0.0
  0
MTEXT
  5
2BD
330
2B9
100
AcDbEntity
  8
치수문자_일반주서
 62
     0
100
AcDbMText
 10
65.67063840142768
 20
65.28815815453571
 30
0.0
 40
3.5
 41
0.0
 71
     5
 72
     1
  1
\A1;R.5 [R0.02]
  7
SLDTEXTSTYLE0
 11
0.5236126201129557
 21
-0.8519564684057781
 31
0.0
 73
     1
 44
1.0
  0
SOLID
  5
2BE
330
2B9
100
AcDbEntity
  8
치수문자_일반주서
 62
     0
100
AcDbTrace
 10
54.33463522478216
 20
79.77045723263866
 30
0.0
 11
53.39691513855686
 21
79.19413427543434
 31
0.0
 12
52.13680631005654
 22
82.29545601271238
 32
0.0
 13
52.13680631005654
 23
82.29545601271238
 33
0.0
  0
LINE
  5
2BF
330
2B9
100
AcDbEntity
  8
치수문자_일반주서
 62
     0
100
AcDbLine
 10
51.78500000000005
 20
82.72143424691528
 30
0.0
 11
51.96500000000005
 21
82.72143424691528
 31
0.0
  0
LINE
  5
2C0
330
2B9
100
AcDbEntity
  8
치수문자_일반주서
 62
     0
100
AcDbLine
 10
51.87500000000005
 20
82.63143424691528
 30
0.0
 11
51.87500000000005
 21
82.81143424691528
 31
0.0
  0
POINT
  5
2C1
330
2B9
100
AcDbEntity
  8
Defpoints
 62
     0
100
AcDbPoint
 10
52.13680631005654
 20
82.29545601271238
 30
0.0
  0
POINT
  5
2C2
330
2B9
100
AcDbEntity
  8
Defpoints
 62
     0
100
AcDbPoint
 10
51.87500000000005
 20
82.72143424691528
 30
0.0
  0
ENDBLK
  5
2BB
330
2B9
100
AcDbEntity
  8
0
100
AcDbBlockEnd
  0
BLOCK
  5
390
330
38F
100
AcDbEntity
  8
0
100
AcDbBlockBegin
  2
*D18
 70
     1
 10
0.0
 20
0.0
 30
0.0
  3
*D18
  1
*D18
  0
LINE
  5
392
330
38F
100
AcDbEntity
  8
치수문자_일반주서
 62
     0
370
    -2
100
AcDbLine
 10
49.69625612520197
 20
9.77900000000002
 30
0.0
 11
62.93496962645102
 21
9.779000000000067
 31
0.0
  0
LINE
  5
393
330
38F
100
AcDbEntity
  8
치수문자_일반주서
 62
     0
370
    -2
100
AcDbLine
 10
49.69625612520197
 20
6.604000000000021
 30
0.0
 11
62.93496962645104
 21
6.60400000000007
 31
0.0
  0
LINE
  5
394
330
38F
100
AcDbEntity
  8
치수문자_일반주서
 62
     0
370
    -2
100
AcDbLine
 10
62.93496962645102
 20
9.779000000000067
 30
0.0
 11
62.93496962645088
 21
41.10175000000007
 31
0.0
  0
LINE
  5
395
330
38F
100
AcDbEntity
  8
치수문자_일반주서
 62
     0
370
    -2
100
AcDbLine
 10
62.93496962645102
 20
9.779000000000067
 30
0.0
 11
62.93496962645104
 21
6.60400000000007
 31
0.0
  0
LINE
  5
396
330
38F
100
AcDbEntity
  8
치수문자_일반주서
 62
     0
370
    -2
100
AcDbLine
 10
62.93496962645101
 20
13.08100000000007
 30
0.0
 11
62.93496962645099
 21
16.38300000000007
 31
0.0
  0
LINE
  5
397
330
38F
100
AcDbEntity
  8
치수문자_일반주서
 62
     0
370
    -2
100
AcDbLine
 10
62.93496962645105
 20
3.30200000000007
 30
0.0
 11
62.93496962645106
 21
0.0000000000000702
 31
0.0
  0
SOLID
  5
398
330
38F
100
AcDbEntity
  8
치수문자_일반주서
 62
     0
100
AcDbTrace
 10
62.38463629311767
 20
13.08100000000007
 30
0.0
 11
63.48530295978434
 21
13.08100000000007
 31
0.0
 12
62.93496962645102
 22
9.779000000000067
 32
0.0
 13
62.93496962645102
 23
9.779000000000067
 33
0.0
  0
SOLID
  5
399
330
38F
100
AcDbEntity
  8
치수문자_일반주서
 62
     0
100
AcDbTrace
 10
63.48530295978438
 20
3.302000000000073
 30
0.0
 11
62.38463629311772
 21
3.302000000000068
 31
0.0
 12
62.93496962645104
 22
6.60400000000007
 32
0.0
 13
62.93496962645104
 23
6.60400000000007
 33
0.0
  0
MTEXT
  5
39A
330
38F
100
AcDbEntity
  8
치수문자_일반주서
 62
     0
100
AcDbMText
 10
58.55996962645094
 20
28.85175000000005
 30
0.0
 40
3.5
 41
0.0
 71
     2
 72
     1
  1
\A1;%%c3.18 [1/8]
  7
SLDTEXTSTYLE0
 11
-4.475859752819532E-15
 21
1.0
 31
0.0
 73
     1
 44
1.0
  0
POINT
  5
39B
330
38F
100
AcDbEntity
  8
Defpoints
 62
     0
100
AcDbPoint
 10
49.63375612520197
 20
9.77900000000002
 30
0.0
  0
POINT
  5
39C
330
38F
100
AcDbEntity
  8
Defpoints
 62
     0
100
AcDbPoint
 10
49.63375612520197
 20
6.604000000000021
 30
0.0
  0
POINT
  5
39D
330
38F
100
AcDbEntity
  8
Defpoints
 62
     0
100
AcDbPoint
 10
62.93496962645101
 20
6.604000000000071
 30
0.0
  0
ENDBLK
  5
391
330
38F
100
AcDbEntity
  8
0
100
AcDbBlockEnd
  0
BLOCK
  5
39F
330
39E
100
AcDbEntity
  8
0
100
AcDbBlockBegin
  2
*D19
 70
     1
 10
0.0
 20
0.0
 30
0.0
  3
*D19
  1
*D19
  0
LINE
  5
3A1
330
39E
100
AcDbEntity
  8
치수문자_일반주서
 62
     0
370
    -2
100
AcDbLine
 10
49.63375612520197
 20
9.829915299560655
 30
0.0
 11
49.63375612520197
 21
29.85983668153004
 31
0.0
  0
LINE
  5
3A2
330
39E
100
AcDbEntity
  8
치수문자_일반주서
 62
     0
370
    -2
100
AcDbLine
 10
43.28375612520196
 20
9.758607955012836
 30
0.0
 11
43.28375612520196
 21
29.85983668153004
 31
0.0
  0
LINE
  5
3A3
330
39E
100
AcDbEntity
  8
치수문자_일반주서
 62
     0
370
    -2
100
AcDbLine
 10
43.28375612520196
 20
29.85983668153004
 30
0.0
 11
13.27350612520196
 21
29.85983668153004
 31
0.0
  0
LINE
  5
3A4
330
39E
100
AcDbEntity
  8
치수문자_일반주서
 62
     0
370
    -2
100
AcDbLine
 10
49.63375612520197
 20
29.85983668153004
 30
0.0
 11
43.28375612520196
 21
29.85983668153004
 31
0.0
  0
LINE
  5
3A5
330
39E
100
AcDbEntity
  8
치수문자_일반주서
 62
     0
370
    -2
100
AcDbLine
 10
52.93575612520197
 20
29.85983668153004
 30
0.0
 11
56.23775612520197
 21
29.85983668153004
 31
0.0
  0
LINE
  5
3A6
330
39E
100
AcDbEntity
  8
치수문자_일반주서
 62
     0
370
    -2
100
AcDbLine
 10
39.98175612520196
 20
29.85983668153004
 30
0.0
 11
36.67975612520196
 21
29.85983668153004
 31
0.0
  0
SOLID
  5
3A7
330
39E
100
AcDbEntity
  8
치수문자_일반주서
 62
     0
100
AcDbTrace
 10
52.93575612520197
 20
30.41017001486337
 30
0.0
 11
52.93575612520197
 21
29.3095033481967
 31
0.0
 12
49.63375612520197
 22
29.85983668153004
 32
0.0
 13
49.63375612520197
 23
29.85983668153004
 33
0.0
  0
SOLID
  5
3A8
330
39E
100
AcDbEntity
  8
치수문자_일반주서
 62
     0
100
AcDbTrace
 10
39.98175612520196
 20
29.3095033481967
 30
0.0
 11
39.98175612520196
 21
30.41017001486337
 31
0.0
 12
43.28375612520196
 22
29.85983668153004
 32
0.0
 13
43.28375612520196
 23
29.85983668153004
 33
0.0
  0
MTEXT
  5
3A9
330
39E
100
AcDbEntity
  8
치수문자_일반주서
 62
     0
100
AcDbMText
 10
24.64850612520196
 20
34.23483668153004
 30
0.0
 40
3.5
 41
0.0
 71
     2
 72
     1
  1
\A1;6.35 [1/4]
  7
SLDTEXTSTYLE0
 73
     1
 44
1.0
  0
POINT
  5
3AA
330
39E
100
AcDbEntity
  8
Defpoints
 62
     0
100
AcDbPoint
 10
49.63375612520197
 20
9.767415299560655
 30
0.0
  0
POINT
  5
3AB
330
39E
100
AcDbEntity
  8
Defpoints
 62
     0
100
AcDbPoint
 10
43.28375612520196
 20
9.696107955012836
 30
0.0
  0
POINT
  5
3AC
330
39E
100
AcDbEntity
  8
Defpoints
 62
     0
100
AcDbPoint
 10
43.28375612520196
 20
29.85983668153004
 30
0.0
  0
ENDBLK
  5
3A0
330
39E
100
AcDbEntity
  8
0
100
AcDbBlockEnd
  0
BLOCK
  5
3AE
330
3AD
100
AcDbEntity
  8
0
100
AcDbBlockBegin
  2
*D20
 70
     1
 10
0.0
 20
0.0
 30
0.0
  3
*D20
  1
*D20
  0
LINE
  5
3B0
330
3AD
100
AcDbEntity
  8
치수문자_일반주서
 62
     0
370
    -2
100
AcDbLine
 10
49.63375612520197
 20
9.829915299560655
 30
0.0
 11
49.63375612520197
 21
41.35265029984814
 31
0.0
  0
LINE
  5
3B1
330
3AD
100
AcDbEntity
  8
치수문자_일반주서
 62
     0
370
    -2
100
AcDbLine
 10
11.53375612520197
 20
9.52400000000002
 30
0.0
 11
11.53375612520197
 21
41.35265029984814
 31
0.0
  0
LINE
  5
3B2
330
3AD
100
AcDbEntity
  8
치수문자_일반주서
 62
     0
370
    -2
100
AcDbLine
 10
46.33175612520197
 20
41.35265029984814
 30
0.0
 11
14.83575612520197
 21
41.35265029984814
 31
0.0
  0
SOLID
  5
3B3
330
3AD
100
AcDbEntity
  8
치수문자_일반주서
 62
     0
100
AcDbTrace
 10
46.33175612520197
 20
40.80231696651481
 30
0.0
 11
46.33175612520197
 21
41.90298363318148
 31
0.0
 12
49.63375612520197
 22
41.35265029984814
 32
0.0
 13
49.63375612520197
 23
41.35265029984814
 33
0.0
  0
SOLID
  5
3B4
330
3AD
100
AcDbEntity
  8
치수문자_일반주서
 62
     0
100
AcDbTrace
 10
14.83575612520197
 20
41.90298363318148
 30
0.0
 11
14.83575612520197
 21
40.80231696651481
 31
0.0
 12
11.53375612520197
 22
41.35265029984814
 32
0.0
 13
11.53375612520197
 23
41.35265029984814
 33
0.0
  0
MTEXT
  5
3B5
330
3AD
100
AcDbEntity
  8
치수문자_일반주서
 62
     0
100
AcDbMText
 10
27.97285382029633
 20
45.72765029984814
 30
0.0
 40
3.5
 41
0.0
 71
     2
 72
     1
  1
\A1;38.1 [1 1/2]
  7
SLDTEXTSTYLE0
 73
     1
 44
1.0
  0
POINT
  5
3B6
330
3AD
100
AcDbEntity
  8
Defpoints
 62
     0
100
AcDbPoint
 10
49.63375612520197
 20
9.767415299560655
 30
0.0
  0
POINT
  5
3B7
330
3AD
100
AcDbEntity
  8
Defpoints
 62
     0
100
AcDbPoint
 10
11.53375612520197
 20
9.46150000000002
 30
0.0
  0
POINT
  5
3B8
330
3AD
100
AcDbEntity
  8
Defpoints
 62
     0
100
AcDbPoint
 10
11.53375612520197
 20
41.35265029984814
 30
0.0
  0
ENDBLK
  5
3AF
330
3AD
100
AcDbEntity
  8
0
100
AcDbBlockEnd
  0
BLOCK
  5
3BA
330
3B9
100
AcDbEntity
  8
0
100
AcDbBlockBegin
  2
*D21
 70
     1
 10
0.0
 20
0.0
 30
0.0
  3
*D21
  1
*D21
  0
LINE
  5
3BC
330
3B9
100
AcDbEntity
  8
치수문자_일반주서
 62
     0
370
    -2
100
AcDbLine
 10
11.78875612520197
 20
9.779000000000012
 30
0.0
 11
4.375000000000103
 21
9.778999999999986
 31
0.0
  0
LINE
  5
3BD
330
3B9
100
AcDbEntity
  8
치수문자_일반주서
 62
     0
370
    -2
100
AcDbLine
 10
11.78875612520197
 20
6.604000000000028
 30
0.0
 11
4.375000000000114
 21
6.603999999999999
 31
0.0
  0
LINE
  5
3BE
330
3B9
100
AcDbEntity
  8
치수문자_일반주서
 62
     0
370
    -2
100
AcDbLine
 10
4.375000000000103
 20
9.778999999999986
 30
0.0
 11
4.374999999999998
 21
41.10174999999998
 31
0.0
  0
LINE
  5
3BF
330
3B9
100
AcDbEntity
  8
치수문자_일반주서
 62
     0
370
    -2
100
AcDbLine
 10
4.375000000000103
 20
9.778999999999986
 30
0.0
 11
4.375000000000114
 21
6.603999999999999
 31
0.0
  0
LINE
  5
3C0
330
3B9
100
AcDbEntity
  8
치수문자_일반주서
 62
     0
370
    -2
100
AcDbLine
 10
4.375000000000092
 20
13.08099999999999
 30
0.0
 11
4.375000000000082
 21
16.38299999999998
 31
0.0
  0
LINE
  5
3C1
330
3B9
100
AcDbEntity
  8
치수문자_일반주서
 62
     0
370
    -2
100
AcDbLine
 10
4.375000000000124
 20
3.301999999999999
 30
0.0
 11
4.375000000000135
 21
-0.0000000000000009
 31
0.0
  0
SOLID
  5
3C2
330
3B9
100
AcDbEntity
  8
치수문자_일반주서
 62
     0
100
AcDbTrace
 10
3.824666666666759
 20
13.08099999999998
 30
0.0
 11
4.925333333333426
 21
13.08099999999999
 31
0.0
 12
4.375000000000103
 22
9.778999999999986
 32
0.0
 13
4.375000000000103
 23
9.778999999999986
 33
0.0
  0
SOLID
  5
3C3
330
3B9
100
AcDbEntity
  8
치수문자_일반주서
 62
     0
100
AcDbTrace
 10
4.925333333333458
 20
3.302000000000001
 30
0.0
 11
3.824666666666791
 21
3.301999999999997
 31
0.0
 12
4.375000000000114
 22
6.603999999999999
 32
0.0
 13
4.375000000000114
 23
6.603999999999999
 33
0.0
  0
MTEXT
  5
3C4
330
3B9
100
AcDbEntity
  8
치수문자_일반주서
 62
     0
100
AcDbMText
 10
0.0000000000000391
 20
28.85174999999997
 30
0.0
 40
3.5
 41
0.0
 71
     2
 72
     1
  1
\A1;%%c3.18 [1/8]
  7
SLDTEXTSTYLE0
 11
-3.356894814614663E-15
 21
1.0
 31
0.0
 73
     1
 44
1.0
  0
POINT
  5
3C5
330
3B9
100
AcDbEntity
  8
Defpoints
 62
     0
100
AcDbPoint
 10
11.85125612520197
 20
9.779000000000012
 30
0.0
  0
POINT
  5
3C6
330
3B9
100
AcDbEntity
  8
Defpoints
 62
     0
100
AcDbPoint
 10
11.85125612520197
 20
6.604000000000028
 30
0.0
  0
POINT
  5
3C7
330
3B9
100
AcDbEntity
  8
Defpoints
 62
     0
100
AcDbPoint
 10
4.375000000000121
 20
6.604
 30
0.0
  0
ENDBLK
  5
3BB
330
3B9
100
AcDbEntity
  8
0
100
AcDbBlockEnd
  0
BLOCK
  5
3FE
330
3FD
100
AcDbEntity
  8
0
100
AcDbBlockBegin
  2
*D22
 70
     1
 10
0.0
 20
0.0
 30
0.0
  3
*D22
  1
*D22
  0
LINE
  5
400
330
3FD
100
AcDbEntity
  8
치수문자_일반주서
 62
     0
370
    -2
100
AcDbLine
 10
10.25078997216078
 20
1.969894124450782
 30
0.0
 11
23.48950347340981
 21
1.969894124450832
 31
0.0
  0
LINE
  5
401
330
3FD
100
AcDbEntity
  8
치수문자_일반주서
 62
     0
370
    -2
100
AcDbLine
 10
10.25078997216078
 20
-1.984374999999993
 30
0.0
 11
23.48950347340983
 21
-1.984374999999943
 31
0.0
  0
LINE
  5
402
330
3FD
100
AcDbEntity
  8
치수문자_일반주서
 62
     0
370
    -2
100
AcDbLine
 10
23.48950347340981
 20
1.969894124450832
 30
0.0
 11
23.48950347340968
 21
37.44889412445084
 31
0.0
  0
LINE
  5
403
330
3FD
100
AcDbEntity
  8
치수문자_일반주서
 62
     0
370
    -2
100
AcDbLine
 10
23.48950347340981
 20
1.969894124450832
 30
0.0
 11
23.48950347340983
 21
-1.984374999999943
 31
0.0
  0
LINE
  5
404
330
3FD
100
AcDbEntity
  8
치수문자_일반주서
 62
     0
370
    -2
100
AcDbLine
 10
23.4895034734098
 20
5.271894124450831
 30
0.0
 11
23.48950347340979
 21
8.573894124450831
 31
0.0
  0
LINE
  5
405
330
3FD
100
AcDbEntity
  8
치수문자_일반주서
 62
     0
370
    -2
100
AcDbLine
 10
23.48950347340984
 20
-5.286374999999943
 30
0.0
 11
23.48950347340985
 21
-8.588374999999942
 31
0.0
  0
SOLID
  5
406
330
3FD
100
AcDbEntity
  8
치수문자_일반주서
 62
     0
100
AcDbTrace
 10
22.93917014007647
 20
5.27189412445083
 30
0.0
 11
24.03983680674314
 21
5.271894124450833
 31
0.0
 12
23.48950347340981
 22
1.969894124450832
 32
0.0
 13
23.48950347340981
 23
1.969894124450832
 33
0.0
  0
SOLID
  5
407
330
3FD
100
AcDbEntity
  8
치수문자_일반주서
 62
     0
100
AcDbTrace
 10
24.03983680674317
 20
-5.286374999999941
 30
0.0
 11
22.9391701400765
 21
-5.286374999999945
 31
0.0
 12
23.48950347340983
 22
-1.984374999999943
 32
0.0
 13
23.48950347340983
 23
-1.984374999999943
 33
0.0
  0
MTEXT
  5
408
330
3FD
100
AcDbEntity
  8
치수문자_일반주서
 62
     0
100
AcDbMText
 10
19.11450347340974
 20
23.01139412445082
 30
0.0
 40
3.5
 41
0.0
 71
     2
 72
     1
  1
\A1;%%c3.95 [5/32]
  7
SLDTEXTSTYLE0
 11
-3.593800590690905E-15
 21
1.0
 31
0.0
 73
     1
 44
1.0
  0
POINT
  5
409
330
3FD
100
AcDbEntity
  8
Defpoints
 62
     0
100
AcDbPoint
 10
10.18828997216078
 20
1.969894124450782
 30
0.0
  0
POINT
  5
40A
330
3FD
100
AcDbEntity
  8
Defpoints
 62
     0
100
AcDbPoint
 10
10.18828997216078
 20
-1.984374999999993
 30
0.0
  0
POINT
  5
40B
330
3FD
100
AcDbEntity
  8
Defpoints
 62
     0
100
AcDbPoint
 10
23.48950347340983
 20
-1.984374999999943
 30
0.0
  0
ENDBLK
  5
3FF
330
3FD
100
AcDbEntity
  8
0
100
AcDbBlockEnd
  0
BLOCK
  5
40D
330
40C
100
AcDbEntity
  8
0
100
AcDbBlockBegin
  2
*D23
 70
     1
 10
0.0
 20
0.0
 30
0.0
  3
*D23
  1
*D23
  0
LINE
  5
40F
330
40C
100
AcDbEntity
  8
치수문자_일반주서
 62
     0
370
    -2
100
AcDbLine
 10
10.18828997216078
 20
1.638415299560627
 30
0.0
 11
10.18828997216078
 21
22.54333668153001
 31
0.0
  0
LINE
  5
410
330
40C
100
AcDbEntity
  8
치수문자_일반주서
 62
     0
370
    -2
100
AcDbLine
 10
2.250789972160778
 20
2.046875000000007
 30
0.0
 11
2.250789972160778
 21
22.54333668153001
 31
0.0
  0
LINE
  5
411
330
40C
100
AcDbEntity
  8
치수문자_일반주서
 62
     0
370
    -2
100
AcDbLine
 10
2.250789972160778
 20
22.54333668153001
 30
0.0
 11
-29.72821002783922
 21
22.54333668153001
 31
0.0
  0
LINE
  5
412
330
40C
100
AcDbEntity
  8
치수문자_일반주서
 62
     0
370
    -2
100
AcDbLine
 10
10.18828997216078
 20
22.54333668153001
 30
0.0
 11
2.250789972160778
 21
22.54333668153001
 31
0.0
  0
LINE
  5
413
330
40C
100
AcDbEntity
  8
치수문자_일반주서
 62
     0
370
    -2
100
AcDbLine
 10
13.49028997216078
 20
22.54333668153001
 30
0.0
 11
16.79228997216078
 21
22.54333668153001
 31
0.0
  0
LINE
  5
414
330
40C
100
AcDbEntity
  8
치수문자_일반주서
 62
     0
370
    -2
100
AcDbLine
 10
-1.051210027839222
 20
22.54333668153001
 30
0.0
 11
-4.353210027839222
 21
22.54333668153001
 31
0.0
  0
SOLID
  5
415
330
40C
100
AcDbEntity
  8
치수문자_일반주서
 62
     0
100
AcDbTrace
 10
13.49028997216078
 20
23.09367001486335
 30
0.0
 11
13.49028997216078
 21
21.99300334819668
 31
0.0
 12
10.18828997216078
 22
22.54333668153001
 32
0.0
 13
10.18828997216078
 23
22.54333668153001
 33
0.0
  0
SOLID
  5
416
330
40C
100
AcDbEntity
  8
치수문자_일반주서
 62
     0
100
AcDbTrace
 10
-1.051210027839222
 20
21.99300334819668
 30
0.0
 11
-1.051210027839222
 21
23.09367001486335
 31
0.0
 12
2.250789972160778
 22
22.54333668153001
 32
0.0
 13
2.250789972160778
 23
22.54333668153001
 33
0.0
  0
MTEXT
  5
417
330
40C
100
AcDbEntity
  8
치수문자_일반주서
 62
     0
100
AcDbMText
 10
-17.04071002783922
 20
26.91833668153001
 30
0.0
 40
3.5
 41
0.0
 71
     2
 72
     1
  1
\A1;7.94 [5/16]
  7
SLDTEXTSTYLE0
 73
     1
 44
1.0
  0
POINT
  5
418
330
40C
100
AcDbEntity
  8
Defpoints
 62
     0
100
AcDbPoint
 10
10.18828997216078
 20
1.575915299560627
 30
0.0
  0
POINT
  5
419
330
40C
100
AcDbEntity
  8
Defpoints
 62
     0
100
AcDbPoint
 10
2.250789972160778
 20
1.984375000000007
 30
0.0
  0
POINT
  5
41A
330
40C
100
AcDbEntity
  8
Defpoints
 62
     0
100
AcDbPoint
 10
2.250789972160778
 20
22.54333668153001
 30
0.0
  0
ENDBLK
  5
40E
330
40C
100
AcDbEntity
  8
0
100
AcDbBlockEnd
  0
BLOCK
  5
41C
330
41B
100
AcDbEntity
  8
0
100
AcDbBlockBegin
  2
*D24
 70
     1
 10
0.0
 20
0.0
 30
0.0
  3
*D24
  1
*D24
  0
LINE
  5
41E
330
41B
100
AcDbEntity
  8
치수문자_일반주서
 62
     0
370
    -2
100
AcDbLine
 10
10.18828997216078
 20
1.638415299560627
 30
0.0
 11
10.18828997216077
 21
33.16115029984812
 31
0.0
  0
LINE
  5
41F
330
41B
100
AcDbEntity
  8
치수문자_일반주서
 62
     0
370
    -2
100
AcDbLine
 10
-40.61171002783922
 20
2.126249999999992
 30
0.0
 11
-40.61171002783922
 21
33.16115029984812
 31
0.0
  0
LINE
  5
420
330
41B
100
AcDbEntity
  8
치수문자_일반주서
 62
     0
370
    -2
100
AcDbLine
 10
6.886289972160775
 20
33.16115029984812
 30
0.0
 11
-37.30971002783922
 21
33.16115029984812
 31
0.0
  0
SOLID
  5
421
330
41B
100
AcDbEntity
  8
치수문자_일반주서
 62
     0
100
AcDbTrace
 10
6.886289972160775
 20
32.61081696651478
 30
0.0
 11
6.886289972160775
 21
33.71148363318145
 31
0.0
 12
10.18828997216077
 22
33.16115029984812
 32
0.0
 13
10.18828997216077
 23
33.16115029984812
 33
0.0
  0
SOLID
  5
422
330
41B
100
AcDbEntity
  8
치수문자_일반주서
 62
     0
100
AcDbTrace
 10
-37.30971002783922
 20
33.71148363318145
 30
0.0
 11
-37.30971002783922
 21
32.61081696651478
 31
0.0
 12
-40.61171002783922
 22
33.16115029984812
 32
0.0
 13
-40.61171002783922
 23
33.16115029984812
 33
0.0
  0
MTEXT
  5
423
330
41B
100
AcDbEntity
  8
치수문자_일반주서
 62
     0
100
AcDbMText
 10
-15.21171002783921
 20
37.53615029984812
 30
0.0
 40
3.5
 41
0.0
 71
     2
 72
     1
  1
\A1;50.8 [2]
  7
SLDTEXTSTYLE0
 73
     1
 44
1.0
  0
POINT
  5
424
330
41B
100
AcDbEntity
  8
Defpoints
 62
     0
100
AcDbPoint
 10
10.18828997216078
 20
1.575915299560627
 30
0.0
  0
POINT
  5
425
330
41B
100
AcDbEntity
  8
Defpoints
 62
     0
100
AcDbPoint
 10
-40.61171002783922
 20
2.063749999999992
 30
0.0
  0
POINT
  5
426
330
41B
100
AcDbEntity
  8
Defpoints
 62
     0
100
AcDbPoint
 10
-40.61171002783922
 20
33.16115029984812
 30
0.0
  0
ENDBLK
  5
41D
330
41B
100
AcDbEntity
  8
0
100
AcDbBlockEnd
  0
BLOCK
  5
428
330
427
100
AcDbEntity
  8
0
100
AcDbBlockBegin
  2
*D25
 70
     1
 10
0.0
 20
0.0
 30
0.0
  3
*D25
  1
*D25
  0
LINE
  5
42A
330
427
100
AcDbEntity
  8
치수문자_일반주서
 62
     0
370
    -2
100
AcDbLine
 10
-40.35671002783923
 20
2.381250000000001
 30
0.0
 11
-47.77046615304111
 21
2.381249999999973
 31
0.0
  0
LINE
  5
42B
330
427
100
AcDbEntity
  8
치수문자_일반주서
 62
     0
370
    -2
100
AcDbLine
 10
-40.35671002783923
 20
-2.381250000000002
 30
0.0
 11
-47.77046615304109
 21
-2.38125000000003
 31
0.0
  0
LINE
  5
42C
330
427
100
AcDbEntity
  8
치수문자_일반주서
 62
     0
370
    -2
100
AcDbLine
 10
-47.77046615304111
 20
2.381249999999973
 30
0.0
 11
-47.77046615304121
 21
37.42274999999997
 31
0.0
  0
LINE
  5
42D
330
427
100
AcDbEntity
  8
치수문자_일반주서
 62
     0
370
    -2
100
AcDbLine
 10
-47.77046615304111
 20
2.381249999999973
 30
0.0
 11
-47.77046615304109
 21
-2.38125000000003
 31
0.0
  0
LINE
  5
42E
330
427
100
AcDbEntity
  8
치수문자_일반주서
 62
     0
370
    -2
100
AcDbLine
 10
-47.77046615304111
 20
5.683249999999973
 30
0.0
 11
-47.77046615304112
 21
8.985249999999972
 31
0.0
  0
LINE
  5
42F
330
427
100
AcDbEntity
  8
치수문자_일반주서
 62
     0
370
    -2
100
AcDbLine
 10
-47.77046615304108
 20
-5.683250000000029
 30
0.0
 11
-47.77046615304108
 21
-8.985250000000029
 31
0.0
  0
SOLID
  5
430
330
427
100
AcDbEntity
  8
치수문자_일반주서
 62
     0
100
AcDbTrace
 10
-48.32079948637445
 20
5.683249999999971
 30
0.0
 11
-47.22013281970778
 21
5.683249999999974
 31
0.0
 12
-47.77046615304111
 22
2.381249999999973
 32
0.0
 13
-47.77046615304111
 23
2.381249999999973
 33
0.0
  0
SOLID
  5
431
330
427
100
AcDbEntity
  8
치수문자_일반주서
 62
     0
100
AcDbTrace
 10
-47.22013281970775
 20
-5.683250000000028
 30
0.0
 11
-48.32079948637442
 21
-5.683250000000031
 31
0.0
 12
-47.77046615304109
 22
-2.38125000000003
 32
0.0
 13
-47.77046615304109
 23
-2.38125000000003
 33
0.0
  0
MTEXT
  5
432
330
427
100
AcDbEntity
  8
치수문자_일반주서
 62
     0
100
AcDbMText
 10
-52.14546615304117
 20
23.42274999999996
 30
0.0
 40
3.5
 41
0.0
 71
     2
 72
     1
  1
\A1;%%c4.76 [3/16]
  7
SLDTEXTSTYLE0
 11
-2.983906501879683E-15
 21
1.0
 31
0.0
 73
     1
 44
1.0
  0
POINT
  5
433
330
427
100
AcDbEntity
  8
Defpoints
 62
     0
100
AcDbPoint
 10
-40.29421002783923
 20
2.381250000000001
 30
0.0
  0
POINT
  5
434
330
427
100
AcDbEntity
  8
Defpoints
 62
     0
100
AcDbPoint
 10
-40.29421002783923
 20
-2.381250000000001
 30
0.0
  0
POINT
  5
435
330
427
100
AcDbEntity
  8
Defpoints
 62
     0
100
AcDbPoint
 10
-47.77046615304108
 20
-2.381250000000029
 30
0.0
  0
ENDBLK
  5
429
330
427
100
AcDbEntity
  8
0
100
AcDbBlockEnd
  0
BLOCK
  5
4D7
330
4D6
100
AcDbEntity
  8
0
100
AcDbBlockBegin
  2
*D27
 70
     1
 10
0.0
 20
0.0
 30
0.0
  3
*D27
  1
*D27
  0
LINE
  5
4D9
330
4D6
100
AcDbEntity
  8
치수문자_일반주서
 62
     0
370
    -2
100
AcDbLine
 10
49.69625612520197
 20
9.77900000000002
 30
0.0
 11
62.93496962645102
 21
9.779000000000067
 31
0.0
  0
LINE
  5
4DA
330
4D6
100
AcDbEntity
  8
치수문자_일반주서
 62
     0
370
    -2
100
AcDbLine
 10
49.69625612520197
 20
6.604000000000021
 30
0.0
 11
62.93496962645104
 21
6.60400000000007
 31
0.0
  0
LINE
  5
4DB
330
4D6
100
AcDbEntity
  8
치수문자_일반주서
 62
     0
370
    -2
100
AcDbLine
 10
62.93496962645102
 20
9.779000000000067
 30
0.0
 11
62.93496962645088
 21
41.10175000000007
 31
0.0
  0
LINE
  5
4DC
330
4D6
100
AcDbEntity
  8
치수문자_일반주서
 62
     0
370
    -2
100
AcDbLine
 10
62.93496962645102
 20
9.779000000000067
 30
0.0
 11
62.93496962645104
 21
6.60400000000007
 31
0.0
  0
LINE
  5
4DD
330
4D6
100
AcDbEntity
  8
치수문자_일반주서
 62
     0
370
    -2
100
AcDbLine
 10
62.93496962645101
 20
13.08100000000007
 30
0.0
 11
62.93496962645099
 21
16.38300000000007
 31
0.0
  0
LINE
  5
4DE
330
4D6
100
AcDbEntity
  8
치수문자_일반주서
 62
     0
370
    -2
100
AcDbLine
 10
62.93496962645105
 20
3.30200000000007
 30
0.0
 11
62.93496962645106
 21
0.0000000000000702
 31
0.0
  0
SOLID
  5
4DF
330
4D6
100
AcDbEntity
  8
치수문자_일반주서
 62
     0
100
AcDbTrace
 10
62.38463629311767
 20
13.08100000000007
 30
0.0
 11
63.48530295978434
 21
13.08100000000007
 31
0.0
 12
62.93496962645102
 22
9.779000000000067
 32
0.0
 13
62.93496962645102
 23
9.779000000000067
 33
0.0
  0
SOLID
  5
4E0
330
4D6
100
AcDbEntity
  8
치수문자_일반주서
 62
     0
100
AcDbTrace
 10
63.48530295978438
 20
3.302000000000073
 30
0.0
 11
62.38463629311772
 21
3.302000000000068
 31
0.0
 12
62.93496962645104
 22
6.60400000000007
 32
0.0
 13
62.93496962645104
 23
6.60400000000007
 33
0.0
  0
MTEXT
  5
4E1
330
4D6
100
AcDbEntity
  8
치수문자_일반주서
 62
     0
100
AcDbMText
 10
58.55996962645094
 20
28.85175000000005
 30
0.0
 40
3.5
 41
0.0
 71
     2
 72
     1
  1
\A1;%%c3.18 [1/8]
  7
SLDTEXTSTYLE0
 11
-4.475859752819532E-15
 21
1.0
 31
0.0
 73
     1
 44
1.0
  0
POINT
  5
4E2
330
4D6
100
AcDbEntity
  8
Defpoints
 62
     0
100
AcDbPoint
 10
49.63375612520197
 20
9.77900000000002
 30
0.0
  0
POINT
  5
4E3
330
4D6
100
AcDbEntity
  8
Defpoints
 62
     0
100
AcDbPoint
 10
49.63375612520197
 20
6.604000000000021
 30
0.0
  0
POINT
  5
4E4
330
4D6
100
AcDbEntity
  8
Defpoints
 62
     0
100
AcDbPoint
 10
62.93496962645101
 20
6.604000000000071
 30
0.0
  0
ENDBLK
  5
4D8
330
4D6
100
AcDbEntity
  8
0
100
AcDbBlockEnd
  0
BLOCK
  5
4E6
330
4E5
100
AcDbEntity
  8
0
100
AcDbBlockBegin
  2
*D28
 70
     1
 10
0.0
 20
0.0
 30
0.0
  3
*D28
  1
*D28
  0
LINE
  5
4E8
330
4E5
100
AcDbEntity
  8
치수문자_일반주서
 62
     0
370
    -2
100
AcDbLine
 10
49.63375612520197
 20
9.829915299560655
 30
0.0
 11
49.63375612520197
 21
29.85983668153004
 31
0.0
  0
LINE
  5
4E9
330
4E5
100
AcDbEntity
  8
치수문자_일반주서
 62
     0
370
    -2
100
AcDbLine
 10
43.28375612520196
 20
9.758607955012836
 30
0.0
 11
43.28375612520196
 21
29.85983668153004
 31
0.0
  0
LINE
  5
4EA
330
4E5
100
AcDbEntity
  8
치수문자_일반주서
 62
     0
370
    -2
100
AcDbLine
 10
43.28375612520196
 20
29.85983668153004
 30
0.0
 11
13.27350612520196
 21
29.85983668153004
 31
0.0
  0
LINE
  5
4EB
330
4E5
100
AcDbEntity
  8
치수문자_일반주서
 62
     0
370
    -2
100
AcDbLine
 10
49.63375612520197
 20
29.85983668153004
 30
0.0
 11
43.28375612520196
 21
29.85983668153004
 31
0.0
  0
LINE
  5
4EC
330
4E5
100
AcDbEntity
  8
치수문자_일반주서
 62
     0
370
    -2
100
AcDbLine
 10
52.93575612520197
 20
29.85983668153004
 30
0.0
 11
56.23775612520197
 21
29.85983668153004
 31
0.0
  0
LINE
  5
4ED
330
4E5
100
AcDbEntity
  8
치수문자_일반주서
 62
     0
370
    -2
100
AcDbLine
 10
39.98175612520196
 20
29.85983668153004
 30
0.0
 11
36.67975612520196
 21
29.85983668153004
 31
0.0
  0
SOLID
  5
4EE
330
4E5
100
AcDbEntity
  8
치수문자_일반주서
 62
     0
100
AcDbTrace
 10
52.93575612520197
 20
30.41017001486337
 30
0.0
 11
52.93575612520197
 21
29.3095033481967
 31
0.0
 12
49.63375612520197
 22
29.85983668153004
 32
0.0
 13
49.63375612520197
 23
29.85983668153004
 33
0.0
  0
SOLID
  5
4EF
330
4E5
100
AcDbEntity
  8
치수문자_일반주서
 62
     0
100
AcDbTrace
 10
39.98175612520196
 20
29.3095033481967
 30
0.0
 11
39.98175612520196
 21
30.41017001486337
 31
0.0
 12
43.28375612520196
 22
29.85983668153004
 32
0.0
 13
43.28375612520196
 23
29.85983668153004
 33
0.0
  0
MTEXT
  5
4F0
330
4E5
100
AcDbEntity
  8
치수문자_일반주서
 62
     0
100
AcDbMText
 10
24.64850612520196
 20
34.23483668153004
 30
0.0
 40
3.5
 41
0.0
 71
     2
 72
     1
  1
\A1;6.35 [1/4]
  7
SLDTEXTSTYLE0
 73
     1
 44
1.0
  0
POINT
  5
4F1
330
4E5
100
AcDbEntity
  8
Defpoints
 62
     0
100
AcDbPoint
 10
49.63375612520197
 20
9.767415299560655
 30
0.0
  0
POINT
  5
4F2
330
4E5
100
AcDbEntity
  8
Defpoints
 62
     0
100
AcDbPoint
 10
43.28375612520196
 20
9.696107955012836
 30
0.0
  0
POINT
  5
4F3
330
4E5
100
AcDbEntity
  8
Defpoints
 62
     0
100
AcDbPoint
 10
43.28375612520196
 20
29.85983668153004
 30
0.0
  0
ENDBLK
  5
4E7
330
4E5
100
AcDbEntity
  8
0
100
AcDbBlockEnd
  0
BLOCK
  5
4F5
330
4F4
100
AcDbEntity
  8
0
100
AcDbBlockBegin
  2
*D29
 70
     1
 10
0.0
 20
0.0
 30
0.0
  3
*D29
  1
*D29
  0
LINE
  5
4F7
330
4F4
100
AcDbEntity
  8
치수문자_일반주서
 62
     0
370
    -2
100
AcDbLine
 10
49.63375612520197
 20
9.829915299560655
 30
0.0
 11
49.63375612520197
 21
41.35265029984814
 31
0.0
  0
LINE
  5
4F8
330
4F4
100
AcDbEntity
  8
치수문자_일반주서
 62
     0
370
    -2
100
AcDbLine
 10
11.53375612520197
 20
9.52400000000002
 30
0.0
 11
11.53375612520197
 21
41.35265029984814
 31
0.0
  0
LINE
  5
4F9
330
4F4
100
AcDbEntity
  8
치수문자_일반주서
 62
     0
370
    -2
100
AcDbLine
 10
46.33175612520197
 20
41.35265029984814
 30
0.0
 11
14.83575612520197
 21
41.35265029984814
 31
0.0
  0
SOLID
  5
4FA
330
4F4
100
AcDbEntity
  8
치수문자_일반주서
 62
     0
100
AcDbTrace
 10
46.33175612520197
 20
40.80231696651481
 30
0.0
 11
46.33175612520197
 21
41.90298363318148
 31
0.0
 12
49.63375612520197
 22
41.35265029984814
 32
0.0
 13
49.63375612520197
 23
41.35265029984814
 33
0.0
  0
SOLID
  5
4FB
330
4F4
100
AcDbEntity
  8
치수문자_일반주서
 62
     0
100
AcDbTrace
 10
14.83575612520197
 20
41.90298363318148
 30
0.0
 11
14.83575612520197
 21
40.80231696651481
 31
0.0
 12
11.53375612520197
 22
41.35265029984814
 32
0.0
 13
11.53375612520197
 23
41.35265029984814
 33
0.0
  0
MTEXT
  5
4FC
330
4F4
100
AcDbEntity
  8
치수문자_일반주서
 62
     0
100
AcDbMText
 10
27.97285382029633
 20
45.72765029984814
 30
0.0
 40
3.5
 41
0.0
 71
     2
 72
     1
  1
\A1;38.1 [1 1/2]
  7
SLDTEXTSTYLE0
 73
     1
 44
1.0
  0
POINT
  5
4FD
330
4F4
100
AcDbEntity
  8
Defpoints
 62
     0
100
AcDbPoint
 10
49.63375612520197
 20
9.767415299560655
 30
0.0
  0
POINT
  5
4FE
330
4F4
100
AcDbEntity
  8
Defpoints
 62
     0
100
AcDbPoint
 10
11.53375612520197
 20
9.46150000000002
 30
0.0
  0
POINT
  5
4FF
330
4F4
100
AcDbEntity
  8
Defpoints
 62
     0
100
AcDbPoint
 10
11.53375612520197
 20
41.35265029984814
 30
0.0
  0
ENDBLK
  5
4F6
330
4F4
100
AcDbEntity
  8
0
100
AcDbBlockEnd
  0
BLOCK
  5
501
330
500
100
AcDbEntity
  8
0
100
AcDbBlockBegin
  2
*D30
 70
     1
 10
0.0
 20
0.0
 30
0.0
  3
*D30
  1
*D30
  0
LINE
  5
503
330
500
100
AcDbEntity
  8
치수문자_일반주서
 62
     0
370
    -2
100
AcDbLine
 10
11.78875612520197
 20
9.779000000000012
 30
0.0
 11
4.375000000000103
 21
9.778999999999986
 31
0.0
  0
LINE
  5
504
330
500
100
AcDbEntity
  8
치수문자_일반주서
 62
     0
370
    -2
100
AcDbLine
 10
11.78875612520197
 20
6.604000000000028
 30
0.0
 11
4.375000000000114
 21
6.603999999999999
 31
0.0
  0
LINE
  5
505
330
500
100
AcDbEntity
  8
치수문자_일반주서
 62
     0
370
    -2
100
AcDbLine
 10
4.375000000000103
 20
9.778999999999986
 30
0.0
 11
4.374999999999998
 21
41.10174999999998
 31
0.0
  0
LINE
  5
506
330
500
100
AcDbEntity
  8
치수문자_일반주서
 62
     0
370
    -2
100
AcDbLine
 10
4.375000000000103
 20
9.778999999999986
 30
0.0
 11
4.375000000000114
 21
6.603999999999999
 31
0.0
  0
LINE
  5
507
330
500
100
AcDbEntity
  8
치수문자_일반주서
 62
     0
370
    -2
100
AcDbLine
 10
4.375000000000092
 20
13.08099999999999
 30
0.0
 11
4.375000000000082
 21
16.38299999999998
 31
0.0
  0
LINE
  5
508
330
500
100
AcDbEntity
  8
치수문자_일반주서
 62
     0
370
    -2
100
AcDbLine
 10
4.375000000000124
 20
3.301999999999999
 30
0.0
 11
4.375000000000135
 21
-0.0000000000000009
 31
0.0
  0
SOLID
  5
509
330
500
100
AcDbEntity
  8
치수문자_일반주서
 62
     0
100
AcDbTrace
 10
3.824666666666759
 20
13.08099999999998
 30
0.0
 11
4.925333333333426
 21
13.08099999999999
 31
0.0
 12
4.375000000000103
 22
9.778999999999986
 32
0.0
 13
4.375000000000103
 23
9.778999999999986
 33
0.0
  0
SOLID
  5
50A
330
500
100
AcDbEntity
  8
치수문자_일반주서
 62
     0
100
AcDbTrace
 10
4.925333333333458
 20
3.302000000000001
 30
0.0
 11
3.824666666666791
 21
3.301999999999997
 31
0.0
 12
4.375000000000114
 22
6.603999999999999
 32
0.0
 13
4.375000000000114
 23
6.603999999999999
 33
0.0
  0
MTEXT
  5
50B
330
500
100
AcDbEntity
  8
치수문자_일반주서
 62
     0
100
AcDbMText
 10
0.0000000000000391
 20
28.85174999999997
 30
0.0
 40
3.5
 41
0.0
 71
     2
 72
     1
  1
\A1;%%c3.18 [1/8]
  7
SLDTEXTSTYLE0
 11
-3.356894814614663E-15
 21
1.0
 31
0.0
 73
     1
 44
1.0
  0
POINT
  5
50C
330
500
100
AcDbEntity
  8
Defpoints
 62
     0
100
AcDbPoint
 10
11.85125612520197
 20
9.779000000000012
 30
0.0
  0
POINT
  5
50D
330
500
100
AcDbEntity
  8
Defpoints
 62
     0
100
AcDbPoint
 10
11.85125612520197
 20
6.604000000000028
 30
0.0
  0
POINT
  5
50E
330
500
100
AcDbEntity
  8
Defpoints
 62
     0
100
AcDbPoint
 10
4.375000000000121
 20
6.604
 30
0.0
  0
ENDBLK
  5
502
330
500
100
AcDbEntity
  8
0
100
AcDbBlockEnd
  0
ENDSEC
  0
SECTION
  2
ENTITIES
  0
LINE
  5
C8
330
1F
100
AcDbEntity
  8
참조1
100
AcDbLine
 10
39.44455366712732
 20
79.45573326671398
 30
0.0
 11
39.44455366712732
 21
39.45573326671397
 31
0.0
  0
LINE
  5
C9
330
1F
100
AcDbEntity
  8
참조1
100
AcDbLine
 10
39.44455366712732
 20
39.45573326671397
 30
0.0
 11
23.49194685281865
 21
39.45573326671398
 31
0.0
  0
INSERT
  5
CB
330
1F
100
AcDbEntity
  8
0
  6
Continuous
 62
     7
100
AcDbBlockReference
 66
     1
  2
블럭10
 10
-26.31840237032561
 20
-39.20061883059523
 30
0.0
  0
ATTRIB
  5
CC
330
CB
100
AcDbEntity
  8
FORMAT
 62
     2
100
AcDbText
 10
-35.49969765906688
 20
-37.12525191776304
 30
0.0
 40
4.233333333333333
  1
E5066010 [ 5 FLUTE ]
 41
0.75
  7
SLDTEXTSTYLE0
 11
-35.49969765906688
 21
-39.24191858442971
 31
0.0
100
AcDbAttribute
  2
AUTOATTR0
 70
     0
 74
     1
  0
SEQEND
  5
CD
330
CB
100
AcDbEntity
  8
0
  6
Continuous
 62
     7
  0
HATCH
  5
CE
330
1F
100
AcDbEntity
  8
중심선
100
AcDbHatch
 10
0.0
 20
0.0
 30
0.0
210
0.0
220
0.0
230
1.0
  2
SOLID
 70
     1
 71
     0
 91
        1
 92
        0
 93
        4
 72
     1
 10
-20.60349306594475
 20
-22.95344452895129
 11
-24.04976830978203
 21
-22.95344452895129
 72
     1
 10
-24.04976830978203
 20
-22.95344452895129
 11
-26.17799816898606
 21
-25.4897701095239
 72
     1
 10
-26.17799816898606
 20
-25.4897701095239
 11
-22.73168984003562
 21
-25.48973068022141
 72
     1
 10
-22.73168984003562
 20
-25.48973068022141
 11
-20.60349306594475
 21
-22.9534445289513
 97
        0
 75
     0
 76
     1
 98
        1
 10
-10.47187943820041
 20
12.84548054232481
  0
HATCH
  5
CF
330
1F
100
AcDbEntity
  8
중심선
100
AcDbHatch
 10
0.0
 20
0.0
 30
0.0
210
0.0
220
0.0
230
1.0
  2
SOLID
 70
     1
 71
     0
 91
        1
 92
        0
 93
        4
 72
     1
 10
-15.5907290749088
 20
-22.95344452895129
 11
-19.03700431874609
 21
-22.95344452895129
 72
     1
 10
-19.03700431874609
 20
-22.95344452895129
 11
-23.56814232710347
 21
-28.35344452895131
 72
     1
 10
-23.56814232710348
 20
-28.35344452895132
 11
-20.1218670832662
 21
-28.35344452895132
 72
     1
 10
-20.12186708326619
 20
-28.35344452895132
 11
-15.5907290749088
 21
-22.9534445289513
 97
        0
 75
     0
 76
     1
 98
        1
 10
-10.47187943820041
 20
12.84548054232481
  0
HATCH
  5
D0
330
1F
100
AcDbEntity
  8
중심선
100
AcDbHatch
 10
0.0
 20
0.0
 30
0.0
210
0.0
220
0.0
230
1.0
  2
SOLID
 70
     1
 71
     0
 91
        1
 92
        0
 93
        4
 72
     1
 10
-10.5779650838729
 20
-22.95344452895132
 11
-14.02424032770999
 21
-22.95344452895128
 72
     1
 10
-14.02424032770999
 20
-22.95344452895128
 11
-21.07267722959926
 21
-31.35344452895132
 72
     1
 10
-21.07267722959926
 20
-31.35344452895132
 11
-17.62640198576198
 21
-31.35344452895132
 72
     1
 10
-17.62640198576199
 20
-31.35344452895132
 11
-10.57796508387291
 21
-22.95344452895132
 97
        0
 75
     0
 76
     1
 98
        1
 10
-10.47187943820041
 20
12.84548054232481
  0
HATCH
  5
D1
330
1F
100
AcDbEntity
  8
중심선
100
AcDbHatch
 10
0.0
 20
0.0
 30
0.0
210
0.0
220
0.0
230
1.0
  2
SOLID
 70
     1
 71
     0
 91
        1
 92
        0
 93
        6
 72
     3
 10
-5.77807465286071
 20
-27.15344452900257
 11
3.960054785062283
 21
1.540882976769353E-10
 40
0.3939339440162628
 50
17.09539180608439
 51
320.0019657685075
 73
     0
 72
     1
 10
-4.09507499716014
 20
-25.7413385335896
 11
-1.789773123459073
 21
-23.80701182354168
 72
     3
 10
-5.778074652913553
 20
-27.15344452895145
 11
6.600054785286829
 21
-1.278976924368180E-13
 40
0.636358354079598
 50
39.99873849337418
 51
368.4976242363724
 73
     1
 72
     1
 10
0.6472578389870591
 20
-26.19344452888132
 11
-7.098007346077626
 21
-26.1934445288813
 72
     1
 10
-7.09800734607763
 20
-26.1934445288813
 11
-7.098032390523564
 21
-28.11344452888121
 72
     1
 10
-7.098032390523564
 20
-28.11344452888121
 11
-2.656652621051528
 21
-28.11344452888118
 97
        0
 75
     0
 76
     1
 98
        1
 10
-10.47187943820041
 20
12.84548054232481
  0
LINE
  5
123
330
1F
100
AcDbEntity
  8
참조1
100
AcDbLine
 10
121.4642874824729
 20
86.89573326671398
 30
0.0
 11
121.4642874824729
 21
72.01573326671398
 31
0.0
  0
LINE
  5
124
330
1F
100
AcDbEntity
  8
참조1
100
AcDbLine
 10
134.1642874824729
 20
84.89573326671398
 30
0.0
 11
121.4642874824729
 21
84.89573326671398
 31
0.0
  0
SOLID
  5
125
330
1F
100
AcDbEntity
  8
참조1
100
AcDbTrace
 10
121.4642874824729
 20
84.89573326671398
 30
0.0
 11
127.8142874824729
 21
83.87973326671398
 31
0.0
 12
127.8142874824729
 22
85.91173326671398
 32
0.0
 13
127.8142874824729
 23
85.91173326671398
 33
0.0
  0
LINE
  5
126
330
1F
100
AcDbEntity
  8
참조1
100
AcDbLine
 10
134.1642874824729
 20
74.01573326671398
 30
0.0
 11
121.4642874824729
 21
74.01573326671398
 31
0.0
  0
SOLID
  5
127
330
1F
100
AcDbEntity
  8
참조1
100
AcDbTrace
 10
121.4642874824729
 20
74.01573326671398
 30
0.0
 11
127.8142874824729
 21
72.99973326671397
 31
0.0
 12
127.8142874824729
 22
75.03173326671397
 32
0.0
 13
127.8142874824729
 23
75.03173326671397
 33
0.0
  0
MTEXT
  5
128
330
1F
100
AcDbEntity
  8
참조1
100
AcDbMText
 10
130.8486376150989
 20
90.4660250439023
 30
0.0
 40
3.5
 41
0.0
 71
     1
 72
     1
  1
A
  7
SLDTEXTSTYLE0
 73
     1
 44
1.0
  0
MTEXT
  5
129
330
1F
100
AcDbEntity
  8
참조1
100
AcDbMText
 10
130.8486376150989
 20
79.5860250439023
 30
0.0
 40
3.5
 41
0.0
 71
     1
 72
     1
  1
A
  7
SLDTEXTSTYLE0
 73
     1
 44
1.0
  0
LINE
  5
3C9
330
1F
100
AcDbEntity
  8
0
  6
Continuous
 62
     1
370
    15
100
AcDbLine
 10
2.685384887227979
 20
1.984375000000007
 30
0.0
 11
2.250789972160764
 21
1.984375000000007
 31
0.0
  0
LINE
  5
3CA
330
1F
100
AcDbEntity
  8
0
  6
Continuous
 62
     1
370
    15
100
AcDbLine
 10
7.613123753385363
 20
-1.984375000000021
 30
0.0
 11
9.16414211316955
 21
-1.984375000000021
 31
0.0
  0
LINE
  5
3CB
330
1F
100
AcDbEntity
  8
0
  6
Continuous
 62
     1
370
    15
100
AcDbLine
 10
7.00474819526691
 20
1.984375000000007
 30
0.0
 11
5.453863521626449
 21
1.984375000000007
 31
0.0
  0
LINE
  5
3CC
330
1F
100
AcDbEntity
  8
0
  6
Continuous
 62
     1
370
    15
100
AcDbLine
 10
3.293968199826136
 20
-1.984375000000021
 30
0.0
 11
4.845110516897559
 21
-1.984375000000021
 31
0.0
  0
LINE
  5
3CD
330
1F
100
AcDbEntity
  8
0
  6
Continuous
 62
     1
370
    15
100
AcDbLine
 10
10.18828997216078
 20
1.984375000000007
 30
0.0
 11
9.772324180716542
 21
1.984375000000007
 31
0.0
  0
LINE
  5
3CE
330
1F
100
AcDbEntity
  8
외형선
  6
Continuous
370
    15
100
AcDbLine
 10
-40.29421002783923
 20
-2.381250000000001
 30
0.0
 11
-0.0000000000000462
 21
-2.381250000000001
 31
0.0
  0
LINE
  5
3CF
330
1F
100
AcDbEntity
  8
외형선
  6
Continuous
370
    15
100
AcDbLine
 10
0.0000000000000462
 20
2.381250000000001
 30
0.0
 11
-40.2942100278392
 21
2.381250000000001
 31
0.0
  0
LINE
  5
3D1
330
1F
100
AcDbEntity
  8
외형선
  6
Continuous
370
    15
100
AcDbLine
 10
-40.29421002783923
 20
2.381250000000001
 30
0.0
 11
-40.61171002783922
 21
2.063749999999992
 31
0.0
  0
LINE
  5
3D2
330
1F
100
AcDbEntity
  8
외형선
  6
Continuous
370
    15
100
AcDbLine
 10
-40.61171002783922
 20
-2.063749999999992
 30
0.0
 11
-40.29421002783923
 21
-2.381250000000001
 31
0.0
  0
LINE
  5
3D3
330
1F
100
AcDbEntity
  8
0
  6
Continuous
 62
     1
370
    15
100
AcDbLine
 10
10.18828997216078
 20
-1.896917179288174
 30
0.0
 11
10.18828997216078
 21
-1.734330891175254
 31
0.0
  0
SPLINE
  5
3D4
330
1F
100
AcDbEntity
  8
0
  6
Continuous
 62
     1
370
    15
100
AcDbSpline
210
0.0
220
0.0
230
1.0
 70
     8
 71
     3
 72
    32
 73
    28
 74
     0
 42
0.000000001
 43
0.00000001
 40
0.0
 40
0.0
 40
0.0
 40
0.0
 40
0.1249999999999997
 40
0.1249999999999997
 40
0.1874999999999996
 40
0.1874999999999996
 40
0.2499999999999994
 40
0.2499999999999994
 40
0.3124999999999992
 40
0.3124999999999992
 40
0.3749999999999991
 40
0.3749999999999991
 40
0.4374999999999989
 40
0.4374999999999989
 40
0.4999999999999988
 40
0.4999999999999988
 40
0.5624999999999987
 40
0.5624999999999987
 40
0.6249999999999984
 40
0.6249999999999984
 40
0.7499999999999982
 40
0.7499999999999982
 40
0.8749999999999979
 40
0.8749999999999979
 40
0.9374999999999989
 40
0.9374999999999989
 40
1.0
 40
1.0
 40
1.0
 40
1.0
 10
10.18828997216076
 20
-1.896917179288174
 30
0.0
 10
9.861595461500553
 20
-1.952756174446129
 30
0.0
 10
9.523662899960978
 20
-1.982536571734379
 30
0.0
 10
9.03090657137692
 20
-1.985168041015505
 30
0.0
 10
8.866829069524083
 20
-1.979194253138338
 30
0.0
 10
8.5343785969247
 20
-1.953449753942415
 30
0.0
 10
8.367466628251467
 20
-1.933672284255145
 30
0.0
 10
8.037463425642539
 20
-1.881022206692641
 30
0.0
 10
7.874571411667649
 20
-1.848228589298976
 30
0.0
 10
7.542768876009116
 20
-1.769638892398241
 30
0.0
 10
7.375719502672265
 20
-1.723925831045612
 30
0.0
 10
7.044532849891564
 20
-1.621111057899704
 30
0.0
 10
6.881939175377877
 20
-1.564235511139579
 30
0.0
 10
6.551105917460706
 20
-1.439406229147771
 30
0.0
 10
6.384083531047597
 20
-1.371546911001012
 30
0.0
 10
6.05203277676166
 20
-1.227018814052791
 30
0.0
 10
5.888849334840831
 20
-1.150663347736504
 30
0.0
 10
5.559303562284047
 20
-0.990055175426285
 30
0.0
 10
5.392472465454059
 20
-0.905690396860372
 30
0.0
 10
4.893583399218347
 20
-0.6442644423641255
 30
0.0
 10
4.567205356335815
 20
-0.459676768000314
 30
0.0
 10
3.901583828265064
 20
-0.0805165391457265
 30
0.0
 10
3.575332027370582
 20
0.1115708407882536
 30
0.0
 10
3.076275719170997
 20
0.3952673057081668
 30
0.0
 10
2.909548162327436
 20
0.4888471628531974
 30
0.0
 10
2.580517430563443
 20
0.6711571068517017
 30
0.0
 10
2.416926662857254
 20
0.7601423546201502
 30
0.0
 10
2.250789972159144
 20
0.8466308847200921
 30
0.0
  0
SPLINE
  5
3D6
330
1F
100
AcDbEntity
  8
0
  6
Continuous
 62
     1
370
    15
100
AcDbSpline
210
0.0
220
0.0
230
1.0
 70
     8
 71
     3
 72
    32
 73
    28
 74
     0
 42
0.000000001
 43
0.00000001
 40
0.0
 40
0.0
 40
0.0
 40
0.0
 40
0.1249999999999991
 40
0.1249999999999991
 40
0.1874999999999986
 40
0.1874999999999986
 40
0.2499999999999982
 40
0.2499999999999982
 40
0.3124999999999977
 40
0.3124999999999977
 40
0.3749999999999972
 40
0.3749999999999972
 40
0.4374999999999968
 40
0.4374999999999968
 40
0.4999999999999963
 40
0.4999999999999963
 40
0.5624999999999959
 40
0.5624999999999959
 40
0.6249999999999954
 40
0.6249999999999954
 40
0.7499999999999969
 40
0.7499999999999969
 40
0.8749999999999984
 40
0.8749999999999984
 40
0.9374999999999992
 40
0.9374999999999992
 40
1.0
 40
1.0
 40
1.0
 40
1.0
 10
10.18828997216078
 20
-1.734330891175254
 30
0.0
 10
9.861595461500574
 20
-1.641913367070394
 30
0.0
 10
9.523662899960964
 20
-1.524070394681523
 30
0.0
 10
9.030906571376935
 20
-1.319803430327532
 30
0.0
 10
8.866829069524112
 20
-1.246945348628536
 30
0.0
 10
8.534378596924707
 20
-1.092418217392769
 30
0.0
 10
8.367466628251453
 20
-1.010953053627951
 30
0.0
 10
8.037463425642525
 20
-0.8422112456888655
 30
0.0
 10
7.874571411667663
 20
-0.7550012220915718
 30
0.0
 10
7.542768876009138
 20
-0.5748856906302748
 30
0.0
 10
7.375719502672272
 20
-0.4822958939157687
 30
0.0
 10
7.044532849891535
 20
-0.2949460197979832
 30
0.0
 10
6.881939175377855
 20
-0.2004935625371402
 30
0.0
 10
6.551105917460699
 20
-0.0097803022819036
 30
0.0
 10
6.384083531047626
 20
0.086250243293442
 30
0.0
 10
6.05203277676166
 20
0.2766643881123585
 30
0.0
 10
5.88884933484081
 20
0.3706973706671945
 30
0.0
 10
5.559303562284025
 20
0.5561570055973206
 30
0.0
 10
5.392472465454023
 20
0.6476574305565705
 30
0.0
 10
4.893583399218333
 20
0.9141391309443421
 30
0.0
 10
4.567205356335801
 20
1.08042742513576
 30
0.0
 10
3.901583828265014
 20
1.380675406578156
 30
0.0
 10
3.575332027370582
 20
1.512671967503017
 30
0.0
 10
3.076275719170997
 20
1.677853408235684
 30
0.0
 10
2.909548162327436
 20
1.727266331610402
 30
0.0
 10
2.580517430563443
 20
1.813389616689356
 30
0.0
 10
2.416926662857218
 20
1.850262769932208
 30
0.0
 10
2.250789972159122
 20
1.880759943766314
 30
0.0
  0
LINE
  5
3D7
330
1F
100
AcDbEntity
  8
0
  6
Continuous
 62
     1
370
    15
100
AcDbLine
 10
10.18828997216078
 20
-1.14028687903798
 30
0.0
 11
10.18828997216078
 21
0.3748437266615312
 31
0.0
  0
SPLINE
  5
3D8
330
1F
100
AcDbEntity
  8
0
  6
Continuous
 62
     1
370
    15
100
AcDbSpline
210
0.0
220
0.0
230
1.0
 70
     8
 71
     3
 72
    18
 73
    14
 74
     0
 42
0.000000001
 43
0.00000001
 40
0.0
 40
0.0
 40
0.0
 40
0.0
 40
0.0405918959195261
 40
0.1394217374022133
 40
0.2383260517824861
 40
0.3368717216275506
 40
0.4356057723073432
 40
0.5345865137523552
 40
0.62749289937115
 40
0.7205945735374097
 40
0.8139050155887054
 40
0.9067893533909583
 40
1.0
 40
1.0
 40
1.0
 40
1.0
 10
2.685384887227979
 20
1.973236578421243
 30
0.0
 10
2.78685469998906
 20
1.975947063312354
 30
0.0
 10
3.135374946914016
 20
1.985256816014463
 30
0.0
 10
3.731620093380673
 20
1.904275184385021
 30
0.0
 10
4.473049674332959
 20
1.736702947142952
 30
0.0
 10
5.213266768583171
 20
1.482350635857877
 30
0.0
 10
5.954142076686001
 20
1.161114125305552
 30
0.0
 10
6.681704471209411
 20
0.7941068370967983
 30
0.0
 10
7.393790851290479
 20
0.3983348831037077
 30
0.0
 10
8.092309691689021
 20
-0.0053246089240062
 30
0.0
 10
8.791441118528976
 20
-0.4066821011165516
 30
0.0
 10
9.489448233793102
 20
-0.7971168016930292
 30
0.0
 10
9.955070577074903
 20
-1.025763213011835
 30
0.0
 10
10.18828997216076
 20
-1.14028687903798
 30
0.0
  0
SPLINE
  5
3D9
330
1F
100
AcDbEntity
  8
0
  6
Continuous
 62
     1
370
    15
100
AcDbSpline
210
0.0
220
0.0
230
1.0
 70
     8
 71
     3
 72
    16
 73
    12
 74
     0
 42
0.000000001
 43
0.00000001
 40
0.0
 40
0.0
 40
0.0
 40
0.0
 40
0.1211732357938676
 40
0.2419461349943325
 40
0.3629938969212623
 40
0.484278640436741
 40
0.6050751096208888
 40
0.7260205414206655
 40
0.8404549203883102
 40
0.9543210440409073
 40
1.0
 40
1.0
 40
1.0
 40
1.0
 10
10.18828997216079
 20
0.3811493179396663
 30
0.0
 10
9.940911082734079
 20
0.5193632085074924
 30
0.0
 10
9.44697060335464
 20
0.7953343535076911
 30
0.0
 10
8.706789246544314
 20
1.169215647489601
 30
0.0
 10
7.965795076418086
 20
1.489343531855503
 30
0.0
 10
7.224188632542617
 20
1.739885706031508
 30
0.0
 10
6.483897892082272
 20
1.910554056567726
 30
0.0
 10
5.757302460103976
 20
1.992001126133367
 30
0.0
 10
5.043828833884671
 20
1.981121096682621
 30
0.0
 10
4.485385158036632
 20
1.920881076965777
 30
0.0
 10
4.159797122050872
 20
1.839246043437235
 30
0.0
 10
4.06657881915616
 20
1.815873319500248
 30
0.0
  0
LINE
  5
3DA
330
1F
100
AcDbEntity
  8
0
  6
Continuous
 62
     1
370
    15
100
AcDbLine
 10
10.18828997216078
 20
-1.734330891175254
 30
0.0
 11
10.18828997216078
 21
-1.14028687903798
 31
0.0
  0
SPLINE
  5
3DC
330
1F
100
AcDbEntity
  8
0
  6
Continuous
 62
     1
370
    15
100
AcDbSpline
210
0.0
220
0.0
230
1.0
 70
     8
 71
     3
 72
    15
 73
    11
 74
     0
 42
0.000000001
 43
0.00000001
 40
0.0
 40
0.0
 40
0.0
 40
0.0
 40
0.0726464084110756
 40
0.2105437740277478
 40
0.3486111905772769
 40
0.4792457985438559
 40
0.6092317045121735
 40
0.7394943995439003
 40
0.8700443439334028
 40
0.9999999999999999
 40
0.9999999999999999
 40
0.9999999999999999
 40
0.9999999999999999
 10
7.613123753385377
 20
-1.972868110499867
 30
0.0
 10
7.483188303031614
 20
-1.974878630798123
 30
0.0
 10
7.106609464575168
 20
-1.980705519430451
 30
0.0
 10
6.483907670693977
 20
-1.889887586642779
 30
0.0
 10
5.757293589437193
 20
-1.714751142450758
 30
0.0
 10
5.043853444158668
 20
-1.465809646434103
 30
0.0
 10
4.34581740058545
 20
-1.160878437071823
 30
0.0
 10
3.647269691167775
 20
-0.8086109594005606
 30
0.0
 10
2.948206371227517
 20
-0.4242592976267829
 30
0.0
 10
2.482908278850243
 20
-0.1550014156810775
 30
0.0
 10
2.250789972159122
 20
-0.0206796021074425
 30
0.0
  0
SPLINE
  5
3DE
330
1F
100
AcDbEntity
  8
0
  6
Continuous
 62
     1
370
    15
100
AcDbSpline
210
0.0
220
0.0
230
1.0
 70
     8
 71
     3
 72
    13
 73
     9
 74
     0
 42
0.000000001
 43
0.00000001
 40
0.0
 40
0.0
 40
0.0
 40
0.0
 40
0.1858610822589438
 40
0.3722708457795403
 40
0.5588210777560138
 40
0.7446948455998612
 40
0.930923931496704
 40
0.9999999999999999
 40
0.9999999999999999
 40
0.9999999999999999
 40
0.9999999999999999
 10
2.250789972159144
 20
-1.445241029844432
 30
0.0
 10
2.497100281787059
 20
-1.53643524174371
 30
0.0
 10
2.990448034716042
 20
-1.71909288034842
 30
0.0
 10
3.731607382519282
 20
-1.894779164225675
 30
0.0
 10
4.473055140018626
 20
-1.989158685221945
 30
0.0
 10
5.21325759709411
 20
-1.984831252393057
 30
0.0
 10
5.798221900011452
 20
-1.925129010938541
 30
0.0
 10
6.136926933990662
 20
-1.839178719929485
 30
0.0
 10
6.228567904516826
 20
-1.815923771538145
 30
0.0
  0
SPLINE
  5
3E0
330
1F
100
AcDbEntity
  8
0
  6
Continuous
 62
     1
370
    15
100
AcDbSpline
210
0.0
220
0.0
230
1.0
 70
     8
 71
     3
 72
    12
 73
     8
 74
     0
 42
0.000000001
 43
0.00000001
 40
0.0
 40
0.0
 40
0.0
 40
0.0
 40
0.1221332727128092
 40
0.3415408004279009
 40
0.5614403197847351
 40
0.7803356630011443
 40
1.0
 40
1.0
 40
1.0
 40
1.0
 10
7.00474819526691
 20
1.974291788143795
 30
0.0
 10
7.134294024162035
 20
1.975753364681971
 30
0.0
 10
7.496563740760646
 20
1.979840604871733
 30
0.0
 10
8.092297503078743
 20
1.896379835333498
 30
0.0
 10
8.791444354934487
 20
1.73462086242764
 30
0.0
 10
9.48944742292414
 20
1.499777997771382
 30
0.0
 10
9.955070306469462
 20
1.294833207020567
 30
0.0
 10
10.18828997216076
 20
1.192181131117131
 30
0.0
  0
LINE
  5
3E1
330
1F
100
AcDbEntity
  8
0
  6
Continuous
 62
     1
370
    15
100
AcDbLine
 10
10.18828997216078
 20
0.3811493179396663
 30
0.0
 11
10.18828997216078
 21
1.192181131117131
 31
0.0
  0
SPLINE
  5
3E2
330
1F
100
AcDbEntity
  8
0
  6
Continuous
 62
     1
370
    15
100
AcDbSpline
210
0.0
220
0.0
230
1.0
 70
     8
 71
     3
 72
    10
 73
     6
 74
     0
 42
0.000000001
 43
0.00000001
 40
0.0
 40
0.0
 40
0.0
 40
0.0
 40
0.412808880664741
 40
0.8242539081656294
 40
1.0
 40
1.0
 40
1.0
 40
1.0
 10
10.18828997216078
 20
1.969894124450782
 30
0.0
 10
9.940904472424844
 20
1.977332938593712
 30
0.0
 10
9.446950794266318
 20
1.992185990251805
 30
0.0
 10
8.848486134002652
 20
1.929218943157004
 30
0.0
 10
8.49671416370268
 20
1.841941949556563
 30
0.0
 10
8.39142893890725
 20
1.815819976612381
 30
0.0
  0
LINE
  5
3E3
330
1F
100
AcDbEntity
  8
0
  6
Continuous
 62
     1
370
    15
100
AcDbLine
 10
10.18828997216078
 20
1.186084762584578
 30
0.0
 11
10.18828997216078
 21
1.969894124450782
 31
0.0
  0
SPLINE
  5
3E4
330
1F
100
AcDbEntity
  8
0
  6
Continuous
 62
     1
370
    15
100
AcDbSpline
210
0.0
220
0.0
230
1.0
 70
     8
 71
     3
 72
     9
 73
     5
 74
     0
 42
0.000000001
 43
0.00000001
 40
0.0
 40
0.0
 40
0.0
 40
0.0
 40
0.3320908198801843
 40
1.0
 40
1.0
 40
1.0
 40
1.0
 10
3.293968199826136
 20
-1.974120479859501
 30
0.0
 10
3.178403681627177
 20
-1.976423214097757
 30
0.0
 10
2.830412977636446
 20
-1.983357263762507
 30
0.0
 10
2.482898249385055
 20
-1.929507435432221
 30
0.0
 10
2.250789972159122
 20
-1.893540640742536
 30
0.0
  0
LINE
  5
3E6
330
1F
100
AcDbEntity
  8
0
  6
Continuous
 62
     1
370
    15
100
AcDbLine
 10
10.18828997216078
 20
1.969894124450782
 30
0.0
 11
10.18828997216078
 21
1.984375000000007
 31
0.0
  0
LINE
  5
3F4
330
1F
100
AcDbEntity
  8
외형선
  6
Continuous
370
    15
100
AcDbLine
 10
-40.61171002783922
 20
-2.063749999999992
 30
0.0
 11
-40.61171002783922
 21
-0.0000000000000071
 31
0.0
  0
LINE
  5
3F6
330
1F
100
AcDbEntity
  8
중심선
 62
     1
100
AcDbLine
 10
-43.61171002783922
 20
-0.0000000000000071
 30
0.0
 11
13.18828997216076
 21
-0.0000000000000071
 31
0.0
  0
CIRCLE
  5
3F7
330
1F
100
AcDbEntity
  8
해칭선
100
AcDbCircle
 10
0.0000000000000036
 20
0.0000000000000071
 30
0.0
 40
3.000000000000001
  0
DIMENSION
  5
3F8
330
1F
100
AcDbEntity
  8
치수문자_일반주서
100
AcDbDimension
  2
*D22
 10
23.48950347340983
 20
-1.984374999999943
 30
0.0
 11
23.48950347340974
 21
23.01139412445084
 31
0.0
 70
   160
  1
%%c<>
 71
     2
 42
3.954269124450775
 52
-270.0
  3
SLDDIMSTYLE0
100
AcDbAlignedDimension
 13
10.18828997216078
 23
1.969894124450782
 33
0.0
 14
10.18828997216078
 24
-1.984374999999993
 34
0.0
 50
90.0000000000002
100
AcDbRotatedDimension
1001
ACAD
1000
DSTYLE
1002
{
1070
   171
1070
     6
1070
   273
1070
     5
1002
}
  0
DIMENSION
  5
3F9
330
1F
100
AcDbEntity
  8
치수문자_일반주서
100
AcDbDimension
  2
*D23
 10
2.250789972160778
 20
22.54333668153001
 30
0.0
 11
-17.04071002783922
 21
22.54333668153001
 31
0.0
 70
   160
  1
<>
 71
     2
 42
7.937499999999996
  3
SLDDIMSTYLE0
100
AcDbAlignedDimension
 13
10.18828997216078
 23
1.575915299560627
 33
0.0
 14
2.250789972160778
 24
1.984375000000007
 34
0.0
 50
0.000000000000545
100
AcDbRotatedDimension
1001
ACAD
1000
DSTYLE
1002
{
1070
   171
1070
     6
1070
   273
1070
     5
1002
}
  0
DIMENSION
  5
3FA
330
1F
100
AcDbEntity
  8
치수문자_일반주서
100
AcDbDimension
  2
*D24
 10
-40.61171002783922
 20
33.16115029984812
 30
0.0
 11
-15.21171002783921
 21
33.16115029984812
 31
0.0
 70
   160
  1
<>
 71
     2
 42
50.8
  3
SLDDIMSTYLE0
100
AcDbAlignedDimension
 13
10.18828997216078
 23
1.575915299560627
 33
0.0
 14
-40.61171002783922
 24
2.063749999999992
 34
0.0
100
AcDbRotatedDimension
1001
ACAD
1000
DSTYLE
1002
{
1070
   171
1070
     6
1070
   273
1070
     5
1002
}
  0
DIMENSION
  5
3FB
330
1F
100
AcDbEntity
  8
치수문자_일반주서
100
AcDbDimension
  2
*D25
 10
-47.77046615304109
 20
-2.38125000000003
 30
0.0
 11
-47.77046615304117
 21
23.42274999999997
 31
0.0
 70
   160
  1
%%c<>
 71
     2
 42
4.762500000000003
 52
-270.0
  3
SLDDIMSTYLE0
100
AcDbAlignedDimension
 13
-40.29421002783923
 23
2.381250000000001
 33
0.0
 14
-40.29421002783923
 24
-2.381250000000001
 34
0.0
 50
90.0000000000002
100
AcDbRotatedDimension
1001
ACAD
1000
DSTYLE
1002
{
1070
   171
1070
     6
1070
   273
1070
     5
1002
}
  0
INSERT
  5
3FC
330
1F
100
AcDbEntity
  8
해칭선
100
AcDbBlockReference
  2
SW_DOWELSYMBOL_0
 10
0.0000000000000036
 20
0.0000000000000071
 30
0.0
  0
LINE
  5
511
330
1F
100
AcDbEntity
  8
외형선
  6
Continuous
370
    15
100
AcDbLine
 10
2.250789972160778
 20
1.984375000000007
 30
0.0
 11
2.250789972160778
 21
-1.984374999999993
 31
0.0
  0
LINE
  5
515
330
1F
100
AcDbEntity
  8
외형선
  6
Continuous
370
    15
100
AcDbLine
 10
-40.29421002783923
 20
2.381250000000001
 30
0.0
 11
-40.29421002783923
 21
-2.381250000000001
 31
0.0
  0
LINE
  5
516
330
1F
100
AcDbEntity
  8
외형선
  6
Continuous
370
    15
100
AcDbLine
 10
-40.61171002783922
 20
-0.0000000000000071
 30
0.0
 11
-40.61171002783922
 21
2.063749999999992
 31
0.0
  0
LINE
  5
517
330
1F
100
AcDbEntity
  8
외형선
  6
Continuous
370
    15
100
AcDbLine
 10
2.250789972160778
 20
1.984375000000007
 30
0.0
 11
0.0000000000000462
 21
2.381250000000001
 31
0.0
  0
LINE
  5
518
330
1F
100
AcDbEntity
  8
외형선
  6
Continuous
370
    15
100
AcDbLine
 10
2.250789972160778
 20
-1.984374999999993
 30
0.0
 11
-0.0000000000000391
 21
-2.381250000000001
 31
0.0
  0
LINE
  5
519
330
1F
100
AcDbEntity
  8
외형선
  6
Continuous
370
    15
100
AcDbLine
 10
-0.0000000000000462
 20
-2.381250000000001
 30
0.0
 11
0.0000000000000462
 21
2.381250000000001
 31
0.0
  0
ENDSEC
  0
SECTION
  2
OBJECTS
  0
DICTIONARY
  5
C
330
0
100
AcDbDictionary
281
     1
  3
ACAD_GROUP
350
D
  3
ACAD_IMAGE_VARS
350
154
  3
ACAD_LAYOUT
350
1A
  3
ACAD_MLINESTYLE
350
17
  3
ACAD_PLOTSETTINGS
350
19
  3
ACAD_PLOTSTYLENAME
350
E
  3
ACAD_SCALELIST
350
47
  3
APPDATA
350
152
  3
DWGPROPS
350
51A
  0
DICTIONARY
  5
20E
330
2
100
AcDbDictionary
280
     1
281
     1
  3
ACAD_LAYERSTATES
360
20F
  0
DICTIONARY
  5
D
102
{ACAD_REACTORS
330
C
102
}
330
C
100
AcDbDictionary
281
     1
  0
RASTERVARIABLES
  5
154
102
{ACAD_REACTORS
330
C
102
}
330
C
100
AcDbRasterVariables
 90
        0
 70
     1
 71
     1
 72
     1
  0
DICTIONARY
  5
1A
102
{ACAD_REACTORS
330
C
102
}
330
C
100
AcDbDictionary
281
     1
  3
Layout1
350
1E
  3
Layout2
350
26
  3
Model
350
22
  0
DICTIONARY
  5
17
102
{ACAD_REACTORS
330
C
102
}
330
C
100
AcDbDictionary
281
     1
  3
Standard
350
18
  0
DICTIONARY
  5
19
102
{ACAD_REACTORS
330
C
102
}
330
C
100
AcDbDictionary
281
     1
  0
ACDBDICTIONARYWDFLT
  5
E
102
{ACAD_REACTORS
330
C
102
}
330
C
100
AcDbDictionary
281
     1
  3
Normal
350
F
100
AcDbDictionaryWithDefault
340
F
  0
DICTIONARY
  5
47
102
{ACAD_REACTORS
330
C
102
}
330
C
100
AcDbDictionary
281
     1
  3
A0
350
48
  3
A1
350
49
  3
A2
350
4A
  3
A3
350
4B
  3
A4
350
4C
  3
A5
350
4D
  3
A6
350
4E
  3
A7
350
4F
  3
A8
350
50
  3
A9
350
51
  3
B0
350
52
  3
B1
350
53
  3
B2
350
54
  3
B3
350
55
  3
B4
350
56
  3
B5
350
57
  3
B6
350
58
  3
B7
350
59
  3
B8
350
5A
  3
B9
350
5B
  3
C0
350
5C
  3
C1
350
5D
  3
C2
350
5E
  3
C3
350
5F
  3
C4
350
60
  3
C5
350
61
  3
C6
350
62
  3
C7
350
63
  3
C8
350
64
  3
C9
350
65
  3
D0
350
66
  3
D1
350
67
  3
D2
350
68
  0
DICTIONARY
  5
152
102
{ACAD_REACTORS
330
C
102
}
330
C
100
AcDbDictionary
281
     1
  0
XRECORD
  5
51A
102
{ACAD_REACTORS
330
C
102
}
330
C
100
AcDbXrecord
280
     1
  1
DWGPROPS COOKIE
  2

  3

  4

  6

  7

  8
12016016
  9

300
=
301
=
302
=
303
=
304
=
305
=
306
=
307
=
308
=
309
=
 40
0.0
 41
2458316.067634433
 42
2458330.034623357
  1

 90
        0
  0
DICTIONARY
  5
20F
102
{ACAD_REACTORS
330
20E
102
}
330
20E
100
AcDbDictionary
281
     1
  0
LAYOUT
  5
1E
102
{ACAD_REACTORS
330
1A
102
}
330
1A
100
AcDbPlotSettings
  1

  2
none_device
  4

  6

 40
0.0
 41
0.0
 42
0.0
 43
0.0
 44
0.0
 45
0.0
 46
0.0
 47
0.0
 48
0.0
 49
0.0
140
0.0
141
0.0
142
1.0
143
1.0
 70
   688
 72
     1
 73
     0
 74
     5
  7

 75
    16
147
1.0
148
0.0
149
0.0
100
AcDbLayout
  1
Layout1
 70
     1
 71
     1
 10
0.0
 20
0.0
 11
420.0
 21
297.0
 12
0.0
 22
0.0
 32
0.0
 14
1.000000000000000E+20
 24
1.000000000000000E+20
 34
1.000000000000000E+20
 15
-1.000000000000000E+20
 25
-1.000000000000000E+20
 35
-1.000000000000000E+20
146
0.0
 13
0.0
 23
0.0
 33
0.0
 16
1.0
 26
0.0
 36
0.0
 17
0.0
 27
1.0
 37
0.0
 76
     0
330
1B
  0
LAYOUT
  5
26
102
{ACAD_REACTORS
330
1A
102
}
330
1A
100
AcDbPlotSettings
  1

  2
none_device
  4

  6

 40
0.0
 41
0.0
 42
0.0
 43
0.0
 44
0.0
 45
0.0
 46
0.0
 47
0.0
 48
0.0
 49
0.0
140
0.0
141
0.0
142
1.0
143
1.0
 70
   688
 72
     1
 73
     0
 74
     5
  7

 75
    16
147
1.0
148
0.0
149
0.0
100
AcDbLayout
  1
Layout2
 70
     1
 71
     2
 10
0.0
 20
0.0
 11
0.0
 21
0.0
 12
0.0
 22
0.0
 32
0.0
 14
0.0
 24
0.0
 34
0.0
 15
0.0
 25
0.0
 35
0.0
146
0.0
 13
0.0
 23
0.0
 33
0.0
 16
1.0
 26
0.0
 36
0.0
 17
0.0
 27
1.0
 37
0.0
 76
     0
330
23
  0
LAYOUT
  5
22
102
{ACAD_REACTORS
330
1A
102
}
330
1A
100
AcDbPlotSettings
  1

  2
none_device
  4
ANSI_A_(11.00_x_8.50_Inches)
  6

 40
6.35
 41
19.05
 42
6.35000508
 43
19.05000254
 44
279.4
 45
215.9
 46
79.09534670769695
 47
83.67269558755679
 48
0.0
 49
0.0
140
0.0
141
0.0
142
0.0789061318685744
143
1.0
 70
  1696
 72
     0
 73
     0
 74
     0
  7

 75
     0
147
0.0235690232323232
148
0.0
149
0.0
100
AcDbLayout
  1
Model
 70
     1
 71
     0
 10
0.0
 20
0.0
 11
420.0
 21
297.0
 12
0.0
 22
0.0
 32
0.0
 14
1.000000000000000E+20
 24
1.000000000000000E+20
 34
1.000000000000000E+20
 15
-1.000000000000000E+20
 25
-1.000000000000000E+20
 35
-1.000000000000000E+20
146
0.0
 13
0.0
 23
0.0
 33
0.0
 16
1.0
 26
0.0
 36
0.0
 17
0.0
 27
1.0
 37
0.0
 76
     0
330
1F
331
29
  0
MLINESTYLE
  5
18
102
{ACAD_REACTORS
330
17
102
}
330
17
100
AcDbMlineStyle
  2
Standard
 70
     0
  3

 62
   256
 51
90.0
 52
90.0
 71
     2
 49
0.5
 62
   256
  6
BYLAYER
 49
-0.5
 62
   256
  6
BYLAYER
  0
ACDBPLACEHOLDER
  5
F
102
{ACAD_REACTORS
330
E
102
}
330
E
  0
SCALE
  5
48
102
{ACAD_REACTORS
330
47
102
}
330
47
100
AcDbScale
 70
     0
300
1:1
140
1.0
141
1.0
290
     1
  0
SCALE
  5
49
102
{ACAD_REACTORS
330
47
102
}
330
47
100
AcDbScale
 70
     0
300
1:2
140
1.0
141
2.0
290
     0
  0
SCALE
  5
4A
102
{ACAD_REACTORS
330
47
102
}
330
47
100
AcDbScale
 70
     0
300
1:4
140
1.0
141
4.0
290
     0
  0
SCALE
  5
4B
102
{ACAD_REACTORS
330
47
102
}
330
47
100
AcDbScale
 70
     0
300
1:5
140
1.0
141
5.0
290
     0
  0
SCALE
  5
4C
102
{ACAD_REACTORS
330
47
102
}
330
47
100
AcDbScale
 70
     0
300
1:8
140
1.0
141
8.0
290
     0
  0
SCALE
  5
4D
102
{ACAD_REACTORS
330
47
102
}
330
47
100
AcDbScale
 70
     0
300
1:10
140
1.0
141
10.0
290
     0
  0
SCALE
  5
4E
102
{ACAD_REACTORS
330
47
102
}
330
47
100
AcDbScale
 70
     0
300
1:16
140
1.0
141
16.0
290
     0
  0
SCALE
  5
4F
102
{ACAD_REACTORS
330
47
102
}
330
47
100
AcDbScale
 70
     0
300
1:20
140
1.0
141
20.0
290
     0
  0
SCALE
  5
50
102
{ACAD_REACTORS
330
47
102
}
330
47
100
AcDbScale
 70
     0
300
1:30
140
1.0
141
30.0
290
     0
  0
SCALE
  5
51
102
{ACAD_REACTORS
330
47
102
}
330
47
100
AcDbScale
 70
     0
300
1:40
140
1.0
141
40.0
290
     0
  0
SCALE
  5
52
102
{ACAD_REACTORS
330
47
102
}
330
47
100
AcDbScale
 70
     0
300
1:50
140
1.0
141
50.0
290
     0
  0
SCALE
  5
53
102
{ACAD_REACTORS
330
47
102
}
330
47
100
AcDbScale
 70
     0
300
1:100
140
1.0
141
100.0
290
     0
  0
SCALE
  5
54
102
{ACAD_REACTORS
330
47
102
}
330
47
100
AcDbScale
 70
     0
300
2:1
140
2.0
141
1.0
290
     0
  0
SCALE
  5
55
102
{ACAD_REACTORS
330
47
102
}
330
47
100
AcDbScale
 70
     0
300
4:1
140
4.0
141
1.0
290
     0
  0
SCALE
  5
56
102
{ACAD_REACTORS
330
47
102
}
330
47
100
AcDbScale
 70
     0
300
8:1
140
8.0
141
1.0
290
     0
  0
SCALE
  5
57
102
{ACAD_REACTORS
330
47
102
}
330
47
100
AcDbScale
 70
     0
300
10:1
140
10.0
141
1.0
290
     0
  0
SCALE
  5
58
102
{ACAD_REACTORS
330
47
102
}
330
47
100
AcDbScale
 70
     0
300
100:1
140
100.0
141
1.0
290
     0
  0
SCALE
  5
59
102
{ACAD_REACTORS
330
47
102
}
330
47
100
AcDbScale
 70
     0
300
1/128" = 1'-0"
140
0.0078125
141
12.0
290
     0
  0
SCALE
  5
5A
102
{ACAD_REACTORS
330
47
102
}
330
47
100
AcDbScale
 70
     0
300
1/64" = 1'-0"
140
0.015625
141
12.0
290
     0
  0
SCALE
  5
5B
102
{ACAD_REACTORS
330
47
102
}
330
47
100
AcDbScale
 70
     0
300
1/32" = 1'-0"
140
0.03125
141
12.0
290
     0
  0
SCALE
  5
5C
102
{ACAD_REACTORS
330
47
102
}
330
47
100
AcDbScale
 70
     0
300
1/16" = 1'-0"
140
0.0625
141
12.0
290
     0
  0
SCALE
  5
5D
102
{ACAD_REACTORS
330
47
102
}
330
47
100
AcDbScale
 70
     0
300
3/32" = 1'-0"
140
0.09375
141
12.0
290
     0
  0
SCALE
  5
5E
102
{ACAD_REACTORS
330
47
102
}
330
47
100
AcDbScale
 70
     0
300
1/8" = 1'-0"
140
0.125
141
12.0
290
     0
  0
SCALE
  5
5F
102
{ACAD_REACTORS
330
47
102
}
330
47
100
AcDbScale
 70
     0
300
3/16" = 1'-0"
140
0.1875
141
12.0
290
     0
  0
SCALE
  5
60
102
{ACAD_REACTORS
330
47
102
}
330
47
100
AcDbScale
 70
     0
300
1/4" = 1'-0"
140
0.25
141
12.0
290
     0
  0
SCALE
  5
61
102
{ACAD_REACTORS
330
47
102
}
330
47
100
AcDbScale
 70
     0
300
3/8" = 1'-0"
140
0.375
141
12.0
290
     0
  0
SCALE
  5
62
102
{ACAD_REACTORS
330
47
102
}
330
47
100
AcDbScale
 70
     0
300
1/2" = 1'-0"
140
0.5
141
12.0
290
     0
  0
SCALE
  5
63
102
{ACAD_REACTORS
330
47
102
}
330
47
100
AcDbScale
 70
     0
300
3/4" = 1'-0"
140
0.75
141
12.0
290
     0
  0
SCALE
  5
64
102
{ACAD_REACTORS
330
47
102
}
330
47
100
AcDbScale
 70
     0
300
1" = 1'-0"
140
1.0
141
12.0
290
     0
  0
SCALE
  5
65
102
{ACAD_REACTORS
330
47
102
}
330
47
100
AcDbScale
 70
     0
300
1-1/2" = 1'-0"
140
1.5
141
12.0
290
     0
  0
SCALE
  5
66
102
{ACAD_REACTORS
330
47
102
}
330
47
100
AcDbScale
 70
     0
300
3" = 1'-0"
140
3.0
141
12.0
290
     0
  0
SCALE
  5
67
102
{ACAD_REACTORS
330
47
102
}
330
47
100
AcDbScale
 70
     0
300
6" = 1'-0"
140
6.0
141
12.0
290
     0
  0
SCALE
  5
68
102
{ACAD_REACTORS
330
47
102
}
330
47
100
AcDbScale
 70
     0
300
1'-0" = 1'-0"
140
12.0
141
12.0
290
     0
  0
ENDSEC
  0
EOF
